999
DXF file: 2j3_c_001.dxf
999
Pro/ENGINEER 2016360 by Parametric Technology Corporation
  0
SECTION
  2
HEADER
  9
$ACADVER
  1
AC1014
  9
$DWGCODEPAGE
  3
ANSI_1252
  9
$EXTMAX
 10
420.0
 20
297.0
 30
0.0
  9
$EXTMIN
 10
0.0
 20
0.0
 30
0.0
  9
$LIMMIN
 10
0.0
 20
0.0
  9
$LIMMAX
 10
420.0
 20
297.0
  9
$VIEWCTR
 10
210.0
 20
148.5
  9
$VIEWSIZE
 40
297.0
  9
$CLAYER
  8
0
  9
$LTSCALE
 40
23.1
  9
$CELTYPE
  6
BYLAYER
  9
$DIMSCALE
 40
1.0
  9
$DIMASZ
 40
2.5
  9
$DIMEXO
 40
0.75
  9
$DIMDLI
 40
15.96
  9
$DIMEXE
 40
0.75
  9
$DIMCEN
 40
3.78
  9
$DIMLFAC
 40
1.0
  9
$DIMBLK
  1
_CLOSED
  9
$DIMALT
 70
0
  9
$DIMALTF
 40
25.4
  9
$DIMTXT
 40
3.0
  9
$DIMTOL
 70
1
  9
$DIMLIM
 70
0
  9
$DIMTFAC
 40
1.0
  9
$DIMTP
 40
0.01
  9
$DIMTM
 40
0.01
  9
$DIMGAP
 40
0.625
  9
$AUNITS
 70
0
  9
$PDMODE
 70
3
  9
$PDSIZE
 40
0.3125
  9
$HANDSEED
  5
475
  9
$TILEMODE
 70
1
  9
$MEASUREMENT
 70
1
  0
ENDSEC
  0
SECTION
  2
CLASSES
  0
ENDSEC
  0
SECTION
  2
TABLES
  0
TABLE
  2
VPORT
  5
8
100
AcDbSymbolTable
 70
2
  0
VPORT
  5
1F4
100
AcDbSymbolTableRecord
100
AcDbViewportTableRecord
  2
*ACTIVE
 70
0
 10
0.0
 20
0.0
 11
1.0
 21
1.0
 12
210.0
 22
148.5
 13
0.0
 23
0.0
 14
1.0
 24
1.0
 15
0.0
 25
0.0
 16
0.0
 26
0.0
 36
1.0
 17
0.0
 27
0.0
 37
0.0
 40
297.0
 41
1.4141414141
 42
50.0
 43
0.0
 44
0.0
 50
0.0
 51
0.0
 71
0
 72
100
 73
1
 74
1
 75
0
 76
0
 77
0
 78
0
  0
ENDTAB
  0
TABLE
  2
LTYPE
  5
5
100
AcDbSymbolTable
 70
6
  0
LTYPE
  5
14
100
AcDbSymbolTableRecord
100
AcDbLinetypeTableRecord
  2
BYBLOCK
 70
0
  3

 72
65
 73
0
 40
0.0
  0
LTYPE
  5
15
100
AcDbSymbolTableRecord
100
AcDbLinetypeTableRecord
  2
BYLAYER
 70
0
  3

 72
65
 73
0
 40
0.0
  0
LTYPE
  5
16
100
AcDbSymbolTableRecord
100
AcDbLinetypeTableRecord
  2
CONTINUOUS
 70
64
  3
Solid line
 72
65
 73
0
 40
0.0
  0
LTYPE
  5
1F5
100
AcDbSymbolTableRecord
100
AcDbLinetypeTableRecord
  2
CENTER
 70
64
  3
____ _ ____ _ ____ _ ____ _ ____ _ ____ _ ____
 72
65
 73
4
 40
0.6
 49
0.375
 74
0
 49
-0.075
 74
0
 49
0.075
 74
0
 49
-0.075
 74
0
  0
LTYPE
  5
1F6
100
AcDbSymbolTableRecord
100
AcDbLinetypeTableRecord
  2
HIDDEN
 70
64
  3
- - - - - - - - - - - - - - - - - - - -
 72
65
 73
2
 40
0.2
 49
0.1
 74
0
 49
-0.1
 74
0
  0
LTYPE
  5
1F7
100
AcDbSymbolTableRecord
100
AcDbLinetypeTableRecord
  2
PHANTOM
 70
64
  3
_____ _ _ _____ _ _ _____ _ _ _____
 72
65
 73
6
 40
0.8
 49
0.45
 74
0
 49
-0.05
 74
0
 49
0.1
 74
0
 49
-0.05
 74
0
 49
0.1
 74
0
 49
-0.05
 74
0
  0
LTYPE
  5
1F8
100
AcDbSymbolTableRecord
100
AcDbLinetypeTableRecord
  2
DOT
 70
64
  3
. . . . . . . . . . . . . . . . . . . .
 72
65
 73
2
 40
0.2
 49
0.1
 74
0
 49
-0.1
 74
0
  0
LTYPE
  5
1F9
100
AcDbSymbolTableRecord
100
AcDbLinetypeTableRecord
  2
DASHED
 70
64
  3
- - - - - - - - - - - - - - - - - - - -
 72
65
 73
2
 40
0.2
 49
0.1
 74
0
 49
-0.1
 74
0
  0
ENDTAB
  0
TABLE
  2
LAYER
  5
2
100
AcDbSymbolTable
 70
36
  0
LAYER
  5
10
100
AcDbSymbolTableRecord
100
AcDbLayerTableRecord
  2
0
 70
0
 62
7
  6
CONTINUOUS
  0
LAYER
  5
1FA
100
AcDbSymbolTableRecord
100
AcDbLayerTableRecord
  2
DEFAULT_1
 70
0
 62
7
  6
CENTER
  0
LAYER
  5
1FB
100
AcDbSymbolTableRecord
100
AcDbLayerTableRecord
  2
DEFAULT_2
 70
0
 62
8
  6
HIDDEN
  0
LAYER
  5
1FC
100
AcDbSymbolTableRecord
100
AcDbLayerTableRecord
  2
DEFAULT_3
 70
0
 62
7
  6
PHANTOM
  0
LAYER
  5
1FD
100
AcDbSymbolTableRecord
100
AcDbLayerTableRecord
  2
01_ALL_DTM_PLN
 70
0
 62
7
  6
CONTINUOUS
  0
LAYER
  5
1FE
100
AcDbSymbolTableRecord
100
AcDbLayerTableRecord
  2
01__ASM_ALL_DTM_PLN
 70
0
 62
7
  6
CONTINUOUS
  0
LAYER
  5
1FF
100
AcDbSymbolTableRecord
100
AcDbLayerTableRecord
  2
01__ASM_DEF_DTM_PLN
 70
0
 62
7
  6
CONTINUOUS
  0
LAYER
  5
200
100
AcDbSymbolTableRecord
100
AcDbLayerTableRecord
  2
01___PRT_ALL_DTM_PLN
 70
0
 62
7
  6
CONTINUOUS
  0
LAYER
  5
201
100
AcDbSymbolTableRecord
100
AcDbLayerTableRecord
  2
01___PRT_DEF_DTM_PLN
 70
0
 62
7
  6
CONTINUOUS
  0
LAYER
  5
202
100
AcDbSymbolTableRecord
100
AcDbLayerTableRecord
  2
02_ALL_AXES
 70
0
 62
7
  6
CONTINUOUS
  0
LAYER
  5
203
100
AcDbSymbolTableRecord
100
AcDbLayerTableRecord
  2
02__ASM_ALL_AXES
 70
0
 62
7
  6
CONTINUOUS
  0
LAYER
  5
204
100
AcDbSymbolTableRecord
100
AcDbLayerTableRecord
  2
02___PRT_ALL_AXES
 70
0
 62
7
  6
CONTINUOUS
  0
LAYER
  5
205
100
AcDbSymbolTableRecord
100
AcDbLayerTableRecord
  2
03_ALL_CURVES
 70
0
 62
7
  6
CONTINUOUS
  0
LAYER
  5
206
100
AcDbSymbolTableRecord
100
AcDbLayerTableRecord
  2
03__ASM_ALL_CURVES
 70
0
 62
7
  6
CONTINUOUS
  0
LAYER
  5
207
100
AcDbSymbolTableRecord
100
AcDbLayerTableRecord
  2
03___PRT_ALL_CURVES
 70
0
 62
7
  6
CONTINUOUS
  0
LAYER
  5
208
100
AcDbSymbolTableRecord
100
AcDbLayerTableRecord
  2
04_ALL_DTM_PNT
 70
0
 62
7
  6
CONTINUOUS
  0
LAYER
  5
209
100
AcDbSymbolTableRecord
100
AcDbLayerTableRecord
  2
04__ASM_ALL_DTM_PNT
 70
0
 62
7
  6
CONTINUOUS
  0
LAYER
  5
20A
100
AcDbSymbolTableRecord
100
AcDbLayerTableRecord
  2
04___PRT_ALL_DTM_PNT
 70
0
 62
7
  6
CONTINUOUS
  0
LAYER
  5
20B
100
AcDbSymbolTableRecord
100
AcDbLayerTableRecord
  2
05_ALL_DTM_CSYS
 70
0
 62
7
  6
CONTINUOUS
  0
LAYER
  5
20C
100
AcDbSymbolTableRecord
100
AcDbLayerTableRecord
  2
05__ASM_ALL_DTM_CSYS
 70
0
 62
7
  6
CONTINUOUS
  0
LAYER
  5
20D
100
AcDbSymbolTableRecord
100
AcDbLayerTableRecord
  2
05__ASM_DEF_DTM_CSYS
 70
0
 62
7
  6
CONTINUOUS
  0
LAYER
  5
20E
100
AcDbSymbolTableRecord
100
AcDbLayerTableRecord
  2
05___PRT_ALL_DTM_CSYS
 70
0
 62
7
  6
CONTINUOUS
  0
LAYER
  5
20F
100
AcDbSymbolTableRecord
100
AcDbLayerTableRecord
  2
05___PRT_DEF_DTM_CSYS
 70
0
 62
7
  6
CONTINUOUS
  0
LAYER
  5
210
100
AcDbSymbolTableRecord
100
AcDbLayerTableRecord
  2
06_ALL_SURFS
 70
0
 62
7
  6
CONTINUOUS
  0
LAYER
  5
211
100
AcDbSymbolTableRecord
100
AcDbLayerTableRecord
  2
06__ASM_ALL_SURFS
 70
0
 62
7
  6
CONTINUOUS
  0
LAYER
  5
212
100
AcDbSymbolTableRecord
100
AcDbLayerTableRecord
  2
06___PRT_ALL_SURFS
 70
0
 62
7
  6
CONTINUOUS
  0
LAYER
  5
213
100
AcDbSymbolTableRecord
100
AcDbLayerTableRecord
  2
07__ASM_ALL_SKELETONS
 70
0
 62
7
  6
CONTINUOUS
  0
LAYER
  5
214
100
AcDbSymbolTableRecord
100
AcDbLayerTableRecord
  2
1_ALL_PLANES
 70
0
 62
7
  6
CONTINUOUS
  0
LAYER
  5
215
100
AcDbSymbolTableRecord
100
AcDbLayerTableRecord
  2
2_ALL_CSYS
 70
0
 62
7
  6
CONTINUOUS
  0
LAYER
  5
216
100
AcDbSymbolTableRecord
100
AcDbLayerTableRecord
  2
3_ALL_AXES
 70
0
 62
7
  6
CONTINUOUS
  0
LAYER
  5
217
100
AcDbSymbolTableRecord
100
AcDbLayerTableRecord
  2
4_ALL_POINTS
 70
0
 62
7
  6
CONTINUOUS
  0
LAYER
  5
218
100
AcDbSymbolTableRecord
100
AcDbLayerTableRecord
  2
5_ALL_CURVES
 70
0
 62
7
  6
CONTINUOUS
  0
LAYER
  5
219
100
AcDbSymbolTableRecord
100
AcDbLayerTableRecord
  2
6_ALL_SURFS
 70
0
 62
7
  6
CONTINUOUS
  0
LAYER
  5
21A
100
AcDbSymbolTableRecord
100
AcDbLayerTableRecord
  2
7_ALL_FEATURES
 70
0
 62
7
  6
CONTINUOUS
  0
LAYER
  5
21B
100
AcDbSymbolTableRecord
100
AcDbLayerTableRecord
  2
9_SOLID
 70
0
 62
7
  6
CONTINUOUS
  0
LAYER
  5
21C
100
AcDbSymbolTableRecord
100
AcDbLayerTableRecord
  2
INTFCLR_2
 70
0
 62
7
  6
CONTINUOUS
  0
LAYER
  5
21D
100
AcDbSymbolTableRecord
100
AcDbLayerTableRecord
  2
INTFCLR_3
 70
0
 62
7
  6
CONTINUOUS
  0
LAYER
  5
21E
100
AcDbSymbolTableRecord
100
AcDbLayerTableRecord
  2
INTF_CYAN
 70
0
 62
7
  6
CONTINUOUS
  0
LAYER
  5
21F
100
AcDbSymbolTableRecord
100
AcDbLayerTableRecord
  2
XSEC_DATUMS
 70
0
 62
7
  6
CONTINUOUS
  0
LAYER
  5
220
100
AcDbSymbolTableRecord
100
AcDbLayerTableRecord
  2
XXX_SOLIDO
 70
0
 62
7
  6
CONTINUOUS
  0
ENDTAB
  0
TABLE
  2
STYLE
  5
3
100
AcDbSymbolTable
 70
1
  0
STYLE
  5
11
100
AcDbSymbolTableRecord
100
AcDbTextStyleTableRecord
  2
STANDARD
 70
0
 40
0.0
 41
1.0
 50
0.0
 71
0
 42
0.2
  3
arial.ttf
  4

  0
STYLE
  5
221
100
AcDbSymbolTableRecord
100
AcDbTextStyleTableRecord
  2
TEXTSTYLE_1
 70
0
 40
0.0
 41
0.8
 50
0.0
 71
0
 42
0.2
  3
gdt
  4

  0
STYLE
  5
222
100
AcDbSymbolTableRecord
100
AcDbTextStyleTableRecord
  2
TEXTSTYLE_2
 70
0
 40
0.0
 41
0.85
 50
0.0
 71
0
 42
0.2
  3
gdt
  4

  0
STYLE
  5
223
100
AcDbSymbolTableRecord
100
AcDbTextStyleTableRecord
  2
TEXTSTYLE_3
 70
0
 40
0.0
 41
0.85
 50
0.0
 71
0
 42
0.2
  3
txt
  4

  0
ENDTAB
  0
TABLE
  2
VIEW
  5
6
100
AcDbSymbolTable
 70
0
  0
ENDTAB
  0
TABLE
  2
UCS
  5
7
100
AcDbSymbolTable
 70
0
  0
ENDTAB
  0
TABLE
  2
APPID
  5
9
100
AcDbSymbolTable
 70
1
  0
APPID
  5
224
100
AcDbSymbolTableRecord
100
AcDbRegAppTableRecord
  2
ACAD
 70
0
  0
ENDTAB
  0
TABLE
  2
BLOCK_RECORD
  5
1
100
AcDbSymbolTable
 70
0
  0
BLOCK_RECORD
  5
1F
100
AcDbSymbolTableRecord
100
AcDbBlockTableRecord
  2
*MODEL_SPACE
  0
BLOCK_RECORD
  5
1B
100
AcDbSymbolTableRecord
100
AcDbBlockTableRecord
  2
*PAPER_SPACE
  0
BLOCK_RECORD
  5
225
100
AcDbSymbolTableRecord
100
AcDbBlockTableRecord
  2
_CLOSED
  0
BLOCK_RECORD
  5
226
100
AcDbSymbolTableRecord
100
AcDbBlockTableRecord
  2
*D0
  0
BLOCK_RECORD
  5
227
100
AcDbSymbolTableRecord
100
AcDbBlockTableRecord
  2
*D1
  0
BLOCK_RECORD
  5
228
100
AcDbSymbolTableRecord
100
AcDbBlockTableRecord
  2
*D2
  0
BLOCK_RECORD
  5
229
100
AcDbSymbolTableRecord
100
AcDbBlockTableRecord
  2
*D3
  0
BLOCK_RECORD
  5
22A
100
AcDbSymbolTableRecord
100
AcDbBlockTableRecord
  2
*D4
  0
BLOCK_RECORD
  5
22B
100
AcDbSymbolTableRecord
100
AcDbBlockTableRecord
  2
LOGO2_BL0
  0
ENDTAB
  0
TABLE
  2
DIMSTYLE
  5
A
100
AcDbSymbolTable
 70
1
  0
DIMSTYLE
105
22C
100
AcDbSymbolTableRecord
100
AcDbDimStyleTableRecord
  2
STANDARD
 70
0
  3

  4

  5
_CLOSED
  6
_CLOSED
  7
_CLOSED
 40
1.0
 41
2.5
 42
0.75
 43
0.38
 44
0.75
 45
0.0
 46
0.0
 47
0.01
 48
0.01
140
3.0
141
0.09
142
0.0
143
25.4
144
1.0
145
0.0
146
1.0
147
0.625
 71
1.0
 72
0.0
 73
0
 74
0
 75
0
 76
0
 77
1
 78
8
 79
2
170
0
171
1
172
0
173
0
174
0
175
0
176
0
177
0
178
0
270
2
179
2
271
2
272
2
273
2
274
2
275
0
280
0
281
0
282
0
283
1
284
8
285
0
286
0
287
3
288
0
340
11
  0
DIMSTYLE
105
22D
100
AcDbSymbolTableRecord
100
AcDbDimStyleTableRecord
  2
DIMSTYLE_1
 70
0
  3
<>
  4

  5
_CLOSED
  6
_CLOSED
  7
_CLOSED
 40
1.0
 41
2.5
 42
0.75
 43
0.38
 44
0.75
 45
0.0
 46
0.0
 47
0.3
 48
0.3
140
3.0
141
0.09
142
0.0
143
25.4
144
1.0
145
0.0
146
1.0
147
0.625
 71
0.0
 72
0.0
 73
0
 74
0
 75
0
 76
0
 77
1
 78
8
 79
2
170
0
171
1
172
1
173
0
174
0
175
0
176
0
177
0
178
0
270
2
179
2
271
2
272
2
273
2
274
2
275
0
280
0
281
0
282
0
283
1
284
8
285
0
286
0
287
3
288
1
340
11
  0
DIMSTYLE
105
22E
100
AcDbSymbolTableRecord
100
AcDbDimStyleTableRecord
  2
DIMSTYLE_2
 70
0
  3

  4

  5
_CLOSED
  6
_CLOSED
  7
_CLOSED
 40
1.0
 41
2.5
 42
0.75
 43
0.38
 44
0.75
 45
0.0
 46
0.0
 47
0.3
 48
0.3
140
3.0
141
0.09
142
0.0
143
25.4
144
1.0
145
0.0
146
1.0
147
0.75
 71
0.0
 72
0.0
 73
0
 74
0
 75
0
 76
0
 77
1
 78
8
 79
2
170
0
171
1
172
0
173
0
174
0
175
0
176
0
177
0
178
0
270
2
179
2
271
2
272
2
273
2
274
2
275
0
280
0
281
0
282
0
283
1
284
8
285
0
286
0
287
3
288
0
340
11
  0
DIMSTYLE
105
22F
100
AcDbSymbolTableRecord
100
AcDbDimStyleTableRecord
  2
DIMSTYLE_3
 70
0
  3

  4

  5
_CLOSED
  6
_CLOSED
  7
_CLOSED
 40
1.0
 41
2.5
 42
0.75
 43
0.38
 44
0.75
 45
0.0
 46
0.0
 47
0.1
 48
0.1
140
3.0
141
0.09
142
0.0
143
25.4
144
1.0
145
0.0
146
1.0
147
0.75
 71
0.0
 72
0.0
 73
0
 74
0
 75
0
 76
0
 77
1
 78
8
 79
2
170
0
171
1
172
0
173
0
174
0
175
0
176
0
177
0
178
0
270
2
179
2
271
2
272
2
273
2
274
2
275
0
280
0
281
0
282
0
283
1
284
8
285
0
286
0
287
3
288
0
340
11
  0
ENDTAB
  0
ENDSEC
  0
SECTION
  2
BLOCKS
  0
BLOCK
  5
20
100
AcDbEntity
  8
0
100
AcDbBlockBegin
  2
*MODEL_SPACE
 70
0
 10
0.0
 20
0.0
 30
0.0
  3
*MODEL_SPACE
  1

  0
ENDBLK
  5
21
100
AcDbEntity
  8
0
100
AcDbBlockEnd
  0
BLOCK
  5
1C
100
AcDbEntity
  8
0
100
AcDbBlockBegin
  2
*PAPER_SPACE
 70
0
 10
0.0
 20
0.0
 30
0.0
  3
*PAPER_SPACE
  1

  0
ENDBLK
  5
1D
100
AcDbEntity
  8
0
100
AcDbBlockEnd
  0
BLOCK
  5
230
100
AcDbEntity
  8
0
100
AcDbBlockBegin
 62
2
  6
CONTINUOUS
  2
LOGO2_BL0
 70
64
 10
333.6475659158
 20
36.9217920391
  3
LOGO2_BL0
  1

  0
LINE
  5
231
100
AcDbEntity
  8
0
100
AcDbLine
 62
7
  6
CONTINUOUS
 10
325.390491144
 20
40.1172833779
 11
324.0861502147
 21
40.1172833779
  0
LINE
  5
232
100
AcDbEntity
  8
0
100
AcDbLine
 62
7
  6
CONTINUOUS
 10
324.0861502147
 20
40.1172833779
 11
324.0861502147
 21
29.6582173181
  0
LINE
  5
233
100
AcDbEntity
  8
0
100
AcDbLine
 62
7
  6
CONTINUOUS
 10
324.0861502147
 20
29.6582173181
 11
328.567205103
 21
29.6582173181
  0
LINE
  5
234
100
AcDbEntity
  8
0
100
AcDbLine
 62
7
  6
CONTINUOUS
 10
328.567205103
 20
29.6582173181
 11
328.567205103
 21
30.8510716431
  0
LINE
  5
235
100
AcDbEntity
  8
0
100
AcDbLine
 62
7
  6
CONTINUOUS
 10
328.567205103
 20
30.8510716431
 11
325.390491144
 21
30.8510716431
  0
LINE
  5
236
100
AcDbEntity
  8
0
100
AcDbLine
 62
7
  6
CONTINUOUS
 10
325.390491144
 20
30.8510716431
 11
325.390491144
 21
40.1172833779
  0
LINE
  5
237
100
AcDbEntity
  8
0
100
AcDbLine
 62
7
  6
CONTINUOUS
 10
340.3268173604
 20
40.1172833779
 11
339.0229998423
 21
40.1172833779
  0
LINE
  5
238
100
AcDbEntity
  8
0
100
AcDbLine
 62
7
  6
CONTINUOUS
 10
339.0229998423
 20
40.1172833779
 11
339.0229998423
 21
29.6582173181
  0
LINE
  5
239
100
AcDbEntity
  8
0
100
AcDbLine
 62
7
  6
CONTINUOUS
 10
339.0229998423
 20
29.6582173181
 11
343.5041855834
 21
29.6582173181
  0
LINE
  5
23A
100
AcDbEntity
  8
0
100
AcDbLine
 62
7
  6
CONTINUOUS
 10
343.5041855834
 20
29.6582173181
 11
343.5041855834
 21
30.8510716431
  0
LINE
  5
23B
100
AcDbEntity
  8
0
100
AcDbLine
 62
7
  6
CONTINUOUS
 10
343.5041855834
 20
30.8510716431
 11
340.3268173604
 21
30.8510716431
  0
LINE
  5
23C
100
AcDbEntity
  8
0
100
AcDbLine
 62
7
  6
CONTINUOUS
 10
340.3268173604
 20
30.8510716431
 11
340.3268173604
 21
40.1172833779
  0
LWPOLYLINE
  5
23D
100
AcDbEntity
  8
0
100
AcDbPolyline
 62
7
  6
CONTINUOUS
 90
2
 70
0
 43
0.2
 10
322.4405451256
 20
26.3146660112
 10
322.4405451256
 20
24.4576027618
  0
LWPOLYLINE
  5
23E
100
AcDbEntity
  8
0
100
AcDbPolyline
 62
7
  6
CONTINUOUS
 90
2
 70
0
 43
0.2
 10
322.4405451256
 20
24.4576027618
 10
323.236261136
 20
24.4576027618
  0
LWPOLYLINE
  5
23F
100
AcDbEntity
  8
0
100
AcDbPolyline
 62
7
  6
CONTINUOUS
 90
2
 70
0
 43
0.2
 10
323.236261136
 20
24.4576027618
 10
323.236261136
 20
24.6695843334
  0
LWPOLYLINE
  5
240
100
AcDbEntity
  8
0
100
AcDbPolyline
 62
7
  6
CONTINUOUS
 90
2
 70
0
 43
0.2
 10
323.236261136
 20
24.6695843334
 10
322.6721546205
 20
24.6695843334
  0
LWPOLYLINE
  5
241
100
AcDbEntity
  8
0
100
AcDbPolyline
 62
7
  6
CONTINUOUS
 90
2
 70
0
 43
0.2
 10
322.6721546205
 20
24.6695843334
 10
322.6721546205
 20
26.3146660112
  0
LWPOLYLINE
  5
242
100
AcDbEntity
  8
0
100
AcDbPolyline
 62
7
  6
CONTINUOUS
 90
2
 70
0
 43
0.2
 10
322.6721546205
 20
26.3146660112
 10
322.4405451256
 20
26.3146660112
  0
SPLINE
  5
243
100
AcDbEntity
  8
0
100
AcDbSpline
 62
7
  6
CONTINUOUS
 70
2
 71
3
 72
35
 73
31
 74
0
 42
0.0000001
 43
0.0000001
 44
0.0000000001
 40
0.0
 40
0.0
 40
0.0
 40
0.0
 40
1.0
 40
1.0
 40
1.0
 40
2.0
 40
2.0
 40
2.0
 40
3.0
 40
3.0
 40
3.0
 40
4.0
 40
4.0
 40
4.0
 40
5.0
 40
5.0
 40
5.0
 40
6.0
 40
6.0
 40
6.0
 40
7.0
 40
7.0
 40
7.0
 40
8.0
 40
8.0
 40
8.0
 40
9.0
 40
9.0
 40
9.0
 40
10.0
 40
10.0
 40
10.0
 40
10.0
 10
324.6345543915
 20
25.6101544177
 30
0.0
 10
324.6345543915
 20
25.6101544177
 30
0.0
 10
324.6345543915
 20
24.9480391385
 30
0.0
 10
324.6345543915
 20
24.9480391385
 30
0.0
 10
324.6345543915
 20
24.6329455432
 30
0.0
 10
324.7824180804
 20
24.4183469152
 30
0.0
 10
325.1225045647
 20
24.4183469152
 30
0.0
 10
325.4620676377
 20
24.4183469152
 30
0.0
 10
325.6101930321
 20
24.6329455432
 30
0.0
 10
325.6101930321
 20
24.9480391385
 30
0.0
 10
325.6101930321
 20
24.9480391385
 30
0.0
 10
325.6101930321
 20
25.6101544177
 30
0.0
 10
325.6101930321
 20
25.6101544177
 30
0.0
 10
325.6101930321
 20
25.6101544177
 30
0.0
 10
325.3881357933
 20
25.6101544177
 30
0.0
 10
325.3881357933
 20
25.6101544177
 30
0.0
 10
325.3881357933
 20
25.6101544177
 30
0.0
 10
325.3881357933
 20
24.9731628803
 30
0.0
 10
325.3881357933
 20
24.9731628803
 30
0.0
 10
325.3881357933
 20
24.7873518732
 30
0.0
 10
325.3414213358
 20
24.6245709626
 30
0.0
 10
325.1225045647
 20
24.6245709626
 30
0.0
 10
324.9030643822
 20
24.6245709626
 30
0.0
 10
324.8563499248
 20
24.7873518732
 30
0.0
 10
324.8563499248
 20
24.9731628803
 30
0.0
 10
324.8563499248
 20
24.9731628803
 30
0.0
 10
324.8563499248
 20
25.6101544177
 30
0.0
 10
324.8563499248
 20
25.6101544177
 30
0.0
 10
324.8563499248
 20
25.6101544177
 30
0.0
 10
324.6345543915
 20
25.6101544177
 30
0.0
 10
324.6345543915
 20
25.6101544177
 30
0.0
  0
SPLINE
  5
244
100
AcDbEntity
  8
0
100
AcDbSpline
 62
7
  6
CONTINUOUS
 70
2
 71
3
 72
35
 73
31
 74
0
 42
0.0000001
 43
0.0000001
 44
0.0000000001
 40
0.0
 40
0.0
 40
0.0
 40
0.0
 40
1.0
 40
1.0
 40
1.0
 40
2.0
 40
2.0
 40
2.0
 40
3.0
 40
3.0
 40
3.0
 40
4.0
 40
4.0
 40
4.0
 40
5.0
 40
5.0
 40
5.0
 40
6.0
 40
6.0
 40
6.0
 40
7.0
 40
7.0
 40
7.0
 40
8.0
 40
8.0
 40
8.0
 40
9.0
 40
9.0
 40
9.0
 40
10.0
 40
10.0
 40
10.0
 40
10.0
 10
328.0333255893
 20
25.5688049259
 30
0.0
 10
327.9448690817
 20
25.6200992322
 30
0.0
 10
327.831419685
 20
25.645222974
 30
0.0
 10
327.72778425
 20
25.645222974
 30
0.0
 10
327.3729113969
 20
25.645222974
 30
0.0
 10
327.0974662066
 20
25.3814236849
 30
0.0
 10
327.0974662066
 20
25.0239337753
 30
0.0
 10
327.0974662066
 20
24.6790057366
 30
0.0
 10
327.3759210118
 20
24.4188703265
 30
0.0
 10
327.7154840848
 20
24.4188703265
 30
0.0
 10
327.831419685
 20
24.4188703265
 30
0.0
 10
327.9321763579
 20
24.4408536006
 30
0.0
 10
328.0333255893
 20
24.4947649632
 30
0.0
 10
328.0333255893
 20
24.4947649632
 30
0.0
 10
328.0333255893
 20
24.7774070587
 30
0.0
 10
328.0333255893
 20
24.7774070587
 30
0.0
 10
327.9494489304
 20
24.6842398494
 30
0.0
 10
327.8459443483
 20
24.6250943739
 30
0.0
 10
327.7178394356
 20
24.6250943739
 30
0.0
 10
327.4841362955
 20
24.6250943739
 30
0.0
 10
327.3188691814
 20
24.7972966876
 30
0.0
 10
327.3188691814
 20
25.0338785897
 30
0.0
 10
327.3188691814
 20
25.2458601613
 30
0.0
 10
327.4866224991
 20
25.437952104
 30
0.0
 10
327.7034456251
 20
25.437952104
 30
0.0
 10
327.8362612394
 20
25.437952104
 30
0.0
 10
327.9448690817
 20
25.3840407413
 30
0.0
 10
328.0333255893
 20
25.2830223628
 30
0.0
 10
328.0333255893
 20
25.2830223628
 30
0.0
 10
328.0333255893
 20
25.5688049259
 30
0.0
 10
328.0333255893
 20
25.5688049259
 30
0.0
  0
SPLINE
  5
245
100
AcDbEntity
  8
0
100
AcDbSpline
 62
7
  6
CONTINUOUS
 70
2
 71
3
 72
32
 73
28
 74
0
 42
0.0000001
 43
0.0000001
 44
0.0000000001
 40
0.0
 40
0.0
 40
0.0
 40
0.0
 40
1.0
 40
1.0
 40
1.0
 40
2.0
 40
2.0
 40
2.0
 40
3.0
 40
3.0
 40
3.0
 40
4.0
 40
4.0
 40
4.0
 40
5.0
 40
5.0
 40
5.0
 40
6.0
 40
6.0
 40
6.0
 40
7.0
 40
7.0
 40
7.0
 40
8.0
 40
8.0
 40
8.0
 40
9.0
 40
9.0
 40
9.0
 40
9.0
 10
330.5651968416
 20
24.9972397996
 30
0.0
 10
330.5651968416
 20
24.9972397996
 30
0.0
 10
330.5651968416
 20
25.0312615333
 30
0.0
 10
330.5651968416
 20
25.0312615333
 30
0.0
 10
330.5651968416
 20
25.3735725156
 30
0.0
 10
330.3923402638
 20
25.645222974
 30
0.0
 10
330.0256906566
 20
25.645222974
 30
0.0
 10
329.6540686422
 20
25.645222974
 30
0.0
 10
329.4643320504
 20
25.3788066284
 30
0.0
 10
329.4643320504
 20
25.0239337753
 30
0.0
 10
329.4643320504
 20
24.6842398494
 30
0.0
 10
329.6784072671
 20
24.4183469152
 30
0.0
 10
330.030532211
 20
24.4183469152
 30
0.0
 10
330.2545522422
 20
24.4183469152
 30
0.0
 10
330.4567198522
 20
24.5340208098
 30
0.0
 10
330.5651968416
 20
24.7334405105
 30
0.0
 10
330.5651968416
 20
24.7334405105
 30
0.0
 10
330.3775538949
 20
24.8402164132
 30
0.0
 10
330.3775538949
 20
24.8402164132
 30
0.0
 10
330.2940697945
 20
24.7015124219
 30
0.0
 10
330.2028653775
 20
24.6156729707
 30
0.0
 10
330.0332801203
 20
24.6156729707
 30
0.0
 10
329.8212985487
 20
24.6156729707
 30
0.0
 10
329.6883520816
 20
24.8004371554
 30
0.0
 10
329.6859967308
 20
24.9972397996
 30
0.0
 10
329.6859967308
 20
24.9972397996
 30
0.0
 10
330.5651968416
 20
24.9972397996
 30
0.0
 10
330.5651968416
 20
24.9972397996
 30
0.0
  0
SPLINE
  5
246
100
AcDbEntity
  8
0
100
AcDbSpline
 62
7
  6
CONTINUOUS
 70
2
 71
3
 72
14
 73
10
 74
0
 42
0.0000001
 43
0.0000001
 44
0.0000000001
 40
0.0
 40
0.0
 40
0.0
 40
0.0
 40
1.0
 40
1.0
 40
1.0
 40
2.0
 40
2.0
 40
2.0
 40
3.0
 40
3.0
 40
3.0
 40
3.0
 10
329.6980351904
 20
25.1647314117
 30
0.0
 10
329.7256451358
 20
25.3296059674
 30
0.0
 10
329.8534883429
 20
25.45260762
 30
0.0
 10
330.0256906566
 20
25.45260762
 30
0.0
 10
330.2028653775
 20
25.45260762
 30
0.0
 10
330.3163147742
 20
25.3369337254
 30
0.0
 10
330.3435321612
 20
25.1647314117
 30
0.0
 10
330.3435321612
 20
25.1647314117
 30
0.0
 10
329.6980351904
 20
25.1647314117
 30
0.0
 10
329.6980351904
 20
25.1647314117
 30
0.0
  0
SPLINE
  5
247
100
AcDbEntity
  8
0
100
AcDbSpline
 62
7
  6
CONTINUOUS
 70
2
 71
3
 72
20
 73
16
 74
0
 42
0.0000001
 43
0.0000001
 44
0.0000000001
 40
0.0
 40
0.0
 40
0.0
 40
0.0
 40
1.0
 40
1.0
 40
1.0
 40
2.0
 40
2.0
 40
2.0
 40
3.0
 40
3.0
 40
3.0
 40
4.0
 40
4.0
 40
4.0
 40
5.0
 40
5.0
 40
5.0
 40
5.0
 10
332.5892282918
 20
25.3740959269
 30
0.0
 10
332.5892282918
 20
25.3740959269
 30
0.0
 10
333.0003678584
 20
24.8716210905
 30
0.0
 10
333.0003678584
 20
24.8716210905
 30
0.0
 10
332.8843014053
 20
24.7559471959
 30
0.0
 10
332.7465133838
 20
24.6256177852
 30
0.0
 10
332.5745727757
 20
24.6256177852
 30
0.0
 10
332.3971363491
 20
24.6256177852
 30
0.0
 10
332.229644737
 20
24.7899689296
 30
0.0
 10
332.229644737
 20
24.9668819449
 30
0.0
 10
332.229644737
 20
25.1448417828
 30
0.0
 10
332.4394018106
 20
25.2709839031
 30
0.0
 10
332.566983312
 20
25.3589169995
 30
0.0
 10
332.566983312
 20
25.3589169995
 30
0.0
 10
332.5892282918
 20
25.3740959269
 30
0.0
 10
332.5892282918
 20
25.3740959269
 30
0.0
  0
SPLINE
  5
248
100
AcDbEntity
  8
0
100
AcDbSpline
 62
7
  6
CONTINUOUS
 70
2
 71
3
 72
23
 73
19
 74
0
 42
0.0000001
 43
0.0000001
 44
0.0000000001
 40
0.0
 40
0.0
 40
0.0
 40
0.0
 40
1.0
 40
1.0
 40
1.0
 40
2.0
 40
2.0
 40
2.0
 40
3.0
 40
3.0
 40
3.0
 40
4.0
 40
4.0
 40
4.0
 40
5.0
 40
5.0
 40
5.0
 40
6.0
 40
6.0
 40
6.0
 40
6.0
 10
332.6385598056
 20
25.6651126029
 30
0.0
 10
332.6385598056
 20
25.6651126029
 30
0.0
 10
332.5769281265
 20
25.7436242961
 30
0.0
 10
332.5769281265
 20
25.7436242961
 30
0.0
 10
332.5230167639
 20
25.8121911748
 30
0.0
 10
332.4662266391
 20
25.8812814648
 30
0.0
 10
332.4662266391
 20
25.9749720853
 30
0.0
 10
332.4662266391
 20
26.0937864477
 30
0.0
 10
332.5621417576
 20
26.1712513183
 30
0.0
 10
332.6731049506
 20
26.1712513183
 30
0.0
 10
332.7963683089
 20
26.1712513183
 30
0.0
 10
332.889666371
 20
26.1000673831
 30
0.0
 10
332.889666371
 20
25.9697379725
 30
0.0
 10
332.889666371
 20
25.8346978602
 30
0.0
 10
332.7615614583
 20
25.7582798122
 30
0.0
 10
332.6680016906
 20
25.6844788206
 30
0.0
 10
332.6680016906
 20
25.6844788206
 30
0.0
 10
332.6385598056
 20
25.6651126029
 30
0.0
 10
332.6385598056
 20
25.6651126029
 30
0.0
  0
SPLINE
  5
249
100
AcDbEntity
  8
0
100
AcDbSpline
 62
7
  6
CONTINUOUS
 70
2
 71
3
 72
50
 73
46
 74
0
 42
0.0000001
 43
0.0000001
 44
0.0000000001
 40
0.0
 40
0.0
 40
0.0
 40
0.0
 40
1.0
 40
1.0
 40
1.0
 40
2.0
 40
2.0
 40
2.0
 40
3.0
 40
3.0
 40
3.0
 40
4.0
 40
4.0
 40
4.0
 40
5.0
 40
5.0
 40
5.0
 40
6.0
 40
6.0
 40
6.0
 40
7.0
 40
7.0
 40
7.0
 40
8.0
 40
8.0
 40
8.0
 40
9.0
 40
9.0
 40
9.0
 40
10.0
 40
10.0
 40
10.0
 40
11.0
 40
11.0
 40
11.0
 40
12.0
 40
12.0
 40
12.0
 40
13.0
 40
13.0
 40
13.0
 40
14.0
 40
14.0
 40
14.0
 40
15.0
 40
15.0
 40
15.0
 40
15.0
 10
333.3407160483
 20
24.4581261731
 30
0.0
 10
333.3407160483
 20
24.4581261731
 30
0.0
 10
333.626106053
 20
24.4581261731
 30
0.0
 10
333.626106053
 20
24.4581261731
 30
0.0
 10
333.626106053
 20
24.4581261731
 30
0.0
 10
333.2937398852
 20
24.8690040341
 30
0.0
 10
333.2937398852
 20
24.8690040341
 30
0.0
 10
333.2937398852
 20
24.8690040341
 30
0.0
 10
333.5202461201
 20
25.1348969683
 30
0.0
 10
333.5202461201
 20
25.1348969683
 30
0.0
 10
333.5202461201
 20
25.1348969683
 30
0.0
 10
333.3719898728
 20
25.2877330644
 30
0.0
 10
333.3719898728
 20
25.2877330644
 30
0.0
 10
333.3719898728
 20
25.2877330644
 30
0.0
 10
333.1560827165
 20
25.0364956462
 30
0.0
 10
333.1560827165
 20
25.0364956462
 30
0.0
 10
333.1560827165
 20
25.0364956462
 30
0.0
 10
332.7690200692
 20
25.5044253375
 30
0.0
 10
332.7690200692
 20
25.5044253375
 30
0.0
 10
332.9244732216
 20
25.6185289983
 30
0.0
 10
333.1067512026
 20
25.7582798122
 30
0.0
 10
333.1067512026
 20
25.9676443273
 30
0.0
 10
333.1067512026
 20
26.2115539874
 30
0.0
 10
332.9047144455
 20
26.3549686803
 30
0.0
 10
332.6782082107
 20
26.3549686803
 30
0.0
 10
332.4340368449
 20
26.3549686803
 30
0.0
 10
332.2496652188
 20
26.2042262294
 30
0.0
 10
332.2496652188
 20
25.9477546984
 30
0.0
 10
332.2496652188
 20
25.7902079007
 30
0.0
 10
332.3483282465
 20
25.652550732
 30
0.0
 10
332.4536647682
 20
25.541587539
 30
0.0
 10
332.4536647682
 20
25.541587539
 30
0.0
 10
332.3381217264
 20
25.4578417329
 30
0.0
 10
332.3381217264
 20
25.4578417329
 30
0.0
 10
332.1604235942
 20
25.3296059674
 30
0.0
 10
332.0130833166
 20
25.2018936131
 30
0.0
 10
332.0130833166
 20
24.9647882997
 30
0.0
 10
332.0130833166
 20
24.6444605916
 30
0.0
 10
332.2716484929
 20
24.4183469152
 30
0.0
 10
332.5820313866
 20
24.4183469152
 30
0.0
 10
332.8009481577
 20
24.4183469152
 30
0.0
 10
332.9981433604
 20
24.543442213
 30
0.0
 10
333.1384175856
 20
24.7093635913
 30
0.0
 10
333.1384175856
 20
24.7093635913
 30
0.0
 10
333.3407160483
 20
24.4581261731
 30
0.0
 10
333.3407160483
 20
24.4581261731
 30
0.0
  0
LWPOLYLINE
  5
24A
100
AcDbEntity
  8
0
100
AcDbPolyline
 62
7
  6
CONTINUOUS
 90
2
 70
0
 43
0.2
 10
335.276160138
 20
26.3146660112
 10
335.0448123488
 20
26.3146660112
  0
LWPOLYLINE
  5
24B
100
AcDbEntity
  8
0
100
AcDbPolyline
 62
7
  6
CONTINUOUS
 90
2
 70
0
 43
0.2
 10
335.0448123488
 20
26.3146660112
 10
335.0448123488
 20
24.4576027618
  0
LWPOLYLINE
  5
24C
100
AcDbEntity
  8
0
100
AcDbPolyline
 62
7
  6
CONTINUOUS
 90
2
 70
0
 43
0.2
 10
335.0448123488
 20
24.4576027618
 10
335.8401358007
 20
24.4576027618
  0
LWPOLYLINE
  5
24D
100
AcDbEntity
  8
0
100
AcDbPolyline
 62
7
  6
CONTINUOUS
 90
2
 70
0
 43
0.2
 10
335.8401358007
 20
24.4576027618
 10
335.8401358007
 20
24.6695843334
  0
LWPOLYLINE
  5
24E
100
AcDbEntity
  8
0
100
AcDbPolyline
 62
7
  6
CONTINUOUS
 90
2
 70
0
 43
0.2
 10
335.8401358007
 20
24.6695843334
 10
335.276160138
 20
24.6695843334
  0
LWPOLYLINE
  5
24F
100
AcDbEntity
  8
0
100
AcDbPolyline
 62
7
  6
CONTINUOUS
 90
2
 70
0
 43
0.2
 10
335.276160138
 20
24.6695843334
 10
335.276160138
 20
26.3146660112
  0
LWPOLYLINE
  5
250
100
AcDbEntity
  8
0
100
AcDbPolyline
 62
7
  6
CONTINUOUS
 90
2
 70
0
 43
0.2
 10
337.5192392122
 20
25.6101544177
 10
337.2980979431
 20
25.6101544177
  0
LWPOLYLINE
  5
251
100
AcDbEntity
  8
0
100
AcDbPolyline
 62
7
  6
CONTINUOUS
 90
2
 70
0
 43
0.2
 10
337.2980979431
 20
25.6101544177
 10
337.2980979431
 20
24.4581261731
  0
LWPOLYLINE
  5
252
100
AcDbEntity
  8
0
100
AcDbPolyline
 62
7
  6
CONTINUOUS
 90
2
 70
0
 43
0.2
 10
337.2980979431
 20
24.4581261731
 10
337.5192392122
 20
24.4581261731
  0
LWPOLYLINE
  5
253
100
AcDbEntity
  8
0
100
AcDbPolyline
 62
7
  6
CONTINUOUS
 90
2
 70
0
 43
0.2
 10
337.5192392122
 20
24.4581261731
 10
337.5192392122
 20
25.6101544177
  0
LWPOLYLINE
  5
254
100
AcDbEntity
  8
0
100
AcDbPolyline
 62
7
  6
CONTINUOUS
 90
2
 70
1
 43
0.2
 10
337.256215935
 20
26.1401083467
 42
1.0
 10
337.5613829259
 20
26.1401083467
 42
1.0
  0
SPLINE
  5
255
100
AcDbEntity
  8
0
100
AcDbSpline
 62
7
  6
CONTINUOUS
 70
2
 71
3
 72
17
 73
13
 74
0
 42
0.0000001
 43
0.0000001
 44
0.0000000001
 40
0.0
 40
0.0
 40
0.0
 40
0.0
 40
1.0
 40
1.0
 40
1.0
 40
2.0
 40
2.0
 40
2.0
 40
3.0
 40
3.0
 40
3.0
 40
4.0
 40
4.0
 40
4.0
 40
4.0
 10
339.6495231538
 20
24.6156729707
 30
0.0
 10
339.4155583082
 20
24.6156729707
 30
0.0
 10
339.2852288975
 20
24.8177097279
 30
0.0
 10
339.2852288975
 20
25.0338785897
 30
0.0
 10
339.2852288975
 20
25.2484772178
 30
0.0
 10
339.4210541267
 20
25.4473735072
 30
0.0
 10
339.6495231538
 20
25.4473735072
 30
0.0
 10
339.888983818
 20
25.4473735072
 30
0.0
 10
340.0245473416
 20
25.2584220322
 30
0.0
 10
340.0245473416
 20
25.0338785897
 30
0.0
 10
340.0245473416
 20
24.8077649134
 30
0.0
 10
339.8913391688
 20
24.6156729707
 30
0.0
 10
339.6495231538
 20
24.6156729707
 30
0.0
  0
SPLINE
  5
256
100
AcDbEntity
  8
0
100
AcDbSpline
 62
7
  6
CONTINUOUS
 70
2
 71
3
 72
50
 73
46
 74
0
 42
0.0000001
 43
0.0000001
 44
0.0000000001
 40
0.0
 40
0.0
 40
0.0
 40
0.0
 40
1.0
 40
1.0
 40
1.0
 40
2.0
 40
2.0
 40
2.0
 40
3.0
 40
3.0
 40
3.0
 40
4.0
 40
4.0
 40
4.0
 40
5.0
 40
5.0
 40
5.0
 40
6.0
 40
6.0
 40
6.0
 40
7.0
 40
7.0
 40
7.0
 40
8.0
 40
8.0
 40
8.0
 40
9.0
 40
9.0
 40
9.0
 40
10.0
 40
10.0
 40
10.0
 40
11.0
 40
11.0
 40
11.0
 40
12.0
 40
12.0
 40
12.0
 40
13.0
 40
13.0
 40
13.0
 40
14.0
 40
14.0
 40
14.0
 40
15.0
 40
15.0
 40
15.0
 40
15.0
 10
340.2336501511
 20
25.610677829
 30
0.0
 10
340.2336501511
 20
25.610677829
 30
0.0
 10
340.0119854707
 20
25.610677829
 30
0.0
 10
340.0119854707
 20
25.610677829
 30
0.0
 10
340.0119854707
 20
25.610677829
 30
0.0
 10
340.0119854707
 20
25.4133517734
 30
0.0
 10
340.0119854707
 20
25.4133517734
 30
0.0
 10
340.0119854707
 20
25.4133517734
 30
0.0
 10
340.0072747691
 20
25.4133517734
 30
0.0
 10
340.0072747691
 20
25.4133517734
 30
0.0
 10
339.9159394994
 20
25.556243055
 30
0.0
 10
339.778020625
 20
25.6446995627
 30
0.0
 10
339.6052949
 20
25.6446995627
 30
0.0
 10
339.2729287322
 20
25.6446995627
 30
0.0
 10
339.0638259227
 20
25.3568233544
 30
0.0
 10
339.0638259227
 20
25.0412063478
 30
0.0
 10
339.0638259227
 20
24.7114572364
 30
0.0
 10
339.2608902726
 20
24.4183469152
 30
0.0
 10
339.6157631258
 20
24.4183469152
 30
0.0
 10
339.778020625
 20
24.4183469152
 30
0.0
 10
339.9180331445
 20
24.5068034229
 30
0.0
 10
340.0072747691
 20
24.6376562448
 30
0.0
 10
340.0072747691
 20
24.6376562448
 30
0.0
 10
340.0119854707
 20
24.6376562448
 30
0.0
 10
340.0119854707
 20
24.6376562448
 30
0.0
 10
340.0119854707
 20
24.6376562448
 30
0.0
 10
340.0119854707
 20
24.4183469152
 30
0.0
 10
340.0119854707
 20
24.4183469152
 30
0.0
 10
340.0119854707
 20
24.1817650131
 30
0.0
 10
339.9554570516
 20
23.9949071833
 30
0.0
 10
339.6822363593
 20
23.9949071833
 30
0.0
 10
339.4799378966
 20
23.9949071833
 30
0.0
 10
339.3373083206
 20
24.1131981344
 30
0.0
 10
339.3373083206
 20
24.3194221818
 30
0.0
 10
339.3373083206
 20
24.3194221818
 30
0.0
 10
339.1156436402
 20
24.3194221818
 30
0.0
 10
339.1156436402
 20
24.3194221818
 30
0.0
 10
339.1206160475
 20
23.9949071833
 30
0.0
 10
339.351702131
 20
23.7981045391
 30
0.0
 10
339.6720298392
 20
23.7981045391
 30
0.0
 10
340.1200699016
 20
23.7981045391
 30
0.0
 10
340.2336501511
 20
24.083363691
 30
0.0
 10
340.2336501511
 20
24.4801094472
 30
0.0
 10
340.2336501511
 20
24.4801094472
 30
0.0
 10
340.2336501511
 20
25.610677829
 30
0.0
 10
340.2336501511
 20
25.610677829
 30
0.0
  0
SPLINE
  5
257
100
AcDbEntity
  8
0
100
AcDbSpline
 62
7
  6
CONTINUOUS
 70
2
 71
3
 72
44
 73
40
 74
0
 42
0.0000001
 43
0.0000001
 44
0.0000000001
 40
0.0
 40
0.0
 40
0.0
 40
0.0
 40
1.0
 40
1.0
 40
1.0
 40
2.0
 40
2.0
 40
2.0
 40
3.0
 40
3.0
 40
3.0
 40
4.0
 40
4.0
 40
4.0
 40
5.0
 40
5.0
 40
5.0
 40
6.0
 40
6.0
 40
6.0
 40
7.0
 40
7.0
 40
7.0
 40
8.0
 40
8.0
 40
8.0
 40
9.0
 40
9.0
 40
9.0
 40
10.0
 40
10.0
 40
10.0
 40
11.0
 40
11.0
 40
11.0
 40
12.0
 40
12.0
 40
12.0
 40
13.0
 40
13.0
 40
13.0
 40
13.0
 10
341.8025754865
 20
26.5957378727
 30
0.0
 10
341.8025754865
 20
26.5957378727
 30
0.0
 10
341.8025754865
 20
24.4576027618
 30
0.0
 10
341.8025754865
 20
24.4576027618
 30
0.0
 10
341.8025754865
 20
24.4576027618
 30
0.0
 10
342.0239784613
 20
24.4576027618
 30
0.0
 10
342.0239784613
 20
24.4576027618
 30
0.0
 10
342.0239784613
 20
24.4576027618
 30
0.0
 10
342.0239784613
 20
24.9872949851
 30
0.0
 10
342.0239784613
 20
24.9872949851
 30
0.0
 10
342.0239784613
 20
25.1971829116
 30
0.0
 10
342.0239784613
 20
25.4478969184
 30
0.0
 10
342.3092376132
 20
25.4478969184
 30
0.0
 10
342.5361364065
 20
25.4478969184
 30
0.0
 10
342.5630920878
 20
25.3149504513
 30
0.0
 10
342.5630920878
 20
25.1186712184
 30
0.0
 10
342.5630920878
 20
25.1186712184
 30
0.0
 10
342.5630920878
 20
24.4576027618
 30
0.0
 10
342.5630920878
 20
24.4576027618
 30
0.0
 10
342.5630920878
 20
24.4576027618
 30
0.0
 10
342.7850184738
 20
24.4576027618
 30
0.0
 10
342.7850184738
 20
24.4576027618
 30
0.0
 10
342.7850184738
 20
24.4576027618
 30
0.0
 10
342.7850184738
 20
25.1448417828
 30
0.0
 10
342.7850184738
 20
25.1448417828
 30
0.0
 10
342.7850184738
 20
25.4253902331
 30
0.0
 10
342.7010109621
 20
25.645222974
 30
0.0
 10
342.3759725524
 20
25.645222974
 30
0.0
 10
342.2362217385
 20
25.645222974
 30
0.0
 10
342.0980411585
 20
25.5787497404
 30
0.0
 10
342.0286891629
 20
25.4557480878
 30
0.0
 10
342.0286891629
 20
25.4557480878
 30
0.0
 10
342.0239784613
 20
25.4557480878
 30
0.0
 10
342.0239784613
 20
25.4557480878
 30
0.0
 10
342.0239784613
 20
25.4557480878
 30
0.0
 10
342.0239784613
 20
26.5957378727
 30
0.0
 10
342.0239784613
 20
26.5957378727
 30
0.0
 10
342.0239784613
 20
26.5957378727
 30
0.0
 10
341.8025754865
 20
26.5957378727
 30
0.0
 10
341.8025754865
 20
26.5957378727
 30
0.0
  0
LWPOLYLINE
  5
258
100
AcDbEntity
  8
0
100
AcDbPolyline
 62
7
  6
CONTINUOUS
 90
2
 70
0
 43
0.2
 10
344.6248091507
 20
25.403406959
 10
344.8412397182
 20
25.403406959
  0
LWPOLYLINE
  5
259
100
AcDbEntity
  8
0
100
AcDbPolyline
 62
7
  6
CONTINUOUS
 90
2
 70
0
 43
0.2
 10
344.8412397182
 20
25.403406959
 10
344.8412397182
 20
25.6101544177
  0
LWPOLYLINE
  5
25A
100
AcDbEntity
  8
0
100
AcDbPolyline
 62
7
  6
CONTINUOUS
 90
2
 70
0
 43
0.2
 10
344.8412397182
 20
25.6101544177
 10
344.6248091507
 20
25.6101544177
  0
LWPOLYLINE
  5
25B
100
AcDbEntity
  8
0
100
AcDbPolyline
 62
7
  6
CONTINUOUS
 90
2
 70
0
 43
0.2
 10
344.6248091507
 20
25.6101544177
 10
344.6248091507
 20
26.0508667221
  0
LWPOLYLINE
  5
25C
100
AcDbEntity
  8
0
100
AcDbPolyline
 62
7
  6
CONTINUOUS
 90
2
 70
0
 43
0.2
 10
344.6248091507
 20
26.0508667221
 10
344.4031444703
 20
26.0508667221
  0
LWPOLYLINE
  5
25D
100
AcDbEntity
  8
0
100
AcDbPolyline
 62
7
  6
CONTINUOUS
 90
2
 70
0
 43
0.2
 10
344.4031444703
 20
26.0508667221
 10
344.4031444703
 20
25.6101544177
  0
LWPOLYLINE
  5
25E
100
AcDbEntity
  8
0
100
AcDbPolyline
 62
7
  6
CONTINUOUS
 90
2
 70
0
 43
0.2
 10
344.4031444703
 20
25.6101544177
 10
344.2824981684
 20
25.6101544177
  0
LWPOLYLINE
  5
25F
100
AcDbEntity
  8
0
100
AcDbPolyline
 62
7
  6
CONTINUOUS
 90
2
 70
0
 43
0.2
 10
344.2824981684
 20
25.6101544177
 10
344.2824981684
 20
25.403406959
  0
LWPOLYLINE
  5
260
100
AcDbEntity
  8
0
100
AcDbPolyline
 62
7
  6
CONTINUOUS
 90
2
 70
0
 43
0.2
 10
344.2824981684
 20
25.403406959
 10
344.4031444703
 20
25.403406959
  0
LWPOLYLINE
  5
261
100
AcDbEntity
  8
0
100
AcDbPolyline
 62
7
  6
CONTINUOUS
 90
2
 70
0
 43
0.2
 10
344.4031444703
 20
25.403406959
 10
344.4031444703
 20
24.4576027618
  0
LWPOLYLINE
  5
262
100
AcDbEntity
  8
0
100
AcDbPolyline
 62
7
  6
CONTINUOUS
 90
2
 70
0
 43
0.2
 10
344.4031444703
 20
24.4576027618
 10
344.6248091507
 20
24.4576027618
  0
LWPOLYLINE
  5
263
100
AcDbEntity
  8
0
100
AcDbPolyline
 62
7
  6
CONTINUOUS
 90
2
 70
0
 43
0.2
 10
344.6248091507
 20
24.4576027618
 10
344.6248091507
 20
25.403406959
  0
SPLINE
  5
264
100
AcDbEntity
  8
0
100
AcDbSpline
 62
7
  6
CONTINUOUS
 70
2
 71
3
 72
20
 73
16
 74
0
 42
0.0000001
 43
0.0000001
 44
0.0000000001
 40
0.0
 40
0.0
 40
0.0
 40
0.0
 40
1.0
 40
1.0
 40
1.0
 40
2.0
 40
2.0
 40
2.0
 40
3.0
 40
3.0
 40
3.0
 40
4.0
 40
4.0
 40
4.0
 40
5.0
 40
5.0
 40
5.0
 40
5.0
 10
332.4068194579
 20
34.8185292052
 30
0.0
 10
332.4068194579
 20
34.8185292052
 30
0.0
 10
334.7231761124
 20
31.988967783
 30
0.0
 10
334.7231761124
 20
31.988967783
 30
0.0
 10
334.071529059
 20
31.3367973183
 30
0.0
 10
333.294655855
 20
30.6008810475
 30
0.0
 10
332.3234662104
 20
30.6008810475
 30
0.0
 10
331.3249283259
 20
30.6008810475
 30
0.0
 10
330.3816103324
 20
31.5304594948
 30
0.0
 10
330.3816103324
 20
32.5296516433
 30
0.0
 10
330.3816103324
 20
33.5288437919
 30
0.0
 10
331.5604634055
 20
34.2354490305
 30
0.0
 10
332.2819858658
 20
34.7353068104
 30
0.0
 10
332.2819858658
 20
34.7353068104
 30
0.0
 10
332.4068194579
 20
34.8185292052
 30
0.0
 10
332.4068194579
 20
34.8185292052
 30
0.0
  0
SPLINE
  5
265
100
AcDbEntity
  8
0
100
AcDbSpline
 62
7
  6
CONTINUOUS
 70
2
 71
3
 72
23
 73
19
 74
0
 42
0.0000001
 43
0.0000001
 44
0.0000000001
 40
0.0
 40
0.0
 40
0.0
 40
0.0
 40
1.0
 40
1.0
 40
1.0
 40
2.0
 40
2.0
 40
2.0
 40
3.0
 40
3.0
 40
3.0
 40
4.0
 40
4.0
 40
4.0
 40
5.0
 40
5.0
 40
5.0
 40
6.0
 40
6.0
 40
6.0
 40
6.0
 10
332.6842274405
 20
36.4562831249
 30
0.0
 10
332.6842274405
 20
36.4562831249
 30
0.0
 10
332.3377291679
 20
36.8996124858
 30
0.0
 10
332.3377291679
 20
36.8996124858
 30
0.0
 10
332.031926123
 20
37.2877219557
 30
0.0
 10
331.7130377959
 20
37.6762239841
 30
0.0
 10
331.7130377959
 20
38.2031682982
 30
0.0
 10
331.7130377959
 20
38.8693400148
 30
0.0
 10
332.2543759204
 20
39.3130619341
 30
0.0
 10
332.8782821755
 20
39.3130619341
 30
0.0
 10
333.5720638376
 20
39.3130619341
 30
0.0
 10
334.0992698573
 20
38.9108203594
 30
0.0
 10
334.0992698573
 20
38.1758200584
 30
0.0
 10
334.0992698573
 20
37.4125555479
 30
0.0
 10
333.3780091026
 20
36.9824423221
 30
0.0
 10
332.8509339357
 20
36.5667229067
 30
0.0
 10
332.8509339357
 20
36.5667229067
 30
0.0
 10
332.6842274405
 20
36.4562831249
 30
0.0
 10
332.6842274405
 20
36.4562831249
 30
0.0
  0
SPLINE
  5
266
100
AcDbEntity
  8
0
100
AcDbSpline
 62
7
  6
CONTINUOUS
 70
2
 71
3
 72
50
 73
46
 74
0
 42
0.0000001
 43
0.0000001
 44
0.0000000001
 40
0.0
 40
0.0
 40
0.0
 40
0.0
 40
1.0
 40
1.0
 40
1.0
 40
2.0
 40
2.0
 40
2.0
 40
3.0
 40
3.0
 40
3.0
 40
4.0
 40
4.0
 40
4.0
 40
5.0
 40
5.0
 40
5.0
 40
6.0
 40
6.0
 40
6.0
 40
7.0
 40
7.0
 40
7.0
 40
8.0
 40
8.0
 40
8.0
 40
9.0
 40
9.0
 40
9.0
 40
10.0
 40
10.0
 40
10.0
 40
11.0
 40
11.0
 40
11.0
 40
12.0
 40
12.0
 40
12.0
 40
13.0
 40
13.0
 40
13.0
 40
14.0
 40
14.0
 40
14.0
 40
15.0
 40
15.0
 40
15.0
 40
15.0
 10
336.6378146034
 20
29.6576939068
 30
0.0
 10
336.6378146034
 20
29.6576939068
 30
0.0
 10
338.247042608
 20
29.6576939068
 30
0.0
 10
338.247042608
 20
29.6576939068
 30
0.0
 10
338.247042608
 20
29.6576939068
 30
0.0
 10
336.3740153144
 20
31.9748356782
 30
0.0
 10
336.3740153144
 20
31.9748356782
 30
0.0
 10
336.3740153144
 20
31.9748356782
 30
0.0
 10
337.6503537398
 20
33.4723153728
 30
0.0
 10
337.6503537398
 20
33.4723153728
 30
0.0
 10
337.6503537398
 20
33.4723153728
 30
0.0
 10
336.8181297921
 20
34.3333269413
 30
0.0
 10
336.8181297921
 20
34.3333269413
 30
0.0
 10
336.8181297921
 20
34.3333269413
 30
0.0
 10
335.5975346688
 20
32.9180228189
 30
0.0
 10
335.5975346688
 20
32.9180228189
 30
0.0
 10
335.5975346688
 20
32.9180228189
 30
0.0
 10
333.4196203
 20
35.5533986534
 30
0.0
 10
333.4196203
 20
35.5533986534
 30
0.0
 10
334.2931937394
 20
36.1914370133
 30
0.0
 10
335.3198649806
 20
36.9824423221
 30
0.0
 10
335.3198649806
 20
38.1612953952
 30
0.0
 10
335.3198649806
 20
39.5349883202
 30
0.0
 10
334.1819688408
 20
40.3394714696
 30
0.0
 10
332.9066772379
 20
40.3394714696
 30
0.0
 10
331.5332460185
 20
40.3394714696
 30
0.0
 10
330.4923118197
 20
39.49324627
 30
0.0
 10
330.4923118197
 20
38.0505939078
 30
0.0
 10
330.4923118197
 20
37.1630192164
 30
0.0
 10
331.0476511962
 20
36.3861460124
 30
0.0
 10
331.6438166531
 20
35.7617163459
 30
0.0
 10
331.6438166531
 20
35.7617163459
 30
0.0
 10
330.991907894
 20
35.2901227756
 30
0.0
 10
330.991907894
 20
35.2901227756
 30
0.0
 10
329.9933700096
 20
34.5688620209
 30
0.0
 10
329.1604917978
 20
33.8476012662
 30
0.0
 10
329.1604917978
 20
32.5160429498
 30
0.0
 10
329.1604917978
 20
30.7123676518
 30
0.0
 10
330.6175379704
 20
29.4357675207
 30
0.0
 10
332.3650774077
 20
29.4357675207
 30
0.0
 10
333.5999354886
 20
29.4357675207
 30
0.0
 10
334.7093057133
 20
30.1439429932
 30
0.0
 10
335.5001801693
 20
31.0724746179
 30
0.0
 10
335.5001801693
 20
31.0724746179
 30
0.0
 10
336.6378146034
 20
29.6576939068
 30
0.0
 10
336.6378146034
 20
29.6576939068
 30
0.0
  0
LINE
  5
267
100
AcDbEntity
  8
0
100
AcDbLine
 62
7
  6
CONTINUOUS
 10
322.4406759784
 20
27.6315688114
 11
344.8545867061
 21
27.6315688114
  0
LINE
  5
268
100
AcDbEntity
  8
0
100
AcDbLine
 62
7
  6
CONTINUOUS
 10
344.8545867061
 20
27.6315688114
 11
344.8545867061
 21
50.0454795391
  0
LINE
  5
269
100
AcDbEntity
  8
0
100
AcDbLine
 62
7
  6
CONTINUOUS
 10
344.8545867061
 20
50.0454795391
 11
322.4406759784
 21
50.0454795391
  0
LINE
  5
26A
100
AcDbEntity
  8
0
100
AcDbLine
 62
7
  6
CONTINUOUS
 10
322.4406759784
 20
50.0454795391
 11
322.4406759784
 21
27.6315688114
  0
ENDBLK
  5
26B
100
AcDbEntity
  8
0
  6
BYBLOCK
 62
0
100
AcDbBlockEnd
  0
BLOCK
  5
26C
100
AcDbEntity
  8
0
100
AcDbBlockBegin
  2
_CLOSED
 70
64
 10
0.0
 20
0.0
  3
_CLOSED
  1

  0
LINE
  5
26D
100
AcDbEntity
  8
0
  6
BYBLOCK
 62
0
100
AcDbLine
 10
0.0
 20
0.0
 11
-1.0
 21
0.2
  0
LINE
  5
26E
100
AcDbEntity
  8
0
  6
BYBLOCK
 62
0
100
AcDbLine
 10
-1.0
 20
0.2
 11
-1.0
 21
-0.2
  0
LINE
  5
26F
100
AcDbEntity
  8
0
  6
BYBLOCK
 62
0
100
AcDbLine
 10
-1.0
 20
-0.2
 11
0.0
 21
0.0
  0
LINE
  5
270
100
AcDbEntity
  8
0
  6
BYBLOCK
 62
0
100
AcDbLine
 10
-1.0
 20
0.0
 11
0.0
 21
0.0
  0
ENDBLK
  5
271
100
AcDbEntity
  8
0
  6
BYBLOCK
 62
0
100
AcDbBlockEnd
  0
BLOCK
  5
272
100
AcDbEntity
  8
0
100
AcDbBlockBegin
 62
2
  6
CONTINUOUS
  2
*D0
 70
65
 10
0.0
 20
0.0
  3
*D0
  1

  0
MTEXT
  5
273
100
AcDbEntity
  8
0
100
AcDbMText
 62
2
  6
CONTINUOUS
  7
TEXTSTYLE_2
 71
1
 72
1
 10
153.4800969719
 20
107.3651556276
 30
0.0
 11
0.8415898943
 21
0.5401170705
 31
0.0
  1
{\Fgdt;n}\Farial.ttf;83,8
 40
3.0
 41
12.1524163569
  0
LINE
  5
274
100
AcDbEntity
  8
0
100
AcDbLine
 62
2
  6
CONTINUOUS
 10
149.7890543663
 20
100.5404597061
 11
165.7328867833
 21
110.772921046
  0
INSERT
  5
275
100
AcDbEntity
  8
0
100
AcDbBlockReference
 62
2
  6
CONTINUOUS
  2
_CLOSED
 10
149.7890543663
 20
100.5404597061
 41
2.5
 42
2.5
 43
2.5
 50
212.6916086963
  0
ENDBLK
  5
276
100
AcDbEntity
  8
0
  6
BYBLOCK
 62
0
100
AcDbBlockEnd
  0
BLOCK
  5
277
100
AcDbEntity
  8
0
100
AcDbBlockBegin
 62
2
  6
CONTINUOUS
  2
*D1
 70
65
 10
0.0
 20
0.0
  3
*D1
  1

  0
MTEXT
  5
278
100
AcDbEntity
  8
0
100
AcDbMText
 62
2
  6
CONTINUOUS
  7
STANDARD
 71
2
 72
1
 10
45.2886593566
 20
202.3805613939
 30
0.0
 11
0.0
 21
1.0
 31
0.0
  1
74,4
 40
3.0
 41
8.1524163569
  0
LINE
  5
279
100
AcDbEntity
  8
0
100
AcDbLine
 62
2
  6
CONTINUOUS
 10
70.4403487401
 20
239.5805613939
 11
48.2886593566
 21
239.5805613939
  0
LINE
  5
27A
100
AcDbEntity
  8
0
100
AcDbLine
 62
2
  6
CONTINUOUS
 10
72.0428520335
 20
165.1805613939
 11
48.2886593566
 21
165.1805613939
  0
LINE
  5
27B
100
AcDbEntity
  8
0
100
AcDbLine
 62
2
  6
CONTINUOUS
 10
49.0386593566
 20
239.5805613939
 11
49.0386593566
 21
202.3805613939
  0
LINE
  5
27C
100
AcDbEntity
  8
0
100
AcDbLine
 62
2
  6
CONTINUOUS
 10
49.0386593566
 20
165.1805613939
 11
49.0386593566
 21
202.3805613939
  0
INSERT
  5
27D
100
AcDbEntity
  8
0
100
AcDbBlockReference
 62
2
  6
CONTINUOUS
  2
_CLOSED
 10
49.0386593566
 20
239.5805613939
 41
2.5
 42
2.5
 43
2.5
 50
90.0
  0
INSERT
  5
27E
100
AcDbEntity
  8
0
100
AcDbBlockReference
 62
2
  6
CONTINUOUS
  2
_CLOSED
 10
49.0386593566
 20
165.1805613939
 41
2.5
 42
2.5
 43
2.5
 50
270.0
  0
ENDBLK
  5
27F
100
AcDbEntity
  8
0
  6
BYBLOCK
 62
0
100
AcDbBlockEnd
  0
BLOCK
  5
280
100
AcDbEntity
  8
0
100
AcDbBlockBegin
 62
2
  6
CONTINUOUS
  2
*D2
 70
65
 10
0.0
 20
0.0
  3
*D2
  1

  0
MTEXT
  5
281
100
AcDbEntity
  8
0
100
AcDbMText
 62
2
  6
CONTINUOUS
  7
STANDARD
 71
1
 72
1
 10
167.0752452854
 20
243.8264358745
 30
0.0
 11
0.0
 21
1.0
 31
0.0
  1
1,9
 40
3.0
 41
5.8215613383
  0
LINE
  5
282
100
AcDbEntity
  8
0
100
AcDbLine
 62
2
  6
CONTINUOUS
 10
159.1291969287
 20
239.5805613939
 11
171.5752452854
 21
239.5805613939
  0
LINE
  5
283
100
AcDbEntity
  8
0
100
AcDbLine
 62
2
  6
CONTINUOUS
 10
159.2431181069
 20
237.6805613939
 11
171.5752452854
 21
237.6805613939
  0
LINE
  5
284
100
AcDbEntity
  8
0
100
AcDbLine
 62
2
  6
CONTINUOUS
 10
170.8252452854
 20
239.5805613939
 11
170.8252452854
 21
249.6479972127
  0
LINE
  5
285
100
AcDbEntity
  8
0
100
AcDbLine
 62
2
  6
CONTINUOUS
 10
170.8252452854
 20
249.6479972127
 11
170.8252452854
 21
238.6305613939
  0
LINE
  5
286
100
AcDbEntity
  8
0
100
AcDbLine
 62
2
  6
CONTINUOUS
 10
170.8252452854
 20
237.6805613939
 11
170.8252452854
 21
236.6805613939
  0
LINE
  5
287
100
AcDbEntity
  8
0
100
AcDbLine
 62
2
  6
CONTINUOUS
 10
170.8252452854
 20
236.6805613939
 11
170.8252452854
 21
238.6305613939
  0
INSERT
  5
288
100
AcDbEntity
  8
0
100
AcDbBlockReference
 62
2
  6
CONTINUOUS
  2
_CLOSED
 10
170.8252452854
 20
239.5805613939
 41
2.5
 42
2.5
 43
2.5
 50
270.0
  0
INSERT
  5
289
100
AcDbEntity
  8
0
100
AcDbBlockReference
 62
2
  6
CONTINUOUS
  2
_CLOSED
 10
170.8252452854
 20
237.6805613939
 41
2.5
 42
2.5
 43
2.5
 50
90.0
  0
ENDBLK
  5
28A
100
AcDbEntity
  8
0
  6
BYBLOCK
 62
0
100
AcDbBlockEnd
  0
BLOCK
  5
28B
100
AcDbEntity
  8
0
100
AcDbBlockBegin
 62
2
  6
CONTINUOUS
  2
*D3
 70
65
 10
0.0
 20
0.0
  3
*D3
  1

  0
MTEXT
  5
28C
100
AcDbEntity
  8
0
100
AcDbMText
 62
2
  6
CONTINUOUS
  7
STANDARD
 71
2
 72
1
 10
57.08910246
 20
210.3805613939
 30
0.0
 11
0.0
 21
1.0
 31
0.0
  1
58,4
 40
3.0
 41
8.1524163569
  0
LINE
  5
28D
100
AcDbEntity
  8
0
100
AcDbLine
 62
2
  6
CONTINUOUS
 10
70.0528461817
 20
239.5805613939
 11
60.08910246
 21
239.5805613939
  0
LINE
  5
28E
100
AcDbEntity
  8
0
100
AcDbLine
 62
2
  6
CONTINUOUS
 10
71.5680106542
 20
181.1805613939
 11
60.08910246
 21
181.1805613939
  0
LINE
  5
28F
100
AcDbEntity
  8
0
100
AcDbLine
 62
2
  6
CONTINUOUS
 10
60.83910246
 20
239.5805613939
 11
60.83910246
 21
210.3805613939
  0
LINE
  5
290
100
AcDbEntity
  8
0
100
AcDbLine
 62
2
  6
CONTINUOUS
 10
60.83910246
 20
181.1805613939
 11
60.83910246
 21
210.3805613939
  0
INSERT
  5
291
100
AcDbEntity
  8
0
100
AcDbBlockReference
 62
2
  6
CONTINUOUS
  2
_CLOSED
 10
60.83910246
 20
239.5805613939
 41
2.5
 42
2.5
 43
2.5
 50
90.0
  0
INSERT
  5
292
100
AcDbEntity
  8
0
100
AcDbBlockReference
 62
2
  6
CONTINUOUS
  2
_CLOSED
 10
60.83910246
 20
181.1805613939
 41
2.5
 42
2.5
 43
2.5
 50
270.0
  0
ENDBLK
  5
293
100
AcDbEntity
  8
0
  6
BYBLOCK
 62
0
100
AcDbBlockEnd
  0
BLOCK
  5
294
100
AcDbEntity
  8
0
100
AcDbBlockBegin
 62
2
  6
CONTINUOUS
  2
*D4
 70
65
 10
0.0
 20
0.0
  3
*D4
  1

  0
MTEXT
  5
295
100
AcDbEntity
  8
0
100
AcDbMText
 62
2
  6
CONTINUOUS
  7
TEXTSTYLE_2
 71
2
 72
1
 10
114.5264377955
 20
155.78676491
 30
0.0
 11
1.0
 21
0.0
 31
0.0
  1
{\Fgdt;n}\Farial.ttf;58
 40
3.0
 41
8.6617100372
  0
LINE
  5
296
100
AcDbEntity
  8
0
100
AcDbLine
 62
2
  6
CONTINUOUS
 10
85.5264377955
 20
165.4864457098
 11
85.5264377955
 21
151.28676491
  0
LINE
  5
297
100
AcDbEntity
  8
0
100
AcDbLine
 62
2
  6
CONTINUOUS
 10
143.5264377955
 20
165.2846214607
 11
143.5264377955
 21
151.28676491
  0
LINE
  5
298
100
AcDbEntity
  8
0
100
AcDbLine
 62
2
  6
CONTINUOUS
 10
85.5264377955
 20
152.03676491
 11
114.5264377955
 21
152.03676491
  0
LINE
  5
299
100
AcDbEntity
  8
0
100
AcDbLine
 62
2
  6
CONTINUOUS
 10
143.5264377955
 20
152.03676491
 11
114.5264377955
 21
152.03676491
  0
INSERT
  5
29A
100
AcDbEntity
  8
0
100
AcDbBlockReference
 62
2
  6
CONTINUOUS
  2
_CLOSED
 10
85.5264377955
 20
152.03676491
 41
2.5
 42
2.5
 43
2.5
 50
180.0
  0
INSERT
  5
29B
100
AcDbEntity
  8
0
100
AcDbBlockReference
 62
2
  6
CONTINUOUS
  2
_CLOSED
 10
143.5264377955
 20
152.03676491
 41
2.5
 42
2.5
 43
2.5
  0
ENDBLK
  5
29C
100
AcDbEntity
  8
0
  6
BYBLOCK
 62
0
100
AcDbBlockEnd
  0
ENDSEC
  0
SECTION
  2
ENTITIES
  0
DIMENSION
  5
29D
100
AcDbEntity
  8
0
100
AcDbDimension
 62
2
  6
CONTINUOUS
  2
*D0
 10
149.7890543663
 20
100.5404597061
 11
159.4039479762
 21
109.3846345472
 70
163
  1
%%c<>
  3
DIMSTYLE_1
100
AcDbDiametricDimension
 15
79.2638212247
 25
55.2786491996
  0
DIMENSION
  5
29E
100
AcDbEntity
  8
0
100
AcDbDimension
 62
2
  6
CONTINUOUS
  2
*D1
 10
49.0386593566
 20
165.1805613939
 11
49.0386593566
 21
202.3822424734
 70
160
  3
DIMSTYLE_2
100
AcDbAlignedDimension
 13
71.1903487401
 23
239.5805613939
 14
72.7928520335
 24
165.1805613939
 50
270.0
100
AcDbRotatedDimension
  0
DIMENSION
  5
29F
100
AcDbEntity
  8
0
100
AcDbDimension
 62
2
  6
CONTINUOUS
  2
*D2
 10
170.8252452854
 20
237.6805613939
 11
170.8252452854
 21
246.8696201545
 70
160
  3
DIMSTYLE_3
100
AcDbAlignedDimension
 13
158.3791969287
 23
239.5805613939
 14
158.4931181069
 24
237.6805613939
 50
270.0
100
AcDbRotatedDimension
  0
DIMENSION
  5
2A0
100
AcDbEntity
  8
0
100
AcDbDimension
 62
2
  6
CONTINUOUS
  2
*D3
 10
60.83910246
 20
181.1805613939
 11
60.83910246
 21
210.3710870897
 70
160
  3
DIMSTYLE_2
100
AcDbAlignedDimension
 13
70.8028461817
 23
239.5805613939
 14
72.3180106542
 24
181.1805613939
 50
270.0
100
AcDbRotatedDimension
  0
DIMENSION
  5
2A1
100
AcDbEntity
  8
0
100
AcDbDimension
 62
2
  6
CONTINUOUS
  2
*D4
 10
143.5264377955
 20
152.03676491
 11
114.5264377955
 21
152.03676491
 70
160
  1
%%c<>
  3
DIMSTYLE_2
100
AcDbAlignedDimension
 13
85.5264377955
 23
166.2364457098
 14
143.5264377955
 24
166.0346214607
100
AcDbRotatedDimension
  0
LINE
  5
2A2
100
AcDbEntity
  8
0
100
AcDbLine
 62
2
  6
CONTINUOUS
 10
319.8215188711
 20
50.4217920391
 11
409.8215188711
 21
50.4217920391
  0
LINE
  5
2A3
100
AcDbEntity
  8
0
100
AcDbLine
 62
2
  6
CONTINUOUS
 10
319.8215188711
 20
50.4217920391
 11
319.8215188711
 21
10.4217920391
  0
LINE
  5
2A4
100
AcDbEntity
  8
0
100
AcDbLine
 62
2
  6
CONTINUOUS
 10
349.8215188711
 20
44.4217920391
 11
409.8215188711
 21
44.4217920391
  0
LINE
  5
2A5
100
AcDbEntity
  8
0
100
AcDbLine
 62
2
  6
CONTINUOUS
 10
349.8215188711
 20
38.4217920391
 11
409.8215188711
 21
38.4217920391
  0
LINE
  5
2A6
100
AcDbEntity
  8
0
100
AcDbLine
 62
2
  6
CONTINUOUS
 10
349.8215188711
 20
28.4217920391
 11
409.8215188711
 21
28.4217920391
  0
LINE
  5
2A7
100
AcDbEntity
  8
0
100
AcDbLine
 62
2
  6
CONTINUOUS
 10
319.8215188711
 20
23.4217920391
 11
409.8215188711
 21
23.4217920391
  0
LINE
  5
2A8
100
AcDbEntity
  8
0
100
AcDbLine
 62
2
  6
CONTINUOUS
 10
319.8215188711
 20
10.4217920391
 11
409.8215188711
 21
10.4217920391
  0
LINE
  5
2A9
100
AcDbEntity
  8
0
100
AcDbLine
 62
2
  6
CONTINUOUS
 10
349.8215188711
 20
50.4217920391
 11
349.8215188711
 21
23.4217920391
  0
LINE
  5
2AA
100
AcDbEntity
  8
0
100
AcDbLine
 62
2
  6
CONTINUOUS
 10
389.8215188711
 20
50.4217920391
 11
389.8215188711
 21
38.4217920391
  0
LINE
  5
2AB
100
AcDbEntity
  8
0
100
AcDbLine
 62
2
  6
CONTINUOUS
 10
409.8215188711
 20
50.4217920391
 11
409.8215188711
 21
10.4217920391
  0
INSERT
  5
2AC
100
AcDbEntity
  8
0
100
AcDbBlockReference
 62
2
  6
CONTINUOUS
  2
LOGO2_BL0
 10
333.6475659158
 20
36.9217920391
  0
MTEXT
  5
2AD
100
AcDbEntity
  8
9_SOLID
100
AcDbMText
 62
2
  6
CONTINUOUS
  7
TEXTSTYLE_3
 71
1
 72
1
 10
351.3090188711
 20
48.9217920391
 30
0.0
 11
1.0
 21
0.0
 31
0.0
  1
2J3_C_001
 40
3.0
 41
30.9642857143
  0
MTEXT
  5
2AE
100
AcDbEntity
  8
0
100
AcDbMText
 62
2
  6
CONTINUOUS
  7
TEXTSTYLE_3
 71
1
 72
1
 10
391.3090188711
 20
49.1717920391
 30
0.0
 11
1.0
 21
0.0
 31
0.0
  1
Rev:02
 40
3.5
 41
22.75
  0
MTEXT
  5
2AF
100
AcDbEntity
  8
9_SOLID
100
AcDbMText
 62
2
  6
CONTINUOUS
  7
TEXTSTYLE_3
 71
1
 72
1
 10
351.3090188711
 20
42.6717920391
 30
0.0
 11
1.0
 21
0.0
 31
0.0
  1
Scale:1:1
 40
3.5
 41
28.375
  0
MTEXT
  5
2B0
100
AcDbEntity
  8
9_SOLID
100
AcDbMText
 62
2
  6
CONTINUOUS
  7
TEXTSTYLE_3
 71
1
 72
1
 10
391.3090188711
 20
43.1717920391
 30
0.0
 11
1.0
 21
0.0
 31
0.0
  1
A3
 40
3.5
 41
9.25
  0
MTEXT
  5
2B1
100
AcDbEntity
  8
0
100
AcDbMText
 62
2
  6
CONTINUOUS
  7
TEXTSTYLE_3
 71
1
 72
1
 10
351.3090188711
 20
35.1717920391
 30
0.0
 11
1.0
 21
0.0
 31
0.0
  1
SMOOTHY 2.8
 40
3.5
 41
46.375
  0
MTEXT
  5
2B2
100
AcDbEntity
  8
0
100
AcDbMText
 62
2
  6
CONTINUOUS
  7
TEXTSTYLE_3
 71
1
 72
1
 10
351.3090188711
 20
27.1717920391
 30
0.0
 11
1.0
 21
0.0
 31
0.0
  1
DATE:06/07/2018
 40
2.5
 41
43.0357142857
  0
MTEXT
  5
2B3
100
AcDbEntity
  8
9_SOLID
100
AcDbMText
 62
2
  6
CONTINUOUS
  7
TEXTSTYLE_3
 71
1
 72
1
 10
321.3090188711
 20
23.1092920391
 30
0.0
 11
1.0
 21
0.0
 31
0.0
  1
Any integral or partial reproductions are prohibited \Pwithout prior authorisation of L {\Ftxt.shx;\W0.190476;\H2.250000; }& L Luce & Light s.r.l., \Pin accordance with the law in force. \PAll rights reserved.
 40
2.25
 41
134.5982142857
  0
LINE
  5
2B4
100
AcDbEntity
  8
0
100
AcDbLine
 62
7
  6
CONTINUOUS
 10
0.0
 20
0.0
 11
0.0
 21
297.0
  0
LINE
  5
2B5
100
AcDbEntity
  8
0
100
AcDbLine
 62
7
  6
CONTINUOUS
 10
0.0
 20
0.0
 11
420.0
 21
0.0
  0
LINE
  5
2B6
100
AcDbEntity
  8
0
100
AcDbLine
 62
7
  6
CONTINUOUS
 10
0.0
 20
297.0
 11
420.0
 21
297.0
  0
LINE
  5
2B7
100
AcDbEntity
  8
0
100
AcDbLine
 62
7
  6
CONTINUOUS
 10
420.0
 20
0.0
 11
420.0
 21
297.0
  0
LINE
  5
2B8
100
AcDbEntity
  8
02___PRT_ALL_AXES
100
AcDbLine
 62
7
  6
CONTINUOUS
 10
72.6264377955
 20
237.6805613939
 11
72.6264377955
 21
238.6805613939
  0
LINE
  5
2B9
100
AcDbEntity
  8
7_ALL_FEATURES
100
AcDbLine
 62
7
  6
CONTINUOUS
 10
111.0264377955
 20
165.1805613939
 11
118.0264377955
 21
165.1805613939
  0
LINE
  5
2BA
100
AcDbEntity
  8
02___PRT_ALL_AXES
100
AcDbLine
 62
7
  6
CONTINUOUS
 10
78.6264377955
 20
228.1805586814
 11
78.6264377955
 21
237.3805613939
  0
LINE
  5
2BB
100
AcDbEntity
  8
3_ALL_AXES
100
AcDbLine
 62
9
  6
CONTINUOUS
 10
121.5264377955
 20
168.6805613939
 11
121.0264377955
 21
168.6805613939
  0
LINE
  5
2BC
100
AcDbEntity
  8
3_ALL_AXES
100
AcDbLine
 62
9
  6
CONTINUOUS
 10
120.0264377955
 20
168.6805613939
 11
115.5264377955
 21
168.6805613939
  0
LINE
  5
2BD
100
AcDbEntity
  8
3_ALL_AXES
100
AcDbLine
 62
9
  6
CONTINUOUS
 10
113.5264377955
 20
168.6805613939
 11
109.0264377955
 21
168.6805613939
  0
LINE
  5
2BE
100
AcDbEntity
  8
3_ALL_AXES
100
AcDbLine
 62
9
  6
CONTINUOUS
 10
108.0264377955
 20
168.6805613939
 11
107.5264377955
 21
168.6805613939
  0
LINE
  5
2BF
100
AcDbEntity
  8
3_ALL_AXES
100
AcDbLine
 62
7
  6
CONTINUOUS
 10
120.0264377955
 20
169.1805613939
 11
115.5264377955
 21
169.1805613939
  0
LINE
  5
2C0
100
AcDbEntity
  8
3_ALL_AXES
100
AcDbLine
 62
7
  6
CONTINUOUS
 10
113.5264377955
 20
169.1805613939
 11
109.0264377955
 21
169.1805613939
  0
LINE
  5
2C1
100
AcDbEntity
  8
3_ALL_AXES
100
AcDbLine
 62
7
  6
CONTINUOUS
 10
107.5264377955
 20
169.1805613939
 11
108.0264377955
 21
169.1805613939
  0
LINE
  5
2C2
100
AcDbEntity
  8
3_ALL_AXES
100
AcDbLine
 62
7
  6
CONTINUOUS
 10
121.0264377955
 20
169.1805613939
 11
121.5264377955
 21
169.1805613939
  0
LINE
  5
2C3
100
AcDbEntity
  8
7_ALL_FEATURES
100
AcDbLine
 62
7
  6
CONTINUOUS
 10
86.5264377955
 20
181.1805613939
 11
85.5264377955
 21
182.1805613939
  0
LINE
  5
2C4
100
AcDbEntity
  8
7_ALL_FEATURES
100
AcDbLine
 62
7
  6
CONTINUOUS
 10
85.5264377955
 20
182.1805613939
 11
85.5264377955
 21
226.6805613939
  0
LINE
  5
2C5
100
AcDbEntity
  8
3_ALL_AXES
100
AcDbLine
 62
7
  6
CONTINUOUS
 10
122.5264377955
 20
174.6805613939
 11
106.5264377955
 21
174.6805613939
  0
LINE
  5
2C6
100
AcDbEntity
  8
3_ALL_AXES
100
AcDbLine
 62
7
  6
CONTINUOUS
 10
107.5264377955
 20
169.1805613939
 11
106.5264377955
 21
170.1805613939
  0
LINE
  5
2C7
100
AcDbEntity
  8
3_ALL_AXES
100
AcDbLine
 62
7
  6
CONTINUOUS
 10
122.5264377955
 20
177.6805613939
 11
106.5264377955
 21
177.6805613939
  0
LINE
  5
2C8
100
AcDbEntity
  8
3_ALL_AXES
100
AcDbLine
 62
7
  6
CONTINUOUS
 10
112.5614721409
 20
178.4805613939
 11
116.49140345
 21
178.4805613939
  0
LINE
  5
2C9
100
AcDbEntity
  8
3_ALL_AXES
100
AcDbLine
 62
7
  6
CONTINUOUS
 10
110.7264377955
 20
180.3005613939
 11
118.3264377955
 21
180.3005613939
  0
LINE
  5
2CA
100
AcDbEntity
  8
7_ALL_FEATURES
100
AcDbLine
 62
3
  6
CONTINUOUS
 10
109.0264377955
 20
180.6805613939
 11
113.1450422332
 21
180.6805613939
  0
LINE
  5
2CB
100
AcDbEntity
  8
3_ALL_AXES
100
AcDbLine
 62
7
  6
CONTINUOUS
 10
113.1450422332
 20
180.6805613939
 11
115.9078333578
 21
180.6805613939
  0
LINE
  5
2CC
100
AcDbEntity
  8
7_ALL_FEATURES
100
AcDbLine
 62
3
  6
CONTINUOUS
 10
115.9078333578
 20
180.6805613939
 11
120.0264377955
 21
180.6805613939
  0
LINE
  5
2CD
100
AcDbEntity
  8
7_ALL_FEATURES
100
AcDbLine
 62
7
  6
CONTINUOUS
 10
142.5264377955
 20
181.1805613939
 11
120.0264377955
 21
181.1805613939
  0
LINE
  5
2CE
100
AcDbEntity
  8
7_ALL_FEATURES
100
AcDbLine
 62
7
  6
CONTINUOUS
 10
109.0264377955
 20
181.1805613939
 11
86.5264377955
 21
181.1805613939
  0
LINE
  5
2CF
100
AcDbEntity
  8
7_ALL_FEATURES
100
AcDbLine
 62
9
  6
CONTINUOUS
 10
109.0264377955
 20
181.2726379194
 11
120.0264377955
 21
181.2726379194
  0
LINE
  5
2D0
100
AcDbEntity
  8
7_ALL_FEATURES
100
AcDbLine
 62
7
  6
CONTINUOUS
 10
85.5264377955
 20
182.1805613939
 11
109.0264377955
 21
182.1805613939
  0
LINE
  5
2D1
100
AcDbEntity
  8
7_ALL_FEATURES
100
AcDbLine
 62
7
  6
CONTINUOUS
 10
120.0264377955
 20
182.1805613939
 11
143.5264377955
 21
182.1805613939
  0
LINE
  5
2D2
100
AcDbEntity
  8
7_ALL_FEATURES
100
AcDbLine
 62
4
  6
CONTINUOUS
 10
111.5264377955
 20
183.0612806735
 11
117.5264377955
 21
183.0612806735
  0
LINE
  5
2D3
100
AcDbEntity
  8
7_ALL_FEATURES
100
AcDbLine
 62
7
  6
CONTINUOUS
 10
117.1531044621
 20
183.721808074
 11
116.1431044621
 21
183.721808074
  0
LINE
  5
2D4
100
AcDbEntity
  8
7_ALL_FEATURES
100
AcDbLine
 62
7
  6
CONTINUOUS
 10
113.1531044621
 20
183.721808074
 11
112.1431044621
 21
183.721808074
  0
LINE
  5
2D5
100
AcDbEntity
  8
7_ALL_FEATURES
100
AcDbLine
 62
4
  6
CONTINUOUS
 10
117.5264377955
 20
188.3833456726
 11
111.5264377955
 21
188.3833456726
  0
LINE
  5
2D6
100
AcDbEntity
  8
7_ALL_FEATURES
100
AcDbLine
 62
9
  6
CONTINUOUS
 10
109.0264377955
 20
190.1719884268
 11
120.0264377955
 21
190.1719884268
  0
LINE
  5
2D7
100
AcDbEntity
  8
03___PRT_ALL_CURVES
100
AcDbLine
 62
40
  6
CONTINUOUS
 10
120.0264377955
 20
181.2726379194
 11
109.0264377955
 21
190.1719884268
  0
LINE
  5
2D8
100
AcDbEntity
  8
7_ALL_FEATURES
100
AcDbLine
 62
4
  6
CONTINUOUS
 10
115.5446713392
 20
183.5591894212
 11
113.8653456006
 21
185.3849444081
  0
LINE
  5
2D9
100
AcDbEntity
  8
7_ALL_FEATURES
100
AcDbLine
 62
7
  6
CONTINUOUS
 10
105.3220909963
 20
228.1805613939
 11
105.3220909963
 21
235.6805613939
  0
LINE
  5
2DA
100
AcDbEntity
  8
3_ALL_AXES
100
AcDbLine
 62
7
  6
CONTINUOUS
 10
106.5264377955
 20
181.1805613939
 11
106.5264377955
 21
177.6805613939
  0
LINE
  5
2DB
100
AcDbEntity
  8
3_ALL_AXES
100
AcDbLine
 62
7
  6
CONTINUOUS
 10
106.5264377955
 20
174.6805613939
 11
106.5264377955
 21
170.1805613939
  0
LINE
  5
2DC
100
AcDbEntity
  8
7_ALL_FEATURES
100
AcDbLine
 62
7
  6
CONTINUOUS
 10
107.4366141023
 20
198.6805613939
 11
107.4366141023
 21
182.1805613939
  0
LINE
  5
2DD
100
AcDbEntity
  8
3_ALL_AXES
100
AcDbLine
 62
7
  6
CONTINUOUS
 10
107.5264377955
 20
168.6805613939
 11
107.5264377955
 21
169.1805613939
  0
LINE
  5
2DE
100
AcDbEntity
  8
7_ALL_FEATURES
100
AcDbLine
 62
7
  6
CONTINUOUS
 10
79.1264351195
 20
227.6805613939
 11
78.6264377955
 21
228.1805586814
  0
LINE
  5
2DF
100
AcDbEntity
  8
3_ALL_AXES
100
AcDbLine
 62
7
  6
CONTINUOUS
 10
108.0264377955
 20
168.6805613939
 11
108.0264377955
 21
169.1805613939
  0
LINE
  5
2E0
100
AcDbEntity
  8
3_ALL_AXES
100
AcDbLine
 62
7
  6
CONTINUOUS
 10
108.5264377955
 20
177.6805613939
 11
108.5264377955
 21
174.6805613939
  0
LINE
  5
2E1
100
AcDbEntity
  8
7_ALL_FEATURES
100
AcDbLine
 62
3
  6
CONTINUOUS
 10
109.0264377955
 20
194.9795343328
 11
109.0264377955
 21
180.6805613939
  0
LINE
  5
2E2
100
AcDbEntity
  8
3_ALL_AXES
100
AcDbLine
 62
7
  6
CONTINUOUS
 10
109.0264377955
 20
168.6805613939
 11
109.0264377955
 21
169.1805613939
  0
LINE
  5
2E3
100
AcDbEntity
  8
3_ALL_AXES
100
AcDbLine
 62
7
  6
CONTINUOUS
 10
110.5264377955
 20
180.6805613939
 11
110.5264377955
 21
177.6805613939
  0
LINE
  5
2E4
100
AcDbEntity
  8
3_ALL_AXES
100
AcDbLine
 62
7
  6
CONTINUOUS
 10
110.5264377955
 20
174.6805613939
 11
110.5264377955
 21
170.1805613939
  0
LINE
  5
2E5
100
AcDbEntity
  8
3_ALL_AXES
100
AcDbLine
 62
7
  6
CONTINUOUS
 10
110.7264377955
 20
180.6805613939
 11
110.7264377955
 21
180.3005613939
  0
LINE
  5
2E6
100
AcDbEntity
  8
7_ALL_FEATURES
100
AcDbLine
 62
9
  6
CONTINUOUS
 10
109.6259743086
 20
195.4318377017
 11
119.4269012823
 21
195.4318377017
  0
LINE
  5
2E7
100
AcDbEntity
  8
7_ALL_FEATURES
100
AcDbLine
 62
3
  6
CONTINUOUS
 10
118.0264377955
 20
196.42211493
 11
111.0264377955
 21
196.42211493
  0
LINE
  5
2E8
100
AcDbEntity
  8
7_ALL_FEATURES
100
AcDbLine
 62
7
  6
CONTINUOUS
 10
121.6162614886
 20
198.6805613939
 11
107.4366141023
 21
198.6805613939
  0
LINE
  5
2E9
100
AcDbEntity
  8
7_ALL_FEATURES
100
AcDbLine
 62
7
  6
CONTINUOUS
 10
81.5264377956
 20
227.6805613938
 11
82.0264377956
 21
227.1805613938
  0
LINE
  5
2EA
100
AcDbEntity
  8
7_ALL_FEATURES
100
AcDbLine
 62
7
  6
CONTINUOUS
 10
85.0264377958
 20
227.1805613936
 11
85.5264377958
 21
226.6805613936
  0
LINE
  5
2EB
100
AcDbEntity
  8
7_ALL_FEATURES
100
AcDbLine
 62
4
  6
CONTINUOUS
 10
111.5264377955
 20
188.3833456726
 11
111.5264377955
 21
183.0612806735
  0
LINE
  5
2EC
100
AcDbEntity
  8
7_ALL_FEATURES
100
AcDbLine
 62
7
  6
CONTINUOUS
 10
112.1431044621
 20
186.030992943
 11
112.1431044621
 21
183.721808074
  0
LINE
  5
2ED
100
AcDbEntity
  8
3_ALL_AXES
100
AcDbLine
 62
7
  6
CONTINUOUS
 10
113.5264377955
 20
168.6805613939
 11
113.5264377955
 21
169.1805613939
  0
LINE
  5
2EE
100
AcDbEntity
  8
3_ALL_AXES
100
AcDbLine
 62
7
  6
CONTINUOUS
 10
133.6524462424
 20
200.6305613939
 11
133.8870214644
 21
200.6305613939
  0
LINE
  5
2EF
100
AcDbEntity
  8
7_ALL_FEATURES
100
AcDbLine
 62
3
  6
CONTINUOUS
 10
119.4269012823
 20
195.4318377017
 11
118.0264377955
 21
196.42211493
  0
LINE
  5
2F0
100
AcDbEntity
  8
3_ALL_AXES
100
AcDbLine
 62
7
  6
CONTINUOUS
 10
115.5264377955
 20
168.6805613939
 11
115.5264377955
 21
169.1805613939
  0
LINE
  5
2F1
100
AcDbEntity
  8
7_ALL_FEATURES
100
AcDbLine
 62
7
  6
CONTINUOUS
 10
116.1431044621
 20
186.030992943
 11
116.1431044621
 21
183.721808074
  0
LINE
  5
2F2
100
AcDbEntity
  8
7_ALL_FEATURES
100
AcDbLine
 62
4
  6
CONTINUOUS
 10
117.5264377955
 20
183.0612806735
 11
117.5264377955
 21
188.3833456726
  0
LINE
  5
2F3
100
AcDbEntity
  8
3_ALL_AXES
100
AcDbLine
 62
7
  6
CONTINUOUS
 10
118.3264377955
 20
180.6805613939
 11
118.3264377955
 21
180.3005613939
  0
LINE
  5
2F4
100
AcDbEntity
  8
3_ALL_AXES
100
AcDbLine
 62
7
  6
CONTINUOUS
 10
118.5264377955
 20
180.6805613939
 11
118.5264377955
 21
177.6805613939
  0
LINE
  5
2F5
100
AcDbEntity
  8
3_ALL_AXES
100
AcDbLine
 62
7
  6
CONTINUOUS
 10
118.5264377955
 20
174.6805613939
 11
118.5264377955
 21
170.1805613939
  0
LINE
  5
2F6
100
AcDbEntity
  8
7_ALL_FEATURES
100
AcDbLine
 62
7
  6
CONTINUOUS
 10
144.0264377952
 20
227.1805613936
 11
143.5264377952
 21
226.6805613936
  0
LINE
  5
2F7
100
AcDbEntity
  8
7_ALL_FEATURES
100
AcDbLine
 62
3
  6
CONTINUOUS
 10
111.0264377955
 20
196.42211493
 11
109.6259743086
 21
195.4318377017
  0
LINE
  5
2F8
100
AcDbEntity
  8
7_ALL_FEATURES
100
AcDbLine
 62
7
  6
CONTINUOUS
 10
134.663645443
 20
203.1805613939
 11
135.6842661692
 21
203.1805613939
  0
LINE
  5
2F9
100
AcDbEntity
  8
7_ALL_FEATURES
100
AcDbLine
 62
7
  6
CONTINUOUS
 10
136.1945765323
 20
204.4305613939
 11
134.7803629699
 21
204.4305613939
  0
LINE
  5
2FA
100
AcDbEntity
  8
7_ALL_FEATURES
100
AcDbLine
 62
7
  6
CONTINUOUS
 10
135.6842661692
 20
205.6805613939
 11
134.663645443
 21
205.6805613939
  0
LINE
  5
2FB
100
AcDbEntity
  8
3_ALL_AXES
100
AcDbLine
 62
7
  6
CONTINUOUS
 10
120.0264377955
 20
168.6805613939
 11
120.0264377955
 21
169.1805613939
  0
LINE
  5
2FC
100
AcDbEntity
  8
7_ALL_FEATURES
100
AcDbLine
 62
3
  6
CONTINUOUS
 10
120.0264377955
 20
180.6805613939
 11
120.0264377955
 21
194.9795343328
  0
LINE
  5
2FD
100
AcDbEntity
  8
3_ALL_AXES
100
AcDbLine
 62
7
  6
CONTINUOUS
 10
120.5264377955
 20
177.6805613939
 11
120.5264377955
 21
174.6805613939
  0
LINE
  5
2FE
100
AcDbEntity
  8
3_ALL_AXES
100
AcDbLine
 62
7
  6
CONTINUOUS
 10
121.0264377955
 20
168.6805613939
 11
121.0264377955
 21
169.1805613939
  0
LINE
  5
2FF
100
AcDbEntity
  8
3_ALL_AXES
100
AcDbLine
 62
7
  6
CONTINUOUS
 10
121.5264377955
 20
168.6805613939
 11
121.5264377955
 21
169.1805613939
  0
LINE
  5
300
100
AcDbEntity
  8
7_ALL_FEATURES
100
AcDbLine
 62
7
  6
CONTINUOUS
 10
121.6162614886
 20
198.6805613939
 11
121.6162614886
 21
182.1805613939
  0
LINE
  5
301
100
AcDbEntity
  8
7_ALL_FEATURES
100
AcDbLine
 62
7
  6
CONTINUOUS
 10
147.5264377953
 20
227.6805613938
 11
147.0264377953
 21
227.1805613938
  0
LINE
  5
302
100
AcDbEntity
  8
7_ALL_FEATURES
100
AcDbLine
 62
7
  6
CONTINUOUS
 10
149.9264340151
 20
227.6805613939
 11
150.4264377955
 21
228.1805651449
  0
LINE
  5
303
100
AcDbEntity
  8
3_ALL_AXES
100
AcDbLine
 62
7
  6
CONTINUOUS
 10
133.6524458777
 20
208.2305613939
 11
133.8870214644
 21
208.2305613939
  0
LINE
  5
304
100
AcDbEntity
  8
3_ALL_AXES
100
AcDbLine
 62
7
  6
CONTINUOUS
 10
122.5264377955
 20
181.1805613939
 11
122.5264377955
 21
177.6805613939
  0
LINE
  5
305
100
AcDbEntity
  8
3_ALL_AXES
100
AcDbLine
 62
7
  6
CONTINUOUS
 10
122.5264377955
 20
174.6805613939
 11
122.5264377955
 21
170.1805613939
  0
LINE
  5
306
100
AcDbEntity
  8
7_ALL_FEATURES
100
AcDbLine
 62
7
  6
CONTINUOUS
 10
123.7307845947
 20
228.1805613939
 11
123.7307845947
 21
235.6805613939
  0
LINE
  5
307
100
AcDbEntity
  8
7_ALL_FEATURES
100
AcDbLine
 62
4
  6
CONTINUOUS
 10
114.93913449
 20
184.02544446
 11
115.4330368012
 21
184.5383897918
  0
LINE
  5
308
100
AcDbEntity
  8
7_ALL_FEATURES
100
AcDbLine
 62
4
  6
CONTINUOUS
 10
113.7433031787
 20
184.6704480802
 11
114.6489994416
 21
185.3258879753
  0
LINE
  5
309
100
AcDbEntity
  8
7_ALL_FEATURES
100
AcDbLine
 62
7
  6
CONTINUOUS
 10
134.663645443
 20
205.6805613939
 11
134.15333508
 21
204.4305613939
  0
LINE
  5
30A
100
AcDbEntity
  8
7_ALL_FEATURES
100
AcDbLine
 62
7
  6
CONTINUOUS
 10
134.4668490249
 20
203.6626122015
 11
134.7803629699
 21
204.4305613939
  0
LINE
  5
30B
100
AcDbEntity
  8
7_ALL_FEATURES
100
AcDbLine
 62
7
  6
CONTINUOUS
 10
134.15333508
 20
204.4305613939
 11
134.663645443
 21
203.1805613939
  0
LINE
  5
30C
100
AcDbEntity
  8
7_ALL_FEATURES
100
AcDbLine
 62
7
  6
CONTINUOUS
 10
135.6842661692
 20
203.1805613939
 11
136.1945765323
 21
204.4305613939
  0
LINE
  5
30D
100
AcDbEntity
  8
7_ALL_FEATURES
100
AcDbLine
 62
7
  6
CONTINUOUS
 10
134.7803629699
 20
204.4305613939
 11
134.4668490249
 21
205.1985105863
  0
LINE
  5
30E
100
AcDbEntity
  8
7_ALL_FEATURES
100
AcDbLine
 62
7
  6
CONTINUOUS
 10
136.1945765323
 20
204.4305613939
 11
135.6842661692
 21
205.6805613939
  0
LINE
  5
30F
100
AcDbEntity
  8
7_ALL_FEATURES
100
AcDbLine
 62
7
  6
CONTINUOUS
 10
143.5264377955
 20
226.6805613939
 11
85.5264377955
 21
226.6805613939
  0
LINE
  5
310
100
AcDbEntity
  8
7_ALL_FEATURES
100
AcDbLine
 62
7
  6
CONTINUOUS
 10
82.0264377955
 20
227.1805613939
 11
147.0264377955
 21
227.1805613939
  0
LINE
  5
311
100
AcDbEntity
  8
7_ALL_FEATURES
100
AcDbLine
 62
7
  6
CONTINUOUS
 10
149.9261347018
 20
227.6805613939
 11
79.1267344362
 21
227.6805613939
  0
LINE
  5
312
100
AcDbEntity
  8
7_ALL_FEATURES
100
AcDbLine
 62
7
  6
CONTINUOUS
 10
78.6264377955
 20
228.1805586814
 11
150.4264377955
 21
228.1805651449
  0
LINE
  5
313
100
AcDbEntity
  8
7_ALL_FEATURES
100
AcDbLine
 62
7
  6
CONTINUOUS
 10
143.5264377955
 20
182.1805613939
 11
143.5264377955
 21
226.6805613939
  0
LINE
  5
314
100
AcDbEntity
  8
3_ALL_AXES
100
AcDbLine
 62
7
  6
CONTINUOUS
 10
121.5264377955
 20
169.1805613939
 11
122.5264377955
 21
170.1805613939
  0
LINE
  5
315
100
AcDbEntity
  8
7_ALL_FEATURES
100
AcDbLine
 62
7
  6
CONTINUOUS
 10
105.3220909963
 20
235.6805613939
 11
123.7307845947
 21
235.6805613939
  0
LINE
  5
316
100
AcDbEntity
  8
02___PRT_ALL_AXES
100
AcDbLine
 62
7
  6
CONTINUOUS
 10
150.4264377955
 20
228.1805651449
 11
150.4264377955
 21
237.3805613939
  0
LINE
  5
317
100
AcDbEntity
  8
7_ALL_FEATURES
100
AcDbLine
 62
7
  6
CONTINUOUS
 10
142.5264377955
 20
181.1805613939
 11
143.5264377955
 21
182.1805613939
  0
LINE
  5
318
100
AcDbEntity
  8
7_ALL_FEATURES
100
AcDbLine
 62
9
  6
CONTINUOUS
 10
78.6264377955
 20
237.3805613939
 11
150.4264377955
 21
237.3805613939
  0
LINE
  5
319
100
AcDbEntity
  8
02___PRT_ALL_AXES
100
AcDbLine
 62
7
  6
CONTINUOUS
 10
72.6265014986
 20
237.6805613939
 11
156.4263740923
 21
237.6805613939
  0
LINE
  5
31A
100
AcDbEntity
  8
7_ALL_FEATURES
100
AcDbLine
 62
7
  6
CONTINUOUS
 10
156.4264377955
 20
238.6805613939
 11
72.6264377955
 21
238.6805613939
  0
LINE
  5
31B
100
AcDbEntity
  8
7_ALL_FEATURES
100
AcDbLine
 62
7
  6
CONTINUOUS
 10
144.1704256304
 20
239.5805613939
 11
84.8824499605
 21
239.5805613939
  0
LINE
  5
31C
100
AcDbEntity
  8
7_ALL_FEATURES
100
AcDbLine
 62
7
  6
CONTINUOUS
 10
84.8821058035
 20
239.5805613939
 11
72.6264377955
 21
238.6805613939
  0
LINE
  5
31D
100
AcDbEntity
  8
7_ALL_FEATURES
100
AcDbLine
 62
7
  6
CONTINUOUS
 10
144.1707697874
 20
239.5805613939
 11
156.4264377955
 21
238.6805613939
  0
LINE
  5
31E
100
AcDbEntity
  8
02___PRT_ALL_AXES
100
AcDbLine
 62
7
  6
CONTINUOUS
 10
156.4264377955
 20
237.6805613939
 11
156.4264377955
 21
238.6805613939
  0
LINE
  5
31F
100
AcDbEntity
  8
7_ALL_FEATURES
100
AcDbLine
 62
7
  6
CONTINUOUS
 10
227.7517289175
 20
238.6805613939
 11
227.7517289175
 21
237.6805613939
  0
LINE
  5
320
100
AcDbEntity
  8
3_ALL_AXES
100
AcDbLine
 62
7
  6
CONTINUOUS
 10
269.6517289175
 20
165.1805613939
 11
273.1517289175
 21
165.1805613939
  0
LINE
  5
321
100
AcDbEntity
  8
7_ALL_FEATURES
100
AcDbLine
 62
7
  6
CONTINUOUS
 10
266.1517289175
 20
165.1805613939
 11
273.1517289175
 21
165.1805613939
  0
LINE
  5
322
100
AcDbEntity
  8
7_ALL_FEATURES
100
AcDbLine
 62
7
  6
CONTINUOUS
 10
233.7517289175
 20
237.3805613939
 11
233.7517289175
 21
235.6805613939
  0
LINE
  5
323
100
AcDbEntity
  8
7_ALL_FEATURES
100
AcDbLine
 62
7
  6
CONTINUOUS
 10
234.9517289175
 20
228.1805613939
 11
234.9517289175
 21
235.6805613939
  0
LINE
  5
324
100
AcDbEntity
  8
3_ALL_AXES
100
AcDbLine
 62
9
  6
CONTINUOUS
 10
276.5799321478
 20
168.6805613939
 11
273.9818559365
 21
168.6805613939
  0
LINE
  5
325
100
AcDbEntity
  8
3_ALL_AXES
100
AcDbLine
 62
9
  6
CONTINUOUS
 10
262.7235256873
 20
168.6805613939
 11
265.3216018986
 21
168.6805613939
  0
LINE
  5
326
100
AcDbEntity
  8
3_ALL_AXES
100
AcDbLine
 62
9
  6
CONTINUOUS
 10
267.0536527062
 20
168.6805613939
 11
272.2498051289
 21
168.6805613939
  0
LINE
  5
327
100
AcDbEntity
  8
3_ALL_AXES
100
AcDbLine
 62
7
  6
CONTINUOUS
 10
276.5799321478
 20
169.1805613939
 11
273.9818559365
 21
169.1805613939
  0
LINE
  5
328
100
AcDbEntity
  8
3_ALL_AXES
100
AcDbLine
 62
7
  6
CONTINUOUS
 10
262.7235256873
 20
169.1805613939
 11
265.3216018986
 21
169.1805613939
  0
LINE
  5
329
100
AcDbEntity
  8
3_ALL_AXES
100
AcDbLine
 62
7
  6
CONTINUOUS
 10
267.0536527062
 20
169.1805613939
 11
272.2498051289
 21
169.1805613939
  0
LINE
  5
32A
100
AcDbEntity
  8
7_ALL_FEATURES
100
AcDbLine
 62
7
  6
CONTINUOUS
 10
241.5317289175
 20
182.1805613939
 11
242.5317289175
 21
181.1805613939
  0
LINE
  5
32B
100
AcDbEntity
  8
7_ALL_FEATURES
100
AcDbLine
 62
3
  6
CONTINUOUS
 10
241.143513387
 20
181.2726379194
 11
236.5108047415
 21
190.1719884268
  0
LINE
  5
32C
100
AcDbEntity
  8
7_ALL_FEATURES
100
AcDbLine
 62
7
  6
CONTINUOUS
 10
241.5870188036
 20
181.503512226
 11
236.9543101581
 21
190.4028627334
  0
LINE
  5
32D
100
AcDbEntity
  8
02___PRT_ALL_AXES
100
AcDbLine
 62
7
  6
CONTINUOUS
 10
240.6517289175
 20
226.6805613939
 11
240.6517289175
 21
198.6805613939
  0
LINE
  5
32E
100
AcDbEntity
  8
7_ALL_FEATURES
100
AcDbLine
 62
7
  6
CONTINUOUS
 10
241.5317289175
 20
198.6805613939
 11
241.5317289175
 21
182.1805613939
  0
LINE
  5
32F
100
AcDbEntity
  8
3_ALL_AXES
100
AcDbLine
 62
7
  6
CONTINUOUS
 10
241.8517289175
 20
180.3005613939
 11
241.8517289175
 21
180.6805613939
  0
LINE
  5
330
100
AcDbEntity
  8
7_ALL_FEATURES
100
AcDbLine
 62
9
  6
CONTINUOUS
 10
242.1192253035
 20
180.6805613939
 11
242.1192253035
 21
181.1805613939
  0
LINE
  5
331
100
AcDbEntity
  8
3_ALL_AXES
100
AcDbLine
 62
7
  6
CONTINUOUS
 10
276.5799321478
 20
174.6805613939
 11
262.7235256873
 21
174.6805613939
  0
LINE
  5
332
100
AcDbEntity
  8
7_ALL_FEATURES
100
AcDbLine
 62
7
  6
CONTINUOUS
 10
237.2819411629
 20
194.6223968462
 11
236.9248036763
 21
194.9795343328
  0
LINE
  5
333
100
AcDbEntity
  8
7_ALL_FEATURES
100
AcDbLine
 62
7
  6
CONTINUOUS
 10
238.6642035944
 20
196.0685615394
 11
238.3106502038
 21
196.42211493
  0
LINE
  5
334
100
AcDbEntity
  8
3_ALL_AXES
100
AcDbLine
 62
7
  6
CONTINUOUS
 10
276.5799321478
 20
177.6805613939
 11
262.7235256873
 21
177.6805613939
  0
LINE
  5
335
100
AcDbEntity
  8
3_ALL_AXES
100
AcDbLine
 62
7
  6
CONTINUOUS
 10
295.6167289175
 20
178.4805613939
 11
291.6867289175
 21
178.4805613939
  0
LINE
  5
336
100
AcDbEntity
  8
3_ALL_AXES
100
AcDbLine
 62
7
  6
CONTINUOUS
 10
243.6867289175
 20
178.4805613939
 11
247.6167289175
 21
178.4805613939
  0
LINE
  5
337
100
AcDbEntity
  8
3_ALL_AXES
100
AcDbLine
 62
7
  6
CONTINUOUS
 10
297.4517289175
 20
180.3005613939
 11
289.8517289175
 21
180.3005613939
  0
LINE
  5
338
100
AcDbEntity
  8
3_ALL_AXES
100
AcDbLine
 62
7
  6
CONTINUOUS
 10
241.8517289175
 20
180.3005613939
 11
249.4517289175
 21
180.3005613939
  0
LINE
  5
339
100
AcDbEntity
  8
7_ALL_FEATURES
100
AcDbLine
 62
7
  6
CONTINUOUS
 10
248.7920788725
 20
207.4384676425
 11
248.7920788725
 21
201.4226551454
  0
LINE
  5
33A
100
AcDbEntity
  8
03___PRT_ALL_CURVES
100
AcDbLine
 62
40
  6
CONTINUOUS
 10
249.0398405565
 20
210.7281150913
 11
249.0398405565
 21
209.0281150913
  0
LINE
  5
33B
100
AcDbEntity
  8
03___PRT_ALL_CURVES
100
AcDbLine
 62
40
  6
CONTINUOUS
 10
249.0398405565
 20
219.5805613939
 11
249.0398405565
 21
221.7805613939
  0
LINE
  5
33C
100
AcDbEntity
  8
03___PRT_ALL_CURVES
100
AcDbLine
 62
40
  6
CONTINUOUS
 10
249.2519725908
 20
221.7805613939
 11
249.2519725908
 21
219.5805613939
  0
LINE
  5
33D
100
AcDbEntity
  8
03___PRT_ALL_CURVES
100
AcDbLine
 62
40
  6
CONTINUOUS
 10
249.2519725908
 20
209.0281150913
 11
249.2519725908
 21
210.7281150913
  0
LINE
  5
33E
100
AcDbEntity
  8
3_ALL_AXES
100
AcDbLine
 62
7
  6
CONTINUOUS
 10
249.4517289175
 20
180.3005613939
 11
249.4517289175
 21
180.6805613939
  0
LINE
  5
33F
100
AcDbEntity
  8
7_ALL_FEATURES
100
AcDbLine
 62
7
  6
CONTINUOUS
 10
249.4517289175
 20
180.6805613939
 11
249.4517289175
 21
181.1805613939
  0
LINE
  5
340
100
AcDbEntity
  8
7_ALL_FEATURES
100
AcDbLine
 62
7
  6
CONTINUOUS
 10
249.7113176881
 20
207.7468092737
 11
249.7113176881
 21
201.1143135142
  0
LINE
  5
341
100
AcDbEntity
  8
7_ALL_FEATURES
100
AcDbLine
 62
7
  6
CONTINUOUS
 10
249.8527390443
 20
201.4226551454
 11
249.8527390443
 21
207.4384676425
  0
LINE
  5
342
100
AcDbEntity
  8
3_ALL_AXES
100
AcDbLine
 62
7
  6
CONTINUOUS
 10
297.4517289175
 20
180.6805613939
 11
297.1842325316
 21
180.6805613939
  0
LINE
  5
343
100
AcDbEntity
  8
7_ALL_FEATURES
100
AcDbLine
 62
3
  6
CONTINUOUS
 10
297.1842325316
 20
180.6805613939
 11
289.8517289175
 21
180.6805613939
  0
LINE
  5
344
100
AcDbEntity
  8
7_ALL_FEATURES
100
AcDbLine
 62
3
  6
CONTINUOUS
 10
249.4517289175
 20
180.6805613939
 11
242.1192253035
 21
180.6805613939
  0
LINE
  5
345
100
AcDbEntity
  8
3_ALL_AXES
100
AcDbLine
 62
7
  6
CONTINUOUS
 10
241.8517289175
 20
180.6805613939
 11
242.1192253035
 21
180.6805613939
  0
LINE
  5
346
100
AcDbEntity
  8
7_ALL_FEATURES
100
AcDbLine
 62
7
  6
CONTINUOUS
 10
297.1842325316
 20
181.1805613939
 11
242.1192253035
 21
181.1805613939
  0
LINE
  5
347
100
AcDbEntity
  8
7_ALL_FEATURES
100
AcDbLine
 62
7
  6
CONTINUOUS
 10
241.5317289175
 20
182.1805613939
 11
297.7717289175
 21
182.1805613939
  0
LINE
  5
348
100
AcDbEntity
  8
7_ALL_FEATURES
100
AcDbLine
 62
3
  6
CONTINUOUS
 10
237.3203729755
 20
195.4318377017
 11
238.3106502038
 21
196.42211493
  0
LINE
  5
349
100
AcDbEntity
  8
7_ALL_FEATURES
100
AcDbLine
 62
7
  6
CONTINUOUS
 10
238.6642035944
 20
196.0685615394
 11
237.6739263661
 21
195.0782843111
  0
LINE
  5
34A
100
AcDbEntity
  8
3_ALL_AXES
100
AcDbLine
 62
7
  6
CONTINUOUS
 10
262.7235256873
 20
181.1805613939
 11
262.7235256873
 21
177.6805613939
  0
LINE
  5
34B
100
AcDbEntity
  8
3_ALL_AXES
100
AcDbLine
 62
7
  6
CONTINUOUS
 10
262.7235256873
 20
167.9754001149
 11
262.7235256873
 21
174.6805613939
  0
LINE
  5
34C
100
AcDbEntity
  8
3_ALL_AXES
100
AcDbLine
 62
7
  6
CONTINUOUS
 10
263.6517289175
 20
174.6805613939
 11
263.6517289175
 21
177.6805613939
  0
LINE
  5
34D
100
AcDbEntity
  8
3_ALL_AXES
100
AcDbLine
 62
7
  6
CONTINUOUS
 10
265.3216018986
 20
168.6805613939
 11
265.3216018986
 21
169.1805613939
  0
LINE
  5
34E
100
AcDbEntity
  8
7_ALL_FEATURES
100
AcDbLine
 62
9
  6
CONTINUOUS
 10
236.5108047415
 20
190.1719884268
 11
236.9543101581
 21
190.4028627334
  0
LINE
  5
34F
100
AcDbEntity
  8
7_ALL_FEATURES
100
AcDbLine
 62
7
  6
CONTINUOUS
 10
298.6517289175
 20
198.6805613939
 11
297.7717289175
 21
198.6805613939
  0
LINE
  5
350
100
AcDbEntity
  8
7_ALL_FEATURES
100
AcDbLine
 62
7
  6
CONTINUOUS
 10
241.5317289175
 20
198.6805613939
 11
240.6517289175
 21
198.6805613939
  0
LINE
  5
351
100
AcDbEntity
  8
7_ALL_FEATURES
100
AcDbLine
 62
9
  6
CONTINUOUS
 10
298.1599444481
 20
181.2726379194
 11
297.7164390315
 21
181.503512226
  0
LINE
  5
352
100
AcDbEntity
  8
7_ALL_FEATURES
100
AcDbLine
 62
7
  6
CONTINUOUS
 10
235.4517289175
 20
227.6805613939
 11
234.9517289175
 21
228.1805613939
  0
LINE
  5
353
100
AcDbEntity
  8
7_ALL_FEATURES
100
AcDbLine
 62
7
  6
CONTINUOUS
 10
237.1517289175
 20
227.1805613939
 11
236.6517289175
 21
227.6805613939
  0
LINE
  5
354
100
AcDbEntity
  8
7_ALL_FEATURES
100
AcDbLine
 62
7
  6
CONTINUOUS
 10
240.6517289175
 20
226.6805613939
 11
240.1517289175
 21
227.1805613939
  0
LINE
  5
355
100
AcDbEntity
  8
3_ALL_AXES
100
AcDbLine
 62
7
  6
CONTINUOUS
 10
267.0536527062
 20
168.6805613939
 11
267.0536527062
 21
169.1805613939
  0
LINE
  5
356
100
AcDbEntity
  8
3_ALL_AXES
100
AcDbLine
 62
7
  6
CONTINUOUS
 10
269.6517289175
 20
181.1805613939
 11
269.6517289175
 21
177.6805613939
  0
LINE
  5
357
100
AcDbEntity
  8
3_ALL_AXES
100
AcDbLine
 62
7
  6
CONTINUOUS
 10
269.6517289175
 20
174.6805613939
 11
269.6517289175
 21
170.1805613939
  0
LINE
  5
358
100
AcDbEntity
  8
7_ALL_FEATURES
100
AcDbLine
 62
7
  6
CONTINUOUS
 10
250.7078135229
 20
201.1143135142
 11
250.0648710787
 21
201.1143135142
  0
LINE
  5
359
100
AcDbEntity
  8
7_ALL_FEATURES
100
AcDbLine
 62
7
  6
CONTINUOUS
 10
249.7113176881
 20
201.1143135142
 11
249.0042109069
 21
201.1143135142
  0
LINE
  5
35A
100
AcDbEntity
  8
3_ALL_AXES
100
AcDbLine
 62
7
  6
CONTINUOUS
 10
272.2498051289
 20
168.6805613939
 11
272.2498051289
 21
169.1805613939
  0
LINE
  5
35B
100
AcDbEntity
  8
7_ALL_FEATURES
100
AcDbLine
 62
7
  6
CONTINUOUS
 10
298.6517289175
 20
226.6805613939
 11
299.1517289175
 21
227.1805613939
  0
LINE
  5
35C
100
AcDbEntity
  8
03___PRT_ALL_CURVES
100
AcDbLine
 62
40
  6
CONTINUOUS
 10
254.0880186407
 20
204.2805613939
 11
252.6559313107
 21
204.2805613939
  0
LINE
  5
35D
100
AcDbEntity
  8
03___PRT_ALL_CURVES
100
AcDbLine
 62
40
  6
CONTINUOUS
 10
245.1819327921
 20
204.2805613939
 11
246.1540085237
 21
204.2805613939
  0
LINE
  5
35E
100
AcDbEntity
  8
03___PRT_ALL_CURVES
100
AcDbLine
 62
40
  6
CONTINUOUS
 10
246.1540085214
 20
204.5805613939
 11
245.18193279
 21
204.5805613939
  0
LINE
  5
35F
100
AcDbEntity
  8
03___PRT_ALL_CURVES
100
AcDbLine
 62
40
  6
CONTINUOUS
 10
252.6559313139
 20
204.5805613939
 11
254.0880186441
 21
204.5805613939
  0
LINE
  5
360
100
AcDbEntity
  8
3_ALL_AXES
100
AcDbLine
 62
7
  6
CONTINUOUS
 10
273.9818559365
 20
168.6805613939
 11
273.9818559365
 21
169.1805613939
  0
LINE
  5
361
100
AcDbEntity
  8
3_ALL_AXES
100
AcDbLine
 62
7
  6
CONTINUOUS
 10
275.6517289175
 20
174.6805613939
 11
275.6517289175
 21
177.6805613939
  0
LINE
  5
362
100
AcDbEntity
  8
3_ALL_AXES
100
AcDbLine
 62
7
  6
CONTINUOUS
 10
276.5799321478
 20
181.1805613939
 11
276.5799321478
 21
177.6805613939
  0
LINE
  5
363
100
AcDbEntity
  8
3_ALL_AXES
100
AcDbLine
 62
7
  6
CONTINUOUS
 10
276.5799321478
 20
167.9754001149
 11
276.5799321478
 21
174.6805613939
  0
LINE
  5
364
100
AcDbEntity
  8
7_ALL_FEATURES
100
AcDbLine
 62
7
  6
CONTINUOUS
 10
302.1517289175
 20
227.1805613939
 11
302.6517289175
 21
227.6805613939
  0
LINE
  5
365
100
AcDbEntity
  8
7_ALL_FEATURES
100
AcDbLine
 62
7
  6
CONTINUOUS
 10
304.3517289175
 20
228.1805613939
 11
303.8517289175
 21
227.6805613939
  0
LINE
  5
366
100
AcDbEntity
  8
7_ALL_FEATURES
100
AcDbLine
 62
9
  6
CONTINUOUS
 10
241.143513387
 20
181.2726379194
 11
241.5870188036
 21
181.503512226
  0
LINE
  5
367
100
AcDbEntity
  8
7_ALL_FEATURES
100
AcDbLine
 62
7
  6
CONTINUOUS
 10
250.7078135229
 20
207.7468092737
 11
250.0648710787
 21
207.7468092737
  0
LINE
  5
368
100
AcDbEntity
  8
7_ALL_FEATURES
100
AcDbLine
 62
7
  6
CONTINUOUS
 10
249.7113176881
 20
207.7468092737
 11
249.0042109069
 21
207.7468092737
  0
LINE
  5
369
100
AcDbEntity
  8
7_ALL_FEATURES
100
AcDbLine
 62
9
  6
CONTINUOUS
 10
302.7926530936
 20
190.1719884268
 11
302.349147677
 21
190.4028627334
  0
LINE
  5
36A
100
AcDbEntity
  8
7_ALL_FEATURES
100
AcDbLine
 62
7
  6
CONTINUOUS
 10
301.629531469
 20
195.0782843111
 11
300.6392542407
 21
196.0685615394
  0
LINE
  5
36B
100
AcDbEntity
  8
7_ALL_FEATURES
100
AcDbLine
 62
3
  6
CONTINUOUS
 10
300.9928076313
 20
196.42211493
 11
301.9830848596
 21
195.4318377017
  0
LINE
  5
36C
100
AcDbEntity
  8
3_ALL_AXES
100
AcDbLine
 62
7
  6
CONTINUOUS
 10
289.8517289175
 20
180.3005613939
 11
289.8517289175
 21
180.6805613939
  0
LINE
  5
36D
100
AcDbEntity
  8
7_ALL_FEATURES
100
AcDbLine
 62
7
  6
CONTINUOUS
 10
289.8517289175
 20
180.6805613939
 11
289.8517289175
 21
181.1805613939
  0
LINE
  5
36E
100
AcDbEntity
  8
7_ALL_FEATURES
100
AcDbLine
 62
7
  6
CONTINUOUS
 10
300.6392542407
 20
196.0685615394
 11
300.9928076313
 21
196.42211493
  0
LINE
  5
36F
100
AcDbEntity
  8
7_ALL_FEATURES
100
AcDbLine
 62
7
  6
CONTINUOUS
 10
298.6517289175
 20
226.6805613939
 11
240.6517289175
 21
226.6805613939
  0
LINE
  5
370
100
AcDbEntity
  8
7_ALL_FEATURES
100
AcDbLine
 62
7
  6
CONTINUOUS
 10
237.1517289175
 20
227.1805613939
 11
302.1517289175
 21
227.1805613939
  0
LINE
  5
371
100
AcDbEntity
  8
7_ALL_FEATURES
100
AcDbLine
 62
7
  6
CONTINUOUS
 10
303.8517289175
 20
227.6805613939
 11
235.4517289175
 21
227.6805613939
  0
LINE
  5
372
100
AcDbEntity
  8
7_ALL_FEATURES
100
AcDbLine
 62
7
  6
CONTINUOUS
 10
234.9517289175
 20
228.1805613939
 11
304.3517289175
 21
228.1805613939
  0
LINE
  5
373
100
AcDbEntity
  8
7_ALL_FEATURES
100
AcDbLine
 62
9
  6
CONTINUOUS
 10
297.1842325316
 20
180.6805613939
 11
297.1842325316
 21
181.1805613939
  0
LINE
  5
374
100
AcDbEntity
  8
3_ALL_AXES
100
AcDbLine
 62
7
  6
CONTINUOUS
 10
297.4517289175
 20
180.3005613939
 11
297.4517289175
 21
180.6805613939
  0
LINE
  5
375
100
AcDbEntity
  8
7_ALL_FEATURES
100
AcDbLine
 62
7
  6
CONTINUOUS
 10
297.7717289175
 20
198.6805613939
 11
297.7717289175
 21
182.1805613939
  0
LINE
  5
376
100
AcDbEntity
  8
02___PRT_ALL_AXES
100
AcDbLine
 62
7
  6
CONTINUOUS
 10
298.6517289175
 20
226.6805613939
 11
298.6517289175
 21
198.6805613939
  0
LINE
  5
377
100
AcDbEntity
  8
7_ALL_FEATURES
100
AcDbLine
 62
7
  6
CONTINUOUS
 10
302.0215166722
 20
194.6223968462
 11
302.3786541588
 21
194.9795343328
  0
LINE
  5
378
100
AcDbEntity
  8
7_ALL_FEATURES
100
AcDbLine
 62
7
  6
CONTINUOUS
 10
233.7517289175
 20
235.6805613939
 11
234.9517289175
 21
235.6805613939
  0
LINE
  5
379
100
AcDbEntity
  8
7_ALL_FEATURES
100
AcDbLine
 62
7
  6
CONTINUOUS
 10
304.3517289175
 20
235.6805613939
 11
305.5517289355
 21
235.6805613939
  0
LINE
  5
37A
100
AcDbEntity
  8
7_ALL_FEATURES
100
AcDbLine
 62
7
  6
CONTINUOUS
 10
304.3517289175
 20
228.1805613939
 11
304.3517289175
 21
235.6805613939
  0
LINE
  5
37B
100
AcDbEntity
  8
7_ALL_FEATURES
100
AcDbLine
 62
7
  6
CONTINUOUS
 10
305.5517289175
 20
237.3805613939
 11
305.5517289175
 21
235.6805613939
  0
LINE
  5
37C
100
AcDbEntity
  8
7_ALL_FEATURES
100
AcDbLine
 62
7
  6
CONTINUOUS
 10
302.349147677
 20
190.4028627334
 11
297.7164390315
 21
181.503512226
  0
LINE
  5
37D
100
AcDbEntity
  8
7_ALL_FEATURES
100
AcDbLine
 62
3
  6
CONTINUOUS
 10
302.7926530936
 20
190.1719884268
 11
298.1599444481
 21
181.2726379194
  0
LINE
  5
37E
100
AcDbEntity
  8
7_ALL_FEATURES
100
AcDbLine
 62
7
  6
CONTINUOUS
 10
296.7717289175
 20
181.1805613939
 11
297.7717289175
 21
182.1805613939
  0
LINE
  5
37F
100
AcDbEntity
  8
7_ALL_FEATURES
100
AcDbLine
 62
9
  6
CONTINUOUS
 10
233.7517289175
 20
237.3805613939
 11
305.5517289175
 21
237.3805613939
  0
LINE
  5
380
100
AcDbEntity
  8
02___PRT_ALL_AXES
100
AcDbLine
 62
7
  6
CONTINUOUS
 10
227.7517289175
 20
237.6805613939
 11
311.5517289175
 21
237.6805613939
  0
LINE
  5
381
100
AcDbEntity
  8
7_ALL_FEATURES
100
AcDbLine
 62
7
  6
CONTINUOUS
 10
311.5517289175
 20
238.6805613939
 11
227.7517289175
 21
238.6805613939
  0
LINE
  5
382
100
AcDbEntity
  8
7_ALL_FEATURES
100
AcDbLine
 62
7
  6
CONTINUOUS
 10
299.2960609095
 20
239.5805613939
 11
240.0073969256
 21
239.5805613939
  0
LINE
  5
383
100
AcDbEntity
  8
7_ALL_FEATURES
100
AcDbLine
 62
7
  6
CONTINUOUS
 10
227.7517289175
 20
238.6805613939
 11
240.0073969256
 21
239.5805613939
  0
LINE
  5
384
100
AcDbEntity
  8
7_ALL_FEATURES
100
AcDbLine
 62
7
  6
CONTINUOUS
 10
311.5517289175
 20
238.6805613939
 11
299.2960609095
 21
239.5805613939
  0
LINE
  5
385
100
AcDbEntity
  8
7_ALL_FEATURES
100
AcDbLine
 62
7
  6
CONTINUOUS
 10
311.5517289175
 20
238.6805613939
 11
311.5517289175
 21
237.6805613939
  0
CIRCLE
  5
386
100
AcDbEntity
  8
7_ALL_FEATURES
100
AcDbCircle
 62
7
  6
CONTINUOUS
 10
114.5264377955
 20
77.9095544529
 40
41.9
  0
CIRCLE
  5
387
100
AcDbEntity
  8
7_ALL_FEATURES
100
AcDbCircle
 62
7
  6
CONTINUOUS
 10
114.5264377955
 20
77.9095544529
 40
29.644331992
  0
CIRCLE
  5
388
100
AcDbEntity
  8
7_ALL_FEATURES
100
AcDbCircle
 62
7
  6
CONTINUOUS
 10
114.5264377955
 20
77.9095544529
 40
27.5
  0
CIRCLE
  5
389
100
AcDbEntity
  8
7_ALL_FEATURES
100
AcDbCircle
 62
7
  6
CONTINUOUS
 10
114.5264377955
 20
77.9095544529
 40
27.0
  0
CIRCLE
  5
38A
100
AcDbEntity
  8
7_ALL_FEATURES
100
AcDbCircle
 62
7
  6
CONTINUOUS
 10
114.5264377955
 20
77.9095544529
 40
26.8
  0
CIRCLE
  5
38B
100
AcDbEntity
  8
7_ALL_FEATURES
100
AcDbCircle
 62
7
  6
CONTINUOUS
 10
114.5264377955
 20
77.9095544529
 40
26.499996933
  0
ARC
  5
38C
100
AcDbEntity
  8
7_ALL_FEATURES
100
AcDbCircle
 62
7
  6
CONTINUOUS
 10
562.600315384
 20
238.6717372001
 40
458.6559145028
100
AcDbArc
 50
187.0749024009
 51
187.2007991698
  0
ARC
  5
38D
100
AcDbEntity
  8
7_ALL_FEATURES
100
AcDbCircle
 62
7
  6
CONTINUOUS
 10
-333.5474397931
 20
238.6717372001
 40
458.6559145028
100
AcDbArc
 50
352.7992008302
 51
352.9250975991
  0
ARC
  5
38E
100
AcDbEntity
  8
3_ALL_AXES
100
AcDbCircle
 62
7
  6
CONTINUOUS
 10
114.6688805928
 20
182.1532014856
 40
4.1
100
AcDbArc
 50
296.3930257743
 51
333.1366968699
  0
ARC
  5
38F
100
AcDbEntity
  8
3_ALL_AXES
100
AcDbCircle
 62
7
  6
CONTINUOUS
 10
114.3839949981
 20
182.1532014856
 40
4.1
100
AcDbArc
 50
206.8633031301
 51
243.6069742257
  0
ARC
  5
390
100
AcDbEntity
  8
7_ALL_FEATURES
100
AcDbCircle
 62
7
  6
CONTINUOUS
 10
118.0264377955
 20
168.6805613939
 40
3.5
100
AcDbArc
 50
270.0
 51
360.0
  0
ARC
  5
391
100
AcDbEntity
  8
7_ALL_FEATURES
100
AcDbCircle
 62
7
  6
CONTINUOUS
 10
111.0264377955
 20
168.6805613939
 40
3.5
100
AcDbArc
 50
180.0
 51
270.0
  0
ARC
  5
392
100
AcDbEntity
  8
3_ALL_AXES
100
AcDbCircle
 62
7
  6
CONTINUOUS
 10
133.8870973389
 20
206.324762117
 40
1.9057968009
100
AcDbArc
 50
90.0022810882
 51
97.9918433936
  0
ARC
  5
393
100
AcDbEntity
  8
3_ALL_AXES
100
AcDbCircle
 62
7
  6
CONTINUOUS
 10
133.8870973385
 20
202.5363606533
 40
1.9057967834
100
AcDbArc
 50
262.0081690865
 51
269.9977189243
  0
ARC
  5
394
100
AcDbEntity
  8
7_ALL_FEATURES
100
AcDbCircle
 62
7
  6
CONTINUOUS
 10
78.3264377955
 20
237.3805613939
 40
0.3
100
AcDbArc
 50
0.0
 51
90.0
  0
ARC
  5
395
100
AcDbEntity
  8
7_ALL_FEATURES
100
AcDbCircle
 62
7
  6
CONTINUOUS
 10
150.7264377955
 20
237.3805613939
 40
0.3
100
AcDbArc
 50
90.0
 51
180.0
  0
ARC
  5
396
100
AcDbEntity
  8
7_ALL_FEATURES
100
AcDbCircle
 62
7
  6
CONTINUOUS
 10
376.5487662661
 20
288.3595005289
 40
153.6551281248
100
AcDbArc
 50
214.4573087096
 51
214.5968668959
  0
ARC
  5
397
100
AcDbEntity
  8
7_ALL_FEATURES
100
AcDbCircle
 62
7
  6
CONTINUOUS
 10
376.5487662661
 20
120.5016222589
 40
153.6551281248
100
AcDbArc
 50
145.4031331041
 51
145.5426912904
  0
ARC
  5
398
100
AcDbEntity
  8
7_ALL_FEATURES
100
AcDbCircle
 62
7
  6
CONTINUOUS
 10
375.4881060862
 20
120.5016222645
 40
153.6551281148
100
AcDbArc
 50
145.4031331041
 51
145.5426912904
  0
ARC
  5
399
100
AcDbEntity
  8
7_ALL_FEATURES
100
AcDbCircle
 62
7
  6
CONTINUOUS
 10
375.4881060862
 20
288.3595005233
 40
153.6551281148
100
AcDbArc
 50
214.4573087096
 51
214.5968668959
  0
ARC
  5
39A
100
AcDbEntity
  8
7_ALL_FEATURES
100
AcDbCircle
 62
3
  6
CONTINUOUS
 10
240.5023534908
 20
192.2498571863
 40
4.5
100
AcDbArc
 50
135.0
 51
207.5
  0
ARC
  5
39B
100
AcDbEntity
  8
7_ALL_FEATURES
100
AcDbCircle
 62
3
  6
CONTINUOUS
 10
298.8011043443
 20
192.2498571863
 40
4.5
100
AcDbArc
 50
332.5
 51
45.0
  0
ARC
  5
39C
100
AcDbEntity
  8
3_ALL_AXES
100
AcDbCircle
 62
7
  6
CONTINUOUS
 10
293.7941717149
 20
182.1532014856
 40
4.1
100
AcDbArc
 50
296.3930257743
 51
333.1366968699
  0
ARC
  5
39D
100
AcDbEntity
  8
3_ALL_AXES
100
AcDbCircle
 62
7
  6
CONTINUOUS
 10
293.5092861202
 20
182.1532014856
 40
4.1
100
AcDbArc
 50
206.8633031301
 51
243.6069742257
  0
ARC
  5
39E
100
AcDbEntity
  8
3_ALL_AXES
100
AcDbCircle
 62
7
  6
CONTINUOUS
 10
245.5092861202
 20
182.1532014856
 40
4.1
100
AcDbArc
 50
206.8633031301
 51
243.6069742257
  0
ARC
  5
39F
100
AcDbEntity
  8
3_ALL_AXES
100
AcDbCircle
 62
7
  6
CONTINUOUS
 10
245.7941717149
 20
182.1532014856
 40
4.1
100
AcDbArc
 50
296.3930257743
 51
333.1366968699
  0
ARC
  5
3A0
100
AcDbEntity
  8
7_ALL_FEATURES
100
AcDbCircle
 62
7
  6
CONTINUOUS
 10
240.5023534908
 20
192.2498571863
 40
4.0
100
AcDbArc
 50
135.0
 51
207.5
  0
ARC
  5
3A1
100
AcDbEntity
  8
7_ALL_FEATURES
100
AcDbCircle
 62
7
  6
CONTINUOUS
 10
298.8011043443
 20
192.2498571863
 40
4.0
100
AcDbArc
 50
332.5
 51
45.0
  0
ARC
  5
3A2
100
AcDbEntity
  8
3_ALL_AXES
100
AcDbCircle
 62
7
  6
CONTINUOUS
 10
273.1517289175
 20
168.6805613939
 40
3.5
100
AcDbArc
 50
270.0
 51
348.3747775532
  0
ARC
  5
3A3
100
AcDbEntity
  8
3_ALL_AXES
100
AcDbCircle
 62
7
  6
CONTINUOUS
 10
266.1517289175
 20
168.6805613939
 40
3.5
100
AcDbArc
 50
191.6252224468
 51
270.0
  0
ARC
  5
3A4
100
AcDbEntity
  8
3_ALL_AXES
100
AcDbCircle
 62
7
  6
CONTINUOUS
 10
251.3420365215
 20
205.5909739483
 40
2.5230098993
100
AcDbArc
 50
116.1642892693
 51
117.2507583729
  0
ARC
  5
3A5
100
AcDbEntity
  8
3_ALL_AXES
100
AcDbCircle
 62
7
  6
CONTINUOUS
 10
251.3414065406
 20
203.2688389498
 40
2.5215590413
100
AcDbArc
 50
242.6589477611
 51
243.8122893677
  0
ARC
  5
3A6
100
AcDbEntity
  8
3_ALL_AXES
100
AcDbCircle
 62
7
  6
CONTINUOUS
 10
251.3214363436
 20
203.2277664289
 40
2.4758893827
100
AcDbArc
 50
243.8075329509
 51
248.1694507469
  0
ARC
  5
3A7
100
AcDbEntity
  8
3_ALL_AXES
100
AcDbCircle
 62
7
  6
CONTINUOUS
 10
251.3167482909
 20
205.6440819162
 40
2.4641930735
100
AcDbArc
 50
111.9025048358
 51
116.1810475173
  0
ARC
  5
3A8
100
AcDbEntity
  8
7_ALL_FEATURES
100
AcDbCircle
 62
7
  6
CONTINUOUS
 10
250.2377176852
 20
206.0914136617
 40
1.739316592
100
AcDbArc
 50
75.7961475741
 51
86.3905511577
  0
ARC
  5
3A9
100
AcDbEntity
  8
7_ALL_FEATURES
100
AcDbCircle
 62
7
  6
CONTINUOUS
 10
250.2396382237
 20
202.7574541305
 40
1.7269653779
100
AcDbArc
 50
273.5714538995
 51
284.2418473687
  0
ARC
  5
3AA
100
AcDbEntity
  8
7_ALL_FEATURES
100
AcDbCircle
 62
7
  6
CONTINUOUS
 10
250.3468094815
 20
202.7460232542
 40
1.7154620986
100
AcDbArc
 50
270.0302035994
 51
279.2960224195
  0
ARC
  5
3AB
100
AcDbEntity
  8
7_ALL_FEATURES
100
AcDbCircle
 62
7
  6
CONTINUOUS
 10
250.3474362754
 20
206.1227839593
 40
1.7077774572
100
AcDbArc
 50
80.6830801021
 51
89.9906893728
  0
ARC
  5
3AC
100
AcDbEntity
  8
7_ALL_FEATURES
100
AcDbCircle
 62
7
  6
CONTINUOUS
 10
250.2415899871
 20
206.1288469774
 40
1.7017144175
100
AcDbArc
 50
86.4413247647
 51
89.9980543495
  0
ARC
  5
3AD
100
AcDbEntity
  8
7_ALL_FEATURES
100
AcDbCircle
 62
7
  6
CONTINUOUS
 10
250.2415899871
 20
202.7322758104
 40
1.7017144175
100
AcDbArc
 50
270.0019456505
 51
273.5586752353
  0
ARC
  5
3AE
100
AcDbEntity
  8
7_ALL_FEATURES
100
AcDbCircle
 62
3
  6
CONTINUOUS
 10
242.1192253035
 20
181.7805613939
 40
1.1
100
AcDbArc
 50
207.5
 51
270.0
  0
ARC
  5
3AF
100
AcDbEntity
  8
7_ALL_FEATURES
100
AcDbCircle
 62
3
  6
CONTINUOUS
 10
297.1842325316
 20
181.7805613939
 40
1.1
100
AcDbArc
 50
270.0
 51
332.5
  0
ARC
  5
3B0
100
AcDbEntity
  8
7_ALL_FEATURES
100
AcDbCircle
 62
7
  6
CONTINUOUS
 10
242.1192253035
 20
181.7805613939
 40
0.6
100
AcDbArc
 50
207.5
 51
270.0
  0
ARC
  5
3B1
100
AcDbEntity
  8
7_ALL_FEATURES
100
AcDbCircle
 62
7
  6
CONTINUOUS
 10
297.1842325316
 20
181.7805613939
 40
0.6
100
AcDbArc
 50
270.0
 51
332.5
  0
ARC
  5
3B2
100
AcDbEntity
  8
7_ALL_FEATURES
100
AcDbCircle
 62
7
  6
CONTINUOUS
 10
233.4517289175
 20
237.3805613939
 40
0.3
100
AcDbArc
 50
0.0
 51
90.0
  0
ARC
  5
3B3
100
AcDbEntity
  8
7_ALL_FEATURES
100
AcDbCircle
 62
7
  6
CONTINUOUS
 10
305.8517289175
 20
237.3805613939
 40
0.3
100
AcDbArc
 50
90.0
 51
180.0
  0
SPLINE
  5
3B4
100
AcDbEntity
  8
3_ALL_AXES
100
AcDbSpline
 62
7
  6
CONTINUOUS
 70
0
 71
3
 72
11
 73
7
 74
0
 42
0.0000001
 43
0.0000001
 44
0.0000000001
 40
0.0
 40
0.0
 40
0.0
 40
0.0
 40
0.2632778902
 40
0.5165110453
 40
0.7613276352
 40
1.0
 40
1.0
 40
1.0
 40
1.0
 10
135.192590383
 20
201.1074087337
 30
0.0
 10
135.1035270107
 20
201.0230213694
 30
0.0
 10
134.9183667687
 20
200.8679784144
 30
0.0
 10
134.6170063684
 20
200.6785556891
 30
0.0
 10
134.3016388652
 20
200.5397069574
 30
0.0
 10
134.0827331877
 20
200.4817616192
 30
0.0
 10
133.9732444001
 20
200.4621797985
 30
0.0
  0
SPLINE
  5
3B5
100
AcDbEntity
  8
3_ALL_AXES
100
AcDbSpline
 62
7
  6
CONTINUOUS
 70
0
 71
3
 72
11
 73
7
 74
0
 42
0.0000001
 43
0.0000001
 44
0.0000000001
 40
0.0
 40
0.0
 40
0.0
 40
0.0
 40
0.2386723658
 40
0.483488957
 40
0.7367221121
 40
1.0
 40
1.0
 40
1.0
 40
1.0
 10
133.9732447369
 20
208.3989429291
 30
0.0
 10
134.082733495
 20
208.3793610947
 30
0.0
 10
134.3016391112
 20
208.3214157392
 30
0.0
 10
134.6170065243
 20
208.1825670107
 30
0.0
 10
134.91836684
 20
207.9931443162
 30
0.0
 10
135.1035270332
 20
207.8381013971
 30
0.0
 10
135.192590383
 20
207.7537140542
 30
0.0
  0
SPLINE
  5
3B6
100
AcDbEntity
  8
3_ALL_AXES
100
AcDbSpline
 62
7
  6
CONTINUOUS
 70
0
 71
3
 72
11
 73
7
 74
0
 42
0.0000001
 43
0.0000001
 44
0.0000000001
 40
0.0
 40
0.0
 40
0.0
 40
0.0
 40
0.26284395
 40
0.515114446
 40
0.7596186672
 40
1.0
 40
1.0
 40
1.0
 40
1.0
 10
135.2480535108
 20
201.1541042141
 30
0.0
 10
135.1478762292
 20
201.0708802846
 30
0.0
 10
134.9392121103
 20
200.9218024163
 30
0.0
 10
134.5998111229
 20
200.7550258982
 30
0.0
 10
134.2469728468
 20
200.6533894894
 30
0.0
 10
134.0061285431
 20
200.6305638714
 30
0.0
 10
133.8870214644
 20
200.6305638714
 30
0.0
  0
SPLINE
  5
3B7
100
AcDbEntity
  8
3_ALL_AXES
100
AcDbSpline
 62
7
  6
CONTINUOUS
 70
0
 71
3
 72
15
 73
11
 74
0
 42
0.0000001
 43
0.0000001
 44
0.0000000001
 40
0.0
 40
0.0
 40
0.0
 40
0.0
 40
0.1249846682
 40
0.2499816306
 40
0.3749753783
 40
0.4999735615
 40
0.6249760131
 40
0.749979017
 40
0.8749927885
 40
1.0
 40
1.0
 40
1.0
 40
1.0
 10
135.248054071
 20
201.1541028656
 30
0.0
 10
135.3676698496
 20
201.253479051
 30
0.0
 10
135.5960618747
 20
201.4657328078
 30
0.0
 10
135.9011776361
 20
201.8198918254
 30
0.0
 10
136.165424819
 20
202.2055878284
 30
0.0
 10
136.3857001305
 20
202.6179628544
 30
0.0
 10
136.5595235179
 20
203.0519717209
 30
0.0
 10
136.6850171069
 20
203.502365066
 30
0.0
 10
136.7608218826
 20
203.9636731948
 30
0.0
 10
136.7777293604
 20
204.2750226996
 30
0.0
 10
136.7777293604
 20
204.4305613939
 30
0.0
  0
SPLINE
  5
3B8
100
AcDbEntity
  8
3_ALL_AXES
100
AcDbSpline
 62
7
  6
CONTINUOUS
 70
0
 71
3
 72
11
 73
7
 74
0
 42
0.0000001
 43
0.0000001
 44
0.0000000001
 40
0.0
 40
0.0
 40
0.0
 40
0.0
 40
0.26284395
 40
0.515114446
 40
0.7596186672
 40
1.0
 40
1.0
 40
1.0
 40
1.0
 10
135.2480535108
 20
207.7070185737
 30
0.0
 10
135.1478762292
 20
207.7902425032
 30
0.0
 10
134.9392121103
 20
207.9393203715
 30
0.0
 10
134.5998111229
 20
208.1060968896
 30
0.0
 10
134.2469728468
 20
208.2077332984
 30
0.0
 10
134.0061285431
 20
208.2305589165
 30
0.0
 10
133.8870214644
 20
208.2305589165
 30
0.0
  0
SPLINE
  5
3B9
100
AcDbEntity
  8
3_ALL_AXES
100
AcDbSpline
 62
7
  6
CONTINUOUS
 70
0
 71
3
 72
15
 73
11
 74
0
 42
0.0000001
 43
0.0000001
 44
0.0000000001
 40
0.0
 40
0.0
 40
0.0
 40
0.0
 40
0.1250123496
 40
0.250032535
 40
0.3750359697
 40
0.5000370412
 40
0.6250316398
 40
0.7500203444
 40
0.8750135891
 40
1.0
 40
1.0
 40
1.0
 40
1.0
 10
136.7777293604
 20
204.4305613939
 30
0.0
 10
136.7777293604
 20
204.586106478
 30
0.0
 10
136.7608183107
 20
204.8974701886
 30
0.0
 10
136.6850108697
 20
205.3587931172
 30
0.0
 10
136.5595083092
 20
205.8091910526
 30
0.0
 10
136.3856851989
 20
206.2431938538
 30
0.0
 10
136.1654114647
 20
206.6555555536
 30
0.0
 10
135.9011725883
 20
207.041238507
 30
0.0
 10
135.5960607385
 20
207.3953892568
 30
0.0
 10
135.367671515
 20
207.6076423532
 30
0.0
 10
135.248054071
 20
207.7070199222
 30
0.0
  0
SPLINE
  5
3BA
100
AcDbEntity
  8
3_ALL_AXES
100
AcDbSpline
 62
7
  6
CONTINUOUS
 70
0
 71
3
 72
21
 73
17
 74
0
 42
0.0000001
 43
0.0000001
 44
0.0000000001
 40
0.0
 40
0.0
 40
0.0
 40
0.0
 40
0.1433942773
 40
0.2119750005
 40
0.2769855874
 40
0.3378973564
 40
0.3947604859
 40
0.448318642
 40
0.5
 40
0.551681358
 40
0.6052395141
 40
0.6621026436
 40
0.7230144126
 40
0.7880249995
 40
0.8566057227
 40
1.0
 40
1.0
 40
1.0
 40
1.0
 10
136.5634206311
 20
204.4305613939
 30
0.0
 10
136.5634206311
 20
204.6836847992
 30
0.0
 10
136.5124761699
 20
205.0611782068
 30
0.0
 10
136.3406999755
 20
205.5205231868
 30
0.0
 10
136.1690654543
 20
205.8199487525
 30
0.0
 10
135.9587964878
 20
206.0673941824
 30
0.0
 10
135.7168950455
 20
206.2532302323
 30
0.0
 10
135.4517734528
 20
206.3690840769
 30
0.0
 10
135.1739558061
 20
206.4085639597
 30
0.0
 10
134.8961381595
 20
206.3690840769
 30
0.0
 10
134.6310165667
 20
206.2532302323
 30
0.0
 10
134.3891151244
 20
206.0673941824
 30
0.0
 10
134.178846158
 20
205.8199487525
 30
0.0
 10
134.0072116368
 20
205.5205231868
 30
0.0
 10
133.8354354423
 20
205.0611782068
 30
0.0
 10
133.7844909811
 20
204.6836847992
 30
0.0
 10
133.7844909811
 20
204.4305613939
 30
0.0
  0
SPLINE
  5
3BB
100
AcDbEntity
  8
3_ALL_AXES
100
AcDbSpline
 62
7
  6
CONTINUOUS
 70
0
 71
3
 72
21
 73
17
 74
0
 42
0.0000001
 43
0.0000001
 44
0.0000000001
 40
0.0
 40
0.0
 40
0.0
 40
0.0
 40
0.1433942773
 40
0.2119750005
 40
0.2769855874
 40
0.3378973564
 40
0.3947604859
 40
0.448318642
 40
0.5
 40
0.551681358
 40
0.6052395141
 40
0.6621026436
 40
0.7230144126
 40
0.7880249995
 40
0.8566057227
 40
1.0
 40
1.0
 40
1.0
 40
1.0
 10
136.5634206311
 20
204.4305613939
 30
0.0
 10
136.5634206311
 20
204.1774379886
 30
0.0
 10
136.5124761699
 20
203.799944581
 30
0.0
 10
136.3406999755
 20
203.340599601
 30
0.0
 10
136.1690654543
 20
203.0411740354
 30
0.0
 10
135.9587964878
 20
202.7937286054
 30
0.0
 10
135.7168950455
 20
202.6078925555
 30
0.0
 10
135.4517734528
 20
202.4920387109
 30
0.0
 10
135.1739558061
 20
202.4525588282
 30
0.0
 10
134.8961381595
 20
202.4920387109
 30
0.0
 10
134.6310165667
 20
202.6078925555
 30
0.0
 10
134.3891151244
 20
202.7937286054
 30
0.0
 10
134.178846158
 20
203.0411740354
 30
0.0
 10
134.0072116368
 20
203.340599601
 30
0.0
 10
133.8354354423
 20
203.799944581
 30
0.0
 10
133.7844909811
 20
204.1774379886
 30
0.0
 10
133.7844909811
 20
204.4305613939
 30
0.0
  0
SPLINE
  5
3BC
100
AcDbEntity
  8
7_ALL_FEATURES
100
AcDbSpline
 62
4
  6
CONTINUOUS
 70
0
 71
3
 72
105
 73
101
 74
0
 42
0.0000001
 43
0.0000001
 44
0.0000000001
 40
0.0
 40
0.0
 40
0.0
 40
0.0
 40
0.0625
 40
0.09375
 40
0.109375
 40
0.125
 40
0.140625
 40
0.1484375
 40
0.15625
 40
0.16015625
 40
0.1640625
 40
0.166015625
 40
0.1669921875
 40
0.16796875
 40
0.169921875
 40
0.171875
 40
0.1796875
 40
0.1875
 40
0.1953125
 40
0.203125
 40
0.21875
 40
0.25
 40
0.28125
 40
0.296875
 40
0.3046875
 40
0.3125
 40
0.3203125
 40
0.328125
 40
0.330078125
 40
0.33203125
 40
0.3330078125
 40
0.333984375
 40
0.3359375
 40
0.33984375
 40
0.34375
 40
0.3515625
 40
0.359375
 40
0.375
 40
0.390625
 40
0.40625
 40
0.421875
 40
0.4375
 40
0.453125
 40
0.46875
 40
0.4765625
 40
0.484375
 40
0.48828125
 40
0.4921875
 40
0.49609375
 40
0.498046875
 40
0.5
 40
0.501953125
 40
0.50390625
 40
0.5078125
 40
0.51171875
 40
0.515625
 40
0.5234375
 40
0.53125
 40
0.546875
 40
0.5625
 40
0.578125
 40
0.59375
 40
0.609375
 40
0.625
 40
0.640625
 40
0.6484375
 40
0.65625
 40
0.66015625
 40
0.6640625
 40
0.666015625
 40
0.6669921875
 40
0.66796875
 40
0.669921875
 40
0.671875
 40
0.6796875
 40
0.6875
 40
0.6953125
 40
0.703125
 40
0.71875
 40
0.75
 40
0.78125
 40
0.796875
 40
0.8046875
 40
0.8125
 40
0.8203125
 40
0.828125
 40
0.830078125
 40
0.83203125
 40
0.8330078125
 40
0.833984375
 40
0.8359375
 40
0.83984375
 40
0.84375
 40
0.8515625
 40
0.859375
 40
0.875
 40
0.890625
 40
0.90625
 40
0.9375
 40
1.0
 40
1.0
 40
1.0
 40
1.0
 10
113.7433031787
 20
184.6704480802
 30
0.0
 10
113.731018787
 20
184.659509772
 30
0.0
 10
113.7125922118
 20
184.6431023009
 30
0.0
 10
113.6910944975
 20
184.6239602824
 30
0.0
 10
113.6788101512
 20
184.6130219416
 30
0.0
 10
113.6695967181
 20
184.6048183105
 30
0.0
 10
113.6619194094
 20
184.5979815548
 30
0.0
 10
113.6557763238
 20
184.5925130396
 30
0.0
 10
113.6519397158
 20
184.5890931924
 30
0.0
 10
113.6488639699
 20
184.5863619527
 30
0.0
 10
113.6469563671
 20
184.5846443453
 30
0.0
 10
113.6455915075
 20
184.583463229
 30
0.0
 10
113.6448578022
 20
184.5827551221
 30
0.0
 10
113.6442981634
 20
184.58192203
 30
0.0
 10
113.6435391182
 20
184.5809233853
 30
0.0
 10
113.6417663781
 20
184.5784914773
 30
0.0
 10
113.6390867007
 20
184.5748583832
 30
0.0
 10
113.6355255528
 20
184.570005817
 30
0.0
 10
113.6319612604
 20
184.5651555087
 30
0.0
 10
113.6272099677
 20
184.5586876432
 30
0.0
 10
113.6188946909
 20
184.5473692475
 30
0.0
 10
113.6070160209
 20
184.5311999025
 30
0.0
 10
113.5951371435
 20
184.5150306879
 30
0.0
 10
113.586822157
 20
184.5037121097
 30
0.0
 10
113.5820704082
 20
184.4972445309
 30
0.0
 10
113.5785075152
 20
184.4923933429
 30
0.0
 10
113.5749411117
 20
184.4875440805
 30
0.0
 10
113.5722761517
 20
184.4839017347
 30
0.0
 10
113.5704842043
 20
184.4814819008
 30
0.0
 10
113.5697603378
 20
184.480461142
 30
0.0
 10
113.5691281077
 20
184.4796736826
 30
0.0
 10
113.5686902027
 20
184.4787796281
 30
0.0
 10
113.568014157
 20
184.477165506
 30
0.0
 10
113.5670012698
 20
184.4748854578
 30
0.0
 10
113.5654069762
 20
184.4712229399
 30
0.0
 10
113.5634050952
 20
184.466649737
 30
0.0
 10
113.5602071235
 20
184.4593298488
 30
0.0
 10
113.5562079303
 20
184.4501809369
 30
0.0
 10
113.5514096391
 20
184.4392018361
 30
0.0
 10
113.5466111508
 20
184.4282228441
 30
0.0
 10
113.5418127102
 20
184.4172438237
 30
0.0
 10
113.5370142762
 20
184.4062648077
 30
0.0
 10
113.5322157677
 20
184.3952858027
 30
0.0
 10
113.5282172538
 20
184.3861365916
 30
0.0
 10
113.5250178963
 20
184.3788173138
 30
0.0
 10
113.5230195421
 20
184.3742425577
 30
0.0
 10
113.5214180091
 20
184.3705832279
 30
0.0
 10
113.5202246618
 20
184.3678374296
 30
0.0
 10
113.5192053849
 20
184.3655534032
 30
0.0
 10
113.5184456322
 20
184.3637168993
 30
0.0
 10
113.5177237035
 20
184.3623648863
 30
0.0
 10
113.5175823971
 20
184.3609160551
 30
0.0
 10
113.5171911697
 20
184.3590181001
 30
0.0
 10
113.5167717215
 20
184.3566340529
 30
0.0
 10
113.5162385986
 20
184.3537781628
 30
0.0
 10
113.5155381714
 20
184.3499685747
 30
0.0
 10
113.5146590753
 20
184.3452071836
 30
0.0
 10
113.5132545124
 20
184.3375886258
 30
0.0
 10
113.5114981259
 20
184.3280655424
 30
0.0
 10
113.5093907537
 20
184.3166377936
 30
0.0
 10
113.5072833075
 20
184.3052100574
 30
0.0
 10
113.5051758658
 20
184.2937823197
 30
0.0
 10
113.5030684803
 20
184.2823545753
 30
0.0
 10
113.5009608651
 20
184.2709268593
 30
0.0
 10
113.499205238
 20
184.2614036737
 30
0.0
 10
113.4977991259
 20
184.2537853243
 30
0.0
 10
113.4969239725
 20
184.2490234027
 30
0.0
 10
113.4962154522
 20
184.2452149035
 30
0.0
 10
113.4957917877
 20
184.242832223
 30
0.0
 10
113.4954568221
 20
184.2411690933
 30
0.0
 10
113.4953254944
 20
184.240211307
 30
0.0
 10
113.4954204618
 20
184.2392255488
 30
0.0
 10
113.4954618224
 20
184.2380029121
 30
0.0
 10
113.4956247494
 20
184.2350607148
 30
0.0
 10
113.4958424013
 20
184.2306507239
 30
0.0
 10
113.4961478865
 20
184.2247688471
 30
0.0
 10
113.4964492836
 20
184.2188874756
 30
0.0
 10
113.4968525727
 20
184.2110454707
 30
0.0
 10
113.49755766
 20
184.1973220436
 30
0.0
 10
113.4985653099
 20
184.17771711
 30
0.0
 10
113.4995727046
 20
184.1581121722
 30
0.0
 10
113.5002781491
 20
184.1443887509
 30
0.0
 10
113.500680877
 20
184.1365467369
 30
0.0
 10
113.5009839961
 20
184.1306653934
 30
0.0
 10
113.501283014
 20
184.1247834112
 30
0.0
 10
113.501518776
 20
184.1203737155
 30
0.0
 10
113.5016580681
 20
184.117431133
 30
0.0
 10
113.5017427168
 20
184.1162092017
 30
0.0
 10
113.5017483592
 20
184.1152219879
 30
0.0
 10
113.5019810193
 20
184.1142701335
 30
0.0
 10
113.5024936521
 20
184.1126208171
 30
0.0
 10
113.5031709517
 20
184.1102560792
 30
0.0
 10
113.504285386
 20
184.1064772888
 30
0.0
 10
113.5056678984
 20
184.1017521605
 30
0.0
 10
113.5078858037
 20
184.0941928721
 30
0.0
 10
113.5106561661
 20
184.084743447
 30
0.0
 10
113.5139814652
 20
184.0734042715
 30
0.0
 10
113.5184148958
 20
184.0582853239
 30
0.0
 10
113.5261735407
 20
184.0318271876
 30
0.0
 10
113.5328237593
 20
184.0091487775
 30
0.0
 10
113.5372572491
 20
183.9940298392
 30
0.0
  0
SPLINE
  5
3BD
100
AcDbEntity
  8
7_ALL_FEATURES
100
AcDbSpline
 62
4
  6
CONTINUOUS
 70
0
 71
3
 72
153
 73
149
 74
0
 42
0.0000001
 43
0.0000001
 44
0.0000000001
 40
0.0
 40
0.0
 40
0.0
 40
0.0
 40
0.03125
 40
0.046875
 40
0.0625
 40
0.078125
 40
0.09375
 40
0.1015625
 40
0.109375
 40
0.11328125
 40
0.1171875
 40
0.12109375
 40
0.123046875
 40
0.1240234375
 40
0.125
 40
0.1259765625
 40
0.126953125
 40
0.12890625
 40
0.1328125
 40
0.13671875
 40
0.140625
 40
0.1484375
 40
0.15625
 40
0.171875
 40
0.1875
 40
0.203125
 40
0.21875
 40
0.2265625
 40
0.234375
 40
0.23828125
 40
0.2421875
 40
0.24609375
 40
0.248046875
 40
0.2490234375
 40
0.25
 40
0.2509765625
 40
0.251953125
 40
0.25390625
 40
0.2578125
 40
0.26171875
 40
0.265625
 40
0.2734375
 40
0.28125
 40
0.296875
 40
0.3125
 40
0.328125
 40
0.34375
 40
0.3515625
 40
0.359375
 40
0.36328125
 40
0.3671875
 40
0.37109375
 40
0.373046875
 40
0.3740234375
 40
0.375
 40
0.3759765625
 40
0.376953125
 40
0.37890625
 40
0.3828125
 40
0.38671875
 40
0.390625
 40
0.3984375
 40
0.40625
 40
0.421875
 40
0.4375
 40
0.453125
 40
0.46875
 40
0.4765625
 40
0.484375
 40
0.48828125
 40
0.4921875
 40
0.49609375
 40
0.498046875
 40
0.4990234375
 40
0.5
 40
0.5009765625
 40
0.501953125
 40
0.50390625
 40
0.5078125
 40
0.51171875
 40
0.515625
 40
0.5234375
 40
0.53125
 40
0.546875
 40
0.5625
 40
0.578125
 40
0.59375
 40
0.6015625
 40
0.609375
 40
0.61328125
 40
0.6171875
 40
0.62109375
 40
0.623046875
 40
0.6240234375
 40
0.625
 40
0.6259765625
 40
0.626953125
 40
0.62890625
 40
0.6328125
 40
0.63671875
 40
0.640625
 40
0.6484375
 40
0.65625
 40
0.671875
 40
0.6875
 40
0.703125
 40
0.71875
 40
0.7265625
 40
0.734375
 40
0.73828125
 40
0.7421875
 40
0.74609375
 40
0.748046875
 40
0.7490234375
 40
0.75
 40
0.7509765625
 40
0.751953125
 40
0.75390625
 40
0.7578125
 40
0.76171875
 40
0.765625
 40
0.7734375
 40
0.78125
 40
0.796875
 40
0.8125
 40
0.828125
 40
0.84375
 40
0.8515625
 40
0.859375
 40
0.86328125
 40
0.8671875
 40
0.87109375
 40
0.873046875
 40
0.8740234375
 40
0.875
 40
0.8759765625
 40
0.876953125
 40
0.87890625
 40
0.8828125
 40
0.88671875
 40
0.890625
 40
0.8984375
 40
0.90625
 40
0.921875
 40
0.9375
 40
0.953125
 40
0.96875
 40
1.0
 40
1.0
 40
1.0
 40
1.0
 10
113.5372572457
 20
183.9940298473
 30
0.0
 10
113.5422376916
 20
183.9851498951
 30
0.0
 10
113.5497083597
 20
183.9718299664
 30
0.0
 10
113.5596692538
 20
183.9540700632
 30
0.0
 10
113.5671399159
 20
183.9407501317
 30
0.0
 10
113.5746106101
 20
183.9274302153
 30
0.0
 10
113.5808360887
 20
183.9163302382
 30
0.0
 10
113.5858166954
 20
183.9074503613
 30
0.0
 10
113.5889290648
 20
183.9019001997
 30
0.0
 10
113.591420128
 20
183.8974606167
 30
0.0
 10
113.593285228
 20
183.8941294337
 30
0.0
 10
113.5948496496
 20
183.8913582061
 30
0.0
 10
113.5959247833
 20
183.8894090088
 30
0.0
 10
113.5965703135
 20
183.8883097623
 30
0.0
 10
113.5969666599
 20
183.8874442539
 30
0.0
 10
113.5976986276
 20
183.8867357495
 30
0.0
 10
113.598557516
 20
183.8857363123
 30
0.0
 10
113.6001151151
 20
183.884012813
 30
0.0
 10
113.6023117402
 20
183.8815373312
 30
0.0
 10
113.6049598963
 20
183.8785724629
 30
0.0
 10
113.6084865078
 20
183.8746173109
 30
0.0
 10
113.612896232
 20
183.8696740538
 30
0.0
 10
113.6199509746
 20
183.8617644605
 30
0.0
 10
113.6287696844
 20
183.8518776013
 30
0.0
 10
113.6393520088
 20
183.8400133078
 30
0.0
 10
113.6499343919
 20
183.8281490523
 30
0.0
 10
113.6587529552
 20
183.8182620981
 30
0.0
 10
113.6658079908
 20
183.8103526947
 30
0.0
 10
113.6702169701
 20
183.8054089551
 30
0.0
 10
113.6737451105
 20
183.8014547933
 30
0.0
 10
113.6763885958
 20
183.7984869
 30
0.0
 10
113.6785998347
 20
183.7960208826
 30
0.0
 10
113.6801313457
 20
183.7942804878
 30
0.0
 10
113.6810320338
 20
183.7933081215
 30
0.0
 10
113.6816356062
 20
183.7925164638
 30
0.0
 10
113.6825141837
 20
183.7919632657
 30
0.0
 10
113.6835896955
 20
183.7911424908
 30
0.0
 10
113.6855165343
 20
183.7897448887
 30
0.0
 10
113.6882457951
 20
183.7877280533
 30
0.0
 10
113.6915309095
 20
183.7853165232
 30
0.0
 10
113.6959075687
 20
183.7820981206
 30
0.0
 10
113.7013795889
 20
183.7780761545
 30
0.0
 10
113.7101341525
 20
183.7716404289
 30
0.0
 10
113.7210775875
 20
183.7635959724
 30
0.0
 10
113.7342096057
 20
183.7539425319
 30
0.0
 10
113.7473416707
 20
183.7442891416
 30
0.0
 10
113.7582849886
 20
183.7362445597
 30
0.0
 10
113.7670397864
 20
183.7298090849
 30
0.0
 10
113.7725112112
 20
183.7257864815
 30
0.0
 10
113.7768890925
 20
183.7225693869
 30
0.0
 10
113.7801704732
 20
183.7201538606
 30
0.0
 10
113.7829114156
 20
183.7181495282
 30
0.0
 10
113.7848174008
 20
183.7167296062
 30
0.0
 10
113.7859263254
 20
183.7159445933
 30
0.0
 10
113.7867022696
 20
183.715281546
 30
0.0
 10
113.7876913155
 20
183.7149024638
 30
0.0
 10
113.788935711
 20
183.7142979706
 30
0.0
 10
113.7911480359
 20
183.713286257
 30
0.0
 10
113.7942903938
 20
183.7118168243
 30
0.0
 10
113.7980689733
 20
183.7100638324
 30
0.0
 10
113.8031043723
 20
183.7077229028
 30
0.0
 10
113.809399548
 20
183.7047979759
 30
0.0
 10
113.819471311
 20
183.7001174022
 30
0.0
 10
113.8320611932
 20
183.6942669239
 30
0.0
 10
113.847168972
 20
183.68724624
 30
0.0
 10
113.8622767849
 20
183.6802256138
 30
0.0
 10
113.874866582
 20
183.6743749912
 30
0.0
 10
113.8849385153
 20
183.669694706
 30
0.0
 10
113.8912332579
 20
183.6667690459
 30
0.0
 10
113.8962695458
 20
183.6644296211
 30
0.0
 10
113.9000454099
 20
183.6626720319
 30
0.0
 10
113.9031962634
 20
183.6612169832
 30
0.0
 10
113.9053934222
 20
183.6601795917
 30
0.0
 10
113.9066621178
 20
183.6596162409
 30
0.0
 10
113.9075765214
 20
183.6591107824
 30
0.0
 10
113.9086328095
 20
183.6589223838
 30
0.0
 10
113.9099917027
 20
183.6585605916
 30
0.0
 10
113.9123928246
 20
183.6579789831
 30
0.0
 10
113.9158109433
 20
183.6571211744
 30
0.0
 10
113.9199178459
 20
183.6561033349
 30
0.0
 10
113.9253919137
 20
183.6547421881
 30
0.0
 10
113.9322351155
 20
183.6530421337
 30
0.0
 10
113.9431838935
 20
183.6503212756
 30
0.0
 10
113.9568699847
 20
183.6469204693
 30
0.0
 10
113.9732932417
 20
183.6428393796
 30
0.0
 10
113.9897165185
 20
183.6387583526
 30
0.0
 10
114.0034025602
 20
183.6353573895
 30
0.0
 10
114.0143514372
 20
183.632636845
 30
0.0
 10
114.0211943873
 20
183.6309359935
 30
0.0
 10
114.0266689717
 20
183.6295764826
 30
0.0
 10
114.0307742959
 20
183.6285536454
 30
0.0
 10
114.0341973531
 20
183.6277114733
 30
0.0
 10
114.0365896589
 20
183.627101951
 30
0.0
 10
114.0379626776
 20
183.6267848836
 30
0.0
 10
114.0389755767
 20
183.6264591048
 30
0.0
 10
114.0400529422
 20
183.6264696237
 30
0.0
 10
114.041466943
 20
183.6263663445
 30
0.0
 10
114.0439519212
 20
183.6262402603
 30
0.0
 10
114.0474964127
 20
183.626031566
 30
0.0
 10
114.051752147
 20
183.6257933634
 30
0.0
 10
114.0574256404
 20
183.6254714881
 30
0.0
 10
114.0645177877
 20
183.6250706066
 30
0.0
 10
114.0758650665
 20
183.6244283786
 30
0.0
 10
114.0900492188
 20
183.623625876
 30
0.0
 10
114.1070701789
 20
183.6226627436
 30
0.0
 10
114.1240911436
 20
183.6216996763
 30
0.0
 10
114.1382752842
 20
183.6208970112
 30
0.0
 10
114.1496225864
 20
183.6202551081
 30
0.0
 10
114.1567146742
 20
183.6198534007
 30
0.0
 10
114.1623882896
 20
183.6195332207
 30
0.0
 10
114.1666436514
 20
183.6192898386
 30
0.0
 10
114.1701893083
 20
183.6190973498
 30
0.0
 10
114.172672206
 20
183.618942336
 30
0.0
 10
114.1740895403
 20
183.6188854093
 30
0.0
 10
114.1751566663
 20
183.6187535482
 30
0.0
 10
114.1762080232
 20
183.618962525
 30
0.0
 10
114.1776153329
 20
183.6191222726
 30
0.0
 10
114.180075562
 20
183.6194572231
 30
0.0
 10
114.1835915149
 20
183.6199067641
 30
0.0
 10
114.1878100849
 20
183.620458609
 30
0.0
 10
114.1934350452
 20
183.6211900726
 30
0.0
 10
114.2004661769
 20
183.6221058847
 30
0.0
 10
114.2117160261
 20
183.6235703551
 30
0.0
 10
114.2257783241
 20
183.6254012294
 30
0.0
 10
114.2426530891
 20
183.6275981477
 30
0.0
 10
114.2595278458
 20
183.6297951315
 30
0.0
 10
114.2735901644
 20
183.6316258421
 30
0.0
 10
114.2848399724
 20
183.6330906401
 30
0.0
 10
114.2918712089
 20
183.6340056196
 30
0.0
 10
114.2974959541
 20
183.6347387919
 30
0.0
 10
114.3017151811
 20
183.6352854167
 30
0.0
 10
114.3052290783
 20
183.63575129
 30
0.0
 10
114.3076929773
 20
183.6360570847
 30
0.0
 10
114.3090944069
 20
183.6362635472
 30
0.0
 10
114.3101638254
 20
183.6363290308
 30
0.0
 10
114.3111631152
 20
183.6367361063
 30
0.0
 10
114.3125199632
 20
183.6371597225
 30
0.0
 10
114.3148830501
 20
183.6379565656
 30
0.0
 10
114.3182648472
 20
183.6390658891
 30
0.0
 10
114.3223204531
 20
183.6404095004
 30
0.0
 10
114.3277288186
 20
183.6421966431
 30
0.0
 10
114.3344889704
 20
183.6444320571
 30
0.0
 10
114.3453053838
 20
183.6480078892
 30
0.0
 10
114.358825842
 20
183.6524779642
 30
0.0
 10
114.3750504169
 20
183.6578419321
 30
0.0
 10
114.3912749852
 20
183.6632059327
 30
0.0
 10
114.4129077451
 20
183.670357922
 30
0.0
 10
114.4291323146
 20
183.6757219165
 30
0.0
 10
114.4399486944
 20
183.6792979123
 30
0.0
  0
SPLINE
  5
3BE
100
AcDbEntity
  8
7_ALL_FEATURES
100
AcDbSpline
 62
4
  6
CONTINUOUS
 70
0
 71
3
 72
137
 73
133
 74
0
 42
0.0000001
 43
0.0000001
 44
0.0000000001
 40
0.0
 40
0.0
 40
0.0
 40
0.0
 40
0.03125
 40
0.046875
 40
0.0625
 40
0.078125
 40
0.09375
 40
0.1015625
 40
0.109375
 40
0.1171875
 40
0.12109375
 40
0.123046875
 40
0.125
 40
0.126953125
 40
0.12890625
 40
0.1328125
 40
0.140625
 40
0.1484375
 40
0.15625
 40
0.171875
 40
0.1875
 40
0.203125
 40
0.21875
 40
0.2265625
 40
0.234375
 40
0.23828125
 40
0.2421875
 40
0.24609375
 40
0.248046875
 40
0.25
 40
0.251953125
 40
0.25390625
 40
0.2578125
 40
0.26171875
 40
0.265625
 40
0.2734375
 40
0.28125
 40
0.296875
 40
0.3125
 40
0.328125
 40
0.34375
 40
0.3515625
 40
0.359375
 40
0.36328125
 40
0.3671875
 40
0.37109375
 40
0.373046875
 40
0.375
 40
0.376953125
 40
0.37890625
 40
0.3828125
 40
0.38671875
 40
0.390625
 40
0.3984375
 40
0.40625
 40
0.421875
 40
0.4375
 40
0.453125
 40
0.46875
 40
0.4765625
 40
0.484375
 40
0.48828125
 40
0.4921875
 40
0.49609375
 40
0.498046875
 40
0.5
 40
0.501953125
 40
0.50390625
 40
0.5078125
 40
0.51171875
 40
0.515625
 40
0.5234375
 40
0.53125
 40
0.546875
 40
0.5625
 40
0.578125
 40
0.59375
 40
0.6015625
 40
0.609375
 40
0.61328125
 40
0.6171875
 40
0.62109375
 40
0.623046875
 40
0.625
 40
0.626953125
 40
0.62890625
 40
0.6328125
 40
0.63671875
 40
0.640625
 40
0.6484375
 40
0.65625
 40
0.671875
 40
0.6875
 40
0.703125
 40
0.71875
 40
0.7265625
 40
0.734375
 40
0.73828125
 40
0.7421875
 40
0.74609375
 40
0.748046875
 40
0.75
 40
0.751953125
 40
0.75390625
 40
0.7578125
 40
0.76171875
 40
0.765625
 40
0.7734375
 40
0.78125
 40
0.796875
 40
0.8125
 40
0.828125
 40
0.84375
 40
0.8515625
 40
0.859375
 40
0.86328125
 40
0.8671875
 40
0.87109375
 40
0.873046875
 40
0.875
 40
0.876953125
 40
0.87890625
 40
0.8828125
 40
0.88671875
 40
0.890625
 40
0.8984375
 40
0.90625
 40
0.921875
 40
0.9375
 40
0.953125
 40
0.96875
 40
1.0
 40
1.0
 40
1.0
 40
1.0
 10
114.0045896061
 20
186.0105559304
 30
0.0
 10
113.9976798064
 20
186.0063192277
 30
0.0
 10
113.9873151022
 20
185.9999641792
 30
0.0
 10
113.9734955154
 20
185.9914907588
 30
0.0
 10
113.9631307783
 20
185.9851357495
 30
0.0
 10
113.95276622
 20
185.9787805276
 30
0.0
 10
113.9441285309
 20
185.9734851714
 30
0.0
 10
113.9372196275
 20
185.9692474037
 30
0.0
 10
113.9320345407
 20
185.9660731288
 30
0.0
 10
113.9277244794
 20
185.9634150147
 30
0.0
 10
113.9246861548
 20
185.961579621
 30
0.0
 10
113.9229831988
 20
185.9604913425
 30
0.0
 10
113.9216123739
 20
185.9597863554
 30
0.0
 10
113.920599366
 20
185.9586562219
 30
0.0
 10
113.9191238783
 20
185.9572976731
 30
0.0
 10
113.9165999263
 20
185.9548511189
 30
0.0
 10
113.9129638782
 20
185.9513921645
 30
0.0
 10
113.9086136337
 20
185.9472259573
 30
0.0
 10
113.9028087626
 20
185.9416764151
 30
0.0
 10
113.8955542296
 20
185.9347376366
 30
0.0
 10
113.8868481392
 20
185.9264118851
 30
0.0
 10
113.8781421624
 20
185.9180859638
 30
0.0
 10
113.8708873455
 20
185.9111476101
 30
0.0
 10
113.8650830421
 20
185.9055972183
 30
0.0
 10
113.8614563953
 20
185.9021275384
 30
0.0
 10
113.8585526876
 20
185.8993533658
 30
0.0
 10
113.8563814517
 20
185.8972684334
 30
0.0
 10
113.8545512683
 20
185.8955446781
 30
0.0
 10
113.8531338175
 20
185.8941349733
 30
0.0
 10
113.8519431337
 20
185.8931615832
 30
0.0
 10
113.8512394849
 20
185.8918679896
 30
0.0
 10
113.8501311589
 20
185.8902550495
 30
0.0
 10
113.8488041213
 20
185.8882004987
 30
0.0
 10
113.847186692
 20
185.8857514637
 30
0.0
 10
113.8450388461
 20
185.8824803464
 30
0.0
 10
113.8423510506
 20
185.8783934143
 30
0.0
 10
113.8380522485
 20
185.8718532248
 30
0.0
 10
113.8326781683
 20
185.8636783664
 30
0.0
 10
113.8262295383
 20
185.8538683667
 30
0.0
 10
113.8197807674
 20
185.8440584399
 30
0.0
 10
113.8144070396
 20
185.8358833992
 30
0.0
 10
113.8101075327
 20
185.8293435742
 30
0.0
 10
113.8074215286
 20
185.8252557156
 30
0.0
 10
113.8052700059
 20
185.8219864999
 30
0.0
 10
113.8036638094
 20
185.8195316553
 30
0.0
 10
113.8023016272
 20
185.8174952815
 30
0.0
 10
113.801265003
 20
185.8158452567
 30
0.0
 10
113.8003423812
 20
185.8146649171
 30
0.0
 10
113.799973813
 20
185.8132663247
 30
0.0
 10
113.7992888507
 20
185.8114777733
 30
0.0
 10
113.7984990497
 20
185.8092159271
 30
0.0
 10
113.7975228663
 20
185.8065129076
 30
0.0
 10
113.7962312158
 20
185.8029049711
 30
0.0
 10
113.7946132534
 20
185.7983963894
 30
0.0
 10
113.7920264141
 20
185.7911819103
 30
0.0
 10
113.7887922083
 20
185.7821640691
 30
0.0
 10
113.7849114628
 20
185.7713425456
 30
0.0
 10
113.7810305618
 20
185.760521066
 30
0.0
 10
113.7777967447
 20
185.751503115
 30
0.0
 10
113.7752091279
 20
185.7442888553
 30
0.0
 10
113.7735931416
 20
185.7397797161
 30
0.0
 10
113.7722974353
 20
185.736172924
 30
0.0
 10
113.7713336429
 20
185.7334664083
 30
0.0
 10
113.7705050734
 20
185.7312155009
 30
0.0
 10
113.7698992063
 20
185.7294046321
 30
0.0
 10
113.7692890861
 20
185.7280741958
 30
0.0
 10
113.7692733511
 20
185.7266379697
 30
0.0
 10
113.7690447446
 20
185.7247599554
 30
0.0
 10
113.7688302221
 20
185.7223997588
 30
0.0
 10
113.7685423041
 20
185.7195729498
 30
0.0
 10
113.7681690632
 20
185.7158019756
 30
0.0
 10
113.7676988655
 20
185.7110889069
 30
0.0
 10
113.7669485879
 20
185.7035476343
 30
0.0
 10
113.7660100367
 20
185.6941211678
 30
0.0
 10
113.7648840975
 20
185.6828093552
 30
0.0
 10
113.7637579959
 20
185.6714975553
 30
0.0
 10
113.762819851
 20
185.662071057
 30
0.0
 10
113.7620687607
 20
185.654529848
 30
0.0
 10
113.7616006286
 20
185.6498166175
 30
0.0
 10
113.7612231481
 20
185.6460459754
 30
0.0
 10
113.7609481825
 20
185.643218152
 30
0.0
 10
113.760693135
 20
185.6408611293
 30
0.0
 10
113.7605472074
 20
185.6389766396
 30
0.0
 10
113.760278976
 20
185.637560189
 30
0.0
 10
113.7606168322
 20
185.6361555073
 30
0.0
 10
113.7608555928
 20
185.6342784873
 30
0.0
 10
113.7612266816
 20
185.6319336228
 30
0.0
 10
113.7616408968
 20
185.6291191817
 30
0.0
 10
113.7622040433
 20
185.6253668044
 30
0.0
 10
113.762904258
 20
185.6206762605
 30
0.0
 10
113.7640266804
 20
185.6131714309
 30
0.0
 10
113.7654289905
 20
185.6037903789
 30
0.0
 10
113.7671120902
 20
185.5925331273
 30
0.0
 10
113.7687950282
 20
185.5812758566
 30
0.0
 10
113.7701977426
 20
185.5718948522
 30
0.0
 10
113.7713193563
 20
185.5643899274
 30
0.0
 10
113.7720216266
 20
185.5596996254
 30
0.0
 10
113.772580554
 20
185.5559467518
 30
0.0
 10
113.7730076591
 20
185.5531338269
 30
0.0
 10
113.7733384183
 20
185.5507842185
 30
0.0
 10
113.7736594591
 20
185.548916877
 30
0.0
 10
113.7737460364
 20
185.5474826377
 30
0.0
 10
113.7744212103
 20
185.5461771588
 30
0.0
 10
113.7751158377
 20
185.5443915426
 30
0.0
 10
113.7760546638
 20
185.5421749541
 30
0.0
 10
113.777151061
 20
185.5395084425
 30
0.0
 10
113.7786234701
 20
185.5359554009
 30
0.0
 10
113.7804603703
 20
185.5315133089
 30
0.0
 10
113.7834014296
 20
185.5244064034
 30
0.0
 10
113.7870770565
 20
185.5155226183
 30
0.0
 10
113.7914881267
 20
185.5048621491
 30
0.0
 10
113.7958990408
 20
185.4942016333
 30
0.0
 10
113.799575058
 20
185.4853179649
 30
0.0
 10
113.8025153367
 20
185.478210826
 30
0.0
 10
113.8043542208
 20
185.4737693272
 30
0.0
 10
113.8058225581
 20
185.470215068
 30
0.0
 10
113.8069313952
 20
185.4675522761
 30
0.0
 10
113.8078312998
 20
185.4653240498
 30
0.0
 10
113.8086053344
 20
185.4635621768
 30
0.0
 10
113.8090380035
 20
185.4621841877
 30
0.0
 10
113.8100350446
 20
185.4610221819
 30
0.0
 10
113.8111672902
 20
185.459397395
 30
0.0
 10
113.8126502358
 20
185.4573922965
 30
0.0
 10
113.814400819
 20
185.4549750987
 30
0.0
 10
113.8167450421
 20
185.4517560381
 30
0.0
 10
113.8196718586
 20
185.4477308873
 30
0.0
 10
113.8243567002
 20
185.4412913866
 30
0.0
 10
113.8302120881
 20
185.4332417566
 30
0.0
 10
113.8372388383
 20
185.4235823096
 30
0.0
 10
113.8442655122
 20
185.4139228334
 30
0.0
 10
113.8536344376
 20
185.401043542
 30
0.0
 10
113.8606611256
 20
185.3913840712
 30
0.0
 10
113.8653455856
 20
185.3849444245
 30
0.0
  0
SPLINE
  5
3BF
100
AcDbEntity
  8
7_ALL_FEATURES
100
AcDbSpline
 62
4
  6
CONTINUOUS
 70
0
 71
3
 72
83
 73
79
 74
0
 42
0.0000001
 43
0.0000001
 44
0.0000000001
 40
0.0
 40
0.0
 40
0.0
 40
0.0
 40
0.0625
 40
0.09375
 40
0.109375
 40
0.125
 40
0.140625
 40
0.15625
 40
0.16015625
 40
0.1640625
 40
0.166015625
 40
0.16796875
 40
0.171875
 40
0.1796875
 40
0.1875
 40
0.203125
 40
0.21875
 40
0.25
 40
0.28125
 40
0.296875
 40
0.3125
 40
0.3203125
 40
0.328125
 40
0.33203125
 40
0.333984375
 40
0.3359375
 40
0.33984375
 40
0.34375
 40
0.359375
 40
0.375
 40
0.390625
 40
0.40625
 40
0.4375
 40
0.453125
 40
0.46875
 40
0.4765625
 40
0.484375
 40
0.4921875
 40
0.49609375
 40
0.5
 40
0.50390625
 40
0.5078125
 40
0.515625
 40
0.5234375
 40
0.53125
 40
0.546875
 40
0.5625
 40
0.59375
 40
0.609375
 40
0.625
 40
0.640625
 40
0.65625
 40
0.66015625
 40
0.6640625
 40
0.666015625
 40
0.66796875
 40
0.671875
 40
0.6796875
 40
0.6875
 40
0.703125
 40
0.71875
 40
0.75
 40
0.78125
 40
0.796875
 40
0.8125
 40
0.8203125
 40
0.828125
 40
0.83203125
 40
0.833984375
 40
0.8359375
 40
0.83984375
 40
0.84375
 40
0.859375
 40
0.875
 40
0.890625
 40
0.90625
 40
0.9375
 40
1.0
 40
1.0
 40
1.0
 40
1.0
 10
114.5763345923
 20
186.0105559304
 30
0.0
 10
114.5650850555
 20
186.0149474049
 30
0.0
 10
114.5482107782
 20
186.021534688
 30
0.0
 10
114.5285240239
 20
186.0292196017
 30
0.0
 10
114.5172745891
 20
186.0336113379
 30
0.0
 10
114.5088371238
 20
186.0369041408
 30
0.0
 10
114.5004011454
 20
186.0402007621
 30
0.0
 10
114.4940699929
 20
186.0426625222
 30
0.0
 10
114.4898557078
 20
186.0443203455
 30
0.0
 10
114.4880901084
 20
186.0449863293
 30
0.0
 10
114.4867001339
 20
186.0455769136
 30
0.0
 10
114.4852278569
 20
186.0459561294
 30
0.0
 10
114.4826131325
 20
186.0465215501
 30
0.0
 10
114.4788977635
 20
186.0473805335
 30
0.0
 10
114.4729420231
 20
186.0487262713
 30
0.0
 10
114.4655011668
 20
186.0504182529
 30
0.0
 10
114.4535936533
 20
186.0531199153
 30
0.0
 10
114.4387100595
 20
186.0564990662
 30
0.0
 10
114.4238259532
 20
186.059876811
 30
0.0
 10
114.4119192597
 20
186.0625807231
 30
0.0
 10
114.4044763536
 20
186.0642670804
 30
0.0
 10
114.3985248151
 20
186.0656243478
 30
0.0
 10
114.3947987491
 20
186.0664539801
 30
0.0
 10
114.3922032377
 20
186.0670721186
 30
0.0
 10
114.3907001636
 20
186.0673668312
 30
0.0
 10
114.3891220434
 20
186.0674411682
 30
0.0
 10
114.3871750443
 20
186.0676094148
 30
0.0
 10
114.3824811343
 20
186.0679512104
 30
0.0
 10
114.3754491366
 20
186.0684899425
 30
0.0
 10
114.3660680713
 20
186.069193371
 30
0.0
 10
114.356688363
 20
186.0699007742
 30
0.0
 10
114.3441816058
 20
186.0708426213
 30
0.0
 10
114.331675011
 20
186.0717846623
 30
0.0
 10
114.3191682887
 20
186.0727271395
 30
0.0
 10
114.3113517706
 20
186.0733149356
 30
0.0
 10
114.3050981479
 20
186.0737880687
 30
0.0
 10
114.3004090456
 20
186.074134981
 30
0.0
 10
114.2964979148
 20
186.0744493261
 30
0.0
 10
114.2933769622
 20
186.0746441674
 30
0.0
 10
114.2910145188
 20
186.0749450519
 30
0.0
 10
114.2887350151
 20
186.0746552395
 30
0.0
 10
114.2856667048
 20
186.0744751611
 30
0.0
 10
114.2818412571
 20
186.0741792696
 30
0.0
 10
114.2772464652
 20
186.0738545015
 30
0.0
 10
114.271121562
 20
186.0734108942
 30
0.0
 10
114.2634649243
 20
186.0728600051
 30
0.0
 10
114.2512145877
 20
186.0719765802
 30
0.0
 10
114.2389641768
 20
186.0710935855
 30
0.0
 10
114.2267137761
 20
186.070210802
 30
0.0
 10
114.217526019
 20
186.0695476506
 30
0.0
 10
114.2083380834
 20
186.0688886486
 30
0.0
 10
114.2014476345
 20
186.0683827468
 30
0.0
 10
114.1968532198
 20
186.0680635994
 30
0.0
 10
114.1949400441
 20
186.0679036567
 30
0.0
 10
114.1934067886
 20
186.0678386057
 30
0.0
 10
114.1918834621
 20
186.0675435135
 30
0.0
 10
114.1892222541
 20
186.0669202198
 30
0.0
 10
114.1854181213
 20
186.0660855661
 30
0.0
 10
114.1793328543
 20
186.0647189551
 30
0.0
 10
114.1717258079
 20
186.0630213665
 30
0.0
 10
114.1595548034
 20
186.0602992335
 30
0.0
 10
114.1443408752
 20
186.0568988012
 30
0.0
 10
114.1291273003
 20
186.0534969221
 30
0.0
 10
114.1169557304
 20
186.0507771039
 30
0.0
 10
114.1093500976
 20
186.0490737282
 30
0.0
 10
114.1032619326
 20
186.0477189807
 30
0.0
 10
114.0994651773
 20
186.0468541256
 30
0.0
 10
114.0967907186
 20
186.046285077
 30
0.0
 10
114.0952886321
 20
186.0459030335
 30
0.0
 10
114.0938851359
 20
186.0453067789
 30
0.0
 10
114.0920970671
 20
186.0446346789
 30
0.0
 10
114.0878334374
 20
186.042961377
 30
0.0
 10
114.0814263437
 20
186.0404767349
 30
0.0
 10
114.0728902103
 20
186.0371494123
 30
0.0
 10
114.0643522958
 20
186.0338259594
 30
0.0
 10
114.0529690312
 20
186.0293933388
 30
0.0
 10
114.033048027
 20
186.0216368855
 30
0.0
 10
114.0159729803
 20
186.01498828
 30
0.0
 10
114.0045895937
 20
186.0105559245
 30
0.0
  0
SPLINE
  5
3C0
100
AcDbEntity
  8
7_ALL_FEATURES
100
AcDbSpline
 62
4
  6
CONTINUOUS
 70
0
 71
3
 72
131
 73
127
 74
0
 42
0.0000001
 43
0.0000001
 44
0.0000000001
 40
0.0
 40
0.0
 40
0.0
 40
0.0
 40
0.03125
 40
0.0625
 40
0.078125
 40
0.0859375
 40
0.09375
 40
0.1015625
 40
0.10546875
 40
0.109375
 40
0.111328125
 40
0.11328125
 40
0.1171875
 40
0.125
 40
0.1328125
 40
0.140625
 40
0.15625
 40
0.171875
 40
0.1875
 40
0.1953125
 40
0.203125
 40
0.2109375
 40
0.21484375
 40
0.21875
 40
0.220703125
 40
0.22265625
 40
0.224609375
 40
0.2265625
 40
0.23046875
 40
0.234375
 40
0.25
 40
0.265625
 40
0.28125
 40
0.296875
 40
0.3046875
 40
0.3125
 40
0.3203125
 40
0.328125
 40
0.330078125
 40
0.33203125
 40
0.3330078125
 40
0.333984375
 40
0.3359375
 40
0.33984375
 40
0.34375
 40
0.3515625
 40
0.359375
 40
0.375
 40
0.390625
 40
0.40625
 40
0.4140625
 40
0.421875
 40
0.4296875
 40
0.4375
 40
0.44140625
 40
0.4453125
 40
0.447265625
 40
0.44921875
 40
0.453125
 40
0.45703125
 40
0.4609375
 40
0.46875
 40
0.484375
 40
0.5
 40
0.515625
 40
0.53125
 40
0.5390625
 40
0.54296875
 40
0.546875
 40
0.55078125
 40
0.552734375
 40
0.5546875
 40
0.55859375
 40
0.5625
 40
0.5703125
 40
0.578125
 40
0.5859375
 40
0.59375
 40
0.609375
 40
0.625
 40
0.640625
 40
0.6484375
 40
0.65625
 40
0.66015625
 40
0.6640625
 40
0.666015625
 40
0.6669921875
 40
0.66796875
 40
0.669921875
 40
0.671875
 40
0.6796875
 40
0.6875
 40
0.6953125
 40
0.703125
 40
0.71875
 40
0.734375
 40
0.75
 40
0.765625
 40
0.76953125
 40
0.7734375
 40
0.775390625
 40
0.77734375
 40
0.779296875
 40
0.78125
 40
0.78515625
 40
0.7890625
 40
0.796875
 40
0.8046875
 40
0.8125
 40
0.828125
 40
0.84375
 40
0.859375
 40
0.8671875
 40
0.875
 40
0.8828125
 40
0.88671875
 40
0.888671875
 40
0.890625
 40
0.89453125
 40
0.8984375
 40
0.90625
 40
0.9140625
 40
0.921875
 40
0.9375
 40
0.96875
 40
1.0
 40
1.0
 40
1.0
 40
1.0
 10
114.6489994416
 20
185.3258879753
 30
0.0
 10
114.6556335739
 20
185.3318573488
 30
0.0
 10
114.6689018945
 20
185.3437960565
 30
0.0
 10
114.685487015
 20
185.3587196381
 30
0.0
 10
114.6970971145
 20
185.3691657833
 30
0.0
 10
114.7037306581
 20
185.3751355706
 30
0.0
 10
114.7087080656
 20
185.3796113299
 30
0.0
 10
114.7128487388
 20
185.3833461658
 30
0.0
 10
114.7161773517
 20
185.3863227377
 30
0.0
 10
114.7182211321
 20
185.3882088189
 30
0.0
 10
114.7199399842
 20
185.389658771
 30
0.0
 10
114.7210861611
 20
185.3915111901
 30
0.0
 10
114.7233587908
 20
185.3945654068
 30
0.0
 10
114.7264659079
 20
185.3990266094
 30
0.0
 10
114.730254158
 20
185.4043380896
 30
0.0
 10
114.7352843004
 20
185.4114347218
 30
0.0
 10
114.7415791377
 20
185.4203004807
 30
0.0
 10
114.7491298643
 20
185.4309415538
 30
0.0
 10
114.755422851
 20
185.4398086149
 30
0.0
 10
114.7604570646
 20
185.446902382
 30
0.0
 10
114.7642328236
 20
185.4522226528
 30
0.0
 10
114.767379033
 20
185.4566563444
 30
0.0
 10
114.7698965666
 20
185.4602030065
 30
0.0
 10
114.7714687382
 20
185.4624203321
 30
0.0
 10
114.7727294226
 20
185.4641926771
 30
0.0
 10
114.7736668666
 20
185.4655260852
 30
0.0
 10
114.7741853322
 20
185.4670749363
 30
0.0
 10
114.7750229479
 20
185.4690648277
 30
0.0
 10
114.776019952
 20
185.4715779104
 30
0.0
 10
114.7784539266
 20
185.4775881415
 30
0.0
 10
114.7820876017
 20
185.4866123784
 30
0.0
 10
114.7869423687
 20
185.4986396141
 30
0.0
 10
114.7917945469
 20
185.5106682046
 30
0.0
 10
114.7958384355
 20
185.5206917474
 30
0.0
 10
114.7990738647
 20
185.5287105824
 30
0.0
 10
114.8014992376
 20
185.5347248761
 30
0.0
 10
114.8039292471
 20
185.5407384996
 30
0.0
 10
114.8057387437
 20
185.5452506023
 30
0.0
 10
114.8069653101
 20
185.5482557384
 30
0.0
 10
114.8074462679
 20
185.5495122421
 30
0.0
 10
114.8079012782
 20
185.5505072656
 30
0.0
 10
114.8080994018
 20
185.5515395156
 30
0.0
 10
114.8083267627
 20
185.5533632495
 30
0.0
 10
114.8087138376
 20
185.5559595592
 30
0.0
 10
114.8092983559
 20
185.5601186979
 30
0.0
 10
114.8100409202
 20
185.5653158945
 30
0.0
 10
114.8112223614
 20
185.5736323744
 30
0.0
 10
114.8127014594
 20
185.5840276421
 30
0.0
 10
114.8144753468
 20
185.5965021094
 30
0.0
 10
114.8159539582
 20
185.6068974547
 30
0.0
 10
114.8171364699
 20
185.6152137638
 30
0.0
 10
114.8180242627
 20
185.6214509233
 30
0.0
 10
114.8189086081
 20
185.6276883559
 30
0.0
 10
114.8196562964
 20
185.6328853664
 30
0.0
 10
114.8202304096
 20
185.6370448782
 30
0.0
 10
114.8206439571
 20
185.6396402396
 30
0.0
 10
114.8203316244
 20
185.6417674581
 30
0.0
 10
114.8201316255
 20
185.6438857815
 30
0.0
 10
114.8198430861
 20
185.6465367375
 30
0.0
 10
114.8195133339
 20
185.6497165786
 30
0.0
 10
114.8190679106
 20
185.6539568223
 30
0.0
 10
114.8182911017
 20
185.6613770369
 30
0.0
 10
114.8171799636
 20
185.671977452
 30
0.0
 10
114.8158472415
 20
185.6846979132
 30
0.0
 10
114.8145142023
 20
185.6974183482
 30
0.0
 10
114.8134038571
 20
185.7080188287
 30
0.0
 10
114.8126256604
 20
185.7154389288
 30
0.0
 10
114.8121824577
 20
185.7196793556
 30
0.0
 10
114.8118458852
 20
185.7228586344
 30
0.0
 10
114.8115786924
 20
185.7255113503
 30
0.0
 10
114.811335141
 20
185.7276260831
 30
0.0
 10
114.8112001512
 20
185.7297679221
 30
0.0
 10
114.8102544485
 20
185.7322512246
 30
0.0
 10
114.8088259465
 20
185.7362456375
 30
0.0
 10
114.8070112811
 20
185.7412314033
 30
0.0
 10
114.8048461308
 20
185.7472174305
 30
0.0
 10
114.8026776489
 20
185.7532026255
 30
0.0
 10
114.7997875105
 20
185.7611831791
 30
0.0
 10
114.7961743851
 20
185.7711587503
 30
0.0
 10
114.7918390502
 20
185.783129575
 30
0.0
 10
114.7882254889
 20
185.793104959
 30
0.0
 10
114.7853363094
 20
185.8010859245
 30
0.0
 10
114.7835267896
 20
185.8060725336
 30
0.0
 10
114.7820878345
 20
185.8100652428
 30
0.0
 10
114.7811687271
 20
185.8125528785
 30
0.0
 10
114.7805649544
 20
185.8143098708
 30
0.0
 10
114.7801579795
 20
185.8152893847
 30
0.0
 10
114.7795176254
 20
185.8161766886
 30
0.0
 10
114.7787969527
 20
185.8173173362
 30
0.0
 10
114.7770016839
 20
185.8200289499
 30
0.0
 10
114.7743363561
 20
185.8241072656
 30
0.0
 10
114.7707668258
 20
185.8295387933
 30
0.0
 10
114.7672015075
 20
185.8349719845
 30
0.0
 10
114.762446299
 20
185.8422156698
 30
0.0
 10
114.756502639
 20
185.8512703893
 30
0.0
 10
114.7493707401
 20
185.8621363652
 30
0.0
 10
114.7422363076
 20
185.8730009107
 30
0.0
 10
114.7368927144
 20
185.8811533765
 30
0.0
 10
114.7333190588
 20
185.8865820397
 30
0.0
 10
114.7318467938
 20
185.8888533792
 30
0.0
 10
114.7306298881
 20
185.8906485305
 30
0.0
 10
114.7298244351
 20
185.8920550173
 30
0.0
 10
114.728609624
 20
185.8932319707
 30
0.0
 10
114.7269793639
 20
185.8947953478
 30
0.0
 10
114.7249451382
 20
185.8967515873
 30
0.0
 10
114.7216883651
 20
185.8998804424
 30
0.0
 10
114.71761809
 20
185.9037918994
 30
0.0
 10
114.7127334599
 20
185.9084854772
 30
0.0
 10
114.706220745
 20
185.9147436624
 30
0.0
 10
114.6980796622
 20
185.9225662098
 30
0.0
 10
114.6883110828
 20
185.9319540284
 30
0.0
 10
114.6801684524
 20
185.9397749167
 30
0.0
 10
114.6736591424
 20
185.9460367519
 30
0.0
 10
114.6687640654
 20
185.9507191308
 30
0.0
 10
114.6647264851
 20
185.9546656362
 30
0.0
 10
114.6618184416
 20
185.9573408157
 30
0.0
 10
114.6602843284
 20
185.9590059174
 30
0.0
 10
114.6582708497
 20
185.9601585935
 30
0.0
 10
114.6558417127
 20
185.9616931992
 30
0.0
 10
114.6519060716
 20
185.9640961655
 30
0.0
 10
114.6470033393
 20
185.9671178524
 30
0.0
 10
114.6411128621
 20
185.9707361817
 30
0.0
 10
114.6332614034
 20
185.975563305
 30
0.0
 10
114.6195201803
 20
185.9840095196
 30
0.0
 10
114.5998904776
 20
185.9960761989
 30
0.0
 10
114.5841865277
 20
186.0057293417
 30
0.0
 10
114.5763345762
 20
186.0105559382
 30
0.0
  0
SPLINE
  5
3C1
100
AcDbEntity
  8
7_ALL_FEATURES
100
AcDbSpline
 62
4
  6
CONTINUOUS
 70
0
 71
3
 72
56
 73
52
 74
0
 42
0.0000001
 43
0.0000001
 44
0.0000000001
 40
0.0
 40
0.0
 40
0.0
 40
0.0
 40
0.0625
 40
0.09375
 40
0.125
 40
0.140625
 40
0.15625
 40
0.1640625
 40
0.171875
 40
0.1796875
 40
0.1875
 40
0.21875
 40
0.25
 40
0.28125
 40
0.3125
 40
0.3203125
 40
0.328125
 40
0.3359375
 40
0.34375
 40
0.359375
 40
0.375
 40
0.4375
 40
0.46875
 40
0.484375
 40
0.4921875
 40
0.5
 40
0.5078125
 40
0.515625
 40
0.53125
 40
0.5625
 40
0.625
 40
0.640625
 40
0.65625
 40
0.6640625
 40
0.671875
 40
0.6796875
 40
0.6875
 40
0.71875
 40
0.75
 40
0.78125
 40
0.8125
 40
0.8203125
 40
0.828125
 40
0.83203125
 40
0.8359375
 40
0.84375
 40
0.859375
 40
0.875
 40
0.90625
 40
0.9375
 40
1.0
 40
1.0
 40
1.0
 40
1.0
 10
114.4399487098
 20
183.6792979192
 30
0.0
 10
114.4515478484
 20
183.6848686217
 30
0.0
 10
114.4689459613
 20
183.6932255774
 30
0.0
 10
114.4921458253
 20
183.704364577
 30
0.0
 10
114.5066407817
 20
183.7113339686
 30
0.0
 10
114.5182480524
 20
183.7168923435
 30
0.0
 10
114.5254768119
 20
183.7204054153
 30
0.0
 10
114.5313188763
 20
183.7231263472
 30
0.0
 10
114.535538725
 20
183.7254121704
 30
0.0
 10
114.5397132614
 20
183.7277666831
 30
0.0
 10
114.548085649
 20
183.7324403666
 30
0.0
 10
114.5606343505
 20
183.7394658504
 30
0.0
 10
114.5773720157
 20
183.7488240675
 30
0.0
 10
114.5941065055
 20
183.7581867515
 30
0.0
 10
114.6066623517
 20
183.7652021846
 30
0.0
 10
114.61502561
 20
183.7698887107
 30
0.0
 10
114.6192201912
 20
183.7722150256
 30
0.0
 10
114.6233644253
 20
183.774607219
 30
0.0
 10
114.6286505378
 20
183.7781102323
 30
0.0
 10
114.6353401126
 20
183.7823817993
 30
0.0
 10
114.6513271231
 20
183.7927224106
 30
0.0
 10
114.6700068873
 20
183.8047503977
 30
0.0
 10
114.6886613687
 20
183.8168088188
 30
0.0
 10
114.6980095824
 20
183.8228140139
 30
0.0
 10
114.7033190768
 20
183.8262823757
 30
0.0
 10
114.7073922315
 20
183.8287800435
 30
0.0
 10
114.7111174218
 20
183.8316737143
 30
0.0
 10
114.7162057233
 20
183.835393806
 30
0.0
 10
114.7250536244
 20
183.841968385
 30
0.0
 10
114.7427916941
 20
183.855069734
 30
0.0
 10
114.7605026652
 20
183.868200262
 30
0.0
 10
114.7757113749
 20
183.8794266233
 30
0.0
 10
114.7820147792
 20
183.884137674
 30
0.0
 10
114.7871352543
 20
183.8878291919
 30
0.0
 10
114.7907624904
 20
183.8908097583
 30
0.0
 10
114.7943300001
 20
183.8938497148
 30
0.0
 10
114.8014957391
 20
183.8998990923
 30
0.0
 10
114.8122315031
 20
183.9089857634
 30
0.0
 10
114.82655292
 20
183.9210951701
 30
0.0
 10
114.8408734785
 20
183.9332023054
 30
0.0
 10
114.851611174
 20
183.9422940873
 30
0.0
 10
114.8587744449
 20
183.9483369343
 30
0.0
 10
114.8617518855
 20
183.9508821803
 30
0.0
 10
114.8641507709
 20
183.9528544678
 30
0.0
 10
114.8664877288
 20
183.9550604782
 30
0.0
 10
114.8705486321
 20
183.9590295896
 30
0.0
 10
114.8763649348
 20
183.9646430902
 30
0.0
 10
114.8856626295
 20
183.9736563553
 30
0.0
 10
114.8972876216
 20
183.9849120902
 30
0.0
 10
114.9158859957
 20
184.0029273553
 30
0.0
 10
114.9298351393
 20
184.0164374341
 30
0.0
 10
114.9391344877
 20
184.0254444577
 30
0.0
  0
SPLINE
  5
3C2
100
AcDbEntity
  8
3_ALL_AXES
100
AcDbSpline
 62
7
  6
CONTINUOUS
 70
0
 71
3
 72
19
 73
15
 74
0
 42
0.0000001
 43
0.0000001
 44
0.0000000001
 40
0.0
 40
0.0
 40
0.0
 40
0.0
 40
0.1683000113
 40
0.2404505744
 40
0.3036556532
 40
0.4090388234
 40
0.4554737865
 40
0.5000393211
 40
0.5446067335
 40
0.591042408
 40
0.696430429
 40
0.7596418824
 40
0.8317824151
 40
1.0
 40
1.0
 40
1.0
 40
1.0
 10
108.0264377955
 20
168.6805613939
 30
0.0
 10
108.0264377955
 20
168.5739557187
 30
0.0
 10
108.0506106602
 20
168.4196292921
 30
0.0
 10
108.1294277366
 20
168.2432355691
 30
0.0
 10
108.2153754899
 20
168.1167027053
 30
0.0
 10
108.3228123606
 20
168.0257150488
 30
0.0
 10
108.4404479219
 20
167.9822373475
 30
0.0
 10
108.526515732
 20
167.9718612683
 30
0.0
 10
108.6125830175
 20
167.9822643559
 30
0.0
 10
108.7301950607
 20
168.0258173659
 30
0.0
 10
108.8376178495
 20
168.1168225013
 30
0.0
 10
108.9235320743
 20
168.2433821208
 30
0.0
 10
109.0022781986
 20
168.4197456381
 30
0.0
 10
109.0264377955
 20
168.5740079298
 30
0.0
 10
109.0264377955
 20
168.6805613939
 30
0.0
  0
SPLINE
  5
3C3
100
AcDbEntity
  8
3_ALL_AXES
100
AcDbSpline
 62
7
  6
CONTINUOUS
 70
0
 71
3
 72
19
 73
15
 74
0
 42
0.0000001
 43
0.0000001
 44
0.0000000001
 40
0.0
 40
0.0
 40
0.0
 40
0.0
 40
0.1683075029
 40
0.2404576968
 40
0.3036660769
 40
0.4090527407
 40
0.4554823394
 40
0.5000445236
 40
0.5446094138
 40
0.5910415449
 40
0.6964181475
 40
0.7596236278
 40
0.8317654351
 40
1.0
 40
1.0
 40
1.0
 40
1.0
 10
120.0264377955
 20
168.6805613939
 30
0.0
 10
120.0264377955
 20
168.5739510616
 30
0.0
 10
120.0506127224
 20
168.4196198642
 30
0.0
 10
120.1294358247
 20
168.2432219427
 30
0.0
 10
120.2153874322
 20
168.1166866219
 30
0.0
 10
120.3228318188
 20
168.0257052241
 30
0.0
 10
120.4404658367
 20
167.9822349439
 30
0.0
 10
120.5265266445
 20
167.9718607654
 30
0.0
 10
120.6125873959
 20
167.9822668959
 30
0.0
 10
120.7301887252
 20
168.0258155514
 30
0.0
 10
120.8376018109
 20
168.1168097028
 30
0.0
 10
120.923517088
 20
168.2433557994
 30
0.0
 10
121.0022759327
 20
168.4197223364
 30
0.0
 10
121.0264377955
 20
168.5739972624
 30
0.0
 10
121.0264377955
 20
168.6805613939
 30
0.0
  0
SPLINE
  5
3C4
100
AcDbEntity
  8
3_ALL_AXES
100
AcDbSpline
 62
7
  6
CONTINUOUS
 70
0
 71
3
 72
11
 73
7
 74
0
 42
0.0000001
 43
0.0000001
 44
0.0000000001
 40
0.0
 40
0.0
 40
0.0
 40
0.0
 40
0.2499875457
 40
0.4999810974
 40
0.7499896465
 40
1.0
 40
1.0
 40
1.0
 40
1.0
 10
115.5264377955
 20
169.1805613939
 30
0.0
 10
115.7883625424
 20
169.2179792149
 30
0.0
 10
116.3084896607
 20
169.3212529275
 30
0.0
 10
117.0697069364
 20
169.5496033407
 30
0.0
 10
117.8099976329
 20
169.8380403353
 30
0.0
 10
118.2897651256
 20
170.062225059
 30
0.0
 10
118.5264377955
 20
170.1805613939
 30
0.0
  0
SPLINE
  5
3C5
100
AcDbEntity
  8
3_ALL_AXES
100
AcDbSpline
 62
7
  6
CONTINUOUS
 70
0
 71
3
 72
11
 73
7
 74
0
 42
0.0000001
 43
0.0000001
 44
0.0000000001
 40
0.0
 40
0.0
 40
0.0
 40
0.0
 40
0.2699449571
 40
0.5270499909
 40
0.7701654741
 40
1.0
 40
1.0
 40
1.0
 40
1.0
 10
106.5264377955
 20
170.1805613939
 30
0.0
 10
106.6422637604
 20
170.064735429
 30
0.0
 10
106.875798375
 20
169.8457351176
 30
0.0
 10
107.2443089764
 20
169.556976472
 30
0.0
 10
107.624309747
 20
169.3267894718
 30
0.0
 10
107.8923401722
 20
169.2188750006
 30
0.0
 10
108.0264377955
 20
169.1805613939
 30
0.0
  0
SPLINE
  5
3C6
100
AcDbEntity
  8
3_ALL_AXES
100
AcDbSpline
 62
7
  6
CONTINUOUS
 70
0
 71
3
 72
19
 73
15
 74
0
 42
0.0000001
 43
0.0000001
 44
0.0000000001
 40
0.0
 40
0.0
 40
0.0
 40
0.0
 40
0.062499569
 40
0.1250450196
 40
0.1876243679
 40
0.2502137548
 40
0.3750836247
 40
0.5000591496
 40
0.6250261711
 40
0.7498800617
 40
0.8124624827
 40
0.8750225901
 40
0.9375286272
 40
1.0
 40
1.0
 40
1.0
 40
1.0
 10
113.5264377955
 20
168.6805613939
 30
0.0
 10
113.5264377955
 20
168.6244877822
 30
0.0
 10
113.5459469105
 20
168.5114986883
 30
0.0
 10
113.6257308806
 20
168.360776305
 30
0.0
 10
113.7407903351
 20
168.2357265962
 30
0.0
 10
113.9242340348
 20
168.1045607301
 30
0.0
 10
114.1896339722
 20
168.0014299789
 30
0.0
 10
114.5265916833
 20
167.9621735563
 30
0.0
 10
114.8635235164
 20
168.0015112684
 30
0.0
 10
115.1288777031
 20
168.1046795862
 30
0.0
 10
115.3122593303
 20
168.2358707425
 30
0.0
 10
115.4272301004
 20
168.3609207716
 30
0.0
 10
115.5069478761
 20
168.511584875
 30
0.0
 10
115.5264377955
 20
168.6245130793
 30
0.0
 10
115.5264377955
 20
168.6805613939
 30
0.0
  0
SPLINE
  5
3C7
100
AcDbEntity
  8
3_ALL_AXES
100
AcDbSpline
 62
7
  6
CONTINUOUS
 70
0
 71
3
 72
11
 73
7
 74
0
 42
0.0000001
 43
0.0000001
 44
0.0000000001
 40
0.0
 40
0.0
 40
0.0
 40
0.0
 40
0.2500103617
 40
0.5000189242
 40
0.7500124732
 40
1.0
 40
1.0
 40
1.0
 40
1.0
 10
110.5264377955
 20
170.1805613939
 30
0.0
 10
110.7631104732
 20
170.0622250551
 30
0.0
 10
111.2428779856
 20
169.8380403196
 30
0.0
 10
111.9831687027
 20
169.5496033216
 30
0.0
 10
112.7443859723
 20
169.3212529185
 30
0.0
 10
113.2645130683
 20
169.2179792121
 30
0.0
 10
113.5264377955
 20
169.1805613939
 30
0.0
  0
SPLINE
  5
3C8
100
AcDbEntity
  8
3_ALL_AXES
100
AcDbSpline
 62
7
  6
CONTINUOUS
 70
0
 71
3
 72
11
 73
7
 74
0
 42
0.0000001
 43
0.0000001
 44
0.0000000001
 40
0.0
 40
0.0
 40
0.0
 40
0.0
 40
0.2699449571
 40
0.5270499909
 40
0.7701654741
 40
1.0
 40
1.0
 40
1.0
 40
1.0
 10
118.5264377955
 20
170.1805613939
 30
0.0
 10
118.6422637604
 20
170.064735429
 30
0.0
 10
118.875798375
 20
169.8457351176
 30
0.0
 10
119.2443089764
 20
169.556976472
 30
0.0
 10
119.624309747
 20
169.3267894718
 30
0.0
 10
119.8923401722
 20
169.2188750006
 30
0.0
 10
120.0264377955
 20
169.1805613939
 30
0.0
  0
SPLINE
  5
3C9
100
AcDbEntity
  8
3_ALL_AXES
100
AcDbSpline
 62
7
  6
CONTINUOUS
 70
0
 71
3
 72
11
 73
7
 74
0
 42
0.0000001
 43
0.0000001
 44
0.0000000001
 40
0.0
 40
0.0
 40
0.0
 40
0.0
 40
0.2298345438
 40
0.4729500311
 40
0.7300550521
 40
1.0
 40
1.0
 40
1.0
 40
1.0
 10
121.0264377955
 20
169.1805613939
 30
0.0
 10
121.1605354291
 20
169.2188750035
 30
0.0
 10
121.4285658663
 20
169.3267894817
 30
0.0
 10
121.8085666379
 20
169.5569764908
 30
0.0
 10
122.1770772283
 20
169.8457351321
 30
0.0
 10
122.4106118345
 20
170.064735433
 30
0.0
 10
122.5264377955
 20
170.1805613939
 30
0.0
  0
SPLINE
  5
3CA
100
AcDbEntity
  8
3_ALL_AXES
100
AcDbSpline
 62
7
  6
CONTINUOUS
 70
0
 71
3
 72
11
 73
7
 74
0
 42
0.0000001
 43
0.0000001
 44
0.0000000001
 40
0.0
 40
0.0
 40
0.0
 40
0.0
 40
0.2298345438
 40
0.4729500311
 40
0.7300550521
 40
1.0
 40
1.0
 40
1.0
 40
1.0
 10
109.0264377955
 20
169.1805613939
 30
0.0
 10
109.1605354291
 20
169.2188750035
 30
0.0
 10
109.4285658663
 20
169.3267894817
 30
0.0
 10
109.8085666379
 20
169.5569764908
 30
0.0
 10
110.1770772283
 20
169.8457351321
 30
0.0
 10
110.4106118345
 20
170.064735433
 30
0.0
 10
110.5264377955
 20
170.1805613939
 30
0.0
  0
LINE
  5
3CB
100
AcDbEntity
  8
7_ALL_FEATURES
100
AcDbLine
 62
7
  6
CONTINUOUS
 10
105.3220909963
 20
228.1805613939
 11
105.3875100684
 21
227.6805613939
  0
LINE
  5
3CC
100
AcDbEntity
  8
7_ALL_FEATURES
100
AcDbLine
 62
7
  6
CONTINUOUS
 10
123.7307845947
 20
228.1805613939
 11
123.6653655225
 21
227.6805613939
  0
SPLINE
  5
3CD
100
AcDbEntity
  8
02___PRT_ALL_AXES
100
AcDbSpline
 62
7
  6
CONTINUOUS
 70
0
 71
3
 72
13
 73
9
 74
0
 42
0.0000001
 43
0.0000001
 44
0.0000000001
 40
0.0
 40
0.0
 40
0.0
 40
0.0
 40
0.2818639728
 40
0.5483287107
 40
0.672299659
 40
0.7885429424
 40
0.8972506002
 40
1.0
 40
1.0
 40
1.0
 40
1.0
 10
131.8059264799
 20
204.4305613939
 30
0.0
 10
131.8059264799
 20
203.8809977107
 30
0.0
 10
131.9751569202
 20
202.8046363871
 30
0.0
 10
132.5900887089
 20
201.6166063542
 30
0.0
 10
133.2672583886
 20
200.8900325334
 30
0.0
 10
133.8241643932
 20
200.4903675994
 30
0.0
 10
134.4182354574
 20
200.2399903158
 30
0.0
 10
134.8321990255
 20
200.1805613947
 30
0.0
 10
135.0325344499
 20
200.1805613939
 30
0.0
  0
SPLINE
  5
3CE
100
AcDbEntity
  8
02___PRT_ALL_AXES
100
AcDbSpline
 62
7
  6
CONTINUOUS
 70
0
 71
3
 72
13
 73
9
 74
0
 42
0.0000001
 43
0.0000001
 44
0.0000000001
 40
0.0
 40
0.0
 40
0.0
 40
0.0
 40
0.1027493991
 40
0.2114570583
 40
0.3277003425
 40
0.4516712911
 40
0.7181360303
 40
1.0
 40
1.0
 40
1.0
 40
1.0
 10
135.0325344499
 20
208.6805613939
 30
0.0
 10
134.8321990268
 20
208.6805613947
 30
0.0
 10
134.4182354569
 20
208.6211324728
 30
0.0
 10
133.8241643914
 20
208.3707551857
 30
0.0
 10
133.2672583817
 20
207.9710902503
 30
0.0
 10
132.5900887027
 20
207.2445164223
 30
0.0
 10
131.9751569176
 20
206.0564863912
 30
0.0
 10
131.8059264799
 20
204.9801250711
 30
0.0
 10
131.8059264799
 20
204.4305613939
 30
0.0
  0
SPLINE
  5
3CF
100
AcDbEntity
  8
02___PRT_ALL_AXES
100
AcDbSpline
 62
7
  6
CONTINUOUS
 70
0
 71
3
 72
9
 73
5
 74
0
 42
0.0000001
 43
0.0000001
 44
0.0000000001
 40
0.0
 40
0.0
 40
0.0
 40
0.0
 40
0.2438308137
 40
1.0
 40
1.0
 40
1.0
 40
1.0
 10
134.1419012418
 20
200.365641822
 30
0.0
 10
134.1965221545
 20
200.3892051754
 30
0.0
 10
134.4169273987
 20
200.4941215023
 30
0.0
 10
134.6215396434
 20
200.6312345711
 30
0.0
 10
134.764589633
 20
200.7477240688
 30
0.0
  0
SPLINE
  5
3D0
100
AcDbEntity
  8
02___PRT_ALL_AXES
100
AcDbSpline
 62
7
  6
CONTINUOUS
 70
0
 71
3
 72
14
 73
10
 74
0
 42
0.0000001
 43
0.0000001
 44
0.0000000001
 40
0.0
 40
0.0
 40
0.0
 40
0.0
 40
0.1042552261
 40
0.2098548061
 40
0.3209792667
 40
0.44051876
 40
0.5695740112
 40
0.7074792168
 40
1.0
 40
1.0
 40
1.0
 40
1.0
 10
135.0325344499
 20
200.1805613939
 30
0.0
 10
135.22731976
 20
200.1805613931
 30
0.0
 10
135.621859051
 20
200.2358388604
 30
0.0
 10
136.1744726063
 20
200.4873774288
 30
0.0
 10
136.6633989975
 20
200.8920391389
 30
0.0
 10
137.0751320553
 20
201.4290827961
 30
0.0
 10
137.4024639366
 20
202.0767620804
 30
0.0
 10
137.7250742732
 20
203.0739699438
 30
0.0
 10
137.81633412
 20
203.8840300247
 30
0.0
 10
137.81633412
 20
204.4305613939
 30
0.0
  0
SPLINE
  5
3D1
100
AcDbEntity
  8
02___PRT_ALL_AXES
100
AcDbSpline
 62
7
  6
CONTINUOUS
 70
0
 71
3
 72
9
 73
5
 74
0
 42
0.0000001
 43
0.0000001
 44
0.0000000001
 40
0.0
 40
0.0
 40
0.0
 40
0.0
 40
0.2438308147
 40
1.0
 40
1.0
 40
1.0
 40
1.0
 10
134.141901392
 20
208.495480901
 30
0.0
 10
134.1965222912
 20
208.4719175491
 30
0.0
 10
134.4169274801
 20
208.3670012326
 30
0.0
 10
134.6215396754
 20
208.2298881906
 30
0.0
 10
134.764589633
 20
208.113398719
 30
0.0
  0
SPLINE
  5
3D2
100
AcDbEntity
  8
02___PRT_ALL_AXES
100
AcDbSpline
 62
7
  6
CONTINUOUS
 70
0
 71
3
 72
14
 73
10
 74
0
 42
0.0000001
 43
0.0000001
 44
0.0000000001
 40
0.0
 40
0.0
 40
0.0
 40
0.0
 40
0.2925207864
 40
0.4304259913
 40
0.5594812418
 40
0.6790207346
 40
0.7901451946
 40
0.8957447733
 40
1.0
 40
1.0
 40
1.0
 40
1.0
 10
137.81633412
 20
204.4305613939
 30
0.0
 10
137.81633412
 20
204.9770927691
 30
0.0
 10
137.7250742729
 20
205.7871528551
 30
0.0
 10
137.4024639302
 20
206.7843607198
 30
0.0
 10
137.0751320508
 20
207.4320400014
 30
0.0
 10
136.6633989911
 20
207.9690836529
 30
0.0
 10
136.1744726052
 20
208.373745362
 30
0.0
 10
135.6218590505
 20
208.6252839264
 30
0.0
 10
135.2273197611
 20
208.6805613931
 30
0.0
 10
135.0325344499
 20
208.6805613939
 30
0.0
  0
SPLINE
  5
3D3
100
AcDbEntity
  8
7_ALL_FEATURES
100
AcDbSpline
 62
7
  6
CONTINUOUS
 70
0
 71
3
 72
9
 73
5
 74
0
 42
0.0000001
 43
0.0000001
 44
0.0000000001
 40
0.0
 40
0.0
 40
0.0
 40
0.0
 40
0.4969859896
 40
1.0
 40
1.0
 40
1.0
 40
1.0
 10
250.241647774
 20
207.8305613939
 30
0.0
 10
250.1524349049
 20
207.8305613939
 30
0.0
 10
249.9726504937
 20
207.8163395987
 30
0.0
 10
249.7973208327
 20
207.7743162977
 30
0.0
 10
249.7113176881
 20
207.7468092737
 30
0.0
  0
SPLINE
  5
3D4
100
AcDbEntity
  8
7_ALL_FEATURES
100
AcDbSpline
 62
7
  6
CONTINUOUS
 70
0
 71
3
 72
19
 73
15
 74
0
 42
0.0000001
 43
0.0000001
 44
0.0000000001
 40
0.0
 40
0.0
 40
0.0
 40
0.0
 40
0.0522671595
 40
0.1072926233
 40
0.1656506194
 40
0.2274801136
 40
0.3599731722
 40
0.5
 40
0.6400268277
 40
0.7725198863
 40
0.8343493806
 40
0.8927073767
 40
0.9477328405
 40
1.0
 40
1.0
 40
1.0
 40
1.0
 10
249.0042109069
 20
201.1143135142
 30
0.0
 10
248.869982962
 20
201.157244634
 30
0.0
 10
248.6040128068
 20
201.2778833281
 30
0.0
 10
248.2422402729
 20
201.5444043165
 30
0.0
 10
247.9183610076
 20
201.8917323931
 30
0.0
 10
247.5402684801
 20
202.4614917897
 30
0.0
 10
247.2162626465
 20
203.3158043686
 30
0.0
 10
247.0862484473
 20
204.4305613937
 30
0.0
 10
247.2162626464
 20
205.5453184188
 30
0.0
 10
247.5402684799
 20
206.3996309977
 30
0.0
 10
247.9183610073
 20
206.9693903944
 30
0.0
 10
248.2422402727
 20
207.3167184711
 30
0.0
 10
248.6040128066
 20
207.5832394596
 30
0.0
 10
248.8699829619
 20
207.7038781538
 30
0.0
 10
249.0042109069
 20
207.7468092737
 30
0.0
  0
SPLINE
  5
3D5
100
AcDbEntity
  8
7_ALL_FEATURES
100
AcDbSpline
 62
7
  6
CONTINUOUS
 70
0
 71
3
 72
9
 73
5
 74
0
 42
0.0000001
 43
0.0000001
 44
0.0000000001
 40
0.0
 40
0.0
 40
0.0
 40
0.0
 40
0.5030140104
 40
1.0
 40
1.0
 40
1.0
 40
1.0
 10
249.7113176881
 20
201.1143135142
 30
0.0
 10
249.7973208327
 20
201.0868064901
 30
0.0
 10
249.9726504937
 20
201.0447831892
 30
0.0
 10
250.1524349049
 20
201.0305613939
 30
0.0
 10
250.241647774
 20
201.0305613939
 30
0.0
  0
SPLINE
  5
3D6
100
AcDbEntity
  8
7_ALL_FEATURES
100
AcDbSpline
 62
7
  6
CONTINUOUS
 70
0
 71
3
 72
19
 73
15
 74
0
 42
0.0000001
 43
0.0000001
 44
0.0000000001
 40
0.0
 40
0.0
 40
0.0
 40
0.0
 40
0.0522671595
 40
0.1072926233
 40
0.1656506194
 40
0.2274801136
 40
0.3599731722
 40
0.5
 40
0.6400268277
 40
0.7725198863
 40
0.8343493806
 40
0.8927073767
 40
0.9477328405
 40
1.0
 40
1.0
 40
1.0
 40
1.0
 10
250.0648710787
 20
207.7468092737
 30
0.0
 10
250.1990990236
 20
207.7038781539
 30
0.0
 10
250.4650691788
 20
207.5832394597
 30
0.0
 10
250.8268417126
 20
207.3167184713
 30
0.0
 10
251.150720978
 20
206.9693903947
 30
0.0
 10
251.5288135055
 20
206.3996309981
 30
0.0
 10
251.8528193391
 20
205.5453184192
 30
0.0
 10
251.9828335383
 20
204.4305613942
 30
0.0
 10
251.8528193392
 20
203.3158043691
 30
0.0
 10
251.5288135057
 20
202.4614917901
 30
0.0
 10
251.1507209782
 20
201.8917323935
 30
0.0
 10
250.8268417129
 20
201.5444043168
 30
0.0
 10
250.465069179
 20
201.2778833282
 30
0.0
 10
250.1990990236
 20
201.157244634
 30
0.0
 10
250.0648710787
 20
201.1143135142
 30
0.0
  0
SPLINE
  5
3D7
100
AcDbEntity
  8
7_ALL_FEATURES
100
AcDbSpline
 62
7
  6
CONTINUOUS
 70
0
 71
3
 72
19
 73
15
 74
0
 42
0.0000001
 43
0.0000001
 44
0.0000000001
 40
0.0
 40
0.0
 40
0.0
 40
0.0
 40
0.0523989321
 40
0.1075931606
 40
0.1660851166
 40
0.2279772218
 40
0.3603463843
 40
0.5
 40
0.6396536157
 40
0.7720227781
 40
0.8339148834
 40
0.8924068394
 40
0.9476010679
 40
1.0
 40
1.0
 40
1.0
 40
1.0
 10
248.7920788725
 20
201.4226551454
 30
0.0
 10
248.6722070933
 20
201.4649248212
 30
0.0
 10
248.4353462742
 20
201.5800342194
 30
0.0
 10
248.1141256478
 20
201.8269957497
 30
0.0
 10
247.8270661697
 20
202.1444962666
 30
0.0
 10
247.4926139807
 20
202.660904965
 30
0.0
 10
247.2063095416
 20
203.4298378806
 30
0.0
 10
247.0914039584
 20
204.4305613938
 30
0.0
 10
247.2063095416
 20
205.431284907
 30
0.0
 10
247.4926139806
 20
206.2002178225
 30
0.0
 10
247.8270661696
 20
206.716626521
 30
0.0
 10
248.1141256475
 20
207.034127038
 30
0.0
 10
248.435346274
 20
207.2810885683
 30
0.0
 10
248.6722070932
 20
207.3961979666
 30
0.0
 10
248.7920788725
 20
207.4384676425
 30
0.0
  0
SPLINE
  5
3D8
100
AcDbEntity
  8
7_ALL_FEATURES
100
AcDbSpline
 62
7
  6
CONTINUOUS
 70
0
 71
3
 72
19
 73
15
 74
0
 42
0.0000001
 43
0.0000001
 44
0.0000000001
 40
0.0
 40
0.0
 40
0.0
 40
0.0
 40
0.0523989321
 40
0.1075931606
 40
0.1660851166
 40
0.2279772218
 40
0.3603463843
 40
0.5
 40
0.6396536157
 40
0.7720227781
 40
0.8339148834
 40
0.8924068394
 40
0.9476010679
 40
1.0
 40
1.0
 40
1.0
 40
1.0
 10
249.8527390443
 20
207.4384676425
 30
0.0
 10
249.9726108236
 20
207.3961979667
 30
0.0
 10
250.2094716427
 20
207.2810885685
 30
0.0
 10
250.5306922691
 20
207.0341270382
 30
0.0
 10
250.8177517471
 20
206.7166265212
 30
0.0
 10
251.1522039361
 20
206.2002178228
 30
0.0
 10
251.4385083752
 20
205.4312849073
 30
0.0
 10
251.5534139585
 20
204.4305613941
 30
0.0
 10
251.4385083753
 20
203.4298378809
 30
0.0
 10
251.1522039363
 20
202.6609049653
 30
0.0
 10
250.8177517473
 20
202.1444962669
 30
0.0
 10
250.5306922693
 20
201.8269957499
 30
0.0
 10
250.2094716428
 20
201.5800342195
 30
0.0
 10
249.9726108236
 20
201.4649248212
 30
0.0
 10
249.8527390443
 20
201.4226551454
 30
0.0
  0
SPLINE
  5
3D9
100
AcDbEntity
  8
3_ALL_AXES
100
AcDbSpline
 62
7
  6
CONTINUOUS
 70
0
 71
3
 72
11
 73
7
 74
0
 42
0.0000001
 43
0.0000001
 44
0.0000000001
 40
0.0
 40
0.0
 40
0.0
 40
0.0
 40
0.2528641712
 40
0.5038317346
 40
0.7528115376
 40
1.0
 40
1.0
 40
1.0
 40
1.0
 10
269.6517289175
 20
170.1805613939
 30
0.0
 10
269.8559752145
 20
170.0626397394
 30
0.0
 10
270.269802478
 20
169.8392288617
 30
0.0
 10
270.9107140025
 20
169.5506398594
 30
0.0
 10
271.5700729348
 20
169.3219504661
 30
0.0
 10
272.0223296166
 20
169.218085122
 30
0.0
 10
272.2498051289
 20
169.1805613939
 30
0.0
  0
SPLINE
  5
3DA
100
AcDbEntity
  8
3_ALL_AXES
100
AcDbSpline
 62
7
  6
CONTINUOUS
 70
0
 71
3
 72
11
 73
7
 74
0
 42
0.0000001
 43
0.0000001
 44
0.0000000001
 40
0.0
 40
0.0
 40
0.0
 40
0.0
 40
0.2528641712
 40
0.5038317346
 40
0.7528115376
 40
1.0
 40
1.0
 40
1.0
 40
1.0
 10
262.7235256873
 20
170.1805613939
 30
0.0
 10
262.9277719842
 20
170.0626397394
 30
0.0
 10
263.3415992477
 20
169.8392288617
 30
0.0
 10
263.9825107722
 20
169.5506398594
 30
0.0
 10
264.6418697045
 20
169.3219504661
 30
0.0
 10
265.0941263863
 20
169.218085122
 30
0.0
 10
265.3216018986
 20
169.1805613939
 30
0.0
  0
SPLINE
  5
3DB
100
AcDbEntity
  8
3_ALL_AXES
100
AcDbSpline
 62
7
  6
CONTINUOUS
 70
0
 71
3
 72
11
 73
7
 74
0
 42
0.0000001
 43
0.0000001
 44
0.0000000001
 40
0.0
 40
0.0
 40
0.0
 40
0.0
 40
0.2471884812
 40
0.4961682871
 40
0.7471358372
 40
1.0
 40
1.0
 40
1.0
 40
1.0
 10
267.0536527062
 20
169.1805613939
 30
0.0
 10
267.2811282358
 20
169.2180851248
 30
0.0
 10
267.7333849371
 20
169.3219504752
 30
0.0
 10
268.3927438741
 20
169.5506398785
 30
0.0
 10
269.0336553806
 20
169.8392288773
 30
0.0
 10
269.4474826274
 20
170.0626397433
 30
0.0
 10
269.6517289175
 20
170.1805613939
 30
0.0
  0
SPLINE
  5
3DC
100
AcDbEntity
  8
3_ALL_AXES
100
AcDbSpline
 62
7
  6
CONTINUOUS
 70
0
 71
3
 72
19
 73
15
 74
0
 42
0.0000001
 43
0.0000001
 44
0.0000000001
 40
0.0
 40
0.0
 40
0.0
 40
0.0
 40
0.067939647
 40
0.1343369129
 40
0.1986396402
 40
0.2610648807
 40
0.3817414899
 40
0.5000607139
 40
0.6183763092
 40
0.739024176
 40
0.8014382043
 40
0.865725454
 40
0.9320917545
 40
1.0
 40
1.0
 40
1.0
 40
1.0
 10
265.3216018986
 20
168.6805613939
 30
0.0
 10
265.3216018986
 20
168.6246757434
 30
0.0
 10
265.3379887355
 20
168.5135307786
 30
0.0
 10
265.4061635158
 20
168.3630708913
 30
0.0
 10
265.5055765506
 20
168.2373841277
 30
0.0
 10
265.6630204322
 20
168.1066422941
 30
0.0
 10
265.8930116468
 20
168.0020019892
 30
0.0
 10
266.1877768678
 20
167.9620235048
 30
0.0
 10
266.4825055914
 20
168.0020879295
 30
0.0
 10
266.7124364043
 20
168.1067673327
 30
0.0
 10
266.8698154935
 20
168.2375172207
 30
0.0
 10
266.9691584194
 20
168.3631982114
 30
0.0
 10
267.0372794276
 20
168.5136086028
 30
0.0
 10
267.0536527062
 20
168.6247015736
 30
0.0
 10
267.0536527062
 20
168.6805613939
 30
0.0
  0
SPLINE
  5
3DD
100
AcDbEntity
  8
3_ALL_AXES
100
AcDbSpline
 62
7
  6
CONTINUOUS
 70
0
 71
3
 72
11
 73
7
 74
0
 42
0.0000001
 43
0.0000001
 44
0.0000000001
 40
0.0
 40
0.0
 40
0.0
 40
0.0
 40
0.2471884812
 40
0.4961682871
 40
0.7471358372
 40
1.0
 40
1.0
 40
1.0
 40
1.0
 10
273.9818559365
 20
169.1805613939
 30
0.0
 10
274.209331466
 20
169.2180851248
 30
0.0
 10
274.6615881673
 20
169.3219504752
 30
0.0
 10
275.3209471044
 20
169.5506398785
 30
0.0
 10
275.9618586109
 20
169.8392288773
 30
0.0
 10
276.3756858577
 20
170.0626397433
 30
0.0
 10
276.5799321478
 20
170.1805613939
 30
0.0
  0
SPLINE
  5
3DE
100
AcDbEntity
  8
3_ALL_AXES
100
AcDbSpline
 62
7
  6
CONTINUOUS
 70
0
 71
3
 72
19
 73
15
 74
0
 42
0.0000001
 43
0.0000001
 44
0.0000000001
 40
0.0
 40
0.0
 40
0.0
 40
0.0
 40
0.0679313718
 40
0.134330414
 40
0.1986328954
 40
0.2610542132
 40
0.3817238737
 40
0.5000536105
 40
0.6183773004
 40
0.7390372629
 40
0.8014553941
 40
0.8657396837
 40
0.9320963707
 40
1.0
 40
1.0
 40
1.0
 40
1.0
 10
272.2498051289
 20
168.6805613939
 30
0.0
 10
272.2498051289
 20
168.6246825424
 30
0.0
 10
272.2661908696
 20
168.5135435305
 30
0.0
 10
272.3343561713
 20
168.3630854543
 30
0.0
 10
272.4337657339
 20
168.2373979676
 30
0.0
 10
272.5912000614
 20
168.1066596176
 30
0.0
 10
272.8211847275
 20
168.0020064719
 30
0.0
 10
273.1159603976
 20
167.9620227649
 30
0.0
 10
273.4107147445
 20
168.0020865796
 30
0.0
 10
273.6406643367
 20
168.1067773622
 30
0.0
 10
273.7980453414
 20
168.2375429726
 30
0.0
 10
273.8973740742
 20
168.3632258629
 30
0.0
 10
273.9654862631
 20
168.51362385
 30
0.0
 10
273.9818559365
 20
168.6247053628
 30
0.0
 10
273.9818559365
 20
168.6805613939
 30
0.0
  0
SPLINE
  5
3DF
100
AcDbEntity
  8
02___PRT_ALL_AXES
100
AcDbSpline
 62
7
  6
CONTINUOUS
 70
0
 71
3
 72
9
 73
5
 74
0
 42
0.0000001
 43
0.0000001
 44
0.0000000001
 40
0.0
 40
0.0
 40
0.0
 40
0.0
 40
0.4927838313
 40
1.0
 40
1.0
 40
1.0
 40
1.0
 10
249.4991856537
 20
200.6805613939
 30
0.0
 10
249.6545711613
 20
200.6805613939
 30
0.0
 10
249.9710591635
 20
200.7204792741
 30
0.0
 10
250.2681332801
 20
200.8353445127
 30
0.0
 10
250.4101742818
 20
200.9088563235
 30
0.0
  0
SPLINE
  5
3E0
100
AcDbEntity
  8
02___PRT_ALL_AXES
100
AcDbSpline
 62
7
  6
CONTINUOUS
 70
0
 71
3
 72
9
 73
5
 74
0
 42
0.0000001
 43
0.0000001
 44
0.0000000001
 40
0.0
 40
0.0
 40
0.0
 40
0.0
 40
0.2458706548
 40
1.0
 40
1.0
 40
1.0
 40
1.0
 10
250.4101742818
 20
200.9088563235
 30
0.0
 10
250.4403590349
 20
200.9244781216
 30
0.0
 10
250.5616590933
 20
200.99082401
 30
0.0
 10
250.676905996
 20
201.0681222999
 30
0.0
 10
250.7597451081
 20
201.1314069727
 30
0.0
  0
SPLINE
  5
3E1
100
AcDbEntity
  8
02___PRT_ALL_AXES
100
AcDbSpline
 62
7
  6
CONTINUOUS
 70
0
 71
3
 72
11
 73
7
 74
0
 42
0.0000001
 43
0.0000001
 44
0.0000000001
 40
0.0
 40
0.0
 40
0.0
 40
0.0
 40
0.2233204075
 40
0.4676570569
 40
0.7290910659
 40
1.0
 40
1.0
 40
1.0
 40
1.0
 10
250.7597451081
 20
201.1314069727
 30
0.0
 10
250.9782381369
 20
201.2983240185
 30
0.0
 10
251.3800540223
 20
201.7234604731
 30
0.0
 10
251.8159054729
 20
202.5167152386
 30
0.0
 10
252.0892481942
 20
203.4398176385
 30
0.0
 10
252.1508360832
 20
204.0970142234
 30
0.0
 10
252.1508360832
 20
204.4305613939
 30
0.0
  0
SPLINE
  5
3E2
100
AcDbEntity
  8
02___PRT_ALL_AXES
100
AcDbSpline
 62
7
  6
CONTINUOUS
 70
0
 71
3
 72
9
 73
5
 74
0
 42
0.0000001
 43
0.0000001
 44
0.0000000001
 40
0.0
 40
0.0
 40
0.0
 40
0.0
 40
0.4927838313
 40
1.0
 40
1.0
 40
1.0
 40
1.0
 10
249.4991856537
 20
208.1805613939
 30
0.0
 10
249.6545711613
 20
208.1805613939
 30
0.0
 10
249.9710591635
 20
208.1406435138
 30
0.0
 10
250.2681332801
 20
208.0257782752
 30
0.0
 10
250.4101742818
 20
207.9522664644
 30
0.0
  0
SPLINE
  5
3E3
100
AcDbEntity
  8
02___PRT_ALL_AXES
100
AcDbSpline
 62
7
  6
CONTINUOUS
 70
0
 71
3
 72
9
 73
5
 74
0
 42
0.0000001
 43
0.0000001
 44
0.0000000001
 40
0.0
 40
0.0
 40
0.0
 40
0.0
 40
0.2458706548
 40
1.0
 40
1.0
 40
1.0
 40
1.0
 10
250.4101742818
 20
207.9522664644
 30
0.0
 10
250.4403590349
 20
207.9366446662
 30
0.0
 10
250.5616590933
 20
207.8702987778
 30
0.0
 10
250.676905996
 20
207.793000488
 30
0.0
 10
250.7597451081
 20
207.7297158151
 30
0.0
  0
SPLINE
  5
3E4
100
AcDbEntity
  8
02___PRT_ALL_AXES
100
AcDbSpline
 62
7
  6
CONTINUOUS
 70
0
 71
3
 72
11
 73
7
 74
0
 42
0.0000001
 43
0.0000001
 44
0.0000000001
 40
0.0
 40
0.0
 40
0.0
 40
0.0
 40
0.2233204075
 40
0.4676570569
 40
0.7290910659
 40
1.0
 40
1.0
 40
1.0
 40
1.0
 10
250.7597451081
 20
207.7297158151
 30
0.0
 10
250.9782381369
 20
207.5627987693
 30
0.0
 10
251.3800540223
 20
207.1376623147
 30
0.0
 10
251.8159054729
 20
206.3444075492
 30
0.0
 10
252.0892481942
 20
205.4213051493
 30
0.0
 10
252.1508360832
 20
204.7641085644
 30
0.0
 10
252.1508360832
 20
204.4305613939
 30
0.0
  0
SPLINE
  5
3E5
100
AcDbEntity
  8
02___PRT_ALL_AXES
100
AcDbSpline
 62
7
  6
CONTINUOUS
 70
0
 71
3
 72
20
 73
16
 74
0
 42
0.0000001
 43
0.0000001
 44
0.0000000001
 40
0.0
 40
0.0
 40
0.0
 40
0.0
 40
0.1423626872
 40
0.2101056991
 40
0.2739771482
 40
0.3333534884
 40
0.3883568597
 40
0.4401140925
 40
0.490756511
 40
0.5427861643
 40
0.5981120834
 40
0.657560699
 40
0.7210421312
 40
0.8570229504
 40
1.0
 40
1.0
 40
1.0
 40
1.0
 10
246.5277424533
 20
204.4305613939
 30
0.0
 10
246.5277424533
 20
204.9611193182
 30
0.0
 10
246.6095643103
 20
205.7489418031
 30
0.0
 10
246.9001962632
 20
206.7301767047
 30
0.0
 10
247.1993646652
 20
207.3794185184
 30
0.0
 10
247.581099095
 20
207.9282386916
 30
0.0
 10
248.0418825267
 20
208.3511230452
 30
0.0
 10
248.5727706835
 20
208.6203382218
 30
0.0
 10
249.1510690302
 20
208.7110578883
 30
0.0
 10
249.7412011304
 20
208.616131844
 30
0.0
 10
250.3100367935
 20
208.3489332473
 30
0.0
 10
250.8330634755
 20
207.9309495181
 30
0.0
 10
251.456068366
 20
207.1874220512
 30
0.0
 10
252.0030881735
 20
206.0086072455
 30
0.0
 10
252.1508360832
 20
204.9634089269
 30
0.0
 10
252.1508360832
 20
204.4305613939
 30
0.0
  0
SPLINE
  5
3E6
100
AcDbEntity
  8
02___PRT_ALL_AXES
100
AcDbSpline
 62
7
  6
CONTINUOUS
 70
0
 71
3
 72
20
 73
16
 74
0
 42
0.0000001
 43
0.0000001
 44
0.0000000001
 40
0.0
 40
0.0
 40
0.0
 40
0.0
 40
0.1423626874
 40
0.2101056997
 40
0.2739771495
 40
0.3333534903
 40
0.3883568603
 40
0.4401140895
 40
0.4907565062
 40
0.5427861611
 40
0.598112084
 40
0.657560701
 40
0.7210421326
 40
0.8570229506
 40
1.0
 40
1.0
 40
1.0
 40
1.0
 10
246.5277424533
 20
204.4305613939
 30
0.0
 10
246.5277424533
 20
203.900003469
 30
0.0
 10
246.6095643108
 20
203.1121809819
 30
0.0
 10
246.9001962655
 20
202.1309460756
 30
0.0
 10
247.1993646721
 20
201.4817042569
 30
0.0
 10
247.5810991046
 20
200.9328840858
 30
0.0
 10
248.0418825251
 20
200.5099997434
 30
0.0
 10
248.572770659
 20
200.2407845798
 30
0.0
 10
249.1510689879
 20
200.1500648991
 30
0.0
 10
249.7412011052
 20
200.2449909308
 30
0.0
 10
250.3100367921
 20
200.5121895396
 30
0.0
 10
250.8330634866
 20
200.9301732803
 30
0.0
 10
251.4560683727
 20
201.673700749
 30
0.0
 10
252.0030881745
 20
202.8525155482
 30
0.0
 10
252.1508360832
 20
203.8977138616
 30
0.0
 10
252.1508360832
 20
204.4305613939
 30
0.0
  0
SPLINE
  5
3E7
100
AcDbEntity
  8
02___PRT_ALL_AXES
100
AcDbSpline
 62
7
  6
CONTINUOUS
 70
0
 71
3
 72
13
 73
9
 74
0
 42
0.0000001
 43
0.0000001
 44
0.0000000001
 40
0.0
 40
0.0
 40
0.0
 40
0.0
 40
0.2870706365
 40
0.5535706756
 40
0.6755042715
 40
0.7893302512
 40
0.896543042
 40
1.0
 40
1.0
 40
1.0
 40
1.0
 10
246.8475352243
 20
204.4305613939
 30
0.0
 10
246.8475352243
 20
203.9474641928
 30
0.0
 10
246.9733327628
 20
203.0111354524
 30
0.0
 10
247.4508366453
 20
201.9550359933
 30
0.0
 10
248.0013414969
 20
201.3068464822
 30
0.0
 10
248.4631450898
 20
200.9522326322
 30
0.0
 10
248.9687498164
 20
200.7311153944
 30
0.0
 10
249.3250829748
 20
200.6805613939
 30
0.0
 10
249.4991856537
 20
200.6805613939
 30
0.0
  0
SPLINE
  5
3E8
100
AcDbEntity
  8
02___PRT_ALL_AXES
100
AcDbSpline
 62
7
  6
CONTINUOUS
 70
0
 71
3
 72
13
 73
9
 74
0
 42
0.0000001
 43
0.0000001
 44
0.0000000001
 40
0.0
 40
0.0
 40
0.0
 40
0.0
 40
0.2870706365
 40
0.5535706756
 40
0.6755042715
 40
0.7893302512
 40
0.896543042
 40
1.0
 40
1.0
 40
1.0
 40
1.0
 10
246.8475352243
 20
204.4305613939
 30
0.0
 10
246.8475352243
 20
204.9136585951
 30
0.0
 10
246.9733327628
 20
205.8499873354
 30
0.0
 10
247.4508366453
 20
206.9060867945
 30
0.0
 10
248.0013414969
 20
207.5542763057
 30
0.0
 10
248.4631450898
 20
207.9088901556
 30
0.0
 10
248.9687498164
 20
208.1300073934
 30
0.0
 10
249.3250829748
 20
208.1805613939
 30
0.0
 10
249.4991856537
 20
208.1805613939
 30
0.0
  0
SPLINE
  5
3E9
100
AcDbEntity
  8
03___PRT_ALL_CURVES
100
AcDbSpline
 62
40
  6
CONTINUOUS
 70
0
 71
3
 72
23
 73
19
 74
0
 42
0.0000001
 43
0.0000001
 44
0.0000000001
 40
0.0
 40
0.0
 40
0.0
 40
0.0
 40
0.0416666667
 40
0.0833333333
 40
0.125
 40
0.1666666667
 40
0.25
 40
0.3333333333
 40
0.4166666667
 40
0.5
 40
0.5833333333
 40
0.6666666667
 40
0.75
 40
0.8333333333
 40
0.875
 40
0.9166666667
 40
0.9583333333
 40
1.0
 40
1.0
 40
1.0
 40
1.0
 10
245.1819327921
 20
204.5805613939
 30
0.0
 10
245.1779161541
 20
204.5805613939
 30
0.0
 10
245.1705067464
 20
204.5795672583
 30
0.0
 10
245.1595533624
 20
204.5753932734
 30
0.0
 10
245.1493503232
 20
204.5687747291
 30
0.0
 10
245.1367385958
 20
204.557106594
 30
0.0
 10
245.1223963171
 20
204.5365722807
 30
0.0
 10
245.109556422
 20
204.5051576282
 30
0.0
 10
245.1015658513
 20
204.4690828293
 30
0.0
 10
245.098854262
 20
204.4305617154
 30
0.0
 10
245.1015657514
 20
204.3920407257
 30
0.0
 10
245.1095561768
 20
204.3559659446
 30
0.0
 10
245.1223960433
 20
204.3245509855
 30
0.0
 10
245.1367383699
 20
204.3040164502
 30
0.0
 10
245.1493501426
 20
204.2923481956
 30
0.0
 10
245.1595532305
 20
204.2857295766
 30
0.0
 10
245.1705066759
 20
204.2815555421
 30
0.0
 10
245.1779161276
 20
204.2805613939
 30
0.0
 10
245.1819327921
 20
204.2805613939
 30
0.0
  0
SPLINE
  5
3EA
100
AcDbEntity
  8
03___PRT_ALL_CURVES
100
AcDbSpline
 62
40
  6
CONTINUOUS
 70
0
 71
3
 72
23
 73
19
 74
0
 42
0.0000001
 43
0.0000001
 44
0.0000000001
 40
0.0
 40
0.0
 40
0.0
 40
0.0
 40
0.0416666667
 40
0.0833333333
 40
0.125
 40
0.1666666667
 40
0.25
 40
0.3333333333
 40
0.4166666667
 40
0.5
 40
0.5833333333
 40
0.6666666667
 40
0.75
 40
0.8333333333
 40
0.875
 40
0.9166666667
 40
0.9583333333
 40
1.0
 40
1.0
 40
1.0
 40
1.0
 10
246.1540085214
 20
204.2805613939
 30
0.0
 10
246.1583157719
 20
204.2805613939
 30
0.0
 10
246.1662613527
 20
204.2815402766
 30
0.0
 10
246.1780609203
 20
204.2856631005
 30
0.0
 10
246.1890893006
 20
204.2922165024
 30
0.0
 10
246.202770539
 20
204.3037967795
 30
0.0
 10
246.2183976642
 20
204.3242228393
 30
0.0
 10
246.2324757743
 20
204.3555449179
 30
0.0
 10
246.2413259958
 20
204.3917973671
 30
0.0
 10
246.2443298429
 20
204.4305609851
 30
0.0
 10
246.2413261343
 20
204.4693244626
 30
0.0
 10
246.2324761076
 20
204.5055769019
 30
0.0
 10
246.2183980323
 20
204.5368993631
 30
0.0
 10
246.2027708382
 20
204.5573256982
 30
0.0
 10
246.1890895382
 20
204.5689061207
 30
0.0
 10
246.1780610929
 20
204.5754596129
 30
0.0
 10
246.1662614442
 20
204.5795824962
 30
0.0
 10
246.1583158064
 20
204.5805613939
 30
0.0
 10
246.1540085214
 20
204.5805613939
 30
0.0
  0
SPLINE
  5
3EB
100
AcDbEntity
  8
03___PRT_ALL_CURVES
100
AcDbSpline
 62
40
  6
CONTINUOUS
 70
0
 71
3
 72
23
 73
19
 74
0
 42
0.0000001
 43
0.0000001
 44
0.0000000001
 40
0.0
 40
0.0
 40
0.0
 40
0.0
 40
0.0416666667
 40
0.0833333333
 40
0.125
 40
0.1666666667
 40
0.25
 40
0.3333333333
 40
0.4166666667
 40
0.5
 40
0.5833333333
 40
0.6666666667
 40
0.75
 40
0.8333333333
 40
0.875
 40
0.9166666667
 40
0.9583333333
 40
1.0
 40
1.0
 40
1.0
 40
1.0
 10
254.0880186407
 20
204.5805613939
 30
0.0
 10
254.0943337777
 20
204.5805613939
 30
0.0
 10
254.1059932701
 20
204.5795672457
 30
0.0
 10
254.1232562653
 20
204.5753932112
 30
0.0
 10
254.1393614299
 20
204.5687745922
 30
0.0
 10
254.1592960954
 20
204.5571063376
 30
0.0
 10
254.1820133571
 20
204.5365718024
 30
0.0
 10
254.2023962445
 20
204.5051568432
 30
0.0
 10
254.2150998158
 20
204.4690820621
 30
0.0
 10
254.2194141188
 20
204.4305610724
 30
0.0
 10
254.2150996568
 20
204.3920399586
 30
0.0
 10
254.2023958549
 20
204.3559651596
 30
0.0
 10
254.182012923
 20
204.3245505072
 30
0.0
 10
254.1592957379
 20
204.3040161938
 30
0.0
 10
254.1393611447
 20
204.2923480587
 30
0.0
 10
254.1232560573
 20
204.2857295145
 30
0.0
 10
254.1059931592
 20
204.2815555295
 30
0.0
 10
254.0943337361
 20
204.2805613939
 30
0.0
 10
254.0880186407
 20
204.2805613939
 30
0.0
  0
SPLINE
  5
3EC
100
AcDbEntity
  8
03___PRT_ALL_CURVES
100
AcDbSpline
 62
40
  6
CONTINUOUS
 70
0
 71
3
 72
23
 73
19
 74
0
 42
0.0000001
 43
0.0000001
 44
0.0000000001
 40
0.0
 40
0.0
 40
0.0
 40
0.0
 40
0.0416666667
 40
0.0833333333
 40
0.125
 40
0.1666666667
 40
0.25
 40
0.3333333333
 40
0.4166666667
 40
0.5
 40
0.5833333333
 40
0.6666666667
 40
0.75
 40
0.8333333333
 40
0.875
 40
0.9166666667
 40
0.9583333333
 40
1.0
 40
1.0
 40
1.0
 40
1.0
 10
252.6559313139
 20
204.2805613939
 30
0.0
 10
252.649976281
 20
204.2805613939
 30
0.0
 10
252.6389999375
 20
204.2815402759
 30
0.0
 10
252.6227231029
 20
204.2856630973
 30
0.0
 10
252.6075319801
 20
204.2922164954
 30
0.0
 10
252.5887109988
 20
204.3037967656
 30
0.0
 10
252.5672549486
 20
204.3242228173
 30
0.0
 10
252.547966074
 20
204.3555448838
 30
0.0
 10
252.5358572187
 20
204.3917972815
 30
0.0
 10
252.5317504665
 20
204.4305608486
 30
0.0
 10
252.5358569662
 20
204.4693242284
 30
0.0
 10
252.5479654655
 20
204.5055766129
 30
0.0
 10
252.5672542751
 20
204.5368991898
 30
0.0
 10
252.5887104503
 20
204.5573256086
 30
0.0
 10
252.6075315439
 20
204.5689060727
 30
0.0
 10
252.6227227857
 20
204.5754595912
 30
0.0
 10
252.638999769
 20
204.5795824918
 30
0.0
 10
252.6499762173
 20
204.5805613939
 30
0.0
 10
252.6559313139
 20
204.5805613939
 30
0.0
  0
SPLINE
  5
3ED
100
AcDbEntity
  8
03___PRT_ALL_CURVES
100
AcDbSpline
 62
40
  6
CONTINUOUS
 70
0
 71
3
 72
27
 73
23
 74
0
 42
0.0000001
 43
0.0000001
 44
0.0000000001
 40
0.0
 40
0.0
 40
0.0
 40
0.0
 40
0.0416666667
 40
0.0833333333
 40
0.125
 40
0.1666666667
 40
0.25
 40
0.3333333333
 40
0.4166666667
 40
0.5
 40
0.5833333333
 40
0.6666666667
 40
0.75
 40
0.7916666667
 40
0.8333333333
 40
0.8541666667
 40
0.875
 40
0.9166666667
 40
0.9375
 40
0.9583333333
 40
0.9791666667
 40
1.0
 40
1.0
 40
1.0
 40
1.0
 10
249.2519725908
 20
210.7281150913
 30
0.0
 10
249.2519725908
 20
210.7352217181
 30
0.0
 10
249.2513058176
 20
210.7483297352
 30
0.0
 10
249.2484855698
 20
210.7678409326
 30
0.0
 10
249.243987594
 20
210.7861210884
 30
0.0
 10
249.2360122577
 20
210.8088691012
 30
0.0
 10
249.2219085625
 20
210.8349593367
 30
0.0
 10
249.2001718011
 20
210.8587355732
 30
0.0
 10
249.1749152991
 20
210.8740073429
 30
0.0
 10
249.1477500077
 20
210.8797660288
 30
0.0
 10
249.1200320252
 20
210.8754549637
 30
0.0
 10
249.0939507189
 20
210.8610361797
 30
0.0
 10
249.0749952162
 20
210.8412871949
 30
0.0
 10
249.0621698909
 20
210.8211074187
 30
0.0
 10
249.0556001068
 20
210.8074312046
 30
0.0
 10
249.051195045
 20
210.796030315
 30
0.0
 10
249.0472982815
 20
210.7841748794
 30
0.0
 10
249.0442094228
 20
210.7717298376
 30
0.0
 10
249.0419816357
 20
210.7587319435
 30
0.0
 10
249.0407614407
 20
210.7487648476
 30
0.0
 10
249.0400119333
 20
210.7384695936
 30
0.0
 10
249.0398405565
 20
210.731749323
 30
0.0
 10
249.0398405565
 20
210.7281150913
 30
0.0
  0
SPLINE
  5
3EE
100
AcDbEntity
  8
03___PRT_ALL_CURVES
100
AcDbSpline
 62
40
  6
CONTINUOUS
 70
0
 71
3
 72
27
 73
23
 74
0
 42
0.0000001
 43
0.0000001
 44
0.0000000001
 40
0.0
 40
0.0
 40
0.0
 40
0.0
 40
0.0416666667
 40
0.0833333333
 40
0.125
 40
0.1666666667
 40
0.25
 40
0.3333333333
 40
0.4166666667
 40
0.5
 40
0.5833333333
 40
0.6666666667
 40
0.75
 40
0.7916666667
 40
0.8333333333
 40
0.8541666667
 40
0.875
 40
0.9166666667
 40
0.9375
 40
0.9583333333
 40
0.9791666667
 40
1.0
 40
1.0
 40
1.0
 40
1.0
 10
249.0398405565
 20
209.0281150913
 30
0.0
 10
249.0398405565
 20
209.0210084644
 30
0.0
 10
249.0405004389
 20
209.0079004473
 30
0.0
 10
249.0432920609
 20
208.9883892499
 30
0.0
 10
249.0477460069
 20
208.9701090941
 30
0.0
 10
249.0556472589
 20
208.9473610813
 30
0.0
 10
249.0696325506
 20
208.9212708458
 30
0.0
 10
249.0912283384
 20
208.8974946093
 30
0.0
 10
249.1163796779
 20
208.8822228396
 30
0.0
 10
249.1435022346
 20
208.8764641537
 30
0.0
 10
249.1712523871
 20
208.8807752188
 30
0.0
 10
249.1974344742
 20
208.8951940028
 30
0.0
 10
249.2165095551
 20
208.9149429876
 30
0.0
 10
249.2294344604
 20
208.9351227638
 30
0.0
 10
249.2360610009
 20
208.9487989779
 30
0.0
 10
249.2405062519
 20
208.9601998676
 30
0.0
 10
249.2444397734
 20
208.9720553032
 30
0.0
 10
249.2475591129
 20
208.9845003449
 30
0.0
 10
249.2498094396
 20
208.9974982391
 30
0.0
 10
249.2510421571
 20
209.0074653349
 30
0.0
 10
249.2517994298
 20
209.017760589
 30
0.0
 10
249.2519725908
 20
209.0244808595
 30
0.0
 10
249.2519725908
 20
209.0281150913
 30
0.0
  0
SPLINE
  5
3EF
100
AcDbEntity
  8
03___PRT_ALL_CURVES
100
AcDbSpline
 62
40
  6
CONTINUOUS
 70
0
 71
3
 72
10
 73
6
 74
0
 42
0.0000001
 43
0.0000001
 44
0.0000000001
 40
0.0
 40
0.0
 40
0.0
 40
0.0
 40
0.3333333333
 40
0.6666666667
 40
1.0
 40
1.0
 40
1.0
 40
1.0
 10
254.7968273443
 20
221.4308414715
 30
0.0
 10
254.7864339776
 20
221.458732197
 30
0.0
 10
254.7730516217
 20
221.5188806573
 30
0.0
 10
254.7699577253
 20
221.6210784639
 30
0.0
 10
254.7766940975
 20
221.6931111792
 30
0.0
 10
254.7818321201
 20
221.7305661454
 30
0.0
  0
SPLINE
  5
3F0
100
AcDbEntity
  8
03___PRT_ALL_CURVES
100
AcDbSpline
 62
40
  6
CONTINUOUS
 70
0
 71
3
 72
10
 73
6
 74
0
 42
0.0000001
 43
0.0000001
 44
0.0000000001
 40
0.0
 40
0.0
 40
0.0
 40
0.0
 40
0.3333333333
 40
0.6666666667
 40
1.0
 40
1.0
 40
1.0
 40
1.0
 10
254.9226807824
 20
221.2968136232
 30
0.0
 10
254.9034678711
 20
221.3026001852
 30
0.0
 10
254.8685888347
 20
221.320445228
 30
0.0
 10
254.8265440787
 20
221.3657002665
 30
0.0
 10
254.8056314076
 20
221.407215661
 30
0.0
 10
254.7968273443
 20
221.4308414715
 30
0.0
  0
SPLINE
  5
3F1
100
AcDbEntity
  8
03___PRT_ALL_CURVES
100
AcDbSpline
 62
40
  6
CONTINUOUS
 70
0
 71
3
 72
12
 73
8
 74
0
 42
0.0000001
 43
0.0000001
 44
0.0000000001
 40
0.0
 40
0.0
 40
0.0
 40
0.0
 40
0.1666666667
 40
0.3333333333
 40
0.5
 40
0.6666666667
 40
1.0
 40
1.0
 40
1.0
 40
1.0
 10
255.133545476
 20
221.3697345179
 30
0.0
 10
255.1224292402
 20
221.3588139082
 30
0.0
 10
255.1001856672
 20
221.3391360504
 30
0.0
 10
255.0660799317
 20
221.3157987184
 30
0.0
 10
255.030859795
 20
221.2990877524
 30
0.0
 10
254.9831466531
 20
221.286841381
 30
0.0
 10
254.9469928648
 20
221.2894912882
 30
0.0
 10
254.9226807824
 20
221.2968136232
 30
0.0
  0
SPLINE
  5
3F2
100
AcDbEntity
  8
03___PRT_ALL_CURVES
100
AcDbSpline
 62
40
  6
CONTINUOUS
 70
0
 71
3
 72
10
 73
6
 74
0
 42
0.0000001
 43
0.0000001
 44
0.0000000001
 40
0.0
 40
0.0
 40
0.0
 40
0.0
 40
0.3333333333
 40
0.6666666667
 40
1.0
 40
1.0
 40
1.0
 40
1.0
 10
255.2941957293
 20
221.6940773507
 30
0.0
 10
255.2831474575
 20
221.6483076838
 30
0.0
 10
255.2572068256
 20
221.562973873
 30
0.0
 10
255.2033045063
 20
221.4515427154
 30
0.0
 10
255.1585087449
 20
221.3942584777
 30
0.0
 10
255.133545476
 20
221.3697345179
 30
0.0
  0
SPLINE
  5
3F3
100
AcDbEntity
  8
03___PRT_ALL_CURVES
100
AcDbSpline
 62
40
  6
CONTINUOUS
 70
0
 71
3
 72
10
 73
6
 74
0
 42
0.0000001
 43
0.0000001
 44
0.0000000001
 40
0.0
 40
0.0
 40
0.0
 40
0.0
 40
0.3333333333
 40
0.6666666667
 40
1.0
 40
1.0
 40
1.0
 40
1.0
 10
255.2971395036
 20
222.0378230459
 30
0.0
 10
255.3081799369
 20
222.0053632563
 30
0.0
 10
255.3218802621
 20
221.9362656671
 30
0.0
 10
255.3192936104
 20
221.8183518705
 30
0.0
 10
255.3044428164
 20
221.7365279501
 30
0.0
 10
255.2941957293
 20
221.6940773507
 30
0.0
  0
SPLINE
  5
3F4
100
AcDbEntity
  8
03___PRT_ALL_CURVES
100
AcDbSpline
 62
40
  6
CONTINUOUS
 70
0
 71
3
 72
10
 73
6
 74
0
 42
0.0000001
 43
0.0000001
 44
0.0000000001
 40
0.0
 40
0.0
 40
0.0
 40
0.0
 40
0.3333333333
 40
0.6666666667
 40
1.0
 40
1.0
 40
1.0
 40
1.0
 10
255.1395460309
 20
222.2076931898
 30
0.0
 10
255.1638293599
 20
222.2004329337
 30
0.0
 10
255.2080008905
 20
222.1785970208
 30
0.0
 10
255.2613123071
 20
222.1215874196
 30
0.0
 10
255.286766163
 20
222.0683215277
 30
0.0
 10
255.2971395036
 20
222.0378230459
 30
0.0
  0
SPLINE
  5
3F5
100
AcDbEntity
  8
03___PRT_ALL_CURVES
100
AcDbSpline
 62
40
  6
CONTINUOUS
 70
0
 71
3
 72
10
 73
6
 74
0
 42
0.0000001
 43
0.0000001
 44
0.0000000001
 40
0.0
 40
0.0
 40
0.0
 40
0.0
 40
0.3333333333
 40
0.6666666667
 40
1.0
 40
1.0
 40
1.0
 40
1.0
 10
255.0013587641
 20
222.1954344837
 30
0.0
 10
255.0172865748
 20
222.2026564531
 30
0.0
 10
255.0487765533
 20
222.2131443935
 30
0.0
 10
255.0949310766
 20
222.2171380422
 30
0.0
 10
255.1248071286
 20
222.2120998429
 30
0.0
 10
255.1395460309
 20
222.2076931898
 30
0.0
  0
SPLINE
  5
3F6
100
AcDbEntity
  8
03___PRT_ALL_CURVES
100
AcDbSpline
 62
40
  6
CONTINUOUS
 70
0
 71
3
 72
10
 73
6
 74
0
 42
0.0000001
 43
0.0000001
 44
0.0000000001
 40
0.0
 40
0.0
 40
0.0
 40
0.0
 40
0.3333333333
 40
0.6666666667
 40
1.0
 40
1.0
 40
1.0
 40
1.0
 10
254.8766263144
 20
222.0846806978
 30
0.0
 10
254.8885970681
 20
222.1022019205
 30
0.0
 10
254.9138162707
 20
222.1337518058
 30
0.0
 10
254.9559437483
 20
222.1709889621
 30
0.0
 10
254.9858769891
 20
222.1884147555
 30
0.0
 10
255.0013587641
 20
222.1954344837
 30
0.0
  0
SPLINE
  5
3F7
100
AcDbEntity
  8
03___PRT_ALL_CURVES
100
AcDbSpline
 62
40
  6
CONTINUOUS
 70
0
 71
3
 72
10
 73
6
 74
0
 42
0.0000001
 43
0.0000001
 44
0.0000000001
 40
0.0
 40
0.0
 40
0.0
 40
0.0
 40
0.3333333333
 40
0.6666666667
 40
1.0
 40
1.0
 40
1.0
 40
1.0
 10
255.2291459948
 20
222.4055136187
 30
0.0
 10
255.2020124695
 20
222.4136016297
 30
0.0
 10
255.1467869358
 20
222.4202927284
 30
0.0
 10
255.0592510983
 20
222.4008289205
 30
0.0
 10
255.0014833969
 20
222.3703600474
 30
0.0
 10
254.9721817448
 20
222.3510907121
 30
0.0
  0
SPLINE
  5
3F8
100
AcDbEntity
  8
03___PRT_ALL_CURVES
100
AcDbSpline
 62
40
  6
CONTINUOUS
 70
0
 71
3
 72
10
 73
6
 74
0
 42
0.0000001
 43
0.0000001
 44
0.0000000001
 40
0.0
 40
0.0
 40
0.0
 40
0.0
 40
0.3333333333
 40
0.6666666667
 40
1.0
 40
1.0
 40
1.0
 40
1.0
 10
255.4538524994
 20
222.1565867367
 30
0.0
 10
255.4383652102
 20
222.2007151961
 30
0.0
 10
255.401461663
 20
222.2782200217
 30
0.0
 10
255.326457955
 20
222.3625327619
 30
0.0
 10
255.2637528705
 20
222.3951979377
 30
0.0
 10
255.2291459948
 20
222.4055136187
 30
0.0
  0
SPLINE
  5
3F9
100
AcDbEntity
  8
03___PRT_ALL_CURVES
100
AcDbSpline
 62
40
  6
CONTINUOUS
 70
0
 71
3
 72
12
 73
8
 74
0
 42
0.0000001
 43
0.0000001
 44
0.0000000001
 40
0.0
 40
0.0
 40
0.0
 40
0.0
 40
0.3333333333
 40
0.5
 40
0.6666666667
 40
0.8333333333
 40
1.0
 40
1.0
 40
1.0
 40
1.0
 10
255.4565041547
 20
221.6657056488
 30
0.0
 10
255.4713532512
 20
221.7268884236
 30
0.0
 10
255.4866459006
 20
221.8151292432
 30
0.0
 10
255.4919420955
 20
221.9289820198
 30
0.0
 10
255.4876549321
 20
222.0104617322
 30
0.0
 10
255.4753877056
 20
222.086157526
 30
0.0
 10
255.461902049
 20
222.1336508813
 30
0.0
 10
255.4538524994
 20
222.1565867367
 30
0.0
  0
SPLINE
  5
3FA
100
AcDbEntity
  8
03___PRT_ALL_CURVES
100
AcDbSpline
 62
40
  6
CONTINUOUS
 70
0
 71
3
 72
10
 73
6
 74
0
 42
0.0000001
 43
0.0000001
 44
0.0000000001
 40
0.0
 40
0.0
 40
0.0
 40
0.0
 40
0.3333333333
 40
0.6666666667
 40
1.0
 40
1.0
 40
1.0
 40
1.0
 10
255.2255651664
 20
221.2133596595
 30
0.0
 10
255.260577708
 20
221.2502800774
 30
0.0
 10
255.3248256959
 20
221.3325197383
 30
0.0
 10
255.4029560933
 20
221.4837264997
 30
0.0
 10
255.4410483167
 20
221.6020229156
 30
0.0
 10
255.4565041547
 20
221.6657056488
 30
0.0
  0
SPLINE
  5
3FB
100
AcDbEntity
  8
03___PRT_ALL_CURVES
100
AcDbSpline
 62
40
  6
CONTINUOUS
 70
0
 71
3
 72
10
 73
6
 74
0
 42
0.0000001
 43
0.0000001
 44
0.0000000001
 40
0.0
 40
0.0
 40
0.0
 40
0.0
 40
0.3333333333
 40
0.6666666667
 40
1.0
 40
1.0
 40
1.0
 40
1.0
 10
254.8782152799
 20
221.1011833348
 30
0.0
 10
254.9192051449
 20
221.0888193114
 30
0.0
 10
254.9995039794
 20
221.0801308357
 30
0.0
 10
255.1164591529
 20
221.1173031196
 30
0.0
 10
255.1898649949
 20
221.175714142
 30
0.0
 10
255.2255651664
 20
221.2133596595
 30
0.0
  0
SPLINE
  5
3FC
100
AcDbEntity
  8
03___PRT_ALL_CURVES
100
AcDbSpline
 62
40
  6
CONTINUOUS
 70
0
 71
3
 72
10
 73
6
 74
0
 42
0.0000001
 43
0.0000001
 44
0.0000000001
 40
0.0
 40
0.0
 40
0.0
 40
0.0
 40
0.3333333333
 40
0.6666666667
 40
1.0
 40
1.0
 40
1.0
 40
1.0
 10
254.6502956071
 20
221.3227371959
 30
0.0
 10
254.6665918163
 20
221.2837387122
 30
0.0
 10
254.7052477752
 20
221.2153755782
 30
0.0
 10
254.7811535505
 20
221.1417242041
 30
0.0
 10
254.8438438511
 20
221.1115509988
 30
0.0
 10
254.8782152799
 20
221.1011833348
 30
0.0
  0
SPLINE
  5
3FD
100
AcDbEntity
  8
03___PRT_ALL_CURVES
100
AcDbSpline
 62
40
  6
CONTINUOUS
 70
0
 71
3
 72
12
 73
8
 74
0
 42
0.0000001
 43
0.0000001
 44
0.0000000001
 40
0.0
 40
0.0
 40
0.0
 40
0.0
 40
0.3333333333
 40
0.5
 40
0.6666666667
 40
0.8333333333
 40
1.0
 40
1.0
 40
1.0
 40
1.0
 10
254.6235378052
 20
221.7560021194
 30
0.0
 10
254.6139565917
 20
221.7010579971
 30
0.0
 10
254.6052199572
 20
221.6222129382
 30
0.0
 10
254.6061122019
 20
221.5213267083
 30
0.0
 10
254.6136644102
 20
221.4496342682
 30
0.0
 10
254.6279345104
 20
221.3834908229
 30
0.0
 10
254.6420638476
 20
221.3424366325
 30
0.0
 10
254.6502956071
 20
221.3227371959
 30
0.0
  0
SPLINE
  5
3FE
100
AcDbEntity
  8
03___PRT_ALL_CURVES
100
AcDbSpline
 62
40
  6
CONTINUOUS
 70
0
 71
3
 72
10
 73
6
 74
0
 42
0.0000001
 43
0.0000001
 44
0.0000000001
 40
0.0
 40
0.0
 40
0.0
 40
0.0
 40
0.3333333333
 40
0.6666666667
 40
1.0
 40
1.0
 40
1.0
 40
1.0
 10
254.1720043906
 20
222.7987280549
 30
0.0
 10
254.1932012222
 20
222.810480991
 30
0.0
 10
254.2342630459
 20
222.8348446009
 30
0.0
 10
254.2918386333
 20
222.8747768384
 30
0.0
 10
254.3267891368
 20
222.9039136138
 30
0.0
 10
254.3433032136
 20
222.9193301021
 30
0.0
  0
SPLINE
  5
3FF
100
AcDbEntity
  8
03___PRT_ALL_CURVES
100
AcDbSpline
 62
40
  6
CONTINUOUS
 70
0
 71
3
 72
10
 73
6
 74
0
 42
0.0000001
 43
0.0000001
 44
0.0000000001
 40
0.0
 40
0.0
 40
0.0
 40
0.0
 40
0.3333333333
 40
0.6666666667
 40
1.0
 40
1.0
 40
1.0
 40
1.0
 10
253.9904728137
 20
222.7219126272
 30
0.0
 10
254.0102984713
 20
222.7269032308
 30
0.0
 10
254.0500817821
 20
222.7397770224
 30
0.0
 10
254.1106787077
 20
222.7661066286
 30
0.0
 10
254.1514342944
 20
222.7873226226
 30
0.0
 10
254.1720043906
 20
222.7987280549
 30
0.0
  0
SPLINE
  5
400
100
AcDbEntity
  8
03___PRT_ALL_CURVES
100
AcDbSpline
 62
40
  6
CONTINUOUS
 70
0
 71
3
 72
10
 73
6
 74
0
 42
0.0000001
 43
0.0000001
 44
0.0000000001
 40
0.0
 40
0.0
 40
0.0
 40
0.0
 40
0.3333333333
 40
0.6666666667
 40
1.0
 40
1.0
 40
1.0
 40
1.0
 10
254.3047684089
 20
223.1116394493
 30
0.0
 10
254.2771129322
 20
223.0876956898
 30
0.0
 10
254.2207846254
 20
223.0440471664
 30
0.0
 10
254.1340657401
 20
222.9910375861
 30
0.0
 10
254.0739789564
 20
222.9632110415
 30
0.0
 10
254.0434487592
 20
222.9512047024
 30
0.0
  0
SPLINE
  5
401
100
AcDbEntity
  8
03___PRT_ALL_CURVES
100
AcDbSpline
 62
40
  6
CONTINUOUS
 70
0
 71
3
 72
10
 73
6
 74
0
 42
0.0000001
 43
0.0000001
 44
0.0000000001
 40
0.0
 40
0.0
 40
0.0
 40
0.0
 40
0.3333333333
 40
0.6666666667
 40
1.0
 40
1.0
 40
1.0
 40
1.0
 10
254.4945818723
 20
223.3319988368
 30
0.0
 10
254.4787321297
 20
223.3052473405
 30
0.0
 10
254.443251813
 20
223.2534739968
 30
0.0
 10
254.3791686082
 20
223.1798225572
 30
0.0
 10
254.3305529772
 20
223.1339634002
 30
0.0
 10
254.3047684089
 20
223.1116394493
 30
0.0
  0
SPLINE
  5
402
100
AcDbEntity
  8
03___PRT_ALL_CURVES
100
AcDbSpline
 62
40
  6
CONTINUOUS
 70
0
 71
3
 72
10
 73
6
 74
0
 42
0.0000001
 43
0.0000001
 44
0.0000000001
 40
0.0
 40
0.0
 40
0.0
 40
0.0
 40
0.3333333333
 40
0.6666666667
 40
1.0
 40
1.0
 40
1.0
 40
1.0
 10
245.7119621317
 20
221.9005468913
 30
0.0
 10
245.6981249572
 20
221.918826758
 30
0.0
 10
245.6733915906
 20
221.963333546
 30
0.0
 10
245.6424571333
 20
222.0500197646
 30
0.0
 10
245.6256483061
 20
222.1162732596
 30
0.0
 10
245.6178292886
 20
222.1516501967
 30
0.0
  0
SPLINE
  5
403
100
AcDbEntity
  8
03___PRT_ALL_CURVES
100
AcDbSpline
 62
40
  6
CONTINUOUS
 70
0
 71
3
 72
10
 73
6
 74
0
 42
0.0000001
 43
0.0000001
 44
0.0000000001
 40
0.0
 40
0.0
 40
0.0
 40
0.0
 40
0.3333333333
 40
0.6666666667
 40
1.0
 40
1.0
 40
1.0
 40
1.0
 10
245.8214111309
 20
221.8553578421
 30
0.0
 10
245.8088346867
 20
221.8495390118
 30
0.0
 10
245.7839248173
 20
221.8453943697
 30
0.0
 10
245.7471257486
 20
221.8610943659
 30
0.0
 10
245.7235968325
 20
221.8851766451
 30
0.0
 10
245.7119621317
 20
221.9005468913
 30
0.0
  0
SPLINE
  5
404
100
AcDbEntity
  8
03___PRT_ALL_CURVES
100
AcDbSpline
 62
40
  6
CONTINUOUS
 70
0
 71
3
 72
12
 73
8
 74
0
 42
0.0000001
 43
0.0000001
 44
0.0000000001
 40
0.0
 40
0.0
 40
0.0
 40
0.0
 40
0.1666666667
 40
0.3333333333
 40
0.5
 40
0.6666666667
 40
1.0
 40
1.0
 40
1.0
 40
1.0
 10
245.9191069294
 20
222.0365955745
 30
0.0
 10
245.9160330477
 20
222.0209795037
 30
0.0
 10
245.9092495653
 20
221.9916069842
 30
0.0
 10
245.8968409044
 20
221.9523846089
 30
0.0
 10
245.8818680694
 20
221.9182208681
 30
0.0
 10
245.8585387923
 20
221.8808296155
 30
0.0
 10
245.8373054767
 20
221.8627117888
 30
0.0
 10
245.8214111309
 20
221.8553578421
 30
0.0
  0
SPLINE
  5
405
100
AcDbEntity
  8
03___PRT_ALL_CURVES
100
AcDbSpline
 62
40
  6
CONTINUOUS
 70
0
 71
3
 72
10
 73
6
 74
0
 42
0.0000001
 43
0.0000001
 44
0.0000000001
 40
0.0
 40
0.0
 40
0.0
 40
0.0
 40
0.3333333333
 40
0.6666666667
 40
1.0
 40
1.0
 40
1.0
 40
1.0
 10
245.9148377378
 20
222.406888983
 30
0.0
 10
245.9219434044
 20
222.3614207261
 30
0.0
 10
245.9322680368
 20
222.2735525755
 30
0.0
 10
245.9345962778
 20
222.1471198966
 30
0.0
 10
245.926091699
 20
222.0720799122
 30
0.0
 10
245.9191069294
 20
222.0365955745
 30
0.0
  0
SPLINE
  5
406
100
AcDbEntity
  8
03___PRT_ALL_CURVES
100
AcDbSpline
 62
40
  6
CONTINUOUS
 70
0
 71
3
 72
10
 73
6
 74
0
 42
0.0000001
 43
0.0000001
 44
0.0000000001
 40
0.0
 40
0.0
 40
0.0
 40
0.0
 40
0.3333333333
 40
0.6666666667
 40
1.0
 40
1.0
 40
1.0
 40
1.0
 10
245.8166107242
 20
222.7062153222
 30
0.0
 10
245.8321335013
 20
222.6842548608
 30
0.0
 10
245.8597885886
 20
222.6320539527
 30
0.0
 10
245.8926175884
 20
222.528659802
 30
0.0
 10
245.9081900306
 20
222.4494268155
 30
0.0
 10
245.9148377378
 20
222.406888983
 30
0.0
  0
SPLINE
  5
407
100
AcDbEntity
  8
03___PRT_ALL_CURVES
100
AcDbSpline
 62
40
  6
CONTINUOUS
 70
0
 71
3
 72
10
 73
6
 74
0
 42
0.0000001
 43
0.0000001
 44
0.0000000001
 40
0.0
 40
0.0
 40
0.0
 40
0.0
 40
0.3333333333
 40
0.6666666667
 40
1.0
 40
1.0
 40
1.0
 40
1.0
 10
245.6802315008
 20
222.7656371574
 30
0.0
 10
245.69593599
 20
222.7729830139
 30
0.0
 10
245.7269516615
 20
222.7785746339
 30
0.0
 10
245.7728271121
 20
222.7585435955
 30
0.0
 10
245.8021444223
 20
222.7266811618
 30
0.0
 10
245.8166107242
 20
222.7062153222
 30
0.0
  0
SPLINE
  5
408
100
AcDbEntity
  8
03___PRT_ALL_CURVES
100
AcDbSpline
 62
40
  6
CONTINUOUS
 70
0
 71
3
 72
10
 73
6
 74
0
 42
0.0000001
 43
0.0000001
 44
0.0000000001
 40
0.0
 40
0.0
 40
0.0
 40
0.0
 40
0.3333333333
 40
0.6666666667
 40
1.0
 40
1.0
 40
1.0
 40
1.0
 10
245.6072806621
 20
222.6777452757
 30
0.0
 10
245.6140392136
 20
222.6929454266
 30
0.0
 10
245.628477687
 20
222.7196793674
 30
0.0
 10
245.6528224799
 20
222.7488940593
 30
0.0
 10
245.6708023824
 20
222.7612266382
 30
0.0
 10
245.6802315008
 20
222.7656371574
 30
0.0
  0
SPLINE
  5
409
100
AcDbEntity
  8
03___PRT_ALL_CURVES
100
AcDbSpline
 62
40
  6
CONTINUOUS
 70
0
 71
3
 72
10
 73
6
 74
0
 42
0.0000001
 43
0.0000001
 44
0.0000000001
 40
0.0
 40
0.0
 40
0.0
 40
0.0
 40
0.3333333333
 40
0.6666666667
 40
1.0
 40
1.0
 40
1.0
 40
1.0
 10
245.5697608451
 20
222.5117674193
 30
0.0
 10
245.5714073305
 20
222.5335983301
 30
0.0
 10
245.576378739
 20
222.5750057197
 30
0.0
 10
245.5891053548
 20
222.6310475746
 30
0.0
 10
245.6007086015
 20
222.6629645475
 30
0.0
 10
245.6072806621
 20
222.6777452757
 30
0.0
  0
SPLINE
  5
40A
100
AcDbEntity
  8
03___PRT_ALL_CURVES
100
AcDbSpline
 62
40
  6
CONTINUOUS
 70
0
 71
3
 72
10
 73
6
 74
0
 42
0.0000001
 43
0.0000001
 44
0.0000000001
 40
0.0
 40
0.0
 40
0.0
 40
0.0
 40
0.3333333333
 40
0.6666666667
 40
1.0
 40
1.0
 40
1.0
 40
1.0
 10
245.6730969709
 20
222.9868678062
 30
0.0
 10
245.6557676714
 20
222.9787574002
 30
0.0
 10
245.6233687247
 20
222.953702142
 30
0.0
 10
245.5807747683
 20
222.8879920668
 30
0.0
 10
245.5576277909
 20
222.829285572
 30
0.0
 10
245.5469576119
 20
222.7961853394
 30
0.0
  0
SPLINE
  5
40B
100
AcDbEntity
  8
03___PRT_ALL_CURVES
100
AcDbSpline
 62
40
  6
CONTINUOUS
 70
0
 71
3
 72
10
 73
6
 74
0
 42
0.0000001
 43
0.0000001
 44
0.0000000001
 40
0.0
 40
0.0
 40
0.0
 40
0.0
 40
0.3333333333
 40
0.6666666667
 40
1.0
 40
1.0
 40
1.0
 40
1.0
 10
245.8693167335
 20
222.8958099373
 30
0.0
 10
245.8480335479
 20
222.9252700793
 30
0.0
 10
245.8053522852
 20
222.971890281
 30
0.0
 10
245.739241006
 20
223.0037468196
 30
0.0
 10
245.6951864004
 20
222.9972060337
 30
0.0
 10
245.6730969709
 20
222.9868678062
 30
0.0
  0
SPLINE
  5
40C
100
AcDbEntity
  8
03___PRT_ALL_CURVES
100
AcDbSpline
 62
40
  6
CONTINUOUS
 70
0
 71
3
 72
10
 73
6
 74
0
 42
0.0000001
 43
0.0000001
 44
0.0000000001
 40
0.0
 40
0.0
 40
0.0
 40
0.0
 40
0.3333333333
 40
0.6666666667
 40
1.0
 40
1.0
 40
1.0
 40
1.0
 10
246.0142345397
 20
222.4721582655
 30
0.0
 10
246.0045842483
 20
222.5334546635
 30
0.0
 10
245.9814681015
 20
222.6468631321
 30
0.0
 10
245.9321287607
 20
222.7925911322
 30
0.0
 10
245.8915865442
 20
222.8649841108
 30
0.0
 10
245.8693167335
 20
222.8958099373
 30
0.0
  0
SPLINE
  5
40D
100
AcDbEntity
  8
03___PRT_ALL_CURVES
100
AcDbSpline
 62
40
  6
CONTINUOUS
 70
0
 71
3
 72
10
 73
6
 74
0
 42
0.0000001
 43
0.0000001
 44
0.0000000001
 40
0.0
 40
0.0
 40
0.0
 40
0.0
 40
0.3333333333
 40
0.6666666667
 40
1.0
 40
1.0
 40
1.0
 40
1.0
 10
246.0168870978
 20
221.9524403145
 30
0.0
 10
246.0258674352
 20
222.0039106032
 30
0.0
 10
246.0380543779
 20
222.1108588981
 30
0.0
 10
246.0375777562
 20
222.2858616055
 30
0.0
 10
246.0242027371
 20
222.4088426032
 30
0.0
 10
246.0142345397
 20
222.4721582655
 30
0.0
  0
SPLINE
  5
40E
100
AcDbEntity
  8
03___PRT_ALL_CURVES
100
AcDbSpline
 62
40
  6
CONTINUOUS
 70
0
 71
3
 72
10
 73
6
 74
0
 42
0.0000001
 43
0.0000001
 44
0.0000000001
 40
0.0
 40
0.0
 40
0.0
 40
0.0
 40
0.3333333333
 40
0.6666666667
 40
1.0
 40
1.0
 40
1.0
 40
1.0
 10
245.8530106227
 20
221.6609280563
 30
0.0
 10
245.8797113343
 20
221.6732521952
 30
0.0
 10
245.9276584605
 20
221.7106199179
 30
0.0
 10
245.9833705217
 20
221.808654899
 30
0.0
 10
246.0077494424
 20
221.9000683668
 30
0.0
 10
246.0168870978
 20
221.9524403145
 30
0.0
  0
SPLINE
  5
40F
100
AcDbEntity
  8
03___PRT_ALL_CURVES
100
AcDbSpline
 62
40
  6
CONTINUOUS
 70
0
 71
3
 72
10
 73
6
 74
0
 42
0.0000001
 43
0.0000001
 44
0.0000000001
 40
0.0
 40
0.0
 40
0.0
 40
0.0
 40
0.3333333333
 40
0.6666666667
 40
1.0
 40
1.0
 40
1.0
 40
1.0
 10
245.6606356023
 20
221.7240126395
 30
0.0
 10
245.6809874751
 20
221.6994332934
 30
0.0
 10
245.7224138651
 20
221.6621285047
 30
0.0
 10
245.786366919
 20
221.6413537044
 30
0.0
 10
245.830549095
 20
221.6505605802
 30
0.0
 10
245.8530106227
 20
221.6609280563
 30
0.0
  0
SPLINE
  5
410
100
AcDbEntity
  8
03___PRT_ALL_CURVES
100
AcDbSpline
 62
40
  6
CONTINUOUS
 70
0
 71
3
 72
10
 73
6
 74
0
 42
0.0000001
 43
0.0000001
 44
0.0000000001
 40
0.0
 40
0.0
 40
0.0
 40
0.0
 40
0.3333333333
 40
0.6666666667
 40
1.0
 40
1.0
 40
1.0
 40
1.0
 10
245.522447279
 20
222.0840455426
 30
0.0
 10
245.5326783968
 20
222.0309159627
 30
0.0
 10
245.5559762209
 20
221.9330083492
 30
0.0
 10
245.6027105433
 20
221.8087633453
 30
0.0
 10
245.6401310422
 20
221.748776389
 30
0.0
 10
245.6606356023
 20
221.7240126395
 30
0.0
  0
SPLINE
  5
411
100
AcDbEntity
  8
03___PRT_ALL_CURVES
100
AcDbSpline
 62
40
  6
CONTINUOUS
 70
0
 71
3
 72
10
 73
6
 74
0
 42
0.0000001
 43
0.0000001
 44
0.0000000001
 40
0.0
 40
0.0
 40
0.0
 40
0.0
 40
0.3333333333
 40
0.6666666667
 40
1.0
 40
1.0
 40
1.0
 40
1.0
 10
244.9865776104
 20
222.7286927315
 30
0.0
 10
244.994844685
 20
222.75109821
 30
0.0
 10
245.0104214822
 20
222.7958572043
 30
0.0
 10
245.0306795377
 20
222.8635581266
 30
0.0
 10
245.0416241587
 20
222.9088319509
 30
0.0
 10
245.0463420655
 20
222.9316354732
 30
0.0
  0
SPLINE
  5
412
100
AcDbEntity
  8
03___PRT_ALL_CURVES
100
AcDbSpline
 62
40
  6
CONTINUOUS
 70
0
 71
3
 72
10
 73
6
 74
0
 42
0.0000001
 43
0.0000001
 44
0.0000000001
 40
0.0
 40
0.0
 40
0.0
 40
0.0
 40
0.3333333333
 40
0.6666666667
 40
1.0
 40
1.0
 40
1.0
 40
1.0
 10
244.9093046555
 20
222.5571405637
 30
0.0
 10
244.9186251853
 20
222.572910887
 30
0.0
 10
244.9365969742
 20
222.6070407025
 30
0.0
 10
244.9622264243
 20
222.6649088165
 30
0.0
 10
244.9785334533
 20
222.7068914056
 30
0.0
 10
244.9865776104
 20
222.7286927315
 30
0.0
  0
SPLINE
  5
413
100
AcDbEntity
  8
03___PRT_ALL_CURVES
100
AcDbSpline
 62
40
  6
CONTINUOUS
 70
0
 71
3
 72
10
 73
6
 74
0
 42
0.0000001
 43
0.0000001
 44
0.0000000001
 40
0.0
 40
0.0
 40
0.0
 40
0.0
 40
0.3333333333
 40
0.6666666667
 40
1.0
 40
1.0
 40
1.0
 40
1.0
 10
244.9735400947
 20
223.0760735873
 30
0.0
 10
244.9651643847
 20
223.0394799023
 30
0.0
 10
244.9466964958
 20
222.9693171977
 30
0.0
 10
244.9144072493
 20
222.8734659035
 30
0.0
 10
244.8895825162
 20
222.8145538815
 30
0.0
 10
244.8763891523
 20
222.786432639
 30
0.0
  0
SPLINE
  5
414
100
AcDbEntity
  8
03___PRT_ALL_CURVES
100
AcDbSpline
 62
40
  6
CONTINUOUS
 70
0
 71
3
 72
10
 73
6
 74
0
 42
0.0000001
 43
0.0000001
 44
0.0000000001
 40
0.0
 40
0.0
 40
0.0
 40
0.0
 40
0.3333333333
 40
0.6666666667
 40
1.0
 40
1.0
 40
1.0
 40
1.0
 10
245.0156832888
 20
223.3755178255
 30
0.0
 10
245.0144518945
 20
223.34342033
 30
0.0
 10
245.0094966859
 20
223.2784645439
 30
0.0
 10
244.9950807363
 20
223.1779738455
 30
0.0
 10
244.9813695606
 20
223.110280718
 30
0.0
 10
244.9735400947
 20
223.0760735873
 30
0.0
  0
SPLINE
  5
415
100
AcDbEntity
  8
03___PRT_ALL_CURVES
100
AcDbSpline
 62
40
  6
CONTINUOUS
 70
0
 71
3
 72
13
 73
9
 74
0
 42
0.0000001
 43
0.0000001
 44
0.0000000001
 40
0.0
 40
0.0
 40
0.0
 40
0.0
 40
0.1666666667
 40
0.3333333333
 40
0.5
 40
0.6666666667
 40
0.8333333333
 40
1.0
 40
1.0
 40
1.0
 40
1.0
 10
249.1480923489
 20
222.5983649347
 30
0.0
 10
249.1374012238
 20
222.5983649347
 30
0.0
 10
249.1167843961
 20
222.6021025383
 30
0.0
 10
249.0889508686
 20
222.6178861417
 30
0.0
 10
249.0634171638
 20
222.6434099545
 30
0.0
 10
249.0407302829
 20
222.6773551257
 30
0.0
 10
249.0211863367
 20
222.7172116528
 30
0.0
 10
249.0097606602
 20
222.7472344811
 30
0.0
 10
249.00426747
 20
222.7634399899
 30
0.0
  0
SPLINE
  5
416
100
AcDbEntity
  8
03___PRT_ALL_CURVES
100
AcDbSpline
 62
40
  6
CONTINUOUS
 70
0
 71
3
 72
13
 73
9
 74
0
 42
0.0000001
 43
0.0000001
 44
0.0000000001
 40
0.0
 40
0.0
 40
0.0
 40
0.0
 40
0.1666666667
 40
0.3333333333
 40
0.5
 40
0.6666666667
 40
0.8333333333
 40
1.0
 40
1.0
 40
1.0
 40
1.0
 10
249.287468795
 20
222.7658803181
 30
0.0
 10
249.2820497083
 20
222.7497426361
 30
0.0
 10
249.270850636
 20
222.7198190849
 30
0.0
 10
249.2517522178
 20
222.6795976857
 30
0.0
 10
249.2294908379
 20
222.6447351968
 30
0.0
 10
249.2045539559
 20
222.6184050077
 30
0.0
 10
249.1778376361
 20
222.6022291602
 30
0.0
 10
249.1582195168
 20
222.5983649347
 30
0.0
 10
249.1480923489
 20
222.5983649347
 30
0.0
  0
SPLINE
  5
417
100
AcDbEntity
  8
03___PRT_ALL_CURVES
100
AcDbSpline
 62
40
  6
CONTINUOUS
 70
0
 71
3
 72
15
 73
11
 74
0
 42
0.0000001
 43
0.0000001
 44
0.0000000001
 40
0.0
 40
0.0
 40
0.0
 40
0.0
 40
0.25
 40
0.5
 40
0.625
 40
0.75
 40
0.8125
 40
0.875
 40
0.9375
 40
1.0
 40
1.0
 40
1.0
 40
1.0
 10
249.3441981511
 20
223.4169188444
 30
0.0
 10
249.3441981511
 20
223.3521775219
 30
0.0
 10
249.342669476
 20
223.2278739363
 30
0.0
 10
249.3361672507
 20
223.0851310849
 30
0.0
 10
249.3272431815
 20
222.9790739289
 30
0.0
 10
249.3196960141
 20
222.9158510918
 30
0.0
 10
249.3118790285
 20
222.8664967238
 30
0.0
 10
249.3050783698
 20
222.8310261898
 30
0.0
 10
249.2970329734
 20
222.79694418
 30
0.0
 10
249.2909851562
 20
222.7763518094
 30
0.0
 10
249.287468795
 20
222.7658803181
 30
0.0
  0
SPLINE
  5
418
100
AcDbEntity
  8
03___PRT_ALL_CURVES
100
AcDbSpline
 62
40
  6
CONTINUOUS
 70
0
 71
3
 72
15
 73
11
 74
0
 42
0.0000001
 43
0.0000001
 44
0.0000000001
 40
0.0
 40
0.0
 40
0.0
 40
0.0
 40
0.0625
 40
0.125
 40
0.1875
 40
0.25
 40
0.375
 40
0.5
 40
0.75
 40
1.0
 40
1.0
 40
1.0
 40
1.0
 10
249.2873304486
 20
224.0705659927
 30
0.0
 10
249.2909211503
 20
224.0601827524
 30
0.0
 10
249.2970335311
 20
224.0398059441
 30
0.0
 10
249.3051574379
 20
224.0058169323
 30
0.0
 10
249.3119868855
 20
223.9703813551
 30
0.0
 10
249.3198163564
 20
223.9209748194
 30
0.0
 10
249.327327898
 20
223.8577412541
 30
0.0
 10
249.336197659
 20
223.7515442495
 30
0.0
 10
249.3426732005
 20
223.6079396376
 30
0.0
 10
249.3441981511
 20
223.4824182027
 30
0.0
 10
249.3441981511
 20
223.4169188444
 30
0.0
  0
SPLINE
  5
419
100
AcDbEntity
  8
03___PRT_ALL_CURVES
100
AcDbSpline
 62
40
  6
CONTINUOUS
 70
0
 71
3
 72
13
 73
9
 74
0
 42
0.0000001
 43
0.0000001
 44
0.0000000001
 40
0.0
 40
0.0
 40
0.0
 40
0.0
 40
0.1666666667
 40
0.3333333333
 40
0.5
 40
0.6666666667
 40
0.8333333333
 40
1.0
 40
1.0
 40
1.0
 40
1.0
 10
249.1407130217
 20
224.2368370001
 30
0.0
 10
249.1516047342
 20
224.2368370001
 30
0.0
 10
249.17264349
 20
224.233064057
 30
0.0
 10
249.2009877228
 20
224.217117242
 30
0.0
 10
249.2269361289
 20
224.1914120494
 30
0.0
 10
249.2500174772
 20
224.1572627956
 30
0.0
 10
249.2699731677
 20
224.1171317639
 30
0.0
 10
249.2816883497
 20
224.0868812627
 30
0.0
 10
249.2873304486
 20
224.0705659927
 30
0.0
  0
SPLINE
  5
41A
100
AcDbEntity
  8
03___PRT_ALL_CURVES
100
AcDbSpline
 62
40
  6
CONTINUOUS
 70
0
 71
3
 72
13
 73
9
 74
0
 42
0.0000001
 43
0.0000001
 44
0.0000000001
 40
0.0
 40
0.0
 40
0.0
 40
0.0
 40
0.1666666667
 40
0.3333333333
 40
0.5
 40
0.6666666667
 40
0.8333333333
 40
1.0
 40
1.0
 40
1.0
 40
1.0
 10
249.0034531717
 20
224.0676691439
 30
0.0
 10
249.0087509159
 20
224.0838432658
 30
0.0
 10
249.0196816657
 20
224.1138622963
 30
0.0
 10
249.0383326368
 20
224.1543754849
 30
0.0
 10
249.0601516246
 20
224.189675379
 30
0.0
 10
249.0846943958
 20
224.2164233748
 30
0.0
 10
249.1110940385
 20
224.2328921148
 30
0.0
 10
249.1306222951
 20
224.2368370001
 30
0.0
 10
249.1407130217
 20
224.2368370001
 30
0.0
  0
SPLINE
  5
41B
100
AcDbEntity
  8
03___PRT_ALL_CURVES
100
AcDbSpline
 62
40
  6
CONTINUOUS
 70
0
 71
3
 72
15
 73
11
 74
0
 42
0.0000001
 43
0.0000001
 44
0.0000000001
 40
0.0
 40
0.0
 40
0.0
 40
0.0
 40
0.25
 40
0.5
 40
0.625
 40
0.75
 40
0.8125
 40
0.875
 40
0.9375
 40
1.0
 40
1.0
 40
1.0
 40
1.0
 10
248.9489708058
 20
223.4169188444
 30
0.0
 10
248.9489708058
 20
223.4816509988
 30
0.0
 10
248.9504043612
 20
223.6059183933
 30
0.0
 10
248.9565513022
 20
223.7485596887
 30
0.0
 10
248.9650485317
 20
223.8545229757
 30
0.0
 10
248.97226882
 20
223.9177043416
 30
0.0
 10
248.979787038
 20
223.9670563004
 30
0.0
 10
248.9863491455
 20
224.0025260108
 30
0.0
 10
248.9941434418
 20
224.0366129621
 30
0.0
 10
249.0000226318
 20
224.0571956351
 30
0.0
 10
249.0034531717
 20
224.0676691439
 30
0.0
  0
SPLINE
  5
41C
100
AcDbEntity
  8
03___PRT_ALL_CURVES
100
AcDbSpline
 62
40
  6
CONTINUOUS
 70
0
 71
3
 72
15
 73
11
 74
0
 42
0.0000001
 43
0.0000001
 44
0.0000000001
 40
0.0
 40
0.0
 40
0.0
 40
0.0
 40
0.0625
 40
0.125
 40
0.1875
 40
0.25
 40
0.375
 40
0.5
 40
0.75
 40
1.0
 40
1.0
 40
1.0
 40
1.0
 10
249.00426747
 20
222.7634399899
 30
0.0
 10
249.0007417712
 20
222.7738411851
 30
0.0
 10
248.9947268311
 20
222.7942924772
 30
0.0
 10
248.9867677139
 20
222.8283070453
 30
0.0
 10
248.9800909672
 20
222.8637575235
 30
0.0
 10
248.9724593318
 20
222.9131546563
 30
0.0
 10
248.9651626071
 20
222.9764175141
 30
0.0
 10
248.9565946565
 20
223.0826675529
 30
0.0
 10
248.9504087633
 20
223.2261632531
 30
0.0
 10
248.9489708058
 20
223.3515261608
 30
0.0
 10
248.9489708058
 20
223.4169188444
 30
0.0
  0
SPLINE
  5
41D
100
AcDbEntity
  8
03___PRT_ALL_CURVES
100
AcDbSpline
 62
40
  6
CONTINUOUS
 70
0
 71
3
 72
13
 73
9
 74
0
 42
0.0000001
 43
0.0000001
 44
0.0000000001
 40
0.0
 40
0.0
 40
0.0
 40
0.0
 40
0.1666666667
 40
0.3333333333
 40
0.5
 40
0.6666666667
 40
0.8333333333
 40
1.0
 40
1.0
 40
1.0
 40
1.0
 10
249.1464522649
 20
224.438747019
 30
0.0
 10
249.1280924162
 20
224.438747019
 30
0.0
 10
249.0929733104
 20
224.4335296187
 30
0.0
 10
249.045644456
 20
224.4106312533
 30
0.0
 10
249.0029795478
 20
224.3727514358
 30
0.0
 10
248.9655455785
 20
224.320799768
 30
0.0
 10
248.9335885141
 20
224.2568896516
 30
0.0
 10
248.915404314
 20
224.2066601713
 30
0.0
 10
248.906953658
 20
224.1793924962
 30
0.0
  0
SPLINE
  5
41E
100
AcDbEntity
  8
03___PRT_ALL_CURVES
100
AcDbSpline
 62
40
  6
CONTINUOUS
 70
0
 71
3
 72
10
 73
6
 74
0
 42
0.0000001
 43
0.0000001
 44
0.0000000001
 40
0.0
 40
0.0
 40
0.0
 40
0.0
 40
0.3333333333
 40
0.6666666667
 40
1.0
 40
1.0
 40
1.0
 40
1.0
 10
249.3698159593
 20
224.2285854121
 30
0.0
 10
249.3520872512
 20
224.273753485
 30
0.0
 10
249.3123890244
 20
224.3500168249
 30
0.0
 10
249.2372226473
 20
224.4224881557
 30
0.0
 10
249.1782470986
 20
224.438747019
 30
0.0
 10
249.1464522649
 20
224.438747019
 30
0.0
  0
SPLINE
  5
41F
100
AcDbEntity
  8
03___PRT_ALL_CURVES
100
AcDbSpline
 62
40
  6
CONTINUOUS
 70
0
 71
3
 72
27
 73
23
 74
0
 42
0.0000001
 43
0.0000001
 44
0.0000000001
 40
0.0
 40
0.0
 40
0.0
 40
0.0
 40
0.0208333333
 40
0.0416666667
 40
0.0625
 40
0.0833333333
 40
0.125
 40
0.1458333333
 40
0.1666666667
 40
0.2083333333
 40
0.25
 40
0.3333333333
 40
0.4166666667
 40
0.5
 40
0.5833333333
 40
0.6666666667
 40
0.75
 40
0.8333333333
 40
0.875
 40
0.9166666667
 40
0.9583333333
 40
1.0
 40
1.0
 40
1.0
 40
1.0
 10
249.0398405565
 20
221.7805613939
 30
0.0
 10
249.0398405565
 20
221.7841956256
 30
0.0
 10
249.0400119333
 20
221.7909158962
 30
0.0
 10
249.0407614407
 20
221.8012111503
 30
0.0
 10
249.0419816357
 20
221.8111782461
 30
0.0
 10
249.0442094228
 20
221.8241761403
 30
0.0
 10
249.0472982815
 20
221.836621182
 30
0.0
 10
249.051195045
 20
221.8484766176
 30
0.0
 10
249.0556001068
 20
221.8598775073
 30
0.0
 10
249.0621698909
 20
221.8735537213
 30
0.0
 10
249.0749952162
 20
221.8937334976
 30
0.0
 10
249.0939507189
 20
221.9134824824
 30
0.0
 10
249.1200320252
 20
221.9279012664
 30
0.0
 10
249.1477500077
 20
221.9322123315
 30
0.0
 10
249.1749152991
 20
221.9264536456
 30
0.0
 10
249.2001718011
 20
221.9111818759
 30
0.0
 10
249.2219085625
 20
221.8874056394
 30
0.0
 10
249.2360122577
 20
221.8613154039
 30
0.0
 10
249.243987594
 20
221.838567391
 30
0.0
 10
249.2484855698
 20
221.8202872353
 30
0.0
 10
249.2513058176
 20
221.8007760379
 30
0.0
 10
249.2519725908
 20
221.7876680207
 30
0.0
 10
249.2519725908
 20
221.7805613939
 30
0.0
  0
SPLINE
  5
420
100
AcDbEntity
  8
03___PRT_ALL_CURVES
100
AcDbSpline
 62
40
  6
CONTINUOUS
 70
0
 71
3
 72
27
 73
23
 74
0
 42
0.0000001
 43
0.0000001
 44
0.0000000001
 40
0.0
 40
0.0
 40
0.0
 40
0.0
 40
0.0208333333
 40
0.0416666667
 40
0.0625
 40
0.0833333333
 40
0.125
 40
0.1458333333
 40
0.1666666667
 40
0.2083333333
 40
0.25
 40
0.3333333333
 40
0.4166666667
 40
0.5
 40
0.5833333333
 40
0.6666666667
 40
0.75
 40
0.8333333333
 40
0.875
 40
0.9166666667
 40
0.9583333333
 40
1.0
 40
1.0
 40
1.0
 40
1.0
 10
249.2519725908
 20
219.5805613939
 30
0.0
 10
249.2519725908
 20
219.5769271622
 30
0.0
 10
249.2517994298
 20
219.5702068916
 30
0.0
 10
249.2510421571
 20
219.5599116375
 30
0.0
 10
249.2498094396
 20
219.5499445417
 30
0.0
 10
249.2475591129
 20
219.5369466476
 30
0.0
 10
249.2444397734
 20
219.5245016058
 30
0.0
 10
249.2405062519
 20
219.5126461702
 30
0.0
 10
249.2360610009
 20
219.5012452805
 30
0.0
 10
249.2294344604
 20
219.4875690665
 30
0.0
 10
249.2165095551
 20
219.4673892903
 30
0.0
 10
249.1974344742
 20
219.4476403054
 30
0.0
 10
249.1712523871
 20
219.4332215215
 30
0.0
 10
249.1435022346
 20
219.4289104564
 30
0.0
 10
249.1163796779
 20
219.4346691423
 30
0.0
 10
249.0912283384
 20
219.449940912
 30
0.0
 10
249.0696325506
 20
219.4737171485
 30
0.0
 10
249.0556472589
 20
219.499807384
 30
0.0
 10
249.0477460069
 20
219.5225553968
 30
0.0
 10
249.0432920609
 20
219.5408355526
 30
0.0
 10
249.0405004389
 20
219.56034675
 30
0.0
 10
249.0398405565
 20
219.5734547671
 30
0.0
 10
249.0398405565
 20
219.5805613939
 30
0.0
  0
SPLINE
  5
421
100
AcDbEntity
  8
03___PRT_ALL_CURVES
100
AcDbSpline
 62
40
  6
CONTINUOUS
 70
0
 71
3
 72
27
 73
23
 74
0
 42
0.0000001
 43
0.0000001
 44
0.0000000001
 40
0.0
 40
0.0
 40
0.0
 40
0.0
 40
0.0416666667
 40
0.0833333333
 40
0.125
 40
0.1666666667
 40
0.25
 40
0.3333333333
 40
0.4166666667
 40
0.5
 40
0.5833333333
 40
0.6666666667
 40
0.75
 40
0.7916666667
 40
0.8333333333
 40
0.8541666667
 40
0.875
 40
0.9166666667
 40
0.9375
 40
0.9583333333
 40
0.9791666667
 40
1.0
 40
1.0
 40
1.0
 40
1.0
 10
247.7041112613
 20
221.6517086676
 30
0.0
 10
247.7035041471
 20
221.658745065
 30
0.0
 10
247.7017765574
 20
221.6716013188
 30
0.0
 10
247.6975379395
 20
221.6904088528
 30
0.0
 10
247.6918732489
 20
221.7076951724
 30
0.0
 10
247.6826530875
 20
221.7287775883
 30
0.0
 10
247.66754504
 20
221.7520671442
 30
0.0
 10
247.6456611525
 20
221.7716636581
 30
0.0
 10
247.6212618782
 20
221.7821794827
 30
0.0
 10
247.5959305226
 20
221.7828743863
 30
0.0
 10
247.5709752667
 20
221.7734604854
 30
0.0
 10
247.5483802054
 20
221.75431436
 30
0.0
 10
247.5327476117
 20
221.73119553
 30
0.0
 10
247.5227516858
 20
221.7087872417
 30
0.0
 10
247.5179187511
 20
221.6940050819
 30
0.0
 10
247.5148691585
 20
221.6818896979
 30
0.0
 10
247.5123218007
 20
221.6694211627
 30
0.0
 10
247.5105611551
 20
221.6565238479
 30
0.0
 10
247.5096314579
 20
221.6432436141
 30
0.0
 10
247.5093628661
 20
221.6331528522
 30
0.0
 10
247.5095502567
 20
221.6228263513
 30
0.0
 10
247.5099616076
 20
221.6161464905
 30
0.0
 10
247.5102683852
 20
221.6125508099
 30
0.0
  0
SPLINE
  5
422
100
AcDbEntity
  8
03___PRT_ALL_CURVES
100
AcDbSpline
 62
40
  6
CONTINUOUS
 70
0
 71
3
 72
27
 73
23
 74
0
 42
0.0000001
 43
0.0000001
 44
0.0000000001
 40
0.0
 40
0.0
 40
0.0
 40
0.0
 40
0.0416666667
 40
0.0833333333
 40
0.125
 40
0.1666666667
 40
0.25
 40
0.3333333333
 40
0.4166666667
 40
0.5
 40
0.5833333333
 40
0.6666666667
 40
0.75
 40
0.7916666667
 40
0.8333333333
 40
0.8541666667
 40
0.875
 40
0.9166666667
 40
0.9375
 40
0.9583333333
 40
0.9791666667
 40
1.0
 40
1.0
 40
1.0
 40
1.0
 10
247.6973780167
 20
219.4313721149
 30
0.0
 10
247.697984847
 20
219.424336296
 30
0.0
 10
247.6997116524
 20
219.4114812066
 30
0.0
 10
247.7039500759
 20
219.3926746671
 30
0.0
 10
247.709617956
 20
219.3753888261
 30
0.0
 10
247.7188498057
 20
219.3543068896
 30
0.0
 10
247.7339984871
 20
219.3310132494
 30
0.0
 10
247.7559946325
 20
219.3114152048
 30
0.0
 10
247.7805745591
 20
219.3009030118
 30
0.0
 10
247.8061694248
 20
219.3002056533
 30
0.0
 10
247.8314587208
 20
219.3096124385
 30
0.0
 10
247.8544240802
 20
219.3287488322
 30
0.0
 10
247.8703517133
 20
219.3518552815
 30
0.0
 10
247.8805520858
 20
219.3742518542
 30
0.0
 10
247.8854903588
 20
219.3890314599
 30
0.0
 10
247.8886089028
 20
219.4011487777
 30
0.0
 10
247.8912149966
 20
219.4136206028
 30
0.0
 10
247.8930176351
 20
219.4265237621
 30
0.0
 10
247.8939702708
 20
219.4398121864
 30
0.0
 10
247.8942460136
 20
219.4499102343
 30
0.0
 10
247.8940549288
 20
219.4602450197
 30
0.0
 10
247.8936341842
 20
219.466931141
 30
0.0
 10
247.8933203293
 20
219.4705299726
 30
0.0
  0
SPLINE
  5
423
100
AcDbEntity
  8
03___PRT_ALL_CURVES
100
AcDbSpline
 62
40
  6
CONTINUOUS
 70
0
 71
3
 72
31
 73
27
 74
0
 42
0.0000001
 43
0.0000001
 44
0.0000000001
 40
0.0
 40
0.0
 40
0.0
 40
0.0
 40
0.0208333333
 40
0.0416666667
 40
0.0625
 40
0.0833333333
 40
0.125
 40
0.1458333333
 40
0.1666666667
 40
0.2083333333
 40
0.25
 40
0.3333333333
 40
0.4166666667
 40
0.5
 40
0.5833333333
 40
0.6666666667
 40
0.7083333333
 40
0.75
 40
0.7916666667
 40
0.8333333333
 40
0.875
 40
0.9166666667
 40
0.9375
 40
0.9583333333
 40
0.9791666667
 40
1.0
 40
1.0
 40
1.0
 40
1.0
 10
246.3043503601
 20
221.2281973368
 30
0.0
 10
246.3038002762
 20
221.231619262
 30
0.0
 10
246.3026476285
 20
221.2378947788
 30
0.0
 10
246.3004981421
 20
221.2473457185
 30
0.0
 10
246.2980250217
 20
221.2563373217
 30
0.0
 10
246.2942931014
 20
221.2678602105
 30
0.0
 10
246.2899555047
 20
221.2785913676
 30
0.0
 10
246.2850543206
 20
221.2885138418
 30
0.0
 10
246.2798095513
 20
221.2978479332
 30
0.0
 10
246.2724757491
 20
221.3086372737
 30
0.0
 10
246.2591179806
 20
221.3235381229
 30
0.0
 10
246.2408391914
 20
221.3360386299
 30
0.0
 10
246.2174591473
 20
221.3410861637
 30
0.0
 10
246.1941715628
 20
221.3358609579
 30
0.0
 10
246.172379795
 20
221.3206705758
 30
0.0
 10
246.1567376868
 20
221.3002809685
 30
0.0
 10
246.146654383
 20
221.2808241705
 30
0.0
 10
246.1400766558
 20
221.264192104
 30
0.0
 10
246.1349010123
 20
221.2462712223
 30
0.0
 10
246.1312498142
 20
221.2278035149
 30
0.0
 10
246.1290607404
 20
221.2090682836
 30
0.0
 10
246.1284141567
 20
221.1929973429
 30
0.0
 10
246.1286455007
 20
221.1799900801
 30
0.0
 10
246.1291964211
 20
221.170205302
 30
0.0
 10
246.1301551356
 20
221.1602985366
 30
0.0
 10
246.1310234298
 20
221.1539477293
 30
0.0
 10
246.1315626952
 20
221.1505516233
 30
0.0
  0
SPLINE
  5
424
100
AcDbEntity
  8
03___PRT_ALL_CURVES
100
AcDbSpline
 62
40
  6
CONTINUOUS
 70
0
 71
3
 72
29
 73
25
 74
0
 42
0.0000001
 43
0.0000001
 44
0.0000000001
 40
0.0
 40
0.0
 40
0.0
 40
0.0
 40
0.0208333333
 40
0.0416666667
 40
0.0625
 40
0.0833333333
 40
0.125
 40
0.1666666667
 40
0.25
 40
0.3333333333
 40
0.4166666667
 40
0.5
 40
0.5833333333
 40
0.6666666667
 40
0.7083333333
 40
0.75
 40
0.7916666667
 40
0.8333333333
 40
0.875
 40
0.9166666667
 40
0.9375
 40
0.9583333333
 40
0.9791666667
 40
1.0
 40
1.0
 40
1.0
 40
1.0
 10
246.4730922142
 20
219.0255148054
 30
0.0
 10
246.473648791
 20
219.0220926424
 30
0.0
 10
246.4748153595
 20
219.015815815
 30
0.0
 10
246.4769909926
 20
219.0063644051
 30
0.0
 10
246.4794954654
 20
218.9973720855
 30
0.0
 10
246.4832729437
 20
218.9858525423
 30
0.0
 10
246.4887831093
 20
218.9724211957
 30
0.0
 10
246.4990127999
 20
218.9532330096
 30
0.0
 10
246.5151843588
 20
218.9327407891
 30
0.0
 10
246.537588094
 20
218.9176860588
 30
0.0
 10
246.5614665261
 20
218.9126282051
 30
0.0
 10
246.5853647122
 20
218.9178286438
 30
0.0
 10
246.6077970895
 20
218.9330027619
 30
0.0
 10
246.6239503109
 20
218.9533829257
 30
0.0
 10
246.6343778241
 20
218.9728275371
 30
0.0
 10
246.6411854582
 20
218.9894419983
 30
0.0
 10
246.646549886
 20
219.0073461525
 30
0.0
 10
246.6503419711
 20
219.0258097652
 30
0.0
 10
246.6526207755
 20
219.0445565595
 30
0.0
 10
246.6532972332
 20
219.0606441658
 30
0.0
 10
246.6530602112
 20
219.0736695878
 30
0.0
 10
246.6524898837
 20
219.0834700431
 30
0.0
 10
246.651495351
 20
219.093394329
 30
0.0
 10
246.6505937321
 20
219.0997578892
 30
0.0
 10
246.6500337094
 20
219.103160519
 30
0.0
  0
SPLINE
  5
425
100
AcDbEntity
  8
03___PRT_ALL_CURVES
100
AcDbSpline
 62
40
  6
CONTINUOUS
 70
0
 71
3
 72
27
 73
23
 74
0
 42
0.0000001
 43
0.0000001
 44
0.0000000001
 40
0.0
 40
0.0
 40
0.0
 40
0.0
 40
0.0208333333
 40
0.0416666667
 40
0.0625
 40
0.0833333333
 40
0.125
 40
0.1458333333
 40
0.1666666667
 40
0.2083333333
 40
0.25
 40
0.3333333333
 40
0.4166666667
 40
0.5
 40
0.5833333333
 40
0.6666666667
 40
0.75
 40
0.8333333333
 40
0.875
 40
0.9166666667
 40
0.9583333333
 40
1.0
 40
1.0
 40
1.0
 40
1.0
 10
246.9407177798
 20
220.2893386009
 30
0.0
 10
246.9402637688
 20
220.2928988888
 30
0.0
 10
246.9395739752
 20
220.2995273493
 30
0.0
 10
246.9389408173
 20
220.3098263129
 30
0.0
 10
246.9387588721
 20
220.3199390011
 30
0.0
 10
246.939076504
 20
220.3333114153
 30
0.0
 10
246.9402144319
 20
220.3463919327
 30
0.0
 10
246.9421323096
 20
220.3591300204
 30
0.0
 10
246.944551626
 20
220.3715693833
 30
0.0
 10
246.9485809331
 20
220.3868715768
 30
0.0
 10
246.9572784118
 20
220.4103593236
 30
0.0
 10
246.9714016459
 20
220.4351370363
 30
0.0
 10
246.9924323225
 20
220.4566362554
 30
0.0
 10
247.0161614407
 20
220.4686062165
 30
0.0
 10
247.0407040363
 20
220.470456408
 30
0.0
 10
247.0647460017
 20
220.4623214566
 30
0.0
 10
247.0866984968
 20
220.4448144218
 30
0.0
 10
247.1022329106
 20
220.4229291506
 30
0.0
 10
247.1119671101
 20
220.4027090978
 30
0.0
 10
247.118114097
 20
220.3859513974
 30
0.0
 10
247.122938786
 20
220.3675383309
 30
0.0
 10
247.1251042573
 20
220.3548463219
 30
0.0
 10
247.1259623478
 20
220.3478650702
 30
0.0
  0
SPLINE
  5
426
100
AcDbEntity
  8
03___PRT_ALL_CURVES
100
AcDbSpline
 62
40
  6
CONTINUOUS
 70
0
 71
3
 72
27
 73
23
 74
0
 42
0.0000001
 43
0.0000001
 44
0.0000000001
 40
0.0
 40
0.0
 40
0.0
 40
0.0
 40
0.0208333333
 40
0.0416666667
 40
0.0625
 40
0.0833333333
 40
0.125
 40
0.1666666667
 40
0.25
 40
0.3333333333
 40
0.4166666667
 40
0.5
 40
0.5833333333
 40
0.6666666667
 40
0.75
 40
0.8333333333
 40
0.875
 40
0.9166666667
 40
0.9375
 40
0.9583333333
 40
0.9791666667
 40
1.0
 40
1.0
 40
1.0
 40
1.0
 10
247.2562028791
 20
219.3179932758
 30
0.0
 10
247.256630512
 20
219.3145358523
 30
0.0
 10
247.2572793958
 20
219.3080848655
 30
0.0
 10
247.2578645818
 20
219.2980742029
 30
0.0
 10
247.258015708
 20
219.288236033
 30
0.0
 10
247.2576777377
 20
219.2752231396
 30
0.0
 10
247.2562518927
 20
219.2592557481
 30
0.0
 10
247.2520128057
 20
219.2347370464
 30
0.0
 10
247.2426220206
 20
219.2048537007
 30
0.0
 10
247.2259762116
 20
219.1752655303
 30
0.0
 10
247.2050369636
 20
219.1533270347
 30
0.0
 10
247.1812468303
 20
219.1406577648
 30
0.0
 10
247.1562309069
 20
219.1380591457
 30
0.0
 10
247.1316660553
 20
219.1457473435
 30
0.0
 10
247.1092610107
 20
219.1630650411
 30
0.0
 10
247.0934480147
 20
219.1850019292
 30
0.0
 10
247.0836355683
 20
219.2051080402
 30
0.0
 10
247.0784663382
 20
219.2190111213
 30
0.0
 10
247.0750071094
 20
219.230842433
 30
0.0
 10
247.0727639463
 20
219.2400343381
 30
0.0
 10
247.0708765343
 20
219.2496487363
 30
0.0
 10
247.0699091413
 20
219.2560102305
 30
0.0
 10
247.0694640323
 20
219.2594668964
 30
0.0
  0
SPLINE
  5
427
100
AcDbEntity
  8
03___PRT_ALL_CURVES
100
AcDbSpline
 62
40
  6
CONTINUOUS
 70
0
 71
3
 72
27
 73
23
 74
0
 42
0.0000001
 43
0.0000001
 44
0.0000000001
 40
0.0
 40
0.0
 40
0.0
 40
0.0
 40
0.0208333333
 40
0.0416666667
 40
0.0625
 40
0.0833333333
 40
0.125
 40
0.1666666667
 40
0.25
 40
0.3333333333
 40
0.4166666667
 40
0.5
 40
0.5833333333
 40
0.6666666667
 40
0.75
 40
0.8333333333
 40
0.875
 40
0.9166666667
 40
0.9375
 40
0.9583333333
 40
0.9791666667
 40
1.0
 40
1.0
 40
1.0
 40
1.0
 10
248.3084578766
 20
220.5853726285
 30
0.0
 10
248.3082863578
 20
220.5889787201
 30
0.0
 10
248.308131796
 20
220.595683814
 30
0.0
 10
248.3083598754
 20
220.6059792125
 30
0.0
 10
248.3090511443
 20
220.6159934266
 30
0.0
 10
248.3105544086
 20
220.6290992271
 30
0.0
 10
248.3134955972
 20
220.6449082249
 30
0.0
 10
248.3202133744
 20
220.6686421525
 30
0.0
 10
248.3327908387
 20
220.6963164654
 30
0.0
 10
248.3529335716
 20
220.7221494288
 30
0.0
 10
248.3770225016
 20
220.7395915907
 30
0.0
 10
248.4033526546
 20
220.7472558248
 30
0.0
 10
248.4301751369
 20
220.7447110889
 30
0.0
 10
248.4557127906
 20
220.73204924
 30
0.0
 10
248.4781230846
 20
220.7103138896
 30
0.0
 10
248.4931756036
 20
220.6852986493
 30
0.0
 10
248.5020235049
 20
220.6630595069
 30
0.0
 10
248.5063835717
 20
220.6479503618
 30
0.0
 10
248.5090619464
 20
220.6352441932
 30
0.0
 10
248.5106503135
 20
220.6254470099
 30
0.0
 10
248.5117996293
 20
220.6152815397
 30
0.0
 10
248.5122443027
 20
220.6086024808
 30
0.0
 10
248.5123948318
 20
220.604993357
 30
0.0
  0
SPLINE
  5
428
100
AcDbEntity
  8
03___PRT_ALL_CURVES
100
AcDbSpline
 62
40
  6
CONTINUOUS
 70
0
 71
3
 72
27
 73
23
 74
0
 42
0.0000001
 43
0.0000001
 44
0.0000000001
 40
0.0
 40
0.0
 40
0.0
 40
0.0
 40
0.0208333333
 40
0.0416666667
 40
0.0625
 40
0.0833333333
 40
0.125
 40
0.1666666667
 40
0.25
 40
0.3333333333
 40
0.4166666667
 40
0.5
 40
0.5833333333
 40
0.6666666667
 40
0.75
 40
0.8333333333
 40
0.875
 40
0.9166666667
 40
0.9375
 40
0.9583333333
 40
0.9791666667
 40
1.0
 40
1.0
 40
1.0
 40
1.0
 10
248.5594895696
 20
219.5571934458
 30
0.0
 10
248.5596361817
 20
219.5536681778
 30
0.0
 10
248.5597499014
 20
219.5471193179
 30
0.0
 10
248.5594739899
 20
219.5370484749
 30
0.0
 10
248.5587486708
 20
219.5272409646
 30
0.0
 10
248.5572137292
 20
219.5143839339
 30
0.0
 10
248.5542501705
 20
219.4988258512
 30
0.0
 10
248.5475128608
 20
219.4753736706
 30
0.0
 10
248.5348264978
 20
219.447728474
 30
0.0
 10
248.5144663415
 20
219.4218580165
 30
0.0
 10
248.4902012864
 20
219.4044130416
 30
0.0
 10
248.4637268425
 20
219.396738798
 30
0.0
 10
248.4368315911
 20
219.399298783
 30
0.0
 10
248.4113244266
 20
219.4119743302
 30
0.0
 10
248.3889817454
 20
219.4337442747
 30
0.0
 10
248.3740634022
 20
219.4587330095
 30
0.0
 10
248.3653680139
 20
219.4807010142
 30
0.0
 10
248.3610797871
 20
219.4955616358
 30
0.0
 10
248.3584335432
 20
219.5080166512
 30
0.0
 10
248.3568522599
 20
219.5176024434
 30
0.0
 10
248.3556885906
 20
219.5275348785
 30
0.0
 10
248.3552194556
 20
219.5340497091
 30
0.0
 10
248.3550507003
 20
219.5375727475
 30
0.0
  0
SPLINE
  5
429
100
AcDbEntity
  8
03___PRT_ALL_CURVES
100
AcDbSpline
 62
40
  6
CONTINUOUS
 70
0
 71
3
 72
27
 73
23
 74
0
 42
0.0000001
 43
0.0000001
 44
0.0000000001
 40
0.0
 40
0.0
 40
0.0
 40
0.0
 40
0.0208333333
 40
0.0416666667
 40
0.0625
 40
0.0833333333
 40
0.125
 40
0.1666666667
 40
0.25
 40
0.3333333333
 40
0.4166666667
 40
0.5
 40
0.5833333333
 40
0.6666666667
 40
0.75
 40
0.8333333333
 40
0.875
 40
0.9166666667
 40
0.9375
 40
0.9583333333
 40
0.9791666667
 40
1.0
 40
1.0
 40
1.0
 40
1.0
 10
250.6964637067
 20
221.6517086676
 30
0.0
 10
250.6968145674
 20
221.6552206894
 30
0.0
 10
250.697639115
 20
221.6616974642
 30
0.0
 10
250.6993992676
 20
221.6715345818
 30
0.0
 10
250.7016116749
 20
221.6809862299
 30
0.0
 10
250.7051496758
 20
221.6932136285
 30
0.0
 10
250.7106394991
 20
221.7077004984
 30
0.0
 10
250.7213961254
 20
221.7288994782
 30
0.0
 10
250.7392878509
 20
221.7525706349
 30
0.0
 10
250.7653548095
 20
221.7722919815
 30
0.0
 10
250.794504882
 20
221.7825636396
 30
0.0
 10
250.8247035848
 20
221.7825492577
 30
0.0
 10
250.8539145033
 20
221.7722994357
 30
0.0
 10
250.8801412645
 20
221.7524574706
 30
0.0
 10
250.9015581554
 20
221.7245282241
 30
0.0
 10
250.914275183
 20
221.6955659199
 30
0.0
 10
250.9205448216
 20
221.6714304309
 30
0.0
 10
250.9230195127
 20
221.6555729073
 30
0.0
 10
250.9240419987
 20
221.642563547
 30
0.0
 10
250.9243238723
 20
221.6326862295
 30
0.0
 10
250.9240891688
 20
221.622591649
 30
0.0
 10
250.923609209
 20
221.6160598848
 30
0.0
 10
250.9232552613
 20
221.6125508099
 30
0.0
  0
SPLINE
  5
42A
100
AcDbEntity
  8
03___PRT_ALL_CURVES
100
AcDbSpline
 62
40
  6
CONTINUOUS
 70
0
 71
3
 72
27
 73
23
 74
0
 42
0.0000001
 43
0.0000001
 44
0.0000000001
 40
0.0
 40
0.0
 40
0.0
 40
0.0
 40
0.0208333333
 40
0.0416666667
 40
0.0625
 40
0.0833333333
 40
0.125
 40
0.1666666667
 40
0.25
 40
0.3333333333
 40
0.4166666667
 40
0.5
 40
0.5833333333
 40
0.6666666667
 40
0.75
 40
0.8333333333
 40
0.875
 40
0.9166666667
 40
0.9375
 40
0.9583333333
 40
0.9791666667
 40
1.0
 40
1.0
 40
1.0
 40
1.0
 10
250.704262688
 20
219.4313721149
 30
0.0
 10
250.7039116718
 20
219.4278597063
 30
0.0
 10
250.7030867064
 20
219.4213817713
 30
0.0
 10
250.7013259395
 20
219.4115435942
 30
0.0
 10
250.6991131882
 20
219.4020911898
 30
0.0
 10
250.6955755232
 20
219.3898634045
 30
0.0
 10
250.6900886683
 20
219.3753773313
 30
0.0
 10
250.6793455927
 20
219.3541814301
 30
0.0
 10
250.6615025658
 20
219.3305208589
 30
0.0
 10
250.6355621261
 20
219.3108020864
 30
0.0
 10
250.6066129776
 20
219.300522236
 30
0.0
 10
250.5766943384
 20
219.3005263163
 30
0.0
 10
250.5478213291
 20
219.3107685219
 30
0.0
 10
250.521957553
 20
219.330610182
 30
0.0
 10
250.5008865219
 20
219.3585344146
 30
0.0
 10
250.488392397
 20
219.3874919552
 30
0.0
 10
250.4822339345
 20
219.4116315994
 30
0.0
 10
250.4798035679
 20
219.4274927079
 30
0.0
 10
250.4787991517
 20
219.4405059109
 30
0.0
 10
250.4785220129
 20
219.4503865346
 30
0.0
 10
250.4787520604
 20
219.4604848704
 30
0.0
 10
250.4792231149
 20
219.4670194235
 30
0.0
 10
250.4795705699
 20
219.4705299726
 30
0.0
  0
SPLINE
  5
42B
100
AcDbEntity
  8
03___PRT_ALL_CURVES
100
AcDbSpline
 62
40
  6
CONTINUOUS
 70
0
 71
3
 72
31
 73
27
 74
0
 42
0.0000001
 43
0.0000001
 44
0.0000000001
 40
0.0
 40
0.0
 40
0.0
 40
0.0
 40
0.0208333333
 40
0.0416666667
 40
0.0625
 40
0.0833333333
 40
0.125
 40
0.1458333333
 40
0.1666666667
 40
0.2083333333
 40
0.25
 40
0.3333333333
 40
0.4166666667
 40
0.5
 40
0.5833333333
 40
0.6666666667
 40
0.7083333333
 40
0.75
 40
0.7916666667
 40
0.8333333333
 40
0.875
 40
0.9166666667
 40
0.9375
 40
0.9583333333
 40
0.9791666667
 40
1.0
 40
1.0
 40
1.0
 40
1.0
 10
252.4499873052
 20
221.2281973368
 30
0.0
 10
252.4507339117
 20
221.2316192391
 30
0.0
 10
252.4522984947
 20
221.2378947357
 30
0.0
 10
252.4552168445
 20
221.24734562
 30
0.0
 10
252.4585755419
 20
221.2563371696
 30
0.0
 10
252.4636454111
 20
221.2678599796
 30
0.0
 10
252.4695411152
 20
221.278591052
 30
0.0
 10
252.476207326
 20
221.2885134359
 30
0.0
 10
252.4833441623
 20
221.2978474454
 30
0.0
 10
252.4933307158
 20
221.3086366337
 30
0.0
 10
252.5115412531
 20
221.3235372642
 30
0.0
 10
252.5365072577
 20
221.3360379451
 30
0.0
 10
252.5685327478
 20
221.3410862615
 30
0.0
 10
252.6005254568
 20
221.3358612801
 30
0.0
 10
252.6305467003
 20
221.3206718485
 30
0.0
 10
252.652152057
 20
221.3002836646
 30
0.0
 10
252.6661004249
 20
221.2808268474
 30
0.0
 10
252.675207607
 20
221.264194295
 30
0.0
 10
252.6823789197
 20
221.2462726878
 30
0.0
 10
252.6874406396
 20
221.2278044186
 30
0.0
 10
252.6904764448
 20
221.2090688794
 30
0.0
 10
252.6913733012
 20
221.1929977055
 30
0.0
 10
252.6910524502
 20
221.1799903016
 30
0.0
 10
252.6902883841
 20
221.170205436
 30
0.0
 10
252.6889588704
 20
221.1602985897
 30
0.0
 10
252.6877549144
 20
221.1539477601
 30
0.0
 10
252.6870072614
 20
221.1505516233
 30
0.0
  0
SPLINE
  5
42C
100
AcDbEntity
  8
03___PRT_ALL_CURVES
100
AcDbSpline
 62
40
  6
CONTINUOUS
 70
0
 71
3
 72
29
 73
25
 74
0
 42
0.0000001
 43
0.0000001
 44
0.0000000001
 40
0.0
 40
0.0
 40
0.0
 40
0.0
 40
0.0208333333
 40
0.0416666667
 40
0.0625
 40
0.0833333333
 40
0.125
 40
0.1666666667
 40
0.25
 40
0.3333333333
 40
0.4166666667
 40
0.5
 40
0.5833333333
 40
0.6666666667
 40
0.7083333333
 40
0.75
 40
0.7916666667
 40
0.8333333333
 40
0.875
 40
0.9166666667
 40
0.9375
 40
0.9583333333
 40
0.9791666667
 40
1.0
 40
1.0
 40
1.0
 40
1.0
 10
252.2232808921
 20
219.0255148054
 30
0.0
 10
252.2225406771
 20
219.0220926134
 30
0.0
 10
252.2209893507
 20
219.015815769
 30
0.0
 10
252.2180968087
 20
219.0063642894
 30
0.0
 10
252.2147680039
 20
218.9973718991
 30
0.0
 10
252.2097487677
 20
218.9858522461
 30
0.0
 10
252.2024310175
 20
218.9724207289
 30
0.0
 10
252.188856861
 20
218.9532322967
 30
0.0
 10
252.16742805
 20
218.9327393663
 30
0.0
 10
252.1378170845
 20
218.9176849525
 30
0.0
 10
252.1063478262
 20
218.9126283829
 30
0.0
 10
252.0749435414
 20
218.9178290719
 30
0.0
 10
252.0455457523
 20
218.9330040974
 30
0.0
 10
252.0244308358
 20
218.9533855894
 30
0.0
 10
252.0108204369
 20
218.9728301589
 30
0.0
 10
252.0019425938
 20
218.989444153
 30
0.0
 10
251.9949519765
 20
219.0073476151
 30
0.0
 10
251.9900128971
 20
219.0258106857
 30
0.0
 10
251.9870458354
 20
219.0445571726
 30
0.0
 10
251.98616524
 20
219.060644545
 30
0.0
 10
251.9864738282
 20
219.0736698223
 30
0.0
 10
251.9872163619
 20
219.0834701865
 30
0.0
 10
251.9885112976
 20
219.0933943872
 30
0.0
 10
251.9896854122
 20
219.0997579214
 30
0.0
 10
251.9904147662
 20
219.103160519
 30
0.0
  0
SPLINE
  5
42D
100
AcDbEntity
  8
03___PRT_ALL_CURVES
100
AcDbSpline
 62
40
  6
CONTINUOUS
 70
0
 71
3
 72
27
 73
23
 74
0
 42
0.0000001
 43
0.0000001
 44
0.0000000001
 40
0.0
 40
0.0
 40
0.0
 40
0.0
 40
0.0208333333
 40
0.0416666667
 40
0.0625
 40
0.0833333333
 40
0.125
 40
0.1458333333
 40
0.1666666667
 40
0.2083333333
 40
0.25
 40
0.3333333333
 40
0.4166666667
 40
0.5
 40
0.5833333333
 40
0.6666666667
 40
0.75
 40
0.8333333333
 40
0.875
 40
0.9166666667
 40
0.9583333333
 40
1.0
 40
1.0
 40
1.0
 40
1.0
 10
251.3872869483
 20
220.3478650703
 30
0.0
 10
251.3878281657
 20
220.3514353214
 30
0.0
 10
251.3890145732
 20
220.3579829918
 30
0.0
 10
251.3913651462
 20
220.367892553
 30
0.0
 10
251.3941814568
 20
220.377353843
 30
0.0
 10
251.3985517063
 20
220.3895252976
 30
0.0
 10
251.4037849525
 20
220.4009274835
 30
0.0
 10
251.4098219578
 20
220.4115388833
 30
0.0
 10
251.4163517936
 20
220.4215674551
 30
0.0
 10
251.4256167913
 20
220.4332708113
 30
0.0
 10
251.4427783664
 20
220.4497013291
 30
0.0
 10
251.4666284317
 20
220.4639540578
 30
0.0
 10
251.4973841275
 20
220.4708780051
 30
0.0
 10
251.5283589495
 20
220.4673742061
 30
0.0
 10
251.557197093
 20
220.4540570154
 30
0.0
 10
251.5824066724
 20
220.4318628403
 30
0.0
 10
251.6023039521
 20
220.4024210012
 30
0.0
 10
251.6135252731
 20
220.3728902687
 30
0.0
 10
251.6186071435
 20
220.3483644616
 30
0.0
 10
251.6206134713
 20
220.3292005529
 30
0.0
 10
251.6206043846
 20
220.3093079166
 30
0.0
 10
251.619266749
 20
220.296293144
 30
0.0
 10
251.6181498745
 20
220.2893386009
 30
0.0
  0
SPLINE
  5
42E
100
AcDbEntity
  8
03___PRT_ALL_CURVES
100
AcDbSpline
 62
40
  6
CONTINUOUS
 70
0
 71
3
 72
27
 73
23
 74
0
 42
0.0000001
 43
0.0000001
 44
0.0000000001
 40
0.0
 40
0.0
 40
0.0
 40
0.0
 40
0.0208333333
 40
0.0416666667
 40
0.0625
 40
0.0833333333
 40
0.125
 40
0.1666666667
 40
0.25
 40
0.3333333333
 40
0.4166666667
 40
0.5
 40
0.5833333333
 40
0.6666666667
 40
0.75
 40
0.8333333333
 40
0.875
 40
0.9166666667
 40
0.9375
 40
0.9583333333
 40
0.9791666667
 40
1.0
 40
1.0
 40
1.0
 40
1.0
 10
251.45718818
 20
219.2594668964
 30
0.0
 10
251.4566357193
 20
219.2560101626
 30
0.0
 10
251.455435097
 20
219.2496486217
 30
0.0
 10
251.4530930589
 20
219.2400340572
 30
0.0
 10
251.4503102198
 20
219.2308419833
 30
0.0
 10
251.4460198816
 20
219.2190104123
 30
0.0
 10
251.43961149
 20
219.205106931
 30
0.0
 10
251.4274558684
 20
219.1850002333
 30
0.0
 10
251.4078906957
 20
219.1630616505
 30
0.0
 10
251.3802350316
 20
219.1457443406
 30
0.0
 10
251.3499999593
 20
219.1380591044
 30
0.0
 10
251.3192974477
 20
219.1406584368
 30
0.0
 10
251.2901756254
 20
219.1533298599
 30
0.0
 10
251.2646099364
 20
219.1752726964
 30
0.0
 10
251.244334239
 20
219.2048593208
 30
0.0
 10
251.232913333
 20
219.2347394685
 30
0.0
 10
251.2277602561
 20
219.2592572076
 30
0.0
 10
251.2260274685
 20
219.2752240139
 30
0.0
 10
251.2256167756
 20
219.2882365625
 30
0.0
 10
251.2258004593
 20
219.2980745203
 30
0.0
 10
251.2265116715
 20
219.3080849876
 30
0.0
 10
251.2273003662
 20
219.3145359273
 30
0.0
 10
251.2278201721
 20
219.3179932758
 30
0.0
  0
SPLINE
  5
42F
100
AcDbEntity
  8
03___PRT_ALL_CURVES
100
AcDbSpline
 62
40
  6
CONTINUOUS
 70
0
 71
3
 72
27
 73
23
 74
0
 42
0.0000001
 43
0.0000001
 44
0.0000000001
 40
0.0
 40
0.0
 40
0.0
 40
0.0
 40
0.0208333333
 40
0.0416666667
 40
0.0625
 40
0.0833333333
 40
0.125
 40
0.1666666667
 40
0.25
 40
0.3333333333
 40
0.4166666667
 40
0.5
 40
0.5833333333
 40
0.6666666667
 40
0.75
 40
0.8333333333
 40
0.875
 40
0.9166666667
 40
0.9375
 40
0.9583333333
 40
0.9791666667
 40
1.0
 40
1.0
 40
1.0
 40
1.0
 10
249.7990577015
 20
220.604993357
 30
0.0
 10
249.799217988
 20
220.6086025154
 30
0.0
 10
249.7996914916
 20
220.6152816315
 30
0.0
 10
249.8009154382
 20
220.6254471906
 30
0.0
 10
249.8026071832
 20
220.6352444542
 30
0.0
 10
249.8054603957
 20
220.647950721
 30
0.0
 10
249.8101065309
 20
220.6630599711
 30
0.0
 10
249.8195405212
 20
220.6852992286
 30
0.0
 10
249.8356069134
 20
220.7103145968
 30
0.0
 10
249.8595768488
 20
220.7320498505
 30
0.0
 10
249.8869591468
 20
220.7447113008
 30
0.0
 10
249.9157973195
 20
220.747255758
 30
0.0
 10
249.9441846134
 20
220.7395912239
 30
0.0
 10
249.9702238024
 20
220.7221486624
 30
0.0
 10
249.9920471503
 20
220.6963156647
 30
0.0
 10
250.0056990751
 20
220.6686415247
 30
0.0
 10
250.0129966017
 20
220.6449077352
 30
0.0
 10
250.0161929941
 20
220.6290988541
 30
0.0
 10
250.017826986
 20
220.6159931587
 30
0.0
 10
250.0185784377
 20
220.6059790288
 30
0.0
 10
250.0188263827
 20
220.5956837216
 30
0.0
 10
250.018658352
 20
220.5889786855
 30
0.0
 10
250.0184718961
 20
220.5853726285
 30
0.0
  0
SPLINE
  5
430
100
AcDbEntity
  8
03___PRT_ALL_CURVES
100
AcDbSpline
 62
40
  6
CONTINUOUS
 70
0
 71
3
 72
27
 73
23
 74
0
 42
0.0000001
 43
0.0000001
 44
0.0000000001
 40
0.0
 40
0.0
 40
0.0
 40
0.0
 40
0.0208333333
 40
0.0416666667
 40
0.0625
 40
0.0833333333
 40
0.125
 40
0.1666666667
 40
0.25
 40
0.3333333333
 40
0.4166666667
 40
0.5
 40
0.5833333333
 40
0.6666666667
 40
0.75
 40
0.8333333333
 40
0.875
 40
0.9166666667
 40
0.9375
 40
0.9583333333
 40
0.9791666667
 40
1.0
 40
1.0
 40
1.0
 40
1.0
 10
249.9679412507
 20
219.5375727475
 30
0.0
 10
249.967758663
 20
219.5340496185
 30
0.0
 10
249.9672510857
 20
219.5275347299
 30
0.0
 10
249.9659921629
 20
219.5176020681
 30
0.0
 10
249.9642816702
 20
219.5080160392
 30
0.0
 10
249.9614196936
 20
219.4955606509
 30
0.0
 10
249.9567832355
 20
219.480699429
 30
0.0
 10
249.9473871652
 20
219.4587305017
 30
0.0
 10
249.9312818737
 20
219.4337389086
 30
0.0
 10
249.9072116277
 20
219.411968707
 30
0.0
 10
249.8798072892
 20
219.3992976312
 30
0.0
 10
249.8509911615
 20
219.3967390858
 30
0.0
 10
249.8226981648
 20
219.4044153068
 30
0.0
 10
249.7968354786
 20
219.4218650596
 30
0.0
 10
249.7751902541
 20
219.4477344739
 30
0.0
 10
249.761727518
 20
219.4753763737
 30
0.0
 10
249.7545829164
 20
219.4988275208
 30
0.0
 10
249.7514415328
 20
219.5143849552
 30
0.0
 10
249.7498147556
 20
219.5272415924
 30
0.0
 10
249.7490461117
 20
219.5370488562
 30
0.0
 10
249.7487537355
 20
219.5471194676
 30
0.0
 10
249.7488742502
 20
219.5536682684
 30
0.0
 10
249.749029621
 20
219.5571934458
 30
0.0
  0
SPLINE
  5
431
100
AcDbEntity
  8
03___PRT_ALL_CURVES
100
AcDbSpline
 62
40
  6
CONTINUOUS
 70
0
 71
3
 72
10
 73
6
 74
0
 42
0.0000001
 43
0.0000001
 44
0.0000000001
 40
0.0
 40
0.0
 40
0.0
 40
0.0
 40
0.3333333333
 40
0.6666666667
 40
1.0
 40
1.0
 40
1.0
 40
1.0
 10
248.906953658
 20
224.1793924962
 30
0.0
 10
248.885417243
 20
224.1099010906
 30
0.0
 10
248.8546339775
 20
223.9584526294
 30
0.0
 10
248.8311283714
 20
223.7011306191
 30
0.0
 10
248.8267218879
 20
223.5144564579
 30
0.0
 10
248.8267218879
 20
223.4169188444
 30
0.0
  0
SPLINE
  5
432
100
AcDbEntity
  8
03___PRT_ALL_CURVES
100
AcDbSpline
 62
40
  6
CONTINUOUS
 70
0
 71
3
 72
11
 73
7
 74
0
 42
0.0000001
 43
0.0000001
 44
0.0000000001
 40
0.0
 40
0.0
 40
0.0
 40
0.0
 40
0.25
 40
0.5
 40
0.75
 40
1.0
 40
1.0
 40
1.0
 40
1.0
 10
248.8267218879
 20
223.4169188444
 30
0.0
 10
248.8267218879
 20
223.3381838794
 30
0.0
 10
248.829264487
 20
223.1867622856
 30
0.0
 10
248.8422089688
 20
222.9775087556
 30
0.0
 10
248.8672879014
 20
222.7869121763
 30
0.0
 10
248.8955324782
 20
222.6756356709
 30
0.0
 10
248.9148927227
 20
222.6256500618
 30
0.0
  0
SPLINE
  5
433
100
AcDbEntity
  8
03___PRT_ALL_CURVES
100
AcDbSpline
 62
40
  6
CONTINUOUS
 70
0
 71
3
 72
12
 73
8
 74
0
 42
0.0000001
 43
0.0000001
 44
0.0000000001
 40
0.0
 40
0.0
 40
0.0
 40
0.0
 40
0.1666666667
 40
0.3333333333
 40
0.5
 40
0.6666666667
 40
1.0
 40
1.0
 40
1.0
 40
1.0
 10
248.9148927227
 20
222.6256500618
 30
0.0
 10
248.9241141414
 20
222.6018415697
 30
0.0
 10
248.9433936508
 20
222.5578826695
 30
0.0
 10
248.9757411206
 20
222.501621482
 30
0.0
 10
249.0121293796
 20
222.4557329373
 30
0.0
 10
249.0657180244
 20
222.4107077826
 30
0.0
 10
249.1116158114
 20
222.3964549829
 30
0.0
 10
249.1448123121
 20
222.3964549829
 30
0.0
  0
SPLINE
  5
434
100
AcDbEntity
  8
03___PRT_ALL_CURVES
100
AcDbSpline
 62
40
  6
CONTINUOUS
 70
0
 71
3
 72
13
 73
9
 74
0
 42
0.0000001
 43
0.0000001
 44
0.0000000001
 40
0.0
 40
0.0
 40
0.0
 40
0.0
 40
0.1666666667
 40
0.3333333333
 40
0.5
 40
0.6666666667
 40
0.8333333333
 40
1.0
 40
1.0
 40
1.0
 40
1.0
 10
249.1448123121
 20
222.3964549829
 30
0.0
 10
249.1631747466
 20
222.3964549829
 30
0.0
 10
249.1983987313
 20
222.401593332
 30
0.0
 10
249.2461323183
 20
222.4242725127
 30
0.0
 10
249.2894253657
 20
222.4620339395
 30
0.0
 10
249.3275258181
 20
222.5140124351
 30
0.0
 10
249.3600859145
 20
222.5779919121
 30
0.0
 10
249.3786554503
 20
222.6283337541
 30
0.0
 10
249.3872920371
 20
222.6556637154
 30
0.0
  0
SPLINE
  5
435
100
AcDbEntity
  8
03___PRT_ALL_CURVES
100
AcDbSpline
 62
40
  6
CONTINUOUS
 70
0
 71
3
 72
10
 73
6
 74
0
 42
0.0000001
 43
0.0000001
 44
0.0000000001
 40
0.0
 40
0.0
 40
0.0
 40
0.0
 40
0.3333333333
 40
0.6666666667
 40
1.0
 40
1.0
 40
1.0
 40
1.0
 10
249.3872920371
 20
222.6556637154
 30
0.0
 10
249.4092409979
 20
222.7251198865
 30
0.0
 10
249.4407803093
 20
222.8763954187
 30
0.0
 10
249.4650140805
 20
223.1332912159
 30
0.0
 10
249.469581306
 20
223.3195921425
 30
0.0
 10
249.469581306
 20
223.4169188444
 30
0.0
  0
SPLINE
  5
436
100
AcDbEntity
  8
03___PRT_ALL_CURVES
100
AcDbSpline
 62
40
  6
CONTINUOUS
 70
0
 71
3
 72
10
 73
6
 74
0
 42
0.0000001
 43
0.0000001
 44
0.0000000001
 40
0.0
 40
0.0
 40
0.0
 40
0.0
 40
0.3333333333
 40
0.6666666667
 40
1.0
 40
1.0
 40
1.0
 40
1.0
 10
249.469581306
 20
223.4169188444
 30
0.0
 10
249.469581306
 20
223.5238776659
 30
0.0
 10
249.4641766135
 20
223.7268611048
 30
0.0
 10
249.4352973462
 20
224.0017473497
 30
0.0
 10
249.3971567024
 20
224.1589284085
 30
0.0
 10
249.3698159593
 20
224.2285854121
 30
0.0
  0
ELLIPSE
  5
437
100
AcDbEntity
  8
7_ALL_FEATURES
100
AcDbEllipse
 62
3
  6
CONTINUOUS
 10
109.6259743086
 20
192.2498571863
 30
0.0
 11
4.1574578963
 21
4.1574578963
 31
0.0
 40
0.4142135624
 41
1.1780972451
 42
1.3117249102
  0
ELLIPSE
  5
438
100
AcDbEntity
  8
7_ALL_FEATURES
100
AcDbEllipse
 62
3
  6
CONTINUOUS
 10
119.4269012823
 20
192.2498571863
 30
0.0
 11
4.1574578963
 21
-4.1574578963
 31
0.0
 40
0.4142135624
 41
1.8298677433
 42
1.9634954085
  0
ELLIPSE
  5
439
100
AcDbEntity
  8
03___PRT_ALL_CURVES
100
AcDbEllipse
 62
40
  6
CONTINUOUS
 10
269.6517289175
 20
225.5250953181
 30
0.0
 11
28.8172793762
 21
-10.8387968565
 31
0.0
 40
0.2998758789
 41
-1.9983310722
 42
-1.9930689326
  0
ELLIPSE
  5
43A
100
AcDbEntity
  8
03___PRT_ALL_CURVES
100
AcDbEllipse
 62
40
  6
CONTINUOUS
 10
269.6517289175
 20
205.1477850153
 30
0.0
 11
22.174334667
 21
69.7117091573
 31
0.0
 40
0.2680975635
 41
1.3961715893
 42
1.4103203064
  0
ELLIPSE
  5
43B
100
AcDbEntity
  8
03___PRT_ALL_CURVES
100
AcDbEllipse
 62
40
  6
CONTINUOUS
 10
269.6517289175
 20
225.109249745
 30
0.0
 11
28.9813798917
 21
-5.6879310685
 31
0.0
 40
0.1826758137
 41
-2.0606605446
 42
-2.0367233896
  0
ELLIPSE
  5
43C
100
AcDbEntity
  8
03___PRT_ALL_CURVES
100
AcDbEllipse
 62
40
  6
CONTINUOUS
 10
269.6517289175
 20
192.6470567219
 30
0.0
 11
21.2276477376
 21
108.1599822292
 31
0.0
 40
0.1826758137
 41
1.3229990107
 42
1.3251796993
  0
ELLIPSE
  5
43D
100
AcDbEntity
  8
03___PRT_ALL_CURVES
100
AcDbEllipse
 62
40
  6
CONTINUOUS
 10
269.6517289175
 20
224.8663199514
 30
0.0
 11
28.9813798917
 21
-5.6879310685
 31
0.0
 40
0.1826758137
 41
-2.0581507488
 42
-2.0389040782
  0
ELLIPSE
  5
43E
100
AcDbEntity
  8
03___PRT_ALL_CURVES
100
AcDbEllipse
 62
40
  6
CONTINUOUS
 10
269.6517289175
 20
205.1104928653
 30
0.0
 11
22.244144256
 21
68.1744614576
 31
0.0
 40
0.2729232853
 41
1.3974053383
 42
1.4049767528
  0
ELLIPSE
  5
43F
100
AcDbEntity
  8
03___PRT_ALL_CURVES
100
AcDbEllipse
 62
40
  6
CONTINUOUS
 10
269.6517289175
 20
222.7366492896
 30
0.0
 11
28.998531102
 21
-2.938743103
 31
0.0
 40
0.0993213668
 41
-2.1054920801
 42
-2.0991220836
  0
ELLIPSE
  5
440
100
AcDbEntity
  8
03___PRT_ALL_CURVES
100
AcDbEllipse
 62
40
  6
CONTINUOUS
 10
269.6517289175
 20
198.3192685756
 30
0.0
 11
21.2276477376
 21
108.1599822292
 31
0.0
 40
0.1826758137
 41
1.3773337331
 42
1.3916511986
  0
ELLIPSE
  5
441
100
AcDbEntity
  8
03___PRT_ALL_CURVES
100
AcDbEllipse
 62
40
  6
CONTINUOUS
 10
269.6517289175
 20
199.6409925401
 30
0.0
 11
21.2276477376
 21
108.1599822292
 31
0.0
 40
0.1826758137
 41
1.3895546557
 42
1.3917236281
  0
ELLIPSE
  5
442
100
AcDbEntity
  8
03___PRT_ALL_CURVES
100
AcDbEllipse
 62
40
  6
CONTINUOUS
 10
269.6517289175
 20
225.1445593848
 30
0.0
 11
28.9813798917
 21
-5.6879310685
 31
0.0
 40
0.1826758137
 41
-2.0849277807
 42
-2.0811128986
  0
ELLIPSE
  5
443
100
AcDbEntity
  8
03___PRT_ALL_CURVES
100
AcDbEllipse
 62
40
  6
CONTINUOUS
 10
269.6517289175
 20
197.6561662293
 30
0.0
 11
21.2276477376
 21
108.1599822292
 31
0.0
 40
0.1826758137
 41
1.3673885196
 42
1.3857963323
  0
ELLIPSE
  5
444
100
AcDbEntity
  8
03___PRT_ALL_CURVES
100
AcDbEllipse
 62
40
  6
CONTINUOUS
 10
269.6517289175
 20
223.0655326413
 30
0.0
 11
28.9813798917
 21
-5.6879310685
 31
0.0
 40
0.1826758137
 41
-2.1053755776
 42
-2.0995207113
  0
ELLIPSE
  5
445
100
AcDbEntity
  8
03___PRT_ALL_CURVES
100
AcDbEllipse
 62
40
  6
CONTINUOUS
 10
269.6517289175
 20
223.968044892
 30
0.0
 11
28.9813798917
 21
-5.6879310685
 31
0.0
 40
0.1826758137
 41
-2.1511243687
 42
-2.1382967639
  0
ELLIPSE
  5
446
100
AcDbEntity
  8
03___PRT_ALL_CURVES
100
AcDbEllipse
 62
40
  6
CONTINUOUS
 10
269.6517289175
 20
204.4305613939
 30
0.0
 11
21.2276477376
 21
108.1599822292
 31
0.0
 40
0.1826758137
 41
1.4353244555
 42
1.4373999897
  0
ELLIPSE
  5
447
100
AcDbEntity
  8
03___PRT_ALL_CURVES
100
AcDbEllipse
 62
40
  6
CONTINUOUS
 10
269.6517289175
 20
224.2053251383
 30
0.0
 11
28.9813798917
 21
-5.6879310685
 31
0.0
 40
0.1826758137
 41
-2.1490488344
 42
-2.1362164695
  0
ELLIPSE
  5
448
100
AcDbEntity
  8
03___PRT_ALL_CURVES
100
AcDbEllipse
 62
40
  6
CONTINUOUS
 10
269.6517289175
 20
202.965464162
 30
0.0
 11
21.2276477376
 21
108.1599822292
 31
0.0
 40
0.1826758137
 41
1.4175481421
 42
1.4224920906
  0
ELLIPSE
  5
449
100
AcDbEntity
  8
03___PRT_ALL_CURVES
100
AcDbEllipse
 62
40
  6
CONTINUOUS
 10
269.6517289175
 20
224.7688656615
 30
0.0
 11
28.9813798917
 21
-5.6879310685
 31
0.0
 40
0.1826758137
 41
-2.131272521
 42
-2.1257640585
  0
ELLIPSE
  5
44A
100
AcDbEntity
  8
03___PRT_ALL_CURVES
100
AcDbEllipse
 62
40
  6
CONTINUOUS
 10
269.6517289175
 20
202.3382052916
 30
0.0
 11
21.2276477376
 21
108.1599822292
 31
0.0
 40
0.1826758137
 41
1.4120396796
 42
1.416988848
  0
ELLIPSE
  5
44B
100
AcDbEntity
  8
03___PRT_ALL_CURVES
100
AcDbEllipse
 62
40
  6
CONTINUOUS
 10
269.6517289175
 20
224.2053251383
 30
0.0
 11
28.9813798917
 21
-5.6879310685
 31
0.0
 40
0.1826758137
 41
-2.130713227
 42
-2.1178362307
  0
ELLIPSE
  5
44C
100
AcDbEntity
  8
03___PRT_ALL_CURVES
100
AcDbEllipse
 62
40
  6
CONTINUOUS
 10
269.6517289175
 20
200.873107815
 30
0.0
 11
21.2276477376
 21
108.1599822292
 31
0.0
 40
0.1826758137
 41
1.4041118517
 42
1.4061996025
  0
ELLIPSE
  5
44D
100
AcDbEntity
  8
03___PRT_ALL_CURVES
100
AcDbEllipse
 62
40
  6
CONTINUOUS
 10
269.6517289175
 20
223.968044892
 30
0.0
 11
28.9813798917
 21
-5.6879310685
 31
0.0
 40
0.1826758137
 41
-2.1327956746
 42
-2.1199239815
  0
ELLIPSE
  5
44E
100
AcDbEntity
  8
03___PRT_ALL_CURVES
100
AcDbEllipse
 62
40
  6
CONTINUOUS
 10
269.6517289175
 20
202.3382052916
 30
0.0
 11
21.2276477376
 21
108.1599822292
 31
0.0
 40
0.1826758137
 41
1.4190712956
 42
1.4240509736
  0
ELLIPSE
  5
44F
100
AcDbEntity
  8
03___PRT_ALL_CURVES
100
AcDbEllipse
 62
40
  6
CONTINUOUS
 10
269.6517289175
 20
223.4002672392
 30
0.0
 11
28.9813798917
 21
-5.6879310685
 31
0.0
 40
0.1826758137
 41
-2.1432713962
 42
-2.1377753526
  0
ELLIPSE
  5
450
100
AcDbEntity
  8
03___PRT_ALL_CURVES
100
AcDbEllipse
 62
40
  6
CONTINUOUS
 10
269.6517289175
 20
202.965464162
 30
0.0
 11
21.2276477376
 21
108.1599822292
 31
0.0
 40
0.1826758137
 41
1.4245723849
 42
1.4295470172
  0
ELLIPSE
  5
451
100
AcDbEntity
  8
03___PRT_ALL_CURVES
100
AcDbEllipse
 62
40
  6
CONTINUOUS
 10
269.6517289175
 20
222.9480656912
 30
0.0
 11
28.9998667799
 21
1.6014508649
 31
0.0
 40
0.0548889363
 41
2.5476132186
 42
2.5533614176
  0
ELLIPSE
  5
452
100
AcDbEntity
  8
03___PRT_ALL_CURVES
100
AcDbEllipse
 62
40
  6
CONTINUOUS
 10
269.6517289175
 20
178.6127096055
 30
0.0
 11
-20.6823644308
 21
220.6775717143
 31
0.0
 40
0.0921176554
 41
1.35720629
 42
1.3619650483
  0
ELLIPSE
  5
453
100
AcDbEntity
  8
03___PRT_ALL_CURVES
100
AcDbEllipse
 62
40
  6
CONTINUOUS
 10
269.6517289175
 20
225.109249745
 30
0.0
 11
28.9813798917
 21
5.6879310685
 31
0.0
 40
0.1826758137
 41
2.5018179498
 42
2.5253143896
  0
ELLIPSE
  5
454
100
AcDbEntity
  8
03___PRT_ALL_CURVES
100
AcDbEllipse
 62
40
  6
CONTINUOUS
 10
269.6517289175
 20
204.1751775091
 30
0.0
 11
-21.2276477376
 21
108.1599822292
 31
0.0
 40
0.1826758137
 41
1.3534990827
 42
1.3556278496
  0
ELLIPSE
  5
455
100
AcDbEntity
  8
03___PRT_ALL_CURVES
100
AcDbEllipse
 62
40
  6
CONTINUOUS
 10
269.6517289175
 20
224.8663199514
 30
0.0
 11
28.9813798917
 21
5.6879310685
 31
0.0
 40
0.1826758137
 41
2.499689183
 42
2.5185644274
  0
ELLIPSE
  5
456
100
AcDbEntity
  8
03___PRT_ALL_CURVES
100
AcDbEllipse
 62
40
  6
CONTINUOUS
 10
269.6517289175
 20
177.0787625392
 30
0.0
 11
-20.6617407558
 21
234.9080062603
 31
0.0
 40
0.0866265158
 41
1.3649702595
 42
1.367314441
  0
ELLIPSE
  5
457
100
AcDbEntity
  8
03___PRT_ALL_CURVES
100
AcDbEllipse
 62
40
  6
CONTINUOUS
 10
269.6517289175
 20
224.3730202542
 30
0.0
 11
28.9065507689
 21
8.8889228226
 31
0.0
 40
0.2616993109
 41
2.4673749336
 42
2.4732781269
  0
ELLIPSE
  5
458
100
AcDbEntity
  8
03___PRT_ALL_CURVES
100
AcDbEllipse
 62
40
  6
CONTINUOUS
 10
269.6517289175
 20
198.5029656554
 30
0.0
 11
-21.2276477376
 21
108.1599822292
 31
0.0
 40
0.1826758137
 41
1.3072857997
 42
1.3215980366
  0
ELLIPSE
  5
459
100
AcDbEntity
  8
03___PRT_ALL_CURVES
100
AcDbEllipse
 62
40
  6
CONTINUOUS
 10
269.6517289175
 20
197.1812416909
 30
0.0
 11
-21.2276477376
 21
108.1599822292
 31
0.0
 40
0.1826758137
 41
1.2961125314
 42
1.2982924284
  0
ELLIPSE
  5
45A
100
AcDbEntity
  8
03___PRT_ALL_CURVES
100
AcDbEllipse
 62
40
  6
CONTINUOUS
 10
269.6517289175
 20
225.1445593848
 30
0.0
 11
28.9813798917
 21
5.6879310685
 31
0.0
 40
0.1826758137
 41
2.5462257136
 42
2.5500319588
  0
ELLIPSE
  5
45B
100
AcDbEntity
  8
03___PRT_ALL_CURVES
100
AcDbEllipse
 62
40
  6
CONTINUOUS
 10
269.6517289175
 20
199.1660680018
 30
0.0
 11
-21.2276477376
 21
108.1599822292
 31
0.0
 40
0.1826758137
 41
1.309091319
 42
1.3274433966
  0
ELLIPSE
  5
45C
100
AcDbEntity
  8
03___PRT_ALL_CURVES
100
AcDbEllipse
 62
40
  6
CONTINUOUS
 10
269.6517289175
 20
223.0655326413
 30
0.0
 11
28.9813798917
 21
5.6879310685
 31
0.0
 40
0.1826758137
 41
2.5278736359
 42
2.533718996
  0
ELLIPSE
  5
45D
100
AcDbEntity
  8
03___PRT_ALL_CURVES
100
AcDbEllipse
 62
40
  6
CONTINUOUS
 10
269.6517289175
 20
223.9426219909
 30
0.0
 11
28.9813798917
 21
5.6879310685
 31
0.0
 40
0.1826758137
 41
2.5624154774
 42
2.5804789568
  0
ELLIPSE
  5
45E
100
AcDbEntity
  8
03___PRT_ALL_CURVES
100
AcDbEllipse
 62
40
  6
CONTINUOUS
 10
269.6517289175
 20
196.1373038814
 30
0.0
 11
-21.2276477376
 21
108.1599822292
 31
0.0
 40
0.1826758137
 41
1.2929015551
 42
1.2951709019
  0
ELLIPSE
  5
45F
100
AcDbEntity
  8
03___PRT_ALL_CURVES
100
AcDbEllipse
 62
40
  6
CONTINUOUS
 10
269.6517289175
 20
223.6869808084
 30
0.0
 11
28.9813798917
 21
5.6879310685
 31
0.0
 40
0.1826758137
 41
2.5601461307
 42
2.5781991236
  0
ELLIPSE
  5
460
100
AcDbEntity
  8
03___PRT_ALL_CURVES
100
AcDbEllipse
 62
40
  6
CONTINUOUS
 10
269.6517289175
 20
194.1076737151
 30
0.0
 11
-21.2276477376
 21
108.1599822292
 31
0.0
 40
0.1826758137
 41
1.2748380757
 42
1.2771179089
  0
ELLIPSE
  5
461
100
AcDbEntity
  8
03___PRT_ALL_CURVES
100
AcDbEllipse
 62
40
  6
CONTINUOUS
 10
269.6517289175
 20
203.2813667576
 30
0.0
 11
-20.6830164954
 21
220.2685992667
 31
0.0
 40
0.0922856782
 41
1.478815817
 42
1.4887483147
  0
ELLIPSE
  5
462
100
AcDbEntity
  8
03___PRT_ALL_CURVES
100
AcDbEllipse
 62
40
  6
CONTINUOUS
 10
269.6517289175
 20
205.5797560302
 30
0.0
 11
-20.6830164954
 21
220.2685992667
 31
0.0
 40
0.0922856782
 41
1.4891036054
 42
1.4990286146
  0
ELLIPSE
  5
463
100
AcDbEntity
  8
03___PRT_ALL_CURVES
100
AcDbEllipse
 62
40
  6
CONTINUOUS
 10
269.6517289175
 20
203.8510058981
 30
0.0
 11
-21.2276477376
 21
108.1599822292
 31
0.0
 40
0.1826758137
 41
1.3744294946
 42
1.3942891526
  0
ELLIPSE
  5
464
100
AcDbEntity
  8
03___PRT_ALL_CURVES
100
AcDbEllipse
 62
40
  6
CONTINUOUS
 10
269.6517289175
 20
205.0101168897
 30
0.0
 11
-21.2276477376
 21
108.1599822292
 31
0.0
 40
0.1826758137
 41
1.3845438685
 42
1.4043741452
  0
ELLIPSE
  5
465
100
AcDbEntity
  8
03___PRT_ALL_CURVES
100
AcDbEllipse
 62
40
  6
CONTINUOUS
 10
269.6517289175
 20
203.6617140792
 30
0.0
 11
-20.9075246769
 21
145.7641791005
 31
0.0
 40
0.1378709905
 41
1.4367250325
 42
1.4438325341
  0
ELLIPSE
  5
466
100
AcDbEntity
  8
03___PRT_ALL_CURVES
100
AcDbEllipse
 62
40
  6
CONTINUOUS
 10
269.6517289175
 20
205.199410406
 30
0.0
 11
-20.9075228549
 21
145.7645138824
 31
0.0
 40
0.1378706869
 41
1.4469319033
 42
1.4540317037
  0
ELLIPSE
  5
467
100
AcDbEntity
  8
03___PRT_ALL_CURVES
100
AcDbEllipse
 62
40
  6
CONTINUOUS
 10
269.6517289175
 20
202.1371797914
 30
0.0
 11
-20.5500958775
 21
442.4519897609
 31
0.0
 40
0.046246832
 41
1.5269410032
 42
1.5293111103
  0
ELLIPSE
  5
468
100
AcDbEntity
  8
03___PRT_ALL_CURVES
100
AcDbEllipse
 62
40
  6
CONTINUOUS
 10
269.6517289175
 20
206.7239583613
 30
0.0
 11
-20.5500952861
 21
442.4549668036
 31
0.0
 40
0.0462465221
 41
1.537270542
 42
1.5396397673
  0
ELLIPSE
  5
469
100
AcDbEntity
  8
03___PRT_ALL_CURVES
100
AcDbEllipse
 62
40
  6
CONTINUOUS
 10
269.6517289175
 20
203.2813667576
 30
0.0
 11
20.6830164954
 21
220.2685992667
 31
0.0
 40
0.0922856782
 41
1.4961464618
 42
1.5060789595
  0
ELLIPSE
  5
46A
100
AcDbEntity
  8
03___PRT_ALL_CURVES
100
AcDbEllipse
 62
40
  6
CONTINUOUS
 10
269.6517289175
 20
205.5797560302
 30
0.0
 11
20.6830164954
 21
220.2685992667
 31
0.0
 40
0.0922856782
 41
1.5064342502
 42
1.5163592594
  0
ELLIPSE
  5
46B
100
AcDbEntity
  8
03___PRT_ALL_CURVES
100
AcDbEllipse
 62
40
  6
CONTINUOUS
 10
269.6517289175
 20
203.8510058981
 30
0.0
 11
21.2276477376
 21
108.1599822292
 31
0.0
 40
0.1826758137
 41
1.4461032791
 42
1.4659629371
  0
ELLIPSE
  5
46C
100
AcDbEntity
  8
03___PRT_ALL_CURVES
100
AcDbEllipse
 62
40
  6
CONTINUOUS
 10
269.6517289175
 20
205.0101168897
 30
0.0
 11
21.2276477376
 21
108.1599822292
 31
0.0
 40
0.1826758137
 41
1.456217653
 42
1.4760479297
  0
ELLIPSE
  5
46D
100
AcDbEntity
  8
03___PRT_ALL_CURVES
100
AcDbEllipse
 62
40
  6
CONTINUOUS
 10
269.6517289175
 20
205.199410406
 30
0.0
 11
20.9075228549
 21
145.7645138824
 31
0.0
 40
0.1378706869
 41
1.4864773152
 42
1.4935771157
  0
ELLIPSE
  5
46E
100
AcDbEntity
  8
03___PRT_ALL_CURVES
100
AcDbEllipse
 62
40
  6
CONTINUOUS
 10
269.6517289175
 20
203.6617140792
 30
0.0
 11
20.9075246769
 21
145.7641791005
 31
0.0
 40
0.1378709905
 41
1.4762706258
 42
1.4833781274
  0
ELLIPSE
  5
46F
100
AcDbEntity
  8
03___PRT_ALL_CURVES
100
AcDbEllipse
 62
40
  6
CONTINUOUS
 10
269.6517289175
 20
206.7239583613
 30
0.0
 11
20.5500952861
 21
442.4549668036
 31
0.0
 40
0.0462465221
 41
1.5415664322
 42
1.5439356575
  0
ELLIPSE
  5
470
100
AcDbEntity
  8
03___PRT_ALL_CURVES
100
AcDbEllipse
 62
40
  6
CONTINUOUS
 10
269.6517289175
 20
202.1371797914
 30
0.0
 11
20.5500958775
 21
442.4519897609
 31
0.0
 40
0.046246832
 41
1.5312369512
 42
1.5336070583
  0
ENDSEC
  0
SECTION
  2
OBJECTS
  0
DICTIONARY
  5
471
100
AcDbDictionary
  3
ACAD_GROUP
350
472
  3
ACAD_MLINESTYLE
350
473
  0
DICTIONARY
  5
472
102
{ACAD_REACTORS
330
471
102
}
100
AcDbDictionary
  0
DICTIONARY
  5
473
102
{ACAD_REACTORS
330
471
102
}
100
AcDbDictionary
  3
STANDARD
350
474
  0
MLINESTYLE
  5
474
102
{ACAD_REACTORS
330
473
102
}
100
AcDbMlineStyle
  2
STANDARD
 70
0
  3

 62
256
 51
90.0
 52
90.0
 71
2
 49
0.5
 62
256
  6
BYLAYER
 49
-0.5
 62
256
  6
BYLAYER
  0
ENDSEC
  0
EOF
