999
DXF file: 2j2_c_001.dxf
999
Pro/ENGINEER 2016360 by Parametric Technology Corporation
  0
SECTION
  2
HEADER
  9
$ACADVER
  1
AC1014
  9
$DWGCODEPAGE
  3
ANSI_1252
  9
$EXTMAX
 10
420.0
 20
297.0
 30
0.0
  9
$EXTMIN
 10
0.0
 20
0.0
 30
0.0
  9
$LIMMIN
 10
0.0
 20
0.0
  9
$LIMMAX
 10
420.0
 20
297.0
  9
$VIEWCTR
 10
210.0
 20
148.5
  9
$VIEWSIZE
 40
297.0
  9
$CLAYER
  8
0
  9
$LTSCALE
 40
23.1
  9
$CELTYPE
  6
BYLAYER
  9
$DIMSCALE
 40
1.0
  9
$DIMASZ
 40
2.5
  9
$DIMEXO
 40
0.75
  9
$DIMDLI
 40
15.96
  9
$DIMEXE
 40
0.75
  9
$DIMCEN
 40
3.78
  9
$DIMLFAC
 40
1.0
  9
$DIMBLK
  1
_CLOSED
  9
$DIMALT
 70
0
  9
$DIMALTF
 40
25.4
  9
$DIMTXT
 40
3.0
  9
$DIMTOL
 70
1
  9
$DIMLIM
 70
0
  9
$DIMTFAC
 40
1.0
  9
$DIMTP
 40
0.01
  9
$DIMTM
 40
0.01
  9
$DIMGAP
 40
0.625
  9
$AUNITS
 70
0
  9
$PDMODE
 70
3
  9
$PDSIZE
 40
0.3125
  9
$HANDSEED
  5
3FC
  9
$TILEMODE
 70
1
  9
$MEASUREMENT
 70
1
  0
ENDSEC
  0
SECTION
  2
CLASSES
  0
ENDSEC
  0
SECTION
  2
TABLES
  0
TABLE
  2
VPORT
  5
8
100
AcDbSymbolTable
 70
2
  0
VPORT
  5
1F4
100
AcDbSymbolTableRecord
100
AcDbViewportTableRecord
  2
*ACTIVE
 70
0
 10
0.0
 20
0.0
 11
1.0
 21
1.0
 12
210.0
 22
148.5
 13
0.0
 23
0.0
 14
1.0
 24
1.0
 15
0.0
 25
0.0
 16
0.0
 26
0.0
 36
1.0
 17
0.0
 27
0.0
 37
0.0
 40
297.0
 41
1.4141414141
 42
50.0
 43
0.0
 44
0.0
 50
0.0
 51
0.0
 71
0
 72
100
 73
1
 74
1
 75
0
 76
0
 77
0
 78
0
  0
ENDTAB
  0
TABLE
  2
LTYPE
  5
5
100
AcDbSymbolTable
 70
6
  0
LTYPE
  5
14
100
AcDbSymbolTableRecord
100
AcDbLinetypeTableRecord
  2
BYBLOCK
 70
0
  3

 72
65
 73
0
 40
0.0
  0
LTYPE
  5
15
100
AcDbSymbolTableRecord
100
AcDbLinetypeTableRecord
  2
BYLAYER
 70
0
  3

 72
65
 73
0
 40
0.0
  0
LTYPE
  5
16
100
AcDbSymbolTableRecord
100
AcDbLinetypeTableRecord
  2
CONTINUOUS
 70
64
  3
Solid line
 72
65
 73
0
 40
0.0
  0
LTYPE
  5
1F5
100
AcDbSymbolTableRecord
100
AcDbLinetypeTableRecord
  2
CENTER
 70
64
  3
____ _ ____ _ ____ _ ____ _ ____ _ ____ _ ____
 72
65
 73
4
 40
0.6
 49
0.375
 74
0
 49
-0.075
 74
0
 49
0.075
 74
0
 49
-0.075
 74
0
  0
LTYPE
  5
1F6
100
AcDbSymbolTableRecord
100
AcDbLinetypeTableRecord
  2
HIDDEN
 70
64
  3
- - - - - - - - - - - - - - - - - - - -
 72
65
 73
2
 40
0.2
 49
0.1
 74
0
 49
-0.1
 74
0
  0
LTYPE
  5
1F7
100
AcDbSymbolTableRecord
100
AcDbLinetypeTableRecord
  2
PHANTOM
 70
64
  3
_____ _ _ _____ _ _ _____ _ _ _____
 72
65
 73
6
 40
0.8
 49
0.45
 74
0
 49
-0.05
 74
0
 49
0.1
 74
0
 49
-0.05
 74
0
 49
0.1
 74
0
 49
-0.05
 74
0
  0
LTYPE
  5
1F8
100
AcDbSymbolTableRecord
100
AcDbLinetypeTableRecord
  2
DOT
 70
64
  3
. . . . . . . . . . . . . . . . . . . .
 72
65
 73
2
 40
0.2
 49
0.1
 74
0
 49
-0.1
 74
0
  0
LTYPE
  5
1F9
100
AcDbSymbolTableRecord
100
AcDbLinetypeTableRecord
  2
DASHED
 70
64
  3
- - - - - - - - - - - - - - - - - - - -
 72
65
 73
2
 40
0.2
 49
0.1
 74
0
 49
-0.1
 74
0
  0
ENDTAB
  0
TABLE
  2
LAYER
  5
2
100
AcDbSymbolTable
 70
36
  0
LAYER
  5
10
100
AcDbSymbolTableRecord
100
AcDbLayerTableRecord
  2
0
 70
0
 62
7
  6
CONTINUOUS
  0
LAYER
  5
1FA
100
AcDbSymbolTableRecord
100
AcDbLayerTableRecord
  2
DEFAULT_1
 70
0
 62
7
  6
CENTER
  0
LAYER
  5
1FB
100
AcDbSymbolTableRecord
100
AcDbLayerTableRecord
  2
DEFAULT_2
 70
0
 62
8
  6
HIDDEN
  0
LAYER
  5
1FC
100
AcDbSymbolTableRecord
100
AcDbLayerTableRecord
  2
DEFAULT_3
 70
0
 62
7
  6
PHANTOM
  0
LAYER
  5
1FD
100
AcDbSymbolTableRecord
100
AcDbLayerTableRecord
  2
01_ALL_DTM_PLN
 70
0
 62
7
  6
CONTINUOUS
  0
LAYER
  5
1FE
100
AcDbSymbolTableRecord
100
AcDbLayerTableRecord
  2
01__ASM_ALL_DTM_PLN
 70
0
 62
7
  6
CONTINUOUS
  0
LAYER
  5
1FF
100
AcDbSymbolTableRecord
100
AcDbLayerTableRecord
  2
01__ASM_DEF_DTM_PLN
 70
0
 62
7
  6
CONTINUOUS
  0
LAYER
  5
200
100
AcDbSymbolTableRecord
100
AcDbLayerTableRecord
  2
01___PRT_ALL_DTM_PLN
 70
0
 62
7
  6
CONTINUOUS
  0
LAYER
  5
201
100
AcDbSymbolTableRecord
100
AcDbLayerTableRecord
  2
01___PRT_DEF_DTM_PLN
 70
0
 62
7
  6
CONTINUOUS
  0
LAYER
  5
202
100
AcDbSymbolTableRecord
100
AcDbLayerTableRecord
  2
02_ALL_AXES
 70
0
 62
7
  6
CONTINUOUS
  0
LAYER
  5
203
100
AcDbSymbolTableRecord
100
AcDbLayerTableRecord
  2
02__ASM_ALL_AXES
 70
0
 62
7
  6
CONTINUOUS
  0
LAYER
  5
204
100
AcDbSymbolTableRecord
100
AcDbLayerTableRecord
  2
02___PRT_ALL_AXES
 70
0
 62
7
  6
CONTINUOUS
  0
LAYER
  5
205
100
AcDbSymbolTableRecord
100
AcDbLayerTableRecord
  2
03_ALL_CURVES
 70
0
 62
7
  6
CONTINUOUS
  0
LAYER
  5
206
100
AcDbSymbolTableRecord
100
AcDbLayerTableRecord
  2
03__ASM_ALL_CURVES
 70
0
 62
7
  6
CONTINUOUS
  0
LAYER
  5
207
100
AcDbSymbolTableRecord
100
AcDbLayerTableRecord
  2
03___PRT_ALL_CURVES
 70
0
 62
7
  6
CONTINUOUS
  0
LAYER
  5
208
100
AcDbSymbolTableRecord
100
AcDbLayerTableRecord
  2
04_ALL_DTM_PNT
 70
0
 62
7
  6
CONTINUOUS
  0
LAYER
  5
209
100
AcDbSymbolTableRecord
100
AcDbLayerTableRecord
  2
04__ASM_ALL_DTM_PNT
 70
0
 62
7
  6
CONTINUOUS
  0
LAYER
  5
20A
100
AcDbSymbolTableRecord
100
AcDbLayerTableRecord
  2
04___PRT_ALL_DTM_PNT
 70
0
 62
7
  6
CONTINUOUS
  0
LAYER
  5
20B
100
AcDbSymbolTableRecord
100
AcDbLayerTableRecord
  2
05_ALL_DTM_CSYS
 70
0
 62
7
  6
CONTINUOUS
  0
LAYER
  5
20C
100
AcDbSymbolTableRecord
100
AcDbLayerTableRecord
  2
05__ASM_ALL_DTM_CSYS
 70
0
 62
7
  6
CONTINUOUS
  0
LAYER
  5
20D
100
AcDbSymbolTableRecord
100
AcDbLayerTableRecord
  2
05__ASM_DEF_DTM_CSYS
 70
0
 62
7
  6
CONTINUOUS
  0
LAYER
  5
20E
100
AcDbSymbolTableRecord
100
AcDbLayerTableRecord
  2
05___PRT_ALL_DTM_CSYS
 70
0
 62
7
  6
CONTINUOUS
  0
LAYER
  5
20F
100
AcDbSymbolTableRecord
100
AcDbLayerTableRecord
  2
05___PRT_DEF_DTM_CSYS
 70
0
 62
7
  6
CONTINUOUS
  0
LAYER
  5
210
100
AcDbSymbolTableRecord
100
AcDbLayerTableRecord
  2
06_ALL_SURFS
 70
0
 62
7
  6
CONTINUOUS
  0
LAYER
  5
211
100
AcDbSymbolTableRecord
100
AcDbLayerTableRecord
  2
06__ASM_ALL_SURFS
 70
0
 62
7
  6
CONTINUOUS
  0
LAYER
  5
212
100
AcDbSymbolTableRecord
100
AcDbLayerTableRecord
  2
06___PRT_ALL_SURFS
 70
0
 62
7
  6
CONTINUOUS
  0
LAYER
  5
213
100
AcDbSymbolTableRecord
100
AcDbLayerTableRecord
  2
07__ASM_ALL_SKELETONS
 70
0
 62
7
  6
CONTINUOUS
  0
LAYER
  5
214
100
AcDbSymbolTableRecord
100
AcDbLayerTableRecord
  2
1_ALL_PLANES
 70
0
 62
7
  6
CONTINUOUS
  0
LAYER
  5
215
100
AcDbSymbolTableRecord
100
AcDbLayerTableRecord
  2
2_ALL_CSYS
 70
0
 62
7
  6
CONTINUOUS
  0
LAYER
  5
216
100
AcDbSymbolTableRecord
100
AcDbLayerTableRecord
  2
3_ALL_AXES
 70
0
 62
7
  6
CONTINUOUS
  0
LAYER
  5
217
100
AcDbSymbolTableRecord
100
AcDbLayerTableRecord
  2
4_ALL_POINTS
 70
0
 62
7
  6
CONTINUOUS
  0
LAYER
  5
218
100
AcDbSymbolTableRecord
100
AcDbLayerTableRecord
  2
5_ALL_CURVES
 70
0
 62
7
  6
CONTINUOUS
  0
LAYER
  5
219
100
AcDbSymbolTableRecord
100
AcDbLayerTableRecord
  2
5__COSTRUZIONE
 70
0
 62
7
  6
CONTINUOUS
  0
LAYER
  5
21A
100
AcDbSymbolTableRecord
100
AcDbLayerTableRecord
  2
6_ALL_SURFS
 70
0
 62
7
  6
CONTINUOUS
  0
LAYER
  5
21B
100
AcDbSymbolTableRecord
100
AcDbLayerTableRecord
  2
7_ALL_FEATURES
 70
0
 62
7
  6
CONTINUOUS
  0
LAYER
  5
21C
100
AcDbSymbolTableRecord
100
AcDbLayerTableRecord
  2
9_SOLID
 70
0
 62
7
  6
CONTINUOUS
  0
LAYER
  5
21D
100
AcDbSymbolTableRecord
100
AcDbLayerTableRecord
  2
INTFCLR_2
 70
0
 62
7
  6
CONTINUOUS
  0
LAYER
  5
21E
100
AcDbSymbolTableRecord
100
AcDbLayerTableRecord
  2
INTFCLR_3
 70
0
 62
7
  6
CONTINUOUS
  0
LAYER
  5
21F
100
AcDbSymbolTableRecord
100
AcDbLayerTableRecord
  2
INTF_CYAN
 70
0
 62
7
  6
CONTINUOUS
  0
LAYER
  5
220
100
AcDbSymbolTableRecord
100
AcDbLayerTableRecord
  2
XSEC_DATUMS
 70
0
 62
7
  6
CONTINUOUS
  0
LAYER
  5
221
100
AcDbSymbolTableRecord
100
AcDbLayerTableRecord
  2
XXX_SOLIDO
 70
0
 62
7
  6
CONTINUOUS
  0
ENDTAB
  0
TABLE
  2
STYLE
  5
3
100
AcDbSymbolTable
 70
1
  0
STYLE
  5
11
100
AcDbSymbolTableRecord
100
AcDbTextStyleTableRecord
  2
STANDARD
 70
0
 40
0.0
 41
1.0
 50
0.0
 71
0
 42
0.2
  3
arial.ttf
  4

  0
STYLE
  5
222
100
AcDbSymbolTableRecord
100
AcDbTextStyleTableRecord
  2
TEXTSTYLE_1
 70
0
 40
0.0
 41
0.8
 50
0.0
 71
0
 42
0.2
  3
gdt
  4

  0
STYLE
  5
223
100
AcDbSymbolTableRecord
100
AcDbTextStyleTableRecord
  2
TEXTSTYLE_2
 70
0
 40
0.0
 41
0.85
 50
0.0
 71
0
 42
0.2
  3
gdt
  4

  0
STYLE
  5
224
100
AcDbSymbolTableRecord
100
AcDbTextStyleTableRecord
  2
TEXTSTYLE_3
 70
0
 40
0.0
 41
0.85
 50
0.0
 71
0
 42
0.2
  3
txt
  4

  0
ENDTAB
  0
TABLE
  2
VIEW
  5
6
100
AcDbSymbolTable
 70
0
  0
ENDTAB
  0
TABLE
  2
UCS
  5
7
100
AcDbSymbolTable
 70
0
  0
ENDTAB
  0
TABLE
  2
APPID
  5
9
100
AcDbSymbolTable
 70
1
  0
APPID
  5
225
100
AcDbSymbolTableRecord
100
AcDbRegAppTableRecord
  2
ACAD
 70
0
  0
ENDTAB
  0
TABLE
  2
BLOCK_RECORD
  5
1
100
AcDbSymbolTable
 70
0
  0
BLOCK_RECORD
  5
1F
100
AcDbSymbolTableRecord
100
AcDbBlockTableRecord
  2
*MODEL_SPACE
  0
BLOCK_RECORD
  5
1B
100
AcDbSymbolTableRecord
100
AcDbBlockTableRecord
  2
*PAPER_SPACE
  0
BLOCK_RECORD
  5
226
100
AcDbSymbolTableRecord
100
AcDbBlockTableRecord
  2
_CLOSED
  0
BLOCK_RECORD
  5
227
100
AcDbSymbolTableRecord
100
AcDbBlockTableRecord
  2
*D0
  0
BLOCK_RECORD
  5
228
100
AcDbSymbolTableRecord
100
AcDbBlockTableRecord
  2
*D1
  0
BLOCK_RECORD
  5
229
100
AcDbSymbolTableRecord
100
AcDbBlockTableRecord
  2
*D2
  0
BLOCK_RECORD
  5
22A
100
AcDbSymbolTableRecord
100
AcDbBlockTableRecord
  2
*D3
  0
BLOCK_RECORD
  5
22B
100
AcDbSymbolTableRecord
100
AcDbBlockTableRecord
  2
*D4
  0
BLOCK_RECORD
  5
22C
100
AcDbSymbolTableRecord
100
AcDbBlockTableRecord
  2
LOGO2_BL0
  0
ENDTAB
  0
TABLE
  2
DIMSTYLE
  5
A
100
AcDbSymbolTable
 70
1
  0
DIMSTYLE
105
22D
100
AcDbSymbolTableRecord
100
AcDbDimStyleTableRecord
  2
STANDARD
 70
0
  3

  4

  5
_CLOSED
  6
_CLOSED
  7
_CLOSED
 40
1.0
 41
2.5
 42
0.75
 43
0.38
 44
0.75
 45
0.0
 46
0.0
 47
0.01
 48
0.01
140
3.0
141
0.09
142
0.0
143
25.4
144
1.0
145
0.0
146
1.0
147
0.625
 71
1.0
 72
0.0
 73
0
 74
0
 75
0
 76
0
 77
1
 78
8
 79
2
170
0
171
1
172
0
173
0
174
0
175
0
176
0
177
0
178
0
270
2
179
2
271
2
272
2
273
2
274
2
275
0
280
0
281
0
282
0
283
1
284
8
285
0
286
0
287
3
288
0
340
11
  0
DIMSTYLE
105
22E
100
AcDbSymbolTableRecord
100
AcDbDimStyleTableRecord
  2
DIMSTYLE_1
 70
0
  3
<>
  4

  5
_CLOSED
  6
_CLOSED
  7
_CLOSED
 40
1.0
 41
2.5
 42
0.75
 43
0.38
 44
0.75
 45
0.0
 46
0.0
 47
0.3
 48
0.3
140
3.0
141
0.09
142
0.0
143
25.4
144
1.0
145
0.0
146
1.0
147
0.625
 71
0.0
 72
0.0
 73
0
 74
0
 75
0
 76
0
 77
1
 78
8
 79
2
170
0
171
1
172
1
173
0
174
0
175
0
176
0
177
0
178
0
270
2
179
2
271
2
272
2
273
2
274
2
275
0
280
0
281
0
282
0
283
1
284
8
285
0
286
0
287
3
288
1
340
11
  0
DIMSTYLE
105
22F
100
AcDbSymbolTableRecord
100
AcDbDimStyleTableRecord
  2
DIMSTYLE_2
 70
0
  3

  4

  5
_CLOSED
  6
_CLOSED
  7
_CLOSED
 40
1.0
 41
2.5
 42
0.75
 43
0.38
 44
0.75
 45
0.0
 46
0.0
 47
0.3
 48
0.3
140
3.0
141
0.09
142
0.0
143
25.4
144
1.0
145
0.0
146
1.0
147
0.75
 71
0.0
 72
0.0
 73
0
 74
0
 75
0
 76
0
 77
1
 78
8
 79
2
170
0
171
1
172
0
173
0
174
0
175
0
176
0
177
0
178
0
270
2
179
2
271
2
272
2
273
2
274
2
275
0
280
0
281
0
282
0
283
1
284
8
285
0
286
0
287
3
288
0
340
11
  0
DIMSTYLE
105
230
100
AcDbSymbolTableRecord
100
AcDbDimStyleTableRecord
  2
DIMSTYLE_3
 70
0
  3

  4

  5
_CLOSED
  6
_CLOSED
  7
_CLOSED
 40
1.0
 41
2.5
 42
0.75
 43
0.38
 44
0.75
 45
0.0
 46
0.0
 47
0.1
 48
0.1
140
3.0
141
0.09
142
0.0
143
25.4
144
1.0
145
0.0
146
1.0
147
0.75
 71
0.0
 72
0.0
 73
0
 74
0
 75
0
 76
0
 77
1
 78
8
 79
2
170
0
171
1
172
0
173
0
174
0
175
0
176
0
177
0
178
0
270
2
179
2
271
2
272
2
273
2
274
2
275
0
280
0
281
0
282
0
283
1
284
8
285
0
286
0
287
3
288
0
340
11
  0
ENDTAB
  0
ENDSEC
  0
SECTION
  2
BLOCKS
  0
BLOCK
  5
20
100
AcDbEntity
  8
0
100
AcDbBlockBegin
  2
*MODEL_SPACE
 70
0
 10
0.0
 20
0.0
 30
0.0
  3
*MODEL_SPACE
  1

  0
ENDBLK
  5
21
100
AcDbEntity
  8
0
100
AcDbBlockEnd
  0
BLOCK
  5
1C
100
AcDbEntity
  8
0
100
AcDbBlockBegin
  2
*PAPER_SPACE
 70
0
 10
0.0
 20
0.0
 30
0.0
  3
*PAPER_SPACE
  1

  0
ENDBLK
  5
1D
100
AcDbEntity
  8
0
100
AcDbBlockEnd
  0
BLOCK
  5
231
100
AcDbEntity
  8
0
100
AcDbBlockBegin
 62
2
  6
CONTINUOUS
  2
LOGO2_BL0
 70
64
 10
333.6475659158
 20
36.9217920391
  3
LOGO2_BL0
  1

  0
LINE
  5
232
100
AcDbEntity
  8
0
100
AcDbLine
 62
7
  6
CONTINUOUS
 10
325.390491144
 20
40.1172833779
 11
324.0861502147
 21
40.1172833779
  0
LINE
  5
233
100
AcDbEntity
  8
0
100
AcDbLine
 62
7
  6
CONTINUOUS
 10
324.0861502147
 20
40.1172833779
 11
324.0861502147
 21
29.6582173181
  0
LINE
  5
234
100
AcDbEntity
  8
0
100
AcDbLine
 62
7
  6
CONTINUOUS
 10
324.0861502147
 20
29.6582173181
 11
328.567205103
 21
29.6582173181
  0
LINE
  5
235
100
AcDbEntity
  8
0
100
AcDbLine
 62
7
  6
CONTINUOUS
 10
328.567205103
 20
29.6582173181
 11
328.567205103
 21
30.8510716431
  0
LINE
  5
236
100
AcDbEntity
  8
0
100
AcDbLine
 62
7
  6
CONTINUOUS
 10
328.567205103
 20
30.8510716431
 11
325.390491144
 21
30.8510716431
  0
LINE
  5
237
100
AcDbEntity
  8
0
100
AcDbLine
 62
7
  6
CONTINUOUS
 10
325.390491144
 20
30.8510716431
 11
325.390491144
 21
40.1172833779
  0
LINE
  5
238
100
AcDbEntity
  8
0
100
AcDbLine
 62
7
  6
CONTINUOUS
 10
340.3268173604
 20
40.1172833779
 11
339.0229998423
 21
40.1172833779
  0
LINE
  5
239
100
AcDbEntity
  8
0
100
AcDbLine
 62
7
  6
CONTINUOUS
 10
339.0229998423
 20
40.1172833779
 11
339.0229998423
 21
29.6582173181
  0
LINE
  5
23A
100
AcDbEntity
  8
0
100
AcDbLine
 62
7
  6
CONTINUOUS
 10
339.0229998423
 20
29.6582173181
 11
343.5041855834
 21
29.6582173181
  0
LINE
  5
23B
100
AcDbEntity
  8
0
100
AcDbLine
 62
7
  6
CONTINUOUS
 10
343.5041855834
 20
29.6582173181
 11
343.5041855834
 21
30.8510716431
  0
LINE
  5
23C
100
AcDbEntity
  8
0
100
AcDbLine
 62
7
  6
CONTINUOUS
 10
343.5041855834
 20
30.8510716431
 11
340.3268173604
 21
30.8510716431
  0
LINE
  5
23D
100
AcDbEntity
  8
0
100
AcDbLine
 62
7
  6
CONTINUOUS
 10
340.3268173604
 20
30.8510716431
 11
340.3268173604
 21
40.1172833779
  0
LWPOLYLINE
  5
23E
100
AcDbEntity
  8
0
100
AcDbPolyline
 62
7
  6
CONTINUOUS
 90
2
 70
0
 43
0.2
 10
322.4405451256
 20
26.3146660112
 10
322.4405451256
 20
24.4576027618
  0
LWPOLYLINE
  5
23F
100
AcDbEntity
  8
0
100
AcDbPolyline
 62
7
  6
CONTINUOUS
 90
2
 70
0
 43
0.2
 10
322.4405451256
 20
24.4576027618
 10
323.236261136
 20
24.4576027618
  0
LWPOLYLINE
  5
240
100
AcDbEntity
  8
0
100
AcDbPolyline
 62
7
  6
CONTINUOUS
 90
2
 70
0
 43
0.2
 10
323.236261136
 20
24.4576027618
 10
323.236261136
 20
24.6695843334
  0
LWPOLYLINE
  5
241
100
AcDbEntity
  8
0
100
AcDbPolyline
 62
7
  6
CONTINUOUS
 90
2
 70
0
 43
0.2
 10
323.236261136
 20
24.6695843334
 10
322.6721546205
 20
24.6695843334
  0
LWPOLYLINE
  5
242
100
AcDbEntity
  8
0
100
AcDbPolyline
 62
7
  6
CONTINUOUS
 90
2
 70
0
 43
0.2
 10
322.6721546205
 20
24.6695843334
 10
322.6721546205
 20
26.3146660112
  0
LWPOLYLINE
  5
243
100
AcDbEntity
  8
0
100
AcDbPolyline
 62
7
  6
CONTINUOUS
 90
2
 70
0
 43
0.2
 10
322.6721546205
 20
26.3146660112
 10
322.4405451256
 20
26.3146660112
  0
SPLINE
  5
244
100
AcDbEntity
  8
0
100
AcDbSpline
 62
7
  6
CONTINUOUS
 70
2
 71
3
 72
35
 73
31
 74
0
 42
0.0000001
 43
0.0000001
 44
0.0000000001
 40
0.0
 40
0.0
 40
0.0
 40
0.0
 40
1.0
 40
1.0
 40
1.0
 40
2.0
 40
2.0
 40
2.0
 40
3.0
 40
3.0
 40
3.0
 40
4.0
 40
4.0
 40
4.0
 40
5.0
 40
5.0
 40
5.0
 40
6.0
 40
6.0
 40
6.0
 40
7.0
 40
7.0
 40
7.0
 40
8.0
 40
8.0
 40
8.0
 40
9.0
 40
9.0
 40
9.0
 40
10.0
 40
10.0
 40
10.0
 40
10.0
 10
324.6345543915
 20
25.6101544177
 30
0.0
 10
324.6345543915
 20
25.6101544177
 30
0.0
 10
324.6345543915
 20
24.9480391385
 30
0.0
 10
324.6345543915
 20
24.9480391385
 30
0.0
 10
324.6345543915
 20
24.6329455432
 30
0.0
 10
324.7824180804
 20
24.4183469152
 30
0.0
 10
325.1225045647
 20
24.4183469152
 30
0.0
 10
325.4620676377
 20
24.4183469152
 30
0.0
 10
325.6101930321
 20
24.6329455432
 30
0.0
 10
325.6101930321
 20
24.9480391385
 30
0.0
 10
325.6101930321
 20
24.9480391385
 30
0.0
 10
325.6101930321
 20
25.6101544177
 30
0.0
 10
325.6101930321
 20
25.6101544177
 30
0.0
 10
325.6101930321
 20
25.6101544177
 30
0.0
 10
325.3881357933
 20
25.6101544177
 30
0.0
 10
325.3881357933
 20
25.6101544177
 30
0.0
 10
325.3881357933
 20
25.6101544177
 30
0.0
 10
325.3881357933
 20
24.9731628803
 30
0.0
 10
325.3881357933
 20
24.9731628803
 30
0.0
 10
325.3881357933
 20
24.7873518732
 30
0.0
 10
325.3414213358
 20
24.6245709626
 30
0.0
 10
325.1225045647
 20
24.6245709626
 30
0.0
 10
324.9030643822
 20
24.6245709626
 30
0.0
 10
324.8563499248
 20
24.7873518732
 30
0.0
 10
324.8563499248
 20
24.9731628803
 30
0.0
 10
324.8563499248
 20
24.9731628803
 30
0.0
 10
324.8563499248
 20
25.6101544177
 30
0.0
 10
324.8563499248
 20
25.6101544177
 30
0.0
 10
324.8563499248
 20
25.6101544177
 30
0.0
 10
324.6345543915
 20
25.6101544177
 30
0.0
 10
324.6345543915
 20
25.6101544177
 30
0.0
  0
SPLINE
  5
245
100
AcDbEntity
  8
0
100
AcDbSpline
 62
7
  6
CONTINUOUS
 70
2
 71
3
 72
35
 73
31
 74
0
 42
0.0000001
 43
0.0000001
 44
0.0000000001
 40
0.0
 40
0.0
 40
0.0
 40
0.0
 40
1.0
 40
1.0
 40
1.0
 40
2.0
 40
2.0
 40
2.0
 40
3.0
 40
3.0
 40
3.0
 40
4.0
 40
4.0
 40
4.0
 40
5.0
 40
5.0
 40
5.0
 40
6.0
 40
6.0
 40
6.0
 40
7.0
 40
7.0
 40
7.0
 40
8.0
 40
8.0
 40
8.0
 40
9.0
 40
9.0
 40
9.0
 40
10.0
 40
10.0
 40
10.0
 40
10.0
 10
328.0333255893
 20
25.5688049259
 30
0.0
 10
327.9448690817
 20
25.6200992322
 30
0.0
 10
327.831419685
 20
25.645222974
 30
0.0
 10
327.72778425
 20
25.645222974
 30
0.0
 10
327.3729113969
 20
25.645222974
 30
0.0
 10
327.0974662066
 20
25.3814236849
 30
0.0
 10
327.0974662066
 20
25.0239337753
 30
0.0
 10
327.0974662066
 20
24.6790057366
 30
0.0
 10
327.3759210118
 20
24.4188703265
 30
0.0
 10
327.7154840848
 20
24.4188703265
 30
0.0
 10
327.831419685
 20
24.4188703265
 30
0.0
 10
327.9321763579
 20
24.4408536006
 30
0.0
 10
328.0333255893
 20
24.4947649632
 30
0.0
 10
328.0333255893
 20
24.4947649632
 30
0.0
 10
328.0333255893
 20
24.7774070587
 30
0.0
 10
328.0333255893
 20
24.7774070587
 30
0.0
 10
327.9494489304
 20
24.6842398494
 30
0.0
 10
327.8459443483
 20
24.6250943739
 30
0.0
 10
327.7178394356
 20
24.6250943739
 30
0.0
 10
327.4841362955
 20
24.6250943739
 30
0.0
 10
327.3188691814
 20
24.7972966876
 30
0.0
 10
327.3188691814
 20
25.0338785897
 30
0.0
 10
327.3188691814
 20
25.2458601613
 30
0.0
 10
327.4866224991
 20
25.437952104
 30
0.0
 10
327.7034456251
 20
25.437952104
 30
0.0
 10
327.8362612394
 20
25.437952104
 30
0.0
 10
327.9448690817
 20
25.3840407413
 30
0.0
 10
328.0333255893
 20
25.2830223628
 30
0.0
 10
328.0333255893
 20
25.2830223628
 30
0.0
 10
328.0333255893
 20
25.5688049259
 30
0.0
 10
328.0333255893
 20
25.5688049259
 30
0.0
  0
SPLINE
  5
246
100
AcDbEntity
  8
0
100
AcDbSpline
 62
7
  6
CONTINUOUS
 70
2
 71
3
 72
32
 73
28
 74
0
 42
0.0000001
 43
0.0000001
 44
0.0000000001
 40
0.0
 40
0.0
 40
0.0
 40
0.0
 40
1.0
 40
1.0
 40
1.0
 40
2.0
 40
2.0
 40
2.0
 40
3.0
 40
3.0
 40
3.0
 40
4.0
 40
4.0
 40
4.0
 40
5.0
 40
5.0
 40
5.0
 40
6.0
 40
6.0
 40
6.0
 40
7.0
 40
7.0
 40
7.0
 40
8.0
 40
8.0
 40
8.0
 40
9.0
 40
9.0
 40
9.0
 40
9.0
 10
330.5651968416
 20
24.9972397996
 30
0.0
 10
330.5651968416
 20
24.9972397996
 30
0.0
 10
330.5651968416
 20
25.0312615333
 30
0.0
 10
330.5651968416
 20
25.0312615333
 30
0.0
 10
330.5651968416
 20
25.3735725156
 30
0.0
 10
330.3923402638
 20
25.645222974
 30
0.0
 10
330.0256906566
 20
25.645222974
 30
0.0
 10
329.6540686422
 20
25.645222974
 30
0.0
 10
329.4643320504
 20
25.3788066284
 30
0.0
 10
329.4643320504
 20
25.0239337753
 30
0.0
 10
329.4643320504
 20
24.6842398494
 30
0.0
 10
329.6784072671
 20
24.4183469152
 30
0.0
 10
330.030532211
 20
24.4183469152
 30
0.0
 10
330.2545522422
 20
24.4183469152
 30
0.0
 10
330.4567198522
 20
24.5340208098
 30
0.0
 10
330.5651968416
 20
24.7334405105
 30
0.0
 10
330.5651968416
 20
24.7334405105
 30
0.0
 10
330.3775538949
 20
24.8402164132
 30
0.0
 10
330.3775538949
 20
24.8402164132
 30
0.0
 10
330.2940697945
 20
24.7015124219
 30
0.0
 10
330.2028653775
 20
24.6156729707
 30
0.0
 10
330.0332801203
 20
24.6156729707
 30
0.0
 10
329.8212985487
 20
24.6156729707
 30
0.0
 10
329.6883520816
 20
24.8004371554
 30
0.0
 10
329.6859967308
 20
24.9972397996
 30
0.0
 10
329.6859967308
 20
24.9972397996
 30
0.0
 10
330.5651968416
 20
24.9972397996
 30
0.0
 10
330.5651968416
 20
24.9972397996
 30
0.0
  0
SPLINE
  5
247
100
AcDbEntity
  8
0
100
AcDbSpline
 62
7
  6
CONTINUOUS
 70
2
 71
3
 72
14
 73
10
 74
0
 42
0.0000001
 43
0.0000001
 44
0.0000000001
 40
0.0
 40
0.0
 40
0.0
 40
0.0
 40
1.0
 40
1.0
 40
1.0
 40
2.0
 40
2.0
 40
2.0
 40
3.0
 40
3.0
 40
3.0
 40
3.0
 10
329.6980351904
 20
25.1647314117
 30
0.0
 10
329.7256451358
 20
25.3296059674
 30
0.0
 10
329.8534883429
 20
25.45260762
 30
0.0
 10
330.0256906566
 20
25.45260762
 30
0.0
 10
330.2028653775
 20
25.45260762
 30
0.0
 10
330.3163147742
 20
25.3369337254
 30
0.0
 10
330.3435321612
 20
25.1647314117
 30
0.0
 10
330.3435321612
 20
25.1647314117
 30
0.0
 10
329.6980351904
 20
25.1647314117
 30
0.0
 10
329.6980351904
 20
25.1647314117
 30
0.0
  0
SPLINE
  5
248
100
AcDbEntity
  8
0
100
AcDbSpline
 62
7
  6
CONTINUOUS
 70
2
 71
3
 72
20
 73
16
 74
0
 42
0.0000001
 43
0.0000001
 44
0.0000000001
 40
0.0
 40
0.0
 40
0.0
 40
0.0
 40
1.0
 40
1.0
 40
1.0
 40
2.0
 40
2.0
 40
2.0
 40
3.0
 40
3.0
 40
3.0
 40
4.0
 40
4.0
 40
4.0
 40
5.0
 40
5.0
 40
5.0
 40
5.0
 10
332.5892282918
 20
25.3740959269
 30
0.0
 10
332.5892282918
 20
25.3740959269
 30
0.0
 10
333.0003678584
 20
24.8716210905
 30
0.0
 10
333.0003678584
 20
24.8716210905
 30
0.0
 10
332.8843014053
 20
24.7559471959
 30
0.0
 10
332.7465133838
 20
24.6256177852
 30
0.0
 10
332.5745727757
 20
24.6256177852
 30
0.0
 10
332.3971363491
 20
24.6256177852
 30
0.0
 10
332.229644737
 20
24.7899689296
 30
0.0
 10
332.229644737
 20
24.9668819449
 30
0.0
 10
332.229644737
 20
25.1448417828
 30
0.0
 10
332.4394018106
 20
25.2709839031
 30
0.0
 10
332.566983312
 20
25.3589169995
 30
0.0
 10
332.566983312
 20
25.3589169995
 30
0.0
 10
332.5892282918
 20
25.3740959269
 30
0.0
 10
332.5892282918
 20
25.3740959269
 30
0.0
  0
SPLINE
  5
249
100
AcDbEntity
  8
0
100
AcDbSpline
 62
7
  6
CONTINUOUS
 70
2
 71
3
 72
23
 73
19
 74
0
 42
0.0000001
 43
0.0000001
 44
0.0000000001
 40
0.0
 40
0.0
 40
0.0
 40
0.0
 40
1.0
 40
1.0
 40
1.0
 40
2.0
 40
2.0
 40
2.0
 40
3.0
 40
3.0
 40
3.0
 40
4.0
 40
4.0
 40
4.0
 40
5.0
 40
5.0
 40
5.0
 40
6.0
 40
6.0
 40
6.0
 40
6.0
 10
332.6385598056
 20
25.6651126029
 30
0.0
 10
332.6385598056
 20
25.6651126029
 30
0.0
 10
332.5769281265
 20
25.7436242961
 30
0.0
 10
332.5769281265
 20
25.7436242961
 30
0.0
 10
332.5230167639
 20
25.8121911748
 30
0.0
 10
332.4662266391
 20
25.8812814648
 30
0.0
 10
332.4662266391
 20
25.9749720853
 30
0.0
 10
332.4662266391
 20
26.0937864477
 30
0.0
 10
332.5621417576
 20
26.1712513183
 30
0.0
 10
332.6731049506
 20
26.1712513183
 30
0.0
 10
332.7963683089
 20
26.1712513183
 30
0.0
 10
332.889666371
 20
26.1000673831
 30
0.0
 10
332.889666371
 20
25.9697379725
 30
0.0
 10
332.889666371
 20
25.8346978602
 30
0.0
 10
332.7615614583
 20
25.7582798122
 30
0.0
 10
332.6680016906
 20
25.6844788206
 30
0.0
 10
332.6680016906
 20
25.6844788206
 30
0.0
 10
332.6385598056
 20
25.6651126029
 30
0.0
 10
332.6385598056
 20
25.6651126029
 30
0.0
  0
SPLINE
  5
24A
100
AcDbEntity
  8
0
100
AcDbSpline
 62
7
  6
CONTINUOUS
 70
2
 71
3
 72
50
 73
46
 74
0
 42
0.0000001
 43
0.0000001
 44
0.0000000001
 40
0.0
 40
0.0
 40
0.0
 40
0.0
 40
1.0
 40
1.0
 40
1.0
 40
2.0
 40
2.0
 40
2.0
 40
3.0
 40
3.0
 40
3.0
 40
4.0
 40
4.0
 40
4.0
 40
5.0
 40
5.0
 40
5.0
 40
6.0
 40
6.0
 40
6.0
 40
7.0
 40
7.0
 40
7.0
 40
8.0
 40
8.0
 40
8.0
 40
9.0
 40
9.0
 40
9.0
 40
10.0
 40
10.0
 40
10.0
 40
11.0
 40
11.0
 40
11.0
 40
12.0
 40
12.0
 40
12.0
 40
13.0
 40
13.0
 40
13.0
 40
14.0
 40
14.0
 40
14.0
 40
15.0
 40
15.0
 40
15.0
 40
15.0
 10
333.3407160483
 20
24.4581261731
 30
0.0
 10
333.3407160483
 20
24.4581261731
 30
0.0
 10
333.626106053
 20
24.4581261731
 30
0.0
 10
333.626106053
 20
24.4581261731
 30
0.0
 10
333.626106053
 20
24.4581261731
 30
0.0
 10
333.2937398852
 20
24.8690040341
 30
0.0
 10
333.2937398852
 20
24.8690040341
 30
0.0
 10
333.2937398852
 20
24.8690040341
 30
0.0
 10
333.5202461201
 20
25.1348969683
 30
0.0
 10
333.5202461201
 20
25.1348969683
 30
0.0
 10
333.5202461201
 20
25.1348969683
 30
0.0
 10
333.3719898728
 20
25.2877330644
 30
0.0
 10
333.3719898728
 20
25.2877330644
 30
0.0
 10
333.3719898728
 20
25.2877330644
 30
0.0
 10
333.1560827165
 20
25.0364956462
 30
0.0
 10
333.1560827165
 20
25.0364956462
 30
0.0
 10
333.1560827165
 20
25.0364956462
 30
0.0
 10
332.7690200692
 20
25.5044253375
 30
0.0
 10
332.7690200692
 20
25.5044253375
 30
0.0
 10
332.9244732216
 20
25.6185289983
 30
0.0
 10
333.1067512026
 20
25.7582798122
 30
0.0
 10
333.1067512026
 20
25.9676443273
 30
0.0
 10
333.1067512026
 20
26.2115539874
 30
0.0
 10
332.9047144455
 20
26.3549686803
 30
0.0
 10
332.6782082107
 20
26.3549686803
 30
0.0
 10
332.4340368449
 20
26.3549686803
 30
0.0
 10
332.2496652188
 20
26.2042262294
 30
0.0
 10
332.2496652188
 20
25.9477546984
 30
0.0
 10
332.2496652188
 20
25.7902079007
 30
0.0
 10
332.3483282465
 20
25.652550732
 30
0.0
 10
332.4536647682
 20
25.541587539
 30
0.0
 10
332.4536647682
 20
25.541587539
 30
0.0
 10
332.3381217264
 20
25.4578417329
 30
0.0
 10
332.3381217264
 20
25.4578417329
 30
0.0
 10
332.1604235942
 20
25.3296059674
 30
0.0
 10
332.0130833166
 20
25.2018936131
 30
0.0
 10
332.0130833166
 20
24.9647882997
 30
0.0
 10
332.0130833166
 20
24.6444605916
 30
0.0
 10
332.2716484929
 20
24.4183469152
 30
0.0
 10
332.5820313866
 20
24.4183469152
 30
0.0
 10
332.8009481577
 20
24.4183469152
 30
0.0
 10
332.9981433604
 20
24.543442213
 30
0.0
 10
333.1384175856
 20
24.7093635913
 30
0.0
 10
333.1384175856
 20
24.7093635913
 30
0.0
 10
333.3407160483
 20
24.4581261731
 30
0.0
 10
333.3407160483
 20
24.4581261731
 30
0.0
  0
LWPOLYLINE
  5
24B
100
AcDbEntity
  8
0
100
AcDbPolyline
 62
7
  6
CONTINUOUS
 90
2
 70
0
 43
0.2
 10
335.276160138
 20
26.3146660112
 10
335.0448123488
 20
26.3146660112
  0
LWPOLYLINE
  5
24C
100
AcDbEntity
  8
0
100
AcDbPolyline
 62
7
  6
CONTINUOUS
 90
2
 70
0
 43
0.2
 10
335.0448123488
 20
26.3146660112
 10
335.0448123488
 20
24.4576027618
  0
LWPOLYLINE
  5
24D
100
AcDbEntity
  8
0
100
AcDbPolyline
 62
7
  6
CONTINUOUS
 90
2
 70
0
 43
0.2
 10
335.0448123488
 20
24.4576027618
 10
335.8401358007
 20
24.4576027618
  0
LWPOLYLINE
  5
24E
100
AcDbEntity
  8
0
100
AcDbPolyline
 62
7
  6
CONTINUOUS
 90
2
 70
0
 43
0.2
 10
335.8401358007
 20
24.4576027618
 10
335.8401358007
 20
24.6695843334
  0
LWPOLYLINE
  5
24F
100
AcDbEntity
  8
0
100
AcDbPolyline
 62
7
  6
CONTINUOUS
 90
2
 70
0
 43
0.2
 10
335.8401358007
 20
24.6695843334
 10
335.276160138
 20
24.6695843334
  0
LWPOLYLINE
  5
250
100
AcDbEntity
  8
0
100
AcDbPolyline
 62
7
  6
CONTINUOUS
 90
2
 70
0
 43
0.2
 10
335.276160138
 20
24.6695843334
 10
335.276160138
 20
26.3146660112
  0
LWPOLYLINE
  5
251
100
AcDbEntity
  8
0
100
AcDbPolyline
 62
7
  6
CONTINUOUS
 90
2
 70
0
 43
0.2
 10
337.5192392122
 20
25.6101544177
 10
337.2980979431
 20
25.6101544177
  0
LWPOLYLINE
  5
252
100
AcDbEntity
  8
0
100
AcDbPolyline
 62
7
  6
CONTINUOUS
 90
2
 70
0
 43
0.2
 10
337.2980979431
 20
25.6101544177
 10
337.2980979431
 20
24.4581261731
  0
LWPOLYLINE
  5
253
100
AcDbEntity
  8
0
100
AcDbPolyline
 62
7
  6
CONTINUOUS
 90
2
 70
0
 43
0.2
 10
337.2980979431
 20
24.4581261731
 10
337.5192392122
 20
24.4581261731
  0
LWPOLYLINE
  5
254
100
AcDbEntity
  8
0
100
AcDbPolyline
 62
7
  6
CONTINUOUS
 90
2
 70
0
 43
0.2
 10
337.5192392122
 20
24.4581261731
 10
337.5192392122
 20
25.6101544177
  0
LWPOLYLINE
  5
255
100
AcDbEntity
  8
0
100
AcDbPolyline
 62
7
  6
CONTINUOUS
 90
2
 70
1
 43
0.2
 10
337.256215935
 20
26.1401083467
 42
1.0
 10
337.5613829259
 20
26.1401083467
 42
1.0
  0
SPLINE
  5
256
100
AcDbEntity
  8
0
100
AcDbSpline
 62
7
  6
CONTINUOUS
 70
2
 71
3
 72
17
 73
13
 74
0
 42
0.0000001
 43
0.0000001
 44
0.0000000001
 40
0.0
 40
0.0
 40
0.0
 40
0.0
 40
1.0
 40
1.0
 40
1.0
 40
2.0
 40
2.0
 40
2.0
 40
3.0
 40
3.0
 40
3.0
 40
4.0
 40
4.0
 40
4.0
 40
4.0
 10
339.6495231538
 20
24.6156729707
 30
0.0
 10
339.4155583082
 20
24.6156729707
 30
0.0
 10
339.2852288975
 20
24.8177097279
 30
0.0
 10
339.2852288975
 20
25.0338785897
 30
0.0
 10
339.2852288975
 20
25.2484772178
 30
0.0
 10
339.4210541267
 20
25.4473735072
 30
0.0
 10
339.6495231538
 20
25.4473735072
 30
0.0
 10
339.888983818
 20
25.4473735072
 30
0.0
 10
340.0245473416
 20
25.2584220322
 30
0.0
 10
340.0245473416
 20
25.0338785897
 30
0.0
 10
340.0245473416
 20
24.8077649134
 30
0.0
 10
339.8913391688
 20
24.6156729707
 30
0.0
 10
339.6495231538
 20
24.6156729707
 30
0.0
  0
SPLINE
  5
257
100
AcDbEntity
  8
0
100
AcDbSpline
 62
7
  6
CONTINUOUS
 70
2
 71
3
 72
50
 73
46
 74
0
 42
0.0000001
 43
0.0000001
 44
0.0000000001
 40
0.0
 40
0.0
 40
0.0
 40
0.0
 40
1.0
 40
1.0
 40
1.0
 40
2.0
 40
2.0
 40
2.0
 40
3.0
 40
3.0
 40
3.0
 40
4.0
 40
4.0
 40
4.0
 40
5.0
 40
5.0
 40
5.0
 40
6.0
 40
6.0
 40
6.0
 40
7.0
 40
7.0
 40
7.0
 40
8.0
 40
8.0
 40
8.0
 40
9.0
 40
9.0
 40
9.0
 40
10.0
 40
10.0
 40
10.0
 40
11.0
 40
11.0
 40
11.0
 40
12.0
 40
12.0
 40
12.0
 40
13.0
 40
13.0
 40
13.0
 40
14.0
 40
14.0
 40
14.0
 40
15.0
 40
15.0
 40
15.0
 40
15.0
 10
340.2336501511
 20
25.610677829
 30
0.0
 10
340.2336501511
 20
25.610677829
 30
0.0
 10
340.0119854707
 20
25.610677829
 30
0.0
 10
340.0119854707
 20
25.610677829
 30
0.0
 10
340.0119854707
 20
25.610677829
 30
0.0
 10
340.0119854707
 20
25.4133517734
 30
0.0
 10
340.0119854707
 20
25.4133517734
 30
0.0
 10
340.0119854707
 20
25.4133517734
 30
0.0
 10
340.0072747691
 20
25.4133517734
 30
0.0
 10
340.0072747691
 20
25.4133517734
 30
0.0
 10
339.9159394994
 20
25.556243055
 30
0.0
 10
339.778020625
 20
25.6446995627
 30
0.0
 10
339.6052949
 20
25.6446995627
 30
0.0
 10
339.2729287322
 20
25.6446995627
 30
0.0
 10
339.0638259227
 20
25.3568233544
 30
0.0
 10
339.0638259227
 20
25.0412063478
 30
0.0
 10
339.0638259227
 20
24.7114572364
 30
0.0
 10
339.2608902726
 20
24.4183469152
 30
0.0
 10
339.6157631258
 20
24.4183469152
 30
0.0
 10
339.778020625
 20
24.4183469152
 30
0.0
 10
339.9180331445
 20
24.5068034229
 30
0.0
 10
340.0072747691
 20
24.6376562448
 30
0.0
 10
340.0072747691
 20
24.6376562448
 30
0.0
 10
340.0119854707
 20
24.6376562448
 30
0.0
 10
340.0119854707
 20
24.6376562448
 30
0.0
 10
340.0119854707
 20
24.6376562448
 30
0.0
 10
340.0119854707
 20
24.4183469152
 30
0.0
 10
340.0119854707
 20
24.4183469152
 30
0.0
 10
340.0119854707
 20
24.1817650131
 30
0.0
 10
339.9554570516
 20
23.9949071833
 30
0.0
 10
339.6822363593
 20
23.9949071833
 30
0.0
 10
339.4799378966
 20
23.9949071833
 30
0.0
 10
339.3373083206
 20
24.1131981344
 30
0.0
 10
339.3373083206
 20
24.3194221818
 30
0.0
 10
339.3373083206
 20
24.3194221818
 30
0.0
 10
339.1156436402
 20
24.3194221818
 30
0.0
 10
339.1156436402
 20
24.3194221818
 30
0.0
 10
339.1206160475
 20
23.9949071833
 30
0.0
 10
339.351702131
 20
23.7981045391
 30
0.0
 10
339.6720298392
 20
23.7981045391
 30
0.0
 10
340.1200699016
 20
23.7981045391
 30
0.0
 10
340.2336501511
 20
24.083363691
 30
0.0
 10
340.2336501511
 20
24.4801094472
 30
0.0
 10
340.2336501511
 20
24.4801094472
 30
0.0
 10
340.2336501511
 20
25.610677829
 30
0.0
 10
340.2336501511
 20
25.610677829
 30
0.0
  0
SPLINE
  5
258
100
AcDbEntity
  8
0
100
AcDbSpline
 62
7
  6
CONTINUOUS
 70
2
 71
3
 72
44
 73
40
 74
0
 42
0.0000001
 43
0.0000001
 44
0.0000000001
 40
0.0
 40
0.0
 40
0.0
 40
0.0
 40
1.0
 40
1.0
 40
1.0
 40
2.0
 40
2.0
 40
2.0
 40
3.0
 40
3.0
 40
3.0
 40
4.0
 40
4.0
 40
4.0
 40
5.0
 40
5.0
 40
5.0
 40
6.0
 40
6.0
 40
6.0
 40
7.0
 40
7.0
 40
7.0
 40
8.0
 40
8.0
 40
8.0
 40
9.0
 40
9.0
 40
9.0
 40
10.0
 40
10.0
 40
10.0
 40
11.0
 40
11.0
 40
11.0
 40
12.0
 40
12.0
 40
12.0
 40
13.0
 40
13.0
 40
13.0
 40
13.0
 10
341.8025754865
 20
26.5957378727
 30
0.0
 10
341.8025754865
 20
26.5957378727
 30
0.0
 10
341.8025754865
 20
24.4576027618
 30
0.0
 10
341.8025754865
 20
24.4576027618
 30
0.0
 10
341.8025754865
 20
24.4576027618
 30
0.0
 10
342.0239784613
 20
24.4576027618
 30
0.0
 10
342.0239784613
 20
24.4576027618
 30
0.0
 10
342.0239784613
 20
24.4576027618
 30
0.0
 10
342.0239784613
 20
24.9872949851
 30
0.0
 10
342.0239784613
 20
24.9872949851
 30
0.0
 10
342.0239784613
 20
25.1971829116
 30
0.0
 10
342.0239784613
 20
25.4478969184
 30
0.0
 10
342.3092376132
 20
25.4478969184
 30
0.0
 10
342.5361364065
 20
25.4478969184
 30
0.0
 10
342.5630920878
 20
25.3149504513
 30
0.0
 10
342.5630920878
 20
25.1186712184
 30
0.0
 10
342.5630920878
 20
25.1186712184
 30
0.0
 10
342.5630920878
 20
24.4576027618
 30
0.0
 10
342.5630920878
 20
24.4576027618
 30
0.0
 10
342.5630920878
 20
24.4576027618
 30
0.0
 10
342.7850184738
 20
24.4576027618
 30
0.0
 10
342.7850184738
 20
24.4576027618
 30
0.0
 10
342.7850184738
 20
24.4576027618
 30
0.0
 10
342.7850184738
 20
25.1448417828
 30
0.0
 10
342.7850184738
 20
25.1448417828
 30
0.0
 10
342.7850184738
 20
25.4253902331
 30
0.0
 10
342.7010109621
 20
25.645222974
 30
0.0
 10
342.3759725524
 20
25.645222974
 30
0.0
 10
342.2362217385
 20
25.645222974
 30
0.0
 10
342.0980411585
 20
25.5787497404
 30
0.0
 10
342.0286891629
 20
25.4557480878
 30
0.0
 10
342.0286891629
 20
25.4557480878
 30
0.0
 10
342.0239784613
 20
25.4557480878
 30
0.0
 10
342.0239784613
 20
25.4557480878
 30
0.0
 10
342.0239784613
 20
25.4557480878
 30
0.0
 10
342.0239784613
 20
26.5957378727
 30
0.0
 10
342.0239784613
 20
26.5957378727
 30
0.0
 10
342.0239784613
 20
26.5957378727
 30
0.0
 10
341.8025754865
 20
26.5957378727
 30
0.0
 10
341.8025754865
 20
26.5957378727
 30
0.0
  0
LWPOLYLINE
  5
259
100
AcDbEntity
  8
0
100
AcDbPolyline
 62
7
  6
CONTINUOUS
 90
2
 70
0
 43
0.2
 10
344.6248091507
 20
25.403406959
 10
344.8412397182
 20
25.403406959
  0
LWPOLYLINE
  5
25A
100
AcDbEntity
  8
0
100
AcDbPolyline
 62
7
  6
CONTINUOUS
 90
2
 70
0
 43
0.2
 10
344.8412397182
 20
25.403406959
 10
344.8412397182
 20
25.6101544177
  0
LWPOLYLINE
  5
25B
100
AcDbEntity
  8
0
100
AcDbPolyline
 62
7
  6
CONTINUOUS
 90
2
 70
0
 43
0.2
 10
344.8412397182
 20
25.6101544177
 10
344.6248091507
 20
25.6101544177
  0
LWPOLYLINE
  5
25C
100
AcDbEntity
  8
0
100
AcDbPolyline
 62
7
  6
CONTINUOUS
 90
2
 70
0
 43
0.2
 10
344.6248091507
 20
25.6101544177
 10
344.6248091507
 20
26.0508667221
  0
LWPOLYLINE
  5
25D
100
AcDbEntity
  8
0
100
AcDbPolyline
 62
7
  6
CONTINUOUS
 90
2
 70
0
 43
0.2
 10
344.6248091507
 20
26.0508667221
 10
344.4031444703
 20
26.0508667221
  0
LWPOLYLINE
  5
25E
100
AcDbEntity
  8
0
100
AcDbPolyline
 62
7
  6
CONTINUOUS
 90
2
 70
0
 43
0.2
 10
344.4031444703
 20
26.0508667221
 10
344.4031444703
 20
25.6101544177
  0
LWPOLYLINE
  5
25F
100
AcDbEntity
  8
0
100
AcDbPolyline
 62
7
  6
CONTINUOUS
 90
2
 70
0
 43
0.2
 10
344.4031444703
 20
25.6101544177
 10
344.2824981684
 20
25.6101544177
  0
LWPOLYLINE
  5
260
100
AcDbEntity
  8
0
100
AcDbPolyline
 62
7
  6
CONTINUOUS
 90
2
 70
0
 43
0.2
 10
344.2824981684
 20
25.6101544177
 10
344.2824981684
 20
25.403406959
  0
LWPOLYLINE
  5
261
100
AcDbEntity
  8
0
100
AcDbPolyline
 62
7
  6
CONTINUOUS
 90
2
 70
0
 43
0.2
 10
344.2824981684
 20
25.403406959
 10
344.4031444703
 20
25.403406959
  0
LWPOLYLINE
  5
262
100
AcDbEntity
  8
0
100
AcDbPolyline
 62
7
  6
CONTINUOUS
 90
2
 70
0
 43
0.2
 10
344.4031444703
 20
25.403406959
 10
344.4031444703
 20
24.4576027618
  0
LWPOLYLINE
  5
263
100
AcDbEntity
  8
0
100
AcDbPolyline
 62
7
  6
CONTINUOUS
 90
2
 70
0
 43
0.2
 10
344.4031444703
 20
24.4576027618
 10
344.6248091507
 20
24.4576027618
  0
LWPOLYLINE
  5
264
100
AcDbEntity
  8
0
100
AcDbPolyline
 62
7
  6
CONTINUOUS
 90
2
 70
0
 43
0.2
 10
344.6248091507
 20
24.4576027618
 10
344.6248091507
 20
25.403406959
  0
SPLINE
  5
265
100
AcDbEntity
  8
0
100
AcDbSpline
 62
7
  6
CONTINUOUS
 70
2
 71
3
 72
20
 73
16
 74
0
 42
0.0000001
 43
0.0000001
 44
0.0000000001
 40
0.0
 40
0.0
 40
0.0
 40
0.0
 40
1.0
 40
1.0
 40
1.0
 40
2.0
 40
2.0
 40
2.0
 40
3.0
 40
3.0
 40
3.0
 40
4.0
 40
4.0
 40
4.0
 40
5.0
 40
5.0
 40
5.0
 40
5.0
 10
332.4068194579
 20
34.8185292052
 30
0.0
 10
332.4068194579
 20
34.8185292052
 30
0.0
 10
334.7231761124
 20
31.988967783
 30
0.0
 10
334.7231761124
 20
31.988967783
 30
0.0
 10
334.071529059
 20
31.3367973183
 30
0.0
 10
333.294655855
 20
30.6008810475
 30
0.0
 10
332.3234662104
 20
30.6008810475
 30
0.0
 10
331.3249283259
 20
30.6008810475
 30
0.0
 10
330.3816103324
 20
31.5304594948
 30
0.0
 10
330.3816103324
 20
32.5296516433
 30
0.0
 10
330.3816103324
 20
33.5288437919
 30
0.0
 10
331.5604634055
 20
34.2354490305
 30
0.0
 10
332.2819858658
 20
34.7353068104
 30
0.0
 10
332.2819858658
 20
34.7353068104
 30
0.0
 10
332.4068194579
 20
34.8185292052
 30
0.0
 10
332.4068194579
 20
34.8185292052
 30
0.0
  0
SPLINE
  5
266
100
AcDbEntity
  8
0
100
AcDbSpline
 62
7
  6
CONTINUOUS
 70
2
 71
3
 72
23
 73
19
 74
0
 42
0.0000001
 43
0.0000001
 44
0.0000000001
 40
0.0
 40
0.0
 40
0.0
 40
0.0
 40
1.0
 40
1.0
 40
1.0
 40
2.0
 40
2.0
 40
2.0
 40
3.0
 40
3.0
 40
3.0
 40
4.0
 40
4.0
 40
4.0
 40
5.0
 40
5.0
 40
5.0
 40
6.0
 40
6.0
 40
6.0
 40
6.0
 10
332.6842274405
 20
36.4562831249
 30
0.0
 10
332.6842274405
 20
36.4562831249
 30
0.0
 10
332.3377291679
 20
36.8996124858
 30
0.0
 10
332.3377291679
 20
36.8996124858
 30
0.0
 10
332.031926123
 20
37.2877219557
 30
0.0
 10
331.7130377959
 20
37.6762239841
 30
0.0
 10
331.7130377959
 20
38.2031682982
 30
0.0
 10
331.7130377959
 20
38.8693400148
 30
0.0
 10
332.2543759204
 20
39.3130619341
 30
0.0
 10
332.8782821755
 20
39.3130619341
 30
0.0
 10
333.5720638376
 20
39.3130619341
 30
0.0
 10
334.0992698573
 20
38.9108203594
 30
0.0
 10
334.0992698573
 20
38.1758200584
 30
0.0
 10
334.0992698573
 20
37.4125555479
 30
0.0
 10
333.3780091026
 20
36.9824423221
 30
0.0
 10
332.8509339357
 20
36.5667229067
 30
0.0
 10
332.8509339357
 20
36.5667229067
 30
0.0
 10
332.6842274405
 20
36.4562831249
 30
0.0
 10
332.6842274405
 20
36.4562831249
 30
0.0
  0
SPLINE
  5
267
100
AcDbEntity
  8
0
100
AcDbSpline
 62
7
  6
CONTINUOUS
 70
2
 71
3
 72
50
 73
46
 74
0
 42
0.0000001
 43
0.0000001
 44
0.0000000001
 40
0.0
 40
0.0
 40
0.0
 40
0.0
 40
1.0
 40
1.0
 40
1.0
 40
2.0
 40
2.0
 40
2.0
 40
3.0
 40
3.0
 40
3.0
 40
4.0
 40
4.0
 40
4.0
 40
5.0
 40
5.0
 40
5.0
 40
6.0
 40
6.0
 40
6.0
 40
7.0
 40
7.0
 40
7.0
 40
8.0
 40
8.0
 40
8.0
 40
9.0
 40
9.0
 40
9.0
 40
10.0
 40
10.0
 40
10.0
 40
11.0
 40
11.0
 40
11.0
 40
12.0
 40
12.0
 40
12.0
 40
13.0
 40
13.0
 40
13.0
 40
14.0
 40
14.0
 40
14.0
 40
15.0
 40
15.0
 40
15.0
 40
15.0
 10
336.6378146034
 20
29.6576939068
 30
0.0
 10
336.6378146034
 20
29.6576939068
 30
0.0
 10
338.247042608
 20
29.6576939068
 30
0.0
 10
338.247042608
 20
29.6576939068
 30
0.0
 10
338.247042608
 20
29.6576939068
 30
0.0
 10
336.3740153144
 20
31.9748356782
 30
0.0
 10
336.3740153144
 20
31.9748356782
 30
0.0
 10
336.3740153144
 20
31.9748356782
 30
0.0
 10
337.6503537398
 20
33.4723153728
 30
0.0
 10
337.6503537398
 20
33.4723153728
 30
0.0
 10
337.6503537398
 20
33.4723153728
 30
0.0
 10
336.8181297921
 20
34.3333269413
 30
0.0
 10
336.8181297921
 20
34.3333269413
 30
0.0
 10
336.8181297921
 20
34.3333269413
 30
0.0
 10
335.5975346688
 20
32.9180228189
 30
0.0
 10
335.5975346688
 20
32.9180228189
 30
0.0
 10
335.5975346688
 20
32.9180228189
 30
0.0
 10
333.4196203
 20
35.5533986534
 30
0.0
 10
333.4196203
 20
35.5533986534
 30
0.0
 10
334.2931937394
 20
36.1914370133
 30
0.0
 10
335.3198649806
 20
36.9824423221
 30
0.0
 10
335.3198649806
 20
38.1612953952
 30
0.0
 10
335.3198649806
 20
39.5349883202
 30
0.0
 10
334.1819688408
 20
40.3394714696
 30
0.0
 10
332.9066772379
 20
40.3394714696
 30
0.0
 10
331.5332460185
 20
40.3394714696
 30
0.0
 10
330.4923118197
 20
39.49324627
 30
0.0
 10
330.4923118197
 20
38.0505939078
 30
0.0
 10
330.4923118197
 20
37.1630192164
 30
0.0
 10
331.0476511962
 20
36.3861460124
 30
0.0
 10
331.6438166531
 20
35.7617163459
 30
0.0
 10
331.6438166531
 20
35.7617163459
 30
0.0
 10
330.991907894
 20
35.2901227756
 30
0.0
 10
330.991907894
 20
35.2901227756
 30
0.0
 10
329.9933700096
 20
34.5688620209
 30
0.0
 10
329.1604917978
 20
33.8476012662
 30
0.0
 10
329.1604917978
 20
32.5160429498
 30
0.0
 10
329.1604917978
 20
30.7123676518
 30
0.0
 10
330.6175379704
 20
29.4357675207
 30
0.0
 10
332.3650774077
 20
29.4357675207
 30
0.0
 10
333.5999354886
 20
29.4357675207
 30
0.0
 10
334.7093057133
 20
30.1439429932
 30
0.0
 10
335.5001801693
 20
31.0724746179
 30
0.0
 10
335.5001801693
 20
31.0724746179
 30
0.0
 10
336.6378146034
 20
29.6576939068
 30
0.0
 10
336.6378146034
 20
29.6576939068
 30
0.0
  0
LINE
  5
268
100
AcDbEntity
  8
0
100
AcDbLine
 62
7
  6
CONTINUOUS
 10
322.4406759784
 20
27.6315688114
 11
344.8545867061
 21
27.6315688114
  0
LINE
  5
269
100
AcDbEntity
  8
0
100
AcDbLine
 62
7
  6
CONTINUOUS
 10
344.8545867061
 20
27.6315688114
 11
344.8545867061
 21
50.0454795391
  0
LINE
  5
26A
100
AcDbEntity
  8
0
100
AcDbLine
 62
7
  6
CONTINUOUS
 10
344.8545867061
 20
50.0454795391
 11
322.4406759784
 21
50.0454795391
  0
LINE
  5
26B
100
AcDbEntity
  8
0
100
AcDbLine
 62
7
  6
CONTINUOUS
 10
322.4406759784
 20
50.0454795391
 11
322.4406759784
 21
27.6315688114
  0
ENDBLK
  5
26C
100
AcDbEntity
  8
0
  6
BYBLOCK
 62
0
100
AcDbBlockEnd
  0
BLOCK
  5
26D
100
AcDbEntity
  8
0
100
AcDbBlockBegin
  2
_CLOSED
 70
64
 10
0.0
 20
0.0
  3
_CLOSED
  1

  0
LINE
  5
26E
100
AcDbEntity
  8
0
  6
BYBLOCK
 62
0
100
AcDbLine
 10
0.0
 20
0.0
 11
-1.0
 21
0.2
  0
LINE
  5
26F
100
AcDbEntity
  8
0
  6
BYBLOCK
 62
0
100
AcDbLine
 10
-1.0
 20
0.2
 11
-1.0
 21
-0.2
  0
LINE
  5
270
100
AcDbEntity
  8
0
  6
BYBLOCK
 62
0
100
AcDbLine
 10
-1.0
 20
-0.2
 11
0.0
 21
0.0
  0
LINE
  5
271
100
AcDbEntity
  8
0
  6
BYBLOCK
 62
0
100
AcDbLine
 10
-1.0
 20
0.0
 11
0.0
 21
0.0
  0
ENDBLK
  5
272
100
AcDbEntity
  8
0
  6
BYBLOCK
 62
0
100
AcDbBlockEnd
  0
BLOCK
  5
273
100
AcDbEntity
  8
0
100
AcDbBlockBegin
 62
2
  6
CONTINUOUS
  2
*D0
 70
65
 10
0.0
 20
0.0
  3
*D0
  1

  0
MTEXT
  5
274
100
AcDbEntity
  8
0
100
AcDbMText
 62
2
  6
CONTINUOUS
  7
TEXTSTYLE_2
 71
1
 72
1
 10
160.9287130641
 20
106.9191358665
 30
0.0
 11
0.8509353041
 21
0.5252705096
 31
0.0
  1
{\Fgdt;n}\Farial.ttf;83,8
 40
3.0
 41
12.1524163569
  0
LINE
  5
275
100
AcDbEntity
  8
0
100
AcDbLine
 62
2
  6
CONTINUOUS
 10
152.625824392
 20
97.3869628274
 11
173.2393975832
 21
110.1114344085
  0
INSERT
  5
276
100
AcDbEntity
  8
0
100
AcDbBlockReference
 62
2
  6
CONTINUOUS
  2
_CLOSED
 10
152.625824392
 20
97.3869628274
 41
2.5
 42
2.5
 43
2.5
 50
211.6864556099
  0
ENDBLK
  5
277
100
AcDbEntity
  8
0
  6
BYBLOCK
 62
0
100
AcDbBlockEnd
  0
BLOCK
  5
278
100
AcDbEntity
  8
0
100
AcDbBlockBegin
 62
2
  6
CONTINUOUS
  2
*D1
 70
65
 10
0.0
 20
0.0
  3
*D1
  1

  0
MTEXT
  5
279
100
AcDbEntity
  8
0
100
AcDbMText
 62
2
  6
CONTINUOUS
  7
STANDARD
 71
2
 72
1
 10
46.7041365567
 20
206.6427189996
 30
0.0
 11
0.0
 21
1.0
 31
0.0
  1
74,4
 40
3.0
 41
8.1524163569
  0
LINE
  5
27A
100
AcDbEntity
  8
0
100
AcDbLine
 62
2
  6
CONTINUOUS
 10
73.2330700779
 20
243.8427189996
 11
49.7041365567
 21
243.8427189996
  0
LINE
  5
27B
100
AcDbEntity
  8
0
100
AcDbLine
 62
2
  6
CONTINUOUS
 10
74.5808342603
 20
169.4427189996
 11
49.7041365567
 21
169.4427189996
  0
LINE
  5
27C
100
AcDbEntity
  8
0
100
AcDbLine
 62
2
  6
CONTINUOUS
 10
50.4541365567
 20
243.8427189996
 11
50.4541365567
 21
206.6427189996
  0
LINE
  5
27D
100
AcDbEntity
  8
0
100
AcDbLine
 62
2
  6
CONTINUOUS
 10
50.4541365567
 20
169.4427189996
 11
50.4541365567
 21
206.6427189996
  0
INSERT
  5
27E
100
AcDbEntity
  8
0
100
AcDbBlockReference
 62
2
  6
CONTINUOUS
  2
_CLOSED
 10
50.4541365567
 20
243.8427189996
 41
2.5
 42
2.5
 43
2.5
 50
90.0
  0
INSERT
  5
27F
100
AcDbEntity
  8
0
100
AcDbBlockReference
 62
2
  6
CONTINUOUS
  2
_CLOSED
 10
50.4541365567
 20
169.4427189996
 41
2.5
 42
2.5
 43
2.5
 50
270.0
  0
ENDBLK
  5
280
100
AcDbEntity
  8
0
  6
BYBLOCK
 62
0
100
AcDbBlockEnd
  0
BLOCK
  5
281
100
AcDbEntity
  8
0
100
AcDbBlockBegin
 62
2
  6
CONTINUOUS
  2
*D2
 70
65
 10
0.0
 20
0.0
  3
*D2
  1

  0
MTEXT
  5
282
100
AcDbEntity
  8
0
100
AcDbMText
 62
2
  6
CONTINUOUS
  7
STANDARD
 71
1
 72
1
 10
169.9220789816
 20
248.2177609996
 30
0.0
 11
0.0
 21
1.0
 31
0.0
  1
1,9
 40
3.0
 41
5.8215613383
  0
LINE
  5
283
100
AcDbEntity
  8
0
100
AcDbLine
 62
2
  6
CONTINUOUS
 10
162.8660694781
 20
243.8427189996
 11
174.4220789816
 21
243.8427189996
  0
LINE
  5
284
100
AcDbEntity
  8
0
100
AcDbLine
 62
2
  6
CONTINUOUS
 10
162.8508231368
 20
241.9427189996
 11
174.4220789816
 21
241.9427189996
  0
LINE
  5
285
100
AcDbEntity
  8
0
100
AcDbLine
 62
2
  6
CONTINUOUS
 10
173.6720789816
 20
243.8427189996
 11
173.6720789816
 21
254.0393223379
  0
LINE
  5
286
100
AcDbEntity
  8
0
100
AcDbLine
 62
2
  6
CONTINUOUS
 10
173.6720789816
 20
254.0393223379
 11
173.6720789816
 21
242.8927189996
  0
LINE
  5
287
100
AcDbEntity
  8
0
100
AcDbLine
 62
2
  6
CONTINUOUS
 10
173.6720789816
 20
241.9427189996
 11
173.6720789816
 21
240.9427189996
  0
LINE
  5
288
100
AcDbEntity
  8
0
100
AcDbLine
 62
2
  6
CONTINUOUS
 10
173.6720789816
 20
240.9427189996
 11
173.6720789816
 21
242.8927189996
  0
INSERT
  5
289
100
AcDbEntity
  8
0
100
AcDbBlockReference
 62
2
  6
CONTINUOUS
  2
_CLOSED
 10
173.6720789816
 20
243.8427189996
 41
2.5
 42
2.5
 43
2.5
 50
270.0
  0
INSERT
  5
28A
100
AcDbEntity
  8
0
100
AcDbBlockReference
 62
2
  6
CONTINUOUS
  2
_CLOSED
 10
173.6720789816
 20
241.9427189996
 41
2.5
 42
2.5
 43
2.5
 50
90.0
  0
ENDBLK
  5
28B
100
AcDbEntity
  8
0
  6
BYBLOCK
 62
0
100
AcDbBlockEnd
  0
BLOCK
  5
28C
100
AcDbEntity
  8
0
100
AcDbBlockBegin
 62
2
  6
CONTINUOUS
  2
*D3
 70
65
 10
0.0
 20
0.0
  3
*D3
  1

  0
MTEXT
  5
28D
100
AcDbEntity
  8
0
100
AcDbMText
 62
2
  6
CONTINUOUS
  7
TEXTSTYLE_2
 71
2
 72
1
 10
116.9716351502
 20
158.267641773
 30
0.0
 11
1.0
 21
0.0
 31
0.0
  1
{\Fgdt;n}\Farial.ttf;58
 40
3.0
 41
8.6617100372
  0
LINE
  5
28E
100
AcDbEntity
  8
0
100
AcDbLine
 62
2
  6
CONTINUOUS
 10
87.9716351502
 20
167.4804248519
 11
87.9716351502
 21
153.767641773
  0
LINE
  5
28F
100
AcDbEntity
  8
0
100
AcDbLine
 62
2
  6
CONTINUOUS
 10
145.9716351502
 20
167.076750898
 11
145.9716351502
 21
153.767641773
  0
LINE
  5
290
100
AcDbEntity
  8
0
100
AcDbLine
 62
2
  6
CONTINUOUS
 10
87.9716351502
 20
154.517641773
 11
116.9716351502
 21
154.517641773
  0
LINE
  5
291
100
AcDbEntity
  8
0
100
AcDbLine
 62
2
  6
CONTINUOUS
 10
145.9716351502
 20
154.517641773
 11
116.9716351502
 21
154.517641773
  0
INSERT
  5
292
100
AcDbEntity
  8
0
100
AcDbBlockReference
 62
2
  6
CONTINUOUS
  2
_CLOSED
 10
87.9716351502
 20
154.517641773
 41
2.5
 42
2.5
 43
2.5
 50
180.0
  0
INSERT
  5
293
100
AcDbEntity
  8
0
100
AcDbBlockReference
 62
2
  6
CONTINUOUS
  2
_CLOSED
 10
145.9716351502
 20
154.517641773
 41
2.5
 42
2.5
 43
2.5
  0
ENDBLK
  5
294
100
AcDbEntity
  8
0
  6
BYBLOCK
 62
0
100
AcDbBlockEnd
  0
BLOCK
  5
295
100
AcDbEntity
  8
0
100
AcDbBlockBegin
 62
2
  6
CONTINUOUS
  2
*D4
 70
65
 10
0.0
 20
0.0
  3
*D4
  1

  0
MTEXT
  5
296
100
AcDbEntity
  8
0
100
AcDbMText
 62
2
  6
CONTINUOUS
  7
STANDARD
 71
2
 72
1
 10
59.4177019405
 20
214.6427189996
 30
0.0
 11
0.0
 21
1.0
 31
0.0
  1
58,4
 40
3.0
 41
8.1524163569
  0
LINE
  5
297
100
AcDbEntity
  8
0
100
AcDbLine
 62
2
  6
CONTINUOUS
 10
73.434894327
 20
243.8427189996
 11
62.4177019405
 21
243.8427189996
  0
LINE
  5
298
100
AcDbEntity
  8
0
100
AcDbLine
 62
2
  6
CONTINUOUS
 10
74.7623829981
 20
185.4427189996
 11
62.4177019405
 21
185.4427189996
  0
LINE
  5
299
100
AcDbEntity
  8
0
100
AcDbLine
 62
2
  6
CONTINUOUS
 10
63.1677019405
 20
243.8427189996
 11
63.1677019405
 21
214.6427189996
  0
LINE
  5
29A
100
AcDbEntity
  8
0
100
AcDbLine
 62
2
  6
CONTINUOUS
 10
63.1677019405
 20
185.4427189996
 11
63.1677019405
 21
214.6427189996
  0
INSERT
  5
29B
100
AcDbEntity
  8
0
100
AcDbBlockReference
 62
2
  6
CONTINUOUS
  2
_CLOSED
 10
63.1677019405
 20
243.8427189996
 41
2.5
 42
2.5
 43
2.5
 50
90.0
  0
INSERT
  5
29C
100
AcDbEntity
  8
0
100
AcDbBlockReference
 62
2
  6
CONTINUOUS
  2
_CLOSED
 10
63.1677019405
 20
185.4427189996
 41
2.5
 42
2.5
 43
2.5
 50
270.0
  0
ENDBLK
  5
29D
100
AcDbEntity
  8
0
  6
BYBLOCK
 62
0
100
AcDbBlockEnd
  0
ENDSEC
  0
SECTION
  2
ENTITIES
  0
DIMENSION
  5
29E
100
AcDbEntity
  8
0
100
AcDbDimension
 62
2
  6
CONTINUOUS
  2
*D0
 10
152.625824392
 20
97.3869628274
 11
166.8870788825
 21
108.8343858765
 70
163
  1
%%c<>
  3
DIMSTYLE_1
100
AcDbDiametricDimension
 15
81.3174459083
 25
53.3692941247
  0
DIMENSION
  5
29F
100
AcDbEntity
  8
0
100
AcDbDimension
 62
2
  6
CONTINUOUS
  2
*D1
 10
50.4541365567
 20
169.4427189996
 11
50.4541365567
 21
206.6443993346
 70
160
  3
DIMSTYLE_2
100
AcDbAlignedDimension
 13
73.9830700779
 23
243.8427189996
 14
75.3308342603
 24
169.4427189996
 50
270.0
100
AcDbRotatedDimension
  0
DIMENSION
  5
2A0
100
AcDbEntity
  8
0
100
AcDbDimension
 62
2
  6
CONTINUOUS
  2
*D2
 10
173.6720789816
 20
241.9427189996
 11
173.6720789816
 21
251.2609420277
 70
160
  3
DIMSTYLE_3
100
AcDbAlignedDimension
 13
162.1160694781
 23
243.8427189996
 14
162.1008231368
 24
241.9427189996
 50
270.0
100
AcDbRotatedDimension
  0
DIMENSION
  5
2A1
100
AcDbEntity
  8
0
100
AcDbDimension
 62
2
  6
CONTINUOUS
  2
*D3
 10
145.9716351502
 20
154.517641773
 11
116.9716351502
 21
154.517641773
 70
160
  1
%%c<>
  3
DIMSTYLE_2
100
AcDbAlignedDimension
 13
87.9716351502
 23
168.2304248519
 14
145.9716351502
 24
167.826750898
100
AcDbRotatedDimension
  0
DIMENSION
  5
2A2
100
AcDbEntity
  8
0
100
AcDbDimension
 62
2
  6
CONTINUOUS
  2
*D4
 10
63.1677019405
 20
185.4427189996
 11
63.1677019405
 21
214.6332464417
 70
160
  3
DIMSTYLE_2
100
AcDbAlignedDimension
 13
74.184894327
 23
243.8427189996
 14
75.5123829981
 24
185.4427189996
 50
270.0
100
AcDbRotatedDimension
  0
LINE
  5
2A3
100
AcDbEntity
  8
0
100
AcDbLine
 62
2
  6
CONTINUOUS
 10
319.8215188711
 20
50.4217920391
 11
409.8215188711
 21
50.4217920391
  0
LINE
  5
2A4
100
AcDbEntity
  8
0
100
AcDbLine
 62
2
  6
CONTINUOUS
 10
319.8215188711
 20
50.4217920391
 11
319.8215188711
 21
10.4217920391
  0
LINE
  5
2A5
100
AcDbEntity
  8
0
100
AcDbLine
 62
2
  6
CONTINUOUS
 10
349.8215188711
 20
44.4217920391
 11
409.8215188711
 21
44.4217920391
  0
LINE
  5
2A6
100
AcDbEntity
  8
0
100
AcDbLine
 62
2
  6
CONTINUOUS
 10
349.8215188711
 20
38.4217920391
 11
409.8215188711
 21
38.4217920391
  0
LINE
  5
2A7
100
AcDbEntity
  8
0
100
AcDbLine
 62
2
  6
CONTINUOUS
 10
349.8215188711
 20
28.4217920391
 11
409.8215188711
 21
28.4217920391
  0
LINE
  5
2A8
100
AcDbEntity
  8
0
100
AcDbLine
 62
2
  6
CONTINUOUS
 10
319.8215188711
 20
23.4217920391
 11
409.8215188711
 21
23.4217920391
  0
LINE
  5
2A9
100
AcDbEntity
  8
0
100
AcDbLine
 62
2
  6
CONTINUOUS
 10
319.8215188711
 20
10.4217920391
 11
409.8215188711
 21
10.4217920391
  0
LINE
  5
2AA
100
AcDbEntity
  8
0
100
AcDbLine
 62
2
  6
CONTINUOUS
 10
349.8215188711
 20
50.4217920391
 11
349.8215188711
 21
23.4217920391
  0
LINE
  5
2AB
100
AcDbEntity
  8
0
100
AcDbLine
 62
2
  6
CONTINUOUS
 10
389.8215188711
 20
50.4217920391
 11
389.8215188711
 21
38.4217920391
  0
LINE
  5
2AC
100
AcDbEntity
  8
0
100
AcDbLine
 62
2
  6
CONTINUOUS
 10
409.8215188711
 20
50.4217920391
 11
409.8215188711
 21
10.4217920391
  0
INSERT
  5
2AD
100
AcDbEntity
  8
0
100
AcDbBlockReference
 62
2
  6
CONTINUOUS
  2
LOGO2_BL0
 10
333.6475659158
 20
36.9217920391
  0
MTEXT
  5
2AE
100
AcDbEntity
  8
9_SOLID
100
AcDbMText
 62
2
  6
CONTINUOUS
  7
TEXTSTYLE_3
 71
1
 72
1
 10
351.3090188711
 20
48.9217920391
 30
0.0
 11
1.0
 21
0.0
 31
0.0
  1
2J2_C_001
 40
3.0
 41
31.2857142857
  0
MTEXT
  5
2AF
100
AcDbEntity
  8
0
100
AcDbMText
 62
2
  6
CONTINUOUS
  7
TEXTSTYLE_3
 71
1
 72
1
 10
391.3090188711
 20
49.1717920391
 30
0.0
 11
1.0
 21
0.0
 31
0.0
  1
Rev:00
 40
3.5
 41
22.75
  0
MTEXT
  5
2B0
100
AcDbEntity
  8
9_SOLID
100
AcDbMText
 62
2
  6
CONTINUOUS
  7
TEXTSTYLE_3
 71
1
 72
1
 10
351.3090188711
 20
42.6717920391
 30
0.0
 11
1.0
 21
0.0
 31
0.0
  1
Scale:1:1
 40
3.5
 41
28.375
  0
MTEXT
  5
2B1
100
AcDbEntity
  8
9_SOLID
100
AcDbMText
 62
2
  6
CONTINUOUS
  7
TEXTSTYLE_3
 71
1
 72
1
 10
391.3090188711
 20
43.1717920391
 30
0.0
 11
1.0
 21
0.0
 31
0.0
  1
A3
 40
3.5
 41
9.25
  0
MTEXT
  5
2B2
100
AcDbEntity
  8
0
100
AcDbMText
 62
2
  6
CONTINUOUS
  7
TEXTSTYLE_3
 71
1
 72
1
 10
351.3090188711
 20
35.1717920391
 30
0.0
 11
1.0
 21
0.0
 31
0.0
  1
SMOOTHY 2.4
 40
3.5
 41
46.375
  0
MTEXT
  5
2B3
100
AcDbEntity
  8
0
100
AcDbMText
 62
2
  6
CONTINUOUS
  7
TEXTSTYLE_3
 71
1
 72
1
 10
351.3090188711
 20
27.1717920391
 30
0.0
 11
1.0
 21
0.0
 31
0.0
  1
DATE:06/07/2018
 40
2.5
 41
43.0357142857
  0
MTEXT
  5
2B4
100
AcDbEntity
  8
9_SOLID
100
AcDbMText
 62
2
  6
CONTINUOUS
  7
TEXTSTYLE_3
 71
1
 72
1
 10
321.3090188711
 20
23.1092920391
 30
0.0
 11
1.0
 21
0.0
 31
0.0
  1
Any integral or partial reproductions are prohibited \Pwithout prior authorisation of L {\Ftxt.shx;\W0.190476;\H2.250000; }& L Luce & Light s.r.l., \Pin accordance with the law in force. \PAll rights reserved.
 40
2.25
 41
134.5982142857
  0
LINE
  5
2B5
100
AcDbEntity
  8
0
100
AcDbLine
 62
7
  6
CONTINUOUS
 10
0.0
 20
0.0
 11
0.0
 21
297.0
  0
LINE
  5
2B6
100
AcDbEntity
  8
0
100
AcDbLine
 62
7
  6
CONTINUOUS
 10
0.0
 20
0.0
 11
420.0
 21
0.0
  0
LINE
  5
2B7
100
AcDbEntity
  8
0
100
AcDbLine
 62
7
  6
CONTINUOUS
 10
0.0
 20
297.0
 11
420.0
 21
297.0
  0
LINE
  5
2B8
100
AcDbEntity
  8
0
100
AcDbLine
 62
7
  6
CONTINUOUS
 10
420.0
 20
0.0
 11
420.0
 21
297.0
  0
LINE
  5
2B9
100
AcDbEntity
  8
02___PRT_ALL_AXES
100
AcDbLine
 62
7
  6
CONTINUOUS
 10
75.0716351502
 20
241.9427189996
 11
75.0716351502
 21
242.9427189996
  0
LINE
  5
2BA
100
AcDbEntity
  8
7_ALL_FEATURES
100
AcDbLine
 62
7
  6
CONTINUOUS
 10
98.4716351502
 20
169.4427189996
 11
105.4716351502
 21
169.4427189996
  0
LINE
  5
2BB
100
AcDbEntity
  8
3_ALL_AXES
100
AcDbLine
 62
7
  6
CONTINUOUS
 10
94.9716351502
 20
173.4427189996
 11
93.9716351502
 21
174.4427189996
  0
LINE
  5
2BC
100
AcDbEntity
  8
02___PRT_ALL_AXES
100
AcDbLine
 62
7
  6
CONTINUOUS
 10
81.0716351502
 20
232.4427162871
 11
81.0716351502
 21
241.6427189996
  0
LINE
  5
2BD
100
AcDbEntity
  8
3_ALL_AXES
100
AcDbLine
 62
9
  6
CONTINUOUS
 10
108.9716351502
 20
172.9427189996
 11
108.4716351502
 21
172.9427189996
  0
LINE
  5
2BE
100
AcDbEntity
  8
3_ALL_AXES
100
AcDbLine
 62
9
  6
CONTINUOUS
 10
107.4716351502
 20
172.9427189996
 11
102.9716351502
 21
172.9427189996
  0
LINE
  5
2BF
100
AcDbEntity
  8
3_ALL_AXES
100
AcDbLine
 62
9
  6
CONTINUOUS
 10
100.9716351502
 20
172.9427189996
 11
96.4716351502
 21
172.9427189996
  0
LINE
  5
2C0
100
AcDbEntity
  8
3_ALL_AXES
100
AcDbLine
 62
9
  6
CONTINUOUS
 10
95.4716351502
 20
172.9427189996
 11
94.9716351502
 21
172.9427189996
  0
LINE
  5
2C1
100
AcDbEntity
  8
3_ALL_AXES
100
AcDbLine
 62
7
  6
CONTINUOUS
 10
107.4716351502
 20
173.4427189996
 11
102.9716351502
 21
173.4427189996
  0
LINE
  5
2C2
100
AcDbEntity
  8
3_ALL_AXES
100
AcDbLine
 62
7
  6
CONTINUOUS
 10
100.9716351502
 20
173.4427189996
 11
96.4716351502
 21
173.4427189996
  0
LINE
  5
2C3
100
AcDbEntity
  8
3_ALL_AXES
100
AcDbLine
 62
7
  6
CONTINUOUS
 10
94.9716351502
 20
173.4427189996
 11
95.4716351502
 21
173.4427189996
  0
LINE
  5
2C4
100
AcDbEntity
  8
3_ALL_AXES
100
AcDbLine
 62
7
  6
CONTINUOUS
 10
108.4716351502
 20
173.4427189996
 11
108.9716351502
 21
173.4427189996
  0
LINE
  5
2C5
100
AcDbEntity
  8
7_ALL_FEATURES
100
AcDbLine
 62
7
  6
CONTINUOUS
 10
88.7217047809
 20
185.4427189996
 11
87.9716351504
 21
186.1927830273
  0
LINE
  5
2C6
100
AcDbEntity
  8
02___PRT_ALL_AXES
100
AcDbLine
 62
7
  6
CONTINUOUS
 10
87.9716351502
 20
203.1927189996
 11
87.9716351502
 21
200.6927189996
  0
LINE
  5
2C7
100
AcDbEntity
  8
02___PRT_ALL_AXES
100
AcDbLine
 62
7
  6
CONTINUOUS
 10
87.9716351502
 20
198.1927189996
 11
87.9716351502
 21
195.6927189996
  0
LINE
  5
2C8
100
AcDbEntity
  8
02___PRT_ALL_AXES
100
AcDbLine
 62
7
  6
CONTINUOUS
 10
87.9716351502
 20
193.1927189996
 11
87.9716351502
 21
190.6927189996
  0
LINE
  5
2C9
100
AcDbEntity
  8
02___PRT_ALL_AXES
100
AcDbLine
 62
7
  6
CONTINUOUS
 10
87.9716351502
 20
188.1927189996
 11
87.9716351502
 21
186.1927830277
  0
LINE
  5
2CA
100
AcDbEntity
  8
7_ALL_FEATURES
100
AcDbLine
 62
7
  6
CONTINUOUS
 10
87.9716351502
 20
205.6927189996
 11
87.9716351502
 21
208.1927189996
  0
LINE
  5
2CB
100
AcDbEntity
  8
7_ALL_FEATURES
100
AcDbLine
 62
7
  6
CONTINUOUS
 10
87.9716351502
 20
210.6927189996
 11
87.9716351502
 21
213.1927189996
  0
LINE
  5
2CC
100
AcDbEntity
  8
7_ALL_FEATURES
100
AcDbLine
 62
7
  6
CONTINUOUS
 10
87.9716351502
 20
215.6927189996
 11
87.9716351502
 21
230.9427189996
  0
LINE
  5
2CD
100
AcDbEntity
  8
7_ALL_FEATURES
100
AcDbLine
 62
7
  6
CONTINUOUS
 10
89.5716351502
 20
215.6927189996
 11
89.5716351502
 21
213.1927189996
  0
LINE
  5
2CE
100
AcDbEntity
  8
7_ALL_FEATURES
100
AcDbLine
 62
7
  6
CONTINUOUS
 10
89.5716351502
 20
210.6927189996
 11
89.5716351502
 21
208.1927189996
  0
LINE
  5
2CF
100
AcDbEntity
  8
7_ALL_FEATURES
100
AcDbLine
 62
7
  6
CONTINUOUS
 10
89.5716351502
 20
205.6927189996
 11
89.5716351502
 21
203.1927189996
  0
LINE
  5
2D0
100
AcDbEntity
  8
3_ALL_AXES
100
AcDbLine
 62
7
  6
CONTINUOUS
 10
109.9716351502
 20
178.9427189996
 11
93.9716351502
 21
178.9427189996
  0
LINE
  5
2D1
100
AcDbEntity
  8
7_ALL_FEATURES
100
AcDbLine
 62
7
  6
CONTINUOUS
 10
92.9716351502
 20
200.6927189996
 11
92.9716351502
 21
198.1927189996
  0
LINE
  5
2D2
100
AcDbEntity
  8
7_ALL_FEATURES
100
AcDbLine
 62
7
  6
CONTINUOUS
 10
92.9716351502
 20
195.6927189996
 11
92.9716351502
 21
193.1927189996
  0
LINE
  5
2D3
100
AcDbEntity
  8
7_ALL_FEATURES
100
AcDbLine
 62
7
  6
CONTINUOUS
 10
92.9716351502
 20
190.6927189996
 11
92.9716351502
 21
188.1927189996
  0
LINE
  5
2D4
100
AcDbEntity
  8
3_ALL_AXES
100
AcDbLine
 62
7
  6
CONTINUOUS
 10
93.9716351502
 20
185.4427189996
 11
93.9716351502
 21
181.9427189996
  0
LINE
  5
2D5
100
AcDbEntity
  8
3_ALL_AXES
100
AcDbLine
 62
7
  6
CONTINUOUS
 10
93.9716351502
 20
178.9427189996
 11
93.9716351502
 21
174.4427189996
  0
LINE
  5
2D6
100
AcDbEntity
  8
3_ALL_AXES
100
AcDbLine
 62
7
  6
CONTINUOUS
 10
94.9716351502
 20
172.9427189996
 11
94.9716351502
 21
173.4427189996
  0
LINE
  5
2D7
100
AcDbEntity
  8
3_ALL_AXES
100
AcDbLine
 62
7
  6
CONTINUOUS
 10
109.9716351502
 20
181.9427189996
 11
93.9716351502
 21
181.9427189996
  0
LINE
  5
2D8
100
AcDbEntity
  8
3_ALL_AXES
100
AcDbLine
 62
7
  6
CONTINUOUS
 10
115.0066694956
 20
182.7427189996
 11
118.9366008047
 21
182.7427189996
  0
LINE
  5
2D9
100
AcDbEntity
  8
3_ALL_AXES
100
AcDbLine
 62
7
  6
CONTINUOUS
 10
113.1716351502
 20
184.5627189996
 11
120.7716351502
 21
184.5627189996
  0
LINE
  5
2DA
100
AcDbEntity
  8
3_ALL_AXES
100
AcDbLine
 62
7
  6
CONTINUOUS
 10
95.4716351502
 20
172.9427189996
 11
95.4716351502
 21
173.4427189996
  0
LINE
  5
2DB
100
AcDbEntity
  8
3_ALL_AXES
100
AcDbLine
 62
7
  6
CONTINUOUS
 10
95.9716351502
 20
181.9427189996
 11
95.9716351502
 21
178.9427189996
  0
LINE
  5
2DC
100
AcDbEntity
  8
3_ALL_AXES
100
AcDbLine
 62
7
  6
CONTINUOUS
 10
96.4716351502
 20
172.9427189996
 11
96.4716351502
 21
173.4427189996
  0
LINE
  5
2DD
100
AcDbEntity
  8
3_ALL_AXES
100
AcDbLine
 62
7
  6
CONTINUOUS
 10
97.9716351502
 20
185.4427189996
 11
97.9716351502
 21
181.9427189996
  0
LINE
  5
2DE
100
AcDbEntity
  8
3_ALL_AXES
100
AcDbLine
 62
7
  6
CONTINUOUS
 10
97.9716351502
 20
178.9427189996
 11
97.9716351502
 21
174.4427189996
  0
LINE
  5
2DF
100
AcDbEntity
  8
7_ALL_FEATURES
100
AcDbLine
 62
3
  6
CONTINUOUS
 10
111.4716351502
 20
184.9427189996
 11
115.5902395879
 21
184.9427189996
  0
LINE
  5
2E0
100
AcDbEntity
  8
3_ALL_AXES
100
AcDbLine
 62
7
  6
CONTINUOUS
 10
115.5902395879
 20
184.9427189996
 11
118.3530307125
 21
184.9427189996
  0
LINE
  5
2E1
100
AcDbEntity
  8
7_ALL_FEATURES
100
AcDbLine
 62
3
  6
CONTINUOUS
 10
118.3530307125
 20
184.9427189996
 11
122.4716351502
 21
184.9427189996
  0
LINE
  5
2E2
100
AcDbEntity
  8
7_ALL_FEATURES
100
AcDbLine
 62
7
  6
CONTINUOUS
 10
145.2215907436
 20
185.4427189996
 11
122.4716351502
 21
185.4427189996
  0
LINE
  5
2E3
100
AcDbEntity
  8
7_ALL_FEATURES
100
AcDbLine
 62
7
  6
CONTINUOUS
 10
111.4716351502
 20
185.4427189996
 11
88.7217048472
 21
185.4427189996
  0
LINE
  5
2E4
100
AcDbEntity
  8
7_ALL_FEATURES
100
AcDbLine
 62
9
  6
CONTINUOUS
 10
111.4716351502
 20
185.534795525
 11
122.4716351502
 21
185.534795525
  0
LINE
  5
2E5
100
AcDbEntity
  8
7_ALL_FEATURES
100
AcDbLine
 62
7
  6
CONTINUOUS
 10
145.9716351502
 20
186.192757572
 11
122.4716351502
 21
186.1927189996
  0
LINE
  5
2E6
100
AcDbEntity
  8
7_ALL_FEATURES
100
AcDbLine
 62
7
  6
CONTINUOUS
 10
111.4716351502
 20
186.1927189996
 11
87.9716351502
 21
186.1927830277
  0
LINE
  5
2E7
100
AcDbEntity
  8
7_ALL_FEATURES
100
AcDbLine
 62
4
  6
CONTINUOUS
 10
113.9716351502
 20
187.3234382792
 11
119.9716351502
 21
187.3234382792
  0
LINE
  5
2E8
100
AcDbEntity
  8
7_ALL_FEATURES
100
AcDbLine
 62
7
  6
CONTINUOUS
 10
119.5983018168
 20
187.9839656796
 11
118.5883018168
 21
187.9839656796
  0
LINE
  5
2E9
100
AcDbEntity
  8
7_ALL_FEATURES
100
AcDbLine
 62
7
  6
CONTINUOUS
 10
115.5983018168
 20
187.9839656796
 11
114.5883018168
 21
187.9839656796
  0
LINE
  5
2EA
100
AcDbEntity
  8
7_ALL_FEATURES
100
AcDbLine
 62
7
  6
CONTINUOUS
 10
87.9716351502
 20
188.1927189996
 11
111.4716351502
 21
188.1927189996
  0
LINE
  5
2EB
100
AcDbEntity
  8
7_ALL_FEATURES
100
AcDbLine
 62
7
  6
CONTINUOUS
 10
122.4716351502
 20
188.1927189996
 11
145.9716351502
 21
188.1927189996
  0
LINE
  5
2EC
100
AcDbEntity
  8
3_ALL_AXES
100
AcDbLine
 62
7
  6
CONTINUOUS
 10
100.9716351502
 20
172.9427189996
 11
100.9716351502
 21
173.4427189996
  0
LINE
  5
2ED
100
AcDbEntity
  8
7_ALL_FEATURES
100
AcDbLine
 62
7
  6
CONTINUOUS
 10
87.9716351502
 20
190.6927189996
 11
111.4716351502
 21
190.6927189996
  0
LINE
  5
2EE
100
AcDbEntity
  8
7_ALL_FEATURES
100
AcDbLine
 62
7
  6
CONTINUOUS
 10
122.4716351502
 20
190.6927189996
 11
145.9716351502
 21
190.6927189996
  0
LINE
  5
2EF
100
AcDbEntity
  8
3_ALL_AXES
100
AcDbLine
 62
7
  6
CONTINUOUS
 10
102.9716351502
 20
172.9427189996
 11
102.9716351502
 21
173.4427189996
  0
LINE
  5
2F0
100
AcDbEntity
  8
3_ALL_AXES
100
AcDbLine
 62
7
  6
CONTINUOUS
 10
105.9716351502
 20
185.4427189996
 11
105.9716351502
 21
181.9427189996
  0
LINE
  5
2F1
100
AcDbEntity
  8
3_ALL_AXES
100
AcDbLine
 62
7
  6
CONTINUOUS
 10
105.9716351502
 20
178.9427189996
 11
105.9716351502
 21
174.4427189996
  0
LINE
  5
2F2
100
AcDbEntity
  8
7_ALL_FEATURES
100
AcDbLine
 62
4
  6
CONTINUOUS
 10
119.9716351502
 20
192.6455032783
 11
113.9716351502
 21
192.6455032783
  0
LINE
  5
2F3
100
AcDbEntity
  8
7_ALL_FEATURES
100
AcDbLine
 62
7
  6
CONTINUOUS
 10
87.9716351502
 20
193.1927189996
 11
111.4716351502
 21
193.1927189996
  0
LINE
  5
2F4
100
AcDbEntity
  8
7_ALL_FEATURES
100
AcDbLine
 62
7
  6
CONTINUOUS
 10
122.4716351502
 20
193.1927189996
 11
145.9716351502
 21
193.1927189996
  0
LINE
  5
2F5
100
AcDbEntity
  8
7_ALL_FEATURES
100
AcDbLine
 62
9
  6
CONTINUOUS
 10
111.4716351502
 20
194.4341460324
 11
122.4716351502
 21
194.4341460324
  0
LINE
  5
2F6
100
AcDbEntity
  8
7_ALL_FEATURES
100
AcDbLine
 62
7
  6
CONTINUOUS
 10
87.9716351502
 20
195.6927189996
 11
111.4716351502
 21
195.6927189996
  0
LINE
  5
2F7
100
AcDbEntity
  8
7_ALL_FEATURES
100
AcDbLine
 62
7
  6
CONTINUOUS
 10
122.4716351502
 20
195.6927189996
 11
145.9716351502
 21
195.6927189996
  0
LINE
  5
2F8
100
AcDbEntity
  8
03___PRT_ALL_CURVES
100
AcDbLine
 62
40
  6
CONTINUOUS
 10
122.4716351502
 20
185.534795525
 11
111.4716351502
 21
194.4341460324
  0
LINE
  5
2F9
100
AcDbEntity
  8
7_ALL_FEATURES
100
AcDbLine
 62
4
  6
CONTINUOUS
 10
117.9898686939
 20
187.8213470269
 11
116.3105429553
 21
189.6471020138
  0
LINE
  5
2FA
100
AcDbEntity
  8
3_ALL_AXES
100
AcDbLine
 62
7
  6
CONTINUOUS
 10
107.4716351502
 20
172.9427189996
 11
107.4716351502
 21
173.4427189996
  0
LINE
  5
2FB
100
AcDbEntity
  8
7_ALL_FEATURES
100
AcDbLine
 62
7
  6
CONTINUOUS
 10
107.767288351
 20
232.4427189996
 11
107.767288351
 21
239.9427189996
  0
LINE
  5
2FC
100
AcDbEntity
  8
3_ALL_AXES
100
AcDbLine
 62
7
  6
CONTINUOUS
 10
107.9716351502
 20
181.9427189996
 11
107.9716351502
 21
178.9427189996
  0
LINE
  5
2FD
100
AcDbEntity
  8
3_ALL_AXES
100
AcDbLine
 62
7
  6
CONTINUOUS
 10
108.4716351502
 20
172.9427189996
 11
108.4716351502
 21
173.4427189996
  0
LINE
  5
2FE
100
AcDbEntity
  8
3_ALL_AXES
100
AcDbLine
 62
7
  6
CONTINUOUS
 10
108.9716351502
 20
172.9427189996
 11
108.9716351502
 21
173.4427189996
  0
LINE
  5
2FF
100
AcDbEntity
  8
7_ALL_FEATURES
100
AcDbLine
 62
7
  6
CONTINUOUS
 10
109.8996835277
 20
203.1927189996
 11
109.8996835277
 21
200.6927189996
  0
LINE
  5
300
100
AcDbEntity
  8
7_ALL_FEATURES
100
AcDbLine
 62
7
  6
CONTINUOUS
 10
109.8996835277
 20
198.1927189996
 11
109.8996835277
 21
195.6927189996
  0
LINE
  5
301
100
AcDbEntity
  8
7_ALL_FEATURES
100
AcDbLine
 62
7
  6
CONTINUOUS
 10
109.8996835277
 20
193.1927189996
 11
109.8996835277
 21
190.6927189996
  0
LINE
  5
302
100
AcDbEntity
  8
7_ALL_FEATURES
100
AcDbLine
 62
7
  6
CONTINUOUS
 10
109.8996835277
 20
188.1927189996
 11
109.8996835277
 21
186.1927189996
  0
LINE
  5
303
100
AcDbEntity
  8
3_ALL_AXES
100
AcDbLine
 62
7
  6
CONTINUOUS
 10
109.9716351502
 20
185.4427189996
 11
109.9716351502
 21
181.9427189996
  0
LINE
  5
304
100
AcDbEntity
  8
3_ALL_AXES
100
AcDbLine
 62
7
  6
CONTINUOUS
 10
109.9716351502
 20
178.9427189996
 11
109.9716351502
 21
174.4427189996
  0
LINE
  5
305
100
AcDbEntity
  8
7_ALL_FEATURES
100
AcDbLine
 62
7
  6
CONTINUOUS
 10
87.9716351502
 20
198.1927189996
 11
111.4716351502
 21
198.1927189996
  0
LINE
  5
306
100
AcDbEntity
  8
7_ALL_FEATURES
100
AcDbLine
 62
7
  6
CONTINUOUS
 10
122.4716351502
 20
198.1927189996
 11
145.9716351502
 21
198.1927189996
  0
LINE
  5
307
100
AcDbEntity
  8
7_ALL_FEATURES
100
AcDbLine
 62
7
  6
CONTINUOUS
 10
81.5716324742
 20
231.9427189996
 11
81.0716351502
 21
232.4427162871
  0
LINE
  5
308
100
AcDbEntity
  8
7_ALL_FEATURES
100
AcDbLine
 62
3
  6
CONTINUOUS
 10
111.4716351502
 20
199.2416919385
 11
111.4716351502
 21
184.9427189996
  0
LINE
  5
309
100
AcDbEntity
  8
3_ALL_AXES
100
AcDbLine
 62
7
  6
CONTINUOUS
 10
113.1716351502
 20
184.9427189996
 11
113.1716351502
 21
184.5627189996
  0
LINE
  5
30A
100
AcDbEntity
  8
7_ALL_FEATURES
100
AcDbLine
 62
9
  6
CONTINUOUS
 10
112.0711716633
 20
199.6939953073
 11
121.872098637
 21
199.6939953073
  0
LINE
  5
30B
100
AcDbEntity
  8
7_ALL_FEATURES
100
AcDbLine
 62
3
  6
CONTINUOUS
 10
120.4716351502
 20
200.6842725357
 11
113.4716351502
 21
200.6842725357
  0
LINE
  5
30C
100
AcDbEntity
  8
7_ALL_FEATURES
100
AcDbLine
 62
7
  6
CONTINUOUS
 10
87.9716351502
 20
200.6927189996
 11
145.9716351502
 21
200.6927189996
  0
LINE
  5
30D
100
AcDbEntity
  8
7_ALL_FEATURES
100
AcDbLine
 62
7
  6
CONTINUOUS
 10
87.9716351502
 20
203.1927189996
 11
145.9716351502
 21
203.1927189996
  0
LINE
  5
30E
100
AcDbEntity
  8
7_ALL_FEATURES
100
AcDbLine
 62
7
  6
CONTINUOUS
 10
83.9716351503
 20
231.9427189995
 11
84.4716351503
 21
231.4427189995
  0
LINE
  5
30F
100
AcDbEntity
  8
7_ALL_FEATURES
100
AcDbLine
 62
7
  6
CONTINUOUS
 10
87.4716351505
 20
231.4427189993
 11
87.9716351505
 21
230.9427189993
  0
LINE
  5
310
100
AcDbEntity
  8
7_ALL_FEATURES
100
AcDbLine
 62
4
  6
CONTINUOUS
 10
113.9716351502
 20
192.6455032783
 11
113.9716351502
 21
187.3234382792
  0
LINE
  5
311
100
AcDbEntity
  8
7_ALL_FEATURES
100
AcDbLine
 62
7
  6
CONTINUOUS
 10
114.5883018168
 20
190.2931505487
 11
114.5883018168
 21
187.9839656796
  0
LINE
  5
312
100
AcDbEntity
  8
7_ALL_FEATURES
100
AcDbLine
 62
7
  6
CONTINUOUS
 10
145.9716351502
 20
205.6927189996
 11
87.9716351502
 21
205.6927189996
  0
LINE
  5
313
100
AcDbEntity
  8
7_ALL_FEATURES
100
AcDbLine
 62
3
  6
CONTINUOUS
 10
121.872098637
 20
199.6939953073
 11
120.4716351502
 21
200.6842725357
  0
LINE
  5
314
100
AcDbEntity
  8
7_ALL_FEATURES
100
AcDbLine
 62
7
  6
CONTINUOUS
 10
118.5883018168
 20
190.2931505487
 11
118.5883018168
 21
187.9839656796
  0
LINE
  5
315
100
AcDbEntity
  8
7_ALL_FEATURES
100
AcDbLine
 62
4
  6
CONTINUOUS
 10
119.9716351502
 20
187.3234382792
 11
119.9716351502
 21
192.6455032783
  0
LINE
  5
316
100
AcDbEntity
  8
3_ALL_AXES
100
AcDbLine
 62
7
  6
CONTINUOUS
 10
120.7716351502
 20
184.9427189996
 11
120.7716351502
 21
184.5627189996
  0
LINE
  5
317
100
AcDbEntity
  8
7_ALL_FEATURES
100
AcDbLine
 62
7
  6
CONTINUOUS
 10
146.4716351502
 20
231.4427189996
 11
145.9716351502
 21
230.9427189996
  0
LINE
  5
318
100
AcDbEntity
  8
7_ALL_FEATURES
100
AcDbLine
 62
3
  6
CONTINUOUS
 10
113.4716351502
 20
200.6842725357
 11
112.0711716633
 21
199.6939953073
  0
LINE
  5
319
100
AcDbEntity
  8
7_ALL_FEATURES
100
AcDbLine
 62
7
  6
CONTINUOUS
 10
145.9716351502
 20
208.1927189996
 11
87.9716351502
 21
208.1927189996
  0
LINE
  5
31A
100
AcDbEntity
  8
7_ALL_FEATURES
100
AcDbLine
 62
7
  6
CONTINUOUS
 10
145.9716351502
 20
210.6927189996
 11
87.9716351502
 21
210.6927189996
  0
LINE
  5
31B
100
AcDbEntity
  8
7_ALL_FEATURES
100
AcDbLine
 62
3
  6
CONTINUOUS
 10
122.4716351502
 20
184.9427189996
 11
122.4716351502
 21
199.2416919385
  0
LINE
  5
31C
100
AcDbEntity
  8
7_ALL_FEATURES
100
AcDbLine
 62
7
  6
CONTINUOUS
 10
124.0435867726
 20
203.1927189996
 11
124.0435867726
 21
200.6927189996
  0
LINE
  5
31D
100
AcDbEntity
  8
7_ALL_FEATURES
100
AcDbLine
 62
7
  6
CONTINUOUS
 10
124.0435867726
 20
198.1927189996
 11
124.0435867726
 21
195.6927189996
  0
LINE
  5
31E
100
AcDbEntity
  8
7_ALL_FEATURES
100
AcDbLine
 62
7
  6
CONTINUOUS
 10
124.0435867726
 20
193.1927189996
 11
124.0435867726
 21
190.6927189996
  0
LINE
  5
31F
100
AcDbEntity
  8
7_ALL_FEATURES
100
AcDbLine
 62
7
  6
CONTINUOUS
 10
124.0435867726
 20
188.1927189996
 11
124.0435867726
 21
186.1927189996
  0
LINE
  5
320
100
AcDbEntity
  8
7_ALL_FEATURES
100
AcDbLine
 62
7
  6
CONTINUOUS
 10
149.97163515
 20
231.9427189995
 11
149.47163515
 21
231.4427189995
  0
LINE
  5
321
100
AcDbEntity
  8
7_ALL_FEATURES
100
AcDbLine
 62
7
  6
CONTINUOUS
 10
152.3716313698
 20
231.9427189996
 11
152.8716351502
 21
232.4427227506
  0
LINE
  5
322
100
AcDbEntity
  8
7_ALL_FEATURES
100
AcDbLine
 62
7
  6
CONTINUOUS
 10
145.9716351502
 20
213.1927189996
 11
87.9716351502
 21
213.1927189996
  0
LINE
  5
323
100
AcDbEntity
  8
7_ALL_FEATURES
100
AcDbLine
 62
7
  6
CONTINUOUS
 10
126.1759819494
 20
232.4427189996
 11
126.1759819494
 21
239.9427189996
  0
LINE
  5
324
100
AcDbEntity
  8
7_ALL_FEATURES
100
AcDbLine
 62
7
  6
CONTINUOUS
 10
145.9716351502
 20
215.6927189996
 11
87.9716351502
 21
215.6927189996
  0
LINE
  5
325
100
AcDbEntity
  8
7_ALL_FEATURES
100
AcDbLine
 62
4
  6
CONTINUOUS
 10
117.3843318447
 20
188.2876020656
 11
117.8782341559
 21
188.8005473975
  0
LINE
  5
326
100
AcDbEntity
  8
7_ALL_FEATURES
100
AcDbLine
 62
4
  6
CONTINUOUS
 10
116.1885005334
 20
188.9326056859
 11
117.0941967963
 21
189.588045581
  0
LINE
  5
327
100
AcDbEntity
  8
3_ALL_AXES
100
AcDbLine
 62
7
  6
CONTINUOUS
 10
108.9716351502
 20
173.4427189996
 11
109.9716351502
 21
174.4427189996
  0
LINE
  5
328
100
AcDbEntity
  8
7_ALL_FEATURES
100
AcDbLine
 62
7
  6
CONTINUOUS
 10
140.9716351502
 20
200.6927189996
 11
140.9716351502
 21
198.1927189996
  0
LINE
  5
329
100
AcDbEntity
  8
7_ALL_FEATURES
100
AcDbLine
 62
7
  6
CONTINUOUS
 10
140.9716351502
 20
195.6927189996
 11
140.9716351502
 21
193.1927189996
  0
LINE
  5
32A
100
AcDbEntity
  8
7_ALL_FEATURES
100
AcDbLine
 62
7
  6
CONTINUOUS
 10
140.9716351502
 20
190.6927189996
 11
140.9716351502
 21
188.1927189996
  0
LINE
  5
32B
100
AcDbEntity
  8
7_ALL_FEATURES
100
AcDbLine
 62
7
  6
CONTINUOUS
 10
145.9716351502
 20
230.9427189996
 11
87.9716351502
 21
230.9427189996
  0
LINE
  5
32C
100
AcDbEntity
  8
7_ALL_FEATURES
100
AcDbLine
 62
7
  6
CONTINUOUS
 10
84.4716351502
 20
231.4427189996
 11
149.4716351502
 21
231.4427189996
  0
LINE
  5
32D
100
AcDbEntity
  8
7_ALL_FEATURES
100
AcDbLine
 62
7
  6
CONTINUOUS
 10
152.3713320565
 20
231.9427189996
 11
81.5719317909
 21
231.9427189996
  0
LINE
  5
32E
100
AcDbEntity
  8
7_ALL_FEATURES
100
AcDbLine
 62
7
  6
CONTINUOUS
 10
81.0716351502
 20
232.442716287
 11
152.8716351502
 21
232.4427227506
  0
LINE
  5
32F
100
AcDbEntity
  8
7_ALL_FEATURES
100
AcDbLine
 62
7
  6
CONTINUOUS
 10
144.3716351502
 20
215.6927189996
 11
144.3716351502
 21
213.1927189996
  0
LINE
  5
330
100
AcDbEntity
  8
7_ALL_FEATURES
100
AcDbLine
 62
7
  6
CONTINUOUS
 10
144.3716351502
 20
210.6927189996
 11
144.3716351502
 21
208.1927189996
  0
LINE
  5
331
100
AcDbEntity
  8
7_ALL_FEATURES
100
AcDbLine
 62
7
  6
CONTINUOUS
 10
144.3716351502
 20
205.6927189996
 11
144.3716351502
 21
203.1927189996
  0
LINE
  5
332
100
AcDbEntity
  8
02___PRT_ALL_AXES
100
AcDbLine
 62
7
  6
CONTINUOUS
 10
145.9716351502
 20
203.1927189996
 11
145.9716351502
 21
200.6927189996
  0
LINE
  5
333
100
AcDbEntity
  8
02___PRT_ALL_AXES
100
AcDbLine
 62
7
  6
CONTINUOUS
 10
145.9716351502
 20
198.1927189996
 11
145.9716351502
 21
195.6927189996
  0
LINE
  5
334
100
AcDbEntity
  8
02___PRT_ALL_AXES
100
AcDbLine
 62
7
  6
CONTINUOUS
 10
145.9716351502
 20
193.1927189996
 11
145.9716351502
 21
190.6927189996
  0
LINE
  5
335
100
AcDbEntity
  8
02___PRT_ALL_AXES
100
AcDbLine
 62
7
  6
CONTINUOUS
 10
145.9716351502
 20
188.1927189996
 11
145.9716351502
 21
186.192757572
  0
LINE
  5
336
100
AcDbEntity
  8
7_ALL_FEATURES
100
AcDbLine
 62
7
  6
CONTINUOUS
 10
145.9716351502
 20
205.6927189996
 11
145.9716351502
 21
208.1927189996
  0
LINE
  5
337
100
AcDbEntity
  8
7_ALL_FEATURES
100
AcDbLine
 62
7
  6
CONTINUOUS
 10
145.9716351502
 20
210.6927189996
 11
145.9716351502
 21
213.1927189996
  0
LINE
  5
338
100
AcDbEntity
  8
7_ALL_FEATURES
100
AcDbLine
 62
7
  6
CONTINUOUS
 10
145.9716351502
 20
215.6927189996
 11
145.9716351502
 21
230.9427189996
  0
LINE
  5
339
100
AcDbEntity
  8
7_ALL_FEATURES
100
AcDbLine
 62
7
  6
CONTINUOUS
 10
107.767288351
 20
239.9427189996
 11
126.1759819494
 21
239.9427189996
  0
LINE
  5
33A
100
AcDbEntity
  8
02___PRT_ALL_AXES
100
AcDbLine
 62
7
  6
CONTINUOUS
 10
152.8716351502
 20
232.4427227506
 11
152.8716351502
 21
241.6427189996
  0
LINE
  5
33B
100
AcDbEntity
  8
7_ALL_FEATURES
100
AcDbLine
 62
7
  6
CONTINUOUS
 10
145.2215908021
 20
185.4427189996
 11
145.9716351502
 21
186.192757572
  0
LINE
  5
33C
100
AcDbEntity
  8
7_ALL_FEATURES
100
AcDbLine
 62
9
  6
CONTINUOUS
 10
81.0716351502
 20
241.6427189996
 11
152.8716351502
 21
241.6427189996
  0
LINE
  5
33D
100
AcDbEntity
  8
02___PRT_ALL_AXES
100
AcDbLine
 62
7
  6
CONTINUOUS
 10
75.0716988533
 20
241.9427189996
 11
158.871571447
 21
241.9427189996
  0
LINE
  5
33E
100
AcDbEntity
  8
7_ALL_FEATURES
100
AcDbLine
 62
7
  6
CONTINUOUS
 10
158.8716351502
 20
242.9427189996
 11
75.0716351502
 21
242.9427189996
  0
LINE
  5
33F
100
AcDbEntity
  8
7_ALL_FEATURES
100
AcDbLine
 62
7
  6
CONTINUOUS
 10
146.6156229851
 20
243.8427189996
 11
87.3276473152
 21
243.8427189996
  0
LINE
  5
340
100
AcDbEntity
  8
7_ALL_FEATURES
100
AcDbLine
 62
7
  6
CONTINUOUS
 10
87.3273031582
 20
243.8427189996
 11
75.0716351502
 21
242.9427189996
  0
LINE
  5
341
100
AcDbEntity
  8
7_ALL_FEATURES
100
AcDbLine
 62
7
  6
CONTINUOUS
 10
146.6159671421
 20
243.8427189996
 11
158.8716351502
 21
242.9427189996
  0
LINE
  5
342
100
AcDbEntity
  8
02___PRT_ALL_AXES
100
AcDbLine
 62
7
  6
CONTINUOUS
 10
158.8716351502
 20
241.9427189996
 11
158.8716351502
 21
242.9427189996
  0
LINE
  5
343
100
AcDbEntity
  8
7_ALL_FEATURES
100
AcDbLine
 62
7
  6
CONTINUOUS
 10
220.9211902113
 20
242.9427189996
 11
220.9211902113
 21
241.9427189996
  0
LINE
  5
344
100
AcDbEntity
  8
3_ALL_AXES
100
AcDbLine
 62
7
  6
CONTINUOUS
 10
262.8211902113
 20
169.4427189996
 11
266.3211902113
 21
169.4427189996
  0
LINE
  5
345
100
AcDbEntity
  8
7_ALL_FEATURES
100
AcDbLine
 62
7
  6
CONTINUOUS
 10
259.3211902113
 20
169.4427189996
 11
266.3211902113
 21
169.4427189996
  0
LINE
  5
346
100
AcDbEntity
  8
7_ALL_FEATURES
100
AcDbLine
 62
7
  6
CONTINUOUS
 10
226.9211902113
 20
241.6427189996
 11
226.9211902113
 21
239.9427189996
  0
LINE
  5
347
100
AcDbEntity
  8
7_ALL_FEATURES
100
AcDbLine
 62
7
  6
CONTINUOUS
 10
228.1211902113
 20
232.4427189996
 11
228.1211902113
 21
239.9427189996
  0
LINE
  5
348
100
AcDbEntity
  8
3_ALL_AXES
100
AcDbLine
 62
9
  6
CONTINUOUS
 10
269.7493934416
 20
172.9427189996
 11
267.1513172303
 21
172.9427189996
  0
LINE
  5
349
100
AcDbEntity
  8
3_ALL_AXES
100
AcDbLine
 62
9
  6
CONTINUOUS
 10
255.8929869811
 20
172.9427189996
 11
258.4910631924
 21
172.9427189996
  0
LINE
  5
34A
100
AcDbEntity
  8
3_ALL_AXES
100
AcDbLine
 62
9
  6
CONTINUOUS
 10
260.223114
 20
172.9427189996
 11
265.4192664227
 21
172.9427189996
  0
LINE
  5
34B
100
AcDbEntity
  8
3_ALL_AXES
100
AcDbLine
 62
7
  6
CONTINUOUS
 10
269.7493934416
 20
173.4427189996
 11
267.1513172303
 21
173.4427189996
  0
LINE
  5
34C
100
AcDbEntity
  8
3_ALL_AXES
100
AcDbLine
 62
7
  6
CONTINUOUS
 10
255.8929869811
 20
173.4427189996
 11
258.4910631924
 21
173.4427189996
  0
LINE
  5
34D
100
AcDbEntity
  8
3_ALL_AXES
100
AcDbLine
 62
7
  6
CONTINUOUS
 10
260.223114
 20
173.4427189996
 11
265.4192664227
 21
173.4427189996
  0
LINE
  5
34E
100
AcDbEntity
  8
7_ALL_FEATURES
100
AcDbLine
 62
7
  6
CONTINUOUS
 10
235.4466902113
 20
185.4427189996
 11
234.6966902113
 21
186.1927189996
  0
LINE
  5
34F
100
AcDbEntity
  8
7_ALL_FEATURES
100
AcDbLine
 62
3
  6
CONTINUOUS
 10
234.3129746808
 20
185.534795525
 11
229.6802660353
 21
194.4341460324
  0
LINE
  5
350
100
AcDbEntity
  8
7_ALL_FEATURES
100
AcDbLine
 62
7
  6
CONTINUOUS
 10
234.7564800974
 20
185.7656698316
 11
230.1237714519
 21
194.665020339
  0
LINE
  5
351
100
AcDbEntity
  8
02___PRT_ALL_AXES
100
AcDbLine
 62
7
  6
CONTINUOUS
 10
233.8211902113
 20
230.9427189996
 11
233.8211902113
 21
215.6927189996
  0
LINE
  5
352
100
AcDbEntity
  8
02___PRT_ALL_AXES
100
AcDbLine
 62
7
  6
CONTINUOUS
 10
233.8211902113
 20
213.1927189996
 11
233.8211902113
 21
210.6927189996
  0
LINE
  5
353
100
AcDbEntity
  8
02___PRT_ALL_AXES
100
AcDbLine
 62
7
  6
CONTINUOUS
 10
233.8211902113
 20
208.1927189996
 11
233.8211902113
 21
205.6927189996
  0
LINE
  5
354
100
AcDbEntity
  8
7_ALL_FEATURES
100
AcDbLine
 62
7
  6
CONTINUOUS
 10
234.6966902113
 20
203.1927189996
 11
234.6966902113
 21
200.6927189996
  0
LINE
  5
355
100
AcDbEntity
  8
7_ALL_FEATURES
100
AcDbLine
 62
7
  6
CONTINUOUS
 10
234.6966902113
 20
198.1927189996
 11
234.6966902113
 21
195.6927189996
  0
LINE
  5
356
100
AcDbEntity
  8
7_ALL_FEATURES
100
AcDbLine
 62
7
  6
CONTINUOUS
 10
234.6966902113
 20
193.1927189996
 11
234.6966902113
 21
190.6927189996
  0
LINE
  5
357
100
AcDbEntity
  8
7_ALL_FEATURES
100
AcDbLine
 62
7
  6
CONTINUOUS
 10
234.6966902113
 20
188.1927189996
 11
234.6966902113
 21
186.1927189996
  0
LINE
  5
358
100
AcDbEntity
  8
3_ALL_AXES
100
AcDbLine
 62
7
  6
CONTINUOUS
 10
235.0211902113
 20
184.5627189996
 11
235.0211902113
 21
184.9427189996
  0
LINE
  5
359
100
AcDbEntity
  8
7_ALL_FEATURES
100
AcDbLine
 62
9
  6
CONTINUOUS
 10
235.2886865973
 20
184.9427189996
 11
235.2886865973
 21
185.4427189996
  0
LINE
  5
35A
100
AcDbEntity
  8
7_ALL_FEATURES
100
AcDbLine
 62
7
  6
CONTINUOUS
 10
235.4211902113
 20
215.6927189996
 11
235.4211902113
 21
213.1927189996
  0
LINE
  5
35B
100
AcDbEntity
  8
7_ALL_FEATURES
100
AcDbLine
 62
7
  6
CONTINUOUS
 10
235.4211902113
 20
210.6927189996
 11
235.4211902113
 21
208.1927189996
  0
LINE
  5
35C
100
AcDbEntity
  8
7_ALL_FEATURES
100
AcDbLine
 62
7
  6
CONTINUOUS
 10
235.4211902113
 20
205.6927189996
 11
235.4211902113
 21
203.1927189996
  0
LINE
  5
35D
100
AcDbEntity
  8
7_ALL_FEATURES
100
AcDbLine
 62
7
  6
CONTINUOUS
 10
236.8211902113
 20
188.1927189996
 11
236.8211902113
 21
190.4427189996
  0
LINE
  5
35E
100
AcDbEntity
  8
3_ALL_AXES
100
AcDbLine
 62
7
  6
CONTINUOUS
 10
269.7493934416
 20
178.9427189996
 11
255.8929869811
 21
178.9427189996
  0
LINE
  5
35F
100
AcDbEntity
  8
7_ALL_FEATURES
100
AcDbLine
 62
7
  6
CONTINUOUS
 10
230.4514024567
 20
198.8845544519
 11
230.0942649701
 21
199.2416919385
  0
LINE
  5
360
100
AcDbEntity
  8
7_ALL_FEATURES
100
AcDbLine
 62
7
  6
CONTINUOUS
 10
231.8336648882
 20
200.3307191451
 11
231.4801114976
 21
200.6842725357
  0
LINE
  5
361
100
AcDbEntity
  8
7_ALL_FEATURES
100
AcDbLine
 62
7
  6
CONTINUOUS
 10
238.8211902113
 20
200.6927189996
 11
238.8211902113
 21
198.1927189996
  0
LINE
  5
362
100
AcDbEntity
  8
7_ALL_FEATURES
100
AcDbLine
 62
7
  6
CONTINUOUS
 10
238.8211902113
 20
195.6927189996
 11
238.8211902113
 21
193.1927189996
  0
LINE
  5
363
100
AcDbEntity
  8
0
100
AcDbLine
 62
2
  6
CONTINUOUS
 10
238.9045235447
 20
190.6927189996
 11
238.9045235447
 21
188.1927189996
  0
LINE
  5
364
100
AcDbEntity
  8
3_ALL_AXES
100
AcDbLine
 62
7
  6
CONTINUOUS
 10
269.7493934416
 20
181.9427189996
 11
255.8929869811
 21
181.9427189996
  0
LINE
  5
365
100
AcDbEntity
  8
3_ALL_AXES
100
AcDbLine
 62
7
  6
CONTINUOUS
 10
288.7861902113
 20
182.7427189996
 11
284.8561902113
 21
182.7427189996
  0
LINE
  5
366
100
AcDbEntity
  8
3_ALL_AXES
100
AcDbLine
 62
7
  6
CONTINUOUS
 10
240.7861902113
 20
182.7427189996
 11
236.8561902113
 21
182.7427189996
  0
LINE
  5
367
100
AcDbEntity
  8
3_ALL_AXES
100
AcDbLine
 62
7
  6
CONTINUOUS
 10
290.6211902113
 20
184.5627189996
 11
283.0211902113
 21
184.5627189996
  0
LINE
  5
368
100
AcDbEntity
  8
3_ALL_AXES
100
AcDbLine
 62
7
  6
CONTINUOUS
 10
242.6211902113
 20
184.5627189996
 11
235.0211902113
 21
184.5627189996
  0
LINE
  5
369
100
AcDbEntity
  8
3_ALL_AXES
100
AcDbLine
 62
7
  6
CONTINUOUS
 10
242.6211902113
 20
184.5627189996
 11
242.6211902113
 21
184.9427189996
  0
LINE
  5
36A
100
AcDbEntity
  8
7_ALL_FEATURES
100
AcDbLine
 62
7
  6
CONTINUOUS
 10
242.6211902113
 20
184.9427189996
 11
242.6211902113
 21
185.4427189996
  0
LINE
  5
36B
100
AcDbEntity
  8
3_ALL_AXES
100
AcDbLine
 62
7
  6
CONTINUOUS
 10
290.6211902113
 20
184.9427189996
 11
290.3536938254
 21
184.9427189996
  0
LINE
  5
36C
100
AcDbEntity
  8
7_ALL_FEATURES
100
AcDbLine
 62
3
  6
CONTINUOUS
 10
290.3536938254
 20
184.9427189996
 11
283.0211902113
 21
184.9427189996
  0
LINE
  5
36D
100
AcDbEntity
  8
7_ALL_FEATURES
100
AcDbLine
 62
3
  6
CONTINUOUS
 10
242.6211902113
 20
184.9427189996
 11
235.2886865973
 21
184.9427189996
  0
LINE
  5
36E
100
AcDbEntity
  8
3_ALL_AXES
100
AcDbLine
 62
7
  6
CONTINUOUS
 10
235.2886865973
 20
184.9427189996
 11
235.0211902113
 21
184.9427189996
  0
LINE
  5
36F
100
AcDbEntity
  8
7_ALL_FEATURES
100
AcDbLine
 62
7
  6
CONTINUOUS
 10
290.3536938254
 20
185.4427189996
 11
235.2886865973
 21
185.4427189996
  0
LINE
  5
370
100
AcDbEntity
  8
7_ALL_FEATURES
100
AcDbLine
 62
7
  6
CONTINUOUS
 10
234.6966902113
 20
186.1927189996
 11
290.9456902113
 21
186.1927189996
  0
LINE
  5
371
100
AcDbEntity
  8
7_ALL_FEATURES
100
AcDbLine
 62
7
  6
CONTINUOUS
 10
234.6966902113
 20
188.1927189996
 11
290.9456902113
 21
188.1927189996
  0
LINE
  5
372
100
AcDbEntity
  8
7_ALL_FEATURES
100
AcDbLine
 62
3
  6
CONTINUOUS
 10
230.4898342693
 20
199.6939953073
 11
231.4801114976
 21
200.6842725357
  0
LINE
  5
373
100
AcDbEntity
  8
7_ALL_FEATURES
100
AcDbLine
 62
7
  6
CONTINUOUS
 10
231.8336648882
 20
200.3307191451
 11
230.8433876599
 21
199.3404419167
  0
LINE
  5
374
100
AcDbEntity
  8
7_ALL_FEATURES
100
AcDbLine
 62
7
  6
CONTINUOUS
 10
288.8211902113
 20
190.4427189996
 11
286.7644714613
 21
190.4427189996
  0
LINE
  5
375
100
AcDbEntity
  8
7_ALL_FEATURES
100
AcDbLine
 62
7
  6
CONTINUOUS
 10
238.8779089613
 20
190.4427189996
 11
236.8211902113
 21
190.4427189996
  0
LINE
  5
376
100
AcDbEntity
  8
7_ALL_FEATURES
100
AcDbLine
 62
7
  6
CONTINUOUS
 10
290.9456902113
 20
190.6927189996
 11
234.6966902113
 21
190.6927189996
  0
LINE
  5
377
100
AcDbEntity
  8
7_ALL_FEATURES
100
AcDbLine
 62
7
  6
CONTINUOUS
 10
234.6966902113
 20
193.1927189996
 11
290.9456902113
 21
193.1927189996
  0
LINE
  5
378
100
AcDbEntity
  8
7_ALL_FEATURES
100
AcDbLine
 62
7
  6
CONTINUOUS
 10
290.9456902113
 20
195.6927189996
 11
234.6966902113
 21
195.6927189996
  0
LINE
  5
379
100
AcDbEntity
  8
7_ALL_FEATURES
100
AcDbLine
 62
7
  6
CONTINUOUS
 10
234.6966902113
 20
198.1927189996
 11
290.9456902113
 21
198.1927189996
  0
LINE
  5
37A
100
AcDbEntity
  8
3_ALL_AXES
100
AcDbLine
 62
7
  6
CONTINUOUS
 10
255.8929869811
 20
185.4427189996
 11
255.8929869811
 21
181.9427189996
  0
LINE
  5
37B
100
AcDbEntity
  8
3_ALL_AXES
100
AcDbLine
 62
7
  6
CONTINUOUS
 10
255.8929869811
 20
172.2375577206
 11
255.8929869811
 21
178.9427189996
  0
LINE
  5
37C
100
AcDbEntity
  8
3_ALL_AXES
100
AcDbLine
 62
7
  6
CONTINUOUS
 10
256.8211902113
 20
178.9427189996
 11
256.8211902113
 21
181.9427189996
  0
LINE
  5
37D
100
AcDbEntity
  8
3_ALL_AXES
100
AcDbLine
 62
7
  6
CONTINUOUS
 10
258.4910631924
 20
172.9427189996
 11
258.4910631924
 21
173.4427189996
  0
LINE
  5
37E
100
AcDbEntity
  8
7_ALL_FEATURES
100
AcDbLine
 62
7
  6
CONTINUOUS
 10
237.0711902113
 20
190.6927189996
 11
236.8211902113
 21
190.4427189996
  0
LINE
  5
37F
100
AcDbEntity
  8
7_ALL_FEATURES
100
AcDbLine
 62
9
  6
CONTINUOUS
 10
229.6802660353
 20
194.4341460324
 11
230.1237714519
 21
194.665020339
  0
LINE
  5
380
100
AcDbEntity
  8
7_ALL_FEATURES
100
AcDbLine
 62
7
  6
CONTINUOUS
 10
290.9456902113
 20
200.6927189996
 11
234.6966902113
 21
200.6927189996
  0
LINE
  5
381
100
AcDbEntity
  8
7_ALL_FEATURES
100
AcDbLine
 62
7
  6
CONTINUOUS
 10
234.6966902113
 20
203.1927189996
 11
290.9456902113
 21
203.1927189996
  0
LINE
  5
382
100
AcDbEntity
  8
7_ALL_FEATURES
100
AcDbLine
 62
9
  6
CONTINUOUS
 10
291.3294057419
 20
185.534795525
 11
290.8859003253
 21
185.7656698316
  0
LINE
  5
383
100
AcDbEntity
  8
7_ALL_FEATURES
100
AcDbLine
 62
7
  6
CONTINUOUS
 10
228.6211902113
 20
231.9427189996
 11
228.1211902113
 21
232.4427189996
  0
LINE
  5
384
100
AcDbEntity
  8
7_ALL_FEATURES
100
AcDbLine
 62
7
  6
CONTINUOUS
 10
230.3211902113
 20
231.4427189996
 11
229.8211902113
 21
231.9427189996
  0
LINE
  5
385
100
AcDbEntity
  8
7_ALL_FEATURES
100
AcDbLine
 62
7
  6
CONTINUOUS
 10
233.8211902113
 20
230.9427189996
 11
233.3211902113
 21
231.4427189996
  0
LINE
  5
386
100
AcDbEntity
  8
3_ALL_AXES
100
AcDbLine
 62
7
  6
CONTINUOUS
 10
260.223114
 20
172.9427189996
 11
260.223114
 21
173.4427189996
  0
LINE
  5
387
100
AcDbEntity
  8
3_ALL_AXES
100
AcDbLine
 62
7
  6
CONTINUOUS
 10
262.8211902113
 20
185.4427189996
 11
262.8211902113
 21
181.9427189996
  0
LINE
  5
388
100
AcDbEntity
  8
3_ALL_AXES
100
AcDbLine
 62
7
  6
CONTINUOUS
 10
262.8211902113
 20
178.9427189996
 11
262.8211902113
 21
174.4427189996
  0
LINE
  5
389
100
AcDbEntity
  8
7_ALL_FEATURES
100
AcDbLine
 62
7
  6
CONTINUOUS
 10
291.8211902113
 20
205.6927189996
 11
233.8211902113
 21
205.6927189996
  0
LINE
  5
38A
100
AcDbEntity
  8
3_ALL_AXES
100
AcDbLine
 62
7
  6
CONTINUOUS
 10
265.4192664227
 20
172.9427189996
 11
265.4192664227
 21
173.4427189996
  0
LINE
  5
38B
100
AcDbEntity
  8
7_ALL_FEATURES
100
AcDbLine
 62
7
  6
CONTINUOUS
 10
291.8211902113
 20
230.9427189996
 11
292.3211902113
 21
231.4427189996
  0
LINE
  5
38C
100
AcDbEntity
  8
7_ALL_FEATURES
100
AcDbLine
 62
7
  6
CONTINUOUS
 10
291.8211902113
 20
208.1927189996
 11
233.8211902113
 21
208.1927189996
  0
LINE
  5
38D
100
AcDbEntity
  8
7_ALL_FEATURES
100
AcDbLine
 62
7
  6
CONTINUOUS
 10
291.8211902113
 20
210.6927189996
 11
233.8211902113
 21
210.6927189996
  0
LINE
  5
38E
100
AcDbEntity
  8
3_ALL_AXES
100
AcDbLine
 62
7
  6
CONTINUOUS
 10
267.1513172303
 20
172.9427189996
 11
267.1513172303
 21
173.4427189996
  0
LINE
  5
38F
100
AcDbEntity
  8
3_ALL_AXES
100
AcDbLine
 62
7
  6
CONTINUOUS
 10
268.8211902113
 20
178.9427189996
 11
268.8211902113
 21
181.9427189996
  0
LINE
  5
390
100
AcDbEntity
  8
3_ALL_AXES
100
AcDbLine
 62
7
  6
CONTINUOUS
 10
269.7493934416
 20
185.4427189996
 11
269.7493934416
 21
181.9427189996
  0
LINE
  5
391
100
AcDbEntity
  8
3_ALL_AXES
100
AcDbLine
 62
7
  6
CONTINUOUS
 10
269.7493934416
 20
172.2375577206
 11
269.7493934416
 21
178.9427189996
  0
LINE
  5
392
100
AcDbEntity
  8
7_ALL_FEATURES
100
AcDbLine
 62
7
  6
CONTINUOUS
 10
295.3211902113
 20
231.4427189996
 11
295.8211902113
 21
231.9427189996
  0
LINE
  5
393
100
AcDbEntity
  8
7_ALL_FEATURES
100
AcDbLine
 62
7
  6
CONTINUOUS
 10
297.5211902113
 20
232.4427189996
 11
297.0211902113
 21
231.9427189996
  0
LINE
  5
394
100
AcDbEntity
  8
7_ALL_FEATURES
100
AcDbLine
 62
9
  6
CONTINUOUS
 10
234.3129746808
 20
185.534795525
 11
234.7564800974
 21
185.7656698316
  0
LINE
  5
395
100
AcDbEntity
  8
7_ALL_FEATURES
100
AcDbLine
 62
7
  6
CONTINUOUS
 10
291.8211902113
 20
213.1927189996
 11
233.8211902113
 21
213.1927189996
  0
LINE
  5
396
100
AcDbEntity
  8
7_ALL_FEATURES
100
AcDbLine
 62
9
  6
CONTINUOUS
 10
295.9621143874
 20
194.4341460324
 11
295.5186089708
 21
194.665020339
  0
LINE
  5
397
100
AcDbEntity
  8
7_ALL_FEATURES
100
AcDbLine
 62
7
  6
CONTINUOUS
 10
288.5711902113
 20
190.6927189996
 11
288.8211902113
 21
190.4427189996
  0
LINE
  5
398
100
AcDbEntity
  8
7_ALL_FEATURES
100
AcDbLine
 62
7
  6
CONTINUOUS
 10
291.8211902113
 20
215.6927189996
 11
233.8211902113
 21
215.6927189996
  0
LINE
  5
399
100
AcDbEntity
  8
7_ALL_FEATURES
100
AcDbLine
 62
7
  6
CONTINUOUS
 10
294.7989927628
 20
199.3404419167
 11
293.8087155345
 21
200.3307191451
  0
LINE
  5
39A
100
AcDbEntity
  8
7_ALL_FEATURES
100
AcDbLine
 62
3
  6
CONTINUOUS
 10
294.1622689251
 20
200.6842725357
 11
295.1525461534
 21
199.6939953073
  0
LINE
  5
39B
100
AcDbEntity
  8
3_ALL_AXES
100
AcDbLine
 62
7
  6
CONTINUOUS
 10
283.0211902113
 20
184.5627189996
 11
283.0211902113
 21
184.9427189996
  0
LINE
  5
39C
100
AcDbEntity
  8
7_ALL_FEATURES
100
AcDbLine
 62
7
  6
CONTINUOUS
 10
283.0211902113
 20
184.9427189996
 11
283.0211902113
 21
185.4427189996
  0
LINE
  5
39D
100
AcDbEntity
  8
0
100
AcDbLine
 62
2
  6
CONTINUOUS
 10
286.737856878
 20
190.6927189996
 11
286.737856878
 21
188.1927189996
  0
LINE
  5
39E
100
AcDbEntity
  8
7_ALL_FEATURES
100
AcDbLine
 62
7
  6
CONTINUOUS
 10
286.8211902113
 20
200.6927189996
 11
286.8211902113
 21
198.1927189996
  0
LINE
  5
39F
100
AcDbEntity
  8
7_ALL_FEATURES
100
AcDbLine
 62
7
  6
CONTINUOUS
 10
286.8211902113
 20
195.6927189996
 11
286.8211902113
 21
193.1927189996
  0
LINE
  5
3A0
100
AcDbEntity
  8
7_ALL_FEATURES
100
AcDbLine
 62
7
  6
CONTINUOUS
 10
288.8211902113
 20
188.1927189996
 11
288.8211902113
 21
190.4427189996
  0
LINE
  5
3A1
100
AcDbEntity
  8
7_ALL_FEATURES
100
AcDbLine
 62
7
  6
CONTINUOUS
 10
293.8087155345
 20
200.3307191451
 11
294.1622689251
 21
200.6842725357
  0
LINE
  5
3A2
100
AcDbEntity
  8
7_ALL_FEATURES
100
AcDbLine
 62
7
  6
CONTINUOUS
 10
291.8211902113
 20
230.9427189996
 11
233.8211902113
 21
230.9427189996
  0
LINE
  5
3A3
100
AcDbEntity
  8
7_ALL_FEATURES
100
AcDbLine
 62
7
  6
CONTINUOUS
 10
230.3211902113
 20
231.4427189996
 11
295.3211902113
 21
231.4427189996
  0
LINE
  5
3A4
100
AcDbEntity
  8
7_ALL_FEATURES
100
AcDbLine
 62
7
  6
CONTINUOUS
 10
297.0211902113
 20
231.9427189996
 11
228.6211902113
 21
231.9427189996
  0
LINE
  5
3A5
100
AcDbEntity
  8
7_ALL_FEATURES
100
AcDbLine
 62
7
  6
CONTINUOUS
 10
228.1211902113
 20
232.4427189996
 11
297.5211902113
 21
232.4427189996
  0
LINE
  5
3A6
100
AcDbEntity
  8
7_ALL_FEATURES
100
AcDbLine
 62
7
  6
CONTINUOUS
 10
290.2211902113
 20
215.6927189996
 11
290.2211902113
 21
213.1927189996
  0
LINE
  5
3A7
100
AcDbEntity
  8
7_ALL_FEATURES
100
AcDbLine
 62
7
  6
CONTINUOUS
 10
290.2211902113
 20
210.6927189996
 11
290.2211902113
 21
208.1927189996
  0
LINE
  5
3A8
100
AcDbEntity
  8
7_ALL_FEATURES
100
AcDbLine
 62
7
  6
CONTINUOUS
 10
290.2211902113
 20
205.6927189996
 11
290.2211902113
 21
203.1927189996
  0
LINE
  5
3A9
100
AcDbEntity
  8
7_ALL_FEATURES
100
AcDbLine
 62
9
  6
CONTINUOUS
 10
290.3536938254
 20
184.9427189996
 11
290.3536938254
 21
185.4427189996
  0
LINE
  5
3AA
100
AcDbEntity
  8
3_ALL_AXES
100
AcDbLine
 62
7
  6
CONTINUOUS
 10
290.6211902113
 20
184.5627189996
 11
290.6211902113
 21
184.9427189996
  0
LINE
  5
3AB
100
AcDbEntity
  8
7_ALL_FEATURES
100
AcDbLine
 62
7
  6
CONTINUOUS
 10
290.9456902113
 20
203.1927189996
 11
290.9456902113
 21
200.6927189996
  0
LINE
  5
3AC
100
AcDbEntity
  8
7_ALL_FEATURES
100
AcDbLine
 62
7
  6
CONTINUOUS
 10
290.9456902113
 20
198.1927189996
 11
290.9456902113
 21
195.6927189996
  0
LINE
  5
3AD
100
AcDbEntity
  8
7_ALL_FEATURES
100
AcDbLine
 62
7
  6
CONTINUOUS
 10
290.9456902113
 20
193.1927189996
 11
290.9456902113
 21
190.6927189996
  0
LINE
  5
3AE
100
AcDbEntity
  8
7_ALL_FEATURES
100
AcDbLine
 62
7
  6
CONTINUOUS
 10
290.9456902113
 20
188.1927189996
 11
290.9456902113
 21
186.1927189996
  0
LINE
  5
3AF
100
AcDbEntity
  8
02___PRT_ALL_AXES
100
AcDbLine
 62
7
  6
CONTINUOUS
 10
291.8211902113
 20
230.9427189996
 11
291.8211902113
 21
215.6927189996
  0
LINE
  5
3B0
100
AcDbEntity
  8
02___PRT_ALL_AXES
100
AcDbLine
 62
7
  6
CONTINUOUS
 10
291.8211902113
 20
213.1927189996
 11
291.8211902113
 21
210.6927189996
  0
LINE
  5
3B1
100
AcDbEntity
  8
02___PRT_ALL_AXES
100
AcDbLine
 62
7
  6
CONTINUOUS
 10
291.8211902113
 20
208.1927189996
 11
291.8211902113
 21
205.6927189996
  0
LINE
  5
3B2
100
AcDbEntity
  8
7_ALL_FEATURES
100
AcDbLine
 62
7
  6
CONTINUOUS
 10
295.190977966
 20
198.8845544519
 11
295.5481154526
 21
199.2416919385
  0
LINE
  5
3B3
100
AcDbEntity
  8
7_ALL_FEATURES
100
AcDbLine
 62
7
  6
CONTINUOUS
 10
226.9211902113
 20
239.9427189996
 11
228.1211902113
 21
239.9427189996
  0
LINE
  5
3B4
100
AcDbEntity
  8
7_ALL_FEATURES
100
AcDbLine
 62
7
  6
CONTINUOUS
 10
297.5211902113
 20
239.9427189996
 11
298.7211902293
 21
239.9427189996
  0
LINE
  5
3B5
100
AcDbEntity
  8
7_ALL_FEATURES
100
AcDbLine
 62
7
  6
CONTINUOUS
 10
297.5211902113
 20
232.4427189996
 11
297.5211902113
 21
239.9427189996
  0
LINE
  5
3B6
100
AcDbEntity
  8
7_ALL_FEATURES
100
AcDbLine
 62
7
  6
CONTINUOUS
 10
298.7211902113
 20
241.6427189996
 11
298.7211902113
 21
239.9427189996
  0
LINE
  5
3B7
100
AcDbEntity
  8
7_ALL_FEATURES
100
AcDbLine
 62
7
  6
CONTINUOUS
 10
295.5186089708
 20
194.665020339
 11
290.8859003253
 21
185.7656698316
  0
LINE
  5
3B8
100
AcDbEntity
  8
7_ALL_FEATURES
100
AcDbLine
 62
3
  6
CONTINUOUS
 10
295.9621143874
 20
194.4341460324
 11
291.3294057419
 21
185.534795525
  0
LINE
  5
3B9
100
AcDbEntity
  8
7_ALL_FEATURES
100
AcDbLine
 62
7
  6
CONTINUOUS
 10
290.9456902113
 20
186.1927189996
 11
290.1956902113
 21
185.4427189996
  0
LINE
  5
3BA
100
AcDbEntity
  8
7_ALL_FEATURES
100
AcDbLine
 62
9
  6
CONTINUOUS
 10
226.9211902113
 20
241.6427189996
 11
298.7211902113
 21
241.6427189996
  0
LINE
  5
3BB
100
AcDbEntity
  8
02___PRT_ALL_AXES
100
AcDbLine
 62
7
  6
CONTINUOUS
 10
220.9211902113
 20
241.9427189996
 11
304.7211902113
 21
241.9427189996
  0
LINE
  5
3BC
100
AcDbEntity
  8
7_ALL_FEATURES
100
AcDbLine
 62
7
  6
CONTINUOUS
 10
304.7211902113
 20
242.9427189996
 11
220.9211902113
 21
242.9427189996
  0
LINE
  5
3BD
100
AcDbEntity
  8
7_ALL_FEATURES
100
AcDbLine
 62
7
  6
CONTINUOUS
 10
292.4655222033
 20
243.8427189996
 11
233.1768582194
 21
243.8427189996
  0
LINE
  5
3BE
100
AcDbEntity
  8
7_ALL_FEATURES
100
AcDbLine
 62
7
  6
CONTINUOUS
 10
220.9211902113
 20
242.9427189996
 11
233.1768582194
 21
243.8427189996
  0
LINE
  5
3BF
100
AcDbEntity
  8
7_ALL_FEATURES
100
AcDbLine
 62
7
  6
CONTINUOUS
 10
304.7211902113
 20
242.9427189996
 11
292.4655222033
 21
243.8427189996
  0
LINE
  5
3C0
100
AcDbEntity
  8
7_ALL_FEATURES
100
AcDbLine
 62
7
  6
CONTINUOUS
 10
304.7211902113
 20
242.9427189996
 11
304.7211902113
 21
241.9427189996
  0
CIRCLE
  5
3C1
100
AcDbEntity
  8
7_ALL_FEATURES
100
AcDbCircle
 62
7
  6
CONTINUOUS
 10
116.9716351502
 20
75.3781284761
 40
41.9
  0
CIRCLE
  5
3C2
100
AcDbEntity
  8
7_ALL_FEATURES
100
AcDbCircle
 62
7
  6
CONTINUOUS
 10
116.9716351502
 20
75.3781284761
 40
29.644331992
  0
CIRCLE
  5
3C3
100
AcDbEntity
  8
7_ALL_FEATURES
100
AcDbCircle
 62
7
  6
CONTINUOUS
 10
116.9716351502
 20
75.3781284761
 40
27.5
  0
CIRCLE
  5
3C4
100
AcDbEntity
  8
7_ALL_FEATURES
100
AcDbCircle
 62
7
  6
CONTINUOUS
 10
116.9716351502
 20
75.3781284761
 40
27.0
  0
CIRCLE
  5
3C5
100
AcDbEntity
  8
7_ALL_FEATURES
100
AcDbCircle
 62
7
  6
CONTINUOUS
 10
116.9716351502
 20
75.3781284761
 40
26.8
  0
CIRCLE
  5
3C6
100
AcDbEntity
  8
7_ALL_FEATURES
100
AcDbCircle
 62
7
  6
CONTINUOUS
 10
116.9716351502
 20
75.3781284761
 40
26.499996933
  0
ARC
  5
3C7
100
AcDbEntity
  8
3_ALL_AXES
100
AcDbCircle
 62
7
  6
CONTINUOUS
 10
117.1140779475
 20
186.4153590913
 40
4.1
100
AcDbArc
 50
296.3930257743
 51
333.1366968699
  0
ARC
  5
3C8
100
AcDbEntity
  8
3_ALL_AXES
100
AcDbCircle
 62
7
  6
CONTINUOUS
 10
116.8291923528
 20
186.4153590913
 40
4.1
100
AcDbArc
 50
206.8633031301
 51
243.6069742257
  0
ARC
  5
3C9
100
AcDbEntity
  8
7_ALL_FEATURES
100
AcDbCircle
 62
7
  6
CONTINUOUS
 10
105.4716351502
 20
172.9427189996
 40
3.5
100
AcDbArc
 50
270.0
 51
360.0
  0
ARC
  5
3CA
100
AcDbEntity
  8
7_ALL_FEATURES
100
AcDbCircle
 62
7
  6
CONTINUOUS
 10
98.4716351502
 20
172.9427189996
 40
3.5
100
AcDbArc
 50
180.0
 51
270.0
  0
ARC
  5
3CB
100
AcDbEntity
  8
7_ALL_FEATURES
100
AcDbCircle
 62
7
  6
CONTINUOUS
 10
80.7716351502
 20
241.6427189996
 40
0.3
100
AcDbArc
 50
0.0
 51
90.0
  0
ARC
  5
3CC
100
AcDbEntity
  8
7_ALL_FEATURES
100
AcDbCircle
 62
7
  6
CONTINUOUS
 10
153.1716351502
 20
241.6427189996
 40
0.3
100
AcDbArc
 50
90.0
 51
180.0
  0
ARC
  5
3CD
100
AcDbEntity
  8
7_ALL_FEATURES
100
AcDbCircle
 62
3
  6
CONTINUOUS
 10
291.9705656381
 20
196.512014792
 40
4.5
100
AcDbArc
 50
332.5
 51
45.0
  0
ARC
  5
3CE
100
AcDbEntity
  8
7_ALL_FEATURES
100
AcDbCircle
 62
3
  6
CONTINUOUS
 10
233.6718147846
 20
196.512014792
 40
4.5
100
AcDbArc
 50
135.0
 51
207.5
  0
ARC
  5
3CF
100
AcDbEntity
  8
3_ALL_AXES
100
AcDbCircle
 62
7
  6
CONTINUOUS
 10
238.9636330087
 20
186.4153590913
 40
4.1
100
AcDbArc
 50
296.3930257743
 51
333.1366968699
  0
ARC
  5
3D0
100
AcDbEntity
  8
3_ALL_AXES
100
AcDbCircle
 62
7
  6
CONTINUOUS
 10
238.678747414
 20
186.4153590913
 40
4.1
100
AcDbArc
 50
206.8633031301
 51
243.6069742257
  0
ARC
  5
3D1
100
AcDbEntity
  8
3_ALL_AXES
100
AcDbCircle
 62
7
  6
CONTINUOUS
 10
286.9636330087
 20
186.4153590913
 40
4.1
100
AcDbArc
 50
296.3930257743
 51
333.1366968699
  0
ARC
  5
3D2
100
AcDbEntity
  8
3_ALL_AXES
100
AcDbCircle
 62
7
  6
CONTINUOUS
 10
286.678747414
 20
186.4153590913
 40
4.1
100
AcDbArc
 50
206.8633031301
 51
243.6069742257
  0
ARC
  5
3D3
100
AcDbEntity
  8
7_ALL_FEATURES
100
AcDbCircle
 62
7
  6
CONTINUOUS
 10
291.9705656381
 20
196.512014792
 40
4.0
100
AcDbArc
 50
332.5
 51
45.0
  0
ARC
  5
3D4
100
AcDbEntity
  8
7_ALL_FEATURES
100
AcDbCircle
 62
7
  6
CONTINUOUS
 10
233.6718147846
 20
196.512014792
 40
4.0
100
AcDbArc
 50
135.0
 51
207.5
  0
ARC
  5
3D5
100
AcDbEntity
  8
3_ALL_AXES
100
AcDbCircle
 62
7
  6
CONTINUOUS
 10
266.3211902113
 20
172.9427189996
 40
3.5
100
AcDbArc
 50
270.0
 51
348.3747775532
  0
ARC
  5
3D6
100
AcDbEntity
  8
3_ALL_AXES
100
AcDbCircle
 62
7
  6
CONTINUOUS
 10
259.3211902113
 20
172.9427189996
 40
3.5
100
AcDbArc
 50
191.6252224468
 51
270.0
  0
ARC
  5
3D7
100
AcDbEntity
  8
7_ALL_FEATURES
100
AcDbCircle
 62
3
  6
CONTINUOUS
 10
290.3536938254
 20
186.0427189996
 40
1.1
100
AcDbArc
 50
270.0
 51
332.5
  0
ARC
  5
3D8
100
AcDbEntity
  8
7_ALL_FEATURES
100
AcDbCircle
 62
3
  6
CONTINUOUS
 10
235.2886865973
 20
186.0427189996
 40
1.1
100
AcDbArc
 50
207.5
 51
270.0
  0
ARC
  5
3D9
100
AcDbEntity
  8
7_ALL_FEATURES
100
AcDbCircle
 62
7
  6
CONTINUOUS
 10
290.3536938254
 20
186.0427189996
 40
0.6
100
AcDbArc
 50
270.0
 51
332.5
  0
ARC
  5
3DA
100
AcDbEntity
  8
7_ALL_FEATURES
100
AcDbCircle
 62
7
  6
CONTINUOUS
 10
235.2886865973
 20
186.0427189996
 40
0.6
100
AcDbArc
 50
207.5
 51
270.0
  0
ARC
  5
3DB
100
AcDbEntity
  8
7_ALL_FEATURES
100
AcDbCircle
 62
7
  6
CONTINUOUS
 10
226.6211902113
 20
241.6427189996
 40
0.3
100
AcDbArc
 50
0.0
 51
90.0
  0
ARC
  5
3DC
100
AcDbEntity
  8
7_ALL_FEATURES
100
AcDbCircle
 62
7
  6
CONTINUOUS
 10
299.0211902113
 20
241.6427189996
 40
0.3
100
AcDbArc
 50
90.0
 51
180.0
  0
SPLINE
  5
3DD
100
AcDbEntity
  8
7_ALL_FEATURES
100
AcDbSpline
 62
4
  6
CONTINUOUS
 70
0
 71
3
 72
136
 73
132
 74
0
 42
0.0000001
 43
0.0000001
 44
0.0000000001
 40
0.0
 40
0.0
 40
0.0
 40
0.0
 40
0.03125
 40
0.0625
 40
0.078125
 40
0.09375
 40
0.109375
 40
0.125
 40
0.140625
 40
0.1484375
 40
0.15234375
 40
0.15625
 40
0.16015625
 40
0.1640625
 40
0.1650390625
 40
0.166015625
 40
0.1665039062
 40
0.1669921875
 40
0.16796875
 40
0.169921875
 40
0.171875
 40
0.17578125
 40
0.1796875
 40
0.1875
 40
0.1953125
 40
0.203125
 40
0.21875
 40
0.25
 40
0.265625
 40
0.28125
 40
0.296875
 40
0.3046875
 40
0.3125
 40
0.3203125
 40
0.32421875
 40
0.328125
 40
0.330078125
 40
0.33203125
 40
0.3330078125
 40
0.3334960938
 40
0.333984375
 40
0.3349609375
 40
0.3359375
 40
0.33984375
 40
0.34375
 40
0.34765625
 40
0.3515625
 40
0.359375
 40
0.375
 40
0.390625
 40
0.40625
 40
0.421875
 40
0.4375
 40
0.453125
 40
0.4609375
 40
0.46875
 40
0.4765625
 40
0.484375
 40
0.48828125
 40
0.4921875
 40
0.494140625
 40
0.49609375
 40
0.498046875
 40
0.4990234375
 40
0.4995117188
 40
0.5
 40
0.5004882812
 40
0.5009765625
 40
0.501953125
 40
0.50390625
 40
0.505859375
 40
0.5078125
 40
0.51171875
 40
0.515625
 40
0.5234375
 40
0.53125
 40
0.5390625
 40
0.546875
 40
0.5625
 40
0.578125
 40
0.59375
 40
0.609375
 40
0.625
 40
0.640625
 40
0.6484375
 40
0.65234375
 40
0.65625
 40
0.66015625
 40
0.6640625
 40
0.6650390625
 40
0.666015625
 40
0.6665039062
 40
0.6669921875
 40
0.66796875
 40
0.669921875
 40
0.671875
 40
0.67578125
 40
0.6796875
 40
0.6875
 40
0.6953125
 40
0.703125
 40
0.71875
 40
0.734375
 40
0.75
 40
0.765625
 40
0.78125
 40
0.796875
 40
0.8046875
 40
0.8125
 40
0.8203125
 40
0.82421875
 40
0.828125
 40
0.830078125
 40
0.83203125
 40
0.8330078125
 40
0.8334960938
 40
0.833984375
 40
0.8349609375
 40
0.8359375
 40
0.83984375
 40
0.84375
 40
0.84765625
 40
0.8515625
 40
0.859375
 40
0.875
 40
0.890625
 40
0.90625
 40
0.921875
 40
0.9375
 40
0.96875
 40
1.0
 40
1.0
 40
1.0
 40
1.0
 10
116.1885005334
 20
188.9326056859
 30
0.0
 10
116.1823583375
 20
188.9271365318
 30
0.0
 10
116.1700739458
 20
188.9161982236
 30
0.0
 10
116.1547184563
 20
188.9025253383
 30
0.0
 10
116.1424340644
 20
188.8915870304
 30
0.0
 10
116.1332207715
 20
188.8833832986
 30
0.0
 10
116.1240074745
 20
188.8751795698
 30
0.0
 10
116.1147941928
 20
188.86697583
 30
0.0
 10
116.1071164103
 20
188.8601394145
 30
0.0
 10
116.1017420562
 20
188.8553538564
 30
0.0
 10
116.0986708506
 20
188.8526193566
 30
0.0
 10
116.0963678578
 20
188.8505681865
 30
0.0
 10
116.0940632927
 20
188.8485181452
 30
0.0
 10
116.0923392771
 20
188.8469774491
 30
0.0
 10
116.0911830776
 20
188.8459552409
 30
0.0
 10
116.0907115296
 20
188.8455219957
 30
0.0
 10
116.0903104925
 20
188.8451924877
 30
0.0
 10
116.0899964887
 20
188.8448004871
 30
0.0
 10
116.0894874196
 20
188.8440854506
 30
0.0
 10
116.0887390797
 20
188.8430791192
 30
0.0
 10
116.0875535266
 20
188.8414605228
 30
0.0
 10
116.0860675481
 20
188.8394401761
 30
0.0
 10
116.0836922389
 20
188.8362060013
 30
0.0
 10
116.0807223282
 20
188.8321638386
 30
0.0
 10
116.0771587667
 20
188.8273130055
 30
0.0
 10
116.0724072358
 20
188.820845311
 30
0.0
 10
116.0640921106
 20
188.8095268069
 30
0.0
 10
116.0545890878
 20
188.7965913901
 30
0.0
 10
116.0450860711
 20
188.7836559684
 30
0.0
 10
116.0379588126
 20
188.7739544002
 30
0.0
 10
116.0320194149
 20
188.7658697685
 30
0.0
 10
116.0272679321
 20
188.7594020437
 30
0.0
 10
116.0237042232
 20
188.7545513033
 30
0.0
 10
116.020734774
 20
188.7505088505
 30
0.0
 10
116.0183585232
 20
188.7472752676
 30
0.0
 10
116.0168749408
 20
188.7452534146
 30
0.0
 10
116.0156844693
 20
188.7436379101
 30
0.0
 10
116.0149486515
 20
188.742623707
 30
0.0
 10
116.0144170913
 20
188.741922809
 30
0.0
 10
116.0141391392
 20
188.7415081454
 30
0.0
 10
116.0139583497
 20
188.7410401842
 30
0.0
 10
116.0136991523
 20
188.74047345
 30
0.0
 10
116.0131044122
 20
188.7390982943
 30
0.0
 10
116.0122008216
 20
188.7370418583
 30
0.0
 10
116.0110025959
 20
188.7342963442
 30
0.0
 10
116.009802615
 20
188.7315517929
 30
0.0
 10
116.0082032526
 20
188.7278920554
 30
0.0
 10
116.0054040833
 20
188.7214876711
 30
0.0
 10
116.0014054191
 20
188.712338469
 30
0.0
 10
115.9966069581
 20
188.7013594615
 30
0.0
 10
115.9918085142
 20
188.6903804446
 30
0.0
 10
115.9870100657
 20
188.6794014302
 30
0.0
 10
115.9822116187
 20
188.6684224152
 30
0.0
 10
115.9782129119
 20
188.6592732362
 30
0.0
 10
115.9750139479
 20
188.6519538928
 30
0.0
 10
115.9726147212
 20
188.6464643858
 30
0.0
 10
115.9702155085
 20
188.6409748765
 30
0.0
 10
115.9682161212
 20
188.6364002927
 30
0.0
 10
115.9666167083
 20
188.6327406094
 30
0.0
 10
115.9656168547
 20
188.6304533442
 30
0.0
 10
115.9648174768
 20
188.6286234478
 30
0.0
 10
115.9642165608
 20
188.627251256
 30
0.0
 10
115.9637201957
 20
188.6261070295
 30
0.0
 10
115.9633641087
 20
188.6253075102
 30
0.0
 10
115.9631741077
 20
188.6248483947
 30
0.0
 10
115.9629936412
 20
188.6245103888
 30
0.0
 10
115.9629582989
 20
188.6241481836
 30
0.0
 10
115.9628605549
 20
188.6236736844
 30
0.0
 10
115.9627130881
 20
188.6228393779
 30
0.0
 10
115.9624900907
 20
188.6216495676
 30
0.0
 10
115.9622277716
 20
188.6202209152
 30
0.0
 10
115.9618761694
 20
188.6183163527
 30
0.0
 10
115.9614372978
 20
188.6159355443
 30
0.0
 10
115.9607347506
 20
188.6121263097
 30
0.0
 10
115.9598566876
 20
188.6073647463
 30
0.0
 10
115.95880296
 20
188.6016508789
 30
0.0
 10
115.9577492464
 20
188.5959370091
 30
0.0
 10
115.95634429
 20
188.5883185169
 30
0.0
 10
115.9545880963
 20
188.5787954014
 30
0.0
 10
115.9524806627
 20
188.5673676629
 30
0.0
 10
115.9503732307
 20
188.5559399242
 30
0.0
 10
115.9482657934
 20
188.5445121862
 30
0.0
 10
115.946158376
 20
188.5330844457
 30
0.0
 10
115.9444021328
 20
188.5235613363
 30
0.0
 10
115.9431728841
 20
188.5168951446
 30
0.0
 10
115.9424702665
 20
188.5130859157
 30
0.0
 10
115.941943838
 20
188.510228928
 30
0.0
 10
115.9414153655
 20
188.5073721929
 30
0.0
 10
115.9410247421
 20
188.5052289332
 30
0.0
 10
115.9407554137
 20
188.503801195
 30
0.0
 10
115.9406564563
 20
188.5032046648
 30
0.0
 10
115.9405463509
 20
188.5027312649
 30
0.0
 10
115.9405493931
 20
188.5022438792
 30
0.0
 10
115.940607288
 20
188.5013844559
 30
0.0
 10
115.9406625662
 20
188.5001600988
 30
0.0
 10
115.9407663397
 20
188.4981992328
 30
0.0
 10
115.9408908081
 20
188.495748799
 30
0.0
 10
115.9410928909
 20
188.4918277423
 30
0.0
 10
115.941344488
 20
188.4869265459
 30
0.0
 10
115.9416468354
 20
188.4810450569
 30
0.0
 10
115.9420498146
 20
188.4732030902
 30
0.0
 10
115.9425535904
 20
188.4634006255
 30
0.0
 10
115.9431580991
 20
188.4516376705
 30
0.0
 10
115.9437626141
 20
188.4398747148
 30
0.0
 10
115.9443671259
 20
188.4281117591
 30
0.0
 10
115.9449716441
 20
188.4163488043
 30
0.0
 10
115.9454753907
 20
188.4065463391
 30
0.0
 10
115.9458784294
 20
188.3987043733
 30
0.0
 10
115.9461805952
 20
188.3928228814
 30
0.0
 10
115.9464327602
 20
188.3879216942
 30
0.0
 10
115.9466336845
 20
188.3840006187
 30
0.0
 10
115.9467611014
 20
188.3815502329
 30
0.0
 10
115.9468588227
 20
188.3795892682
 30
0.0
 10
115.9469295094
 20
188.3783651623
 30
0.0
 10
115.9469597286
 20
188.377505288
 30
0.0
 10
115.9470071332
 20
188.3770186252
 30
0.0
 10
115.9471680466
 20
188.3765496422
 30
0.0
 10
115.9473303905
 20
188.3759573704
 30
0.0
 10
115.9477519483
 20
188.3745408917
 30
0.0
 10
115.9483708731
 20
188.3724140847
 30
0.0
 10
115.9492037718
 20
188.3695795359
 30
0.0
 10
115.95003462
 20
188.3667446678
 30
0.0
 10
115.9511431328
 20
188.3629649551
 30
0.0
 10
115.953082697
 20
188.3563504059
 30
0.0
 10
115.9558536773
 20
188.3469010771
 30
0.0
 10
115.9591787789
 20
188.3355618708
 30
0.0
 10
115.9625039005
 20
188.3242226677
 30
0.0
 10
115.9658290167
 20
188.3128834637
 30
0.0
 10
115.9702625069
 20
188.2977645254
 30
0.0
 10
115.975804369
 20
188.2788658524
 30
0.0
 10
115.9802378589
 20
188.263746914
 30
0.0
 10
115.9824546038
 20
188.2561874448
 30
0.0
  0
SPLINE
  5
3DE
100
AcDbEntity
  8
7_ALL_FEATURES
100
AcDbSpline
 62
4
  6
CONTINUOUS
 70
0
 71
3
 72
195
 73
191
 74
0
 42
0.0000001
 43
0.0000001
 44
0.0000000001
 40
0.0
 40
0.0
 40
0.0
 40
0.0
 40
0.03125
 40
0.046875
 40
0.0625
 40
0.078125
 40
0.0859375
 40
0.09375
 40
0.1015625
 40
0.109375
 40
0.11328125
 40
0.1171875
 40
0.119140625
 40
0.12109375
 40
0.123046875
 40
0.1240234375
 40
0.1245117188
 40
0.125
 40
0.1254882812
 40
0.1259765625
 40
0.126953125
 40
0.12890625
 40
0.130859375
 40
0.1328125
 40
0.13671875
 40
0.140625
 40
0.1484375
 40
0.15625
 40
0.1640625
 40
0.171875
 40
0.1875
 40
0.203125
 40
0.2109375
 40
0.21875
 40
0.2265625
 40
0.234375
 40
0.23828125
 40
0.2421875
 40
0.244140625
 40
0.24609375
 40
0.248046875
 40
0.2490234375
 40
0.2495117188
 40
0.25
 40
0.2504882812
 40
0.2509765625
 40
0.251953125
 40
0.25390625
 40
0.255859375
 40
0.2578125
 40
0.26171875
 40
0.265625
 40
0.2734375
 40
0.28125
 40
0.2890625
 40
0.296875
 40
0.3125
 40
0.328125
 40
0.3359375
 40
0.34375
 40
0.3515625
 40
0.359375
 40
0.36328125
 40
0.3671875
 40
0.369140625
 40
0.37109375
 40
0.373046875
 40
0.3740234375
 40
0.3745117188
 40
0.375
 40
0.3754882812
 40
0.3759765625
 40
0.376953125
 40
0.37890625
 40
0.380859375
 40
0.3828125
 40
0.38671875
 40
0.390625
 40
0.3984375
 40
0.40625
 40
0.4140625
 40
0.421875
 40
0.4375
 40
0.453125
 40
0.4609375
 40
0.46875
 40
0.4765625
 40
0.484375
 40
0.48828125
 40
0.4921875
 40
0.494140625
 40
0.49609375
 40
0.498046875
 40
0.4990234375
 40
0.4995117188
 40
0.5
 40
0.5004882812
 40
0.5009765625
 40
0.501953125
 40
0.50390625
 40
0.505859375
 40
0.5078125
 40
0.51171875
 40
0.515625
 40
0.5234375
 40
0.53125
 40
0.5390625
 40
0.546875
 40
0.5625
 40
0.578125
 40
0.5859375
 40
0.59375
 40
0.6015625
 40
0.609375
 40
0.61328125
 40
0.6171875
 40
0.619140625
 40
0.62109375
 40
0.623046875
 40
0.6240234375
 40
0.6245117188
 40
0.625
 40
0.6254882812
 40
0.6259765625
 40
0.626953125
 40
0.62890625
 40
0.630859375
 40
0.6328125
 40
0.63671875
 40
0.640625
 40
0.6484375
 40
0.65625
 40
0.6640625
 40
0.671875
 40
0.6875
 40
0.703125
 40
0.7109375
 40
0.71875
 40
0.7265625
 40
0.734375
 40
0.73828125
 40
0.7421875
 40
0.744140625
 40
0.74609375
 40
0.748046875
 40
0.7490234375
 40
0.7495117188
 40
0.75
 40
0.7504882812
 40
0.7509765625
 40
0.751953125
 40
0.75390625
 40
0.755859375
 40
0.7578125
 40
0.76171875
 40
0.765625
 40
0.7734375
 40
0.78125
 40
0.7890625
 40
0.796875
 40
0.8125
 40
0.828125
 40
0.8359375
 40
0.84375
 40
0.8515625
 40
0.859375
 40
0.86328125
 40
0.8671875
 40
0.869140625
 40
0.87109375
 40
0.873046875
 40
0.8740234375
 40
0.8745117188
 40
0.875
 40
0.8754882812
 40
0.8759765625
 40
0.876953125
 40
0.87890625
 40
0.880859375
 40
0.8828125
 40
0.88671875
 40
0.890625
 40
0.8984375
 40
0.90625
 40
0.9140625
 40
0.921875
 40
0.9375
 40
0.953125
 40
0.96875
 40
1.0
 40
1.0
 40
1.0
 40
1.0
 10
115.9824546004
 20
188.2561874529
 30
0.0
 10
115.9874350463
 20
188.2473075008
 30
0.0
 10
115.9949057152
 20
188.2339875725
 30
0.0
 10
116.004866607
 20
188.2162276681
 30
0.0
 10
116.0123372761
 20
188.20290774
 30
0.0
 10
116.0185628329
 20
188.1918077995
 30
0.0
 10
116.02354328
 20
188.1829278479
 30
0.0
 10
116.027278611
 20
188.1762678822
 30
0.0
 10
116.0310139582
 20
188.169607924
 30
0.0
 10
116.0341266974
 20
188.1640579354
 30
0.0
 10
116.0366170008
 20
188.1596179969
 30
0.0
 10
116.0381731855
 20
188.1568429161
 30
0.0
 10
116.0394187171
 20
188.1546231246
 30
0.0
 10
116.0403512671
 20
188.1529575331
 30
0.0
 10
116.0411334779
 20
188.1515719194
 30
0.0
 10
116.0416710447
 20
188.1505973207
 30
0.0
 10
116.0419938099
 20
188.1500476975
 30
0.0
 10
116.042191983
 20
188.1496149432
 30
0.0
 10
116.0425579669
 20
188.149260691
 30
0.0
 10
116.0429874111
 20
188.1487609724
 30
0.0
 10
116.0437662106
 20
188.1478992228
 30
0.0
 10
116.0448645232
 20
188.1466614819
 30
0.0
 10
116.0461886012
 20
188.1451790478
 30
0.0
 10
116.047951907
 20
188.1432014717
 30
0.0
 10
116.0501567691
 20
188.1407298432
 30
0.0
 10
116.0536841405
 20
188.1367750466
 30
0.0
 10
116.0580934947
 20
188.1318316164
 30
0.0
 10
116.0633846597
 20
188.1258994721
 30
0.0
 10
116.0686758408
 20
188.1199673353
 30
0.0
 10
116.0757307433
 20
188.1120578169
 30
0.0
 10
116.0845493736
 20
188.10217092
 30
0.0
 10
116.0933680025
 20
188.0922840222
 30
0.0
 10
116.1004229071
 20
188.0843745051
 30
0.0
 10
116.105714082
 20
188.0784423644
 30
0.0
 10
116.1110052701
 20
188.072510235
 30
0.0
 10
116.1154145526
 20
188.0675667583
 30
0.0
 10
116.1189420703
 20
188.0636120565
 30
0.0
 10
116.12114656
 20
188.0611401868
 30
0.0
 10
116.1229106301
 20
188.0591631058
 30
0.0
 10
116.1242323728
 20
188.0576791592
 30
0.0
 10
116.1253379923
 20
188.0564461505
 30
0.0
 10
116.1261037478
 20
188.0555759531
 30
0.0
 10
116.1265540918
 20
188.05508977
 30
0.0
 10
116.126855878
 20
188.0546939411
 30
0.0
 10
116.1272951668
 20
188.054417342
 30
0.0
 10
116.1278329227
 20
188.0540069546
 30
0.0
 10
116.1287963421
 20
188.0533081536
 30
0.0
 10
116.1301609725
 20
188.0522997358
 30
0.0
 10
116.1318035297
 20
188.0510939708
 30
0.0
 10
116.1339918593
 20
188.0494847695
 30
0.0
 10
116.1367278693
 20
188.0474737864
 30
0.0
 10
116.1411051512
 20
188.0442559237
 30
0.0
 10
116.1465768682
 20
188.0402336948
 30
0.0
 10
116.1531428795
 20
188.0354069774
 30
0.0
 10
116.1597089039
 20
188.0305802715
 30
0.0
 10
116.1684635985
 20
188.0241446596
 30
0.0
 10
116.1794069684
 20
188.0161001462
 30
0.0
 10
116.1903503373
 20
188.0080556317
 30
0.0
 10
116.1991050335
 20
188.0016200215
 30
0.0
 10
116.205671053
 20
187.9967933103
 30
0.0
 10
116.2122370827
 20
187.9919666127
 30
0.0
 10
116.2177087424
 20
187.9879443224
 30
0.0
 10
116.2220861412
 20
187.9847265848
 30
0.0
 10
116.2248218536
 20
187.9827152832
 30
0.0
 10
116.2270107942
 20
187.9811067359
 30
0.0
 10
116.2286514846
 20
187.9798989728
 30
0.0
 10
116.2300219558
 20
187.9788968065
 30
0.0
 10
116.2309749484
 20
187.9781868456
 30
0.0
 10
116.2315294107
 20
187.9777943391
 30
0.0
 10
116.2319173828
 20
187.9774628154
 30
0.0
 10
116.2324119057
 20
187.9772732743
 30
0.0
 10
116.2330341035
 20
187.9769710278
 30
0.0
 10
116.234140266
 20
187.9764651709
 30
0.0
 10
116.2357114449
 20
187.9757304546
 30
0.0
 10
116.2376007346
 20
187.9748539586
 30
0.0
 10
116.2401184341
 20
187.9736834938
 30
0.0
 10
116.243266022
 20
187.9722210303
 30
0.0
 10
116.2483019035
 20
187.9698807436
 30
0.0
 10
116.2545968443
 20
187.9669555037
 30
0.0
 10
116.2621507351
 20
187.963445165
 30
0.0
 10
116.2697046362
 20
187.9599348398
 30
0.0
 10
116.2797765006
 20
187.9552544016
 30
0.0
 10
116.2923663325
 20
187.9494038555
 30
0.0
 10
116.3049561637
 20
187.9435533082
 30
0.0
 10
116.3150280294
 20
187.938872872
 30
0.0
 10
116.3225819268
 20
187.9353625408
 30
0.0
 10
116.3301358311
 20
187.9318522248
 30
0.0
 10
116.3364307302
 20
187.9289269142
 30
0.0
 10
116.3414666967
 20
187.9265867715
 30
0.0
 10
116.3446140681
 20
187.9251239415
 30
0.0
 10
116.347132212
 20
187.9239542291
 30
0.0
 10
116.3490201441
 20
187.9230754344
 30
0.0
 10
116.3505955708
 20
187.9223479101
 30
0.0
 10
116.3516941502
 20
187.9218292143
 30
0.0
 10
116.352328498
 20
187.921547539
 30
0.0
 10
116.3527856998
 20
187.9212948097
 30
0.0
 10
116.3533138439
 20
187.9212006104
 30
0.0
 10
116.3539932905
 20
187.9210197143
 30
0.0
 10
116.3551938514
 20
187.92072891
 30
0.0
 10
116.3569029108
 20
187.9203000057
 30
0.0
 10
116.3589563621
 20
187.919791086
 30
0.0
 10
116.361693396
 20
187.9191105126
 30
0.0
 10
116.3651149969
 20
187.9182604853
 30
0.0
 10
116.3705893859
 20
187.9169000564
 30
0.0
 10
116.3774324313
 20
187.9151996524
 30
0.0
 10
116.3856440605
 20
187.913159111
 30
0.0
 10
116.3938556964
 20
187.9111185847
 30
0.0
 10
116.404804542
 20
187.9083978777
 30
0.0
 10
116.4184905998
 20
187.904996996
 30
0.0
 10
116.4321766571
 20
187.9015961129
 30
0.0
 10
116.4431255034
 20
187.8988754081
 30
0.0
 10
116.4513371372
 20
187.8968348752
 30
0.0
 10
116.4595487742
 20
187.8947943585
 30
0.0
 10
116.4663917954
 20
187.8930938777
 30
0.0
 10
116.4718662338
 20
187.8917336054
 30
0.0
 10
116.4752877089
 20
187.8908831796
 30
0.0
 10
116.4780250011
 20
187.8902034242
 30
0.0
 10
116.4800776632
 20
187.8896920056
 30
0.0
 10
116.4817891918
 20
187.8892709195
 30
0.0
 10
116.4829853447
 20
187.8889661584
 30
0.0
 10
116.4836718541
 20
187.8888076247
 30
0.0
 10
116.4841783036
 20
187.8886447353
 30
0.0
 10
116.4847169864
 20
187.8886499947
 30
0.0
 10
116.4854239868
 20
187.8885983551
 30
0.0
 10
116.4866664759
 20
187.888535313
 30
0.0
 10
116.4884387216
 20
187.8884309659
 30
0.0
 10
116.4905665887
 20
187.8883118646
 30
0.0
 10
116.4934033355
 20
187.8881509269
 30
0.0
 10
116.4969494091
 20
187.8879504862
 30
0.0
 10
116.5026230485
 20
187.8876293723
 30
0.0
 10
116.5097151247
 20
187.8872281201
 30
0.0
 10
116.5182256046
 20
187.8867465574
 30
0.0
 10
116.5267360875
 20
187.8862650108
 30
0.0
 10
116.5380833971
 20
187.885622943
 30
0.0
 10
116.5522675344
 20
187.8848203604
 30
0.0
 10
116.5664516715
 20
187.8840177764
 30
0.0
 10
116.5777989813
 20
187.8833757109
 30
0.0
 10
116.5863094637
 20
187.8828941574
 30
0.0
 10
116.5948199454
 20
187.8824126203
 30
0.0
 10
116.6019120159
 20
187.8820112886
 30
0.0
 10
116.607585667
 20
187.881690337
 30
0.0
 10
116.6111317109
 20
187.8814894833
 30
0.0
 10
116.6139685186
 20
187.8813293933
 30
0.0
 10
116.6160961995
 20
187.8812077022
 30
0.0
 10
116.6178690279
 20
187.8811114578
 30
0.0
 10
116.6191104768
 20
187.8810339509
 30
0.0
 10
116.6198191439
 20
187.8810054876
 30
0.0
 10
116.6203527069
 20
187.880939557
 30
0.0
 10
116.6208783854
 20
187.8810440454
 30
0.0
 10
116.6215820402
 20
187.8811239192
 30
0.0
 10
116.6228121548
 20
187.8812913945
 30
0.0
 10
116.6245701312
 20
187.881516165
 30
0.0
 10
116.6266794162
 20
187.8817920874
 30
0.0
 10
116.6294918964
 20
187.8821578192
 30
0.0
 10
116.6330074622
 20
187.8826157252
 30
0.0
 10
116.6386323868
 20
187.8833479606
 30
0.0
 10
116.645663536
 20
187.8842633969
 30
0.0
 10
116.6541009178
 20
187.8853618595
 30
0.0
 10
116.6625382988
 20
187.8864603385
 30
0.0
 10
116.6737881404
 20
187.8879249714
 30
0.0
 10
116.6878504424
 20
187.8897557646
 30
0.0
 10
116.7019127445
 20
187.8915865564
 30
0.0
 10
116.7131625858
 20
187.8930511916
 30
0.0
 10
116.7215999677
 20
187.8941496637
 30
0.0
 10
116.7300373463
 20
187.8952481521
 30
0.0
 10
116.7370685055
 20
187.8961635082
 30
0.0
 10
116.7426934095
 20
187.8968959071
 30
0.0
 10
116.7462090278
 20
187.8973533969
 30
0.0
 10
116.7490214004
 20
187.897719983
 30
0.0
 10
116.7511310139
 20
187.8979932954
 30
0.0
 10
116.7528879625
 20
187.8982262321
 30
0.0
 10
116.754119912
 20
187.8983791294
 30
0.0
 10
116.7548206268
 20
187.8984823607
 30
0.0
 10
116.755355336
 20
187.8985151024
 30
0.0
 10
116.7558549809
 20
187.8987186402
 30
0.0
 10
116.7565334049
 20
187.8989304483
 30
0.0
 10
116.7577149484
 20
187.8993288698
 30
0.0
 10
116.7594058469
 20
187.8998835316
 30
0.0
 10
116.7614336499
 20
187.9005553373
 30
0.0
 10
116.7641378326
 20
187.9014489086
 30
0.0
 10
116.7675179085
 20
187.9025666156
 30
0.0
 10
116.7729261152
 20
187.9043545316
 30
0.0
 10
116.7796863443
 20
187.9065895692
 30
0.0
 10
116.7877986318
 20
187.9092715531
 30
0.0
 10
116.7959109159
 20
187.9119535534
 30
0.0
 10
116.8067272959
 20
187.9155295481
 30
0.0
 10
116.8202477705
 20
187.9199995434
 30
0.0
 10
116.8364723402
 20
187.9253635369
 30
0.0
 10
116.8581050997
 20
187.9325155285
 30
0.0
 10
116.8743296693
 20
187.9378795222
 30
0.0
 10
116.8851460491
 20
187.941455518
 30
0.0
  0
SPLINE
  5
3DF
100
AcDbEntity
  8
7_ALL_FEATURES
100
AcDbSpline
 62
4
  6
CONTINUOUS
 70
0
 71
3
 72
195
 73
191
 74
0
 42
0.0000001
 43
0.0000001
 44
0.0000000001
 40
0.0
 40
0.0
 40
0.0
 40
0.0
 40
0.03125
 40
0.046875
 40
0.0625
 40
0.078125
 40
0.0859375
 40
0.09375
 40
0.1015625
 40
0.109375
 40
0.11328125
 40
0.1171875
 40
0.119140625
 40
0.12109375
 40
0.123046875
 40
0.1240234375
 40
0.1245117188
 40
0.125
 40
0.1254882812
 40
0.1259765625
 40
0.126953125
 40
0.12890625
 40
0.130859375
 40
0.1328125
 40
0.13671875
 40
0.140625
 40
0.1484375
 40
0.15625
 40
0.1640625
 40
0.171875
 40
0.1875
 40
0.203125
 40
0.2109375
 40
0.21875
 40
0.2265625
 40
0.234375
 40
0.23828125
 40
0.2421875
 40
0.244140625
 40
0.24609375
 40
0.248046875
 40
0.2490234375
 40
0.2495117188
 40
0.25
 40
0.2504882812
 40
0.2509765625
 40
0.251953125
 40
0.25390625
 40
0.255859375
 40
0.2578125
 40
0.26171875
 40
0.265625
 40
0.2734375
 40
0.28125
 40
0.2890625
 40
0.296875
 40
0.3125
 40
0.328125
 40
0.3359375
 40
0.34375
 40
0.3515625
 40
0.359375
 40
0.36328125
 40
0.3671875
 40
0.369140625
 40
0.37109375
 40
0.373046875
 40
0.3740234375
 40
0.3745117188
 40
0.375
 40
0.3754882812
 40
0.3759765625
 40
0.376953125
 40
0.37890625
 40
0.380859375
 40
0.3828125
 40
0.38671875
 40
0.390625
 40
0.3984375
 40
0.40625
 40
0.4140625
 40
0.421875
 40
0.4375
 40
0.453125
 40
0.4609375
 40
0.46875
 40
0.4765625
 40
0.484375
 40
0.48828125
 40
0.4921875
 40
0.494140625
 40
0.49609375
 40
0.498046875
 40
0.4990234375
 40
0.4995117188
 40
0.5
 40
0.5004882812
 40
0.5009765625
 40
0.501953125
 40
0.50390625
 40
0.505859375
 40
0.5078125
 40
0.51171875
 40
0.515625
 40
0.5234375
 40
0.53125
 40
0.5390625
 40
0.546875
 40
0.5625
 40
0.578125
 40
0.5859375
 40
0.59375
 40
0.6015625
 40
0.609375
 40
0.61328125
 40
0.6171875
 40
0.619140625
 40
0.62109375
 40
0.623046875
 40
0.6240234375
 40
0.6245117188
 40
0.625
 40
0.6254882812
 40
0.6259765625
 40
0.626953125
 40
0.62890625
 40
0.630859375
 40
0.6328125
 40
0.63671875
 40
0.640625
 40
0.6484375
 40
0.65625
 40
0.6640625
 40
0.671875
 40
0.6875
 40
0.703125
 40
0.7109375
 40
0.71875
 40
0.7265625
 40
0.734375
 40
0.73828125
 40
0.7421875
 40
0.744140625
 40
0.74609375
 40
0.748046875
 40
0.7490234375
 40
0.7495117188
 40
0.75
 40
0.7504882812
 40
0.7509765625
 40
0.751953125
 40
0.75390625
 40
0.755859375
 40
0.7578125
 40
0.76171875
 40
0.765625
 40
0.7734375
 40
0.78125
 40
0.7890625
 40
0.796875
 40
0.8125
 40
0.828125
 40
0.8359375
 40
0.84375
 40
0.8515625
 40
0.859375
 40
0.86328125
 40
0.8671875
 40
0.869140625
 40
0.87109375
 40
0.873046875
 40
0.8740234375
 40
0.8745117188
 40
0.875
 40
0.8754882812
 40
0.8759765625
 40
0.876953125
 40
0.87890625
 40
0.880859375
 40
0.8828125
 40
0.88671875
 40
0.890625
 40
0.8984375
 40
0.90625
 40
0.9140625
 40
0.921875
 40
0.9375
 40
0.953125
 40
0.96875
 40
1.0
 40
1.0
 40
1.0
 40
1.0
 10
116.4497869608
 20
190.2727135361
 30
0.0
 10
116.4428771611
 20
190.2684768334
 30
0.0
 10
116.4325124616
 20
190.2621217793
 30
0.0
 10
116.4186928623
 20
190.2536483739
 30
0.0
 10
116.4083281629
 20
190.2472933197
 30
0.0
 10
116.399690913
 20
190.2419974416
 30
0.0
 10
116.3927811139
 20
190.2377607382
 30
0.0
 10
116.3875987624
 20
190.2345832133
 30
0.0
 10
116.3824164194
 20
190.2314056782
 30
0.0
 10
116.3780977735
 20
190.2287577639
 30
0.0
 10
116.3746429166
 20
190.2266393616
 30
0.0
 10
116.3724834951
 20
190.2253155217
 30
0.0
 10
116.3707562691
 20
190.2242560799
 30
0.0
 10
116.3694599974
 20
190.2234625111
 30
0.0
 10
116.3683824821
 20
190.2227979826
 30
0.0
 10
116.367622901
 20
190.2223391342
 30
0.0
 10
116.367197162
 20
190.2220670646
 30
0.0
 10
116.3668544557
 20
190.2218908178
 30
0.0
 10
116.3666012038
 20
190.2216082844
 30
0.0
 10
116.3662323318
 20
190.2212686472
 30
0.0
 10
116.3656013438
 20
190.2206570087
 30
0.0
 10
116.3646923318
 20
190.2197922701
 30
0.0
 10
116.3636047707
 20
190.2187507183
 30
0.0
 10
116.3621535529
 20
190.2173633327
 30
0.0
 10
116.3603399197
 20
190.2156286384
 30
0.0
 10
116.3574378892
 20
190.2128533859
 30
0.0
 10
116.3538104256
 20
190.2093842317
 30
0.0
 10
116.3494574374
 20
190.2052212846
 30
0.0
 10
116.3451044577
 20
190.2010583274
 30
0.0
 10
116.3393004818
 20
190.1955077213
 30
0.0
 10
116.332045513
 20
190.1885694623
 30
0.0
 10
116.3247905434
 20
190.1816312042
 30
0.0
 10
116.3189865689
 20
190.1760805968
 30
0.0
 10
116.3146335849
 20
190.1719176433
 30
0.0
 10
116.3102806126
 20
190.1677546822
 30
0.0
 10
116.3066530994
 20
190.1642855717
 30
0.0
 10
116.3037511701
 20
190.16151023
 30
0.0
 10
116.3019372794
 20
190.159775763
 30
0.0
 10
116.3004865903
 20
190.1583879109
 30
0.0
 10
116.2993974138
 20
190.1573477843
 30
0.0
 10
116.298493456
 20
190.1564785866
 30
0.0
 10
116.2978534454
 20
190.1558749083
 30
0.0
 10
116.29749903
 20
190.1555225168
 30
0.0
 10
116.2972013722
 20
190.1552791606
 30
0.0
 10
116.2970254468
 20
190.1549557708
 30
0.0
 10
116.296748418
 20
190.1545525011
 30
0.0
 10
116.2962834013
 20
190.1538337723
 30
0.0
 10
116.2956087486
 20
190.1528138169
 30
0.0
 10
116.2948035925
 20
190.1515869598
 30
0.0
 10
116.2937285047
 20
190.149952167
 30
0.0
 10
116.2923851745
 20
190.1479083278
 30
0.0
 10
116.2902355502
 20
190.1446383798
 30
0.0
 10
116.2875486214
 20
190.1405508779
 30
0.0
 10
116.2843242633
 20
190.1356459043
 30
0.0
 10
116.2810999168
 20
190.1307409231
 30
0.0
 10
116.2768007841
 20
190.1242009508
 30
0.0
 10
116.2714268698
 20
190.1160259844
 30
0.0
 10
116.2660529543
 20
190.1078510185
 30
0.0
 10
116.2617538234
 20
190.1013110453
 30
0.0
 10
116.2585294716
 20
190.0964060668
 30
0.0
 10
116.2553051332
 20
190.091501083
 30
0.0
 10
116.2526181432
 20
190.0874136128
 30
0.0
 10
116.2504686436
 20
190.0841436002
 30
0.0
 10
116.249124996
 20
190.0820999252
 30
0.0
 10
116.2480505597
 20
190.0804647954
 30
0.0
 10
116.2472434132
 20
190.0792389678
 30
0.0
 10
116.2465749881
 20
190.0782157915
 30
0.0
 10
116.2460988541
 20
190.0775028126
 30
0.0
 10
116.245839638
 20
190.07709033
 30
0.0
 10
116.2456089976
 20
190.0767952392
 30
0.0
 10
116.2455168406
 20
190.076445597
 30
0.0
 10
116.2453456599
 20
190.0759984356
 30
0.0
 10
116.2450685999
 20
190.0752070374
 30
0.0
 10
116.2446610334
 20
190.0740811037
 30
0.0
 10
116.2441769899
 20
190.0727279993
 30
0.0
 10
116.2435298396
 20
190.070924553
 30
0.0
 10
116.242721504
 20
190.0686700079
 30
0.0
 10
116.2414278304
 20
190.0650628683
 30
0.0
 10
116.2398108539
 20
190.0605538983
 30
0.0
 10
116.2378704327
 20
190.0551431538
 30
0.0
 10
116.2359300246
 20
190.0497324041
 30
0.0
 10
116.2333428093
 20
190.042518073
 30
0.0
 10
116.2301087918
 20
190.0335001585
 30
0.0
 10
116.2268747732
 20
190.0244822443
 30
0.0
 10
116.2242875597
 20
190.0172679127
 30
0.0
 10
116.2223471459
 20
190.0118571646
 30
0.0
 10
116.2204067463
 20
190.006446414
 30
0.0
 10
116.2187897024
 20
190.0019374631
 30
0.0
 10
116.2174961663
 20
189.9983302847
 30
0.0
 10
116.2166874806
 20
189.9960758383
 30
0.0
 10
116.216041049
 20
189.9942721893
 30
0.0
 10
116.2155548099
 20
189.9929197044
 30
0.0
 10
116.2151541131
 20
189.9917918323
 30
0.0
 10
116.2148647894
 20
189.9910038945
 30
0.0
 10
116.2147132582
 20
189.9905511887
 30
0.0
 10
116.2145607443
 20
189.9902185768
 30
0.0
 10
116.2145567944
 20
189.9898595231
 30
0.0
 10
116.2144997072
 20
189.9893900081
 30
0.0
 10
116.2144239487
 20
189.9885640595
 30
0.0
 10
116.2143030995
 20
189.9873863797
 30
0.0
 10
116.2141634834
 20
189.9859722022
 30
0.0
 10
116.2139754414
 20
189.9840869681
 30
0.0
 10
116.2137410351
 20
189.9817303105
 30
0.0
 10
116.2133656239
 20
189.9779597226
 30
0.0
 10
116.2128964839
 20
189.9732464657
 30
0.0
 10
116.2123334627
 20
189.9675905668
 30
0.0
 10
116.2117704557
 20
189.9619346654
 30
0.0
 10
116.2110197747
 20
189.9543934645
 30
0.0
 10
116.2100814254
 20
189.944966963
 30
0.0
 10
116.2091430748
 20
189.9355404616
 30
0.0
 10
116.2083923958
 20
189.9279992604
 30
0.0
 10
116.2078293828
 20
189.9223433595
 30
0.0
 10
116.2072663843
 20
189.9166874589
 30
0.0
 10
116.2067971737
 20
189.9119742075
 30
0.0
 10
116.2064219063
 20
189.9082036083
 30
0.0
 10
116.2061871341
 20
189.9058469794
 30
0.0
 10
116.2059998433
 20
189.9039616865
 30
0.0
 10
116.2058579321
 20
189.9025476888
 30
0.0
 10
116.2057442638
 20
189.9013694465
 30
0.0
 10
116.2056556861
 20
189.9005445019
 30
0.0
 10
116.2056191386
 20
189.9000733782
 30
0.0
 10
116.2055520971
 20
189.8997192659
 30
0.0
 10
116.2056365448
 20
189.8993680952
 30
0.0
 10
116.2056963005
 20
189.8988988414
 30
0.0
 10
116.2058254928
 20
189.8980781255
 30
0.0
 10
116.2059971816
 20
189.8969054242
 30
0.0
 10
116.2062087177
 20
189.8954982896
 30
0.0
 10
116.2064888414
 20
189.8936220728
 30
0.0
 10
116.206839655
 20
189.8912768146
 30
0.0
 10
116.2074005884
 20
189.8875243943
 30
0.0
 10
116.2081018816
 20
189.8828338715
 30
0.0
 10
116.2089433792
 20
189.8772052429
 30
0.0
 10
116.2097848913
 20
189.8715766147
 30
0.0
 10
116.2109069024
 20
189.8640717769
 30
0.0
 10
116.2123094182
 20
189.8546907298
 30
0.0
 10
116.2137119327
 20
189.8453096826
 30
0.0
 10
116.2148339458
 20
189.837804845
 30
0.0
 10
116.2156754519
 20
189.8321762161
 30
0.0
 10
116.2165169721
 20
189.8265475902
 30
0.0
 10
116.2172181951
 20
189.8218570591
 30
0.0
 10
116.2177792716
 20
189.8181046556
 30
0.0
 10
116.218129721
 20
189.8157593546
 30
0.0
 10
116.2184105923
 20
189.8138832257
 30
0.0
 10
116.2186198443
 20
189.8124758225
 30
0.0
 10
116.2187986796
 20
189.8113039618
 30
0.0
 10
116.2189151143
 20
189.8104817452
 30
0.0
 10
116.2189953108
 20
189.8100148959
 30
0.0
 10
116.219016971
 20
189.8096563396
 30
0.0
 10
116.2191857485
 20
189.8093299664
 30
0.0
 10
116.2193594691
 20
189.8088835763
 30
0.0
 10
116.2196873893
 20
189.8081076239
 30
0.0
 10
116.2201433466
 20
189.8069963861
 30
0.0
 10
116.2206958459
 20
189.8056640711
 30
0.0
 10
116.2214306427
 20
189.8038872423
 30
0.0
 10
116.2223497787
 20
189.8016663464
 30
0.0
 10
116.2238200386
 20
189.7981128346
 30
0.0
 10
116.2256579861
 20
189.7936709717
 30
0.0
 10
116.2278634706
 20
189.7883407247
 30
0.0
 10
116.2300689692
 20
189.7830104808
 30
0.0
 10
116.233009629
 20
189.7759034878
 30
0.0
 10
116.2366854556
 20
189.7670197471
 30
0.0
 10
116.240361281
 20
189.758136006
 30
0.0
 10
116.2433019428
 20
189.7510290136
 30
0.0
 10
116.2455074356
 20
189.7456987679
 30
0.0
 10
116.2477129418
 20
189.7403685275
 30
0.0
 10
116.2495508217
 20
189.7359266443
 30
0.0
 10
116.2510212197
 20
189.7323731738
 30
0.0
 10
116.2519400041
 20
189.7301521728
 30
0.0
 10
116.2526755225
 20
189.7283755597
 30
0.0
 10
116.2532258174
 20
189.7270425857
 30
0.0
 10
116.2536886716
 20
189.72593341
 30
0.0
 10
116.2540042797
 20
189.7251537763
 30
0.0
 10
116.2541977273
 20
189.7247132847
 30
0.0
 10
116.2543059098
 20
189.7243687932
 30
0.0
 10
116.2545551548
 20
189.7240782859
 30
0.0
 10
116.2548382773
 20
189.7236721126
 30
0.0
 10
116.2553566668
 20
189.7229700826
 30
0.0
 10
116.2560852377
 20
189.7219625959
 30
0.0
 10
116.256964653
 20
189.720755575
 30
0.0
 10
116.2581354148
 20
189.7191455282
 30
0.0
 10
116.2595994806
 20
189.7171332045
 30
0.0
 10
116.261941643
 20
189.7139133552
 30
0.0
 10
116.2648694636
 20
189.7098885887
 30
0.0
 10
116.268382798
 20
189.7050588496
 30
0.0
 10
116.2718961458
 20
189.7002291157
 30
0.0
 10
116.2765806049
 20
189.6937894686
 30
0.0
 10
116.2824361804
 20
189.6857399104
 30
0.0
 10
116.2894628702
 20
189.6760804403
 30
0.0
 10
116.2988317903
 20
189.6632011469
 30
0.0
 10
116.3058584803
 20
189.6535416769
 30
0.0
 10
116.3105429403
 20
189.6471020302
 30
0.0
  0
SPLINE
  5
3E0
100
AcDbEntity
  8
7_ALL_FEATURES
100
AcDbSpline
 62
4
  6
CONTINUOUS
 70
0
 71
3
 72
108
 73
104
 74
0
 42
0.0000001
 43
0.0000001
 44
0.0000000001
 40
0.0
 40
0.0
 40
0.0
 40
0.0
 40
0.0625
 40
0.09375
 40
0.109375
 40
0.125
 40
0.140625
 40
0.1484375
 40
0.15625
 40
0.16015625
 40
0.1640625
 40
0.166015625
 40
0.1669921875
 40
0.16796875
 40
0.169921875
 40
0.171875
 40
0.1796875
 40
0.1875
 40
0.1953125
 40
0.203125
 40
0.21875
 40
0.25
 40
0.28125
 40
0.296875
 40
0.3046875
 40
0.3125
 40
0.3203125
 40
0.328125
 40
0.330078125
 40
0.33203125
 40
0.3330078125
 40
0.333984375
 40
0.3359375
 40
0.33984375
 40
0.34375
 40
0.3515625
 40
0.359375
 40
0.375
 40
0.390625
 40
0.40625
 40
0.421875
 40
0.4375
 40
0.453125
 40
0.46875
 40
0.4765625
 40
0.484375
 40
0.48828125
 40
0.4921875
 40
0.49609375
 40
0.498046875
 40
0.4990234375
 40
0.5
 40
0.5009765625
 40
0.501953125
 40
0.50390625
 40
0.5078125
 40
0.51171875
 40
0.515625
 40
0.5234375
 40
0.53125
 40
0.546875
 40
0.5625
 40
0.578125
 40
0.59375
 40
0.609375
 40
0.625
 40
0.640625
 40
0.6484375
 40
0.65625
 40
0.66015625
 40
0.6640625
 40
0.666015625
 40
0.6669921875
 40
0.66796875
 40
0.669921875
 40
0.671875
 40
0.6796875
 40
0.6875
 40
0.6953125
 40
0.703125
 40
0.71875
 40
0.75
 40
0.78125
 40
0.796875
 40
0.8046875
 40
0.8125
 40
0.8203125
 40
0.828125
 40
0.830078125
 40
0.83203125
 40
0.8330078125
 40
0.833984375
 40
0.8359375
 40
0.83984375
 40
0.84375
 40
0.8515625
 40
0.859375
 40
0.875
 40
0.890625
 40
0.90625
 40
0.9375
 40
0.96875
 40
1.0
 40
1.0
 40
1.0
 40
1.0
 10
117.021531947
 20
190.2727135361
 30
0.0
 10
117.0102824102
 20
190.2771050106
 30
0.0
 10
116.9934081021
 20
190.2836922147
 30
0.0
 10
116.9737214196
 20
190.2913773126
 30
0.0
 10
116.9624718721
 20
190.2957687595
 30
0.0
 10
116.9540347524
 20
190.2990624499
 30
0.0
 10
116.9470036889
 20
190.3018068567
 30
0.0
 10
116.9413791308
 20
190.3040031341
 30
0.0
 10
116.9378631152
 20
190.3053740951
 30
0.0
 10
116.9350518299
 20
190.3064747857
 30
0.0
 10
116.9332912922
 20
190.3071537689
 30
0.0
 10
116.9320658989
 20
190.307646991
 30
0.0
 10
116.9313547485
 20
190.307900773
 30
0.0
 10
116.9306024468
 20
190.3080488708
 30
0.0
 10
116.9296761354
 20
190.3082701164
 30
0.0
 10
116.9274414114
 20
190.3087713746
 30
0.0
 10
116.9240941877
 20
190.3095357493
 30
0.0
 10
116.9196284436
 20
190.3105477783
 30
0.0
 10
116.9151634429
 20
190.3115617165
 30
0.0
 10
116.9092098494
 20
190.312912968
 30
0.0
 10
116.8987911821
 20
190.3152779705
 30
0.0
 10
116.8839073028
 20
190.3186563663
 30
0.0
 10
116.8690234678
 20
190.3220348837
 30
0.0
 10
116.8586047386
 20
190.324399716
 30
0.0
 10
116.8526512424
 20
190.3257512348
 30
0.0
 10
116.8481859429
 20
190.326764353
 30
0.0
 10
116.8437213213
 20
190.3277794617
 30
0.0
 10
116.8403709545
 20
190.3285352123
 30
0.0
 10
116.8381403324
 20
190.3290477256
 30
0.0
 10
116.8372065082
 20
190.329248357
 30
0.0
 10
116.8364697092
 20
190.3294389922
 30
0.0
 10
116.8356953872
 20
190.3295194397
 30
0.0
 10
116.8343228896
 20
190.3296090269
 30
0.0
 10
116.832371275
 20
190.32976372
 30
0.0
 10
116.8292436083
 20
190.3299963015
 30
0.0
 10
116.8253357654
 20
190.3302921395
 30
0.0
 10
116.819082244
 20
190.3307626237
 30
0.0
 10
116.811265676
 20
190.3313517092
 30
0.0
 10
116.8018856514
 20
190.3320581914
 30
0.0
 10
116.792505665
 20
190.3327647866
 30
0.0
 10
116.7831256685
 20
190.3334713505
 30
0.0
 10
116.7737456743
 20
190.3341779263
 30
0.0
 10
116.7643656813
 20
190.3348844858
 30
0.0
 10
116.7565490144
 20
190.3354733299
 30
0.0
 10
116.7502956947
 20
190.3359443066
 30
0.0
 10
116.7463873384
 20
190.3362388913
 30
0.0
 10
116.7432607255
 20
190.3364740453
 30
0.0
 10
116.7409155684
 20
190.3366518175
 30
0.0
 10
116.738961899
 20
190.3367954863
 30
0.0
 10
116.7375930975
 20
190.3369048357
 30
0.0
 10
116.7368128503
 20
190.33695361
 30
0.0
 10
116.7362222417
 20
190.3370288151
 30
0.0
 10
116.7356523635
 20
190.336956378
 30
0.0
 10
116.734885295
 20
190.3369112945
 30
0.0
 10
116.733546294
 20
190.3368084038
 30
0.0
 10
116.7316316741
 20
190.3366739617
 30
0.0
 10
116.7293348841
 20
190.3365072618
 30
0.0
 10
116.7262722342
 20
190.3362868706
 30
0.0
 10
116.7224440119
 20
190.3360107394
 30
0.0
 10
116.7163188059
 20
190.3355692885
 30
0.0
 10
116.7086623157
 20
190.3350173516
 30
0.0
 10
116.69947452
 20
190.3343550807
 30
0.0
 10
116.6902867264
 20
190.3336927934
 30
0.0
 10
116.6810989319
 20
190.3330305183
 30
0.0
 10
116.6719111389
 20
190.3323682107
 30
0.0
 10
116.6627233408
 20
190.331706021
 30
0.0
 10
116.6550668582
 20
190.3311538305
 30
0.0
 10
116.6489416367
 20
190.3307128968
 30
0.0
 10
116.6451134537
 20
190.3304354495
 30
0.0
 10
116.6420507231
 20
190.3302177599
 30
0.0
 10
116.6401369369
 20
190.330071965
 30
0.0
 10
116.638796444
 20
190.3299894267
 30
0.0
 10
116.6380317662
 20
190.329911724
 30
0.0
 10
116.6372720529
 20
190.3297190008
 30
0.0
 10
116.6363207144
 20
190.3295174113
 30
0.0
 10
116.6340388986
 20
190.3290012389
 30
0.0
 10
116.6306155883
 20
190.3282405708
 30
0.0
 10
116.6260515098
 20
190.3272185789
 30
0.0
 10
116.6214873417
 20
190.3261986648
 30
0.0
 10
116.6154018155
 20
190.3248380545
 30
0.0
 10
116.6047521292
 20
190.3224573261
 30
0.0
 10
116.5895383066
 20
190.3190560925
 30
0.0
 10
116.5743244535
 20
190.3156549839
 30
0.0
 10
116.56367481
 20
190.3132740804
 30
0.0
 10
116.5575892166
 20
190.3119137451
 30
0.0
 10
116.5530252546
 20
190.3108929873
 30
0.0
 10
116.548460402
 20
190.3098741643
 30
0.0
 10
116.5450392594
 20
190.3091046222
 30
0.0
 10
116.5427546146
 20
190.308600031
 30
0.0
 10
116.5418084575
 20
190.3083772301
 30
0.0
 10
116.5410380524
 20
190.3082282767
 30
0.0
 10
116.5403169424
 20
190.3079722177
 30
0.0
 10
116.5390779037
 20
190.3074743508
 30
0.0
 10
116.5372958983
 20
190.3067890765
 30
0.0
 10
116.5344513679
 20
190.3056781277
 30
0.0
 10
116.5308934184
 20
190.3042944099
 30
0.0
 10
116.525201977
 20
190.3020776847
 30
0.0
 10
116.5180872369
 20
190.2993077309
 30
0.0
 10
116.5095497364
 20
190.2959833785
 30
0.0
 10
116.4981663368
 20
190.2915510512
 30
0.0
 10
116.4839371099
 20
190.286010593
 30
0.0
 10
116.4668620279
 20
190.2793620644
 30
0.0
 10
116.4554786417
 20
190.2749297079
 30
0.0
 10
116.4497869484
 20
190.2727135302
 30
0.0
  0
SPLINE
  5
3E1
100
AcDbEntity
  8
7_ALL_FEATURES
100
AcDbSpline
 62
4
  6
CONTINUOUS
 70
0
 71
3
 72
174
 73
170
 74
0
 42
0.0000001
 43
0.0000001
 44
0.0000000001
 40
0.0
 40
0.0
 40
0.0
 40
0.0
 40
0.03125
 40
0.046875
 40
0.0625
 40
0.0703125
 40
0.078125
 40
0.0859375
 40
0.09375
 40
0.09765625
 40
0.1015625
 40
0.10546875
 40
0.107421875
 40
0.109375
 40
0.1103515625
 40
0.111328125
 40
0.1123046875
 40
0.11328125
 40
0.115234375
 40
0.1171875
 40
0.125
 40
0.1328125
 40
0.140625
 40
0.15625
 40
0.171875
 40
0.1796875
 40
0.1875
 40
0.1953125
 40
0.203125
 40
0.20703125
 40
0.2109375
 40
0.21484375
 40
0.21875
 40
0.220703125
 40
0.22265625
 40
0.2236328125
 40
0.224609375
 40
0.2265625
 40
0.228515625
 40
0.23046875
 40
0.234375
 40
0.2421875
 40
0.25
 40
0.265625
 40
0.28125
 40
0.296875
 40
0.3046875
 40
0.3125
 40
0.3203125
 40
0.32421875
 40
0.328125
 40
0.330078125
 40
0.33203125
 40
0.3330078125
 40
0.3334960938
 40
0.333984375
 40
0.3349609375
 40
0.3359375
 40
0.337890625
 40
0.33984375
 40
0.34375
 40
0.34765625
 40
0.3515625
 40
0.359375
 40
0.375
 40
0.390625
 40
0.40625
 40
0.4140625
 40
0.421875
 40
0.4296875
 40
0.43359375
 40
0.4375
 40
0.44140625
 40
0.443359375
 40
0.4438476562
 40
0.4443359375
 40
0.4453125
 40
0.4462890625
 40
0.447265625
 40
0.44921875
 40
0.453125
 40
0.45703125
 40
0.4609375
 40
0.46875
 40
0.484375
 40
0.5
 40
0.515625
 40
0.53125
 40
0.5390625
 40
0.54296875
 40
0.546875
 40
0.55078125
 40
0.552734375
 40
0.5537109375
 40
0.5546875
 40
0.5556640625
 40
0.5561523438
 40
0.556640625
 40
0.55859375
 40
0.5625
 40
0.56640625
 40
0.5703125
 40
0.578125
 40
0.5859375
 40
0.59375
 40
0.609375
 40
0.625
 40
0.640625
 40
0.6484375
 40
0.65234375
 40
0.65625
 40
0.66015625
 40
0.6640625
 40
0.6650390625
 40
0.666015625
 40
0.6665039062
 40
0.6669921875
 40
0.66796875
 40
0.669921875
 40
0.671875
 40
0.67578125
 40
0.6796875
 40
0.6875
 40
0.6953125
 40
0.703125
 40
0.71875
 40
0.734375
 40
0.75
 40
0.7578125
 40
0.765625
 40
0.76953125
 40
0.771484375
 40
0.7734375
 40
0.775390625
 40
0.7763671875
 40
0.77734375
 40
0.779296875
 40
0.78125
 40
0.78515625
 40
0.7890625
 40
0.79296875
 40
0.796875
 40
0.8046875
 40
0.8125
 40
0.8203125
 40
0.828125
 40
0.84375
 40
0.859375
 40
0.8671875
 40
0.875
 40
0.8828125
 40
0.884765625
 40
0.88671875
 40
0.8876953125
 40
0.888671875
 40
0.8896484375
 40
0.890625
 40
0.892578125
 40
0.89453125
 40
0.8984375
 40
0.90234375
 40
0.90625
 40
0.9140625
 40
0.921875
 40
0.9296875
 40
0.9375
 40
0.953125
 40
0.96875
 40
1.0
 40
1.0
 40
1.0
 40
1.0
 10
117.0941967963
 20
189.588045581
 30
0.0
 10
117.1008309286
 20
189.5940149545
 30
0.0
 10
117.110782127
 20
189.6029690148
 30
0.0
 10
117.1240503916
 20
189.6149077619
 30
0.0
 10
117.1323430571
 20
189.6223694788
 30
0.0
 10
117.1389771892
 20
189.6283388525
 30
0.0
 10
117.1439527888
 20
189.6328158823
 30
0.0
 10
117.1489283866
 20
189.6372929135
 30
0.0
 10
117.1530747238
 20
189.6410237688
 30
0.0
 10
117.1563917807
 20
189.6440084621
 30
0.0
 10
117.1588796086
 20
189.6462469573
 30
0.0
 10
117.1609526865
 20
189.6481124487
 30
0.0
 10
117.1626114001
 20
189.6496046652
 30
0.0
 10
117.1636475239
 20
189.6505377027
 30
0.0
 10
117.1644777333
 20
189.6512832117
 30
0.0
 10
117.1650968026
 20
189.651844865
 30
0.0
 10
117.1655295832
 20
189.6525374389
 30
0.0
 10
117.1661716854
 20
189.6534151467
 30
0.0
 10
117.1669520749
 20
189.6545279102
 30
0.0
 10
117.1688433126
 20
189.6571856795
 30
0.0
 10
117.1716724831
 20
189.661177735
 30
0.0
 10
117.1754490971
 20
189.666497393
 30
0.0
 10
117.1804830499
 20
189.6735913472
 30
0.0
 10
117.1867760177
 20
189.6824584198
 30
0.0
 10
117.1930687939
 20
189.6913256271
 30
0.0
 10
117.1981030532
 20
189.6984193657
 30
0.0
 10
117.2018787477
 20
189.7037396706
 30
0.0
 10
117.205654423
 20
189.7090599852
 30
0.0
 10
117.2088008829
 20
189.7134935479
 30
0.0
 10
117.2113179073
 20
189.7170404718
 30
0.0
 10
117.2132060677
 20
189.7197004631
 30
0.0
 10
117.2150927317
 20
189.7223612239
 30
0.0
 10
117.2166696131
 20
189.7245761277
 30
0.0
 10
117.217920679
 20
189.7263534186
 30
0.0
 10
117.2187263624
 20
189.7274520041
 30
0.0
 10
117.2190915866
 20
189.728474503
 30
0.0
 10
117.2195055962
 20
189.729471916
 30
0.0
 10
117.2200063704
 20
189.730727289
 30
0.0
 10
117.2206144631
 20
189.732230053
 30
0.0
 10
117.2214227545
 20
189.7342350232
 30
0.0
 10
117.2228384287
 20
189.7377431224
 30
0.0
 10
117.224860213
 20
189.7427550051
 30
0.0
 10
117.2280954071
 20
189.7507738428
 30
0.0
 10
117.2321392848
 20
189.7607974497
 30
0.0
 10
117.2369919811
 20
189.7728257532
 30
0.0
 10
117.2410359042
 20
189.7828493422
 30
0.0
 10
117.2442709982
 20
189.7908682191
 30
0.0
 10
117.2466974465
 20
189.7968823583
 30
0.0
 10
117.2487190794
 20
189.8018942
 30
0.0
 10
117.2503372995
 20
189.8059035409
 30
0.0
 10
117.2513466061
 20
189.8084096806
 30
0.0
 10
117.2521588174
 20
189.8104139016
 30
0.0
 10
117.2526555749
 20
189.8116681157
 30
0.0
 10
117.2530250991
 20
189.8125429073
 30
0.0
 10
117.2532021571
 20
189.8130477295
 30
0.0
 10
117.2532507607
 20
189.8135711666
 30
0.0
 10
117.2533554978
 20
189.8142190893
 30
0.0
 10
117.2534984976
 20
189.8152593276
 30
0.0
 10
117.2536856633
 20
189.8165584058
 30
0.0
 10
117.2539804249
 20
189.8186376125
 30
0.0
 10
117.2543504906
 20
189.8212363871
 30
0.0
 10
117.2547938787
 20
189.8243550167
 30
0.0
 10
117.2553853038
 20
189.8285131546
 30
0.0
 10
117.2564201856
 20
189.8357899121
 30
0.0
 10
117.2578986456
 20
189.8461852715
 30
0.0
 10
117.2596727784
 20
189.8586597061
 30
0.0
 10
117.2611512098
 20
189.8690550688
 30
0.0
 10
117.2623339948
 20
189.877371356
 30
0.0
 10
117.2632209715
 20
189.8836085802
 30
0.0
 10
117.2639604755
 20
189.8888062387
 30
0.0
 10
117.2645512785
 20
189.892964429
 30
0.0
 10
117.2649965675
 20
189.8960828985
 30
0.0
 10
117.2653606859
 20
189.8986821739
 30
0.0
 10
117.2656100381
 20
189.9003706992
 30
0.0
 10
117.2657118027
 20
189.9011510734
 30
0.0
 10
117.2658125687
 20
189.9016687159
 30
0.0
 10
117.2656982643
 20
189.9023347941
 30
0.0
 10
117.2656292996
 20
189.9031286875
 30
0.0
 10
117.2655135575
 20
189.9041890957
 30
0.0
 10
117.2653220926
 20
189.9060439325
 30
0.0
 10
117.2650427766
 20
189.9086941582
 30
0.0
 10
117.2647100775
 20
189.9118742327
 30
0.0
 10
117.2642656137
 20
189.9161144005
 30
0.0
 10
117.2634882052
 20
189.9235346622
 30
0.0
 10
117.2623774094
 20
189.9341350524
 30
0.0
 10
117.2610445513
 20
189.9468555151
 30
0.0
 10
117.2597116455
 20
189.9595759739
 30
0.0
 10
117.2586009689
 20
189.970176374
 30
0.0
 10
117.2578233518
 20
189.9775966185
 30
0.0
 10
117.2573792218
 20
189.9818368138
 30
0.0
 10
117.2570454973
 20
189.9850168037
 30
0.0
 10
117.2567693908
 20
189.987667294
 30
0.0
 10
117.2565721963
 20
189.9895216584
 30
0.0
 10
117.2564656345
 20
189.9905828236
 30
0.0
 10
117.2563684706
 20
189.9913743922
 30
0.0
 10
117.2563424258
 20
189.9920477466
 30
0.0
 10
117.2561358351
 20
189.9925400501
 30
0.0
 10
117.2558736752
 20
189.9932904218
 30
0.0
 10
117.2552777687
 20
189.9949092626
 30
0.0
 10
117.2543798352
 20
189.9974044923
 30
0.0
 10
117.2532942484
 20
190.0003967539
 30
0.0
 10
117.2518496171
 20
190.0043871396
 30
0.0
 10
117.2500428612
 20
190.0093748802
 30
0.0
 10
117.2478751681
 20
190.0153602724
 30
0.0
 10
117.2449847653
 20
190.023340759
 30
0.0
 10
117.2413718161
 20
190.0333163815
 30
0.0
 10
117.2370362346
 20
190.0452871147
 30
0.0
 10
117.2334233191
 20
190.0552627523
 30
0.0
 10
117.2308941519
 20
190.0622456489
 30
0.0
 10
117.2294491093
 20
190.0662359529
 30
0.0
 10
117.2283647759
 20
190.0692284629
 30
0.0
 10
117.2272825505
 20
190.0722218059
 30
0.0
 10
117.2264649711
 20
190.0744644779
 30
0.0
 10
117.22592911
 20
190.0759632244
 30
0.0
 10
117.2256921566
 20
190.0765822978
 30
0.0
 10
117.2255345018
 20
190.0770901636
 30
0.0
 10
117.2252601575
 20
190.0775519244
 30
0.0
 10
117.2247258381
 20
190.0783385843
 30
0.0
 10
117.2239908122
 20
190.0794735609
 30
0.0
 10
117.2227989625
 20
190.0812832773
 30
0.0
 10
117.2213145631
 20
190.0835475616
 30
0.0
 10
117.2189364989
 20
190.087169221
 30
0.0
 10
117.2159649565
 20
190.0916967055
 30
0.0
 10
117.2123986615
 20
190.0971295113
 30
0.0
 10
117.2076437562
 20
190.1043733135
 30
0.0
 10
117.2017000743
 20
190.1134280468
 30
0.0
 10
117.1945676654
 20
190.1242937283
 30
0.0
 10
117.1886240269
 20
190.1333484837
 30
0.0
 10
117.1838690262
 20
190.1405922374
 30
0.0
 10
117.1808973578
 20
190.1451196996
 30
0.0
 10
117.1788167747
 20
190.1482886902
 30
0.0
 10
117.1776285199
 20
190.1500999065
 30
0.0
 10
117.1767354978
 20
190.1514572919
 30
0.0
 10
117.1759971453
 20
190.1525917169
 30
0.0
 10
117.1753933805
 20
190.1534919212
 30
0.0
 10
117.174837281
 20
190.1544188521
 30
0.0
 10
117.1738010204
 20
190.1553862355
 30
0.0
 10
117.172180158
 20
190.1569548819
 30
0.0
 10
117.1701413305
 20
190.1589085412
 30
0.0
 10
117.1677002028
 20
190.1612559968
 30
0.0
 10
117.1652576131
 20
190.1636026326
 30
0.0
 10
117.1620013375
 20
190.1667317667
 30
0.0
 10
117.1579308178
 20
190.1706430861
 30
0.0
 10
117.153046269
 20
190.1753367112
 30
0.0
 10
117.1481617012
 20
190.1800303263
 30
0.0
 10
117.1416489453
 20
190.1862884772
 30
0.0
 10
117.13350804
 20
190.1941112096
 30
0.0
 10
117.1253669746
 20
190.2019337703
 30
0.0
 10
117.118854475
 20
190.208192196
 30
0.0
 10
117.1139691382
 20
190.2128849869
 30
0.0
 10
117.1103078895
 20
190.2164075239
 30
0.0
 10
117.1078627679
 20
190.2187512969
 30
0.0
 10
117.1068503509
 20
190.2197346928
 30
0.0
 10
117.1060255254
 20
190.2205054908
 30
0.0
 10
117.1054477516
 20
190.2211272515
 30
0.0
 10
117.1047140425
 20
190.2215823225
 30
0.0
 10
117.1037317593
 20
190.2221848034
 30
0.0
 10
117.1025052764
 20
190.2229393701
 30
0.0
 10
117.1005421374
 20
190.2241458577
 30
0.0
 10
117.0980884766
 20
190.2256542483
 30
0.0
 10
117.0951439711
 20
190.2274641966
 30
0.0
 10
117.0912180032
 20
190.2298775032
 30
0.0
 10
117.0863105297
 20
190.2328941219
 30
0.0
 10
117.0804215673
 20
190.2365140706
 30
0.0
 10
117.0745326033
 20
190.2401340176
 30
0.0
 10
117.066680652
 20
190.2449606142
 30
0.0
 10
117.0568657126
 20
190.2509938597
 30
0.0
 10
117.0411618096
 20
190.2606470527
 30
0.0
 10
117.0293838824
 20
190.2678869474
 30
0.0
 10
117.0215319309
 20
190.2727135439
 30
0.0
  0
SPLINE
  5
3E2
100
AcDbEntity
  8
7_ALL_FEATURES
100
AcDbSpline
 62
4
  6
CONTINUOUS
 70
0
 71
3
 72
83
 73
79
 74
0
 42
0.0000001
 43
0.0000001
 44
0.0000000001
 40
0.0
 40
0.0
 40
0.0
 40
0.0
 40
0.0625
 40
0.09375
 40
0.109375
 40
0.125
 40
0.140625
 40
0.15625
 40
0.16015625
 40
0.1640625
 40
0.166015625
 40
0.16796875
 40
0.171875
 40
0.1796875
 40
0.1875
 40
0.203125
 40
0.21875
 40
0.25
 40
0.28125
 40
0.296875
 40
0.3125
 40
0.3203125
 40
0.328125
 40
0.33203125
 40
0.333984375
 40
0.3359375
 40
0.33984375
 40
0.34375
 40
0.359375
 40
0.375
 40
0.390625
 40
0.40625
 40
0.4375
 40
0.453125
 40
0.46875
 40
0.4765625
 40
0.484375
 40
0.4921875
 40
0.49609375
 40
0.5
 40
0.50390625
 40
0.5078125
 40
0.515625
 40
0.5234375
 40
0.53125
 40
0.546875
 40
0.5625
 40
0.59375
 40
0.609375
 40
0.625
 40
0.640625
 40
0.65625
 40
0.66015625
 40
0.6640625
 40
0.666015625
 40
0.66796875
 40
0.671875
 40
0.6796875
 40
0.6875
 40
0.703125
 40
0.71875
 40
0.75
 40
0.78125
 40
0.796875
 40
0.8125
 40
0.8203125
 40
0.828125
 40
0.83203125
 40
0.833984375
 40
0.8359375
 40
0.83984375
 40
0.84375
 40
0.859375
 40
0.875
 40
0.890625
 40
0.90625
 40
0.9375
 40
1.0
 40
1.0
 40
1.0
 40
1.0
 10
116.8851460645
 20
187.9414555249
 30
0.0
 10
116.8967452031
 20
187.9470262274
 30
0.0
 10
116.9141439297
 20
187.9553822528
 30
0.0
 10
116.9344423787
 20
187.9651310482
 30
0.0
 10
116.9460415858
 20
187.9707016469
 30
0.0
 10
116.9547407297
 20
187.9748799921
 30
0.0
 10
116.9634408724
 20
187.9790568233
 30
0.0
 10
116.9699631791
 20
187.9821936918
 30
0.0
 10
116.9743157387
 20
187.9842783354
 30
0.0
 10
116.9761228245
 20
187.9851567612
 30
0.0
 10
116.9775836114
 20
187.9858365837
 30
0.0
 10
116.9789891098
 20
187.9866002192
 30
0.0
 10
116.9814230438
 20
187.9879755227
 30
0.0
 10
116.9849134953
 20
187.9899199243
 30
0.0
 10
116.9904907273
 20
187.9930423216
 30
0.0
 10
116.9974648332
 20
187.9969414288
 30
0.0
 10
117.0086219615
 20
188.0031821834
 30
0.0
 10
117.0225689172
 20
188.0109823107
 30
0.0
 10
117.0365154928
 20
188.0187829728
 30
0.0
 10
117.0476732293
 20
188.0250228718
 30
0.0
 10
117.0546458147
 20
188.0289241179
 30
0.0
 10
117.0602261636
 20
188.0320421305
 30
0.0
 10
117.0637086803
 20
188.0339976943
 30
0.0
 10
117.066156866
 20
188.0353529493
 30
0.0
 10
117.0675395199
 20
188.0361487212
 30
0.0
 10
117.0688607448
 20
188.0370248716
 30
0.0
 10
117.0705332726
 20
188.0380925859
 30
0.0
 10
117.0745300581
 20
188.0406777122
 30
0.0
 10
117.0805324945
 20
188.0445459046
 30
0.0
 10
117.0885315951
 20
188.049708922
 30
0.0
 10
117.0965318035
 20
188.0548704895
 30
0.0
 10
117.1071983703
 20
188.0617530756
 30
0.0
 10
117.1178649879
 20
188.068635585
 30
0.0
 10
117.1285317363
 20
188.0755179523
 30
0.0
 10
117.1351980849
 20
188.0798198512
 30
0.0
 10
117.140532017
 20
188.0832603994
 30
0.0
 10
117.1445301278
 20
188.0858434717
 30
0.0
 10
117.1478693258
 20
188.0879875659
 30
0.0
 10
117.1505239996
 20
188.0897218293
 30
0.0
 10
117.1525605952
 20
188.0909706425
 30
0.0
 10
117.1544231722
 20
188.0924174987
 30
0.0
 10
117.1569673952
 20
188.0942774613
 30
0.0
 10
117.1601268183
 20
188.0966261495
 30
0.0
 10
117.1639270528
 20
188.099434416
 30
0.0
 10
117.1689909144
 20
188.1031823197
 30
0.0
 10
117.1753218077
 20
188.1078659855
 30
0.0
 10
117.1854506478
 20
188.1153605226
 30
0.0
 10
117.1955796114
 20
188.1228549126
 30
0.0
 10
117.2057086463
 20
188.1303492401
 30
0.0
 10
117.2133050849
 20
188.1359703203
 30
0.0
 10
117.2209028381
 20
188.1415900935
 30
0.0
 10
117.2265974624
 20
188.1458085934
 30
0.0
 10
117.2303996189
 20
188.1486152184
 30
0.0
 10
117.2319753087
 20
188.1497931398
 30
0.0
 10
117.2332557875
 20
188.1507156615
 30
0.0
 10
117.2344633921
 20
188.1517106492
 30
0.0
 10
117.2365428413
 20
188.1534855472
 30
0.0
 10
117.2395311489
 20
188.1560035486
 30
0.0
 10
117.2443025684
 20
188.1600421685
 30
0.0
 10
117.2502702237
 20
188.1650870796
 30
0.0
 10
117.259816579
 20
188.1731608308
 30
0.0
 10
117.2717501993
 20
188.1832522739
 30
0.0
 10
117.2836834814
 20
188.1933443336
 30
0.0
 10
117.2932303777
 20
188.2014170982
 30
0.0
 10
117.2991966804
 20
188.2064644756
 30
0.0
 10
117.3039708729
 20
188.2104980396
 30
0.0
 10
117.3069521213
 20
188.2130289121
 30
0.0
 10
117.3090442495
 20
188.2147806923
 30
0.0
 10
117.3102315304
 20
188.2158127362
 30
0.0
 10
117.3113878476
 20
188.2169616416
 30
0.0
 10
117.3128438276
 20
188.2183578297
 30
0.0
 10
117.3163294688
 20
188.2217415565
 30
0.0
 10
117.3215615893
 20
188.2268033386
 30
0.0
 10
117.3285356589
 20
188.2335602735
 30
0.0
 10
117.3355102878
 20
188.2403150973
 30
0.0
 10
117.3448095978
 20
188.2493222656
 30
0.0
 10
117.3610834819
 20
188.2650844648
 30
0.0
 10
117.375032494
 20
188.2785950397
 30
0.0
 10
117.3843318424
 20
188.2876020633
 30
0.0
  0
SPLINE
  5
3E3
100
AcDbEntity
  8
3_ALL_AXES
100
AcDbSpline
 62
7
  6
CONTINUOUS
 70
0
 71
3
 72
19
 73
15
 74
0
 42
0.0000001
 43
0.0000001
 44
0.0000000001
 40
0.0
 40
0.0
 40
0.0
 40
0.0
 40
0.1683000113
 40
0.2404505744
 40
0.3036556532
 40
0.4090388234
 40
0.4554737865
 40
0.5000393211
 40
0.5446067335
 40
0.591042408
 40
0.696430429
 40
0.7596418824
 40
0.8317824151
 40
1.0
 40
1.0
 40
1.0
 40
1.0
 10
95.4716351502
 20
172.9427189996
 30
0.0
 10
95.4716351502
 20
172.8361133244
 30
0.0
 10
95.4958080149
 20
172.6817868978
 30
0.0
 10
95.5746250913
 20
172.5053931748
 30
0.0
 10
95.6605728446
 20
172.378860311
 30
0.0
 10
95.7680097153
 20
172.2878726545
 30
0.0
 10
95.8856452766
 20
172.2443949531
 30
0.0
 10
95.9717130867
 20
172.2340188739
 30
0.0
 10
96.0577803722
 20
172.2444219616
 30
0.0
 10
96.1753924154
 20
172.2879749715
 30
0.0
 10
96.2828152042
 20
172.378980107
 30
0.0
 10
96.368729429
 20
172.5055397265
 30
0.0
 10
96.4474755533
 20
172.6819032438
 30
0.0
 10
96.4716351502
 20
172.8361655354
 30
0.0
 10
96.4716351502
 20
172.9427189996
 30
0.0
  0
SPLINE
  5
3E4
100
AcDbEntity
  8
3_ALL_AXES
100
AcDbSpline
 62
7
  6
CONTINUOUS
 70
0
 71
3
 72
19
 73
15
 74
0
 42
0.0000001
 43
0.0000001
 44
0.0000000001
 40
0.0
 40
0.0
 40
0.0
 40
0.0
 40
0.1683075029
 40
0.2404576968
 40
0.3036660769
 40
0.4090527407
 40
0.4554823394
 40
0.5000445236
 40
0.5446094138
 40
0.5910415449
 40
0.6964181475
 40
0.7596236278
 40
0.8317654351
 40
1.0
 40
1.0
 40
1.0
 40
1.0
 10
107.4716351502
 20
172.9427189996
 30
0.0
 10
107.4716351502
 20
172.8361086673
 30
0.0
 10
107.4958100771
 20
172.6817774699
 30
0.0
 10
107.5746331794
 20
172.5053795484
 30
0.0
 10
107.6605847869
 20
172.3788442276
 30
0.0
 10
107.7680291735
 20
172.2878628297
 30
0.0
 10
107.8856631914
 20
172.2443925496
 30
0.0
 10
107.9717239992
 20
172.234018371
 30
0.0
 10
108.0577847506
 20
172.2444245016
 30
0.0
 10
108.1753860799
 20
172.2879731571
 30
0.0
 10
108.2827991656
 20
172.3789673085
 30
0.0
 10
108.3687144427
 20
172.5055134051
 30
0.0
 10
108.4474732874
 20
172.6818799421
 30
0.0
 10
108.4716351502
 20
172.8361548681
 30
0.0
 10
108.4716351502
 20
172.9427189996
 30
0.0
  0
SPLINE
  5
3E5
100
AcDbEntity
  8
3_ALL_AXES
100
AcDbSpline
 62
7
  6
CONTINUOUS
 70
0
 71
3
 72
11
 73
7
 74
0
 42
0.0000001
 43
0.0000001
 44
0.0000000001
 40
0.0
 40
0.0
 40
0.0
 40
0.0
 40
0.2499875457
 40
0.4999810974
 40
0.7499896465
 40
1.0
 40
1.0
 40
1.0
 40
1.0
 10
102.9716351502
 20
173.4427189996
 30
0.0
 10
103.2335598971
 20
173.4801368206
 30
0.0
 10
103.7536870154
 20
173.5834105332
 30
0.0
 10
104.5149042911
 20
173.8117609464
 30
0.0
 10
105.2551949876
 20
174.100197941
 30
0.0
 10
105.7349624803
 20
174.3243826646
 30
0.0
 10
105.9716351502
 20
174.4427189996
 30
0.0
  0
SPLINE
  5
3E6
100
AcDbEntity
  8
3_ALL_AXES
100
AcDbSpline
 62
7
  6
CONTINUOUS
 70
0
 71
3
 72
11
 73
7
 74
0
 42
0.0000001
 43
0.0000001
 44
0.0000000001
 40
0.0
 40
0.0
 40
0.0
 40
0.0
 40
0.2699449571
 40
0.5270499909
 40
0.7701654741
 40
1.0
 40
1.0
 40
1.0
 40
1.0
 10
93.9716351502
 20
174.4427189996
 30
0.0
 10
94.0874611151
 20
174.3268930347
 30
0.0
 10
94.3209957297
 20
174.1078927233
 30
0.0
 10
94.6895063311
 20
173.8191340776
 30
0.0
 10
95.0695071017
 20
173.5889470775
 30
0.0
 10
95.3375375269
 20
173.4810326062
 30
0.0
 10
95.4716351502
 20
173.4427189996
 30
0.0
  0
SPLINE
  5
3E7
100
AcDbEntity
  8
3_ALL_AXES
100
AcDbSpline
 62
7
  6
CONTINUOUS
 70
0
 71
3
 72
19
 73
15
 74
0
 42
0.0000001
 43
0.0000001
 44
0.0000000001
 40
0.0
 40
0.0
 40
0.0
 40
0.0
 40
0.062499569
 40
0.1250450196
 40
0.1876243679
 40
0.2502137548
 40
0.3750836247
 40
0.5000591496
 40
0.6250261711
 40
0.7498800617
 40
0.8124624827
 40
0.8750225901
 40
0.9375286272
 40
1.0
 40
1.0
 40
1.0
 40
1.0
 10
100.9716351502
 20
172.9427189996
 30
0.0
 10
100.9716351502
 20
172.8866453879
 30
0.0
 10
100.9911442652
 20
172.773656294
 30
0.0
 10
101.0709282353
 20
172.6229339107
 30
0.0
 10
101.1859876898
 20
172.4978842018
 30
0.0
 10
101.3694313895
 20
172.3667183358
 30
0.0
 10
101.6348313269
 20
172.2635875845
 30
0.0
 10
101.971789038
 20
172.224331162
 30
0.0
 10
102.3087208711
 20
172.2636688741
 30
0.0
 10
102.5740750578
 20
172.3668371919
 30
0.0
 10
102.757456685
 20
172.4980283481
 30
0.0
 10
102.8724274551
 20
172.6230783773
 30
0.0
 10
102.9521452308
 20
172.7737424807
 30
0.0
 10
102.9716351502
 20
172.886670685
 30
0.0
 10
102.9716351502
 20
172.9427189996
 30
0.0
  0
SPLINE
  5
3E8
100
AcDbEntity
  8
3_ALL_AXES
100
AcDbSpline
 62
7
  6
CONTINUOUS
 70
0
 71
3
 72
11
 73
7
 74
0
 42
0.0000001
 43
0.0000001
 44
0.0000000001
 40
0.0
 40
0.0
 40
0.0
 40
0.0
 40
0.2500103617
 40
0.5000189242
 40
0.7500124732
 40
1.0
 40
1.0
 40
1.0
 40
1.0
 10
97.9716351502
 20
174.4427189996
 30
0.0
 10
98.2083078279
 20
174.3243826607
 30
0.0
 10
98.6880753403
 20
174.1001979252
 30
0.0
 10
99.4283660574
 20
173.8117609273
 30
0.0
 10
100.189583327
 20
173.5834105242
 30
0.0
 10
100.709710423
 20
173.4801368178
 30
0.0
 10
100.9716351502
 20
173.4427189996
 30
0.0
  0
SPLINE
  5
3E9
100
AcDbEntity
  8
3_ALL_AXES
100
AcDbSpline
 62
7
  6
CONTINUOUS
 70
0
 71
3
 72
11
 73
7
 74
0
 42
0.0000001
 43
0.0000001
 44
0.0000000001
 40
0.0
 40
0.0
 40
0.0
 40
0.0
 40
0.2699449571
 40
0.5270499909
 40
0.7701654741
 40
1.0
 40
1.0
 40
1.0
 40
1.0
 10
105.9716351502
 20
174.4427189996
 30
0.0
 10
106.0874611151
 20
174.3268930347
 30
0.0
 10
106.3209957297
 20
174.1078927233
 30
0.0
 10
106.6895063311
 20
173.8191340776
 30
0.0
 10
107.0695071017
 20
173.5889470775
 30
0.0
 10
107.3375375269
 20
173.4810326062
 30
0.0
 10
107.4716351502
 20
173.4427189996
 30
0.0
  0
SPLINE
  5
3EA
100
AcDbEntity
  8
3_ALL_AXES
100
AcDbSpline
 62
7
  6
CONTINUOUS
 70
0
 71
3
 72
11
 73
7
 74
0
 42
0.0000001
 43
0.0000001
 44
0.0000000001
 40
0.0
 40
0.0
 40
0.0
 40
0.0
 40
0.2298345438
 40
0.4729500311
 40
0.7300550521
 40
1.0
 40
1.0
 40
1.0
 40
1.0
 10
108.4716351502
 20
173.4427189996
 30
0.0
 10
108.6057327838
 20
173.4810326092
 30
0.0
 10
108.873763221
 20
173.5889470874
 30
0.0
 10
109.2537639926
 20
173.8191340965
 30
0.0
 10
109.622274583
 20
174.1078927378
 30
0.0
 10
109.8558091892
 20
174.3268930386
 30
0.0
 10
109.9716351502
 20
174.4427189996
 30
0.0
  0
SPLINE
  5
3EB
100
AcDbEntity
  8
3_ALL_AXES
100
AcDbSpline
 62
7
  6
CONTINUOUS
 70
0
 71
3
 72
11
 73
7
 74
0
 42
0.0000001
 43
0.0000001
 44
0.0000000001
 40
0.0
 40
0.0
 40
0.0
 40
0.0
 40
0.2298345438
 40
0.4729500311
 40
0.7300550521
 40
1.0
 40
1.0
 40
1.0
 40
1.0
 10
96.4716351502
 20
173.4427189996
 30
0.0
 10
96.6057327838
 20
173.4810326092
 30
0.0
 10
96.873763221
 20
173.5889470874
 30
0.0
 10
97.2537639926
 20
173.8191340965
 30
0.0
 10
97.622274583
 20
174.1078927378
 30
0.0
 10
97.8558091892
 20
174.3268930386
 30
0.0
 10
97.9716351502
 20
174.4427189996
 30
0.0
  0
LINE
  5
3EC
100
AcDbEntity
  8
7_ALL_FEATURES
100
AcDbLine
 62
7
  6
CONTINUOUS
 10
107.767288351
 20
232.4427189996
 11
107.8327074231
 21
231.9427189996
  0
LINE
  5
3ED
100
AcDbEntity
  8
7_ALL_FEATURES
100
AcDbLine
 62
7
  6
CONTINUOUS
 10
126.1759819494
 20
232.4427189996
 11
126.1105628772
 21
231.9427189996
  0
SPLINE
  5
3EE
100
AcDbEntity
  8
7_ALL_FEATURES
100
AcDbSpline
 62
7
  6
CONTINUOUS
 70
0
 71
3
 72
8
 73
4
 74
0
 42
0.0000001
 43
0.0000001
 44
0.0000000001
 40
0.0
 40
0.0
 40
0.0
 40
0.0
 40
1.0
 40
1.0
 40
1.0
 40
1.0
 10
109.8996835277
 20
186.1927189996
 30
0.0
 10
109.930644222
 20
185.9426947851
 30
0.0
 10
109.9617815873
 20
185.6926923412
 30
0.0
 10
109.9931503755
 20
185.4427189996
 30
0.0
  0
SPLINE
  5
3EF
100
AcDbEntity
  8
7_ALL_FEATURES
100
AcDbSpline
 62
7
  6
CONTINUOUS
 70
0
 71
3
 72
8
 73
4
 74
0
 42
0.0000001
 43
0.0000001
 44
0.0000000001
 40
0.0
 40
0.0
 40
0.0
 40
0.0
 40
1.0
 40
1.0
 40
1.0
 40
1.0
 10
123.9501199248
 20
185.4427189996
 30
0.0
 10
123.981488952
 20
185.6926923112
 30
0.0
 10
124.0126258365
 20
185.9426948151
 30
0.0
 10
124.0435867726
 20
186.1927189996
 30
0.0
  0
SPLINE
  5
3F0
100
AcDbEntity
  8
3_ALL_AXES
100
AcDbSpline
 62
7
  6
CONTINUOUS
 70
0
 71
3
 72
11
 73
7
 74
0
 42
0.0000001
 43
0.0000001
 44
0.0000000001
 40
0.0
 40
0.0
 40
0.0
 40
0.0
 40
0.2528641712
 40
0.5038317346
 40
0.7528115376
 40
1.0
 40
1.0
 40
1.0
 40
1.0
 10
262.8211902113
 20
174.4427189996
 30
0.0
 10
263.0254365083
 20
174.3247973451
 30
0.0
 10
263.4392637718
 20
174.1013864673
 30
0.0
 10
264.0801752963
 20
173.8127974651
 30
0.0
 10
264.7395342286
 20
173.5841080718
 30
0.0
 10
265.1917909104
 20
173.4802427277
 30
0.0
 10
265.4192664227
 20
173.4427189996
 30
0.0
  0
SPLINE
  5
3F1
100
AcDbEntity
  8
3_ALL_AXES
100
AcDbSpline
 62
7
  6
CONTINUOUS
 70
0
 71
3
 72
11
 73
7
 74
0
 42
0.0000001
 43
0.0000001
 44
0.0000000001
 40
0.0
 40
0.0
 40
0.0
 40
0.0
 40
0.2528641712
 40
0.5038317346
 40
0.7528115376
 40
1.0
 40
1.0
 40
1.0
 40
1.0
 10
255.8929869811
 20
174.4427189996
 30
0.0
 10
256.097233278
 20
174.3247973451
 30
0.0
 10
256.5110605415
 20
174.1013864673
 30
0.0
 10
257.151972066
 20
173.8127974651
 30
0.0
 10
257.8113309983
 20
173.5841080718
 30
0.0
 10
258.2635876801
 20
173.4802427277
 30
0.0
 10
258.4910631924
 20
173.4427189996
 30
0.0
  0
SPLINE
  5
3F2
100
AcDbEntity
  8
3_ALL_AXES
100
AcDbSpline
 62
7
  6
CONTINUOUS
 70
0
 71
3
 72
11
 73
7
 74
0
 42
0.0000001
 43
0.0000001
 44
0.0000000001
 40
0.0
 40
0.0
 40
0.0
 40
0.0
 40
0.2471884812
 40
0.4961682871
 40
0.7471358372
 40
1.0
 40
1.0
 40
1.0
 40
1.0
 10
260.223114
 20
173.4427189996
 30
0.0
 10
260.4505895296
 20
173.4802427305
 30
0.0
 10
260.9028462309
 20
173.5841080809
 30
0.0
 10
261.5622051679
 20
173.8127974842
 30
0.0
 10
262.2031166744
 20
174.1013864829
 30
0.0
 10
262.6169439212
 20
174.324797349
 30
0.0
 10
262.8211902113
 20
174.4427189996
 30
0.0
  0
SPLINE
  5
3F3
100
AcDbEntity
  8
3_ALL_AXES
100
AcDbSpline
 62
7
  6
CONTINUOUS
 70
0
 71
3
 72
19
 73
15
 74
0
 42
0.0000001
 43
0.0000001
 44
0.0000000001
 40
0.0
 40
0.0
 40
0.0
 40
0.0
 40
0.067939647
 40
0.1343369129
 40
0.1986396402
 40
0.2610648807
 40
0.3817414899
 40
0.5000607139
 40
0.6183763092
 40
0.739024176
 40
0.8014382043
 40
0.865725454
 40
0.9320917545
 40
1.0
 40
1.0
 40
1.0
 40
1.0
 10
258.4910631924
 20
172.9427189996
 30
0.0
 10
258.4910631924
 20
172.8868333491
 30
0.0
 10
258.5074500293
 20
172.7756883842
 30
0.0
 10
258.5756248096
 20
172.625228497
 30
0.0
 10
258.6750378444
 20
172.4995417333
 30
0.0
 10
258.832481726
 20
172.3687998998
 30
0.0
 10
259.0624729406
 20
172.2641595949
 30
0.0
 10
259.3572381616
 20
172.2241811105
 30
0.0
 10
259.6519668852
 20
172.2642455352
 30
0.0
 10
259.8818976981
 20
172.3689249383
 30
0.0
 10
260.0392767873
 20
172.4996748264
 30
0.0
 10
260.1386197132
 20
172.6253558171
 30
0.0
 10
260.2067407214
 20
172.7757662084
 30
0.0
 10
260.223114
 20
172.8868591793
 30
0.0
 10
260.223114
 20
172.9427189996
 30
0.0
  0
SPLINE
  5
3F4
100
AcDbEntity
  8
3_ALL_AXES
100
AcDbSpline
 62
7
  6
CONTINUOUS
 70
0
 71
3
 72
11
 73
7
 74
0
 42
0.0000001
 43
0.0000001
 44
0.0000000001
 40
0.0
 40
0.0
 40
0.0
 40
0.0
 40
0.2471884812
 40
0.4961682871
 40
0.7471358372
 40
1.0
 40
1.0
 40
1.0
 40
1.0
 10
267.1513172303
 20
173.4427189996
 30
0.0
 10
267.3787927598
 20
173.4802427305
 30
0.0
 10
267.8310494611
 20
173.5841080809
 30
0.0
 10
268.4904083982
 20
173.8127974842
 30
0.0
 10
269.1313199047
 20
174.1013864829
 30
0.0
 10
269.5451471515
 20
174.324797349
 30
0.0
 10
269.7493934416
 20
174.4427189996
 30
0.0
  0
SPLINE
  5
3F5
100
AcDbEntity
  8
3_ALL_AXES
100
AcDbSpline
 62
7
  6
CONTINUOUS
 70
0
 71
3
 72
19
 73
15
 74
0
 42
0.0000001
 43
0.0000001
 44
0.0000000001
 40
0.0
 40
0.0
 40
0.0
 40
0.0
 40
0.0679313718
 40
0.134330414
 40
0.1986328954
 40
0.2610542132
 40
0.3817238737
 40
0.5000536105
 40
0.6183773004
 40
0.7390372629
 40
0.8014553941
 40
0.8657396837
 40
0.9320963707
 40
1.0
 40
1.0
 40
1.0
 40
1.0
 10
265.4192664227
 20
172.9427189996
 30
0.0
 10
265.4192664227
 20
172.8868401481
 30
0.0
 10
265.4356521634
 20
172.7757011362
 30
0.0
 10
265.5038174651
 20
172.62524306
 30
0.0
 10
265.6032270277
 20
172.4995555733
 30
0.0
 10
265.7606613552
 20
172.3688172233
 30
0.0
 10
265.9906460213
 20
172.2641640776
 30
0.0
 10
266.2854216914
 20
172.2241803706
 30
0.0
 10
266.5801760383
 20
172.2642441853
 30
0.0
 10
266.8101256305
 20
172.3689349678
 30
0.0
 10
266.9675066352
 20
172.4997005782
 30
0.0
 10
267.066835368
 20
172.6253834686
 30
0.0
 10
267.1349475569
 20
172.7757814557
 30
0.0
 10
267.1513172303
 20
172.8868629684
 30
0.0
 10
267.1513172303
 20
172.9427189996
 30
0.0
  0
ELLIPSE
  5
3F6
100
AcDbEntity
  8
7_ALL_FEATURES
100
AcDbEllipse
 62
3
  6
CONTINUOUS
 10
112.0711716633
 20
196.512014792
 30
0.0
 11
4.1574578963
 21
4.1574578963
 31
0.0
 40
0.4142135624
 41
1.1780972451
 42
1.3117249102
  0
ELLIPSE
  5
3F7
100
AcDbEntity
  8
7_ALL_FEATURES
100
AcDbEllipse
 62
3
  6
CONTINUOUS
 10
121.872098637
 20
196.512014792
 30
0.0
 11
4.1574578963
 21
-4.1574578963
 31
0.0
 40
0.4142135624
 41
1.8298677433
 42
1.9634954085
  0
ENDSEC
  0
SECTION
  2
OBJECTS
  0
DICTIONARY
  5
3F8
100
AcDbDictionary
  3
ACAD_GROUP
350
3F9
  3
ACAD_MLINESTYLE
350
3FA
  0
DICTIONARY
  5
3F9
102
{ACAD_REACTORS
330
3F8
102
}
100
AcDbDictionary
  0
DICTIONARY
  5
3FA
102
{ACAD_REACTORS
330
3F8
102
}
100
AcDbDictionary
  3
STANDARD
350
3FB
  0
MLINESTYLE
  5
3FB
102
{ACAD_REACTORS
330
3FA
102
}
100
AcDbMlineStyle
  2
STANDARD
 70
0
  3

 62
256
 51
90.0
 52
90.0
 71
2
 49
0.5
 62
256
  6
BYLAYER
 49
-0.5
 62
256
  6
BYLAYER
  0
ENDSEC
  0
EOF
