999
DXF file: 3h7_c_095.dxf
999
Pro/ENGINEER 2011490 by Parametric Technology Corporation
  0
SECTION
  2
HEADER
  9
$ACADVER
  1
AC1021
  9
$DWGCODEPAGE
  3
ANSI_1252
  9
$EXTMAX
 10
841.0
 20
1189.0
 30
0.0
  9
$EXTMIN
 10
0.0
 20
0.0
 30
0.0
  9
$LIMMIN
 10
0.0
 20
0.0
  9
$LIMMAX
 10
841.0
 20
1189.0
  9
$VIEWCTR
 10
420.5
 20
594.5
  9
$VIEWSIZE
 40
1189.0
  9
$CLAYER
  8
0
  9
$LTSCALE
 40
77.5051851852
  9
$CELTYPE
  6
BYLAYER
  9
$DIMSCALE
 40
1.0
  9
$DIMASZ
 40
2.5
  9
$DIMEXO
 40
8.8074074074
  9
$DIMDLI
 40
53.549037037
  9
$DIMEXE
 40
25.3653333333
  9
$DIMCEN
 40
12.6826666667
  9
$DIMLFAC
 40
1.0
  9
$DIMBLK
  1
_CLOSED
  9
$DIMTXT
 40
3.0
  9
$DIMTOL
 70
1
  9
$DIMLIM
 70
0
  9
$DIMTFAC
 40
1.0
  9
$DIMTP
 40
0.01
  9
$DIMTM
 40
0.01
  9
$PDMODE
 70
3
  9
$PDSIZE
 40
0.3125
  9
$HANDSEED
  5
474
  9
$TILEMODE
 70
1
  9
$MEASUREMENT
 70
1
  9
$INSUNITS
 70
4
  0
ENDSEC
  0
SECTION
  2
CLASSES
  0
CLASS
  1
ACDBDICTIONARYWDFLT
  2
AcDbDictionaryWithDefault
  3
AutoCAD 2000
 90
0
 91
1
280
0
281
0
  0
CLASS
  1
ACDBPLACEHOLDER
  2
AcDbPlaceHolder
  3
AutoCAD 2000
 90
0
 91
1
280
0
281
0
  0
CLASS
  1
LAYOUT
  2
AcDbLayout
  3
AutoCAD 2000
 90
0
 91
0
280
0
281
0
  0
CLASS
  1
TABLESTYLE
  2
AcDbTableStyle
  3
ObjectDBX Classes
 90
2047
 91
1
280
0
281
0
  0
CLASS
  1
ACAD_TABLE
  2
AcDbTable
  3
ObjectDBX Classes
 90
1025
 91
1
280
0
281
1
  0
ENDSEC
  0
SECTION
  2
TABLES
  0
TABLE
  2
VPORT
  5
8
100
AcDbSymbolTable
 70
2
  0
VPORT
  5
1F4
100
AcDbSymbolTableRecord
100
AcDbViewportTableRecord
  2
*ACTIVE
 70
0
 10
0.0
 20
0.0
 11
1.0
 21
1.0
 12
420.5
 22
594.5
 13
0.0
 23
0.0
 14
1.0
 24
1.0
 15
0.0
 25
0.0
 16
0.0
 26
0.0
 36
1.0
 17
0.0
 27
0.0
 37
0.0
 40
1189.0
 41
0.7073170732
 42
50.0
 43
0.0
 44
0.0
 50
0.0
 51
0.0
 71
0
 72
100
 73
1
 74
1
 75
0
 76
0
 77
0
 78
0
  0
ENDTAB
  0
TABLE
  2
LTYPE
  5
5
100
AcDbSymbolTable
 70
6
  0
LTYPE
  5
14
100
AcDbSymbolTableRecord
100
AcDbLinetypeTableRecord
  2
BYBLOCK
 70
0
  3

 72
65
 73
0
 40
0.0
  0
LTYPE
  5
15
100
AcDbSymbolTableRecord
100
AcDbLinetypeTableRecord
  2
BYLAYER
 70
0
  3

 72
65
 73
0
 40
0.0
  0
LTYPE
  5
16
100
AcDbSymbolTableRecord
100
AcDbLinetypeTableRecord
  2
CONTINUOUS
 70
64
  3
Solid line
 72
65
 73
0
 40
0.0
  0
LTYPE
  5
1F5
100
AcDbSymbolTableRecord
100
AcDbLinetypeTableRecord
  2
CENTER
 70
64
  3
____ _ ____ _ ____ _ ____ _ ____ _ ____ _ ____
 72
65
 73
4
 40
0.6
 49
0.375
 74
0
 49
-0.075
 74
0
 49
0.075
 74
0
 49
-0.075
 74
0
  0
LTYPE
  5
1F6
100
AcDbSymbolTableRecord
100
AcDbLinetypeTableRecord
  2
HIDDEN
 70
64
  3
- - - - - - - - - - - - - - - - - - - -
 72
65
 73
2
 40
0.2
 49
0.1
 74
0
 49
-0.1
 74
0
  0
LTYPE
  5
1F7
100
AcDbSymbolTableRecord
100
AcDbLinetypeTableRecord
  2
PHANTOM
 70
64
  3
_____ _ _ _____ _ _ _____ _ _ _____
 72
65
 73
6
 40
0.8
 49
0.45
 74
0
 49
-0.05
 74
0
 49
0.1
 74
0
 49
-0.05
 74
0
 49
0.1
 74
0
 49
-0.05
 74
0
  0
LTYPE
  5
1F8
100
AcDbSymbolTableRecord
100
AcDbLinetypeTableRecord
  2
DOT
 70
64
  3
. . . . . . . . . . . . . . . . . . . .
 72
65
 73
2
 40
0.2
 49
0.1
 74
0
 49
-0.1
 74
0
  0
LTYPE
  5
1F9
100
AcDbSymbolTableRecord
100
AcDbLinetypeTableRecord
  2
DASHED
 70
64
  3
- - - - - - - - - - - - - - - - - - - -
 72
65
 73
2
 40
0.2
 49
0.1
 74
0
 49
-0.1
 74
0
  0
ENDTAB
  0
TABLE
  2
LAYER
  5
2
100
AcDbSymbolTable
 70
36
  0
LAYER
  5
10
100
AcDbSymbolTableRecord
100
AcDbLayerTableRecord
  2
0
 70
0
 62
7
  6
CONTINUOUS
370
-3
390
F
  0
LAYER
  5
1FA
100
AcDbSymbolTableRecord
100
AcDbLayerTableRecord
  2
DEFAULT_1
 70
0
 62
7
  6
CENTER
370
-3
390
F
  0
LAYER
  5
1FB
100
AcDbSymbolTableRecord
100
AcDbLayerTableRecord
  2
DEFAULT_2
 70
0
 62
8
  6
HIDDEN
370
-3
390
F
  0
LAYER
  5
1FC
100
AcDbSymbolTableRecord
100
AcDbLayerTableRecord
  2
DEFAULT_3
 70
0
 62
7
  6
PHANTOM
370
-3
390
F
  0
LAYER
  5
1FD
100
AcDbSymbolTableRecord
100
AcDbLayerTableRecord
  2
01_ALL_DTM_PLN
 70
0
 62
7
  6
CONTINUOUS
370
-3
390
F
  0
LAYER
  5
1FE
100
AcDbSymbolTableRecord
100
AcDbLayerTableRecord
  2
01__ASM_ALL_DTM_PLN
 70
0
 62
7
  6
CONTINUOUS
370
-3
390
F
  0
LAYER
  5
1FF
100
AcDbSymbolTableRecord
100
AcDbLayerTableRecord
  2
01__ASM_DEF_DTM_PLN
 70
0
 62
7
  6
CONTINUOUS
370
-3
390
F
  0
LAYER
  5
200
100
AcDbSymbolTableRecord
100
AcDbLayerTableRecord
  2
01___PRT_ALL_DTM_PLN
 70
0
 62
7
  6
CONTINUOUS
370
-3
390
F
  0
LAYER
  5
201
100
AcDbSymbolTableRecord
100
AcDbLayerTableRecord
  2
01___PRT_DEF_DTM_PLN
 70
0
 62
7
  6
CONTINUOUS
370
-3
390
F
  0
LAYER
  5
202
100
AcDbSymbolTableRecord
100
AcDbLayerTableRecord
  2
02_ALL_AXES
 70
0
 62
7
  6
CONTINUOUS
370
-3
390
F
  0
LAYER
  5
203
100
AcDbSymbolTableRecord
100
AcDbLayerTableRecord
  2
02__ASM_ALL_AXES
 70
0
 62
7
  6
CONTINUOUS
370
-3
390
F
  0
LAYER
  5
204
100
AcDbSymbolTableRecord
100
AcDbLayerTableRecord
  2
02___PRT_ALL_AXES
 70
0
 62
7
  6
CONTINUOUS
370
-3
390
F
  0
LAYER
  5
205
100
AcDbSymbolTableRecord
100
AcDbLayerTableRecord
  2
03_ALL_CURVES
 70
0
 62
7
  6
CONTINUOUS
370
-3
390
F
  0
LAYER
  5
206
100
AcDbSymbolTableRecord
100
AcDbLayerTableRecord
  2
03__ASM_ALL_CURVES
 70
0
 62
7
  6
CONTINUOUS
370
-3
390
F
  0
LAYER
  5
207
100
AcDbSymbolTableRecord
100
AcDbLayerTableRecord
  2
03___PRT_ALL_CURVES
 70
0
 62
7
  6
CONTINUOUS
370
-3
390
F
  0
LAYER
  5
208
100
AcDbSymbolTableRecord
100
AcDbLayerTableRecord
  2
04_ALL_DTM_PNT
 70
0
 62
7
  6
CONTINUOUS
370
-3
390
F
  0
LAYER
  5
209
100
AcDbSymbolTableRecord
100
AcDbLayerTableRecord
  2
04__ASM_ALL_DTM_PNT
 70
0
 62
7
  6
CONTINUOUS
370
-3
390
F
  0
LAYER
  5
20A
100
AcDbSymbolTableRecord
100
AcDbLayerTableRecord
  2
04___PRT_ALL_DTM_PNT
 70
0
 62
7
  6
CONTINUOUS
370
-3
390
F
  0
LAYER
  5
20B
100
AcDbSymbolTableRecord
100
AcDbLayerTableRecord
  2
05_ALL_DTM_CSYS
 70
0
 62
7
  6
CONTINUOUS
370
-3
390
F
  0
LAYER
  5
20C
100
AcDbSymbolTableRecord
100
AcDbLayerTableRecord
  2
05__ASM_ALL_DTM_CSYS
 70
0
 62
7
  6
CONTINUOUS
370
-3
390
F
  0
LAYER
  5
20D
100
AcDbSymbolTableRecord
100
AcDbLayerTableRecord
  2
05__ASM_DEF_DTM_CSYS
 70
0
 62
7
  6
CONTINUOUS
370
-3
390
F
  0
LAYER
  5
20E
100
AcDbSymbolTableRecord
100
AcDbLayerTableRecord
  2
05___PRT_ALL_DTM_CSYS
 70
0
 62
7
  6
CONTINUOUS
370
-3
390
F
  0
LAYER
  5
20F
100
AcDbSymbolTableRecord
100
AcDbLayerTableRecord
  2
05___PRT_DEF_DTM_CSYS
 70
0
 62
7
  6
CONTINUOUS
370
-3
390
F
  0
LAYER
  5
210
100
AcDbSymbolTableRecord
100
AcDbLayerTableRecord
  2
06_ALL_SURFS
 70
0
 62
7
  6
CONTINUOUS
370
-3
390
F
  0
LAYER
  5
211
100
AcDbSymbolTableRecord
100
AcDbLayerTableRecord
  2
06__ASM_ALL_SURFS
 70
0
 62
7
  6
CONTINUOUS
370
-3
390
F
  0
LAYER
  5
212
100
AcDbSymbolTableRecord
100
AcDbLayerTableRecord
  2
06___PRT_ALL_SURFS
 70
0
 62
7
  6
CONTINUOUS
370
-3
390
F
  0
LAYER
  5
213
100
AcDbSymbolTableRecord
100
AcDbLayerTableRecord
  2
07__ASM_ALL_SKELETONS
 70
0
 62
7
  6
CONTINUOUS
370
-3
390
F
  0
LAYER
  5
214
100
AcDbSymbolTableRecord
100
AcDbLayerTableRecord
  2
1_ALL_PLANES
 70
0
 62
7
  6
CONTINUOUS
370
-3
390
F
  0
LAYER
  5
215
100
AcDbSymbolTableRecord
100
AcDbLayerTableRecord
  2
3_ALL_AXES
 70
0
 62
7
  6
CONTINUOUS
370
-3
390
F
  0
LAYER
  5
216
100
AcDbSymbolTableRecord
100
AcDbLayerTableRecord
  2
4_ALL_POINTS
 70
0
 62
7
  6
CONTINUOUS
370
-3
390
F
  0
LAYER
  5
217
100
AcDbSymbolTableRecord
100
AcDbLayerTableRecord
  2
5_ALL_CURVES
 70
0
 62
7
  6
CONTINUOUS
370
-3
390
F
  0
LAYER
  5
218
100
AcDbSymbolTableRecord
100
AcDbLayerTableRecord
  2
6_ALL_SURFS
 70
0
 62
7
  6
CONTINUOUS
370
-3
390
F
  0
LAYER
  5
219
100
AcDbSymbolTableRecord
100
AcDbLayerTableRecord
  2
7_ALL_FEATURES
 70
0
 62
7
  6
CONTINUOUS
370
-3
390
F
  0
LAYER
  5
21A
100
AcDbSymbolTableRecord
100
AcDbLayerTableRecord
  2
8_ALL_NOTES_BALLOONS_SYMBOLS_GT
 70
0
 62
7
  6
CONTINUOUS
370
-3
390
F
  0
LAYER
  5
21B
100
AcDbSymbolTableRecord
100
AcDbLayerTableRecord
  2
XSEC_DATUMS
 70
0
 62
7
  6
CONTINUOUS
370
-3
390
F
  0
ENDTAB
  0
TABLE
  2
STYLE
  5
3
100
AcDbSymbolTable
 70
1
  0
STYLE
  5
11
100
AcDbSymbolTableRecord
100
AcDbTextStyleTableRecord
  2
STANDARD
 70
0
 40
0.0
 41
0.85
 50
0.0
 71
0
 42
0.2
  3
txt
  4

  0
STYLE
  5
21C
100
AcDbSymbolTableRecord
100
AcDbTextStyleTableRecord
  2
TEXTSTYLE_1
 70
0
 40
0.0
 41
0.8
 50
0.0
 71
0
 42
0.2
  3
gdt
  4

  0
ENDTAB
  0
TABLE
  2
VIEW
  5
6
100
AcDbSymbolTable
 70
0
  0
ENDTAB
  0
TABLE
  2
UCS
  5
7
100
AcDbSymbolTable
 70
0
  0
ENDTAB
  0
TABLE
  2
APPID
  5
9
100
AcDbSymbolTable
 70
1
  0
APPID
  5
21D
100
AcDbSymbolTableRecord
100
AcDbRegAppTableRecord
  2
ACAD
 70
0
  0
ENDTAB
  0
TABLE
  2
BLOCK_RECORD
  5
1
100
AcDbSymbolTable
 70
0
  0
BLOCK_RECORD
  5
21E
100
AcDbSymbolTableRecord
100
AcDbBlockTableRecord
  2
*Model_Space
  0
BLOCK_RECORD
  5
21F
100
AcDbSymbolTableRecord
100
AcDbBlockTableRecord
  2
*Paper_Space
  0
BLOCK_RECORD
  5
220
100
AcDbSymbolTableRecord
100
AcDbBlockTableRecord
  2
_CLOSED
  0
BLOCK_RECORD
  5
221
100
AcDbSymbolTableRecord
100
AcDbBlockTableRecord
  2
*D0
  0
BLOCK_RECORD
  5
222
100
AcDbSymbolTableRecord
100
AcDbBlockTableRecord
  2
*D1
  0
BLOCK_RECORD
  5
223
100
AcDbSymbolTableRecord
100
AcDbBlockTableRecord
  2
*D2
  0
BLOCK_RECORD
  5
224
100
AcDbSymbolTableRecord
100
AcDbBlockTableRecord
  2
*D3
  0
BLOCK_RECORD
  5
225
100
AcDbSymbolTableRecord
100
AcDbBlockTableRecord
  2
*D4
  0
BLOCK_RECORD
  5
226
100
AcDbSymbolTableRecord
100
AcDbBlockTableRecord
  2
*D5
  0
BLOCK_RECORD
  5
227
100
AcDbSymbolTableRecord
100
AcDbBlockTableRecord
  2
LOGO2_BL0
  0
BLOCK_RECORD
  5
228
100
AcDbSymbolTableRecord
100
AcDbBlockTableRecord
  2
*T1
  0
ENDTAB
  0
TABLE
  2
DIMSTYLE
  5
A
100
AcDbSymbolTable
 70
1
100
AcDbDimStyleTable
 71
0
  0
DIMSTYLE
105
229
100
AcDbSymbolTableRecord
100
AcDbDimStyleTableRecord
  2
STANDARD
 70
0
  3

  4

 40
1.0
 41
2.5
 42
0.0625
 43
0.38
 44
0.18
 45
0.0
 46
0.0
 47
0.01
 48
0.01
140
3.0
141
0.09
142
0.0
143
25.4
144
1.0
145
0.0
146
1.0
147
0.09
 71
1.0
 72
0.0
 73
0
 74
0
 75
0
 76
0
 77
1
 78
8
170
0
171
2
172
0
173
0
174
0
175
0
176
0
177
0
178
0
270
2
271
2
272
2
273
2
274
2
275
0
280
0
281
0
282
0
283
1
284
8
285
0
286
0
287
3
288
0
340
11
341
220
342
220
343
220
344
220
  0
DIMSTYLE
105
22A
100
AcDbSymbolTableRecord
100
AcDbDimStyleTableRecord
  2
DIMSTYLE_1
 70
0
  3

  4

 40
1.0
 41
2.5
 42
0.0625
 43
0.38
 44
0.18
 45
0.0
 46
0.0
 47
0.5
 48
0.5
140
3.0
141
0.09
142
0.0
143
25.4
144
1.0
145
0.0
146
1.0
147
0.09
 71
0.0
 72
0.0
 73
0
 74
0
 75
0
 76
0
 77
1
 78
8
170
0
171
2
172
0
173
0
174
0
175
0
176
0
177
0
178
0
270
2
271
2
272
2
273
2
274
2
275
0
280
0
281
0
282
0
283
1
284
8
285
0
286
0
287
3
288
0
340
11
341
220
342
220
343
220
344
220
  0
DIMSTYLE
105
22B
100
AcDbSymbolTableRecord
100
AcDbDimStyleTableRecord
  2
DIMSTYLE_2
 70
0
  3

  4

 40
1.0
 41
2.5
 42
0.0625
 43
0.38
 44
0.18
 45
0.0
 46
0.0
 47
0.3
 48
0.3
140
3.0
141
0.09
142
0.0
143
25.4
144
1.0
145
0.0
146
1.0
147
0.09
 71
0.0
 72
0.0
 73
0
 74
0
 75
0
 76
0
 77
1
 78
8
170
0
171
2
172
0
173
0
174
0
175
0
176
0
177
0
178
0
270
2
271
2
272
2
273
2
274
2
275
0
280
0
281
0
282
0
283
1
284
8
285
0
286
0
287
3
288
0
340
11
341
220
342
220
343
220
344
220
  0
DIMSTYLE
105
22C
100
AcDbSymbolTableRecord
100
AcDbDimStyleTableRecord
  2
DIMSTYLE_3
 70
0
  3

  4

 40
1.0
 41
2.5
 42
0.0625
 43
0.38
 44
0.18
 45
0.0
 46
0.0
 47
0.8
 48
0.8
140
3.0
141
0.09
142
0.0
143
25.4
144
1.0
145
0.0
146
1.0
147
0.09
 71
0.0
 72
0.0
 73
0
 74
0
 75
0
 76
0
 77
1
 78
8
170
0
171
2
172
0
173
0
174
0
175
0
176
0
177
0
178
0
270
2
271
2
272
2
273
2
274
2
275
0
280
0
281
0
282
0
283
1
284
8
285
0
286
0
287
3
288
0
340
11
341
220
342
220
343
220
344
220
  0
DIMSTYLE
105
22D
100
AcDbSymbolTableRecord
100
AcDbDimStyleTableRecord
  2
DIMSTYLE_4
 70
0
  3

  4

 40
1.0
 41
2.5
 42
0.0625
 43
0.38
 44
0.18
 45
0.0
 46
0.0
 47
0.3
 48
0.3
140
3.0
141
0.09
142
0.0
143
25.4
144
1.0
145
0.0
146
1.0
147
0.09
 71
0.0
 72
0.0
 73
0
 74
0
 75
0
 76
0
 77
1
 78
8
170
0
171
2
172
0
173
0
174
0
175
0
176
0
177
0
178
0
270
2
271
0
272
0
273
2
274
2
275
0
280
0
281
0
282
0
283
1
284
8
285
0
286
0
287
3
288
0
340
11
341
220
342
220
343
220
344
220
  0
ENDTAB
  0
ENDSEC
  0
SECTION
  2
BLOCKS
  0
BLOCK
  5
20
100
AcDbEntity
  8
0
100
AcDbBlockBegin
  2
*Model_Space
 70
0
 10
0.0
 20
0.0
 30
0.0
  3
*Model_Space
  1

  0
ENDBLK
  5
21
100
AcDbEntity
  8
0
100
AcDbBlockEnd
  0
BLOCK
  5
1C
100
AcDbEntity
  8
0
100
AcDbBlockBegin
  2
*Paper_Space
 70
0
 10
0.0
 20
0.0
 30
0.0
  3
*Paper_Space
  1

  0
ENDBLK
  5
1D
100
AcDbEntity
  8
0
100
AcDbBlockEnd
  0
BLOCK
  5
22E
100
AcDbEntity
  8
0
100
AcDbBlockBegin
 62
2
  6
CONTINUOUS
  2
LOGO2_BL0
 70
64
 10
753.731072936
 20
39.0120455435
  3
LOGO2_BL0
  1

  0
LINE
  5
22F
100
AcDbEntity
  8
0
100
AcDbLine
 62
7
  6
CONTINUOUS
 10
745.4739981643
 20
42.2075368823
 11
744.1696572349
 21
42.2075368823
  0
LINE
  5
230
100
AcDbEntity
  8
0
100
AcDbLine
 62
7
  6
CONTINUOUS
 10
744.1696572349
 20
42.2075368823
 11
744.1696572349
 21
31.7484708225
  0
LINE
  5
231
100
AcDbEntity
  8
0
100
AcDbLine
 62
7
  6
CONTINUOUS
 10
744.1696572349
 20
31.7484708225
 11
748.6507121232
 21
31.7484708225
  0
LINE
  5
232
100
AcDbEntity
  8
0
100
AcDbLine
 62
7
  6
CONTINUOUS
 10
748.6507121232
 20
31.7484708225
 11
748.6507121232
 21
32.9413251475
  0
LINE
  5
233
100
AcDbEntity
  8
0
100
AcDbLine
 62
7
  6
CONTINUOUS
 10
748.6507121232
 20
32.9413251475
 11
745.4739981643
 21
32.9413251475
  0
LINE
  5
234
100
AcDbEntity
  8
0
100
AcDbLine
 62
7
  6
CONTINUOUS
 10
745.4739981643
 20
32.9413251475
 11
745.4739981643
 21
42.2075368823
  0
LINE
  5
235
100
AcDbEntity
  8
0
100
AcDbLine
 62
7
  6
CONTINUOUS
 10
760.4103243806
 20
42.2075368823
 11
759.1065068625
 21
42.2075368823
  0
LINE
  5
236
100
AcDbEntity
  8
0
100
AcDbLine
 62
7
  6
CONTINUOUS
 10
759.1065068625
 20
42.2075368823
 11
759.1065068625
 21
31.7484708225
  0
LINE
  5
237
100
AcDbEntity
  8
0
100
AcDbLine
 62
7
  6
CONTINUOUS
 10
759.1065068625
 20
31.7484708225
 11
763.5876926036
 21
31.7484708225
  0
LINE
  5
238
100
AcDbEntity
  8
0
100
AcDbLine
 62
7
  6
CONTINUOUS
 10
763.5876926036
 20
31.7484708225
 11
763.5876926036
 21
32.9413251475
  0
LINE
  5
239
100
AcDbEntity
  8
0
100
AcDbLine
 62
7
  6
CONTINUOUS
 10
763.5876926036
 20
32.9413251475
 11
760.4103243806
 21
32.9413251475
  0
LINE
  5
23A
100
AcDbEntity
  8
0
100
AcDbLine
 62
7
  6
CONTINUOUS
 10
760.4103243806
 20
32.9413251475
 11
760.4103243806
 21
42.2075368823
  0
LWPOLYLINE
  5
23B
100
AcDbEntity
  8
0
100
AcDbPolyline
 62
7
  6
CONTINUOUS
 90
2
 70
0
 43
0.2
 10
742.5240521458
 20
28.4049195155
 10
742.5240521458
 20
26.5478562662
  0
LWPOLYLINE
  5
23C
100
AcDbEntity
  8
0
100
AcDbPolyline
 62
7
  6
CONTINUOUS
 90
2
 70
0
 43
0.2
 10
742.5240521458
 20
26.5478562662
 10
743.3197681562
 20
26.5478562662
  0
LWPOLYLINE
  5
23D
100
AcDbEntity
  8
0
100
AcDbPolyline
 62
7
  6
CONTINUOUS
 90
2
 70
0
 43
0.2
 10
743.3197681562
 20
26.5478562662
 10
743.3197681562
 20
26.7598378378
  0
LWPOLYLINE
  5
23E
100
AcDbEntity
  8
0
100
AcDbPolyline
 62
7
  6
CONTINUOUS
 90
2
 70
0
 43
0.2
 10
743.3197681562
 20
26.7598378378
 10
742.7556616407
 20
26.7598378378
  0
LWPOLYLINE
  5
23F
100
AcDbEntity
  8
0
100
AcDbPolyline
 62
7
  6
CONTINUOUS
 90
2
 70
0
 43
0.2
 10
742.7556616407
 20
26.7598378378
 10
742.7556616407
 20
28.4049195155
  0
LWPOLYLINE
  5
240
100
AcDbEntity
  8
0
100
AcDbPolyline
 62
7
  6
CONTINUOUS
 90
2
 70
0
 43
0.2
 10
742.7556616407
 20
28.4049195155
 10
742.5240521458
 20
28.4049195155
  0
SPLINE
  5
241
100
AcDbEntity
  8
0
100
AcDbSpline
 62
7
  6
CONTINUOUS
 70
2
 71
3
 72
35
 73
31
 74
0
 42
0.0000001
 43
0.0000001
 44
0.0000000001
 40
0.0
 40
0.0
 40
0.0
 40
0.0
 40
1.0
 40
1.0
 40
1.0
 40
2.0
 40
2.0
 40
2.0
 40
3.0
 40
3.0
 40
3.0
 40
4.0
 40
4.0
 40
4.0
 40
5.0
 40
5.0
 40
5.0
 40
6.0
 40
6.0
 40
6.0
 40
7.0
 40
7.0
 40
7.0
 40
8.0
 40
8.0
 40
8.0
 40
9.0
 40
9.0
 40
9.0
 40
10.0
 40
10.0
 40
10.0
 40
10.0
 10
744.7180614117
 20
27.7004079221
 30
0.0
 10
744.7180614117
 20
27.7004079221
 30
0.0
 10
744.7180614117
 20
27.0382926429
 30
0.0
 10
744.7180614117
 20
27.0382926429
 30
0.0
 10
744.7180614117
 20
26.7231990476
 30
0.0
 10
744.8659251006
 20
26.5086004196
 30
0.0
 10
745.2060115849
 20
26.5086004196
 30
0.0
 10
745.5455746579
 20
26.5086004196
 30
0.0
 10
745.6937000523
 20
26.7231990476
 30
0.0
 10
745.6937000523
 20
27.0382926429
 30
0.0
 10
745.6937000523
 20
27.0382926429
 30
0.0
 10
745.6937000523
 20
27.7004079221
 30
0.0
 10
745.6937000523
 20
27.7004079221
 30
0.0
 10
745.6937000523
 20
27.7004079221
 30
0.0
 10
745.4716428135
 20
27.7004079221
 30
0.0
 10
745.4716428135
 20
27.7004079221
 30
0.0
 10
745.4716428135
 20
27.7004079221
 30
0.0
 10
745.4716428135
 20
27.0634163847
 30
0.0
 10
745.4716428135
 20
27.0634163847
 30
0.0
 10
745.4716428135
 20
26.8776053775
 30
0.0
 10
745.424928356
 20
26.714824467
 30
0.0
 10
745.2060115849
 20
26.714824467
 30
0.0
 10
744.9865714024
 20
26.714824467
 30
0.0
 10
744.939856945
 20
26.8776053775
 30
0.0
 10
744.939856945
 20
27.0634163847
 30
0.0
 10
744.939856945
 20
27.0634163847
 30
0.0
 10
744.939856945
 20
27.7004079221
 30
0.0
 10
744.939856945
 20
27.7004079221
 30
0.0
 10
744.939856945
 20
27.7004079221
 30
0.0
 10
744.7180614117
 20
27.7004079221
 30
0.0
 10
744.7180614117
 20
27.7004079221
 30
0.0
  0
SPLINE
  5
242
100
AcDbEntity
  8
0
100
AcDbSpline
 62
7
  6
CONTINUOUS
 70
2
 71
3
 72
35
 73
31
 74
0
 42
0.0000001
 43
0.0000001
 44
0.0000000001
 40
0.0
 40
0.0
 40
0.0
 40
0.0
 40
1.0
 40
1.0
 40
1.0
 40
2.0
 40
2.0
 40
2.0
 40
3.0
 40
3.0
 40
3.0
 40
4.0
 40
4.0
 40
4.0
 40
5.0
 40
5.0
 40
5.0
 40
6.0
 40
6.0
 40
6.0
 40
7.0
 40
7.0
 40
7.0
 40
8.0
 40
8.0
 40
8.0
 40
9.0
 40
9.0
 40
9.0
 40
10.0
 40
10.0
 40
10.0
 40
10.0
 10
748.1168326095
 20
27.6590584303
 30
0.0
 10
748.0283761019
 20
27.7103527365
 30
0.0
 10
747.9149267052
 20
27.7354764784
 30
0.0
 10
747.8112912702
 20
27.7354764784
 30
0.0
 10
747.4564184171
 20
27.7354764784
 30
0.0
 10
747.1809732268
 20
27.4716771893
 30
0.0
 10
747.1809732268
 20
27.1141872797
 30
0.0
 10
747.1809732268
 20
26.769259241
 30
0.0
 10
747.459428032
 20
26.5091238309
 30
0.0
 10
747.798991105
 20
26.5091238309
 30
0.0
 10
747.9149267052
 20
26.5091238309
 30
0.0
 10
748.0156833781
 20
26.531107105
 30
0.0
 10
748.1168326095
 20
26.5850184676
 30
0.0
 10
748.1168326095
 20
26.5850184676
 30
0.0
 10
748.1168326095
 20
26.8676605631
 30
0.0
 10
748.1168326095
 20
26.8676605631
 30
0.0
 10
748.0329559506
 20
26.7744933538
 30
0.0
 10
747.9294513685
 20
26.7153478783
 30
0.0
 10
747.8013464558
 20
26.7153478783
 30
0.0
 10
747.5676433157
 20
26.7153478783
 30
0.0
 10
747.4023762016
 20
26.887550192
 30
0.0
 10
747.4023762016
 20
27.1241320941
 30
0.0
 10
747.4023762016
 20
27.3361136657
 30
0.0
 10
747.5701295193
 20
27.5282056084
 30
0.0
 10
747.7869526453
 20
27.5282056084
 30
0.0
 10
747.9197682596
 20
27.5282056084
 30
0.0
 10
748.0283761019
 20
27.4742942457
 30
0.0
 10
748.1168326095
 20
27.3732758672
 30
0.0
 10
748.1168326095
 20
27.3732758672
 30
0.0
 10
748.1168326095
 20
27.6590584303
 30
0.0
 10
748.1168326095
 20
27.6590584303
 30
0.0
  0
SPLINE
  5
243
100
AcDbEntity
  8
0
100
AcDbSpline
 62
7
  6
CONTINUOUS
 70
2
 71
3
 72
32
 73
28
 74
0
 42
0.0000001
 43
0.0000001
 44
0.0000000001
 40
0.0
 40
0.0
 40
0.0
 40
0.0
 40
1.0
 40
1.0
 40
1.0
 40
2.0
 40
2.0
 40
2.0
 40
3.0
 40
3.0
 40
3.0
 40
4.0
 40
4.0
 40
4.0
 40
5.0
 40
5.0
 40
5.0
 40
6.0
 40
6.0
 40
6.0
 40
7.0
 40
7.0
 40
7.0
 40
8.0
 40
8.0
 40
8.0
 40
9.0
 40
9.0
 40
9.0
 40
9.0
 10
750.6487038618
 20
27.087493304
 30
0.0
 10
750.6487038618
 20
27.087493304
 30
0.0
 10
750.6487038618
 20
27.1215150377
 30
0.0
 10
750.6487038618
 20
27.1215150377
 30
0.0
 10
750.6487038618
 20
27.46382602
 30
0.0
 10
750.475847284
 20
27.7354764784
 30
0.0
 10
750.1091976768
 20
27.7354764784
 30
0.0
 10
749.7375756624
 20
27.7354764784
 30
0.0
 10
749.5478390706
 20
27.4690601328
 30
0.0
 10
749.5478390706
 20
27.1141872797
 30
0.0
 10
749.5478390706
 20
26.7744933538
 30
0.0
 10
749.7619142873
 20
26.5086004196
 30
0.0
 10
750.1140392312
 20
26.5086004196
 30
0.0
 10
750.3380592624
 20
26.5086004196
 30
0.0
 10
750.5402268724
 20
26.6242743142
 30
0.0
 10
750.6487038618
 20
26.8236940149
 30
0.0
 10
750.6487038618
 20
26.8236940149
 30
0.0
 10
750.4610609151
 20
26.9304699176
 30
0.0
 10
750.4610609151
 20
26.9304699176
 30
0.0
 10
750.3775768147
 20
26.7917659263
 30
0.0
 10
750.2863723978
 20
26.7059264751
 30
0.0
 10
750.1167871405
 20
26.7059264751
 30
0.0
 10
749.9048055689
 20
26.7059264751
 30
0.0
 10
749.7718591018
 20
26.8906906597
 30
0.0
 10
749.769503751
 20
27.087493304
 30
0.0
 10
749.769503751
 20
27.087493304
 30
0.0
 10
750.6487038618
 20
27.087493304
 30
0.0
 10
750.6487038618
 20
27.087493304
 30
0.0
  0
SPLINE
  5
244
100
AcDbEntity
  8
0
100
AcDbSpline
 62
7
  6
CONTINUOUS
 70
2
 71
3
 72
14
 73
10
 74
0
 42
0.0000001
 43
0.0000001
 44
0.0000000001
 40
0.0
 40
0.0
 40
0.0
 40
0.0
 40
1.0
 40
1.0
 40
1.0
 40
2.0
 40
2.0
 40
2.0
 40
3.0
 40
3.0
 40
3.0
 40
3.0
 10
749.7815422106
 20
27.2549849161
 30
0.0
 10
749.809152156
 20
27.4198594718
 30
0.0
 10
749.9369953631
 20
27.5428611244
 30
0.0
 10
750.1091976768
 20
27.5428611244
 30
0.0
 10
750.2863723978
 20
27.5428611244
 30
0.0
 10
750.3998217944
 20
27.4271872298
 30
0.0
 10
750.4270391814
 20
27.2549849161
 30
0.0
 10
750.4270391814
 20
27.2549849161
 30
0.0
 10
749.7815422106
 20
27.2549849161
 30
0.0
 10
749.7815422106
 20
27.2549849161
 30
0.0
  0
SPLINE
  5
245
100
AcDbEntity
  8
0
100
AcDbSpline
 62
7
  6
CONTINUOUS
 70
2
 71
3
 72
20
 73
16
 74
0
 42
0.0000001
 43
0.0000001
 44
0.0000000001
 40
0.0
 40
0.0
 40
0.0
 40
0.0
 40
1.0
 40
1.0
 40
1.0
 40
2.0
 40
2.0
 40
2.0
 40
3.0
 40
3.0
 40
3.0
 40
4.0
 40
4.0
 40
4.0
 40
5.0
 40
5.0
 40
5.0
 40
5.0
 10
752.672735312
 20
27.4643494312
 30
0.0
 10
752.672735312
 20
27.4643494312
 30
0.0
 10
753.0838748786
 20
26.9618745949
 30
0.0
 10
753.0838748786
 20
26.9618745949
 30
0.0
 10
752.9678084255
 20
26.8462007003
 30
0.0
 10
752.830020404
 20
26.7158712896
 30
0.0
 10
752.6580797959
 20
26.7158712896
 30
0.0
 10
752.4806433693
 20
26.7158712896
 30
0.0
 10
752.3131517572
 20
26.880222434
 30
0.0
 10
752.3131517572
 20
27.0571354493
 30
0.0
 10
752.3131517572
 20
27.2350952872
 30
0.0
 10
752.5229088308
 20
27.3612374075
 30
0.0
 10
752.6504903322
 20
27.4491705039
 30
0.0
 10
752.6504903322
 20
27.4491705039
 30
0.0
 10
752.672735312
 20
27.4643494312
 30
0.0
 10
752.672735312
 20
27.4643494312
 30
0.0
  0
SPLINE
  5
246
100
AcDbEntity
  8
0
100
AcDbSpline
 62
7
  6
CONTINUOUS
 70
2
 71
3
 72
23
 73
19
 74
0
 42
0.0000001
 43
0.0000001
 44
0.0000000001
 40
0.0
 40
0.0
 40
0.0
 40
0.0
 40
1.0
 40
1.0
 40
1.0
 40
2.0
 40
2.0
 40
2.0
 40
3.0
 40
3.0
 40
3.0
 40
4.0
 40
4.0
 40
4.0
 40
5.0
 40
5.0
 40
5.0
 40
6.0
 40
6.0
 40
6.0
 40
6.0
 10
752.7220668259
 20
27.7553661073
 30
0.0
 10
752.7220668259
 20
27.7553661073
 30
0.0
 10
752.6604351467
 20
27.8338778005
 30
0.0
 10
752.6604351467
 20
27.8338778005
 30
0.0
 10
752.6065237841
 20
27.9024446792
 30
0.0
 10
752.5497336593
 20
27.9715349692
 30
0.0
 10
752.5497336593
 20
28.0652255897
 30
0.0
 10
752.5497336593
 20
28.1840399521
 30
0.0
 10
752.6456487778
 20
28.2615048227
 30
0.0
 10
752.7566119709
 20
28.2615048227
 30
0.0
 10
752.8798753291
 20
28.2615048227
 30
0.0
 10
752.9731733912
 20
28.1903208875
 30
0.0
 10
752.9731733912
 20
28.0599914768
 30
0.0
 10
752.9731733912
 20
27.9249513646
 30
0.0
 10
752.8450684785
 20
27.8485333165
 30
0.0
 10
752.7515087108
 20
27.7747323249
 30
0.0
 10
752.7515087108
 20
27.7747323249
 30
0.0
 10
752.7220668259
 20
27.7553661073
 30
0.0
 10
752.7220668259
 20
27.7553661073
 30
0.0
  0
SPLINE
  5
247
100
AcDbEntity
  8
0
100
AcDbSpline
 62
7
  6
CONTINUOUS
 70
2
 71
3
 72
50
 73
46
 74
0
 42
0.0000001
 43
0.0000001
 44
0.0000000001
 40
0.0
 40
0.0
 40
0.0
 40
0.0
 40
1.0
 40
1.0
 40
1.0
 40
2.0
 40
2.0
 40
2.0
 40
3.0
 40
3.0
 40
3.0
 40
4.0
 40
4.0
 40
4.0
 40
5.0
 40
5.0
 40
5.0
 40
6.0
 40
6.0
 40
6.0
 40
7.0
 40
7.0
 40
7.0
 40
8.0
 40
8.0
 40
8.0
 40
9.0
 40
9.0
 40
9.0
 40
10.0
 40
10.0
 40
10.0
 40
11.0
 40
11.0
 40
11.0
 40
12.0
 40
12.0
 40
12.0
 40
13.0
 40
13.0
 40
13.0
 40
14.0
 40
14.0
 40
14.0
 40
15.0
 40
15.0
 40
15.0
 40
15.0
 10
753.4242230685
 20
26.5483796775
 30
0.0
 10
753.4242230685
 20
26.5483796775
 30
0.0
 10
753.7096130732
 20
26.5483796775
 30
0.0
 10
753.7096130732
 20
26.5483796775
 30
0.0
 10
753.7096130732
 20
26.5483796775
 30
0.0
 10
753.3772469054
 20
26.9592575384
 30
0.0
 10
753.3772469054
 20
26.9592575384
 30
0.0
 10
753.3772469054
 20
26.9592575384
 30
0.0
 10
753.6037531403
 20
27.2251504727
 30
0.0
 10
753.6037531403
 20
27.2251504727
 30
0.0
 10
753.6037531403
 20
27.2251504727
 30
0.0
 10
753.455496893
 20
27.3779865687
 30
0.0
 10
753.455496893
 20
27.3779865687
 30
0.0
 10
753.455496893
 20
27.3779865687
 30
0.0
 10
753.2395897367
 20
27.1267491506
 30
0.0
 10
753.2395897367
 20
27.1267491506
 30
0.0
 10
753.2395897367
 20
27.1267491506
 30
0.0
 10
752.8525270894
 20
27.5946788419
 30
0.0
 10
752.8525270894
 20
27.5946788419
 30
0.0
 10
753.0079802419
 20
27.7087825027
 30
0.0
 10
753.1902582229
 20
27.8485333165
 30
0.0
 10
753.1902582229
 20
28.0578978317
 30
0.0
 10
753.1902582229
 20
28.3018074918
 30
0.0
 10
752.9882214657
 20
28.4452221847
 30
0.0
 10
752.7617152309
 20
28.4452221847
 30
0.0
 10
752.5175438651
 20
28.4452221847
 30
0.0
 10
752.333172239
 20
28.2944797338
 30
0.0
 10
752.333172239
 20
28.0380082027
 30
0.0
 10
752.333172239
 20
27.8804614051
 30
0.0
 10
752.4318352667
 20
27.7428042364
 30
0.0
 10
752.5371717884
 20
27.6318410434
 30
0.0
 10
752.5371717884
 20
27.6318410434
 30
0.0
 10
752.4216287466
 20
27.5480952373
 30
0.0
 10
752.4216287466
 20
27.5480952373
 30
0.0
 10
752.2439306144
 20
27.4198594718
 30
0.0
 10
752.0965903368
 20
27.2921471175
 30
0.0
 10
752.0965903368
 20
27.0550418041
 30
0.0
 10
752.0965903368
 20
26.734714096
 30
0.0
 10
752.3551555131
 20
26.5086004196
 30
0.0
 10
752.6655384068
 20
26.5086004196
 30
0.0
 10
752.8844551779
 20
26.5086004196
 30
0.0
 10
753.0816503806
 20
26.6336957174
 30
0.0
 10
753.2219246058
 20
26.7996170956
 30
0.0
 10
753.2219246058
 20
26.7996170956
 30
0.0
 10
753.4242230685
 20
26.5483796775
 30
0.0
 10
753.4242230685
 20
26.5483796775
 30
0.0
  0
LWPOLYLINE
  5
248
100
AcDbEntity
  8
0
100
AcDbPolyline
 62
7
  6
CONTINUOUS
 90
2
 70
0
 43
0.2
 10
755.3596671583
 20
28.4049195155
 10
755.128319369
 20
28.4049195155
  0
LWPOLYLINE
  5
249
100
AcDbEntity
  8
0
100
AcDbPolyline
 62
7
  6
CONTINUOUS
 90
2
 70
0
 43
0.2
 10
755.128319369
 20
28.4049195155
 10
755.128319369
 20
26.5478562662
  0
LWPOLYLINE
  5
24A
100
AcDbEntity
  8
0
100
AcDbPolyline
 62
7
  6
CONTINUOUS
 90
2
 70
0
 43
0.2
 10
755.128319369
 20
26.5478562662
 10
755.9236428209
 20
26.5478562662
  0
LWPOLYLINE
  5
24B
100
AcDbEntity
  8
0
100
AcDbPolyline
 62
7
  6
CONTINUOUS
 90
2
 70
0
 43
0.2
 10
755.9236428209
 20
26.5478562662
 10
755.9236428209
 20
26.7598378378
  0
LWPOLYLINE
  5
24C
100
AcDbEntity
  8
0
100
AcDbPolyline
 62
7
  6
CONTINUOUS
 90
2
 70
0
 43
0.2
 10
755.9236428209
 20
26.7598378378
 10
755.3596671583
 20
26.7598378378
  0
LWPOLYLINE
  5
24D
100
AcDbEntity
  8
0
100
AcDbPolyline
 62
7
  6
CONTINUOUS
 90
2
 70
0
 43
0.2
 10
755.3596671583
 20
26.7598378378
 10
755.3596671583
 20
28.4049195155
  0
LWPOLYLINE
  5
24E
100
AcDbEntity
  8
0
100
AcDbPolyline
 62
7
  6
CONTINUOUS
 90
2
 70
0
 43
0.2
 10
757.6027462324
 20
27.7004079221
 10
757.3816049633
 20
27.7004079221
  0
LWPOLYLINE
  5
24F
100
AcDbEntity
  8
0
100
AcDbPolyline
 62
7
  6
CONTINUOUS
 90
2
 70
0
 43
0.2
 10
757.3816049633
 20
27.7004079221
 10
757.3816049633
 20
26.5483796775
  0
LWPOLYLINE
  5
250
100
AcDbEntity
  8
0
100
AcDbPolyline
 62
7
  6
CONTINUOUS
 90
2
 70
0
 43
0.2
 10
757.3816049633
 20
26.5483796775
 10
757.6027462324
 20
26.5483796775
  0
LWPOLYLINE
  5
251
100
AcDbEntity
  8
0
100
AcDbPolyline
 62
7
  6
CONTINUOUS
 90
2
 70
0
 43
0.2
 10
757.6027462324
 20
26.5483796775
 10
757.6027462324
 20
27.7004079221
  0
SPLINE
  5
252
100
AcDbEntity
  8
0
100
AcDbSpline
 62
7
  6
CONTINUOUS
 70
2
 71
3
 72
17
 73
13
 74
0
 42
0.0000001
 43
0.0000001
 44
0.0000000001
 40
0.0
 40
0.0
 40
0.0
 40
0.0
 40
1.0
 40
1.0
 40
1.0
 40
2.0
 40
2.0
 40
2.0
 40
3.0
 40
3.0
 40
3.0
 40
4.0
 40
4.0
 40
4.0
 40
4.0
 10
757.4923064507
 20
28.3829362415
 30
0.0
 10
757.408298939
 20
28.3829362415
 30
0.0
 10
757.3397320603
 20
28.3138459515
 30
0.0
 10
757.3397320603
 20
28.2280065002
 30
0.0
 10
757.3397320603
 20
28.1437372829
 30
0.0
 10
757.408298939
 20
28.0777874606
 30
0.0
 10
757.4923064507
 20
28.0777874606
 30
0.0
 10
757.5760522567
 20
28.0777874606
 30
0.0
 10
757.6448808411
 20
28.1437372829
 30
0.0
 10
757.6448808411
 20
28.2280065002
 30
0.0
 10
757.6448808411
 20
28.3138459515
 30
0.0
 10
757.5760522567
 20
28.3829362415
 30
0.0
 10
757.4923064507
 20
28.3829362415
 30
0.0
  0
SPLINE
  5
253
100
AcDbEntity
  8
0
100
AcDbSpline
 62
7
  6
CONTINUOUS
 70
2
 71
3
 72
17
 73
13
 74
0
 42
0.0000001
 43
0.0000001
 44
0.0000000001
 40
0.0
 40
0.0
 40
0.0
 40
0.0
 40
1.0
 40
1.0
 40
1.0
 40
2.0
 40
2.0
 40
2.0
 40
3.0
 40
3.0
 40
3.0
 40
4.0
 40
4.0
 40
4.0
 40
4.0
 10
759.7330301741
 20
26.7059264751
 30
0.0
 10
759.4990653284
 20
26.7059264751
 30
0.0
 10
759.3687359177
 20
26.9079632322
 30
0.0
 10
759.3687359177
 20
27.1241320941
 30
0.0
 10
759.3687359177
 20
27.3387307222
 30
0.0
 10
759.5045611469
 20
27.5376270115
 30
0.0
 10
759.7330301741
 20
27.5376270115
 30
0.0
 10
759.9724908383
 20
27.5376270115
 30
0.0
 10
760.1080543618
 20
27.3486755366
 30
0.0
 10
760.1080543618
 20
27.1241320941
 30
0.0
 10
760.1080543618
 20
26.8980184178
 30
0.0
 10
759.974846189
 20
26.7059264751
 30
0.0
 10
759.7330301741
 20
26.7059264751
 30
0.0
  0
SPLINE
  5
254
100
AcDbEntity
  8
0
100
AcDbSpline
 62
7
  6
CONTINUOUS
 70
2
 71
3
 72
50
 73
46
 74
0
 42
0.0000001
 43
0.0000001
 44
0.0000000001
 40
0.0
 40
0.0
 40
0.0
 40
0.0
 40
1.0
 40
1.0
 40
1.0
 40
2.0
 40
2.0
 40
2.0
 40
3.0
 40
3.0
 40
3.0
 40
4.0
 40
4.0
 40
4.0
 40
5.0
 40
5.0
 40
5.0
 40
6.0
 40
6.0
 40
6.0
 40
7.0
 40
7.0
 40
7.0
 40
8.0
 40
8.0
 40
8.0
 40
9.0
 40
9.0
 40
9.0
 40
10.0
 40
10.0
 40
10.0
 40
11.0
 40
11.0
 40
11.0
 40
12.0
 40
12.0
 40
12.0
 40
13.0
 40
13.0
 40
13.0
 40
14.0
 40
14.0
 40
14.0
 40
15.0
 40
15.0
 40
15.0
 40
15.0
 10
760.3171571713
 20
27.7009313334
 30
0.0
 10
760.3171571713
 20
27.7009313334
 30
0.0
 10
760.0954924909
 20
27.7009313334
 30
0.0
 10
760.0954924909
 20
27.7009313334
 30
0.0
 10
760.0954924909
 20
27.7009313334
 30
0.0
 10
760.0954924909
 20
27.5036052778
 30
0.0
 10
760.0954924909
 20
27.5036052778
 30
0.0
 10
760.0954924909
 20
27.5036052778
 30
0.0
 10
760.0907817893
 20
27.5036052778
 30
0.0
 10
760.0907817893
 20
27.5036052778
 30
0.0
 10
759.9994465196
 20
27.6464965594
 30
0.0
 10
759.8615276452
 20
27.7349530671
 30
0.0
 10
759.6888019202
 20
27.7349530671
 30
0.0
 10
759.3564357524
 20
27.7349530671
 30
0.0
 10
759.1473329429
 20
27.4470768587
 30
0.0
 10
759.1473329429
 20
27.1314598522
 30
0.0
 10
759.1473329429
 20
26.8017107408
 30
0.0
 10
759.3443972928
 20
26.5086004196
 30
0.0
 10
759.699270146
 20
26.5086004196
 30
0.0
 10
759.8615276452
 20
26.5086004196
 30
0.0
 10
760.0015401647
 20
26.5970569272
 30
0.0
 10
760.0907817893
 20
26.7279097492
 30
0.0
 10
760.0907817893
 20
26.7279097492
 30
0.0
 10
760.0954924909
 20
26.7279097492
 30
0.0
 10
760.0954924909
 20
26.7279097492
 30
0.0
 10
760.0954924909
 20
26.7279097492
 30
0.0
 10
760.0954924909
 20
26.5086004196
 30
0.0
 10
760.0954924909
 20
26.5086004196
 30
0.0
 10
760.0954924909
 20
26.2720185175
 30
0.0
 10
760.0389640718
 20
26.0851606877
 30
0.0
 10
759.7657433795
 20
26.0851606877
 30
0.0
 10
759.5634449168
 20
26.0851606877
 30
0.0
 10
759.4208153408
 20
26.2034516388
 30
0.0
 10
759.4208153408
 20
26.4096756862
 30
0.0
 10
759.4208153408
 20
26.4096756862
 30
0.0
 10
759.1991506604
 20
26.4096756862
 30
0.0
 10
759.1991506604
 20
26.4096756862
 30
0.0
 10
759.2041230677
 20
26.0851606877
 30
0.0
 10
759.4352091513
 20
25.8883580435
 30
0.0
 10
759.7555368594
 20
25.8883580435
 30
0.0
 10
760.2035769218
 20
25.8883580435
 30
0.0
 10
760.3171571713
 20
26.1736171954
 30
0.0
 10
760.3171571713
 20
26.5703629516
 30
0.0
 10
760.3171571713
 20
26.5703629516
 30
0.0
 10
760.3171571713
 20
27.7009313334
 30
0.0
 10
760.3171571713
 20
27.7009313334
 30
0.0
  0
SPLINE
  5
255
100
AcDbEntity
  8
0
100
AcDbSpline
 62
7
  6
CONTINUOUS
 70
2
 71
3
 72
44
 73
40
 74
0
 42
0.0000001
 43
0.0000001
 44
0.0000000001
 40
0.0
 40
0.0
 40
0.0
 40
0.0
 40
1.0
 40
1.0
 40
1.0
 40
2.0
 40
2.0
 40
2.0
 40
3.0
 40
3.0
 40
3.0
 40
4.0
 40
4.0
 40
4.0
 40
5.0
 40
5.0
 40
5.0
 40
6.0
 40
6.0
 40
6.0
 40
7.0
 40
7.0
 40
7.0
 40
8.0
 40
8.0
 40
8.0
 40
9.0
 40
9.0
 40
9.0
 40
10.0
 40
10.0
 40
10.0
 40
11.0
 40
11.0
 40
11.0
 40
12.0
 40
12.0
 40
12.0
 40
13.0
 40
13.0
 40
13.0
 40
13.0
 10
761.8860825067
 20
28.6859913771
 30
0.0
 10
761.8860825067
 20
28.6859913771
 30
0.0
 10
761.8860825067
 20
26.5478562662
 30
0.0
 10
761.8860825067
 20
26.5478562662
 30
0.0
 10
761.8860825067
 20
26.5478562662
 30
0.0
 10
762.1074854815
 20
26.5478562662
 30
0.0
 10
762.1074854815
 20
26.5478562662
 30
0.0
 10
762.1074854815
 20
26.5478562662
 30
0.0
 10
762.1074854815
 20
27.0775484895
 30
0.0
 10
762.1074854815
 20
27.0775484895
 30
0.0
 10
762.1074854815
 20
27.2874364159
 30
0.0
 10
762.1074854815
 20
27.5381504228
 30
0.0
 10
762.3927446334
 20
27.5381504228
 30
0.0
 10
762.6196434267
 20
27.5381504228
 30
0.0
 10
762.646599108
 20
27.4052039557
 30
0.0
 10
762.646599108
 20
27.2089247228
 30
0.0
 10
762.646599108
 20
27.2089247228
 30
0.0
 10
762.646599108
 20
26.5478562662
 30
0.0
 10
762.646599108
 20
26.5478562662
 30
0.0
 10
762.646599108
 20
26.5478562662
 30
0.0
 10
762.868525494
 20
26.5478562662
 30
0.0
 10
762.868525494
 20
26.5478562662
 30
0.0
 10
762.868525494
 20
26.5478562662
 30
0.0
 10
762.868525494
 20
27.2350952872
 30
0.0
 10
762.868525494
 20
27.2350952872
 30
0.0
 10
762.868525494
 20
27.5156437375
 30
0.0
 10
762.7845179823
 20
27.7354764784
 30
0.0
 10
762.4594795726
 20
27.7354764784
 30
0.0
 10
762.3197287587
 20
27.7354764784
 30
0.0
 10
762.1815481787
 20
27.6690032448
 30
0.0
 10
762.1121961831
 20
27.5460015922
 30
0.0
 10
762.1121961831
 20
27.5460015922
 30
0.0
 10
762.1074854815
 20
27.5460015922
 30
0.0
 10
762.1074854815
 20
27.5460015922
 30
0.0
 10
762.1074854815
 20
27.5460015922
 30
0.0
 10
762.1074854815
 20
28.6859913771
 30
0.0
 10
762.1074854815
 20
28.6859913771
 30
0.0
 10
762.1074854815
 20
28.6859913771
 30
0.0
 10
761.8860825067
 20
28.6859913771
 30
0.0
 10
761.8860825067
 20
28.6859913771
 30
0.0
  0
LWPOLYLINE
  5
256
100
AcDbEntity
  8
0
100
AcDbPolyline
 62
7
  6
CONTINUOUS
 90
2
 70
0
 43
0.2
 10
764.7083161709
 20
27.4936604634
 10
764.9247467384
 20
27.4936604634
  0
LWPOLYLINE
  5
257
100
AcDbEntity
  8
0
100
AcDbPolyline
 62
7
  6
CONTINUOUS
 90
2
 70
0
 43
0.2
 10
764.9247467384
 20
27.4936604634
 10
764.9247467384
 20
27.7004079221
  0
LWPOLYLINE
  5
258
100
AcDbEntity
  8
0
100
AcDbPolyline
 62
7
  6
CONTINUOUS
 90
2
 70
0
 43
0.2
 10
764.9247467384
 20
27.7004079221
 10
764.7083161709
 20
27.7004079221
  0
LWPOLYLINE
  5
259
100
AcDbEntity
  8
0
100
AcDbPolyline
 62
7
  6
CONTINUOUS
 90
2
 70
0
 43
0.2
 10
764.7083161709
 20
27.7004079221
 10
764.7083161709
 20
28.1411202265
  0
LWPOLYLINE
  5
25A
100
AcDbEntity
  8
0
100
AcDbPolyline
 62
7
  6
CONTINUOUS
 90
2
 70
0
 43
0.2
 10
764.7083161709
 20
28.1411202265
 10
764.4866514905
 20
28.1411202265
  0
LWPOLYLINE
  5
25B
100
AcDbEntity
  8
0
100
AcDbPolyline
 62
7
  6
CONTINUOUS
 90
2
 70
0
 43
0.2
 10
764.4866514905
 20
28.1411202265
 10
764.4866514905
 20
27.7004079221
  0
LWPOLYLINE
  5
25C
100
AcDbEntity
  8
0
100
AcDbPolyline
 62
7
  6
CONTINUOUS
 90
2
 70
0
 43
0.2
 10
764.4866514905
 20
27.7004079221
 10
764.3660051886
 20
27.7004079221
  0
LWPOLYLINE
  5
25D
100
AcDbEntity
  8
0
100
AcDbPolyline
 62
7
  6
CONTINUOUS
 90
2
 70
0
 43
0.2
 10
764.3660051886
 20
27.7004079221
 10
764.3660051886
 20
27.4936604634
  0
LWPOLYLINE
  5
25E
100
AcDbEntity
  8
0
100
AcDbPolyline
 62
7
  6
CONTINUOUS
 90
2
 70
0
 43
0.2
 10
764.3660051886
 20
27.4936604634
 10
764.4866514905
 20
27.4936604634
  0
LWPOLYLINE
  5
25F
100
AcDbEntity
  8
0
100
AcDbPolyline
 62
7
  6
CONTINUOUS
 90
2
 70
0
 43
0.2
 10
764.4866514905
 20
27.4936604634
 10
764.4866514905
 20
26.5478562662
  0
LWPOLYLINE
  5
260
100
AcDbEntity
  8
0
100
AcDbPolyline
 62
7
  6
CONTINUOUS
 90
2
 70
0
 43
0.2
 10
764.4866514905
 20
26.5478562662
 10
764.7083161709
 20
26.5478562662
  0
LWPOLYLINE
  5
261
100
AcDbEntity
  8
0
100
AcDbPolyline
 62
7
  6
CONTINUOUS
 90
2
 70
0
 43
0.2
 10
764.7083161709
 20
26.5478562662
 10
764.7083161709
 20
27.4936604634
  0
SPLINE
  5
262
100
AcDbEntity
  8
0
100
AcDbSpline
 62
7
  6
CONTINUOUS
 70
2
 71
3
 72
20
 73
16
 74
0
 42
0.0000001
 43
0.0000001
 44
0.0000000001
 40
0.0
 40
0.0
 40
0.0
 40
0.0
 40
1.0
 40
1.0
 40
1.0
 40
2.0
 40
2.0
 40
2.0
 40
3.0
 40
3.0
 40
3.0
 40
4.0
 40
4.0
 40
4.0
 40
5.0
 40
5.0
 40
5.0
 40
5.0
 10
752.4903264781
 20
36.9087827096
 30
0.0
 10
752.4903264781
 20
36.9087827096
 30
0.0
 10
754.8066831326
 20
34.0792212873
 30
0.0
 10
754.8066831326
 20
34.0792212873
 30
0.0
 10
754.1550360792
 20
33.4270508227
 30
0.0
 10
753.3781628752
 20
32.6911345519
 30
0.0
 10
752.4069732306
 20
32.6911345519
 30
0.0
 10
751.4084353461
 20
32.6911345519
 30
0.0
 10
750.4651173526
 20
33.6207129992
 30
0.0
 10
750.4651173526
 20
34.6199051477
 30
0.0
 10
750.4651173526
 20
35.6190972963
 30
0.0
 10
751.6439704257
 20
36.3257025349
 30
0.0
 10
752.365492886
 20
36.8255603148
 30
0.0
 10
752.365492886
 20
36.8255603148
 30
0.0
 10
752.4903264781
 20
36.9087827096
 30
0.0
 10
752.4903264781
 20
36.9087827096
 30
0.0
  0
SPLINE
  5
263
100
AcDbEntity
  8
0
100
AcDbSpline
 62
7
  6
CONTINUOUS
 70
2
 71
3
 72
23
 73
19
 74
0
 42
0.0000001
 43
0.0000001
 44
0.0000000001
 40
0.0
 40
0.0
 40
0.0
 40
0.0
 40
1.0
 40
1.0
 40
1.0
 40
2.0
 40
2.0
 40
2.0
 40
3.0
 40
3.0
 40
3.0
 40
4.0
 40
4.0
 40
4.0
 40
5.0
 40
5.0
 40
5.0
 40
6.0
 40
6.0
 40
6.0
 40
6.0
 10
752.7677344607
 20
38.5465366293
 30
0.0
 10
752.7677344607
 20
38.5465366293
 30
0.0
 10
752.4212361882
 20
38.9898659901
 30
0.0
 10
752.4212361882
 20
38.9898659901
 30
0.0
 10
752.1154331432
 20
39.3779754601
 30
0.0
 10
751.7965448161
 20
39.7664774885
 30
0.0
 10
751.7965448161
 20
40.2934218026
 30
0.0
 10
751.7965448161
 20
40.9595935192
 30
0.0
 10
752.3378829406
 20
41.4033154385
 30
0.0
 10
752.9617891957
 20
41.4033154385
 30
0.0
 10
753.6555708578
 20
41.4033154385
 30
0.0
 10
754.1827768775
 20
41.0010738638
 30
0.0
 10
754.1827768775
 20
40.2660735628
 30
0.0
 10
754.1827768775
 20
39.5028090523
 30
0.0
 10
753.4615161228
 20
39.0726958264
 30
0.0
 10
752.9344409559
 20
38.6569764111
 30
0.0
 10
752.9344409559
 20
38.6569764111
 30
0.0
 10
752.7677344607
 20
38.5465366293
 30
0.0
 10
752.7677344607
 20
38.5465366293
 30
0.0
  0
SPLINE
  5
264
100
AcDbEntity
  8
0
100
AcDbSpline
 62
7
  6
CONTINUOUS
 70
2
 71
3
 72
50
 73
46
 74
0
 42
0.0000001
 43
0.0000001
 44
0.0000000001
 40
0.0
 40
0.0
 40
0.0
 40
0.0
 40
1.0
 40
1.0
 40
1.0
 40
2.0
 40
2.0
 40
2.0
 40
3.0
 40
3.0
 40
3.0
 40
4.0
 40
4.0
 40
4.0
 40
5.0
 40
5.0
 40
5.0
 40
6.0
 40
6.0
 40
6.0
 40
7.0
 40
7.0
 40
7.0
 40
8.0
 40
8.0
 40
8.0
 40
9.0
 40
9.0
 40
9.0
 40
10.0
 40
10.0
 40
10.0
 40
11.0
 40
11.0
 40
11.0
 40
12.0
 40
12.0
 40
12.0
 40
13.0
 40
13.0
 40
13.0
 40
14.0
 40
14.0
 40
14.0
 40
15.0
 40
15.0
 40
15.0
 40
15.0
 10
756.7213216236
 20
31.7479474112
 30
0.0
 10
756.7213216236
 20
31.7479474112
 30
0.0
 10
758.3305496282
 20
31.7479474112
 30
0.0
 10
758.3305496282
 20
31.7479474112
 30
0.0
 10
758.3305496282
 20
31.7479474112
 30
0.0
 10
756.4575223346
 20
34.0650891826
 30
0.0
 10
756.4575223346
 20
34.0650891826
 30
0.0
 10
756.4575223346
 20
34.0650891826
 30
0.0
 10
757.73386076
 20
35.5625688772
 30
0.0
 10
757.73386076
 20
35.5625688772
 30
0.0
 10
757.73386076
 20
35.5625688772
 30
0.0
 10
756.9016368123
 20
36.4235804457
 30
0.0
 10
756.9016368123
 20
36.4235804457
 30
0.0
 10
756.9016368123
 20
36.4235804457
 30
0.0
 10
755.681041689
 20
35.0082763233
 30
0.0
 10
755.681041689
 20
35.0082763233
 30
0.0
 10
755.681041689
 20
35.0082763233
 30
0.0
 10
753.5031273202
 20
37.6436521577
 30
0.0
 10
753.5031273202
 20
37.6436521577
 30
0.0
 10
754.3767007596
 20
38.2816905177
 30
0.0
 10
755.4033720008
 20
39.0726958264
 30
0.0
 10
755.4033720008
 20
40.2515488996
 30
0.0
 10
755.4033720008
 20
41.6252418246
 30
0.0
 10
754.265475861
 20
42.429724974
 30
0.0
 10
752.9901842581
 20
42.429724974
 30
0.0
 10
751.6167530387
 20
42.429724974
 30
0.0
 10
750.5758188399
 20
41.5834997744
 30
0.0
 10
750.5758188399
 20
40.1408474122
 30
0.0
 10
750.5758188399
 20
39.2532727208
 30
0.0
 10
751.1311582164
 20
38.4763995167
 30
0.0
 10
751.7273236733
 20
37.8519698503
 30
0.0
 10
751.7273236733
 20
37.8519698503
 30
0.0
 10
751.0754149142
 20
37.3803762799
 30
0.0
 10
751.0754149142
 20
37.3803762799
 30
0.0
 10
750.0768770298
 20
36.6591155253
 30
0.0
 10
749.243998818
 20
35.9378547706
 30
0.0
 10
749.243998818
 20
34.6062964542
 30
0.0
 10
749.243998818
 20
32.8026211562
 30
0.0
 10
750.7010449906
 20
31.5260210251
 30
0.0
 10
752.4485844279
 20
31.5260210251
 30
0.0
 10
753.6834425088
 20
31.5260210251
 30
0.0
 10
754.7928127335
 20
32.2341964976
 30
0.0
 10
755.5836871895
 20
33.1627281223
 30
0.0
 10
755.5836871895
 20
33.1627281223
 30
0.0
 10
756.7213216236
 20
31.7479474112
 30
0.0
 10
756.7213216236
 20
31.7479474112
 30
0.0
  0
LINE
  5
265
100
AcDbEntity
  8
0
100
AcDbLine
 62
7
  6
CONTINUOUS
 10
742.5241829986
 20
29.7218223158
 11
764.9380937263
 21
29.7218223158
  0
LINE
  5
266
100
AcDbEntity
  8
0
100
AcDbLine
 62
7
  6
CONTINUOUS
 10
764.9380937263
 20
29.7218223158
 11
764.9380937263
 21
52.1357330435
  0
LINE
  5
267
100
AcDbEntity
  8
0
100
AcDbLine
 62
7
  6
CONTINUOUS
 10
764.9380937263
 20
52.1357330435
 11
742.5241829986
 21
52.1357330435
  0
LINE
  5
268
100
AcDbEntity
  8
0
100
AcDbLine
 62
7
  6
CONTINUOUS
 10
742.5241829986
 20
52.1357330435
 11
742.5241829986
 21
29.7218223158
  0
ENDBLK
  5
269
100
AcDbEntity
  8
0
  6
BYBLOCK
 62
0
100
AcDbBlockEnd
  0
BLOCK
  5
26A
100
AcDbEntity
  8
0
100
AcDbBlockBegin
  2
_CLOSED
 70
64
 10
0.0
 20
0.0
  3
_CLOSED
  1

  0
LINE
  5
26B
100
AcDbEntity
  8
0
  6
BYBLOCK
 62
0
100
AcDbLine
 10
0.0
 20
0.0
 11
-1.0
 21
0.2
  0
LINE
  5
26C
100
AcDbEntity
  8
0
  6
BYBLOCK
 62
0
100
AcDbLine
 10
-1.0
 20
0.2
 11
-1.0
 21
-0.2
  0
LINE
  5
26D
100
AcDbEntity
  8
0
  6
BYBLOCK
 62
0
100
AcDbLine
 10
-1.0
 20
-0.2
 11
0.0
 21
0.0
  0
LINE
  5
26E
100
AcDbEntity
  8
0
  6
BYBLOCK
 62
0
100
AcDbLine
 10
-1.0
 20
0.0
 11
0.0
 21
0.0
  0
ENDBLK
  5
26F
100
AcDbEntity
  8
0
  6
BYBLOCK
 62
0
100
AcDbBlockEnd
  0
BLOCK
  5
270
100
AcDbEntity
  8
0
100
AcDbBlockBegin
 62
2
  6
CONTINUOUS
  2
*D0
 70
65
 10
0.0
 20
0.0
  3
*D0
  1

  0
LINE
  5
271
100
AcDbEntity
  8
0
100
AcDbLine
 62
2
  6
CONTINUOUS
 10
154.2296400354
 20
196.4458366922
 11
154.2296400354
 21
204.478692671
  0
LINE
  5
272
100
AcDbEntity
  8
0
100
AcDbLine
 62
2
  6
CONTINUOUS
 10
278.2296400354
 20
196.6469130558
 11
278.2296400354
 21
204.478692671
  0
LINE
  5
273
100
AcDbEntity
  8
0
100
AcDbLine
 62
2
  6
CONTINUOUS
 10
154.2296400354
 20
203.728692671
 11
216.2296400354
 21
203.728692671
  0
LINE
  5
274
100
AcDbEntity
  8
0
100
AcDbLine
 62
2
  6
CONTINUOUS
 10
278.2296400354
 20
203.728692671
 11
216.2296400354
 21
203.728692671
  0
INSERT
  5
275
100
AcDbEntity
  8
0
100
AcDbBlockReference
 62
2
  6
CONTINUOUS
  2
_CLOSED
 10
154.2296400354
 20
203.728692671
 41
2.5
 42
2.5
 43
2.5
 50
180.0
  0
INSERT
  5
276
100
AcDbEntity
  8
0
100
AcDbBlockReference
 62
2
  6
CONTINUOUS
  2
_CLOSED
 10
278.2296400354
 20
203.728692671
 41
2.5
 42
2.5
 43
2.5
  0
ENDBLK
  5
277
100
AcDbEntity
  8
0
  6
BYBLOCK
 62
0
100
AcDbBlockEnd
  0
BLOCK
  5
278
100
AcDbEntity
  8
0
100
AcDbBlockBegin
 62
2
  6
CONTINUOUS
  2
*D1
 70
65
 10
0.0
 20
0.0
  3
*D1
  1

  0
LINE
  5
279
100
AcDbEntity
  8
0
100
AcDbLine
 62
2
  6
CONTINUOUS
 10
282.6141831923
 20
193.170320994
 11
289.0264570684
 21
193.170320994
  0
LINE
  5
27A
100
AcDbEntity
  8
0
100
AcDbLine
 62
2
  6
CONTINUOUS
 10
282.6141831923
 20
159.170320994
 11
289.0264570684
 21
159.170320994
  0
LINE
  5
27B
100
AcDbEntity
  8
0
100
AcDbLine
 62
2
  6
CONTINUOUS
 10
288.2764570684
 20
193.170320994
 11
288.2764570684
 21
176.170320994
  0
LINE
  5
27C
100
AcDbEntity
  8
0
100
AcDbLine
 62
2
  6
CONTINUOUS
 10
288.2764570684
 20
159.170320994
 11
288.2764570684
 21
176.170320994
  0
INSERT
  5
27D
100
AcDbEntity
  8
0
100
AcDbBlockReference
 62
2
  6
CONTINUOUS
  2
_CLOSED
 10
288.2764570684
 20
193.170320994
 41
2.5
 42
2.5
 43
2.5
 50
90.0
  0
INSERT
  5
27E
100
AcDbEntity
  8
0
100
AcDbBlockReference
 62
2
  6
CONTINUOUS
  2
_CLOSED
 10
288.2764570684
 20
159.170320994
 41
2.5
 42
2.5
 43
2.5
 50
270.0
  0
ENDBLK
  5
27F
100
AcDbEntity
  8
0
  6
BYBLOCK
 62
0
100
AcDbBlockEnd
  0
BLOCK
  5
280
100
AcDbEntity
  8
0
100
AcDbBlockBegin
 62
2
  6
CONTINUOUS
  2
*D2
 70
65
 10
0.0
 20
0.0
  3
*D2
  1

  0
LINE
  5
281
100
AcDbEntity
  8
0
100
AcDbLine
 62
2
  6
CONTINUOUS
 10
156.2296400354
 20
92.7925421467
 11
156.2296400354
 21
83.0559464644
  0
LINE
  5
282
100
AcDbEntity
  8
0
100
AcDbLine
 62
2
  6
CONTINUOUS
 10
276.2296400354
 20
92.5914657831
 11
276.2296400354
 21
83.0559464644
  0
LINE
  5
283
100
AcDbEntity
  8
0
100
AcDbLine
 62
2
  6
CONTINUOUS
 10
156.2296400354
 20
83.8059464644
 11
216.2296400354
 21
83.8059464644
  0
LINE
  5
284
100
AcDbEntity
  8
0
100
AcDbLine
 62
2
  6
CONTINUOUS
 10
276.2296400354
 20
83.8059464644
 11
216.2296400354
 21
83.8059464644
  0
INSERT
  5
285
100
AcDbEntity
  8
0
100
AcDbBlockReference
 62
2
  6
CONTINUOUS
  2
_CLOSED
 10
156.2296400354
 20
83.8059464644
 41
2.5
 42
2.5
 43
2.5
 50
180.0
  0
INSERT
  5
286
100
AcDbEntity
  8
0
100
AcDbBlockReference
 62
2
  6
CONTINUOUS
  2
_CLOSED
 10
276.2296400354
 20
83.8059464644
 41
2.5
 42
2.5
 43
2.5
  0
ENDBLK
  5
287
100
AcDbEntity
  8
0
  6
BYBLOCK
 62
0
100
AcDbBlockEnd
  0
BLOCK
  5
288
100
AcDbEntity
  8
0
100
AcDbBlockBegin
 62
2
  6
CONTINUOUS
  2
*D3
 70
65
 10
0.0
 20
0.0
  3
*D3
  1

  0
LINE
  5
289
100
AcDbEntity
  8
0
100
AcDbLine
 62
2
  6
CONTINUOUS
 10
282.6141831923
 20
1108.8571682071
 11
301.9856492227
 21
1108.8571682071
  0
LINE
  5
28A
100
AcDbEntity
  8
0
100
AcDbLine
 62
2
  6
CONTINUOUS
 10
282.6141831923
 20
309.4700684067
 11
301.9856492227
 21
309.4700684067
  0
LINE
  5
28B
100
AcDbEntity
  8
0
100
AcDbLine
 62
2
  6
CONTINUOUS
 10
301.2356492227
 20
1108.8571682071
 11
301.2356492227
 21
709.1636183069
  0
LINE
  5
28C
100
AcDbEntity
  8
0
100
AcDbLine
 62
2
  6
CONTINUOUS
 10
301.2356492227
 20
309.4700684067
 11
301.2356492227
 21
709.1636183069
  0
INSERT
  5
28D
100
AcDbEntity
  8
0
100
AcDbBlockReference
 62
2
  6
CONTINUOUS
  2
_CLOSED
 10
301.2356492227
 20
1108.8571682071
 41
2.5
 42
2.5
 43
2.5
 50
90.0
  0
INSERT
  5
28E
100
AcDbEntity
  8
0
100
AcDbBlockReference
 62
2
  6
CONTINUOUS
  2
_CLOSED
 10
301.2356492227
 20
309.4700684067
 41
2.5
 42
2.5
 43
2.5
 50
270.0
  0
ENDBLK
  5
28F
100
AcDbEntity
  8
0
  6
BYBLOCK
 62
0
100
AcDbBlockEnd
  0
BLOCK
  5
290
100
AcDbEntity
  8
0
100
AcDbBlockBegin
 62
2
  6
CONTINUOUS
  2
*D4
 70
65
 10
0.0
 20
0.0
  3
*D4
  1

  0
LINE
  5
291
100
AcDbEntity
  8
0
100
AcDbLine
 62
2
  6
CONTINUOUS
 10
591.2577594313
 20
1114.8152356575
 11
591.2577594313
 21
1122.8671662606
  0
LINE
  5
292
100
AcDbEntity
  8
0
100
AcDbLine
 62
2
  6
CONTINUOUS
 10
494.1351719104
 20
1114.6389213198
 11
494.1351719104
 21
1122.8671662606
  0
LINE
  5
293
100
AcDbEntity
  8
0
100
AcDbLine
 62
2
  6
CONTINUOUS
 10
591.2577594313
 20
1122.1171662606
 11
542.6964656709
 21
1122.1171662606
  0
LINE
  5
294
100
AcDbEntity
  8
0
100
AcDbLine
 62
2
  6
CONTINUOUS
 10
494.1351719104
 20
1122.1171662606
 11
542.6964656709
 21
1122.1171662606
  0
INSERT
  5
295
100
AcDbEntity
  8
0
100
AcDbBlockReference
 62
2
  6
CONTINUOUS
  2
_CLOSED
 10
591.2577594313
 20
1122.1171662606
 41
2.5
 42
2.5
 43
2.5
  0
INSERT
  5
296
100
AcDbEntity
  8
0
100
AcDbBlockReference
 62
2
  6
CONTINUOUS
  2
_CLOSED
 10
494.1351719104
 20
1122.1171662606
 41
2.5
 42
2.5
 43
2.5
 50
180.0
  0
ENDBLK
  5
297
100
AcDbEntity
  8
0
  6
BYBLOCK
 62
0
100
AcDbBlockEnd
  0
BLOCK
  5
298
100
AcDbEntity
  8
0
100
AcDbBlockBegin
 62
2
  6
CONTINUOUS
  2
*D5
 70
65
 10
0.0
 20
0.0
  3
*D5
  1

  0
LINE
  5
299
100
AcDbEntity
  8
0
100
AcDbLine
 62
2
  6
CONTINUOUS
 10
494.1351719104
 20
308.7200684067
 11
494.1351719104
 21
297.0585403829
  0
LINE
  5
29A
100
AcDbEntity
  8
0
100
AcDbLine
 62
2
  6
CONTINUOUS
 10
528.1351719104
 20
308.7200684067
 11
528.1351719104
 21
297.0585403829
  0
LINE
  5
29B
100
AcDbEntity
  8
0
100
AcDbLine
 62
2
  6
CONTINUOUS
 10
494.1351719104
 20
297.8085403829
 11
511.1351719104
 21
297.8085403829
  0
LINE
  5
29C
100
AcDbEntity
  8
0
100
AcDbLine
 62
2
  6
CONTINUOUS
 10
528.1351719104
 20
297.8085403829
 11
511.1351719104
 21
297.8085403829
  0
INSERT
  5
29D
100
AcDbEntity
  8
0
100
AcDbBlockReference
 62
2
  6
CONTINUOUS
  2
_CLOSED
 10
494.1351719104
 20
297.8085403829
 41
2.5
 42
2.5
 43
2.5
 50
180.0
  0
INSERT
  5
29E
100
AcDbEntity
  8
0
100
AcDbBlockReference
 62
2
  6
CONTINUOUS
  2
_CLOSED
 10
528.1351719104
 20
297.8085403829
 41
2.5
 42
2.5
 43
2.5
  0
ENDBLK
  5
29F
100
AcDbEntity
  8
0
  6
BYBLOCK
 62
0
100
AcDbBlockEnd
  0
BLOCK
  5
2A0
100
AcDbEntity
  8
0
100
AcDbBlockBegin
  2
*T1
 70
1
 10
0.0
 20
0.0
  3
*T1
  1

  0
LINE
  5
2A1
100
AcDbEntity
  8
0
100
AcDbLine
 62
2
  6
CONTINUOUS
 10
0.0
 20
0.0
 11
90.0
 21
0.0
  0
LINE
  5
2A2
100
AcDbEntity
  8
0
100
AcDbLine
 62
2
  6
CONTINUOUS
 10
0.0
 20
0.0
 11
0.0
 21
-40.0
  0
LINE
  5
2A3
100
AcDbEntity
  8
0
100
AcDbLine
 62
2
  6
CONTINUOUS
 10
30.0
 20
-6.0
 11
90.0
 21
-6.0
  0
LINE
  5
2A4
100
AcDbEntity
  8
0
100
AcDbLine
 62
2
  6
CONTINUOUS
 10
30.0
 20
-12.0
 11
90.0
 21
-12.0
  0
LINE
  5
2A5
100
AcDbEntity
  8
0
100
AcDbLine
 62
2
  6
CONTINUOUS
 10
30.0
 20
-22.0
 11
90.0
 21
-22.0
  0
LINE
  5
2A6
100
AcDbEntity
  8
0
100
AcDbLine
 62
2
  6
CONTINUOUS
 10
0.0
 20
-27.0
 11
90.0
 21
-27.0
  0
LINE
  5
2A7
100
AcDbEntity
  8
0
100
AcDbLine
 62
2
  6
CONTINUOUS
 10
0.0
 20
-40.0
 11
90.0
 21
-40.0
  0
LINE
  5
2A8
100
AcDbEntity
  8
0
100
AcDbLine
 62
2
  6
CONTINUOUS
 10
30.0
 20
0.0
 11
30.0
 21
-27.0
  0
LINE
  5
2A9
100
AcDbEntity
  8
0
100
AcDbLine
 62
2
  6
CONTINUOUS
 10
70.0
 20
0.0
 11
70.0
 21
-12.0
  0
LINE
  5
2AA
100
AcDbEntity
  8
0
100
AcDbLine
 62
2
  6
CONTINUOUS
 10
90.0
 20
0.0
 11
90.0
 21
-40.0
  0
ENDBLK
  5
2AB
100
AcDbEntity
  8
0
100
AcDbBlockEnd
  0
ENDSEC
  0
SECTION
  2
ENTITIES
  0
DIMENSION
  5
2AC
100
AcDbEntity
  8
0
100
AcDbDimension
 62
2
  6
CONTINUOUS
  2
*D0
 10
278.2296400354
 20
203.728692671
 11
213.0153543211
 21
204.478692671
 70
160
 71
2
 42
124.0
  3
DIMSTYLE_1
100
AcDbAlignedDimension
 13
154.2296400354
 23
196.4458366922
 14
278.2296400354
 24
196.6469130558
100
AcDbRotatedDimension
  0
DIMENSION
  5
2AD
100
AcDbEntity
  8
0
100
AcDbDimension
 62
2
  6
CONTINUOUS
  2
*D1
 10
288.2764570684
 20
159.170320994
 11
287.5264570684
 21
173.920320994
 70
160
 71
2
 42
34.0
  3
DIMSTYLE_2
100
AcDbAlignedDimension
 13
282.6141831923
 23
193.170320994
 14
282.6141831923
 24
159.170320994
 50
270.0
100
AcDbRotatedDimension
  0
DIMENSION
  5
2AE
100
AcDbEntity
  8
0
100
AcDbDimension
 62
2
  6
CONTINUOUS
  2
*D2
 10
276.2296400354
 20
83.8059464644
 11
213.0153543211
 21
84.5559464644
 70
160
 71
2
 42
120.0
  3
DIMSTYLE_2
100
AcDbAlignedDimension
 13
156.2296400354
 23
92.7925421467
 14
276.2296400354
 24
92.5914657831
100
AcDbRotatedDimension
  0
DIMENSION
  5
2AF
100
AcDbEntity
  8
0
100
AcDbDimension
 62
2
  6
CONTINUOUS
  2
*D3
 10
301.2356492227
 20
309.4700684067
 11
300.4856492227
 21
705.6279040212
 70
160
 71
2
 42
799.3870998004
  1
800
  3
DIMSTYLE_3
100
AcDbAlignedDimension
 13
282.6141831923
 23
1108.8571682071
 14
282.6141831923
 24
309.4700684067
 50
270.0
100
AcDbRotatedDimension
  0
DIMENSION
  5
2B0
100
AcDbEntity
  8
0
100
AcDbDimension
 62
2
  6
CONTINUOUS
  2
*D4
 10
494.1351719104
 20
1122.1171662606
 11
540.3393228137
 21
1122.8671662606
 70
160
 71
2
 42
97.122587521
  3
DIMSTYLE_4
100
AcDbAlignedDimension
 13
591.2577594313
 23
1114.8152356575
 14
494.1351719104
 24
1114.6389213198
 50
180.0
100
AcDbRotatedDimension
  0
DIMENSION
  5
2B1
100
AcDbEntity
  8
0
100
AcDbDimension
 62
2
  6
CONTINUOUS
  2
*D5
 10
528.1351719104
 20
297.8085403829
 11
508.8851719104
 21
298.5585403829
 70
160
 71
2
 42
34.0
  3
DIMSTYLE_2
100
AcDbAlignedDimension
 13
494.1351719104
 23
308.7200684067
 14
528.1351719104
 24
308.7200684067
100
AcDbRotatedDimension
  0
INSERT
  5
2B2
100
AcDbEntity
  8
0
100
AcDbBlockReference
 62
2
  6
CONTINUOUS
  2
LOGO2_BL0
 10
753.731072936
 20
39.0120455435
  0
LWPOLYLINE
  5
2B3
100
AcDbEntity
  8
0
100
AcDbPolyline
 62
2
  6
CONTINUOUS
 90
6
 70
0
 10
771.3925297309
 20
48.0120462059
 10
772.4639542824
 20
48.0120462059
 10
772.6782047888
 20
48.2263289659
 10
772.6782047888
 20
49.297758893
 10
772.249703776
 20
49.7263297888
 10
771.8211167535
 20
49.7263297888
  0
LWPOLYLINE
  5
2B4
100
AcDbEntity
  8
0
100
AcDbPolyline
 62
2
  6
CONTINUOUS
 90
5
 70
0
 10
772.249703776
 20
49.7263297888
 10
772.6068166233
 20
49.9406179244
 10
772.6068166233
 20
50.5834715802
 10
772.249703776
 20
51.0120478516
 10
771.3925297309
 20
51.0120478516
  0
LINE
  5
2B5
100
AcDbEntity
  8
0
100
AcDbLine
 62
2
  6
CONTINUOUS
 10
773.5353788339
 20
48.0120462059
 11
773.5353788339
 21
51.0120478516
  0
LINE
  5
2B6
100
AcDbEntity
  8
0
100
AcDbLine
 62
2
  6
CONTINUOUS
 10
775.035390408
 20
51.0120478516
 11
775.035390408
 21
48.0120462059
  0
LINE
  5
2B7
100
AcDbEntity
  8
0
100
AcDbLine
 62
2
  6
CONTINUOUS
 10
773.5353788339
 20
49.7263297888
 11
775.035390408
 21
49.7263297888
  0
LWPOLYLINE
  5
2B8
100
AcDbEntity
  8
0
100
AcDbPolyline
 62
2
  6
CONTINUOUS
 90
4
 70
0
 10
775.8925644531
 20
50.3691888202
 10
775.8925644531
 20
51.0120478516
 10
777.3924900174
 20
51.0120478516
 10
776.5354019821
 20
48.0120462059
  0
LINE
  5
2B9
100
AcDbEntity
  8
0
100
AcDbLine
 62
2
  6
CONTINUOUS
 10
778.2496640625
 20
48.0120462059
 11
779.9639261429
 21
48.0120462059
  0
LWPOLYLINE
  5
2BA
100
AcDbEntity
  8
0
100
AcDbPolyline
 62
2
  6
CONTINUOUS
 90
6
 70
0
 10
781.8925247396
 20
48.0120462059
 10
781.0353506944
 20
48.0120462059
 10
780.6068496817
 20
48.4406171016
 10
780.6068496817
 20
50.5834715802
 10
781.0353506944
 20
51.0120478516
 10
781.8925247396
 20
51.0120478516
  0
LINE
  5
2BB
100
AcDbEntity
  8
0
100
AcDbLine
 62
2
  6
CONTINUOUS
 10
783.1068116319
 20
48.0120462059
 11
784.8210737124
 21
48.0120462059
  0
LWPOLYLINE
  5
2BC
100
AcDbEntity
  8
0
100
AcDbPolyline
 62
2
  6
CONTINUOUS
 90
13
 70
0
 10
785.4639972512
 20
48.8691879973
 10
785.4639972512
 20
50.1549006845
 10
785.6782477575
 20
50.5834715802
 10
786.1068347801
 20
51.0120478516
 10
786.3210852865
 20
51.0120478516
 10
786.749672309
 20
50.5834715802
 10
786.9639228154
 20
50.1549006845
 10
786.9639228154
 20
48.8691879973
 10
786.749672309
 20
48.4406171016
 10
786.3210852865
 20
48.0120462059
 10
786.1068347801
 20
48.0120462059
 10
785.6782477575
 20
48.4406171016
 10
785.4639972512
 20
48.8691879973
  0
LWPOLYLINE
  5
2BD
100
AcDbEntity
  8
0
100
AcDbPolyline
 62
2
  6
CONTINUOUS
 90
10
 70
0
 10
788.2496838831
 20
48.0120462059
 10
789.1067719184
 20
48.8691879973
 10
789.3211084346
 20
49.7263297888
 10
789.3211084346
 20
50.5834715802
 10
788.892521412
 20
51.0120478516
 10
788.2496838831
 20
51.0120478516
 10
787.8210968605
 20
50.5834715802
 10
787.8210968605
 20
49.7263297888
 10
788.2496838831
 20
49.297758893
 10
789.1782460937
 20
49.297758893
  0
LWPOLYLINE
  5
2BE
100
AcDbEntity
  8
0
100
AcDbPolyline
 62
2
  6
CONTINUOUS
 90
8
 70
0
 10
790.1782824797
 20
48.0120462059
 10
791.035370515
 20
48.0120462059
 10
791.4639575376
 20
48.4406171016
 10
791.4639575376
 20
49.297758893
 10
791.035370515
 20
49.7263297888
 10
790.1782824797
 20
49.7263297888
 10
790.1782824797
 20
51.0120478516
 10
791.4639575376
 20
51.0120478516
  0
LWPOLYLINE
  5
2BF
100
AcDbEntity
  8
0
100
AcDbPolyline
 62
2
  6
CONTINUOUS
 90
7
 70
0
 10
811.3925230035
 20
47.2620457945
 10
811.3925230035
 20
50.7620441307
 10
812.6425039786
 20
50.7620441307
 10
813.1425651765
 20
50.2620474401
 10
813.1425651765
 20
49.2620433078
 10
812.6425039786
 20
48.7620466173
 10
811.3925230035
 20
48.7620466173
  0
LINE
  5
2C0
100
AcDbEntity
  8
0
100
AcDbLine
 62
2
  6
CONTINUOUS
 10
812.1425287905
 20
48.7620466173
 11
813.1425651765
 21
47.2620457945
  0
LWPOLYLINE
  5
2C1
100
AcDbEntity
  8
0
100
AcDbPolyline
 62
2
  6
CONTINUOUS
 90
9
 70
0
 10
815.6425271267
 20
47.2620457945
 10
814.6424907407
 20
47.2620457945
 10
814.1425155527
 20
47.7620478606
 10
814.1425155527
 20
49.2620433078
 10
814.6424907407
 20
49.762045374
 10
815.1425519387
 20
49.762045374
 10
815.6425271267
 20
49.2620433078
 10
815.6425271267
 20
48.5120428964
 10
814.1425155527
 20
48.5120428964
  0
LWPOLYLINE
  5
2C2
100
AcDbEntity
  8
0
100
AcDbPolyline
 62
2
  6
CONTINUOUS
 90
3
 70
0
 10
816.6425635127
 20
49.762045374
 10
817.3924832899
 20
47.2620457945
 10
818.142489077
 20
49.762045374
  0
LWPOLYLINE
  5
2C3
100
AcDbEntity
  8
0
100
AcDbPolyline
 62
2
  6
CONTINUOUS
 90
4
 70
0
 10
819.142525463
 20
47.2620457945
 10
819.142525463
 20
47.5120441397
 10
819.3092125289
 20
47.5120441397
 10
819.142525463
 20
47.2620457945
  0
LWPOLYLINE
  5
2C4
100
AcDbEntity
  8
0
100
AcDbPolyline
 62
2
  6
CONTINUOUS
 90
4
 70
0
 10
819.142525463
 20
48.7620466173
 10
819.142525463
 20
49.0120449626
 10
819.3092125289
 20
49.0120449626
 10
819.142525463
 20
48.7620466173
  0
LWPOLYLINE
  5
2C5
100
AcDbEntity
  8
0
100
AcDbPolyline
 62
2
  6
CONTINUOUS
 90
13
 70
0
 10
820.3925064381
 20
48.2620445511
 10
820.3925064381
 20
49.762045374
 10
820.642537037
 20
50.2620474401
 10
821.1425122251
 20
50.7620441307
 10
821.3925428241
 20
50.7620441307
 10
821.8925180122
 20
50.2620474401
 10
822.1425486111
 20
49.762045374
 10
822.1425486111
 20
48.2620445511
 10
821.8925180122
 20
47.7620478606
 10
821.3925428241
 20
47.2620457945
 10
821.1425122251
 20
47.2620457945
 10
820.642537037
 20
47.7620478606
 10
820.3925064381
 20
48.2620445511
  0
LWPOLYLINE
  5
2C6
100
AcDbEntity
  8
0
100
AcDbPolyline
 62
2
  6
CONTINUOUS
 90
3
 70
0
 10
823.1424989873
 20
49.762045374
 10
824.1425353733
 20
50.7620441307
 10
824.1425353733
 20
47.2620457945
  0
LWPOLYLINE
  5
2C7
100
AcDbEntity
  8
0
100
AcDbPolyline
 62
2
  6
CONTINUOUS
 90
10
 70
0
 10
771.3925297309
 20
41.512046224
 10
771.6425603299
 20
41.2620451909
 10
772.642510706
 20
41.2620451909
 10
773.1424858941
 20
41.7620445692
 10
773.1424858941
 20
42.2620466354
 10
771.3925297309
 20
43.7620447704
 10
771.3925297309
 20
44.2620468366
 10
771.892504919
 20
44.7620462149
 10
772.892541305
 20
44.7620462149
 10
773.1424858941
 20
44.5120451818
  0
LWPOLYLINE
  5
2C8
100
AcDbEntity
  8
0
100
AcDbPolyline
 62
2
  6
CONTINUOUS
 90
6
 70
0
 10
775.3925032552
 20
41.2620451909
 10
774.3925528791
 20
41.2620451909
 10
774.1425222801
 20
41.512046224
 10
774.1425222801
 20
43.5120464251
 10
774.3925528791
 20
43.7620447704
 10
775.3925032552
 20
43.7620447704
  0
LWPOLYLINE
  5
2C9
100
AcDbEntity
  8
0
100
AcDbPolyline
 62
2
  6
CONTINUOUS
 90
4
 70
0
 10
777.8925512153
 20
41.2620451909
 10
777.8925512153
 20
43.2620453921
 10
777.6425206163
 20
43.7620447704
 10
776.3925396412
 20
43.7620447704
  0
LWPOLYLINE
  5
2CA
100
AcDbEntity
  8
0
100
AcDbPolyline
 62
2
  6
CONTINUOUS
 90
6
 70
0
 10
777.8925512153
 20
41.2620451909
 10
776.8925148293
 20
41.2620451909
 10
776.3925396412
 20
41.512046224
 10
776.3925396412
 20
42.2620466354
 10
776.8925148293
 20
42.5120449806
 10
777.8925512153
 20
42.5120449806
  0
LWPOLYLINE
  5
2CB
100
AcDbEntity
  8
0
100
AcDbPolyline
 62
2
  6
CONTINUOUS
 90
4
 70
0
 10
779.6425073785
 20
41.2620451909
 10
779.1425321904
 20
41.2620451909
 10
778.8925015914
 20
41.512046224
 10
778.8925015914
 20
44.7620462149
  0
LWPOLYLINE
  5
2CC
100
AcDbEntity
  8
0
100
AcDbPolyline
 62
2
  6
CONTINUOUS
 90
9
 70
0
 10
782.1425553385
 20
41.2620451909
 10
781.1425189525
 20
41.2620451909
 10
780.6425437645
 20
41.7620445692
 10
780.6425437645
 20
43.2620453921
 10
781.1425189525
 20
43.7620447704
 10
781.6424941406
 20
43.7620447704
 10
782.1425553385
 20
43.2620453921
 10
782.1425553385
 20
42.5120449806
 10
780.6425437645
 20
42.5120449806
  0
LWPOLYLINE
  5
2CD
100
AcDbEntity
  8
0
100
AcDbPolyline
 62
2
  6
CONTINUOUS
 90
4
 70
0
 10
783.1425057147
 20
41.2620451909
 10
783.1425057147
 20
41.512046224
 10
783.3091927807
 20
41.512046224
 10
783.1425057147
 20
41.2620451909
  0
LWPOLYLINE
  5
2CE
100
AcDbEntity
  8
0
100
AcDbPolyline
 62
2
  6
CONTINUOUS
 90
4
 70
0
 10
783.1425057147
 20
42.7620460137
 10
783.1425057147
 20
43.012044359
 10
783.3091927807
 20
43.012044359
 10
783.1425057147
 20
42.7620460137
  0
LWPOLYLINE
  5
2CF
100
AcDbEntity
  8
0
100
AcDbPolyline
 62
2
  6
CONTINUOUS
 90
3
 70
0
 10
784.3924866898
 20
43.7620447704
 10
785.3925230758
 20
44.7620462149
 10
785.3925230758
 20
41.2620451909
  0
LWPOLYLINE
  5
2D0
100
AcDbEntity
  8
0
100
AcDbPolyline
 62
2
  6
CONTINUOUS
 90
4
 70
0
 10
786.3925594618
 20
41.2620451909
 10
786.3925594618
 20
41.512046224
 10
786.5591605179
 20
41.512046224
 10
786.3925594618
 20
41.2620451909
  0
LWPOLYLINE
  5
2D1
100
AcDbEntity
  8
0
100
AcDbPolyline
 62
2
  6
CONTINUOUS
 90
4
 70
0
 10
786.3925594618
 20
42.7620460137
 10
786.3925594618
 20
43.012044359
 10
786.5591605179
 20
43.012044359
 10
786.3925594618
 20
42.7620460137
  0
LWPOLYLINE
  5
2D2
100
AcDbEntity
  8
0
100
AcDbPolyline
 62
2
  6
CONTINUOUS
 90
3
 70
0
 10
787.6425404369
 20
43.7620447704
 10
788.6424908131
 20
44.7620462149
 10
788.6424908131
 20
41.2620451909
  0
LWPOLYLINE
  5
2D3
100
AcDbEntity
  8
0
100
AcDbPolyline
 62
2
  6
CONTINUOUS
 90
3
 70
0
 10
811.3925230035
 20
41.7620445692
 10
812.3925593895
 20
45.2620429055
 10
813.3925097656
 20
41.7620445692
  0
LINE
  5
2D4
100
AcDbEntity
  8
0
100
AcDbLine
 62
2
  6
CONTINUOUS
 10
811.7258971354
 20
42.7620460137
 11
813.0592216435
 21
42.7620460137
  0
LWPOLYLINE
  5
2D5
100
AcDbEntity
  8
0
100
AcDbPolyline
 62
2
  6
CONTINUOUS
 90
13
 70
0
 10
814.3925461516
 20
42.7620460137
 10
814.3925461516
 20
44.2620468366
 10
814.6424907407
 20
44.7620462149
 10
815.1425519387
 20
45.2620429055
 10
815.3924965278
 20
45.2620429055
 10
815.8925577257
 20
44.7620462149
 10
816.1425023148
 20
44.2620468366
 10
816.1425023148
 20
42.7620460137
 10
815.8925577257
 20
42.2620466354
 10
815.3924965278
 20
41.7620445692
 10
815.1425519387
 20
41.7620445692
 10
814.6424907407
 20
42.2620466354
 10
814.3925461516
 20
42.7620460137
  0
LWPOLYLINE
  5
2D6
100
AcDbEntity
  8
0
100
AcDbPolyline
 62
2
  6
CONTINUOUS
 90
7
 70
0
 10
772.059191985
 20
33.7620464523
 10
772.059191985
 20
37.2620447885
 10
773.3091729601
 20
37.2620447885
 10
773.809234158
 20
36.7620454102
 10
773.809234158
 20
35.7620466535
 10
773.3091729601
 20
35.2620445873
 10
772.059191985
 20
35.2620445873
  0
LWPOLYLINE
  5
2D7
100
AcDbEntity
  8
0
100
AcDbPolyline
 62
2
  6
CONTINUOUS
 90
4
 70
0
 10
775.5591903212
 20
33.7620464523
 10
775.0592151331
 20
33.7620464523
 10
774.8091845341
 20
34.0120447975
 10
774.8091845341
 20
37.2620447885
  0
LINE
  5
2D8
100
AcDbEntity
  8
0
100
AcDbLine
 62
2
  6
CONTINUOUS
 10
777.0592018953
 20
33.7620464523
 11
777.0592018953
 21
36.2620460318
  0
LWPOLYLINE
  5
2D9
100
AcDbEntity
  8
0
100
AcDbPolyline
 62
2
  6
CONTINUOUS
 90
4
 70
0
 10
777.0592018953
 20
37.0120464432
 10
777.0592018953
 20
37.2620447885
 10
777.1425454282
 20
37.2620447885
 10
777.0592018953
 20
37.0120464432
  0
LWPOLYLINE
  5
2DA
100
AcDbEntity
  8
0
100
AcDbPolyline
 62
2
  6
CONTINUOUS
 90
5
 70
0
 10
778.3925264034
 20
33.7620464523
 10
778.3925264034
 20
36.2620460318
 10
779.6425073785
 20
36.2620460318
 10
779.8925379774
 20
36.0120449987
 10
779.8925379774
 20
33.7620464523
  0
LWPOLYLINE
  5
2DB
100
AcDbEntity
  8
0
100
AcDbPolyline
 62
2
  6
CONTINUOUS
 90
3
 70
0
 10
783.6425669126
 20
36.2620460318
 10
784.6425172888
 20
37.2620447885
 10
784.6425172888
 20
33.7620464523
  0
LWPOLYLINE
  5
2DC
100
AcDbEntity
  8
0
100
AcDbPolyline
 62
2
  6
CONTINUOUS
 90
9
 70
0
 10
786.3925594618
 20
34.3453786124
 10
786.475816985
 20
34.1787130489
 10
786.475816985
 20
34.0953775793
 10
786.3925594618
 20
33.9287120158
 10
786.2258723958
 20
33.9287120158
 10
786.1425288628
 20
34.0953775793
 10
786.1425288628
 20
34.1787130489
 10
786.2258723958
 20
34.3453786124
 10
786.3925594618
 20
34.3453786124
  0
LWPOLYLINE
  5
2DD
100
AcDbEntity
  8
0
100
AcDbPolyline
 62
2
  6
CONTINUOUS
 90
7
 70
0
 10
789.3924966001
 20
33.7620464523
 10
787.6425404369
 20
33.7620464523
 10
789.3924966001
 20
36.2620460318
 10
789.3924966001
 20
36.7620454102
 10
788.892521412
 20
37.2620447885
 10
788.142515625
 20
37.2620447885
 10
787.6425404369
 20
36.5120443771
  0
LWPOLYLINE
  5
2DE
100
AcDbEntity
  8
0
100
AcDbPolyline
 62
2
  6
CONTINUOUS
 90
7
 70
0
 10
771.3925297309
 20
26.7620444042
 10
771.3925297309
 20
29.2620466715
 10
772.2853978588
 20
29.2620466715
 10
772.642510706
 20
28.9049015706
 10
772.642510706
 20
27.1191895051
 10
772.2853978588
 20
26.7620444042
 10
771.3925297309
 20
26.7620444042
  0
LWPOLYLINE
  5
2DF
100
AcDbEntity
  8
0
100
AcDbPolyline
 62
2
  6
CONTINUOUS
 90
3
 70
0
 10
773.6544164497
 20
26.7620444042
 10
774.3687281539
 20
29.2620466715
 10
775.0830398582
 20
26.7620444042
  0
LINE
  5
2E0
100
AcDbEntity
  8
0
100
AcDbLine
 62
2
  6
CONTINUOUS
 10
773.8924916811
 20
27.4763319182
 11
774.8448786169
 21
27.4763319182
  0
LINE
  5
2E1
100
AcDbEntity
  8
0
100
AcDbLine
 62
2
  6
CONTINUOUS
 10
776.5115772569
 20
26.7620444042
 11
776.5115772569
 21
29.2620466715
  0
LINE
  5
2E2
100
AcDbEntity
  8
0
100
AcDbLine
 62
2
  6
CONTINUOUS
 10
775.7972655527
 20
29.2620466715
 11
777.2258889612
 21
29.2620466715
  0
LWPOLYLINE
  5
2E3
100
AcDbEntity
  8
0
100
AcDbPolyline
 62
2
  6
CONTINUOUS
 90
3
 70
0
 10
777.9401146557
 20
26.7620444042
 10
777.9401146557
 20
29.2620466715
 10
779.0115392072
 20
29.2620466715
  0
LINE
  5
2E4
100
AcDbEntity
  8
0
100
AcDbLine
 62
2
  6
CONTINUOUS
 10
778.65442636
 20
28.1906167444
 11
777.9401146557
 21
28.1906167444
  0
LINE
  5
2E5
100
AcDbEntity
  8
0
100
AcDbLine
 62
2
  6
CONTINUOUS
 10
777.9401146557
 20
26.7620444042
 11
779.0115392072
 21
26.7620444042
  0
LWPOLYLINE
  5
2E6
100
AcDbEntity
  8
0
100
AcDbPolyline
 62
2
  6
CONTINUOUS
 90
4
 70
0
 10
779.7258509115
 20
26.7620444042
 10
779.7258509115
 20
26.9406169547
 10
779.8448885272
 20
26.9406169547
 10
779.7258509115
 20
26.7620444042
  0
LWPOLYLINE
  5
2E7
100
AcDbEntity
  8
0
100
AcDbPolyline
 62
2
  6
CONTINUOUS
 90
4
 70
0
 10
779.7258509115
 20
27.8334743313
 10
779.7258509115
 20
28.0120468818
 10
779.8448885272
 20
28.0120468818
 10
779.7258509115
 20
27.8334743313
  0
LWPOLYLINE
  5
2E8
100
AcDbEntity
  8
0
100
AcDbPolyline
 62
2
  6
CONTINUOUS
 90
3
 70
0
 10
780.6187190394
 20
28.5477591575
 10
781.3330307436
 20
29.2620466715
 10
781.3330307436
 20
26.7620444042
  0
LWPOLYLINE
  5
2E9
100
AcDbEntity
  8
0
100
AcDbPolyline
 62
2
  6
CONTINUOUS
 90
4
 70
0
 10
782.0472564381
 20
28.726331708
 10
782.0472564381
 20
29.2620466715
 10
783.297323423
 20
29.2620466715
 10
782.5830117187
 20
26.7620444042
  0
LINE
  5
2EA
100
AcDbEntity
  8
0
100
AcDbLine
 62
2
  6
CONTINUOUS
 10
785.440172526
 20
29.0239499376
 11
784.0115491175
 21
26.8215685877
  0
LWPOLYLINE
  5
2EB
100
AcDbEntity
  8
0
100
AcDbPolyline
 62
2
  6
CONTINUOUS
 90
13
 70
0
 10
785.916322989
 20
27.4763319182
 10
785.916322989
 20
28.5477591575
 10
786.0948794126
 20
28.9049015706
 10
786.4520782697
 20
29.2620466715
 10
786.6306346933
 20
29.2620466715
 10
786.9877475405
 20
28.9049015706
 10
787.1663039641
 20
28.5477591575
 10
787.1663039641
 20
27.4763319182
 10
786.9877475405
 20
27.1191895051
 10
786.6306346933
 20
26.7620444042
 10
786.4520782697
 20
26.7620444042
 10
786.0948794126
 20
27.1191895051
 10
785.916322989
 20
27.4763319182
  0
LWPOLYLINE
  5
2EC
100
AcDbEntity
  8
0
100
AcDbPolyline
 62
2
  6
CONTINUOUS
 90
8
 70
0
 10
787.8806156684
 20
26.7620444042
 10
788.5949273727
 20
26.7620444042
 10
788.9520402199
 20
27.1191895051
 10
788.9520402199
 20
27.8334743313
 10
788.5949273727
 20
28.1906167444
 10
787.8806156684
 20
28.1906167444
 10
787.8806156684
 20
29.2620466715
 10
788.9520402199
 20
29.2620466715
  0
LINE
  5
2ED
100
AcDbEntity
  8
0
100
AcDbLine
 62
2
  6
CONTINUOUS
 10
791.0948893229
 20
29.0239499376
 11
789.6663519242
 21
26.8215685877
  0
LWPOLYLINE
  5
2EE
100
AcDbEntity
  8
0
100
AcDbPolyline
 62
2
  6
CONTINUOUS
 90
7
 70
0
 10
792.8211067708
 20
26.7620444042
 10
791.5711257957
 20
26.7620444042
 10
792.8211067708
 20
28.5477591575
 10
792.8211067708
 20
28.9049015706
 10
792.4639939236
 20
29.2620466715
 10
791.9282386429
 20
29.2620466715
 10
791.5711257957
 20
28.726331708
  0
LWPOLYLINE
  5
2EF
100
AcDbEntity
  8
0
100
AcDbPolyline
 62
2
  6
CONTINUOUS
 90
13
 70
0
 10
793.5354184751
 20
27.4763319182
 10
793.5354184751
 20
28.5477591575
 10
793.7139748987
 20
28.9049015706
 10
794.0710877459
 20
29.2620466715
 10
794.2496441696
 20
29.2620466715
 10
794.6068430266
 20
28.9049015706
 10
794.7853994502
 20
28.5477591575
 10
794.7853994502
 20
27.4763319182
 10
794.6068430266
 20
27.1191895051
 10
794.2496441696
 20
26.7620444042
 10
794.0710877459
 20
26.7620444042
 10
793.7139748987
 20
27.1191895051
 10
793.5354184751
 20
27.4763319182
  0
LWPOLYLINE
  5
2F0
100
AcDbEntity
  8
0
100
AcDbPolyline
 62
2
  6
CONTINUOUS
 90
3
 70
0
 10
795.4997111545
 20
28.5477591575
 10
796.213936849
 20
29.2620466715
 10
796.213936849
 20
26.7620444042
  0
LWPOLYLINE
  5
2F1
100
AcDbEntity
  8
0
100
AcDbPolyline
 62
2
  6
CONTINUOUS
 90
4
 70
0
 10
796.9282485532
 20
28.726331708
 10
796.9282485532
 20
29.2620466715
 10
798.1782295284
 20
29.2620466715
 10
797.4639178241
 20
26.7620444042
  0
LWPOLYLINE
  5
2F2
100
AcDbEntity
  8
0
100
AcDbPolyline
 62
2
  6
CONTINUOUS
 90
3
 70
0
 10
741.3925562789
 20
22.9495454486
 10
742.0353938079
 20
25.1995466829
 10
742.6782313368
 20
22.9495454486
  0
LINE
  5
2F3
100
AcDbEntity
  8
0
100
AcDbLine
 62
2
  6
CONTINUOUS
 10
741.6068067853
 20
23.5924017922
 11
742.4639808304
 21
23.5924017922
  0
LWPOLYLINE
  5
2F4
100
AcDbEntity
  8
0
100
AcDbPolyline
 62
2
  6
CONTINUOUS
 90
5
 70
0
 10
743.3210688657
 20
22.9495454486
 10
743.3210688657
 20
24.5566876515
 10
744.1246587818
 20
24.5566876515
 10
744.285411169
 20
24.3959728936
 10
744.285411169
 20
22.9495454486
  0
LWPOLYLINE
  5
2F5
100
AcDbEntity
  8
0
100
AcDbPolyline
 62
2
  6
CONTINUOUS
 90
3
 70
0
 10
744.9282486979
 20
22.4138318289
 10
745.2496674624
 20
22.4138318289
 10
745.8925049913
 20
24.5566876515
  0
LINE
  5
2F6
100
AcDbEntity
  8
0
100
AcDbLine
 62
2
  6
CONTINUOUS
 10
744.9282486979
 20
24.5566876515
 11
745.4104198495
 21
22.9495454486
  0
LINE
  5
2F7
100
AcDbEntity
  8
0
100
AcDbLine
 62
2
  6
CONTINUOUS
 10
748.4103569878
 20
22.9495454486
 11
748.4103569878
 21
24.5566876515
  0
LWPOLYLINE
  5
2F8
100
AcDbEntity
  8
0
100
AcDbPolyline
 62
2
  6
CONTINUOUS
 90
4
 70
0
 10
748.4103569878
 20
25.038831925
 10
748.4103569878
 20
25.1995466829
 10
748.4639411169
 20
25.1995466829
 10
748.4103569878
 20
25.038831925
  0
LWPOLYLINE
  5
2F9
100
AcDbEntity
  8
0
100
AcDbPolyline
 62
2
  6
CONTINUOUS
 90
5
 70
0
 10
749.267531033
 20
22.9495454486
 10
749.267531033
 20
24.5566876515
 10
750.0711209491
 20
24.5566876515
 10
750.2317873264
 20
24.3959728936
 10
750.2317873264
 20
22.9495454486
  0
LINE
  5
2FA
100
AcDbEntity
  8
0
100
AcDbLine
 62
2
  6
CONTINUOUS
 10
751.1425455006
 20
22.9495454486
 11
751.1425455006
 21
25.1995466829
  0
LINE
  5
2FB
100
AcDbEntity
  8
0
100
AcDbLine
 62
2
  6
CONTINUOUS
 10
750.8747108652
 20
24.5566876515
 11
751.5175483941
 21
24.5566876515
  0
LWPOLYLINE
  5
2FC
100
AcDbEntity
  8
0
100
AcDbPolyline
 62
2
  6
CONTINUOUS
 90
9
 70
0
 10
753.1246422164
 20
22.9495454486
 10
752.4818046875
 20
22.9495454486
 10
752.160385923
 20
23.2709749643
 10
752.160385923
 20
24.2352608236
 10
752.4818046875
 20
24.5566876515
 10
752.803223452
 20
24.5566876515
 10
753.1246422164
 20
24.2352608236
 10
753.1246422164
 20
23.75311655
 10
752.160385923
 20
23.75311655
  0
LWPOLYLINE
  5
2FD
100
AcDbEntity
  8
0
100
AcDbPolyline
 62
2
  6
CONTINUOUS
 90
9
 70
0
 10
753.7675657552
 20
22.4138318289
 10
754.5710696615
 20
22.4138318289
 10
754.7318220486
 20
22.6281159329
 10
754.7318220486
 20
24.5566876515
 10
753.9282321325
 20
24.5566876515
 10
753.7675657552
 20
24.3959728936
 10
753.7675657552
 20
23.1102602064
 10
753.9282321325
 20
22.9495454486
 10
754.7318220486
 20
22.9495454486
  0
LWPOLYLINE
  5
2FE
100
AcDbEntity
  8
0
100
AcDbPolyline
 62
2
  6
CONTINUOUS
 90
5
 70
0
 10
755.3746595775
 20
22.9495454486
 10
755.3746595775
 20
24.5566876515
 10
756.0174971065
 20
24.5566876515
 10
756.1246653646
 20
24.3959728936
 10
756.1246653646
 20
24.0745460657
  0
LWPOLYLINE
  5
2FF
100
AcDbEntity
  8
0
100
AcDbPolyline
 62
2
  6
CONTINUOUS
 90
4
 70
0
 10
757.785343316
 20
22.9495454486
 10
757.785343316
 20
24.2352608236
 10
757.6246769387
 20
24.5566876515
 10
756.8210870226
 20
24.5566876515
  0
LWPOLYLINE
  5
300
100
AcDbEntity
  8
0
100
AcDbPolyline
 62
2
  6
CONTINUOUS
 90
6
 70
0
 10
757.785343316
 20
22.9495454486
 10
757.142505787
 20
22.9495454486
 10
756.8210870226
 20
23.1102602064
 10
756.8210870226
 20
23.5924017922
 10
757.142505787
 20
23.75311655
 10
757.785343316
 20
23.75311655
  0
LWPOLYLINE
  5
301
100
AcDbEntity
  8
0
100
AcDbPolyline
 62
2
  6
CONTINUOUS
 90
4
 70
0
 10
758.9103519965
 20
22.9495454486
 10
758.5889332321
 20
22.9495454486
 10
758.4282668547
 20
23.1102602064
 10
758.4282668547
 20
25.1995466829
  0
LWPOLYLINE
  5
302
100
AcDbEntity
  8
0
100
AcDbPolyline
 62
2
  6
CONTINUOUS
 90
9
 70
0
 10
761.3211217448
 20
23.2709749643
 10
761.3211217448
 20
24.2352608236
 10
761.6425405093
 20
24.5566876515
 10
761.9639592737
 20
24.5566876515
 10
762.2853780382
 20
24.2352608236
 10
762.2853780382
 20
23.2709749643
 10
761.9639592737
 20
22.9495454486
 10
761.6425405093
 20
22.9495454486
 10
761.3211217448
 20
23.2709749643
  0
LWPOLYLINE
  5
303
100
AcDbEntity
  8
0
100
AcDbPolyline
 62
2
  6
CONTINUOUS
 90
5
 70
0
 10
762.9282155671
 20
22.9495454486
 10
762.9282155671
 20
24.5566876515
 10
763.5711391059
 20
24.5566876515
 10
763.6782213542
 20
24.3959728936
 10
763.6782213542
 20
24.0745460657
  0
LWPOLYLINE
  5
304
100
AcDbEntity
  8
0
100
AcDbPolyline
 62
2
  6
CONTINUOUS
 90
7
 70
0
 10
766.1424892216
 20
22.4138318289
 10
766.1424892216
 20
24.5566876515
 10
766.9460791377
 20
24.5566876515
 10
767.1068315249
 20
24.3959728936
 10
767.1068315249
 20
23.1102602064
 10
766.9460791377
 20
22.9495454486
 10
766.1424892216
 20
22.9495454486
  0
LWPOLYLINE
  5
305
100
AcDbEntity
  8
0
100
AcDbPolyline
 62
2
  6
CONTINUOUS
 90
4
 70
0
 10
768.7139253472
 20
22.9495454486
 10
768.7139253472
 20
24.2352608236
 10
768.5532589699
 20
24.5566876515
 10
767.7496690538
 20
24.5566876515
  0
LWPOLYLINE
  5
306
100
AcDbEntity
  8
0
100
AcDbPolyline
 62
2
  6
CONTINUOUS
 90
6
 70
0
 10
768.7139253472
 20
22.9495454486
 10
768.0710878183
 20
22.9495454486
 10
767.7496690538
 20
23.1102602064
 10
767.7496690538
 20
23.5924017922
 10
768.0710878183
 20
23.75311655
 10
768.7139253472
 20
23.75311655
  0
LWPOLYLINE
  5
307
100
AcDbEntity
  8
0
100
AcDbPolyline
 62
2
  6
CONTINUOUS
 90
5
 70
0
 10
769.356848886
 20
22.9495454486
 10
769.356848886
 20
24.5566876515
 10
769.9996864149
 20
24.5566876515
 10
770.1067686632
 20
24.3959728936
 10
770.1067686632
 20
24.0745460657
  0
LINE
  5
308
100
AcDbEntity
  8
0
100
AcDbLine
 62
2
  6
CONTINUOUS
 10
771.0711109664
 20
22.9495454486
 11
771.0711109664
 21
25.1995466829
  0
LINE
  5
309
100
AcDbEntity
  8
0
100
AcDbLine
 62
2
  6
CONTINUOUS
 10
770.803276331
 20
24.5566876515
 11
771.44611386
 21
24.5566876515
  0
LINE
  5
30A
100
AcDbEntity
  8
0
100
AcDbLine
 62
2
  6
CONTINUOUS
 10
772.4103701534
 20
22.9495454486
 11
772.4103701534
 21
24.5566876515
  0
LWPOLYLINE
  5
30B
100
AcDbEntity
  8
0
100
AcDbPolyline
 62
2
  6
CONTINUOUS
 90
4
 70
0
 10
772.4103701534
 20
25.038831925
 10
772.4103701534
 20
25.1995466829
 10
772.4639542824
 20
25.1995466829
 10
772.4103701534
 20
25.038831925
  0
LWPOLYLINE
  5
30C
100
AcDbEntity
  8
0
100
AcDbPolyline
 62
2
  6
CONTINUOUS
 90
4
 70
0
 10
774.2318004919
 20
22.9495454486
 10
774.2318004919
 20
24.2352608236
 10
774.0711341146
 20
24.5566876515
 10
773.2675441985
 20
24.5566876515
  0
LWPOLYLINE
  5
30D
100
AcDbEntity
  8
0
100
AcDbPolyline
 62
2
  6
CONTINUOUS
 90
6
 70
0
 10
774.2318004919
 20
22.9495454486
 10
773.588962963
 20
22.9495454486
 10
773.2675441985
 20
23.1102602064
 10
773.2675441985
 20
23.5924017922
 10
773.588962963
 20
23.75311655
 10
774.2318004919
 20
23.75311655
  0
LWPOLYLINE
  5
30E
100
AcDbEntity
  8
0
100
AcDbPolyline
 62
2
  6
CONTINUOUS
 90
4
 70
0
 10
775.3568091725
 20
22.9495454486
 10
775.035390408
 20
22.9495454486
 10
774.8746380208
 20
23.1102602064
 10
774.8746380208
 20
25.1995466829
  0
LWPOLYLINE
  5
30F
100
AcDbEntity
  8
0
100
AcDbPolyline
 62
2
  6
CONTINUOUS
 90
5
 70
0
 10
777.7674929109
 20
22.9495454486
 10
777.7674929109
 20
24.5566876515
 10
778.4104164497
 20
24.5566876515
 10
778.5174986979
 20
24.3959728936
 10
778.5174986979
 20
24.0745460657
  0
LWPOLYLINE
  5
310
100
AcDbEntity
  8
0
100
AcDbPolyline
 62
2
  6
CONTINUOUS
 90
9
 70
0
 10
780.1782626591
 20
22.9495454486
 10
779.5354251302
 20
22.9495454486
 10
779.2139203559
 20
23.2709749643
 10
779.2139203559
 20
24.2352608236
 10
779.5354251302
 20
24.5566876515
 10
779.8568438947
 20
24.5566876515
 10
780.1782626591
 20
24.2352608236
 10
780.1782626591
 20
23.75311655
 10
779.2139203559
 20
23.75311655
  0
LWPOLYLINE
  5
311
100
AcDbEntity
  8
0
100
AcDbPolyline
 62
2
  6
CONTINUOUS
 90
7
 70
0
 10
780.8211001881
 20
22.4138318289
 10
780.8211001881
 20
24.5566876515
 10
781.6246901042
 20
24.5566876515
 10
781.7853564815
 20
24.3959728936
 10
781.7853564815
 20
23.1102602064
 10
781.6246901042
 20
22.9495454486
 10
780.8211001881
 20
22.9495454486
  0
LWPOLYLINE
  5
312
100
AcDbEntity
  8
0
100
AcDbPolyline
 62
2
  6
CONTINUOUS
 90
5
 70
0
 10
782.4282800203
 20
22.9495454486
 10
782.4282800203
 20
24.5566876515
 10
783.0711175492
 20
24.5566876515
 10
783.1781997975
 20
24.3959728936
 10
783.1781997975
 20
24.0745460657
  0
LWPOLYLINE
  5
313
100
AcDbEntity
  8
0
100
AcDbPolyline
 62
2
  6
CONTINUOUS
 90
9
 70
0
 10
783.8747074653
 20
23.2709749643
 10
783.8747074653
 20
24.2352608236
 10
784.1961262297
 20
24.5566876515
 10
784.5175449942
 20
24.5566876515
 10
784.8389637587
 20
24.2352608236
 10
784.8389637587
 20
23.2709749643
 10
784.5175449942
 20
22.9495454486
 10
784.1961262297
 20
22.9495454486
 10
783.8747074653
 20
23.2709749643
  0
LWPOLYLINE
  5
314
100
AcDbEntity
  8
0
100
AcDbPolyline
 62
2
  6
CONTINUOUS
 90
7
 70
0
 10
786.446057581
 20
25.1995466829
 10
786.446057581
 20
22.9495454486
 10
785.8032200521
 20
22.9495454486
 10
785.4818012876
 20
23.1102602064
 10
785.4818012876
 20
24.3959728936
 10
785.8032200521
 20
24.5566876515
 10
786.446057581
 20
24.5566876515
  0
LWPOLYLINE
  5
315
100
AcDbEntity
  8
0
100
AcDbPolyline
 62
2
  6
CONTINUOUS
 90
5
 70
0
 10
787.0889811198
 20
24.5566876515
 10
787.0889811198
 20
23.1102602064
 10
787.2496474971
 20
22.9495454486
 10
788.0532374132
 20
22.9495454486
 10
788.0532374132
 20
24.5566876515
  0
LWPOLYLINE
  5
316
100
AcDbEntity
  8
0
100
AcDbPolyline
 62
2
  6
CONTINUOUS
 90
6
 70
0
 10
789.4996648582
 20
22.9495454486
 10
788.8568273293
 20
22.9495454486
 10
788.6960749421
 20
23.1102602064
 10
788.6960749421
 20
24.3959728936
 10
788.8568273293
 20
24.5566876515
 10
789.4996648582
 20
24.5566876515
  0
LINE
  5
317
100
AcDbEntity
  8
0
100
AcDbLine
 62
2
  6
CONTINUOUS
 10
790.4104230324
 20
22.9495454486
 11
790.4104230324
 21
25.1995466829
  0
LINE
  5
318
100
AcDbEntity
  8
0
100
AcDbLine
 62
2
  6
CONTINUOUS
 10
790.1425023872
 20
24.5566876515
 11
790.7854259259
 21
24.5566876515
  0
LINE
  5
319
100
AcDbEntity
  8
0
100
AcDbLine
 62
2
  6
CONTINUOUS
 10
791.7496822193
 20
22.9495454486
 11
791.7496822193
 21
24.5566876515
  0
LWPOLYLINE
  5
31A
100
AcDbEntity
  8
0
100
AcDbPolyline
 62
2
  6
CONTINUOUS
 90
4
 70
0
 10
791.7496822193
 20
25.038831925
 10
791.7496822193
 20
25.1995466829
 10
791.8032663484
 20
25.1995466829
 10
791.7496822193
 20
25.038831925
  0
LWPOLYLINE
  5
31B
100
AcDbEntity
  8
0
100
AcDbPolyline
 62
2
  6
CONTINUOUS
 90
9
 70
0
 10
792.6067702546
 20
23.2709749643
 10
792.6067702546
 20
24.2352608236
 10
792.9282750289
 20
24.5566876515
 10
793.2496937934
 20
24.5566876515
 10
793.5711125579
 20
24.2352608236
 10
793.5711125579
 20
23.2709749643
 10
793.2496937934
 20
22.9495454486
 10
792.9282750289
 20
22.9495454486
 10
792.6067702546
 20
23.2709749643
  0
LWPOLYLINE
  5
31C
100
AcDbEntity
  8
0
100
AcDbPolyline
 62
2
  6
CONTINUOUS
 90
5
 70
0
 10
794.2139500868
 20
22.9495454486
 10
794.2139500868
 20
24.5566876515
 10
795.0175400029
 20
24.5566876515
 10
795.1782063802
 20
24.3959728936
 10
795.1782063802
 20
22.9495454486
  0
LWPOLYLINE
  5
31D
100
AcDbEntity
  8
0
100
AcDbPolyline
 62
2
  6
CONTINUOUS
 90
12
 70
0
 10
795.821129919
 20
23.1102602064
 10
795.9817962963
 20
22.9495454486
 10
796.6246338252
 20
22.9495454486
 10
796.7853862124
 20
23.1102602064
 10
796.7853862124
 20
23.5924017922
 10
796.6246338252
 20
23.69954586
 10
795.9817962963
 20
23.80668724
 10
795.821129919
 20
23.9138313079
 10
795.821129919
 20
24.3959728936
 10
795.9817962963
 20
24.5566876515
 10
796.6246338252
 20
24.5566876515
 10
796.7853862124
 20
24.3959728936
  0
LWPOLYLINE
  5
31E
100
AcDbEntity
  8
0
100
AcDbPolyline
 62
2
  6
CONTINUOUS
 90
4
 70
0
 10
800.1604122541
 20
22.9495454486
 10
800.1604122541
 20
24.2352608236
 10
799.9996598669
 20
24.5566876515
 10
799.1960699508
 20
24.5566876515
  0
LWPOLYLINE
  5
31F
100
AcDbEntity
  8
0
100
AcDbPolyline
 62
2
  6
CONTINUOUS
 90
6
 70
0
 10
800.1604122541
 20
22.9495454486
 10
799.5174887153
 20
22.9495454486
 10
799.1960699508
 20
23.1102602064
 10
799.1960699508
 20
23.5924017922
 10
799.5174887153
 20
23.75311655
 10
800.1604122541
 20
23.75311655
  0
LWPOLYLINE
  5
320
100
AcDbEntity
  8
0
100
AcDbPolyline
 62
2
  6
CONTINUOUS
 90
5
 70
0
 10
800.803249783
 20
22.9495454486
 10
800.803249783
 20
24.5566876515
 10
801.4460873119
 20
24.5566876515
 10
801.55325557
 20
24.3959728936
 10
801.55325557
 20
24.0745460657
  0
LWPOLYLINE
  5
321
100
AcDbEntity
  8
0
100
AcDbPolyline
 62
2
  6
CONTINUOUS
 90
9
 70
0
 10
803.2139335214
 20
22.9495454486
 10
802.5710959925
 20
22.9495454486
 10
802.249677228
 20
23.2709749643
 10
802.249677228
 20
24.2352608236
 10
802.5710959925
 20
24.5566876515
 10
802.8925147569
 20
24.5566876515
 10
803.2139335214
 20
24.2352608236
 10
803.2139335214
 20
23.75311655
 10
802.249677228
 20
23.75311655
  0
LWPOLYLINE
  5
322
100
AcDbEntity
  8
0
100
AcDbPolyline
 62
2
  6
CONTINUOUS
 90
7
 70
0
 10
805.6247032697
 20
22.4138318289
 10
805.6247032697
 20
24.5566876515
 10
806.4282071759
 20
24.5566876515
 10
806.5889595631
 20
24.3959728936
 10
806.5889595631
 20
23.1102602064
 10
806.4282071759
 20
22.9495454486
 10
805.6247032697
 20
22.9495454486
  0
LWPOLYLINE
  5
323
100
AcDbEntity
  8
0
100
AcDbPolyline
 62
2
  6
CONTINUOUS
 90
5
 70
0
 10
807.231797092
 20
22.9495454486
 10
807.231797092
 20
24.5566876515
 10
807.8746346209
 20
24.5566876515
 10
807.9818028791
 20
24.3959728936
 10
807.9818028791
 20
24.0745460657
  0
LWPOLYLINE
  5
324
100
AcDbEntity
  8
0
100
AcDbPolyline
 62
2
  6
CONTINUOUS
 90
9
 70
0
 10
808.678224537
 20
23.2709749643
 10
808.678224537
 20
24.2352608236
 10
808.9996433015
 20
24.5566876515
 10
809.321062066
 20
24.5566876515
 10
809.6425668403
 20
24.2352608236
 10
809.6425668403
 20
23.2709749643
 10
809.321062066
 20
22.9495454486
 10
808.9996433015
 20
22.9495454486
 10
808.678224537
 20
23.2709749643
  0
LINE
  5
325
100
AcDbEntity
  8
0
100
AcDbLine
 62
2
  6
CONTINUOUS
 10
810.2854043692
 20
22.9495454486
 11
810.2854043692
 21
25.1995466829
  0
LWPOLYLINE
  5
326
100
AcDbEntity
  8
0
100
AcDbPolyline
 62
2
  6
CONTINUOUS
 90
4
 70
0
 10
810.2854043692
 20
24.5566876515
 10
811.0889942853
 20
24.5566876515
 10
811.2496606626
 20
24.3959728936
 10
811.2496606626
 20
22.9495454486
  0
LINE
  5
327
100
AcDbEntity
  8
0
100
AcDbLine
 62
2
  6
CONTINUOUS
 10
812.213916956
 20
22.9495454486
 11
812.213916956
 21
24.5566876515
  0
LWPOLYLINE
  5
328
100
AcDbEntity
  8
0
100
AcDbPolyline
 62
2
  6
CONTINUOUS
 90
4
 70
0
 10
812.213916956
 20
25.038831925
 10
812.213916956
 20
25.1995466829
 10
812.2675010851
 20
25.1995466829
 10
812.213916956
 20
25.038831925
  0
LINE
  5
329
100
AcDbEntity
  8
0
100
AcDbLine
 62
2
  6
CONTINUOUS
 10
813.0710910012
 20
22.9495454486
 11
813.0710910012
 21
25.1995466829
  0
LWPOLYLINE
  5
32A
100
AcDbEntity
  8
0
100
AcDbPolyline
 62
2
  6
CONTINUOUS
 90
6
 70
0
 10
813.0710910012
 20
24.5566876515
 10
813.8746809172
 20
24.5566876515
 10
814.0353472946
 20
24.3959728936
 10
814.0353472946
 20
23.1102602064
 10
813.8746809172
 20
22.9495454486
 10
813.0710910012
 20
22.9495454486
  0
LINE
  5
32B
100
AcDbEntity
  8
0
100
AcDbLine
 62
2
  6
CONTINUOUS
 10
814.9996895978
 20
22.9495454486
 11
814.9996895978
 21
24.5566876515
  0
LWPOLYLINE
  5
32C
100
AcDbEntity
  8
0
100
AcDbPolyline
 62
2
  6
CONTINUOUS
 90
4
 70
0
 10
814.9996895978
 20
25.038831925
 10
814.9996895978
 20
25.1995466829
 10
815.0532737269
 20
25.1995466829
 10
814.9996895978
 20
25.038831925
  0
LINE
  5
32D
100
AcDbEntity
  8
0
100
AcDbLine
 62
2
  6
CONTINUOUS
 10
816.1246982784
 20
22.9495454486
 11
816.1246982784
 21
25.1995466829
  0
LINE
  5
32E
100
AcDbEntity
  8
0
100
AcDbLine
 62
2
  6
CONTINUOUS
 10
815.8567776331
 20
24.5566876515
 11
816.4997011719
 21
24.5566876515
  0
LWPOLYLINE
  5
32F
100
AcDbEntity
  8
0
100
AcDbPolyline
 62
2
  6
CONTINUOUS
 90
9
 70
0
 10
818.1067949942
 20
22.9495454486
 10
817.4639574653
 20
22.9495454486
 10
817.1425387008
 20
23.2709749643
 10
817.1425387008
 20
24.2352608236
 10
817.4639574653
 20
24.5566876515
 10
817.7853762297
 20
24.5566876515
 10
818.1067949942
 20
24.2352608236
 10
818.1067949942
 20
23.75311655
 10
817.1425387008
 20
23.75311655
  0
LWPOLYLINE
  5
330
100
AcDbEntity
  8
0
100
AcDbPolyline
 62
2
  6
CONTINUOUS
 90
7
 70
0
 10
819.7139748264
 20
25.1995466829
 10
819.7139748264
 20
22.9495454486
 10
819.0711372975
 20
22.9495454486
 10
818.7496325231
 20
23.1102602064
 10
818.7496325231
 20
24.3959728936
 10
819.0711372975
 20
24.5566876515
 10
819.7139748264
 20
24.5566876515
  0
LWPOLYLINE
  5
331
100
AcDbEntity
  8
0
100
AcDbPolyline
 62
2
  6
CONTINUOUS
 90
5
 70
0
 10
741.3925562789
 20
21.1816884879
 10
741.8210572917
 20
19.5745449411
 10
742.1960601852
 20
20.8602603161
 10
742.5710630787
 20
19.5745449411
 10
742.9996501013
 20
21.1816884879
  0
LINE
  5
332
100
AcDbEntity
  8
0
100
AcDbLine
 62
2
  6
CONTINUOUS
 10
743.9639924045
 20
19.5745449411
 11
743.9639924045
 21
21.1816884879
  0
LWPOLYLINE
  5
333
100
AcDbEntity
  8
0
100
AcDbPolyline
 62
2
  6
CONTINUOUS
 90
4
 70
0
 10
743.9639924045
 20
21.6638314175
 10
743.9639924045
 20
21.8245461754
 10
744.0174905237
 20
21.8245461754
 10
743.9639924045
 20
21.6638314175
  0
LINE
  5
334
100
AcDbEntity
  8
0
100
AcDbLine
 62
2
  6
CONTINUOUS
 10
745.0889150752
 20
19.5745449411
 11
745.0889150752
 21
21.8245461754
  0
LINE
  5
335
100
AcDbEntity
  8
0
100
AcDbLine
 62
2
  6
CONTINUOUS
 10
744.8210804398
 20
21.1816884879
 11
745.4639179687
 21
21.1816884879
  0
LINE
  5
336
100
AcDbEntity
  8
0
100
AcDbLine
 62
2
  6
CONTINUOUS
 10
746.1068415075
 20
19.5745449411
 11
746.1068415075
 21
21.8245461754
  0
LWPOLYLINE
  5
337
100
AcDbEntity
  8
0
100
AcDbPolyline
 62
2
  6
CONTINUOUS
 90
4
 70
0
 10
746.1068415075
 20
21.1816884879
 10
746.9103454138
 20
21.1816884879
 10
747.0710978009
 20
21.02097373
 10
747.0710978009
 20
19.5745449411
  0
LWPOLYLINE
  5
338
100
AcDbEntity
  8
0
100
AcDbPolyline
 62
2
  6
CONTINUOUS
 90
9
 70
0
 10
747.7139353299
 20
19.8959744568
 10
747.7139353299
 20
20.8602603161
 10
748.0353540943
 20
21.1816884879
 10
748.3567728588
 20
21.1816884879
 10
748.6782776331
 20
20.8602603161
 10
748.6782776331
 20
19.8959744568
 10
748.3567728588
 20
19.5745449411
 10
748.0353540943
 20
19.5745449411
 10
747.7139353299
 20
19.8959744568
  0
LWPOLYLINE
  5
339
100
AcDbEntity
  8
0
100
AcDbPolyline
 62
2
  6
CONTINUOUS
 90
5
 70
0
 10
749.321115162
 20
21.1816884879
 10
749.321115162
 20
19.7352596989
 10
749.4817815394
 20
19.5745449411
 10
750.2853714554
 20
19.5745449411
 10
750.2853714554
 20
21.1816884879
  0
LINE
  5
33A
100
AcDbEntity
  8
0
100
AcDbLine
 62
2
  6
CONTINUOUS
 10
751.1961296296
 20
19.5745449411
 11
751.1961296296
 21
21.8245461754
  0
LINE
  5
33B
100
AcDbEntity
  8
0
100
AcDbLine
 62
2
  6
CONTINUOUS
 10
750.9282089844
 20
21.1816884879
 11
751.5711325231
 21
21.1816884879
  0
LWPOLYLINE
  5
33C
100
AcDbEntity
  8
0
100
AcDbPolyline
 62
2
  6
CONTINUOUS
 90
7
 70
0
 10
753.9818162616
 20
19.0388313214
 10
753.9818162616
 20
21.1816884879
 10
754.7854061777
 20
21.1816884879
 10
754.946072555
 20
21.02097373
 10
754.946072555
 20
19.7352596989
 10
754.7854061777
 20
19.5745449411
 10
753.9818162616
 20
19.5745449411
  0
LWPOLYLINE
  5
33D
100
AcDbEntity
  8
0
100
AcDbPolyline
 62
2
  6
CONTINUOUS
 90
5
 70
0
 10
755.5889960937
 20
19.5745449411
 10
755.5889960937
 20
21.1816884879
 10
756.2318336227
 20
21.1816884879
 10
756.3389158709
 20
21.02097373
 10
756.3389158709
 20
20.6995455582
  0
LINE
  5
33E
100
AcDbEntity
  8
0
100
AcDbLine
 62
2
  6
CONTINUOUS
 10
757.3568423032
 20
19.5745449411
 11
757.3568423032
 21
21.1816884879
  0
LWPOLYLINE
  5
33F
100
AcDbEntity
  8
0
100
AcDbPolyline
 62
2
  6
CONTINUOUS
 90
4
 70
0
 10
757.3568423032
 20
21.6638314175
 10
757.3568423032
 20
21.8245461754
 10
757.4103404225
 20
21.8245461754
 10
757.3568423032
 20
21.6638314175
  0
LWPOLYLINE
  5
340
100
AcDbEntity
  8
0
100
AcDbPolyline
 62
2
  6
CONTINUOUS
 90
9
 70
0
 10
758.2139303385
 20
19.8959744568
 10
758.2139303385
 20
20.8602603161
 10
758.535349103
 20
21.1816884879
 10
758.8568538773
 20
21.1816884879
 10
759.1782726418
 20
20.8602603161
 10
759.1782726418
 20
19.8959744568
 10
758.8568538773
 20
19.5745449411
 10
758.535349103
 20
19.5745449411
 10
758.2139303385
 20
19.8959744568
  0
LWPOLYLINE
  5
341
100
AcDbEntity
  8
0
100
AcDbPolyline
 62
2
  6
CONTINUOUS
 90
5
 70
0
 10
759.8211101707
 20
19.5745449411
 10
759.8211101707
 20
21.1816884879
 10
760.4639476997
 20
21.1816884879
 10
760.5711159578
 20
21.02097373
 10
760.5711159578
 20
20.6995455582
  0
LWPOLYLINE
  5
342
100
AcDbEntity
  8
0
100
AcDbPolyline
 62
2
  6
CONTINUOUS
 90
4
 70
0
 10
763.9996401186
 20
19.5745449411
 10
763.9996401186
 20
20.8602603161
 10
763.8389737413
 20
21.1816884879
 10
763.0353838252
 20
21.1816884879
  0
LWPOLYLINE
  5
343
100
AcDbEntity
  8
0
100
AcDbPolyline
 62
2
  6
CONTINUOUS
 90
6
 70
0
 10
763.9996401186
 20
19.5745449411
 10
763.3568025897
 20
19.5745449411
 10
763.0353838252
 20
19.7352596989
 10
763.0353838252
 20
20.2174026286
 10
763.3568025897
 20
20.3781173864
 10
763.9996401186
 20
20.3781173864
  0
LWPOLYLINE
  5
344
100
AcDbEntity
  8
0
100
AcDbPolyline
 62
2
  6
CONTINUOUS
 90
5
 70
0
 10
764.6425636574
 20
21.1816884879
 10
764.6425636574
 20
19.7352596989
 10
764.8032300347
 20
19.5745449411
 10
765.6068199508
 20
19.5745449411
 10
765.6068199508
 20
21.1816884879
  0
LINE
  5
345
100
AcDbEntity
  8
0
100
AcDbLine
 62
2
  6
CONTINUOUS
 10
766.5174921152
 20
19.5745449411
 11
766.5174921152
 21
21.8245461754
  0
LINE
  5
346
100
AcDbEntity
  8
0
100
AcDbLine
 62
2
  6
CONTINUOUS
 10
766.2496574797
 20
21.1816884879
 11
766.8924950087
 21
21.1816884879
  0
LINE
  5
347
100
AcDbEntity
  8
0
100
AcDbLine
 62
2
  6
CONTINUOUS
 10
767.5354185475
 20
19.5745449411
 11
767.5354185475
 21
21.8245461754
  0
LWPOLYLINE
  5
348
100
AcDbEntity
  8
0
100
AcDbPolyline
 62
2
  6
CONTINUOUS
 90
4
 70
0
 10
767.5354185475
 20
21.1816884879
 10
768.3389224537
 20
21.1816884879
 10
768.4996748409
 20
21.02097373
 10
768.4996748409
 20
19.5745449411
  0
LWPOLYLINE
  5
349
100
AcDbEntity
  8
0
100
AcDbPolyline
 62
2
  6
CONTINUOUS
 90
9
 70
0
 10
769.1425123698
 20
19.8959744568
 10
769.1425123698
 20
20.8602603161
 10
769.4639311343
 20
21.1816884879
 10
769.7853498987
 20
21.1816884879
 10
770.1067686632
 20
20.8602603161
 10
770.1067686632
 20
19.8959744568
 10
769.7853498987
 20
19.5745449411
 10
769.4639311343
 20
19.5745449411
 10
769.1425123698
 20
19.8959744568
  0
LWPOLYLINE
  5
34A
100
AcDbEntity
  8
0
100
AcDbPolyline
 62
2
  6
CONTINUOUS
 90
5
 70
0
 10
770.749692202
 20
19.5745449411
 10
770.749692202
 20
21.1816884879
 10
771.3925297309
 20
21.1816884879
 10
771.499697989
 20
21.02097373
 10
771.499697989
 20
20.6995455582
  0
LINE
  5
34B
100
AcDbEntity
  8
0
100
AcDbLine
 62
2
  6
CONTINUOUS
 10
772.5175384115
 20
19.5745449411
 11
772.5175384115
 21
21.1816884879
  0
LWPOLYLINE
  5
34C
100
AcDbEntity
  8
0
100
AcDbPolyline
 62
2
  6
CONTINUOUS
 90
4
 70
0
 10
772.5175384115
 20
21.6638314175
 10
772.5175384115
 20
21.8245461754
 10
772.5711225405
 20
21.8245461754
 10
772.5175384115
 20
21.6638314175
  0
LWPOLYLINE
  5
34D
100
AcDbEntity
  8
0
100
AcDbPolyline
 62
2
  6
CONTINUOUS
 90
12
 70
0
 10
773.3746264468
 20
19.7352596989
 10
773.5353788339
 20
19.5745449411
 10
774.1782163628
 20
19.5745449411
 10
774.33896875
 20
19.7352596989
 10
774.33896875
 20
20.2174026286
 10
774.1782163628
 20
20.3245453525
 10
773.5353788339
 20
20.4316880764
 10
773.3746264468
 20
20.5388308004
 10
773.3746264468
 20
21.02097373
 10
773.5353788339
 20
21.1816884879
 10
774.1782163628
 20
21.1816884879
 10
774.33896875
 20
21.02097373
  0
LWPOLYLINE
  5
34E
100
AcDbEntity
  8
0
100
AcDbPolyline
 62
2
  6
CONTINUOUS
 90
4
 70
0
 10
775.9460625723
 20
19.5745449411
 10
775.9460625723
 20
20.8602603161
 10
775.785396195
 20
21.1816884879
 10
774.9818062789
 20
21.1816884879
  0
LWPOLYLINE
  5
34F
100
AcDbEntity
  8
0
100
AcDbPolyline
 62
2
  6
CONTINUOUS
 90
6
 70
0
 10
775.9460625723
 20
19.5745449411
 10
775.3032250434
 20
19.5745449411
 10
774.9818062789
 20
19.7352596989
 10
774.9818062789
 20
20.2174026286
 10
775.3032250434
 20
20.3781173864
 10
775.9460625723
 20
20.3781173864
  0
LINE
  5
350
100
AcDbEntity
  8
0
100
AcDbLine
 62
2
  6
CONTINUOUS
 10
776.8568207465
 20
19.5745449411
 11
776.8568207465
 21
21.8245461754
  0
LINE
  5
351
100
AcDbEntity
  8
0
100
AcDbLine
 62
2
  6
CONTINUOUS
 10
776.5889861111
 20
21.1816884879
 11
777.23182364
 21
21.1816884879
  0
LINE
  5
352
100
AcDbEntity
  8
0
100
AcDbLine
 62
2
  6
CONTINUOUS
 10
778.1960799334
 20
19.5745449411
 11
778.1960799334
 21
21.1816884879
  0
LWPOLYLINE
  5
353
100
AcDbEntity
  8
0
100
AcDbPolyline
 62
2
  6
CONTINUOUS
 90
4
 70
0
 10
778.1960799334
 20
21.6638314175
 10
778.1960799334
 20
21.8245461754
 10
778.2496640625
 20
21.8245461754
 10
778.1960799334
 20
21.6638314175
  0
LWPOLYLINE
  5
354
100
AcDbEntity
  8
0
100
AcDbPolyline
 62
2
  6
CONTINUOUS
 90
9
 70
0
 10
779.0532539786
 20
19.8959744568
 10
779.0532539786
 20
20.8602603161
 10
779.3746727431
 20
21.1816884879
 10
779.6960915075
 20
21.1816884879
 10
780.017510272
 20
20.8602603161
 10
780.017510272
 20
19.8959744568
 10
779.6960915075
 20
19.5745449411
 10
779.3746727431
 20
19.5745449411
 10
779.0532539786
 20
19.8959744568
  0
LWPOLYLINE
  5
355
100
AcDbEntity
  8
0
100
AcDbPolyline
 62
2
  6
CONTINUOUS
 90
5
 70
0
 10
780.6603478009
 20
19.5745449411
 10
780.6603478009
 20
21.1816884879
 10
781.463937717
 20
21.1816884879
 10
781.6246901042
 20
21.02097373
 10
781.6246901042
 20
19.5745449411
  0
LWPOLYLINE
  5
356
100
AcDbEntity
  8
0
100
AcDbPolyline
 62
2
  6
CONTINUOUS
 90
9
 70
0
 10
784.0353738426
 20
19.8959744568
 10
784.0353738426
 20
20.8602603161
 10
784.3567926071
 20
21.1816884879
 10
784.6782113715
 20
21.1816884879
 10
784.999630136
 20
20.8602603161
 10
784.999630136
 20
19.8959744568
 10
784.6782113715
 20
19.5745449411
 10
784.3567926071
 20
19.5745449411
 10
784.0353738426
 20
19.8959744568
  0
LWPOLYLINE
  5
357
100
AcDbEntity
  8
0
100
AcDbPolyline
 62
2
  6
CONTINUOUS
 90
4
 70
0
 10
785.9103883102
 20
19.5745449411
 10
785.9103883102
 20
21.6638314175
 10
786.0710546875
 20
21.8245461754
 10
786.3925594618
 20
21.8245461754
  0
LINE
  5
358
100
AcDbEntity
  8
0
100
AcDbLine
 62
2
  6
CONTINUOUS
 10
786.3925594618
 20
21.1816884879
 11
785.6425536748
 21
21.1816884879
  0
LWPOLYLINE
  5
359
100
AcDbEntity
  8
0
100
AcDbPolyline
 62
2
  6
CONTINUOUS
 90
3
 70
0
 10
788.6960749421
 20
21.8245461754
 10
788.6960749421
 20
19.5745449411
 10
789.4996648582
 20
19.5745449411
  0
LWPOLYLINE
  5
35A
100
AcDbEntity
  8
0
100
AcDbPolyline
 62
2
  6
CONTINUOUS
 90
12
 70
0
 10
793.3567760417
 20
20.3781173864
 10
792.7139385127
 20
19.5745449411
 10
792.2318533709
 20
19.5745449411
 10
791.9103485966
 20
19.8959744568
 10
791.9103485966
 20
20.3781173864
 10
793.0353572772
 20
21.1816884879
 10
793.0353572772
 20
21.5031166597
 10
792.7139385127
 20
21.8245461754
 10
792.3925197483
 20
21.8245461754
 10
792.0711009838
 20
21.5031166597
 10
792.0711009838
 20
21.1816884879
 10
793.1961096644
 20
19.5745449411
  0
LWPOLYLINE
  5
35B
100
AcDbEntity
  8
0
100
AcDbPolyline
 62
2
  6
CONTINUOUS
 90
3
 70
0
 10
795.7675457899
 20
21.8245461754
 10
795.7675457899
 20
19.5745449411
 10
796.571135706
 20
19.5745449411
  0
LWPOLYLINE
  5
35C
100
AcDbEntity
  8
0
100
AcDbPolyline
 62
2
  6
CONTINUOUS
 90
3
 70
0
 10
798.9818194444
 20
21.8245461754
 10
798.9818194444
 20
19.5745449411
 10
799.7854093605
 20
19.5745449411
  0
LWPOLYLINE
  5
35D
100
AcDbEntity
  8
0
100
AcDbPolyline
 62
2
  6
CONTINUOUS
 90
5
 70
0
 10
800.4282468895
 20
21.1816884879
 10
800.4282468895
 20
19.7352596989
 10
800.5889132668
 20
19.5745449411
 10
801.3925031829
 20
19.5745449411
 10
801.3925031829
 20
21.1816884879
  0
LWPOLYLINE
  5
35E
100
AcDbEntity
  8
0
100
AcDbPolyline
 62
2
  6
CONTINUOUS
 90
6
 70
0
 10
802.8389306279
 20
19.5745449411
 10
802.196093099
 20
19.5745449411
 10
802.0353407118
 20
19.7352596989
 10
802.0353407118
 20
21.02097373
 10
802.196093099
 20
21.1816884879
 10
802.8389306279
 20
21.1816884879
  0
LWPOLYLINE
  5
35F
100
AcDbEntity
  8
0
100
AcDbPolyline
 62
2
  6
CONTINUOUS
 90
9
 70
0
 10
804.4461104601
 20
19.5745449411
 10
803.8032729311
 20
19.5745449411
 10
803.4818541667
 20
19.8959744568
 10
803.4818541667
 20
20.8602603161
 10
803.8032729311
 20
21.1816884879
 10
804.1246916956
 20
21.1816884879
 10
804.4461104601
 20
20.8602603161
 10
804.4461104601
 20
20.3781173864
 10
803.4818541667
 20
20.3781173864
  0
LWPOLYLINE
  5
360
100
AcDbEntity
  8
0
100
AcDbPolyline
 62
2
  6
CONTINUOUS
 90
12
 70
0
 10
808.3032216435
 20
20.3781173864
 10
807.6603841146
 20
19.5745449411
 10
807.178212963
 20
19.5745449411
 10
806.8567941985
 20
19.8959744568
 10
806.8567941985
 20
20.3781173864
 10
807.9818028791
 20
21.1816884879
 10
807.9818028791
 20
21.5031166597
 10
807.6603841146
 20
21.8245461754
 10
807.3389653501
 20
21.8245461754
 10
807.0175465856
 20
21.5031166597
 10
807.0175465856
 20
21.1816884879
 10
808.1425552662
 20
19.5745449411
  0
LWPOLYLINE
  5
361
100
AcDbEntity
  8
0
100
AcDbPolyline
 62
2
  6
CONTINUOUS
 90
3
 70
0
 10
810.7139913918
 20
21.8245461754
 10
810.7139913918
 20
19.5745449411
 10
811.517495298
 20
19.5745449411
  0
LINE
  5
362
100
AcDbEntity
  8
0
100
AcDbLine
 62
2
  6
CONTINUOUS
 10
812.4818376013
 20
19.5745449411
 11
812.4818376013
 21
21.1816884879
  0
LWPOLYLINE
  5
363
100
AcDbEntity
  8
0
100
AcDbPolyline
 62
2
  6
CONTINUOUS
 90
4
 70
0
 10
812.4818376013
 20
21.6638314175
 10
812.4818376013
 20
21.8245461754
 10
812.5354217303
 20
21.8245461754
 10
812.4818376013
 20
21.6638314175
  0
LWPOLYLINE
  5
364
100
AcDbEntity
  8
0
100
AcDbPolyline
 62
2
  6
CONTINUOUS
 90
9
 70
0
 10
813.3389256366
 20
19.0388313214
 10
814.1425155527
 20
19.0388313214
 10
814.3032679398
 20
19.2531167693
 10
814.3032679398
 20
21.1816884879
 10
813.4996780237
 20
21.1816884879
 10
813.3389256366
 20
21.02097373
 10
813.3389256366
 20
19.7352596989
 10
813.4996780237
 20
19.5745449411
 10
814.3032679398
 20
19.5745449411
  0
LINE
  5
365
100
AcDbEntity
  8
0
100
AcDbLine
 62
2
  6
CONTINUOUS
 10
814.9461054687
 20
19.5745449411
 11
814.9461054687
 21
21.8245461754
  0
LWPOLYLINE
  5
366
100
AcDbEntity
  8
0
100
AcDbPolyline
 62
2
  6
CONTINUOUS
 90
4
 70
0
 10
814.9461054687
 20
21.1816884879
 10
815.7496953848
 20
21.1816884879
 10
815.9103617622
 20
21.02097373
 10
815.9103617622
 20
19.5745449411
  0
LINE
  5
367
100
AcDbEntity
  8
0
100
AcDbLine
 62
2
  6
CONTINUOUS
 10
816.8211199363
 20
19.5745449411
 11
816.8211199363
 21
21.8245461754
  0
LINE
  5
368
100
AcDbEntity
  8
0
100
AcDbLine
 62
2
  6
CONTINUOUS
 10
816.5531992911
 20
21.1816884879
 11
817.1961228299
 21
21.1816884879
  0
LWPOLYLINE
  5
369
100
AcDbEntity
  8
0
100
AcDbPolyline
 62
2
  6
CONTINUOUS
 90
12
 70
0
 10
819.6068065683
 20
19.7352596989
 10
819.7675589554
 20
19.5745449411
 10
820.4103964844
 20
19.5745449411
 10
820.5710628617
 20
19.7352596989
 10
820.5710628617
 20
20.2174026286
 10
820.4103964844
 20
20.3245453525
 10
819.7675589554
 20
20.4316880764
 10
819.6068065683
 20
20.5388308004
 10
819.6068065683
 20
21.02097373
 10
819.7675589554
 20
21.1816884879
 10
820.4103964844
 20
21.1816884879
 10
820.5710628617
 20
21.02097373
  0
LWPOLYLINE
  5
36A
100
AcDbEntity
  8
0
100
AcDbPolyline
 62
2
  6
CONTINUOUS
 90
9
 70
0
 10
821.6960715422
 20
19.9495451468
 10
821.7496556713
 20
19.8424024229
 10
821.7496556713
 20
19.7888317329
 10
821.6960715422
 20
19.6816890089
 10
821.588989294
 20
19.6816890089
 10
821.5354051649
 20
19.7888317329
 10
821.5354051649
 20
19.8424024229
 10
821.588989294
 20
19.9495451468
 10
821.6960715422
 20
19.9495451468
  0
LWPOLYLINE
  5
36B
100
AcDbEntity
  8
0
100
AcDbPolyline
 62
2
  6
CONTINUOUS
 90
5
 70
0
 10
822.4996614583
 20
19.5745449411
 10
822.4996614583
 20
21.1816884879
 10
823.1424989873
 20
21.1816884879
 10
823.2496672454
 20
21.02097373
 10
823.2496672454
 20
20.6995455582
  0
LWPOLYLINE
  5
36C
100
AcDbEntity
  8
0
100
AcDbPolyline
 62
2
  6
CONTINUOUS
 90
9
 70
0
 10
824.428260055
 20
19.9495451468
 10
824.481844184
 20
19.8424024229
 10
824.481844184
 20
19.7888317329
 10
824.428260055
 20
19.6816890089
 10
824.3210917969
 20
19.6816890089
 10
824.2675076678
 20
19.7888317329
 10
824.2675076678
 20
19.8424024229
 10
824.3210917969
 20
19.9495451468
 10
824.428260055
 20
19.9495451468
  0
LWPOLYLINE
  5
36D
100
AcDbEntity
  8
0
100
AcDbPolyline
 62
2
  6
CONTINUOUS
 90
4
 70
0
 10
825.7139351128
 20
19.5745449411
 10
825.3925163484
 20
19.5745449411
 10
825.2318499711
 20
19.7352596989
 10
825.2318499711
 20
21.8245461754
  0
LWPOLYLINE
  5
36E
100
AcDbEntity
  8
0
100
AcDbPolyline
 62
2
  6
CONTINUOUS
 90
9
 70
0
 10
826.8389437934
 20
19.9495451468
 10
826.8925279225
 20
19.8424024229
 10
826.8925279225
 20
19.7888317329
 10
826.8389437934
 20
19.6816890089
 10
826.7317755353
 20
19.6816890089
 10
826.6782774161
 20
19.7888317329
 10
826.6782774161
 20
19.8424024229
 10
826.7317755353
 20
19.9495451468
 10
826.8389437934
 20
19.9495451468
  0
LWPOLYLINE
  5
36F
100
AcDbEntity
  8
0
100
AcDbPolyline
 62
2
  6
CONTINUOUS
 90
10
 70
0
 10
828.1247048611
 20
19.9495451468
 10
828.1782029803
 20
19.8424024229
 10
828.1782029803
 20
19.7888317329
 10
828.0711207321
 20
19.6816890089
 10
828.017536603
 20
19.6816890089
 10
827.963952474
 20
19.7352596989
 10
827.963952474
 20
19.7888317329
 10
828.017536603
 20
19.8959744568
 10
828.0711207321
 20
19.9495451468
 10
828.1247048611
 20
19.9495451468
  0
LWPOLYLINE
  5
370
100
AcDbEntity
  8
0
100
AcDbPolyline
 62
2
  6
CONTINUOUS
 90
3
 70
0
 10
828.1782029803
 20
19.7888317329
 10
828.1247048611
 20
19.628116975
 10
828.017536603
 20
19.4138315271
  0
LINE
  5
371
100
AcDbEntity
  8
0
100
AcDbLine
 62
2
  6
CONTINUOUS
 10
741.7139750434
 20
16.1995457775
 11
741.7139750434
 21
17.8066879804
  0
LWPOLYLINE
  5
372
100
AcDbEntity
  8
0
100
AcDbPolyline
 62
2
  6
CONTINUOUS
 90
4
 70
0
 10
741.7139750434
 20
18.28883091
 10
741.7139750434
 20
18.4495456679
 10
741.7675591725
 20
18.4495456679
 10
741.7139750434
 20
18.28883091
  0
LWPOLYLINE
  5
373
100
AcDbEntity
  8
0
100
AcDbPolyline
 62
2
  6
CONTINUOUS
 90
5
 70
0
 10
742.5710630787
 20
16.1995457775
 10
742.5710630787
 20
17.8066879804
 10
743.3746529948
 20
17.8066879804
 10
743.5354053819
 20
17.6459745664
 10
743.5354053819
 20
16.1995457775
  0
LWPOLYLINE
  5
374
100
AcDbEntity
  8
0
100
AcDbPolyline
 62
2
  6
CONTINUOUS
 90
4
 70
0
 10
746.9103454138
 20
16.1995457775
 10
746.9103454138
 20
17.4852598086
 10
746.7496790365
 20
17.8066879804
 10
745.9460891204
 20
17.8066879804
  0
LWPOLYLINE
  5
375
100
AcDbEntity
  8
0
100
AcDbPolyline
 62
2
  6
CONTINUOUS
 90
6
 70
0
 10
746.9103454138
 20
16.1995457775
 10
746.2675078848
 20
16.1995457775
 10
745.9460891204
 20
16.3602591914
 10
745.9460891204
 20
16.8424021211
 10
746.2675078848
 20
17.0031168789
 10
746.9103454138
 20
17.0031168789
  0
LWPOLYLINE
  5
376
100
AcDbEntity
  8
0
100
AcDbPolyline
 62
2
  6
CONTINUOUS
 90
6
 70
0
 10
748.3567728588
 20
16.1995457775
 10
747.7139353299
 20
16.1995457775
 10
747.5532689525
 20
16.3602591914
 10
747.5532689525
 20
17.6459745664
 10
747.7139353299
 20
17.8066879804
 10
748.3567728588
 20
17.8066879804
  0
LWPOLYLINE
  5
377
100
AcDbEntity
  8
0
100
AcDbPolyline
 62
2
  6
CONTINUOUS
 90
6
 70
0
 10
749.8032003038
 20
16.1995457775
 10
749.1603627749
 20
16.1995457775
 10
748.9996963976
 20
16.3602591914
 10
748.9996963976
 20
17.6459745664
 10
749.1603627749
 20
17.8066879804
 10
749.8032003038
 20
17.8066879804
  0
LWPOLYLINE
  5
378
100
AcDbEntity
  8
0
100
AcDbPolyline
 62
2
  6
CONTINUOUS
 90
9
 70
0
 10
750.4461238426
 20
16.5209739493
 10
750.4461238426
 20
17.4852598086
 10
750.7675426071
 20
17.8066879804
 10
751.0889613715
 20
17.8066879804
 10
751.410380136
 20
17.4852598086
 10
751.410380136
 20
16.5209739493
 10
751.0889613715
 20
16.1995457775
 10
750.7675426071
 20
16.1995457775
 10
750.4461238426
 20
16.5209739493
  0
LWPOLYLINE
  5
379
100
AcDbEntity
  8
0
100
AcDbPolyline
 62
2
  6
CONTINUOUS
 90
5
 70
0
 10
752.0532176649
 20
16.1995457775
 10
752.0532176649
 20
17.8066879804
 10
752.6960551939
 20
17.8066879804
 10
752.803223452
 20
17.6459745664
 10
752.803223452
 20
17.3245450507
  0
LWPOLYLINE
  5
37A
100
AcDbEntity
  8
0
100
AcDbPolyline
 62
2
  6
CONTINUOUS
 90
7
 70
0
 10
754.4639874132
 20
18.4495456679
 10
754.4639874132
 20
16.1995457775
 10
753.8210638744
 20
16.1995457775
 10
753.49964511
 20
16.3602591914
 10
753.49964511
 20
17.6459745664
 10
753.8210638744
 20
17.8066879804
 10
754.4639874132
 20
17.8066879804
  0
LWPOLYLINE
  5
37B
100
AcDbEntity
  8
0
100
AcDbPolyline
 62
2
  6
CONTINUOUS
 90
4
 70
0
 10
756.0710812355
 20
16.1995457775
 10
756.0710812355
 20
17.4852598086
 10
755.9104148582
 20
17.8066879804
 10
755.1068249421
 20
17.8066879804
  0
LWPOLYLINE
  5
37C
100
AcDbEntity
  8
0
100
AcDbPolyline
 62
2
  6
CONTINUOUS
 90
6
 70
0
 10
756.0710812355
 20
16.1995457775
 10
755.4282437066
 20
16.1995457775
 10
755.1068249421
 20
16.3602591914
 10
755.1068249421
 20
16.8424021211
 10
755.4282437066
 20
17.0031168789
 10
756.0710812355
 20
17.0031168789
  0
LWPOLYLINE
  5
37D
100
AcDbEntity
  8
0
100
AcDbPolyline
 62
2
  6
CONTINUOUS
 90
5
 70
0
 10
756.7139187645
 20
16.1995457775
 10
756.7139187645
 20
17.8066879804
 10
757.5175086806
 20
17.8066879804
 10
757.6782610677
 20
17.6459745664
 10
757.6782610677
 20
16.1995457775
  0
LWPOLYLINE
  5
37E
100
AcDbEntity
  8
0
100
AcDbPolyline
 62
2
  6
CONTINUOUS
 90
6
 70
0
 10
759.1246885127
 20
16.1995457775
 10
758.4818509838
 20
16.1995457775
 10
758.3210985966
 20
16.3602591914
 10
758.3210985966
 20
17.6459745664
 10
758.4818509838
 20
17.8066879804
 10
759.1246885127
 20
17.8066879804
  0
LWPOLYLINE
  5
37F
100
AcDbEntity
  8
0
100
AcDbPolyline
 62
2
  6
CONTINUOUS
 90
9
 70
0
 10
760.7317823351
 20
16.1995457775
 10
760.0889448061
 20
16.1995457775
 10
759.7675260417
 20
16.5209739493
 10
759.7675260417
 20
17.4852598086
 10
760.0889448061
 20
17.8066879804
 10
760.4103635706
 20
17.8066879804
 10
760.7317823351
 20
17.4852598086
 10
760.7317823351
 20
17.0031168789
 10
759.7675260417
 20
17.0031168789
  0
LWPOLYLINE
  5
380
100
AcDbEntity
  8
0
100
AcDbPolyline
 62
2
  6
CONTINUOUS
 90
5
 70
0
 10
763.1425520833
 20
17.8066879804
 10
763.5711391059
 20
16.1995457775
 10
763.9460559896
 20
17.4852598086
 10
764.3210588831
 20
16.1995457775
 10
764.7496459057
 20
17.8066879804
  0
LINE
  5
381
100
AcDbEntity
  8
0
100
AcDbLine
 62
2
  6
CONTINUOUS
 10
765.7139882089
 20
16.1995457775
 11
765.7139882089
 21
17.8066879804
  0
LWPOLYLINE
  5
382
100
AcDbEntity
  8
0
100
AcDbPolyline
 62
2
  6
CONTINUOUS
 90
4
 70
0
 10
765.7139882089
 20
18.28883091
 10
765.7139882089
 20
18.4495456679
 10
765.7674863281
 20
18.4495456679
 10
765.7139882089
 20
18.28883091
  0
LINE
  5
383
100
AcDbEntity
  8
0
100
AcDbLine
 62
2
  6
CONTINUOUS
 10
766.8389968895
 20
16.1995457775
 11
766.8389968895
 21
18.4495456679
  0
LINE
  5
384
100
AcDbEntity
  8
0
100
AcDbLine
 62
2
  6
CONTINUOUS
 10
766.5710762442
 20
17.8066879804
 11
767.2139137731
 21
17.8066879804
  0
LINE
  5
385
100
AcDbEntity
  8
0
100
AcDbLine
 62
2
  6
CONTINUOUS
 10
767.8568373119
 20
16.1995457775
 11
767.8568373119
 21
18.4495456679
  0
LWPOLYLINE
  5
386
100
AcDbEntity
  8
0
100
AcDbPolyline
 62
2
  6
CONTINUOUS
 90
4
 70
0
 10
767.8568373119
 20
17.8066879804
 10
768.6603412182
 20
17.8066879804
 10
768.8210936053
 20
17.6459745664
 10
768.8210936053
 20
16.1995457775
  0
LINE
  5
387
100
AcDbEntity
  8
0
100
AcDbLine
 62
2
  6
CONTINUOUS
 10
771.499697989
 20
16.1995457775
 11
771.499697989
 21
18.4495456679
  0
LINE
  5
388
100
AcDbEntity
  8
0
100
AcDbLine
 62
2
  6
CONTINUOUS
 10
771.2317773437
 20
17.8066879804
 11
771.8747008825
 21
17.8066879804
  0
LINE
  5
389
100
AcDbEntity
  8
0
100
AcDbLine
 62
2
  6
CONTINUOUS
 10
772.5175384115
 20
16.1995457775
 11
772.5175384115
 21
18.4495456679
  0
LWPOLYLINE
  5
38A
100
AcDbEntity
  8
0
100
AcDbPolyline
 62
2
  6
CONTINUOUS
 90
4
 70
0
 10
772.5175384115
 20
17.8066879804
 10
773.3211283275
 20
17.8066879804
 10
773.4817947049
 20
17.6459745664
 10
773.4817947049
 20
16.1995457775
  0
LWPOLYLINE
  5
38B
100
AcDbEntity
  8
0
100
AcDbPolyline
 62
2
  6
CONTINUOUS
 90
9
 70
0
 10
775.088974537
 20
16.1995457775
 10
774.4461370081
 20
16.1995457775
 10
774.1246322338
 20
16.5209739493
 10
774.1246322338
 20
17.4852598086
 10
774.4461370081
 20
17.8066879804
 10
774.7675557726
 20
17.8066879804
 10
775.088974537
 20
17.4852598086
 10
775.088974537
 20
17.0031168789
 10
774.1246322338
 20
17.0031168789
  0
LWPOLYLINE
  5
38C
100
AcDbEntity
  8
0
100
AcDbPolyline
 62
2
  6
CONTINUOUS
 90
4
 70
0
 10
777.9818294271
 20
16.1995457775
 10
777.6604106626
 20
16.1995457775
 10
777.4996582755
 20
16.3602591914
 10
777.4996582755
 20
18.4495456679
  0
LWPOLYLINE
  5
38D
100
AcDbEntity
  8
0
100
AcDbPolyline
 62
2
  6
CONTINUOUS
 90
4
 70
0
 10
779.5889232494
 20
16.1995457775
 10
779.5889232494
 20
17.4852598086
 10
779.4282568721
 20
17.8066879804
 10
778.624666956
 20
17.8066879804
  0
LWPOLYLINE
  5
38E
100
AcDbEntity
  8
0
100
AcDbPolyline
 62
2
  6
CONTINUOUS
 90
6
 70
0
 10
779.5889232494
 20
16.1995457775
 10
778.9460857205
 20
16.1995457775
 10
778.624666956
 20
16.3602591914
 10
778.624666956
 20
16.8424021211
 10
778.9460857205
 20
17.0031168789
 10
779.5889232494
 20
17.0031168789
  0
LWPOLYLINE
  5
38F
100
AcDbEntity
  8
0
100
AcDbPolyline
 62
2
  6
CONTINUOUS
 90
5
 70
0
 10
780.2318467882
 20
17.8066879804
 10
780.6603478009
 20
16.1995457775
 10
781.0353506944
 20
17.4852598086
 10
781.410353588
 20
16.1995457775
 10
781.8389406105
 20
17.8066879804
  0
LINE
  5
390
100
AcDbEntity
  8
0
100
AcDbLine
 62
2
  6
CONTINUOUS
 10
784.5711291233
 20
16.1995457775
 11
784.5711291233
 21
17.8066879804
  0
LWPOLYLINE
  5
391
100
AcDbEntity
  8
0
100
AcDbPolyline
 62
2
  6
CONTINUOUS
 90
4
 70
0
 10
784.5711291233
 20
18.28883091
 10
784.5711291233
 20
18.4495456679
 10
784.6246272425
 20
18.4495456679
 10
784.5711291233
 20
18.28883091
  0
LWPOLYLINE
  5
392
100
AcDbEntity
  8
0
100
AcDbPolyline
 62
2
  6
CONTINUOUS
 90
5
 70
0
 10
785.4282171586
 20
16.1995457775
 10
785.4282171586
 20
17.8066879804
 10
786.2318070747
 20
17.8066879804
 10
786.3925594618
 20
17.6459745664
 10
786.3925594618
 20
16.1995457775
  0
LWPOLYLINE
  5
393
100
AcDbEntity
  8
0
100
AcDbPolyline
 62
2
  6
CONTINUOUS
 90
4
 70
0
 10
789.0710778356
 20
16.1995457775
 10
789.0710778356
 20
18.28883091
 10
789.2318302228
 20
18.4495456679
 10
789.5532489873
 20
18.4495456679
  0
LINE
  5
394
100
AcDbEntity
  8
0
100
AcDbLine
 62
2
  6
CONTINUOUS
 10
789.5532489873
 20
17.8066879804
 11
788.8032432002
 21
17.8066879804
  0
LWPOLYLINE
  5
395
100
AcDbEntity
  8
0
100
AcDbPolyline
 62
2
  6
CONTINUOUS
 90
9
 70
0
 10
790.0889182581
 20
16.5209739493
 10
790.0889182581
 20
17.4852598086
 10
790.4104230324
 20
17.8066879804
 10
790.7318417969
 20
17.8066879804
 10
791.0532605613
 20
17.4852598086
 10
791.0532605613
 20
16.5209739493
 10
790.7318417969
 20
16.1995457775
 10
790.4104230324
 20
16.1995457775
 10
790.0889182581
 20
16.5209739493
  0
LWPOLYLINE
  5
396
100
AcDbEntity
  8
0
100
AcDbPolyline
 62
2
  6
CONTINUOUS
 90
5
 70
0
 10
791.6960980903
 20
16.1995457775
 10
791.6960980903
 20
17.8066879804
 10
792.3389356192
 20
17.8066879804
 10
792.4461038773
 20
17.6459745664
 10
792.4461038773
 20
17.3245450507
  0
LWPOLYLINE
  5
397
100
AcDbEntity
  8
0
100
AcDbPolyline
 62
2
  6
CONTINUOUS
 90
6
 70
0
 10
793.9461154514
 20
16.1995457775
 10
793.3032779225
 20
16.1995457775
 10
793.1425255353
 20
16.3602591914
 10
793.1425255353
 20
17.6459745664
 10
793.3032779225
 20
17.8066879804
 10
793.9461154514
 20
17.8066879804
  0
LWPOLYLINE
  5
398
100
AcDbEntity
  8
0
100
AcDbPolyline
 62
2
  6
CONTINUOUS
 90
9
 70
0
 10
795.5532092737
 20
16.1995457775
 10
794.9103717448
 20
16.1995457775
 10
794.5889529803
 20
16.5209739493
 10
794.5889529803
 20
17.4852598086
 10
794.9103717448
 20
17.8066879804
 10
795.2317905093
 20
17.8066879804
 10
795.5532092737
 20
17.4852598086
 10
795.5532092737
 20
17.0031168789
 10
794.5889529803
 20
17.0031168789
  0
LWPOLYLINE
  5
399
100
AcDbEntity
  8
0
100
AcDbPolyline
 62
2
  6
CONTINUOUS
 90
9
 70
0
 10
796.6782179543
 20
16.5745459832
 10
796.7318020833
 20
16.4674032593
 10
796.7318020833
 20
16.4138312254
 10
796.6782179543
 20
16.3066885014
 10
796.571135706
 20
16.3066885014
 10
796.517551577
 20
16.4138312254
 10
796.517551577
 20
16.4674032593
 10
796.571135706
 20
16.5745459832
 10
796.6782179543
 20
16.5745459832
  0
LWPOLYLINE
  5
39A
100
AcDbEntity
  8
0
100
AcDbPolyline
 62
2
  6
CONTINUOUS
 90
3
 70
0
 10
741.3925562789
 20
12.82454527
 10
742.0353938079
 20
15.0745451604
 10
742.6782313368
 20
12.82454527
  0
LINE
  5
39B
100
AcDbEntity
  8
0
100
AcDbLine
 62
2
  6
CONTINUOUS
 10
741.6068067853
 20
13.4674029575
 11
742.4639808304
 21
13.4674029575
  0
LWPOLYLINE
  5
39C
100
AcDbEntity
  8
0
100
AcDbPolyline
 62
2
  6
CONTINUOUS
 90
4
 70
0
 10
743.8032400174
 20
12.82454527
 10
743.4818212529
 20
12.82454527
 10
743.3210688657
 20
12.9852600279
 10
743.3210688657
 20
15.0745451604
  0
LWPOLYLINE
  5
39D
100
AcDbEntity
  8
0
100
AcDbPolyline
 62
2
  6
CONTINUOUS
 90
4
 70
0
 10
744.9282486979
 20
12.82454527
 10
744.6068299334
 20
12.82454527
 10
744.4460775463
 20
12.9852600279
 10
744.4460775463
 20
15.0745451604
  0
LWPOLYLINE
  5
39E
100
AcDbEntity
  8
0
100
AcDbPolyline
 62
2
  6
CONTINUOUS
 90
5
 70
0
 10
747.3389324363
 20
12.82454527
 10
747.3389324363
 20
14.4316888168
 10
747.9817699653
 20
14.4316888168
 10
748.0889382234
 20
14.2709740589
 10
748.0889382234
 20
13.9495458871
  0
LINE
  5
39F
100
AcDbEntity
  8
0
100
AcDbLine
 62
2
  6
CONTINUOUS
 10
749.1067786458
 20
12.82454527
 11
749.1067786458
 21
14.4316888168
  0
LWPOLYLINE
  5
3A0
100
AcDbEntity
  8
0
100
AcDbPolyline
 62
2
  6
CONTINUOUS
 90
4
 70
0
 10
749.1067786458
 20
14.9138317464
 10
749.1067786458
 20
15.0745451604
 10
749.1603627749
 20
15.0745451604
 10
749.1067786458
 20
14.9138317464
  0
LWPOLYLINE
  5
3A1
100
AcDbEntity
  8
0
100
AcDbPolyline
 62
2
  6
CONTINUOUS
 90
9
 70
0
 10
749.963952691
 20
12.2888316503
 10
750.7675426071
 20
12.2888316503
 10
750.9282089844
 20
12.5031170982
 10
750.9282089844
 20
14.4316888168
 10
750.1247050781
 20
14.4316888168
 10
749.963952691
 20
14.2709740589
 10
749.963952691
 20
12.9852600279
 10
750.1247050781
 20
12.82454527
 10
750.9282089844
 20
12.82454527
  0
LINE
  5
3A2
100
AcDbEntity
  8
0
100
AcDbLine
 62
2
  6
CONTINUOUS
 10
751.5711325231
 20
12.82454527
 11
751.5711325231
 21
15.0745451604
  0
LWPOLYLINE
  5
3A3
100
AcDbEntity
  8
0
100
AcDbPolyline
 62
2
  6
CONTINUOUS
 90
4
 70
0
 10
751.5711325231
 20
14.4316888168
 10
752.3746364294
 20
14.4316888168
 10
752.5353888166
 20
14.2709740589
 10
752.5353888166
 20
12.82454527
  0
LINE
  5
3A4
100
AcDbEntity
  8
0
100
AcDbLine
 62
2
  6
CONTINUOUS
 10
753.4460609809
 20
12.82454527
 11
753.4460609809
 21
15.0745451604
  0
LINE
  5
3A5
100
AcDbEntity
  8
0
100
AcDbLine
 62
2
  6
CONTINUOUS
 10
753.1782263455
 20
14.4316888168
 11
753.8210638744
 21
14.4316888168
  0
LWPOLYLINE
  5
3A6
100
AcDbEntity
  8
0
100
AcDbPolyline
 62
2
  6
CONTINUOUS
 90
12
 70
0
 10
754.4639874132
 20
12.9852600279
 10
754.6246537905
 20
12.82454527
 10
755.2674913194
 20
12.82454527
 10
755.4282437066
 20
12.9852600279
 10
755.4282437066
 20
13.4674029575
 10
755.2674913194
 20
13.5745456814
 10
754.6246537905
 20
13.6816884054
 10
754.4639874132
 20
13.7888311293
 10
754.4639874132
 20
14.2709740589
 10
754.6246537905
 20
14.4316888168
 10
755.2674913194
 20
14.4316888168
 10
755.4282437066
 20
14.2709740589
  0
LWPOLYLINE
  5
3A7
100
AcDbEntity
  8
0
100
AcDbPolyline
 62
2
  6
CONTINUOUS
 90
5
 70
0
 10
757.838927445
 20
12.82454527
 10
757.838927445
 20
14.4316888168
 10
758.4818509838
 20
14.4316888168
 10
758.5889332321
 20
14.2709740589
 10
758.5889332321
 20
13.9495458871
  0
LWPOLYLINE
  5
3A8
100
AcDbEntity
  8
0
100
AcDbPolyline
 62
2
  6
CONTINUOUS
 90
9
 70
0
 10
760.2496971933
 20
12.82454527
 10
759.6067736545
 20
12.82454527
 10
759.28535489
 20
13.1459747857
 10
759.28535489
 20
14.1102593011
 10
759.6067736545
 20
14.4316888168
 10
759.9282784288
 20
14.4316888168
 10
760.2496971933
 20
14.1102593011
 10
760.2496971933
 20
13.6281163714
 10
759.28535489
 20
13.6281163714
  0
LWPOLYLINE
  5
3A9
100
AcDbEntity
  8
0
100
AcDbPolyline
 62
2
  6
CONTINUOUS
 90
12
 70
0
 10
760.8925347222
 20
12.9852600279
 10
761.0532010995
 20
12.82454527
 10
761.6961246383
 20
12.82454527
 10
761.8567910156
 20
12.9852600279
 10
761.8567910156
 20
13.4674029575
 10
761.6961246383
 20
13.5745456814
 10
761.0532010995
 20
13.6816884054
 10
760.8925347222
 20
13.7888311293
 10
760.8925347222
 20
14.2709740589
 10
761.0532010995
 20
14.4316888168
 10
761.6961246383
 20
14.4316888168
 10
761.8567910156
 20
14.2709740589
  0
LWPOLYLINE
  5
3AA
100
AcDbEntity
  8
0
100
AcDbPolyline
 62
2
  6
CONTINUOUS
 90
9
 70
0
 10
763.4639708478
 20
12.82454527
 10
762.8211333189
 20
12.82454527
 10
762.4996285446
 20
13.1459747857
 10
762.4996285446
 20
14.1102593011
 10
762.8211333189
 20
14.4316888168
 10
763.1425520833
 20
14.4316888168
 10
763.4639708478
 20
14.1102593011
 10
763.4639708478
 20
13.6281163714
 10
762.4996285446
 20
13.6281163714
  0
LWPOLYLINE
  5
3AB
100
AcDbEntity
  8
0
100
AcDbPolyline
 62
2
  6
CONTINUOUS
 90
5
 70
0
 10
764.1068083767
 20
12.82454527
 10
764.1068083767
 20
14.4316888168
 10
764.7496459057
 20
14.4316888168
 10
764.8568141638
 20
14.2709740589
 10
764.8568141638
 20
13.9495458871
  0
LWPOLYLINE
  5
3AC
100
AcDbEntity
  8
0
100
AcDbPolyline
 62
2
  6
CONTINUOUS
 90
3
 70
0
 10
765.5532358218
 20
14.4316888168
 10
766.0354069734
 20
12.82454527
 10
766.5174921152
 20
14.4316888168
  0
LWPOLYLINE
  5
3AD
100
AcDbEntity
  8
0
100
AcDbPolyline
 62
2
  6
CONTINUOUS
 90
9
 70
0
 10
768.1246719473
 20
12.82454527
 10
767.4818344184
 20
12.82454527
 10
767.1604156539
 20
13.1459747857
 10
767.1604156539
 20
14.1102593011
 10
767.4818344184
 20
14.4316888168
 10
767.8032531829
 20
14.4316888168
 10
768.1246719473
 20
14.1102593011
 10
768.1246719473
 20
13.6281163714
 10
767.1604156539
 20
13.6281163714
  0
LWPOLYLINE
  5
3AE
100
AcDbEntity
  8
0
100
AcDbPolyline
 62
2
  6
CONTINUOUS
 90
7
 70
0
 10
769.7318517795
 20
15.0745451604
 10
769.7318517795
 20
12.82454527
 10
769.0889282407
 20
12.82454527
 10
768.7675094763
 20
12.9852600279
 10
768.7675094763
 20
14.2709740589
 10
769.0889282407
 20
14.4316888168
 10
769.7318517795
 20
14.4316888168
  0
LWPOLYLINE
  5
3AF
100
AcDbEntity
  8
0
100
AcDbPolyline
 62
2
  6
CONTINUOUS
 90
9
 70
0
 10
770.8567744502
 20
13.1995454757
 10
770.9103585793
 20
13.0924027518
 10
770.9103585793
 20
13.0388307179
 10
770.8567744502
 20
12.9316879939
 10
770.749692202
 20
12.9316879939
 10
770.6961080729
 20
13.0388307179
 10
770.6961080729
 20
13.0924027518
 10
770.749692202
 20
13.1995454757
 10
770.8567744502
 20
13.1995454757
  0
ACAD_TABLE
  5
3B0
100
AcDbEntity
  8
0
 62
2
  6
CONTINUOUS
100
AcDbBlockReference
  2
*T1
 10
739.9050258913
 20
52.5120455435
 30
0.0
100
AcDbTable
342
       472
343
228
 11
1.0
 21
0.0
 31
0.0
 90
22
 91
5
 92
5
 93
0
 94
0
 95
0
 96
0
141
6.0
141
6.0
141
10.0
141
5.0
141
13.0
142
10.0
142
10.0
142
10.0
142
40.0
142
20.0
171
1
172
0
173
0
174
0
175
3
176
4
 91
1
178
0
145
0.0
170
5
171
1
172
0
173
1
174
0
175
1
176
1
 91
1
178
0
145
0.0
170
1
171
1
172
0
173
1
174
0
175
1
176
1
 91
1
178
0
145
0.0
170
1
171
1
172
0
173
0
174
0
175
1
176
1
 91
33
178
0
145
0.0
301
CELL_VALUE
 90
4
  1
{\Ftxt.shx;\W6.976190;\H3.000000; }
304
ACVALUE_END
170
4
140
3.0
171
1
172
0
173
0
174
0
175
1
176
1
 91
33
178
0
145
0.0
301
CELL_VALUE
 90
4
  1
{\Ftxt.shx;\W2.571429;\H3.500000; }{\Ftxt.shx;\W1.357143;\H3.500000; }
304
ACVALUE_END
170
1
140
3.5
171
1
172
0
173
1
174
0
175
1
176
1
 91
1
178
0
145
0.0
170
1
171
1
172
0
173
1
174
0
175
1
176
1
 91
1
178
0
145
0.0
170
1
171
1
172
0
173
1
174
0
175
1
176
1
 91
1
178
0
145
0.0
170
1
171
1
172
0
173
0
174
0
175
1
176
1
 91
33
178
0
145
0.0
301
CELL_VALUE
 90
4
  1
{\Ftxt.shx;\W3.714286;\H3.500000; }{\Ftxt.shx;\W1.500000;\H3.500000; }
304
ACVALUE_END
170
1
140
3.5
171
1
172
0
173
0
174
0
175
1
176
1
 91
33
178
0
145
0.0
301
CELL_VALUE
 90
4
  1
{\Ftxt.shx;\W1.642857;\H3.500000; }
304
ACVALUE_END
170
4
140
3.5
171
1
172
0
173
1
174
0
175
1
176
1
 91
1
178
0
145
0.0
170
1
171
1
172
0
173
1
174
0
175
1
176
1
 91
1
178
0
145
0.0
170
1
171
1
172
0
173
1
174
0
175
1
176
1
 91
1
178
0
145
0.0
170
1
171
1
172
0
173
0
174
0
175
2
176
1
 91
33
178
0
145
0.0
301
CELL_VALUE
 90
4
  1
{\Ftxt.shx;\W5.428571;\H3.500000; }
304
ACVALUE_END
170
4
140
3.5
171
1
172
0
173
1
174
0
175
1
176
1
 91
1
178
0
145
0.0
170
1
171
1
172
0
173
1
174
0
175
1
176
1
 91
1
178
0
145
0.0
170
1
171
1
172
0
173
1
174
0
175
1
176
1
 91
1
178
0
145
0.0
170
1
171
1
172
0
173
1
174
0
175
1
176
1
 91
1
178
0
145
0.0
170
1
171
1
172
0
173
0
174
0
175
2
176
1
 91
33
178
0
145
0.0
301
CELL_VALUE
 90
4
  1
{\Ftxt.shx;\W3.690476;\H2.500000; }{\Ftxt.shx;\W7.309524;\H2.500000; }
304
ACVALUE_END
170
4
140
2.5
171
1
172
0
173
1
174
0
175
1
176
1
 91
1
178
0
145
0.0
170
1
171
1
172
0
173
0
174
0
175
5
176
1
 91
33
178
0
145
0.0
301
CELL_VALUE
 90
4
  1
{\Ftxt.shx;\W35.880952;\H2.250000; }\P{\Ftxt.shx;\W22.452381;\H2.250000; }{\Ftxt.shx;\W6.642857;\H2.250000; }{\Ftxt.shx;\W10.595238;\H2.250000; }\P{\Ftxt.shx;\W25.714286;\H2.250000; }\P{\Ftxt.shx;\W13.452381;\H2.250000; }
304
ACVALUE_END
170
4
140
2.25
171
1
172
0
173
1
174
0
175
1
176
1
 91
1
178
0
145
0.0
170
1
171
1
172
0
173
1
174
0
175
1
176
1
 91
1
178
0
145
0.0
170
1
171
1
172
0
173
1
174
0
175
1
176
1
 91
1
178
0
145
0.0
170
1
171
1
172
0
173
1
174
0
175
1
176
1
 91
1
178
0
145
0.0
170
1
  0
LINE
  5
3B1
100
AcDbEntity
  8
0
100
AcDbLine
 62
7
  6
CONTINUOUS
 10
0.0
 20
0.0
 11
841.0
 21
0.0
  0
LINE
  5
3B2
100
AcDbEntity
  8
0
100
AcDbLine
 62
7
  6
CONTINUOUS
 10
0.0
 20
0.0
 11
0.0
 21
1189.0
  0
LINE
  5
3B3
100
AcDbEntity
  8
0
100
AcDbLine
 62
7
  6
CONTINUOUS
 10
841.0
 20
0.0
 11
841.0
 21
1189.0
  0
LINE
  5
3B4
100
AcDbEntity
  8
0
100
AcDbLine
 62
7
  6
CONTINUOUS
 10
0.0
 20
1189.0
 11
841.0
 21
1189.0
  0
LINE
  5
3B5
100
AcDbEntity
  8
7_ALL_FEATURES
100
AcDbLine
 62
3
  6
CONTINUOUS
 10
154.7296400354
 20
193.170320994
 11
154.2296400354
 21
192.670320994
  0
LINE
  5
3B6
100
AcDbEntity
  8
7_ALL_FEATURES
100
AcDbLine
 62
7
  6
CONTINUOUS
 10
156.4296400354
 20
191.170320994
 11
156.2296400354
 21
190.970320994
  0
LINE
  5
3B7
100
AcDbEntity
  8
7_ALL_FEATURES
100
AcDbLine
 62
7
  6
CONTINUOUS
 10
156.2296400354
 20
190.670320994
 11
156.7296400354
 21
191.170320994
  0
LINE
  5
3B8
100
AcDbEntity
  8
7_ALL_FEATURES
100
AcDbLine
 62
7
  6
CONTINUOUS
 10
156.2296400354
 20
96.7440977133
 11
156.4796400354
 21
96.3959155932
  0
LINE
  5
3B9
100
AcDbEntity
  8
7_ALL_FEATURES
100
AcDbLine
 62
7
  6
CONTINUOUS
 10
156.7296400354
 20
112.9682383453
 11
156.4796400354
 21
113.3164204655
  0
LINE
  5
3BA
100
AcDbEntity
  8
7_ALL_FEATURES
100
AcDbLine
 62
3
  6
CONTINUOUS
 10
154.2296400354
 20
192.670320994
 11
154.2296400354
 21
159.670320994
  0
LINE
  5
3BB
100
AcDbEntity
  8
7_ALL_FEATURES
100
AcDbLine
 62
7
  6
CONTINUOUS
 10
156.2296400354
 20
96.7440977133
 11
156.2296400354
 21
190.970320994
  0
LINE
  5
3BC
100
AcDbEntity
  8
7_ALL_FEATURES
100
AcDbLine
 62
7
  6
CONTINUOUS
 10
156.7296400354
 20
96.3345216912
 11
156.7296400354
 21
112.9682383453
  0
LINE
  5
3BD
100
AcDbEntity
  8
7_ALL_FEATURES
100
AcDbLine
 62
7
  6
CONTINUOUS
 10
156.7296400354
 20
113.6646025857
 11
156.7296400354
 21
190.9571092121
  0
LINE
  5
3BE
100
AcDbEntity
  8
7_ALL_FEATURES
100
AcDbLine
 62
7
  6
CONTINUOUS
 10
275.7296400354
 20
96.3345216912
 11
275.9796400354
 21
96.3959155932
  0
LWPOLYLINE
  5
3BF
100
AcDbEntity
  8
0
100
AcDbPolyline
 62
2
  6
CONTINUOUS
 90
7
 70
0
 43
0.1500000025
 10
216.2296451823
 20
84.5559437889
 10
214.7296336082
 20
84.5559437889
 10
216.2296451823
 20
86.6988036431
 10
216.2296451823
 20
87.1273745388
 10
215.8010581597
 20
87.5559454346
 10
215.1582206308
 20
87.5559454346
 10
214.7296336082
 20
86.9130917788
  0
LINE
  5
3C0
100
AcDbEntity
  8
7_ALL_FEATURES
100
AcDbLine
 62
7
  6
CONTINUOUS
 10
156.4796400354
 20
96.3959155932
 11
156.7296400354
 21
96.3345216912
  0
LINE
  5
3C1
100
AcDbEntity
  8
7_ALL_FEATURES
100
AcDbLine
 62
7
  6
CONTINUOUS
 10
275.7296400354
 20
96.3345216912
 11
156.7296400354
 21
96.3345216912
  0
LWPOLYLINE
  5
3C2
100
AcDbEntity
  8
0
100
AcDbPolyline
 62
2
  6
CONTINUOUS
 90
3
 70
0
 43
0.1500000025
 10
213.0153715278
 20
206.6215412507
 10
213.872502568
 20
207.4786937934
 10
213.872502568
 20
204.4786921477
  0
LINE
  5
3C3
100
AcDbEntity
  8
7_ALL_FEATURES
100
AcDbLine
 62
7
  6
CONTINUOUS
 10
276.2296400354
 20
113.3778143675
 11
275.9796400354
 21
113.3164204655
  0
LINE
  5
3C4
100
AcDbEntity
  8
7_ALL_FEATURES
100
AcDbLine
 62
7
  6
CONTINUOUS
 10
156.2296400354
 20
113.3778143675
 11
156.4796400354
 21
113.3164204655
  0
LINE
  5
3C5
100
AcDbEntity
  8
7_ALL_FEATURES
100
AcDbLine
 62
7
  6
CONTINUOUS
 10
156.7296400354
 20
112.9682383453
 11
275.7296400354
 21
112.9682383453
  0
LINE
  5
3C6
100
AcDbEntity
  8
7_ALL_FEATURES
100
AcDbLine
 62
7
  6
CONTINUOUS
 10
156.7296400354
 20
113.6646025857
 11
275.7296400354
 21
113.6646025857
  0
LINE
  5
3C7
100
AcDbEntity
  8
7_ALL_FEATURES
100
AcDbLine
 62
3
  6
CONTINUOUS
 10
154.2296400354
 20
159.670320994
 11
154.7296400354
 21
159.170320994
  0
LINE
  5
3C8
100
AcDbEntity
  8
7_ALL_FEATURES
100
AcDbLine
 62
7
  6
CONTINUOUS
 10
156.4796400354
 20
113.3164204655
 11
156.7296400354
 21
113.6646025857
  0
LINE
  5
3C9
100
AcDbEntity
  8
7_ALL_FEATURES
100
AcDbLine
 62
7
  6
CONTINUOUS
 10
156.6230341445
 20
191.0637151031
 11
156.7296400354
 21
190.9571092121
  0
LWPOLYLINE
  5
3CA
100
AcDbEntity
  8
0
100
AcDbPolyline
 62
2
  6
CONTINUOUS
 90
13
 70
0
 43
0.1500000025
 10
217.0867762225
 20
85.4130909559
 10
217.0867762225
 20
86.6988036431
 10
217.3010697338
 20
87.1273745388
 10
217.7296567564
 20
87.5559454346
 10
217.9439072627
 20
87.5559454346
 10
218.3724942853
 20
87.1273745388
 10
218.5867877966
 20
86.6988036431
 10
218.5867877966
 20
85.4130909559
 10
218.3724942853
 20
84.9845200602
 10
217.9439072627
 20
84.5559437889
 10
217.7296567564
 20
84.5559437889
 10
217.3010697338
 20
84.9845200602
 10
217.0867762225
 20
85.4130909559
  0
LWPOLYLINE
  5
3CB
100
AcDbEntity
  8
0
100
AcDbPolyline
 62
2
  6
CONTINUOUS
 90
2
 70
0
 43
0.1500000025
 10
218.0867696036
 20
204.4786921477
 10
218.0867696036
 20
205.9786822193
  0
LINE
  5
3CC
100
AcDbEntity
  8
7_ALL_FEATURES
100
AcDbLine
 62
7
  6
CONTINUOUS
 10
275.7296400354
 20
190.9571092121
 11
275.8362459263
 21
191.0637151031
  0
LINE
  5
3CD
100
AcDbEntity
  8
7_ALL_FEATURES
100
AcDbLine
 62
3
  6
CONTINUOUS
 10
154.7296400354
 20
159.170320994
 11
156.2296400354
 21
159.170320994
  0
LINE
  5
3CE
100
AcDbEntity
  8
7_ALL_FEATURES
100
AcDbLine
 62
3
  6
CONTINUOUS
 10
276.2296400354
 20
159.170320994
 11
277.7296400354
 21
159.170320994
  0
LINE
  5
3CF
100
AcDbEntity
  8
7_ALL_FEATURES
100
AcDbLine
 62
7
  6
CONTINUOUS
 10
275.7296400354
 20
113.6646025857
 11
275.9796400354
 21
113.3164204655
  0
LINE
  5
3D0
100
AcDbEntity
  8
7_ALL_FEATURES
100
AcDbLine
 62
3
  6
CONTINUOUS
 10
277.7296400354
 20
159.170320994
 11
278.2296400354
 21
159.670320994
  0
LWPOLYLINE
  5
3D1
100
AcDbEntity
  8
0
100
AcDbPolyline
 62
2
  6
CONTINUOUS
 90
2
 70
0
 43
0.1500000025
 10
287.5264682436
 20
177.0631745605
 10
286.0264566696
 20
177.0631745605
  0
LWPOLYLINE
  5
3D2
100
AcDbEntity
  8
0
100
AcDbPolyline
 62
2
  6
CONTINUOUS
 90
3
 70
0
 43
0.1500000025
 10
213.0153715278
 20
86.6988036431
 10
213.872502568
 20
87.5559454346
 10
213.872502568
 20
84.5559437889
  0
LINE
  5
3D3
100
AcDbEntity
  8
7_ALL_FEATURES
100
AcDbLine
 62
7
  6
CONTINUOUS
 10
275.7296400354
 20
190.9571092121
 11
156.7296400354
 21
190.9571092121
  0
LINE
  5
3D4
100
AcDbEntity
  8
7_ALL_FEATURES
100
AcDbLine
 62
7
  6
CONTINUOUS
 10
276.0296400354
 20
191.170320994
 11
156.4296400354
 21
191.170320994
  0
LINE
  5
3D5
100
AcDbEntity
  8
7_ALL_FEATURES
100
AcDbLine
 62
3
  6
CONTINUOUS
 10
277.7296400354
 20
193.170320994
 11
154.7296400354
 21
193.170320994
  0
LINE
  5
3D6
100
AcDbEntity
  8
7_ALL_FEATURES
100
AcDbLine
 62
7
  6
CONTINUOUS
 10
275.7296400354
 20
96.3345216912
 11
275.7296400354
 21
112.9682383453
  0
LINE
  5
3D7
100
AcDbEntity
  8
7_ALL_FEATURES
100
AcDbLine
 62
7
  6
CONTINUOUS
 10
275.7296400354
 20
113.6646025857
 11
275.7296400354
 21
190.9571092121
  0
LINE
  5
3D8
100
AcDbEntity
  8
7_ALL_FEATURES
100
AcDbLine
 62
7
  6
CONTINUOUS
 10
276.2296400354
 20
96.7440977133
 11
276.2296400354
 21
190.970320994
  0
LINE
  5
3D9
100
AcDbEntity
  8
7_ALL_FEATURES
100
AcDbLine
 62
3
  6
CONTINUOUS
 10
278.2296400354
 20
159.670320994
 11
278.2296400354
 21
192.670320994
  0
LWPOLYLINE
  5
3DA
100
AcDbEntity
  8
0
100
AcDbPolyline
 62
2
  6
CONTINUOUS
 90
7
 70
0
 43
0.1500000025
 10
216.2296451823
 20
204.4786921477
 10
214.7296336082
 20
204.4786921477
 10
216.2296451823
 20
206.6215412507
 10
216.2296451823
 20
207.0501282733
 10
215.8010581597
 20
207.4786937934
 10
215.1582206308
 20
207.4786937934
 10
214.7296336082
 20
206.835834762
  0
LWPOLYLINE
  5
3DB
100
AcDbEntity
  8
0
100
AcDbPolyline
 62
2
  6
CONTINUOUS
 90
3
 70
0
 43
0.1500000025
 10
218.5867877966
 20
205.1215511791
 10
217.0867762225
 20
205.1215511791
 10
217.7296567564
 20
207.4786937934
  0
LINE
  5
3DC
100
AcDbEntity
  8
7_ALL_FEATURES
100
AcDbLine
 62
7
  6
CONTINUOUS
 10
275.9796400354
 20
113.3164204655
 11
275.7296400354
 21
112.9682383453
  0
LWPOLYLINE
  5
3DD
100
AcDbEntity
  8
0
100
AcDbPolyline
 62
2
  6
CONTINUOUS
 90
3
 70
0
 43
0.1500000025
 10
286.8835877098
 20
177.5631820023
 10
286.8835877098
 20
176.0631811795
 10
284.5264450955
 20
176.7060402109
  0
LWPOLYLINE
  5
3DE
100
AcDbEntity
  8
0
100
AcDbPolyline
 62
2
  6
CONTINUOUS
 90
6
 70
0
 43
0.1500000025
 10
287.5264682436
 20
173.9203213252
 10
287.5264682436
 20
174.9917458767
 10
287.3121747323
 20
175.206039388
 10
286.2407501808
 20
175.206039388
 10
285.8121631583
 20
174.7774631167
 10
285.8121631583
 20
174.3488975966
  0
LINE
  5
3DF
100
AcDbEntity
  8
7_ALL_FEATURES
100
AcDbLine
 62
7
  6
CONTINUOUS
 10
276.2296400354
 20
96.7440977133
 11
275.9796400354
 21
96.3959155932
  0
LINE
  5
3E0
100
AcDbEntity
  8
7_ALL_FEATURES
100
AcDbLine
 62
7
  6
CONTINUOUS
 10
275.7296400354
 20
191.170320994
 11
276.2296400354
 21
190.670320994
  0
LINE
  5
3E1
100
AcDbEntity
  8
7_ALL_FEATURES
100
AcDbLine
 62
7
  6
CONTINUOUS
 10
276.2296400354
 20
190.970320994
 11
276.0296400354
 21
191.170320994
  0
LINE
  5
3E2
100
AcDbEntity
  8
7_ALL_FEATURES
100
AcDbLine
 62
3
  6
CONTINUOUS
 10
278.2296400354
 20
192.670320994
 11
277.7296400354
 21
193.170320994
  0
LWPOLYLINE
  5
3E3
100
AcDbEntity
  8
0
100
AcDbPolyline
 62
2
  6
CONTINUOUS
 90
5
 70
0
 43
0.1500000025
 10
285.8121631583
 20
174.7774631167
 10
285.597869647
 20
175.1346082176
 10
284.9550321181
 20
175.1346082176
 10
284.5264450955
 20
174.7774631167
 10
284.5264450955
 20
173.9203213252
  0
LINE
  5
3E4
100
AcDbEntity
  8
7_ALL_FEATURES
100
AcDbLine
 62
7
  6
CONTINUOUS
 10
154.2296400354
 20
309.4700684067
 11
278.2296400354
 21
309.4700684067
  0
LINE
  5
3E5
100
AcDbEntity
  8
7_ALL_FEATURES
100
AcDbLine
 62
3
  6
CONTINUOUS
 10
154.2296400354
 20
313.4700684067
 11
278.2296400354
 21
313.4700684067
  0
LINE
  5
3E6
100
AcDbEntity
  8
7_ALL_FEATURES
100
AcDbLine
 62
7
  6
CONTINUOUS
 10
180.5079521989
 20
327.2200684067
 11
181.9513278719
 21
327.2200684067
  0
LINE
  5
3E7
100
AcDbEntity
  8
7_ALL_FEATURES
100
AcDbLine
 62
7
  6
CONTINUOUS
 10
250.5079521989
 20
327.2200684067
 11
251.9513278719
 21
327.2200684067
  0
LINE
  5
3E8
100
AcDbEntity
  8
7_ALL_FEATURES
100
AcDbLine
 62
7
  6
CONTINUOUS
 10
251.9513278719
 20
329.7200684067
 11
250.5079521989
 21
329.7200684067
  0
LINE
  5
3E9
100
AcDbEntity
  8
7_ALL_FEATURES
100
AcDbLine
 62
7
  6
CONTINUOUS
 10
181.9513278719
 20
329.7200684067
 11
180.5079521989
 21
329.7200684067
  0
LINE
  5
3EA
100
AcDbEntity
  8
7_ALL_FEATURES
100
AcDbLine
 62
7
  6
CONTINUOUS
 10
168.8546400354
 20
1082.3446747736
 11
167.8546400354
 21
1081.7710983373
  0
LINE
  5
3EB
100
AcDbEntity
  8
7_ALL_FEATURES
100
AcDbLine
 62
9
  6
CONTINUOUS
 10
166.7296400354
 20
1080.8124694385
 11
167.2296400354
 21
1081.2220454607
  0
LINE
  5
3EC
100
AcDbEntity
  8
7_ALL_FEATURES
100
AcDbLine
 62
9
  6
CONTINUOUS
 10
166.7296400354
 20
1069.3982983551
 11
167.2296400354
 21
1069.8078743773
  0
LINE
  5
3ED
100
AcDbEntity
  8
7_ALL_FEATURES
100
AcDbLine
 62
7
  6
CONTINUOUS
 10
156.2296400354
 20
1108.447592185
 11
156.4796400354
 21
1108.7957743051
  0
LINE
  5
3EE
100
AcDbEntity
  8
7_ALL_FEATURES
100
AcDbLine
 62
7
  6
CONTINUOUS
 10
156.4796400354
 20
1084.6307889986
 11
156.7296400354
 21
1084.9789711188
  0
LINE
  5
3EF
100
AcDbEntity
  8
7_ALL_FEATURES
100
AcDbLine
 62
7
  6
CONTINUOUS
 10
156.7296400354
 20
1039.0604923846
 11
156.6844280465
 21
1039.0152803956
  0
LINE
  5
3F0
100
AcDbEntity
  8
7_ALL_FEATURES
100
AcDbLine
 62
7
  6
CONTINUOUS
 10
263.6046400354
 20
1068.292052083
 11
264.6046400354
 21
1068.8656285194
  0
LINE
  5
3F1
100
AcDbEntity
  8
7_ALL_FEATURES
100
AcDbLine
 62
7
  6
CONTINUOUS
 10
179.7862643625
 20
328.4700684067
 11
180.5079521989
 21
327.2200684067
  0
LINE
  5
3F2
100
AcDbEntity
  8
7_ALL_FEATURES
100
AcDbLine
 62
7
  6
CONTINUOUS
 10
182.6730157084
 20
328.4700684067
 11
181.9513278719
 21
329.7200684067
  0
LINE
  5
3F3
100
AcDbEntity
  8
7_ALL_FEATURES
100
AcDbLine
 62
7
  6
CONTINUOUS
 10
275.7296400354
 20
1038.9700684067
 11
276.2296400354
 21
1039.4700684067
  0
LINE
  5
3F4
100
AcDbEntity
  8
7_ALL_FEATURES
100
AcDbLine
 62
7
  6
CONTINUOUS
 10
275.9796400354
 20
1084.6307889986
 11
275.7296400354
 21
1084.2826068784
  0
LINE
  5
3F5
100
AcDbEntity
  8
7_ALL_FEATURES
100
AcDbLine
 62
7
  6
CONTINUOUS
 10
249.7862643625
 20
328.4700684067
 11
250.5079521989
 21
327.2200684067
  0
LINE
  5
3F6
100
AcDbEntity
  8
7_ALL_FEATURES
100
AcDbLine
 62
7
  6
CONTINUOUS
 10
252.6730157084
 20
328.4700684067
 11
251.9513278719
 21
329.7200684067
  0
LINE
  5
3F7
100
AcDbEntity
  8
7_ALL_FEATURES
100
AcDbLine
 62
7
  6
CONTINUOUS
 10
154.2296400354
 20
309.4700684067
 11
154.2296400354
 21
313.4700684067
  0
LINE
  5
3F8
100
AcDbEntity
  8
7_ALL_FEATURES
100
AcDbLine
 62
7
  6
CONTINUOUS
 10
154.7296400354
 20
309.4700684067
 11
154.7296400354
 21
313.4700684067
  0
LINE
  5
3F9
100
AcDbEntity
  8
7_ALL_FEATURES
100
AcDbLine
 62
7
  6
CONTINUOUS
 10
156.2296400354
 20
1038.4700684067
 11
156.2296400354
 21
313.4700684067
  0
LINE
  5
3FA
100
AcDbEntity
  8
7_ALL_FEATURES
100
AcDbLine
 62
7
  6
CONTINUOUS
 10
156.2296400354
 20
1039.4700684067
 11
156.2296400354
 21
1108.447592185
  0
LINE
  5
3FB
100
AcDbEntity
  8
7_ALL_FEATURES
100
AcDbLine
 62
7
  6
CONTINUOUS
 10
156.4296400354
 20
1038.4700684067
 11
156.4296400354
 21
313.4700684067
  0
LINE
  5
3FC
100
AcDbEntity
  8
7_ALL_FEATURES
100
AcDbLine
 62
7
  6
CONTINUOUS
 10
156.7296400354
 20
1084.2826068784
 11
156.7296400354
 21
1039.0604923846
  0
LINE
  5
3FD
100
AcDbEntity
  8
7_ALL_FEATURES
100
AcDbLine
 62
7
  6
CONTINUOUS
 10
156.7296400354
 20
1084.9789711188
 11
156.7296400354
 21
1108.7343804031
  0
LINE
  5
3FE
100
AcDbEntity
  8
7_ALL_FEATURES
100
AcDbLine
 62
7
  6
CONTINUOUS
 10
156.9796400354
 20
1038.9700684067
 11
156.9796400354
 21
1038.4700684067
  0
LINE
  5
3FF
100
AcDbEntity
  8
7_ALL_FEATURES
100
AcDbLine
 62
7
  6
CONTINUOUS
 10
166.7296400354
 20
1069.3982983551
 11
166.7296400354
 21
1080.8124694385
  0
LINE
  5
400
100
AcDbEntity
  8
7_ALL_FEATURES
100
AcDbLine
 62
7
  6
CONTINUOUS
 10
167.2296400354
 20
1069.8078743773
 11
167.2296400354
 21
1081.2220454607
  0
LINE
  5
401
100
AcDbEntity
  8
7_ALL_FEATURES
100
AcDbLine
 62
7
  6
CONTINUOUS
 10
167.8546400354
 20
1068.8656285194
 11
167.8546400354
 21
1082.2319071686
  0
LINE
  5
402
100
AcDbEntity
  8
7_ALL_FEATURES
100
AcDbLine
 62
7
  6
CONTINUOUS
 10
168.8546400354
 20
1082.3446747736
 11
168.8546400354
 21
1082.5797812189
  0
LINE
  5
403
100
AcDbEntity
  8
7_ALL_FEATURES
100
AcDbLine
 62
9
  6
CONTINUOUS
 10
170.0296400354
 20
1067.5054961152
 11
170.0296400354
 21
1068.292052083
  0
LWPOLYLINE
  5
404
100
AcDbEntity
  8
0
100
AcDbPolyline
 62
2
  6
CONTINUOUS
 90
4
 70
0
 43
0.1500000025
 10
300.0570695168
 20
705.6278930122
 10
299.1999384766
 20
705.6278930122
 10
298.771351454
 20
706.0564800347
 10
298.771351454
 20
706.6993175637
  0
LWPOLYLINE
  5
405
100
AcDbEntity
  8
0
100
AcDbPolyline
 62
2
  6
CONTINUOUS
 90
13
 70
0
 43
0.1500000025
 10
299.6285254991
 20
707.9850356264
 10
298.3428074363
 20
707.9850356264
 10
297.9142204138
 20
708.1993291377
 10
297.4856333912
 20
708.6279161603
 10
297.4856333912
 20
708.8422096716
 10
297.9142204138
 20
709.2707536892
 10
298.3428074363
 20
709.4850472005
 10
299.6285254991
 20
709.4850472005
 10
300.0570695168
 20
709.2707536892
 10
300.4856565394
 20
708.8422096716
 10
300.4856565394
 20
708.6279161603
 10
300.0570695168
 20
708.1993291377
 10
299.6285254991
 20
707.9850356264
  0
LWPOLYLINE
  5
406
100
AcDbEntity
  8
0
100
AcDbPolyline
 62
2
  6
CONTINUOUS
 90
13
 70
0
 43
0.1500000025
 10
299.6285254991
 20
710.3421782407
 10
298.3428074363
 20
710.3421782407
 10
297.9142204138
 20
710.556471752
 10
297.4856333912
 20
710.9850587746
 10
297.4856333912
 20
711.1993522859
 10
297.9142204138
 20
711.6278963035
 10
298.3428074363
 20
711.8421898148
 10
299.6285254991
 20
711.8421898148
 10
300.0570695168
 20
711.6278963035
 10
300.4856565394
 20
711.1993522859
 10
300.4856565394
 20
710.9850587746
 10
300.0570695168
 20
710.556471752
 10
299.6285254991
 20
710.3421782407
  0
LINE
  5
407
100
AcDbEntity
  8
7_ALL_FEATURES
100
AcDbLine
 62
9
  6
CONTINUOUS
 10
262.4296400354
 20
1067.5054961152
 11
262.4296400354
 21
1068.292052083
  0
LINE
  5
408
100
AcDbEntity
  8
7_ALL_FEATURES
100
AcDbLine
 62
7
  6
CONTINUOUS
 10
263.6046400354
 20
1082.3446747736
 11
263.6046400354
 21
1082.5797812192
  0
LINE
  5
409
100
AcDbEntity
  8
7_ALL_FEATURES
100
AcDbLine
 62
7
  6
CONTINUOUS
 10
264.6046400354
 20
1068.8656285194
 11
264.6046400354
 21
1082.2319071693
  0
LINE
  5
40A
100
AcDbEntity
  8
7_ALL_FEATURES
100
AcDbLine
 62
7
  6
CONTINUOUS
 10
265.2296400354
 20
1081.2220454607
 11
265.2296400354
 21
1069.8078743773
  0
LINE
  5
40B
100
AcDbEntity
  8
7_ALL_FEATURES
100
AcDbLine
 62
7
  6
CONTINUOUS
 10
265.7296400354
 20
1080.8124694385
 11
265.7296400354
 21
1069.3982983551
  0
LINE
  5
40C
100
AcDbEntity
  8
7_ALL_FEATURES
100
AcDbLine
 62
7
  6
CONTINUOUS
 10
275.4796400354
 20
1038.9700684067
 11
275.4796400354
 21
1038.4700684067
  0
LINE
  5
40D
100
AcDbEntity
  8
7_ALL_FEATURES
100
AcDbLine
 62
7
  6
CONTINUOUS
 10
275.7296400354
 20
1039.0604923846
 11
275.7296400354
 21
1084.2826068784
  0
LINE
  5
40E
100
AcDbEntity
  8
7_ALL_FEATURES
100
AcDbLine
 62
7
  6
CONTINUOUS
 10
275.7296400354
 20
1084.9789711188
 11
275.7296400354
 21
1108.7343804031
  0
LINE
  5
40F
100
AcDbEntity
  8
7_ALL_FEATURES
100
AcDbLine
 62
7
  6
CONTINUOUS
 10
276.0296400354
 20
1038.4700684067
 11
276.0296400354
 21
313.4700684067
  0
LINE
  5
410
100
AcDbEntity
  8
7_ALL_FEATURES
100
AcDbLine
 62
7
  6
CONTINUOUS
 10
276.2296400354
 20
1038.4700684067
 11
276.2296400354
 21
313.4700684067
  0
LINE
  5
411
100
AcDbEntity
  8
7_ALL_FEATURES
100
AcDbLine
 62
7
  6
CONTINUOUS
 10
276.2296400354
 20
1039.4700684067
 11
276.2296400354
 21
1108.447592185
  0
LINE
  5
412
100
AcDbEntity
  8
7_ALL_FEATURES
100
AcDbLine
 62
7
  6
CONTINUOUS
 10
277.7296400354
 20
309.4700684067
 11
277.7296400354
 21
313.4700684067
  0
LINE
  5
413
100
AcDbEntity
  8
7_ALL_FEATURES
100
AcDbLine
 62
7
  6
CONTINUOUS
 10
278.2296400354
 20
309.4700684067
 11
278.2296400354
 21
313.4700684067
  0
LWPOLYLINE
  5
414
100
AcDbEntity
  8
0
100
AcDbPolyline
 62
2
  6
CONTINUOUS
 90
13
 70
0
 43
0.1500000025
 10
298.771351454
 20
706.0564800347
 10
298.5570579427
 20
705.770755353
 10
297.9142204138
 20
705.770755353
 10
297.4856333912
 20
706.0564800347
 10
297.4856333912
 20
706.6993175637
 10
297.9142204138
 20
706.9850422454
 10
298.5570579427
 20
706.9850422454
 10
298.771351454
 20
706.6993175637
 10
299.1999384766
 20
707.1279045862
 10
300.0570695168
 20
707.1279045862
 10
300.4856565394
 20
706.6993175637
 10
300.4856565394
 20
706.0564800347
 10
300.0570695168
 20
705.6278930122
  0
LINE
  5
415
100
AcDbEntity
  8
7_ALL_FEATURES
100
AcDbLine
 62
7
  6
CONTINUOUS
 10
180.5079521989
 20
329.7200684067
 11
179.7862643625
 21
328.4700684067
  0
LINE
  5
416
100
AcDbEntity
  8
7_ALL_FEATURES
100
AcDbLine
 62
7
  6
CONTINUOUS
 10
181.9513278719
 20
327.2200684067
 11
182.6730157084
 21
328.4700684067
  0
LINE
  5
417
100
AcDbEntity
  8
7_ALL_FEATURES
100
AcDbLine
 62
7
  6
CONTINUOUS
 10
156.7296400354
 20
1038.9700684067
 11
156.2296400354
 21
1039.4700684067
  0
LINE
  5
418
100
AcDbEntity
  8
7_ALL_FEATURES
100
AcDbLine
 62
7
  6
CONTINUOUS
 10
156.7296400354
 20
1084.2826068784
 11
156.4796400354
 21
1084.6307889986
  0
LINE
  5
419
100
AcDbEntity
  8
7_ALL_FEATURES
100
AcDbLine
 62
7
  6
CONTINUOUS
 10
250.5079521989
 20
329.7200684067
 11
249.7862643625
 21
328.4700684067
  0
LINE
  5
41A
100
AcDbEntity
  8
7_ALL_FEATURES
100
AcDbLine
 62
7
  6
CONTINUOUS
 10
251.9513278719
 20
327.2200684067
 11
252.6730157084
 21
328.4700684067
  0
LINE
  5
41B
100
AcDbEntity
  8
7_ALL_FEATURES
100
AcDbLine
 62
7
  6
CONTINUOUS
 10
275.7296400354
 20
1084.9789711188
 11
275.9796400354
 21
1084.6307889986
  0
LINE
  5
41C
100
AcDbEntity
  8
7_ALL_FEATURES
100
AcDbLine
 62
7
  6
CONTINUOUS
 10
167.8546400354
 20
1068.8656285194
 11
168.8546400354
 21
1068.292052083
  0
LINE
  5
41D
100
AcDbEntity
  8
7_ALL_FEATURES
100
AcDbLine
 62
7
  6
CONTINUOUS
 10
275.7748520244
 20
1039.0152803956
 11
275.7296400354
 21
1039.0604923846
  0
LINE
  5
41E
100
AcDbEntity
  8
7_ALL_FEATURES
100
AcDbLine
 62
7
  6
CONTINUOUS
 10
276.2296400354
 20
1108.447592185
 11
275.9796400354
 21
1108.7957743051
  0
LINE
  5
41F
100
AcDbEntity
  8
7_ALL_FEATURES
100
AcDbLine
 62
9
  6
CONTINUOUS
 10
265.7296400354
 20
1069.3982983551
 11
265.2296400354
 21
1069.8078743773
  0
LINE
  5
420
100
AcDbEntity
  8
7_ALL_FEATURES
100
AcDbLine
 62
9
  6
CONTINUOUS
 10
265.7296400354
 20
1080.8124694385
 11
265.2296400354
 21
1081.2220454607
  0
LINE
  5
421
100
AcDbEntity
  8
7_ALL_FEATURES
100
AcDbLine
 62
7
  6
CONTINUOUS
 10
276.2296400354
 20
1084.6921829006
 11
275.9796400354
 21
1084.6307889986
  0
LINE
  5
422
100
AcDbEntity
  8
7_ALL_FEATURES
100
AcDbLine
 62
7
  6
CONTINUOUS
 10
156.2296400354
 20
1038.4700684067
 11
276.2296400354
 21
1038.4700684067
  0
LINE
  5
423
100
AcDbEntity
  8
7_ALL_FEATURES
100
AcDbLine
 62
7
  6
CONTINUOUS
 10
156.7296400354
 20
1038.9700684067
 11
275.7296400354
 21
1038.9700684067
  0
LINE
  5
424
100
AcDbEntity
  8
7_ALL_FEATURES
100
AcDbLine
 62
7
  6
CONTINUOUS
 10
156.7296400354
 20
1039.0604923846
 11
275.7296400354
 21
1039.0604923846
  0
LINE
  5
425
100
AcDbEntity
  8
7_ALL_FEATURES
100
AcDbLine
 62
7
  6
CONTINUOUS
 10
156.2296400354
 20
1084.6921829006
 11
156.4796400354
 21
1084.6307889986
  0
LINE
  5
426
100
AcDbEntity
  8
7_ALL_FEATURES
100
AcDbLine
 62
7
  6
CONTINUOUS
 10
264.6046400354
 20
1081.7710983373
 11
263.6046400354
 21
1082.3446747736
  0
LINE
  5
427
100
AcDbEntity
  8
7_ALL_FEATURES
100
AcDbLine
 62
7
  6
CONTINUOUS
 10
275.9796400354
 20
1108.7957743051
 11
275.7296400354
 21
1108.7343804031
  0
LINE
  5
428
100
AcDbEntity
  8
7_ALL_FEATURES
100
AcDbLine
 62
7
  6
CONTINUOUS
 10
156.4796400354
 20
1108.7957743051
 11
156.7296400354
 21
1108.8571682071
  0
LINE
  5
429
100
AcDbEntity
  8
7_ALL_FEATURES
100
AcDbLine
 62
7
  6
CONTINUOUS
 10
262.4296400354
 20
1067.5054961152
 11
170.0296400354
 21
1067.5054961152
  0
LINE
  5
42A
100
AcDbEntity
  8
7_ALL_FEATURES
100
AcDbLine
 62
7
  6
CONTINUOUS
 10
262.4296400354
 20
1068.2018603555
 11
170.0296400354
 21
1068.2018603555
  0
LINE
  5
42B
100
AcDbEntity
  8
7_ALL_FEATURES
100
AcDbLine
 62
7
  6
CONTINUOUS
 10
168.8546400354
 20
1068.292052083
 11
263.6046400354
 21
1068.292052083
  0
LINE
  5
42C
100
AcDbEntity
  8
7_ALL_FEATURES
100
AcDbLine
 62
7
  6
CONTINUOUS
 10
263.6046400354
 20
1082.3446747736
 11
168.8546400354
 21
1082.3446747736
  0
LINE
  5
42D
100
AcDbEntity
  8
7_ALL_FEATURES
100
AcDbLine
 62
7
  6
CONTINUOUS
 10
170.0296400354
 20
1082.7052716785
 11
262.4296400354
 21
1082.7052716785
  0
LINE
  5
42E
100
AcDbEntity
  8
7_ALL_FEATURES
100
AcDbLine
 62
7
  6
CONTINUOUS
 10
275.7296400354
 20
1084.2826068784
 11
156.7296400354
 21
1084.2826068784
  0
LINE
  5
42F
100
AcDbEntity
  8
7_ALL_FEATURES
100
AcDbLine
 62
7
  6
CONTINUOUS
 10
275.7296400354
 20
1084.9789711188
 11
156.7296400354
 21
1084.9789711188
  0
LINE
  5
430
100
AcDbEntity
  8
7_ALL_FEATURES
100
AcDbLine
 62
7
  6
CONTINUOUS
 10
156.7296400354
 20
1108.7343804031
 11
275.7296400354
 21
1108.7343804031
  0
LINE
  5
431
100
AcDbEntity
  8
7_ALL_FEATURES
100
AcDbLine
 62
7
  6
CONTINUOUS
 10
156.7296400354
 20
1108.8571682071
 11
275.7296400354
 21
1108.8571682071
  0
LINE
  5
432
100
AcDbEntity
  8
7_ALL_FEATURES
100
AcDbLine
 62
7
  6
CONTINUOUS
 10
156.7296400354
 20
1108.7343804031
 11
156.4796400354
 21
1108.7957743051
  0
LINE
  5
433
100
AcDbEntity
  8
7_ALL_FEATURES
100
AcDbLine
 62
7
  6
CONTINUOUS
 10
275.7296400354
 20
1108.8571682071
 11
275.9796400354
 21
1108.7957743051
  0
LWPOLYLINE
  5
434
100
AcDbEntity
  8
0
100
AcDbPolyline
 62
2
  6
CONTINUOUS
 90
6
 70
0
 43
0.1500000025
 10
508.885171658
 20
298.5585321723
 10
509.9565962095
 20
298.5585321723
 10
510.1708467159
 20
298.7728256836
 10
510.1708467159
 20
299.8442502351
 10
509.7423457031
 20
300.2728157552
 10
509.3137586806
 20
300.2728157552
  0
LWPOLYLINE
  5
435
100
AcDbEntity
  8
0
100
AcDbPolyline
 62
2
  6
CONTINUOUS
 90
3
 70
0
 43
0.1500000025
 10
512.5280323351
 20
299.2013912037
 10
511.028020761
 20
299.2013912037
 10
511.6708582899
 20
301.558533818
  0
LINE
  5
436
100
AcDbEntity
  8
7_ALL_FEATURES
100
AcDbLine
 62
7
  6
CONTINUOUS
 10
494.1351719104
 20
309.4700684067
 11
528.1351719104
 21
309.4700684067
  0
LINE
  5
437
100
AcDbEntity
  8
7_ALL_FEATURES
100
AcDbLine
 62
3
  6
CONTINUOUS
 10
494.1351719104
 20
313.4700684067
 11
528.1351719104
 21
313.4700684067
  0
LINE
  5
438
100
AcDbEntity
  8
7_ALL_FEATURES
100
AcDbLine
 62
7
  6
CONTINUOUS
 10
525.9775225159
 20
1038.9700684067
 11
526.2643107341
 21
1039.0604923846
  0
LWPOLYLINE
  5
439
100
AcDbEntity
  8
0
100
AcDbPolyline
 62
2
  6
CONTINUOUS
 90
10
 70
0
 43
0.1500000025
 10
540.767900463
 20
1122.86720761
 10
541.6250745081
 20
1123.7242956453
 10
541.8393250145
 20
1124.5814696904
 10
541.8393250145
 20
1125.4385577257
 10
541.4107379919
 20
1125.8671447483
 10
540.767900463
 20
1125.8671447483
 10
540.3393134404
 20
1125.4385577257
 10
540.3393134404
 20
1124.5814696904
 10
540.767900463
 20
1124.1528826678
 10
541.6964626736
 20
1124.1528826678
  0
LINE
  5
43A
100
AcDbEntity
  8
7_ALL_FEATURES
100
AcDbLine
 62
7
  6
CONTINUOUS
 10
573.6408903187
 20
1108.8571682071
 11
496.3483836922
 21
1054.7363724201
  0
LINE
  5
43B
100
AcDbEntity
  8
7_ALL_FEATURES
100
AcDbLine
 62
7
  6
CONTINUOUS
 10
573.9276785368
 20
1108.447592185
 11
496.6351719104
 21
1054.326796398
  0
LINE
  5
43C
100
AcDbEntity
  8
7_ALL_FEATURES
100
AcDbLine
 62
7
  6
CONTINUOUS
 10
496.3851719104
 20
1039.2200684067
 11
496.6351719104
 21
1039.4700684067
  0
LINE
  5
43D
100
AcDbEntity
  8
7_ALL_FEATURES
100
AcDbLine
 62
7
  6
CONTINUOUS
 10
590.561395191
 20
1084.6921829006
 11
525.9775225159
 21
1039.4700684067
  0
LINE
  5
43E
100
AcDbEntity
  8
7_ALL_FEATURES
100
AcDbLine
 62
7
  6
CONTINUOUS
 10
590.8481834092
 20
1084.2826068784
 11
526.2643107341
 21
1039.0604923846
  0
LINE
  5
43F
100
AcDbEntity
  8
7_ALL_FEATURES
100
AcDbLine
 62
7
  6
CONTINUOUS
 10
496.1351719104
 20
1054.326796398
 11
496.3483836922
 21
1054.7363724201
  0
LINE
  5
440
100
AcDbEntity
  8
7_ALL_FEATURES
100
AcDbLine
 62
7
  6
CONTINUOUS
 10
494.1351719104
 20
309.4700684067
 11
494.1351719104
 21
313.4700684067
  0
LINE
  5
441
100
AcDbEntity
  8
7_ALL_FEATURES
100
AcDbLine
 62
7
  6
CONTINUOUS
 10
494.6351719104
 20
309.4700684067
 11
494.6351719104
 21
313.4700684067
  0
LINE
  5
442
100
AcDbEntity
  8
7_ALL_FEATURES
100
AcDbLine
 62
7
  6
CONTINUOUS
 10
496.1351719104
 20
1054.326796398
 11
496.1351719104
 21
1039.4700684067
  0
LINE
  5
443
100
AcDbEntity
  8
7_ALL_FEATURES
100
AcDbLine
 62
7
  6
CONTINUOUS
 10
496.1351719104
 20
1038.4700684067
 11
496.1351719104
 21
313.4700684067
  0
LINE
  5
444
100
AcDbEntity
  8
7_ALL_FEATURES
100
AcDbLine
 62
7
  6
CONTINUOUS
 10
496.3351719104
 20
1038.4700684067
 11
496.3351719104
 21
313.4700684067
  0
LINE
  5
445
100
AcDbEntity
  8
7_ALL_FEATURES
100
AcDbLine
 62
7
  6
CONTINUOUS
 10
496.6351719104
 20
1054.326796398
 11
496.6351719104
 21
1039.4700684067
  0
LINE
  5
446
100
AcDbEntity
  8
7_ALL_FEATURES
100
AcDbLine
 62
7
  6
CONTINUOUS
 10
497.0563472132
 20
1038.9700684067
 11
497.0563472132
 21
1038.4700684067
  0
LWPOLYLINE
  5
447
100
AcDbEntity
  8
0
100
AcDbPolyline
 62
2
  6
CONTINUOUS
 90
2
 70
0
 43
0.1500000025
 10
512.028057147
 20
298.5585321723
 10
512.028057147
 20
300.0585437464
  0
LINE
  5
448
100
AcDbEntity
  8
7_ALL_FEATURES
100
AcDbLine
 62
7
  6
CONTINUOUS
 10
573.9276785368
 20
1108.447592185
 11
573.9890724388
 21
1108.7957743051
  0
LINE
  5
449
100
AcDbEntity
  8
7_ALL_FEATURES
100
AcDbLine
 62
7
  6
CONTINUOUS
 10
525.5563472132
 20
1038.9700684067
 11
525.5563472132
 21
1038.4700684067
  0
LINE
  5
44A
100
AcDbEntity
  8
7_ALL_FEATURES
100
AcDbLine
 62
7
  6
CONTINUOUS
 10
525.9351719104
 20
1038.4700684067
 11
525.9351719104
 21
313.4700684067
  0
LINE
  5
44B
100
AcDbEntity
  8
7_ALL_FEATURES
100
AcDbLine
 62
7
  6
CONTINUOUS
 10
526.1351719104
 20
1038.4700684067
 11
526.1351719104
 21
313.4700684067
  0
LINE
  5
44C
100
AcDbEntity
  8
7_ALL_FEATURES
100
AcDbLine
 62
7
  6
CONTINUOUS
 10
527.6351719104
 20
309.4700684067
 11
527.6351719104
 21
313.4700684067
  0
LINE
  5
44D
100
AcDbEntity
  8
7_ALL_FEATURES
100
AcDbLine
 62
7
  6
CONTINUOUS
 10
528.1351719104
 20
309.4700684067
 11
528.1351719104
 21
313.4700684067
  0
LWPOLYLINE
  5
44E
100
AcDbEntity
  8
0
100
AcDbPolyline
 62
2
  6
CONTINUOUS
 90
4
 70
0
 43
0.1500000025
 10
542.6964990596
 20
1125.2243072193
 10
542.6964990596
 20
1125.8671447483
 10
544.1964246238
 20
1125.8671447483
 10
543.3393365885
 20
1122.86720761
  0
LINE
  5
44F
100
AcDbEntity
  8
7_ALL_FEATURES
100
AcDbLine
 62
7
  6
CONTINUOUS
 10
590.8481834092
 20
1084.2826068784
 11
590.9709712132
 21
1084.9789711188
  0
LINE
  5
450
100
AcDbEntity
  8
7_ALL_FEATURES
100
AcDbLine
 62
7
  6
CONTINUOUS
 10
526.120916625
 20
1039.0152803956
 11
525.9775225159
 21
1039.4700684067
  0
LINE
  5
451
100
AcDbEntity
  8
7_ALL_FEATURES
100
AcDbLine
 62
7
  6
CONTINUOUS
 10
496.6351719104
 20
1038.9700684067
 11
496.1351719104
 21
1039.4700684067
  0
LINE
  5
452
100
AcDbEntity
  8
7_ALL_FEATURES
100
AcDbLine
 62
7
  6
CONTINUOUS
 10
590.561395191
 20
1084.6921829006
 11
573.9276785368
 21
1108.447592185
  0
LINE
  5
453
100
AcDbEntity
  8
7_ALL_FEATURES
100
AcDbLine
 62
7
  6
CONTINUOUS
 10
590.9709712132
 20
1084.9789711188
 11
574.337254559
 21
1108.7343804031
  0
LINE
  5
454
100
AcDbEntity
  8
7_ALL_FEATURES
100
AcDbLine
 62
7
  6
CONTINUOUS
 10
496.6351719104
 20
1054.326796398
 11
496.2417778013
 21
1054.5315844091
  0
LWPOLYLINE
  5
455
100
AcDbEntity
  8
0
100
AcDbPolyline
 62
2
  6
CONTINUOUS
 90
5
 70
0
 43
0.1500000025
 10
509.7423457031
 20
300.2728157552
 10
510.0994585503
 20
300.4871092665
 10
510.0994585503
 20
301.1299682979
 10
509.7423457031
 20
301.558533818
 10
508.885171658
 20
301.558533818
  0
LINE
  5
456
100
AcDbEntity
  8
7_ALL_FEATURES
100
AcDbLine
 62
7
  6
CONTINUOUS
 10
496.1351719104
 20
1038.4700684067
 11
526.1351719104
 21
1038.4700684067
  0
LINE
  5
457
100
AcDbEntity
  8
7_ALL_FEATURES
100
AcDbLine
 62
7
  6
CONTINUOUS
 10
496.6351719104
 20
1038.9700684067
 11
525.9775225159
 21
1038.9700684067
  0
LINE
  5
458
100
AcDbEntity
  8
7_ALL_FEATURES
100
AcDbLine
 62
7
  6
CONTINUOUS
 10
496.6351719104
 20
1039.4700684067
 11
525.9775225159
 21
1039.4700684067
  0
LINE
  5
459
100
AcDbEntity
  8
7_ALL_FEATURES
100
AcDbLine
 62
7
  6
CONTINUOUS
 10
590.561395191
 20
1084.6921829006
 11
590.9095773112
 21
1084.6307889986
  0
LINE
  5
45A
100
AcDbEntity
  8
7_ALL_FEATURES
100
AcDbLine
 62
7
  6
CONTINUOUS
 10
574.337254559
 20
1108.7343804031
 11
573.6408903187
 21
1108.8571682071
  0
CIRCLE
  5
45B
100
AcDbEntity
  8
7_ALL_FEATURES
100
AcDbCircle
 62
7
  6
CONTINUOUS
 10
181.2296400354
 20
328.4700684067
 40
4.35
  0
CIRCLE
  5
45C
100
AcDbEntity
  8
7_ALL_FEATURES
100
AcDbCircle
 62
7
  6
CONTINUOUS
 10
251.2296400354
 20
328.4700684067
 40
4.35
  0
CIRCLE
  5
45D
100
AcDbEntity
  8
02___PRT_ALL_AXES
100
AcDbCircle
 62
7
  6
CONTINUOUS
 10
181.2296400354
 20
328.4700684067
 40
4.0
  0
CIRCLE
  5
45E
100
AcDbEntity
  8
02___PRT_ALL_AXES
100
AcDbCircle
 62
7
  6
CONTINUOUS
 10
251.2296400354
 20
328.4700684067
 40
4.0
  0
SPLINE
  5
45F
100
AcDbEntity
  8
7_ALL_FEATURES
100
AcDbSpline
 62
7
  6
CONTINUOUS
 70
0
 71
3
 72
11
 73
7
 74
0
 42
0.0000001
 43
0.0000001
 44
0.0000000001
 40
0.0
 40
0.0
 40
0.0
 40
0.0
 40
0.2665667287
 40
0.5261598911
 40
0.7723746602
 40
1.0
 40
1.0
 40
1.0
 40
1.0
 10
262.4296400354
 20
1082.7052716785
 30
0.0
 10
262.6472106592
 20
1082.7052716785
 30
0.0
 10
263.0770684331
 20
1082.6810245436
 30
0.0
 10
263.6996196104
 20
1082.5727825733
 30
0.0
 10
264.2735494431
 20
1082.3970457988
 30
0.0
 10
264.6252498451
 20
1082.2316232678
 30
0.0
 10
264.785624647
 20
1082.1378327104
 30
0.0
  0
SPLINE
  5
460
100
AcDbEntity
  8
7_ALL_FEATURES
100
AcDbSpline
 62
7
  6
CONTINUOUS
 70
0
 71
3
 72
11
 73
7
 74
0
 42
0.0000001
 43
0.0000001
 44
0.0000000001
 40
0.0
 40
0.0
 40
0.0
 40
0.0
 40
0.2286977422
 40
0.4669063787
 40
0.7223438999
 40
1.0
 40
1.0
 40
1.0
 40
1.0
 10
167.2296400354
 20
1081.2220454607
 30
0.0
 10
167.2296400354
 20
1081.3007583605
 30
0.0
 10
167.2506983069
 20
1081.4621402968
 30
0.0
 10
167.3433165955
 20
1081.6952103655
 30
0.0
 10
167.4935591093
 20
1081.916226166
 30
0.0
 10
167.6237097175
 20
1082.0470004314
 30
0.0
 10
167.6959823512
 20
1082.1095225523
 30
0.0
  0
SPLINE
  5
461
100
AcDbEntity
  8
7_ALL_FEATURES
100
AcDbSpline
 62
7
  6
CONTINUOUS
 70
0
 71
3
 72
9
 73
5
 74
0
 42
0.0000001
 43
0.0000001
 44
0.0000000001
 40
0.0
 40
0.0
 40
0.0
 40
0.0
 40
0.2444130248
 40
1.0
 40
1.0
 40
1.0
 40
1.0
 10
167.6959823512
 20
1082.1095225523
 30
0.0
 10
167.709789112
 20
1082.1214666026
 30
0.0
 10
167.7669798454
 20
1082.1695210662
 30
0.0
 10
167.8268572145
 20
1082.2143556173
 30
0.0
 10
167.8732556921
 20
1082.2464865217
 30
0.0
  0
SPLINE
  5
462
100
AcDbEntity
  8
7_ALL_FEATURES
100
AcDbSpline
 62
7
  6
CONTINUOUS
 70
0
 71
3
 72
11
 73
7
 74
0
 42
0.0000001
 43
0.0000001
 44
0.0000000001
 40
0.0
 40
0.0
 40
0.0
 40
0.0
 40
0.2276253398
 40
0.4738401088
 40
0.7334332713
 40
1.0
 40
1.0
 40
1.0
 40
1.0
 10
167.6736554239
 20
1082.1378327104
 30
0.0
 10
167.8340302257
 20
1082.2316232678
 30
0.0
 10
168.1857306278
 20
1082.3970457988
 30
0.0
 10
168.7596604604
 20
1082.5727825733
 30
0.0
 10
169.3822116378
 20
1082.6810245436
 30
0.0
 10
169.8120694117
 20
1082.7052716785
 30
0.0
 10
170.0296400354
 20
1082.7052716785
 30
0.0
  0
SPLINE
  5
463
100
AcDbEntity
  8
7_ALL_FEATURES
100
AcDbSpline
 62
7
  6
CONTINUOUS
 70
0
 71
3
 72
9
 73
5
 74
0
 42
0.0000001
 43
0.0000001
 44
0.0000000001
 40
0.0
 40
0.0
 40
0.0
 40
0.0
 40
0.2556820082
 40
1.0
 40
1.0
 40
1.0
 40
1.0
 10
264.5860243886
 20
1082.2464865149
 30
0.0
 10
264.6017249764
 20
1082.2356138717
 30
0.0
 10
264.6625936989
 20
1082.1923213762
 30
0.0
 10
264.7212519362
 20
1082.145895816
 30
0.0
 10
264.7632977196
 20
1082.1095225523
 30
0.0
  0
SPLINE
  5
464
100
AcDbEntity
  8
7_ALL_FEATURES
100
AcDbSpline
 62
7
  6
CONTINUOUS
 70
0
 71
3
 72
11
 73
7
 74
0
 42
0.0000001
 43
0.0000001
 44
0.0000000001
 40
0.0
 40
0.0
 40
0.0
 40
0.0
 40
0.2776561001
 40
0.5330936213
 40
0.7713022578
 40
1.0
 40
1.0
 40
1.0
 40
1.0
 10
264.7632977196
 20
1082.1095225523
 30
0.0
 10
264.8355703534
 20
1082.0470004314
 30
0.0
 10
264.9657209615
 20
1081.916226166
 30
0.0
 10
265.1159634753
 20
1081.6952103655
 30
0.0
 10
265.208581764
 20
1081.4621402969
 30
0.0
 10
265.2296400354
 20
1081.3007583605
 30
0.0
 10
265.2296400354
 20
1081.2220454607
 30
0.0
  0
SPLINE
  5
465
100
AcDbEntity
  8
7_ALL_FEATURES
100
AcDbSpline
 62
7
  6
CONTINUOUS
 70
0
 71
3
 72
11
 73
7
 74
0
 42
0.0000001
 43
0.0000001
 44
0.0000000001
 40
0.0
 40
0.0
 40
0.0
 40
0.0
 40
0.2178262156
 40
0.4509987321
 40
0.7101959831
 40
1.0
 40
1.0
 40
1.0
 40
1.0
 10
166.7296400354
 20
1080.8124694385
 30
0.0
 10
166.7296400354
 20
1080.9357927923
 30
0.0
 10
166.7748708978
 20
1081.1928360656
 30
0.0
 10
166.9687180284
 20
1081.5513140002
 30
0.0
 10
167.2752293673
 20
1081.8763020742
 30
0.0
 10
167.532023618
 20
1082.0550034513
 30
0.0
 10
167.6736554239
 20
1082.1378327104
 30
0.0
  0
SPLINE
  5
466
100
AcDbEntity
  8
7_ALL_FEATURES
100
AcDbSpline
 62
7
  6
CONTINUOUS
 70
0
 71
3
 72
9
 73
5
 74
0
 42
0.0000001
 43
0.0000001
 44
0.0000000001
 40
0.0
 40
0.0
 40
0.0
 40
0.0
 40
0.2531200985
 40
1.0
 40
1.0
 40
1.0
 40
1.0
 10
170.0296400354
 20
1068.2018603555
 30
0.0
 10
169.9512799722
 20
1068.2018603555
 30
0.0
 10
169.6417669581
 20
1068.2093176947
 30
0.0
 10
169.3328176643
 20
1068.2463012401
 30
0.0
 10
169.1061086603
 20
1068.2917338421
 30
0.0
  0
SPLINE
  5
467
100
AcDbEntity
  8
7_ALL_FEATURES
100
AcDbSpline
 62
7
  6
CONTINUOUS
 70
0
 71
3
 72
13
 73
9
 74
0
 42
0.0000001
 43
0.0000001
 44
0.0000000001
 40
0.0
 40
0.0
 40
0.0
 40
0.0
 40
0.3021642492
 40
0.5670842651
 40
0.6855253332
 40
0.7956656023
 40
0.8995329249
 40
1.0
 40
1.0
 40
1.0
 40
1.0
 10
168.6401642935
 20
1068.413557851
 30
0.0
 10
168.4383263267
 20
1068.4797306158
 30
0.0
 10
168.0687936641
 20
1068.6360466964
 30
0.0
 10
167.6717452595
 20
1068.9197561633
 30
0.0
 10
167.4422619535
 20
1069.1818911648
 30
0.0
 10
167.3208256806
 20
1069.3832246337
 30
0.0
 10
167.2464564578
 20
1069.5931062421
 30
0.0
 10
167.2296400354
 20
1069.7372503124
 30
0.0
 10
167.2296400354
 20
1069.8078743773
 30
0.0
  0
SPLINE
  5
468
100
AcDbEntity
  8
7_ALL_FEATURES
100
AcDbSpline
 62
7
  6
CONTINUOUS
 70
0
 71
3
 72
13
 73
9
 74
0
 42
0.0000001
 43
0.0000001
 44
0.0000000001
 40
0.0
 40
0.0
 40
0.0
 40
0.0
 40
0.1004670751
 40
0.2043343976
 40
0.3144746668
 40
0.4329157349
 40
0.6978357508
 40
1.0
 40
1.0
 40
1.0
 40
1.0
 10
265.2296400354
 20
1069.8078743773
 30
0.0
 10
265.2296400354
 20
1069.7372503124
 30
0.0
 10
265.212823613
 20
1069.593106242
 30
0.0
 10
265.1384543901
 20
1069.3832246335
 30
0.0
 10
265.0170181171
 20
1069.1818911645
 30
0.0
 10
264.7875348109
 20
1068.9197561629
 30
0.0
 10
264.3904864058
 20
1068.6360466959
 30
0.0
 10
264.0209537429
 20
1068.4797306153
 30
0.0
 10
263.8191157758
 20
1068.4135578505
 30
0.0
  0
SPLINE
  5
469
100
AcDbEntity
  8
7_ALL_FEATURES
100
AcDbSpline
 62
7
  6
CONTINUOUS
 70
0
 71
3
 72
9
 73
5
 74
0
 42
0.0000001
 43
0.0000001
 44
0.0000000001
 40
0.0
 40
0.0
 40
0.0
 40
0.0
 40
0.246021048
 40
1.0
 40
1.0
 40
1.0
 40
1.0
 10
263.353171413
 20
1068.2917338426
 30
0.0
 10
263.2784925372
 20
1068.2767681571
 30
0.0
 10
262.9733894245
 20
1068.2239065503
 30
0.0
 10
262.663058324
 20
1068.2018603555
 30
0.0
 10
262.4296400354
 20
1068.2018603555
 30
0.0
  0
SPLINE
  5
46A
100
AcDbEntity
  8
02___PRT_ALL_AXES
100
AcDbSpline
 62
7
  6
CONTINUOUS
 70
0
 71
3
 72
11
 73
7
 74
0
 42
0.0000001
 43
0.0000001
 44
0.0000000001
 40
0.0
 40
0.0
 40
0.0
 40
0.0
 40
0.2839478458
 40
0.5411793
 40
0.7767576583
 40
1.0
 40
1.0
 40
1.0
 40
1.0
 10
264.6059618962
 20
1073.9170992994
 30
0.0
 10
264.7010585177
 20
1073.9844808631
 30
0.0
 10
264.8729260253
 20
1074.1273507883
 30
0.0
 10
265.0747733197
 20
1074.3773821523
 30
0.0
 10
265.2006845563
 20
1074.6465839829
 30
0.0
 10
265.2296400354
 20
1074.835942876
 30
0.0
 10
265.2296400354
 20
1074.9275746541
 30
0.0
  0
SPLINE
  5
46B
100
AcDbEntity
  8
02___PRT_ALL_AXES
100
AcDbSpline
 62
7
  6
CONTINUOUS
 70
0
 71
3
 72
11
 73
7
 74
0
 42
0.0000001
 43
0.0000001
 44
0.0000000001
 40
0.0
 40
0.0
 40
0.0
 40
0.0
 40
0.2232423417
 40
0.4588207
 40
0.7160521542
 40
1.0
 40
1.0
 40
1.0
 40
1.0
 10
167.2296400354
 20
1074.9275746541
 30
0.0
 10
167.2296400354
 20
1074.835942876
 30
0.0
 10
167.2585955145
 20
1074.6465839829
 30
0.0
 10
167.3845067511
 20
1074.3773821523
 30
0.0
 10
167.5863540455
 20
1074.1273507883
 30
0.0
 10
167.7582215531
 20
1073.9844808631
 30
0.0
 10
167.8533181747
 20
1073.9170992994
 30
0.0
  0
SPLINE
  5
46C
100
AcDbEntity
  8
7_ALL_FEATURES
100
AcDbSpline
 62
7
  6
CONTINUOUS
 70
0
 71
3
 72
11
 73
7
 74
0
 42
0.0000001
 43
0.0000001
 44
0.0000000001
 40
0.0
 40
0.0
 40
0.0
 40
0.0
 40
0.2898040169
 40
0.5490012679
 40
0.7821737844
 40
1.0
 40
1.0
 40
1.0
 40
1.0
 10
264.785624647
 20
1082.1378327104
 30
0.0
 10
264.9272564529
 20
1082.0550034513
 30
0.0
 10
265.1840507035
 20
1081.8763020742
 30
0.0
 10
265.4905620425
 20
1081.5513140002
 30
0.0
 10
265.684409173
 20
1081.1928360657
 30
0.0
 10
265.7296400354
 20
1080.9357927923
 30
0.0
 10
265.7296400354
 20
1080.8124694385
 30
0.0
  0
SPLINE
  5
46D
100
AcDbEntity
  8
7_ALL_FEATURES
100
AcDbSpline
 62
7
  6
CONTINUOUS
 70
0
 71
3
 72
16
 73
12
 74
0
 42
0.0000001
 43
0.0000001
 44
0.0000000001
 40
0.0
 40
0.0
 40
0.0
 40
0.0
 40
0.0448878317
 40
0.090637599
 40
0.187467041
 40
0.2952959597
 40
0.4159952501
 40
0.5492316168
 40
0.6930828334
 40
0.8445568562
 40
1.0
 40
1.0
 40
1.0
 40
1.0
 10
265.7296400354
 20
1069.3982983551
 30
0.0
 10
265.7296400354
 20
1069.3362290595
 30
0.0
 10
265.7187703752
 20
1069.2106362362
 30
0.0
 10
265.6530759547
 20
1068.9587906008
 30
0.0
 10
265.4843891088
 20
1068.6500184777
 30
0.0
 10
265.1703567303
 20
1068.3224935457
 30
0.0
 10
264.755131614
 20
1068.0384125872
 30
0.0
 10
264.2539844099
 20
1067.8066664329
 30
0.0
 10
263.6850623804
 20
1067.6348584026
 30
0.0
 10
263.0693782985
 20
1067.5291766523
 30
0.0
 10
262.6445812807
 20
1067.5054961152
 30
0.0
 10
262.4296400354
 20
1067.5054961152
 30
0.0
  0
SPLINE
  5
46E
100
AcDbEntity
  8
7_ALL_FEATURES
100
AcDbSpline
 62
7
  6
CONTINUOUS
 70
0
 71
3
 72
16
 73
12
 74
0
 42
0.0000001
 43
0.0000001
 44
0.0000000001
 40
0.0
 40
0.0
 40
0.0
 40
0.0
 40
0.1554431438
 40
0.3069171666
 40
0.4507683832
 40
0.5840047499
 40
0.7047040403
 40
0.812532959
 40
0.909362401
 40
0.9551121683
 40
1.0
 40
1.0
 40
1.0
 40
1.0
 10
170.0296400354
 20
1067.5054961152
 30
0.0
 10
169.8146987901
 20
1067.5054961152
 30
0.0
 10
169.3899017724
 20
1067.5291766523
 30
0.0
 10
168.7742176904
 20
1067.6348584026
 30
0.0
 10
168.2052956609
 20
1067.8066664329
 30
0.0
 10
167.7041484569
 20
1068.0384125872
 30
0.0
 10
167.2889233406
 20
1068.3224935457
 30
0.0
 10
166.9748909621
 20
1068.6500184777
 30
0.0
 10
166.8062041162
 20
1068.9587906008
 30
0.0
 10
166.7405096956
 20
1069.2106362362
 30
0.0
 10
166.7296400354
 20
1069.3362290595
 30
0.0
 10
166.7296400354
 20
1069.3982983551
 30
0.0
  0
ENDSEC
  0
SECTION
  2
OBJECTS
  0
DICTIONARY
  5
C
100
AcDbDictionary
280
0
281
1
  3
ACAD_GROUP
350
D
  3
ACAD_MLINESTYLE
350
17
  3
ACAD_LAYOUT
350
1A
  3
ACAD_PLOTSETTINGS
350
19
  3
ACAD_PLOTSTYLENAME
350
E
  3
ACAD_TABLESTYLE
350
       46F
  0
DICTIONARY
  5
D
102
{ACAD_REACTORS
330
C
102
}
100
AcDbDictionary
280
0
281
1
  0
ACDBDICTIONARYWDFLT
  5
E
102
{ACAD_REACTORS
330
C
102
}
100
AcDbDictionary
281
1
  3
Normal
350
F
100
AcDbDictionaryWithDefault
340
F
  0
DICTIONARY
  5
17
102
{ACAD_REACTORS
330
C
102
}
100
AcDbDictionary
280
0
281
1
  3
Standard
350
18
  0
DICTIONARY
  5
46F
330
C
100
AcDbDictionary
281
1
  3
Standard
350
       472
  3
Standard1
350
       473
  0
DICTIONARY
  5
19
102
{ACAD_REACTORS
330
C
102
}
100
AcDbDictionary
281
1
  0
DICTIONARY
  5
1A
102
{ACAD_REACTORS
330
C
102
}
100
AcDbDictionary
281
1
  3
Model
350
470
  3
Layout1
350
471
  0
ACDBPLACEHOLDER
  5
F
102
{ACAD_REACTORS
330
E
102
}
  0
MLINESTYLE
  5
18
102
{ACAD_REACTORS
330
17
102
}
100
AcDbMlineStyle
  2
STANDARD
 70
0
  3

 62
256
 51
90.0
 52
90.0
 71
2
 49
0.5
 62
256
  6
BYLAYER
 49
-0.5
 62
256
  6
BYLAYER
  0
LAYOUT
  5
470
102
{ACAD_REACTORS
330
1A
102
}
100
AcDbPlotSettings
  1

  2
none_device
  4

  6

 40
0.0
 41
0.0
 42
0.0
 43
0.0
 44
841.0
 45
1189.0
 46
0.0
 47
0.0
 48
0.0
 49
0.0
140
0.0
141
0.0
142
1.0
143
1.0
 70
1024
 72
1
 73
0
 74
0
  7

 75
0
147
1.0
148
0.0
149
0.0
100
AcDbLayout
  1
Model
 70
0
 71
0
 10
0.0
 20
0.0
 11
841.0
 21
1189.0
 12
0.0
 22
0.0
 32
0.0
 14
0.0
 24
0.0
 34
0.0
 15
0.0
 25
0.0
 35
0.0
146
0.0
 13
0.0
 23
0.0
 33
0.0
 16
1.0
 26
0.0
 36
0.0
 17
0.0
 27
1.0
 37
0.0
 76
0
330
21E
345
0
346
0
  0
LAYOUT
  5
471
102
{ACAD_REACTORS
330
1A
102
}
100
AcDbPlotSettings
  1

  2
none_device
  4

  6

 40
0.0
 41
0.0
 42
0.0
 43
0.0
 44
841.0
 45
1189.0
 46
0.0
 47
0.0
 48
0.0
 49
0.0
140
0.0
141
0.0
142
1.0
143
1.0
 70
0
 72
1
 73
0
 74
0
  7

 75
0
147
1.0
148
0.0
149
0.0
100
AcDbLayout
  1
Layout1
 70
0
 71
1
 10
0.0
 20
0.0
 11
841.0
 21
1189.0
 12
0.0
 22
0.0
 32
0.0
 14
0.0
 24
0.0
 34
0.0
 15
0.0
 25
0.0
 35
0.0
146
0.0
 13
0.0
 23
0.0
 33
0.0
 16
1.0
 26
0.0
 36
0.0
 17
0.0
 27
1.0
 37
0.0
 76
0
330
21F
345
0
346
0
  0
TABLESTYLE
  5
472
102
{ACAD_REACTORS
330
46F
330
3B0
102
}
330
46F
100
AcDbTableStyle
  3
Standard
 70
0
 71
0
 40
0.06
 41
0.06
280
1
281
1
  7
Standard
140
0.18
170
1
 62
0
 63
7
283
0
  7
Standard
140
0.18
170
1
 62
0
 63
7
283
0
  7
Standard
140
0.18
170
1
 62
0
 63
7
283
0
  0
TABLESTYLE
  5
473
102
{ACAD_REACTORS
330
46F
102
}
330
46F
100
AcDbTableStyle
  3
Standard1
 70
1
 71
0
 40
0.06
 41
0.06
280
1
281
1
  7
Standard
140
0.18
170
1
 62
0
 63
7
283
0
  7
Standard
140
0.18
170
1
 62
0
 63
7
283
0
  7
Standard
140
0.18
170
1
 62
0
 63
7
283
0
  0
ENDSEC
  0
EOF
