  0
SECTION
  2
HEADER
  9
$ACADVER
  1
AC1027
  9
$ACADMAINTVER
 70
     8
  9
$DWGCODEPAGE
  3
ANSI_1252
  9
$REQUIREDVERSIONS
160
                 0
  9
$INSBASE
 10
0.0
 20
0.0
 30
0.0
  9
$EXTMIN
 10
0.0
 20
0.0
 30
0.0
  9
$EXTMAX
 10
420.0
 20
297.0
 30
0.0
  9
$LIMMIN
 10
0.0
 20
0.0
  9
$LIMMAX
 10
420.0
 20
297.0
  9
$ORTHOMODE
 70
     0
  9
$REGENMODE
 70
     1
  9
$FILLMODE
 70
     1
  9
$QTEXTMODE
 70
     0
  9
$MIRRTEXT
 70
     1
  9
$LTSCALE
 40
23.1
  9
$ATTMODE
 70
     1
  9
$TEXTSIZE
 40
0.2
  9
$TRACEWID
 40
0.05
  9
$TEXTSTYLE
  7
STANDARD
  9
$CLAYER
  8
0
  9
$CELTYPE
  6
BYLAYER
  9
$CECOLOR
 62
   256
  9
$CELTSCALE
 40
1.0
  9
$DISPSILH
 70
     0
  9
$DIMSCALE
 40
1.0
  9
$DIMASZ
 40
2.5
  9
$DIMEXO
 40
0.75
  9
$DIMDLI
 40
15.96
  9
$DIMRND
 40
0.0
  9
$DIMDLE
 40
0.0
  9
$DIMEXE
 40
0.75
  9
$DIMTP
 40
0.01
  9
$DIMTM
 40
0.01
  9
$DIMTXT
 40
3.0
  9
$DIMCEN
 40
3.78
  9
$DIMTSZ
 40
0.0
  9
$DIMTOL
 70
     1
  9
$DIMLIM
 70
     0
  9
$DIMTIH
 70
     1
  9
$DIMTOH
 70
     1
  9
$DIMSE1
 70
     0
  9
$DIMSE2
 70
     0
  9
$DIMTAD
 70
     0
  9
$DIMZIN
 70
     0
  9
$DIMBLK
  1
CLOSED
  9
$DIMASO
 70
     1
  9
$DIMSHO
 70
     1
  9
$DIMPOST
  1

  9
$DIMAPOST
  1

  9
$DIMALT
 70
     0
  9
$DIMALTD
 70
     2
  9
$DIMALTF
 40
25.4
  9
$DIMLFAC
 40
1.0
  9
$DIMTOFL
 70
     0
  9
$DIMTVP
 40
0.0
  9
$DIMTIX
 70
     0
  9
$DIMSOXD
 70
     0
  9
$DIMSAH
 70
     0
  9
$DIMBLK1
  1

  9
$DIMBLK2
  1

  9
$DIMSTYLE
  2
STANDARD
  9
$DIMCLRD
 70
     0
  9
$DIMCLRE
 70
     0
  9
$DIMCLRT
 70
     0
  9
$DIMTFAC
 40
1.0
  9
$DIMGAP
 40
0.625
  9
$DIMJUST
 70
     0
  9
$DIMSD1
 70
     0
  9
$DIMSD2
 70
     0
  9
$DIMTOLJ
 70
     1
  9
$DIMTZIN
 70
     0
  9
$DIMALTZ
 70
     0
  9
$DIMALTTZ
 70
     0
  9
$DIMUPT
 70
     0
  9
$DIMDEC
 70
     4
  9
$DIMTDEC
 70
     4
  9
$DIMALTU
 70
     2
  9
$DIMALTTD
 70
     2
  9
$DIMTXSTY
  7
STANDARD
  9
$DIMAUNIT
 70
     0
  9
$DIMADEC
 70
     0
  9
$DIMALTRND
 40
0.0
  9
$DIMAZIN
 70
     0
  9
$DIMDSEP
 70
    44
  9
$DIMATFIT
 70
     3
  9
$DIMFRAC
 70
     0
  9
$DIMLDRBLK
  1

  9
$DIMLUNIT
 70
     2
  9
$DIMLWD
 70
    -2
  9
$DIMLWE
 70
    -2
  9
$DIMTMOVE
 70
     0
  9
$DIMFXL
 40
1.0
  9
$DIMFXLON
 70
     0
  9
$DIMJOGANG
 40
0.785398
  9
$DIMTFILL
 70
     0
  9
$DIMTFILLCLR
 70
     0
  9
$DIMARCSYM
 70
     0
  9
$DIMLTYPE
  6

  9
$DIMLTEX1
  6

  9
$DIMLTEX2
  6

  9
$DIMTXTDIRECTION
 70
     0
  9
$LUNITS
 70
     2
  9
$LUPREC
 70
     4
  9
$SKETCHINC
 40
0.1
  9
$FILLETRAD
 40
0.5
  9
$AUNITS
 70
     0
  9
$AUPREC
 70
     0
  9
$MENU
  1
.
  9
$ELEVATION
 40
0.0
  9
$PELEVATION
 40
0.0
  9
$THICKNESS
 40
0.0
  9
$LIMCHECK
 70
     0
  9
$CHAMFERA
 40
0.0
  9
$CHAMFERB
 40
0.0
  9
$CHAMFERC
 40
0.0
  9
$CHAMFERD
 40
0.0
  9
$SKPOLY
 70
     0
  9
$TDCREATE
 40
2447893.083333333
  9
$TDUCREATE
 40
0.0
  9
$TDUPDATE
 40
2460146.496330093
  9
$TDUUPDATE
 40
2460146.412996759
  9
$TDINDWG
 40
0.0
  9
$TDUSRTIMER
 40
0.0
  9
$USRTIMER
 70
     1
  9
$ANGBASE
 50
0.0
  9
$ANGDIR
 70
     0
  9
$PDMODE
 70
     3
  9
$PDSIZE
 40
0.3125
  9
$PLINEWID
 40
0.0
  9
$SPLFRAME
 70
     0
  9
$SPLINETYPE
 70
     6
  9
$SPLINESEGS
 70
     8
  9
$HANDSEED
  5
3DB
  9
$SURFTAB1
 70
     6
  9
$SURFTAB2
 70
     6
  9
$SURFTYPE
 70
     6
  9
$SURFU
 70
     6
  9
$SURFV
 70
     6
  9
$UCSBASE
  2

  9
$UCSNAME
  2

  9
$UCSORG
 10
0.0
 20
0.0
 30
0.0
  9
$UCSXDIR
 10
1.0
 20
0.0
 30
0.0
  9
$UCSYDIR
 10
0.0
 20
1.0
 30
0.0
  9
$UCSORTHOREF
  2

  9
$UCSORTHOVIEW
 70
     0
  9
$UCSORGTOP
 10
0.0
 20
0.0
 30
0.0
  9
$UCSORGBOTTOM
 10
0.0
 20
0.0
 30
0.0
  9
$UCSORGLEFT
 10
0.0
 20
0.0
 30
0.0
  9
$UCSORGRIGHT
 10
0.0
 20
0.0
 30
0.0
  9
$UCSORGFRONT
 10
0.0
 20
0.0
 30
0.0
  9
$UCSORGBACK
 10
0.0
 20
0.0
 30
0.0
  9
$PUCSBASE
  2

  9
$PUCSNAME
  2

  9
$PUCSORG
 10
0.0
 20
0.0
 30
0.0
  9
$PUCSXDIR
 10
1.0
 20
0.0
 30
0.0
  9
$PUCSYDIR
 10
0.0
 20
1.0
 30
0.0
  9
$PUCSORTHOREF
  2

  9
$PUCSORTHOVIEW
 70
     0
  9
$PUCSORGTOP
 10
0.0
 20
0.0
 30
0.0
  9
$PUCSORGBOTTOM
 10
0.0
 20
0.0
 30
0.0
  9
$PUCSORGLEFT
 10
0.0
 20
0.0
 30
0.0
  9
$PUCSORGRIGHT
 10
0.0
 20
0.0
 30
0.0
  9
$PUCSORGFRONT
 10
0.0
 20
0.0
 30
0.0
  9
$PUCSORGBACK
 10
0.0
 20
0.0
 30
0.0
  9
$USERI1
 70
     0
  9
$USERI2
 70
     0
  9
$USERI3
 70
     0
  9
$USERI4
 70
     0
  9
$USERI5
 70
     0
  9
$USERR1
 40
0.0
  9
$USERR2
 40
0.0
  9
$USERR3
 40
0.0
  9
$USERR4
 40
0.0
  9
$USERR5
 40
0.0
  9
$WORLDVIEW
 70
     1
  9
$SHADEDGE
 70
     3
  9
$SHADEDIF
 70
    70
  9
$TILEMODE
 70
     1
  9
$MAXACTVP
 70
    64
  9
$PINSBASE
 10
0.0
 20
0.0
 30
0.0
  9
$PLIMCHECK
 70
     0
  9
$PEXTMIN
 10
1.000000E+20
 20
1.000000E+20
 30
1.000000E+20
  9
$PEXTMAX
 10
-1.000000E+20
 20
-1.000000E+20
 30
-1.000000E+20
  9
$PLIMMIN
 10
0.0
 20
0.0
  9
$PLIMMAX
 10
12.0
 20
9.0
  9
$UNITMODE
 70
     0
  9
$VISRETAIN
 70
     1
  9
$PLINEGEN
 70
     0
  9
$PSLTSCALE
 70
     0
  9
$TREEDEPTH
 70
  3020
  9
$CMLSTYLE
  2

  9
$CMLJUST
 70
     0
  9
$CMLSCALE
 40
1.0
  9
$PROXYGRAPHICS
 70
     1
  9
$MEASUREMENT
 70
     1
  9
$CELWEIGHT
370
    -1
  9
$ENDCAPS
280
     0
  9
$JOINSTYLE
280
     0
  9
$LWDISPLAY
290
     0
  9
$INSUNITS
 70
     4
  9
$HYPERLINKBASE
  1

  9
$STYLESHEET
  1

  9
$XEDIT
290
     1
  9
$CEPSNTYPE
380
     0
  9
$PSTYLEMODE
290
     1
  9
$FINGERPRINTGUID
  2
{74801391-9D83-440D-B790-EE50C49B5FA5}
  9
$VERSIONGUID
  2
{FAEB1C32-E019-11D5-929B-00C0DF256EC4}
  9
$EXTNAMES
290
     1
  9
$PSVPSCALE
 40
0.0
  9
$OLESTARTUP
290
     0
  9
$SORTENTS
280
   127
  9
$INDEXCTL
280
     0
  9
$HIDETEXT
280
     1
  9
$XCLIPFRAME
280
     2
  9
$HALOGAP
280
     0
  9
$OBSCOLOR
 70
   257
  9
$OBSLTYPE
280
     0
  9
$INTERSECTIONDISPLAY
280
     0
  9
$INTERSECTIONCOLOR
 70
   257
  9
$DIMASSOC
280
     2
  9
$PROJECTNAME
  1

  9
$CAMERADISPLAY
290
     0
  9
$LENSLENGTH
 40
50.0
  9
$CAMERAHEIGHT
 40
0.0
  9
$STEPSPERSEC
 40
2.0
  9
$STEPSIZE
 40
6.0
  9
$3DDWFPREC
 40
2.0
  9
$PSOLWIDTH
 40
0.25
  9
$PSOLHEIGHT
 40
4.0
  9
$LOFTANG1
 40
1.570796
  9
$LOFTANG2
 40
1.570796
  9
$LOFTMAG1
 40
0.0
  9
$LOFTMAG2
 40
0.0
  9
$LOFTPARAM
 70
     7
  9
$LOFTNORMALS
280
     1
  9
$LATITUDE
 40
37.795
  9
$LONGITUDE
 40
-122.394
  9
$NORTHDIRECTION
 40
0.0
  9
$TIMEZONE
 70
 -8000
  9
$LIGHTGLYPHDISPLAY
280
     1
  9
$TILEMODELIGHTSYNCH
280
     1
  9
$SOLIDHIST
280
     1
  9
$SHOWHIST
280
     1
  9
$DWFFRAME
280
     2
  9
$DGNFRAME
280
     2
  9
$REALWORLDSCALE
290
     1
  9
$INTERFERECOLOR
 62
   256
  9
$CSHADOW
280
     0
  9
$SHADOWPLANELOCATION
 40
0.0
  0
ENDSEC
  0
SECTION
  2
CLASSES
  0
CLASS
  1
ACDBDICTIONARYWDFLT
  2
AcDbDictionaryWithDefault
  3
ObjectDBX Classes
 90
        0
 91
        6
280
     0
281
     0
  0
CLASS
  1
ACDBPLACEHOLDER
  2
AcDbPlaceHolder
  3
ObjectDBX Classes
 90
        0
 91
        1
280
     0
281
     0
  0
CLASS
  1
LAYOUT
  2
AcDbLayout
  3
ObjectDBX Classes
 90
        0
 91
        1
280
     0
281
     0
  0
CLASS
  1
TABLESTYLE
  2
AcDbTableStyle
  3
ObjectDBX Classes
 90
     4095
 91
        5
280
     0
281
     0
  0
CLASS
  1
ACAD_TABLE
  2
AcDbTable
  3
ObjectDBX Classes
 90
     1025
 91
        5
280
     0
281
     1
  0
CLASS
  1
SCALE
  2
AcDbScale
  3
ObjectDBX Classes
 90
     1153
 91
        5
280
     0
281
     0
  0
CLASS
  1
TABLEGEOMETRY
  2
AcDbTableGeometry
  3
ObjectDBX Classes
 90
     1152
 91
        4
280
     0
281
     0
  0
CLASS
  1
VISUALSTYLE
  2
AcDbVisualStyle
  3
ObjectDBX Classes
 90
     4095
 91
        5
280
     0
281
     0
  0
CLASS
  1
MATERIAL
  2
AcDbMaterial
  3
ObjectDBX Classes
 90
     1153
 91
        5
280
     0
281
     0
  0
CLASS
  1
SUN
  2
AcDbSun
  3
SCENEOE
 90
     1153
 91
        5
280
     0
281
     0
  0
CLASS
  1
CSACDOCUMENTOPTIONS
  2
CDocDataContainer
  3
"DERU003_CSAPP"
 90
     4095
 91
        4
280
     0
281
     0
  0
CLASS
  1
TABLECONTENT
  2
AcDbTableContent
  3
ObjectDBX Classes
 90
     1152
 91
        4
280
     0
281
     0
  0
CLASS
  1
DICTIONARYVAR
  2
AcDbDictionaryVar
  3
ObjectDBX Classes
 90
        0
 91
        4
280
     0
281
     0
  0
CLASS
  1
CELLSTYLEMAP
  2
AcDbCellStyleMap
  3
ObjectDBX Classes
 90
     1152
 91
        4
280
     0
281
     0
  0
ENDSEC
  0
SECTION
  2
TABLES
  0
TABLE
  2
VPORT
  5
8
330
0
100
AcDbSymbolTable
 70
     1
  0
VPORT
  5
1F4
330
8
100
AcDbSymbolTableRecord
100
AcDbViewportTableRecord
  2
*ACTIVE
 70
     0
 10
0.0
 20
0.0
 11
1.0
 21
1.0
 12
210.0
 22
148.5
 13
0.0
 23
0.0
 14
1.0
 24
1.0
 15
0.0
 25
0.0
 16
0.0
 26
0.0
 36
1.0
 17
0.0
 27
0.0
 37
0.0
 40
297.0
 41
2.019036
 42
50.0
 43
0.0
 44
0.0
 50
0.0
 51
0.0
 71
    16
 72
   100
 73
     1
 74
     1
 75
     0
 76
     0
 77
     0
 78
     0
281
     0
 65
     1
110
0.0
120
0.0
130
0.0
111
1.0
121
0.0
131
0.0
112
0.0
122
1.0
132
0.0
 79
     0
146
0.0
 60
     3
 61
     5
292
     1
282
     1
141
0.0
142
0.0
 63
   256
361
3C6
  0
ENDTAB
  0
TABLE
  2
LTYPE
  5
5
330
0
100
AcDbSymbolTable
 70
     6
  0
LTYPE
  5
14
330
5
100
AcDbSymbolTableRecord
100
AcDbLinetypeTableRecord
  2
BYBLOCK
 70
     0
  3

 72
    65
 73
     0
 40
0.0
  0
LTYPE
  5
15
330
5
100
AcDbSymbolTableRecord
100
AcDbLinetypeTableRecord
  2
BYLAYER
 70
     0
  3

 72
    65
 73
     0
 40
0.0
  0
LTYPE
  5
16
330
5
100
AcDbSymbolTableRecord
100
AcDbLinetypeTableRecord
  2
CONTINUOUS
 70
     0
  3
Solid line
 72
    65
 73
     0
 40
0.0
  0
LTYPE
  5
1F5
330
5
100
AcDbSymbolTableRecord
100
AcDbLinetypeTableRecord
  2
CENTER
 70
     0
  3
____ _ ____ _ ____ _ ____ _ ____ _ ____ _ ____
 72
    65
 73
     4
 40
0.6
 49
0.375
 74
     0
 49
-0.075
 74
     0
 49
0.075
 74
     0
 49
-0.075
 74
     0
  0
LTYPE
  5
1F6
330
5
100
AcDbSymbolTableRecord
100
AcDbLinetypeTableRecord
  2
HIDDEN
 70
     0
  3
- - - - - - - - - - - - - - - - - - - -
 72
    65
 73
     2
 40
0.2
 49
0.1
 74
     0
 49
-0.1
 74
     0
  0
LTYPE
  5
1F7
330
5
100
AcDbSymbolTableRecord
100
AcDbLinetypeTableRecord
  2
PHANTOM
 70
     0
  3
_____ _ _ _____ _ _ _____ _ _ _____
 72
    65
 73
     6
 40
0.8
 49
0.45
 74
     0
 49
-0.05
 74
     0
 49
0.1
 74
     0
 49
-0.05
 74
     0
 49
0.1
 74
     0
 49
-0.05
 74
     0
  0
LTYPE
  5
1F8
330
5
100
AcDbSymbolTableRecord
100
AcDbLinetypeTableRecord
  2
DOT
 70
     0
  3
. . . . . . . . . . . . . . . . . . . .
 72
    65
 73
     2
 40
0.2
 49
0.1
 74
     0
 49
-0.1
 74
     0
  0
LTYPE
  5
1F9
330
5
100
AcDbSymbolTableRecord
100
AcDbLinetypeTableRecord
  2
DASHED
 70
     0
  3
- - - - - - - - - - - - - - - - - - - -
 72
    65
 73
     2
 40
0.2
 49
0.1
 74
     0
 49
-0.1
 74
     0
  0
ENDTAB
  0
TABLE
  2
LAYER
  5
2
330
0
100
AcDbSymbolTable
 70
    23
  0
LAYER
  5
10
330
2
100
AcDbSymbolTableRecord
100
AcDbLayerTableRecord
  2
0
 70
     0
 62
     7
  6
CONTINUOUS
370
    -3
390
F
347
3C0
348
0
  0
LAYER
  5
1FA
330
2
100
AcDbSymbolTableRecord
100
AcDbLayerTableRecord
  2
DEFAULT_1
 70
     0
 62
     7
  6
CENTER
370
    -3
390
F
347
3C0
348
0
  0
LAYER
  5
1FB
330
2
100
AcDbSymbolTableRecord
100
AcDbLayerTableRecord
  2
DEFAULT_2
 70
     0
 62
     8
  6
HIDDEN
370
    -3
390
F
347
3C0
348
0
  0
LAYER
  5
1FC
330
2
100
AcDbSymbolTableRecord
100
AcDbLayerTableRecord
  2
DEFAULT_3
 70
     0
 62
     7
  6
PHANTOM
370
    -3
390
F
347
3C0
348
0
  0
LAYER
  5
1FD
330
2
100
AcDbSymbolTableRecord
100
AcDbLayerTableRecord
  2
01___PRT_ALL_DTM_PLN
 70
     0
 62
     7
  6
CONTINUOUS
370
    -3
390
F
347
3C0
348
0
  0
LAYER
  5
1FE
330
2
100
AcDbSymbolTableRecord
100
AcDbLayerTableRecord
  2
01___PRT_DEF_DTM_PLN
 70
     0
 62
     7
  6
CONTINUOUS
370
    -3
390
F
347
3C0
348
0
  0
LAYER
  5
1FF
330
2
100
AcDbSymbolTableRecord
100
AcDbLayerTableRecord
  2
02___PRT_ALL_AXES
 70
     0
 62
     7
  6
CONTINUOUS
370
    -3
390
F
347
3C0
348
0
  0
LAYER
  5
200
330
2
100
AcDbSymbolTableRecord
100
AcDbLayerTableRecord
  2
03___PRT_ALL_CURVES
 70
     0
 62
     7
  6
CONTINUOUS
370
    -3
390
F
347
3C0
348
0
  0
LAYER
  5
201
330
2
100
AcDbSymbolTableRecord
100
AcDbLayerTableRecord
  2
04___PRT_ALL_DTM_PNT
 70
     0
 62
     7
  6
CONTINUOUS
370
    -3
390
F
347
3C0
348
0
  0
LAYER
  5
202
330
2
100
AcDbSymbolTableRecord
100
AcDbLayerTableRecord
  2
05___PRT_ALL_DTM_CSYS
 70
     0
 62
     7
  6
CONTINUOUS
370
    -3
390
F
347
3C0
348
0
  0
LAYER
  5
203
330
2
100
AcDbSymbolTableRecord
100
AcDbLayerTableRecord
  2
05___PRT_DEF_DTM_CSYS
 70
     0
 62
     7
  6
CONTINUOUS
370
    -3
390
F
347
3C0
348
0
  0
LAYER
  5
204
330
2
100
AcDbSymbolTableRecord
100
AcDbLayerTableRecord
  2
06___PRT_ALL_SURFS
 70
     0
 62
     7
  6
CONTINUOUS
370
    -3
390
F
347
3C0
348
0
  0
LAYER
  5
205
330
2
100
AcDbSymbolTableRecord
100
AcDbLayerTableRecord
  2
1_ALL_PLANES
 70
     0
 62
     7
  6
CONTINUOUS
370
    -3
390
F
347
3C0
348
0
  0
LAYER
  5
206
330
2
100
AcDbSymbolTableRecord
100
AcDbLayerTableRecord
  2
2_ALL_CSYS
 70
     0
 62
     7
  6
CONTINUOUS
370
    -3
390
F
347
3C0
348
0
  0
LAYER
  5
207
330
2
100
AcDbSymbolTableRecord
100
AcDbLayerTableRecord
  2
3_ALL_AXES
 70
     0
 62
     7
  6
CONTINUOUS
370
    -3
390
F
347
3C0
348
0
  0
LAYER
  5
208
330
2
100
AcDbSymbolTableRecord
100
AcDbLayerTableRecord
  2
4_ALL_POINTS
 70
     0
 62
     7
  6
CONTINUOUS
370
    -3
390
F
347
3C0
348
0
  0
LAYER
  5
209
330
2
100
AcDbSymbolTableRecord
100
AcDbLayerTableRecord
  2
5_ALL_CURVES
 70
     0
 62
     7
  6
CONTINUOUS
370
    -3
390
F
347
3C0
348
0
  0
LAYER
  5
20A
330
2
100
AcDbSymbolTableRecord
100
AcDbLayerTableRecord
  2
5__COSTRUZIONE
 70
     0
 62
     7
  6
CONTINUOUS
370
    -3
390
F
347
3C0
348
0
  0
LAYER
  5
20B
330
2
100
AcDbSymbolTableRecord
100
AcDbLayerTableRecord
  2
6_ALL_SURFS
 70
     0
 62
     7
  6
CONTINUOUS
370
    -3
390
F
347
3C0
348
0
  0
LAYER
  5
20C
330
2
100
AcDbSymbolTableRecord
100
AcDbLayerTableRecord
  2
7_ALL_FEATURES
 70
     0
 62
     7
  6
CONTINUOUS
370
    -3
390
F
347
3C0
348
0
  0
LAYER
  5
20D
330
2
100
AcDbSymbolTableRecord
100
AcDbLayerTableRecord
  2
9_SOLID
 70
     0
 62
     7
  6
CONTINUOUS
370
    -3
390
F
347
3C0
348
0
  0
LAYER
  5
20E
330
2
100
AcDbSymbolTableRecord
100
AcDbLayerTableRecord
  2
CLOSED_SHELL
 70
     0
 62
     7
  6
CONTINUOUS
370
    -3
390
F
347
3C0
348
0
  0
LAYER
  5
20F
330
2
100
AcDbSymbolTableRecord
100
AcDbLayerTableRecord
  2
XXX_SOLIDO
 70
     0
 62
     7
  6
CONTINUOUS
370
    -3
390
F
347
3C0
348
0
  0
ENDTAB
  0
TABLE
  2
STYLE
  5
3
330
0
100
AcDbSymbolTable
 70
     4
  0
STYLE
  5
11
330
3
100
AcDbSymbolTableRecord
100
AcDbTextStyleTableRecord
  2
STANDARD
 70
     0
 40
0.0
 41
1.0
 50
0.0
 71
     0
 42
0.2
  3
arial.ttf
  4

  0
STYLE
  5
210
330
3
100
AcDbSymbolTableRecord
100
AcDbTextStyleTableRecord
  2
TEXTSTYLE_1
 70
     0
 40
0.0
 41
0.8
 50
0.0
 71
     0
 42
0.2
  3
gdt
  4

  0
STYLE
  5
211
330
3
100
AcDbSymbolTableRecord
100
AcDbTextStyleTableRecord
  2
TEXTSTYLE_2
 70
     0
 40
0.0
 41
0.9
 50
0.0
 71
     0
 42
0.2
  3
txt
  4

  0
STYLE
  5
212
330
3
100
AcDbSymbolTableRecord
100
AcDbTextStyleTableRecord
  2
TEXTSTYLE_3
 70
     0
 40
0.0
 41
0.9
 50
0.0
 71
     0
 42
0.2
  3
txt
  4

  0
ENDTAB
  0
TABLE
  2
VIEW
  5
6
330
0
100
AcDbSymbolTable
 70
     0
  0
ENDTAB
  0
TABLE
  2
UCS
  5
7
330
0
100
AcDbSymbolTable
 70
     0
  0
ENDTAB
  0
TABLE
  2
APPID
  5
9
330
0
100
AcDbSymbolTable
 70
     6
  0
APPID
  5
213
330
9
100
AcDbSymbolTableRecord
100
AcDbRegAppTableRecord
  2
ACAD
 70
     0
  0
APPID
  5
3C1
330
9
100
AcDbSymbolTableRecord
100
AcDbRegAppTableRecord
  2
MCS_DIM1
 70
     0
  0
APPID
  5
3C2
330
9
100
AcDbSymbolTableRecord
100
AcDbRegAppTableRecord
  2
McsXdata5
 70
     0
  0
APPID
  5
3C5
330
9
100
AcDbSymbolTableRecord
100
AcDbRegAppTableRecord
  2
MCS_DOCUMENT_ID
 70
     0
  0
APPID
  5
3CB
330
9
100
AcDbSymbolTableRecord
100
AcDbRegAppTableRecord
  2
MCS_PARAMS_DATA
 70
     0
  0
APPID
  5
3CD
330
9
100
AcDbSymbolTableRecord
100
AcDbRegAppTableRecord
  2
MC_VERSION_DATA
 70
     0
  0
ENDTAB
  0
TABLE
  2
DIMSTYLE
  5
A
330
0
100
AcDbSymbolTable
 70
     2
100
AcDbDimStyleTable
  0
DIMSTYLE
105
21C
330
A
100
AcDbSymbolTableRecord
100
AcDbDimStyleTableRecord
  2
STANDARD
 70
     0
 41
2.5
 42
0.75
 44
0.75
 47
0.01
 48
0.01
 71
     1
 73
     0
 74
     0
 77
     1
 78
     8
 79
     2
140
3.0
147
0.625
171
     1
178
     0
179
     2
271
     2
272
     2
278
    44
284
     8
340
11
341
216
342
216
343
216
344
216
  0
DIMSTYLE
105
21D
330
A
100
AcDbSymbolTableRecord
100
AcDbDimStyleTableRecord
  2
DIMSTYLE_1
 70
     0
 41
2.5
 42
0.75
 44
0.75
 47
0.3
 48
0.3
 73
     0
 74
     0
 77
     1
 78
     8
 79
     2
140
3.0
147
0.75
171
     1
178
     0
179
     2
271
     2
272
     2
278
    44
284
     8
340
11
341
216
342
216
343
216
344
216
  0
ENDTAB
  0
TABLE
  2
BLOCK_RECORD
  5
1
330
0
100
AcDbSymbolTable
 70
     6
  0
BLOCK_RECORD
  5
214
330
1
100
AcDbSymbolTableRecord
100
AcDbBlockTableRecord
  2
*Model_Space
340
37B
 70
     0
280
     1
281
     0
  0
BLOCK_RECORD
  5
215
330
1
100
AcDbSymbolTableRecord
100
AcDbBlockTableRecord
  2
*Paper_Space
340
37C
 70
     0
280
     1
281
     0
  0
BLOCK_RECORD
  5
216
330
1
100
AcDbSymbolTableRecord
100
AcDbBlockTableRecord
  2
_CLOSED
340
0
102
{BLKREFS
331
266
331
267
331
26F
331
270
331
278
331
279
102
}
 70
     0
280
     1
281
     0
  0
BLOCK_RECORD
  5
217
330
1
100
AcDbSymbolTableRecord
100
AcDbBlockTableRecord
  2
*D1
340
0
 70
     0
280
     1
281
     0
  0
BLOCK_RECORD
  5
218
330
1
100
AcDbSymbolTableRecord
100
AcDbBlockTableRecord
  2
*D2
340
0
 70
     0
280
     1
281
     0
  0
BLOCK_RECORD
  5
219
330
1
100
AcDbSymbolTableRecord
100
AcDbBlockTableRecord
  2
*D3
340
0
 70
     0
280
     1
281
     0
  0
BLOCK_RECORD
  5
21A
330
1
100
AcDbSymbolTableRecord
100
AcDbBlockTableRecord
  2
LOGO2_BL0
340
0
102
{BLKREFS
331
29F
102
}
 70
     0
280
     1
281
     0
  0
BLOCK_RECORD
  5
21B
330
1
100
AcDbSymbolTableRecord
100
AcDbBlockTableRecord
  2
*T5
340
0
102
{BLKREFS
331
2A0
102
}
 70
     0
280
     1
281
     0
  0
ENDTAB
  0
ENDSEC
  0
SECTION
  2
BLOCKS
  0
BLOCK
  5
20
330
214
100
AcDbEntity
  8
0
100
AcDbBlockBegin
  2
*Model_Space
 70
     0
 10
0.0
 20
0.0
 30
0.0
  3
*Model_Space
  1
*Model_Space
  0
ENDBLK
  5
21
330
214
100
AcDbEntity
  8
0
100
AcDbBlockEnd
  0
BLOCK
  5
1C
330
215
100
AcDbEntity
 67
     1
  8
0
100
AcDbBlockBegin
  2
*Paper_Space
 70
     0
 10
0.0
 20
0.0
 30
0.0
  3
*Paper_Space
  1
*Paper_Space
  0
ENDBLK
  5
1D
330
215
100
AcDbEntity
 67
     1
  8
0
100
AcDbBlockEnd
  0
BLOCK
  5
25A
330
216
100
AcDbEntity
  8
0
100
AcDbBlockBegin
  2
_CLOSED
 70
     0
 10
0.0
 20
0.0
 30
0.0
  3
_CLOSED
  1
_CLOSED
  0
LINE
  5
25B
330
216
100
AcDbEntity
  8
0
  6
ByBlock
 62
     0
100
AcDbLine
 10
0.0
 20
0.0
 30
0.0
 11
-1.0
 21
0.2
 31
0.0
  0
LINE
  5
25C
330
216
100
AcDbEntity
  8
0
  6
ByBlock
 62
     0
100
AcDbLine
 10
-1.0
 20
0.2
 30
0.0
 11
-1.0
 21
-0.2
 31
0.0
  0
LINE
  5
25D
330
216
100
AcDbEntity
  8
0
  6
ByBlock
 62
     0
100
AcDbLine
 10
-1.0
 20
-0.2
 30
0.0
 11
0.0
 21
0.0
 31
0.0
  0
LINE
  5
25E
330
216
100
AcDbEntity
  8
0
  6
ByBlock
 62
     0
100
AcDbLine
 10
-1.0
 20
0.0
 30
0.0
 11
0.0
 21
0.0
 31
0.0
  0
ENDBLK
  5
25F
330
216
100
AcDbEntity
  8
0
  6
ByBlock
 62
     0
100
AcDbBlockEnd
  0
BLOCK
  5
260
330
217
100
AcDbEntity
  8
0
100
AcDbBlockBegin
  2
*D1
 70
     1
 10
0.0
 20
0.0
 30
0.0
  3
*D1
  1
*D1
  0
MTEXT
  5
261
330
217
100
AcDbEntity
  8
0
  6
Continuous
 62
     2
100
AcDbMText
 10
103.259339
 20
212.414875
 30
0.0
 40
3.0
 41
8.152416
 46
0.0
 71
     2
 72
     1
  1
41,5
 11
0.0
 21
1.0
 31
0.0
 73
     1
 44
0.9
  0
LINE
  5
262
330
217
100
AcDbEntity
  8
0
  6
Continuous
 62
     2
100
AcDbLine
 10
127.410974
 20
233.11259
 30
0.0
 11
106.259339
 21
233.11259
 31
0.0
  0
LINE
  5
263
330
217
100
AcDbEntity
  8
0
  6
Continuous
 62
     2
100
AcDbLine
 10
149.003867
 20
191.71716
 30
0.0
 11
106.259339
 21
191.71716
 31
0.0
  0
LINE
  5
264
330
217
100
AcDbEntity
  8
0
  6
Continuous
 62
     2
100
AcDbLine
 10
107.009339
 20
233.11259
 30
0.0
 11
107.009339
 21
212.414875
 31
0.0
  0
LINE
  5
265
330
217
100
AcDbEntity
  8
0
  6
Continuous
 62
     2
100
AcDbLine
 10
107.009339
 20
191.71716
 30
0.0
 11
107.009339
 21
212.414875
 31
0.0
  0
INSERT
  5
266
330
217
100
AcDbEntity
  8
0
  6
Continuous
 62
     2
100
AcDbBlockReference
  2
_CLOSED
 10
107.009339
 20
233.11259
 30
0.0
 41
2.5
 42
2.5
 43
2.5
 50
90.0
  0
INSERT
  5
267
330
217
100
AcDbEntity
  8
0
  6
Continuous
 62
     2
100
AcDbBlockReference
  2
_CLOSED
 10
107.009339
 20
191.71716
 30
0.0
 41
2.5
 42
2.5
 43
2.5
 50
270.0
  0
ENDBLK
  5
268
330
217
100
AcDbEntity
  8
0
  6
ByBlock
 62
     0
100
AcDbBlockEnd
  0
BLOCK
  5
269
330
218
100
AcDbEntity
  8
0
100
AcDbBlockBegin
  2
*D2
 70
     1
 10
0.0
 20
0.0
 30
0.0
  3
*D2
  1
*D2
  0
MTEXT
  5
26A
330
218
100
AcDbEntity
  8
0
  6
Continuous
 62
     2
100
AcDbMText
 10
152.453867
 20
162.98157
 30
0.0
 40
3.0
 41
4.66171
 46
0.0
 71
     2
 72
     1
  1
50
 73
     1
 44
0.9
  0
LINE
  5
26B
330
218
100
AcDbEntity
  8
0
  6
Continuous
 62
     2
100
AcDbLine
 10
127.453867
 20
146.682847
 30
0.0
 11
127.453867
 21
159.98157
 31
0.0
  0
LINE
  5
26C
330
218
100
AcDbEntity
  8
0
  6
Continuous
 62
     2
100
AcDbLine
 10
177.453867
 20
146.682847
 30
0.0
 11
177.453867
 21
159.98157
 31
0.0
  0
LINE
  5
26D
330
218
100
AcDbEntity
  8
0
  6
Continuous
 62
     2
100
AcDbLine
 10
127.453867
 20
159.23157
 30
0.0
 11
152.453867
 21
159.23157
 31
0.0
  0
LINE
  5
26E
330
218
100
AcDbEntity
  8
0
  6
Continuous
 62
     2
100
AcDbLine
 10
177.453867
 20
159.23157
 30
0.0
 11
152.453867
 21
159.23157
 31
0.0
  0
INSERT
  5
26F
330
218
100
AcDbEntity
  8
0
  6
Continuous
 62
     2
100
AcDbBlockReference
  2
_CLOSED
 10
127.453867
 20
159.23157
 30
0.0
 41
2.5
 42
2.5
 43
2.5
 50
180.0
  0
INSERT
  5
270
330
218
100
AcDbEntity
  8
0
  6
Continuous
 62
     2
100
AcDbBlockReference
  2
_CLOSED
 10
177.453867
 20
159.23157
 30
0.0
 41
2.5
 42
2.5
 43
2.5
  0
ENDBLK
  5
271
330
218
100
AcDbEntity
  8
0
  6
ByBlock
 62
     0
100
AcDbBlockEnd
  0
BLOCK
  5
272
330
219
100
AcDbEntity
  8
0
100
AcDbBlockBegin
  2
*D3
 70
     1
 10
0.0
 20
0.0
 30
0.0
  3
*D3
  1
*D3
  0
MTEXT
  5
273
330
219
100
AcDbEntity
  8
0
  6
Continuous
 62
     2
100
AcDbMText
 10
103.259339
 20
121.432847
 30
0.0
 40
3.0
 41
4.66171
 46
0.0
 71
     2
 72
     1
  1
50
 11
0.0
 21
1.0
 31
0.0
 73
     1
 44
0.9
  0
LINE
  5
274
330
219
100
AcDbEntity
  8
0
  6
Continuous
 62
     2
100
AcDbLine
 10
127.203867
 20
146.432847
 30
0.0
 11
106.259339
 21
146.432847
 31
0.0
  0
LINE
  5
275
330
219
100
AcDbEntity
  8
0
  6
Continuous
 62
     2
100
AcDbLine
 10
127.203867
 20
96.432847
 30
0.0
 11
106.259339
 21
96.432847
 31
0.0
  0
LINE
  5
276
330
219
100
AcDbEntity
  8
0
  6
Continuous
 62
     2
100
AcDbLine
 10
107.009339
 20
146.432847
 30
0.0
 11
107.009339
 21
121.432847
 31
0.0
  0
LINE
  5
277
330
219
100
AcDbEntity
  8
0
  6
Continuous
 62
     2
100
AcDbLine
 10
107.009339
 20
96.432847
 30
0.0
 11
107.009339
 21
121.432847
 31
0.0
  0
INSERT
  5
278
330
219
100
AcDbEntity
  8
0
  6
Continuous
 62
     2
100
AcDbBlockReference
  2
_CLOSED
 10
107.009339
 20
146.432847
 30
0.0
 41
2.5
 42
2.5
 43
2.5
 50
90.0
  0
INSERT
  5
279
330
219
100
AcDbEntity
  8
0
  6
Continuous
 62
     2
100
AcDbBlockReference
  2
_CLOSED
 10
107.009339
 20
96.432847
 30
0.0
 41
2.5
 42
2.5
 43
2.5
 50
270.0
  0
ENDBLK
  5
27A
330
219
100
AcDbEntity
  8
0
  6
ByBlock
 62
     0
100
AcDbBlockEnd
  0
BLOCK
  5
21E
330
21A
100
AcDbEntity
  8
0
100
AcDbBlockBegin
  2
LOGO2_BL0
 70
     0
 10
333.831816
 20
36.583206
 30
0.0
  3
LOGO2_BL0
  1
LOGO2_BL0
  0
LINE
  5
21F
330
21A
100
AcDbEntity
  8
0
  6
Continuous
 62
     7
100
AcDbLine
 10
325.574742
 20
39.778698
 30
0.0
 11
324.270401
 21
39.778698
 31
0.0
  0
LINE
  5
220
330
21A
100
AcDbEntity
  8
0
  6
Continuous
 62
     7
100
AcDbLine
 10
324.270401
 20
39.778698
 30
0.0
 11
324.270401
 21
29.319632
 31
0.0
  0
LINE
  5
221
330
21A
100
AcDbEntity
  8
0
  6
Continuous
 62
     7
100
AcDbLine
 10
324.270401
 20
29.319632
 30
0.0
 11
328.751456
 21
29.319632
 31
0.0
  0
LINE
  5
222
330
21A
100
AcDbEntity
  8
0
  6
Continuous
 62
     7
100
AcDbLine
 10
328.751456
 20
29.319632
 30
0.0
 11
328.751456
 21
30.512486
 31
0.0
  0
LINE
  5
223
330
21A
100
AcDbEntity
  8
0
  6
Continuous
 62
     7
100
AcDbLine
 10
328.751456
 20
30.512486
 30
0.0
 11
325.574742
 21
30.512486
 31
0.0
  0
LINE
  5
224
330
21A
100
AcDbEntity
  8
0
  6
Continuous
 62
     7
100
AcDbLine
 10
325.574742
 20
30.512486
 30
0.0
 11
325.574742
 21
39.778698
 31
0.0
  0
LINE
  5
225
330
21A
100
AcDbEntity
  8
0
  6
Continuous
 62
     7
100
AcDbLine
 10
340.511068
 20
39.778698
 30
0.0
 11
339.20725
 21
39.778698
 31
0.0
  0
LINE
  5
226
330
21A
100
AcDbEntity
  8
0
  6
Continuous
 62
     7
100
AcDbLine
 10
339.20725
 20
39.778698
 30
0.0
 11
339.20725
 21
29.319632
 31
0.0
  0
LINE
  5
227
330
21A
100
AcDbEntity
  8
0
  6
Continuous
 62
     7
100
AcDbLine
 10
339.20725
 20
29.319632
 30
0.0
 11
343.688436
 21
29.319632
 31
0.0
  0
LINE
  5
228
330
21A
100
AcDbEntity
  8
0
  6
Continuous
 62
     7
100
AcDbLine
 10
343.688436
 20
29.319632
 30
0.0
 11
343.688436
 21
30.512486
 31
0.0
  0
LINE
  5
229
330
21A
100
AcDbEntity
  8
0
  6
Continuous
 62
     7
100
AcDbLine
 10
343.688436
 20
30.512486
 30
0.0
 11
340.511068
 21
30.512486
 31
0.0
  0
LINE
  5
22A
330
21A
100
AcDbEntity
  8
0
  6
Continuous
 62
     7
100
AcDbLine
 10
340.511068
 20
30.512486
 30
0.0
 11
340.511068
 21
39.778698
 31
0.0
  0
LWPOLYLINE
  5
22B
330
21A
100
AcDbEntity
  8
0
  6
Continuous
 62
     7
100
AcDbPolyline
 90
        2
 70
     0
 43
0.2
 10
322.624796
 20
25.97608
 10
322.624796
 20
24.119017
  0
LWPOLYLINE
  5
22C
330
21A
100
AcDbEntity
  8
0
  6
Continuous
 62
     7
100
AcDbPolyline
 90
        2
 70
     0
 43
0.2
 10
322.624796
 20
24.119017
 10
323.420512
 20
24.119017
  0
LWPOLYLINE
  5
22D
330
21A
100
AcDbEntity
  8
0
  6
Continuous
 62
     7
100
AcDbPolyline
 90
        2
 70
     0
 43
0.2
 10
323.420512
 20
24.119017
 10
323.420512
 20
24.330999
  0
LWPOLYLINE
  5
22E
330
21A
100
AcDbEntity
  8
0
  6
Continuous
 62
     7
100
AcDbPolyline
 90
        2
 70
     0
 43
0.2
 10
323.420512
 20
24.330999
 10
322.856405
 20
24.330999
  0
LWPOLYLINE
  5
22F
330
21A
100
AcDbEntity
  8
0
  6
Continuous
 62
     7
100
AcDbPolyline
 90
        2
 70
     0
 43
0.2
 10
322.856405
 20
24.330999
 10
322.856405
 20
25.97608
  0
LWPOLYLINE
  5
230
330
21A
100
AcDbEntity
  8
0
  6
Continuous
 62
     7
100
AcDbPolyline
 90
        2
 70
     0
 43
0.2
 10
322.856405
 20
25.97608
 10
322.624796
 20
25.97608
  0
SPLINE
  5
231
330
21A
100
AcDbEntity
  8
0
  6
Continuous
 62
     7
100
AcDbSpline
 70
     3
 71
     3
 72
    35
 73
    31
 74
     0
 42
0.000000001
 43
0.0000001
 40
0.0
 40
0.0
 40
0.0
 40
0.0
 40
1.0
 40
1.0
 40
1.0
 40
2.0
 40
2.0
 40
2.0
 40
3.0
 40
3.0
 40
3.0
 40
4.0
 40
4.0
 40
4.0
 40
5.0
 40
5.0
 40
5.0
 40
6.0
 40
6.0
 40
6.0
 40
7.0
 40
7.0
 40
7.0
 40
8.0
 40
8.0
 40
8.0
 40
9.0
 40
9.0
 40
9.0
 40
10.0
 40
10.0
 40
10.0
 40
10.0
 10
324.8188048989
 20
25.271568796
 30
0.0
 10
324.8188048989
 20
25.271568796
 30
0.0
 10
324.8188048989
 20
24.6094535168
 30
0.0
 10
324.8188048989
 20
24.6094535168
 30
0.0
 10
324.8188048989
 20
24.2943599215
 30
0.0
 10
324.9666685878
 20
24.0797612935
 30
0.0
 10
325.3067550721
 20
24.0797612935
 30
0.0
 10
325.6463181451
 20
24.0797612935
 30
0.0
 10
325.7944435395
 20
24.2943599215
 30
0.0
 10
325.7944435395
 20
24.6094535168
 30
0.0
 10
325.7944435395
 20
24.6094535168
 30
0.0
 10
325.7944435395
 20
25.271568796
 30
0.0
 10
325.7944435395
 20
25.271568796
 30
0.0
 10
325.7944435395
 20
25.271568796
 30
0.0
 10
325.5723863007
 20
25.271568796
 30
0.0
 10
325.5723863007
 20
25.271568796
 30
0.0
 10
325.5723863007
 20
25.271568796
 30
0.0
 10
325.5723863007
 20
24.6345772586
 30
0.0
 10
325.5723863007
 20
24.6345772586
 30
0.0
 10
325.5723863007
 20
24.4487662514
 30
0.0
 10
325.5256718432
 20
24.2859853409
 30
0.0
 10
325.3067550721
 20
24.2859853409
 30
0.0
 10
325.0873148896
 20
24.2859853409
 30
0.0
 10
325.0406004322
 20
24.4487662514
 30
0.0
 10
325.0406004322
 20
24.6345772586
 30
0.0
 10
325.0406004322
 20
24.6345772586
 30
0.0
 10
325.0406004322
 20
25.271568796
 30
0.0
 10
325.0406004322
 20
25.271568796
 30
0.0
 10
325.0406004322
 20
25.271568796
 30
0.0
 10
324.8188048989
 20
25.271568796
 30
0.0
 10
324.8188048989
 20
25.271568796
 30
0.0
  0
SPLINE
  5
232
330
21A
100
AcDbEntity
  8
0
  6
Continuous
 62
     7
100
AcDbSpline
 70
     3
 71
     3
 72
    35
 73
    31
 74
     0
 42
0.000000001
 43
0.0000001
 40
0.0
 40
0.0
 40
0.0
 40
0.0
 40
1.0
 40
1.0
 40
1.0
 40
2.0
 40
2.0
 40
2.0
 40
3.0
 40
3.0
 40
3.0
 40
4.0
 40
4.0
 40
4.0
 40
5.0
 40
5.0
 40
5.0
 40
6.0
 40
6.0
 40
6.0
 40
7.0
 40
7.0
 40
7.0
 40
8.0
 40
8.0
 40
8.0
 40
9.0
 40
9.0
 40
9.0
 40
10.0
 40
10.0
 40
10.0
 40
10.0
 10
328.2175760967
 20
25.2302193042
 30
0.0
 10
328.1291195891
 20
25.2815136104
 30
0.0
 10
328.0156701924
 20
25.3066373523
 30
0.0
 10
327.9120347574
 20
25.3066373523
 30
0.0
 10
327.5571619043
 20
25.3066373523
 30
0.0
 10
327.281716714
 20
25.0428380632
 30
0.0
 10
327.281716714
 20
24.6853481536
 30
0.0
 10
327.281716714
 20
24.3404201149
 30
0.0
 10
327.5601715192
 20
24.0802847048
 30
0.0
 10
327.8997345922
 20
24.0802847048
 30
0.0
 10
328.0156701924
 20
24.0802847048
 30
0.0
 10
328.1164268653
 20
24.1022679789
 30
0.0
 10
328.2175760967
 20
24.1561793415
 30
0.0
 10
328.2175760967
 20
24.1561793415
 30
0.0
 10
328.2175760967
 20
24.438821437
 30
0.0
 10
328.2175760967
 20
24.438821437
 30
0.0
 10
328.1336994378
 20
24.3456542277
 30
0.0
 10
328.0301948557
 20
24.2865087522
 30
0.0
 10
327.902089943
 20
24.2865087522
 30
0.0
 10
327.6683868029
 20
24.2865087522
 30
0.0
 10
327.5031196888
 20
24.4587110659
 30
0.0
 10
327.5031196888
 20
24.695292968
 30
0.0
 10
327.5031196888
 20
24.9072745396
 30
0.0
 10
327.6708730065
 20
25.0993664823
 30
0.0
 10
327.8876961325
 20
25.0993664823
 30
0.0
 10
328.0205117468
 20
25.0993664823
 30
0.0
 10
328.1291195891
 20
25.0454551196
 30
0.0
 10
328.2175760967
 20
24.9444367411
 30
0.0
 10
328.2175760967
 20
24.9444367411
 30
0.0
 10
328.2175760967
 20
25.2302193042
 30
0.0
 10
328.2175760967
 20
25.2302193042
 30
0.0
  0
SPLINE
  5
233
330
21A
100
AcDbEntity
  8
0
  6
Continuous
 62
     7
100
AcDbSpline
 70
     3
 71
     3
 72
    32
 73
    28
 74
     0
 42
0.000000001
 43
0.0000001
 40
0.0
 40
0.0
 40
0.0
 40
0.0
 40
1.0
 40
1.0
 40
1.0
 40
2.0
 40
2.0
 40
2.0
 40
3.0
 40
3.0
 40
3.0
 40
4.0
 40
4.0
 40
4.0
 40
5.0
 40
5.0
 40
5.0
 40
6.0
 40
6.0
 40
6.0
 40
7.0
 40
7.0
 40
7.0
 40
8.0
 40
8.0
 40
8.0
 40
9.0
 40
9.0
 40
9.0
 40
9.0
 10
330.749447349
 20
24.6586541779
 30
0.0
 10
330.749447349
 20
24.6586541779
 30
0.0
 10
330.749447349
 20
24.6926759116
 30
0.0
 10
330.749447349
 20
24.6926759116
 30
0.0
 10
330.749447349
 20
25.0349868939
 30
0.0
 10
330.5765907712
 20
25.3066373523
 30
0.0
 10
330.209941164
 20
25.3066373523
 30
0.0
 10
329.8383191496
 20
25.3066373523
 30
0.0
 10
329.6485825578
 20
25.0402210067
 30
0.0
 10
329.6485825578
 20
24.6853481536
 30
0.0
 10
329.6485825578
 20
24.3456542277
 30
0.0
 10
329.8626577745
 20
24.0797612935
 30
0.0
 10
330.2147827184
 20
24.0797612935
 30
0.0
 10
330.4388027496
 20
24.0797612935
 30
0.0
 10
330.6409703596
 20
24.1954351881
 30
0.0
 10
330.749447349
 20
24.3948548888
 30
0.0
 10
330.749447349
 20
24.3948548888
 30
0.0
 10
330.5618044023
 20
24.5016307915
 30
0.0
 10
330.5618044023
 20
24.5016307915
 30
0.0
 10
330.4783203019
 20
24.3629268002
 30
0.0
 10
330.3871158849
 20
24.277087349
 30
0.0
 10
330.2175306277
 20
24.277087349
 30
0.0
 10
330.0055490561
 20
24.277087349
 30
0.0
 10
329.872602589
 20
24.4618515336
 30
0.0
 10
329.8702472382
 20
24.6586541779
 30
0.0
 10
329.8702472382
 20
24.6586541779
 30
0.0
 10
330.749447349
 20
24.6586541779
 30
0.0
 10
330.749447349
 20
24.6586541779
 30
0.0
  0
SPLINE
  5
234
330
21A
100
AcDbEntity
  8
0
  6
Continuous
 62
     7
100
AcDbSpline
 70
     3
 71
     3
 72
    14
 73
    10
 74
     0
 42
0.000000001
 43
0.0000001
 40
0.0
 40
0.0
 40
0.0
 40
0.0
 40
1.0
 40
1.0
 40
1.0
 40
2.0
 40
2.0
 40
2.0
 40
3.0
 40
3.0
 40
3.0
 40
3.0
 10
329.8822856978
 20
24.82614579
 30
0.0
 10
329.9098956432
 20
24.9910203457
 30
0.0
 10
330.0377388503
 20
25.1140219983
 30
0.0
 10
330.209941164
 20
25.1140219983
 30
0.0
 10
330.3871158849
 20
25.1140219983
 30
0.0
 10
330.5005652816
 20
24.9983481037
 30
0.0
 10
330.5277826686
 20
24.82614579
 30
0.0
 10
330.5277826686
 20
24.82614579
 30
0.0
 10
329.8822856978
 20
24.82614579
 30
0.0
 10
329.8822856978
 20
24.82614579
 30
0.0
  0
SPLINE
  5
235
330
21A
100
AcDbEntity
  8
0
  6
Continuous
 62
     7
100
AcDbSpline
 70
     3
 71
     3
 72
    20
 73
    16
 74
     0
 42
0.000000001
 43
0.0000001
 40
0.0
 40
0.0
 40
0.0
 40
0.0
 40
1.0
 40
1.0
 40
1.0
 40
2.0
 40
2.0
 40
2.0
 40
3.0
 40
3.0
 40
3.0
 40
4.0
 40
4.0
 40
4.0
 40
5.0
 40
5.0
 40
5.0
 40
5.0
 10
332.7734787992
 20
25.0355103051
 30
0.0
 10
332.7734787992
 20
25.0355103051
 30
0.0
 10
333.1846183658
 20
24.5330354688
 30
0.0
 10
333.1846183658
 20
24.5330354688
 30
0.0
 10
333.0685519127
 20
24.4173615742
 30
0.0
 10
332.9307638912
 20
24.2870321635
 30
0.0
 10
332.7588232831
 20
24.2870321635
 30
0.0
 10
332.5813868565
 20
24.2870321635
 30
0.0
 10
332.4138952444
 20
24.4513833079
 30
0.0
 10
332.4138952444
 20
24.6282963232
 30
0.0
 10
332.4138952444
 20
24.8062561611
 30
0.0
 10
332.623652318
 20
24.9323982814
 30
0.0
 10
332.7512338194
 20
25.0203313778
 30
0.0
 10
332.7512338194
 20
25.0203313778
 30
0.0
 10
332.7734787992
 20
25.0355103051
 30
0.0
 10
332.7734787992
 20
25.0355103051
 30
0.0
  0
SPLINE
  5
236
330
21A
100
AcDbEntity
  8
0
  6
Continuous
 62
     7
100
AcDbSpline
 70
     3
 71
     3
 72
    23
 73
    19
 74
     0
 42
0.000000001
 43
0.0000001
 40
0.0
 40
0.0
 40
0.0
 40
0.0
 40
1.0
 40
1.0
 40
1.0
 40
2.0
 40
2.0
 40
2.0
 40
3.0
 40
3.0
 40
3.0
 40
4.0
 40
4.0
 40
4.0
 40
5.0
 40
5.0
 40
5.0
 40
6.0
 40
6.0
 40
6.0
 40
6.0
 10
332.8228103131
 20
25.3265269812
 30
0.0
 10
332.8228103131
 20
25.3265269812
 30
0.0
 10
332.7611786339
 20
25.4050386744
 30
0.0
 10
332.7611786339
 20
25.4050386744
 30
0.0
 10
332.7072672713
 20
25.4736055531
 30
0.0
 10
332.6504771465
 20
25.5426958431
 30
0.0
 10
332.6504771465
 20
25.6363864636
 30
0.0
 10
332.6504771465
 20
25.755200826
 30
0.0
 10
332.746392265
 20
25.8326656966
 30
0.0
 10
332.8573554581
 20
25.8326656966
 30
0.0
 10
332.9806188163
 20
25.8326656966
 30
0.0
 10
333.0739168784
 20
25.7614817614
 30
0.0
 10
333.0739168784
 20
25.6311523507
 30
0.0
 10
333.0739168784
 20
25.4961122385
 30
0.0
 10
332.9458119657
 20
25.4196941904
 30
0.0
 10
332.852252198
 20
25.3458931989
 30
0.0
 10
332.852252198
 20
25.3458931989
 30
0.0
 10
332.8228103131
 20
25.3265269812
 30
0.0
 10
332.8228103131
 20
25.3265269812
 30
0.0
  0
SPLINE
  5
237
330
21A
100
AcDbEntity
  8
0
  6
Continuous
 62
     7
100
AcDbSpline
 70
     3
 71
     3
 72
    50
 73
    46
 74
     0
 42
0.000000001
 43
0.0000001
 40
0.0
 40
0.0
 40
0.0
 40
0.0
 40
1.0
 40
1.0
 40
1.0
 40
2.0
 40
2.0
 40
2.0
 40
3.0
 40
3.0
 40
3.0
 40
4.0
 40
4.0
 40
4.0
 40
5.0
 40
5.0
 40
5.0
 40
6.0
 40
6.0
 40
6.0
 40
7.0
 40
7.0
 40
7.0
 40
8.0
 40
8.0
 40
8.0
 40
9.0
 40
9.0
 40
9.0
 40
10.0
 40
10.0
 40
10.0
 40
11.0
 40
11.0
 40
11.0
 40
12.0
 40
12.0
 40
12.0
 40
13.0
 40
13.0
 40
13.0
 40
14.0
 40
14.0
 40
14.0
 40
15.0
 40
15.0
 40
15.0
 40
15.0
 10
333.5249665557
 20
24.1195405514
 30
0.0
 10
333.5249665557
 20
24.1195405514
 30
0.0
 10
333.8103565604
 20
24.1195405514
 30
0.0
 10
333.8103565604
 20
24.1195405514
 30
0.0
 10
333.8103565604
 20
24.1195405514
 30
0.0
 10
333.4779903926
 20
24.5304184124
 30
0.0
 10
333.4779903926
 20
24.5304184124
 30
0.0
 10
333.4779903926
 20
24.5304184124
 30
0.0
 10
333.7044966275
 20
24.7963113466
 30
0.0
 10
333.7044966275
 20
24.7963113466
 30
0.0
 10
333.7044966275
 20
24.7963113466
 30
0.0
 10
333.5562403802
 20
24.9491474426
 30
0.0
 10
333.5562403802
 20
24.9491474426
 30
0.0
 10
333.5562403802
 20
24.9491474426
 30
0.0
 10
333.3403332239
 20
24.6979100245
 30
0.0
 10
333.3403332239
 20
24.6979100245
 30
0.0
 10
333.3403332239
 20
24.6979100245
 30
0.0
 10
332.9532705766
 20
25.1658397158
 30
0.0
 10
332.9532705766
 20
25.1658397158
 30
0.0
 10
333.1087237291
 20
25.2799433766
 30
0.0
 10
333.2910017101
 20
25.4196941904
 30
0.0
 10
333.2910017101
 20
25.6290587056
 30
0.0
 10
333.2910017101
 20
25.8729683657
 30
0.0
 10
333.0889649529
 20
26.0163830586
 30
0.0
 10
332.8624587181
 20
26.0163830586
 30
0.0
 10
332.6182873523
 20
26.0163830586
 30
0.0
 10
332.4339157262
 20
25.8656406077
 30
0.0
 10
332.4339157262
 20
25.6091690767
 30
0.0
 10
332.4339157262
 20
25.451622279
 30
0.0
 10
332.5325787539
 20
25.3139651103
 30
0.0
 10
332.6379152756
 20
25.2030019173
 30
0.0
 10
332.6379152756
 20
25.2030019173
 30
0.0
 10
332.5223722338
 20
25.1192561112
 30
0.0
 10
332.5223722338
 20
25.1192561112
 30
0.0
 10
332.3446741016
 20
24.9910203457
 30
0.0
 10
332.197333824
 20
24.8633079914
 30
0.0
 10
332.197333824
 20
24.626202678
 30
0.0
 10
332.197333824
 20
24.3058749699
 30
0.0
 10
332.4558990003
 20
24.0797612935
 30
0.0
 10
332.766281894
 20
24.0797612935
 30
0.0
 10
332.9851986651
 20
24.0797612935
 30
0.0
 10
333.1823938678
 20
24.2048565913
 30
0.0
 10
333.322668093
 20
24.3707779695
 30
0.0
 10
333.322668093
 20
24.3707779695
 30
0.0
 10
333.5249665557
 20
24.1195405514
 30
0.0
 10
333.5249665557
 20
24.1195405514
 30
0.0
  0
LWPOLYLINE
  5
238
330
21A
100
AcDbEntity
  8
0
  6
Continuous
 62
     7
100
AcDbPolyline
 90
        2
 70
     0
 43
0.2
 10
335.460411
 20
25.97608
 10
335.229063
 20
25.97608
  0
LWPOLYLINE
  5
239
330
21A
100
AcDbEntity
  8
0
  6
Continuous
 62
     7
100
AcDbPolyline
 90
        2
 70
     0
 43
0.2
 10
335.229063
 20
25.97608
 10
335.229063
 20
24.119017
  0
LWPOLYLINE
  5
23A
330
21A
100
AcDbEntity
  8
0
  6
Continuous
 62
     7
100
AcDbPolyline
 90
        2
 70
     0
 43
0.2
 10
335.229063
 20
24.119017
 10
336.024386
 20
24.119017
  0
LWPOLYLINE
  5
23B
330
21A
100
AcDbEntity
  8
0
  6
Continuous
 62
     7
100
AcDbPolyline
 90
        2
 70
     0
 43
0.2
 10
336.024386
 20
24.119017
 10
336.024386
 20
24.330999
  0
LWPOLYLINE
  5
23C
330
21A
100
AcDbEntity
  8
0
  6
Continuous
 62
     7
100
AcDbPolyline
 90
        2
 70
     0
 43
0.2
 10
336.024386
 20
24.330999
 10
335.460411
 20
24.330999
  0
LWPOLYLINE
  5
23D
330
21A
100
AcDbEntity
  8
0
  6
Continuous
 62
     7
100
AcDbPolyline
 90
        2
 70
     0
 43
0.2
 10
335.460411
 20
24.330999
 10
335.460411
 20
25.97608
  0
LWPOLYLINE
  5
23E
330
21A
100
AcDbEntity
  8
0
  6
Continuous
 62
     7
100
AcDbPolyline
 90
        2
 70
     0
 43
0.2
 10
337.70349
 20
25.271569
 10
337.482348
 20
25.271569
  0
LWPOLYLINE
  5
23F
330
21A
100
AcDbEntity
  8
0
  6
Continuous
 62
     7
100
AcDbPolyline
 90
        2
 70
     0
 43
0.2
 10
337.482348
 20
25.271569
 10
337.482348
 20
24.119541
  0
LWPOLYLINE
  5
240
330
21A
100
AcDbEntity
  8
0
  6
Continuous
 62
     7
100
AcDbPolyline
 90
        2
 70
     0
 43
0.2
 10
337.482348
 20
24.119541
 10
337.70349
 20
24.119541
  0
LWPOLYLINE
  5
241
330
21A
100
AcDbEntity
  8
0
  6
Continuous
 62
     7
100
AcDbPolyline
 90
        2
 70
     0
 43
0.2
 10
337.70349
 20
24.119541
 10
337.70349
 20
25.271569
  0
LWPOLYLINE
  5
242
330
21A
100
AcDbEntity
  8
0
  6
Continuous
 62
     7
100
AcDbPolyline
 90
        2
 70
     1
 43
0.2
 10
337.440466
 20
25.801523
 42
1.0
 10
337.745633
 20
25.801523
 42
1.0
  0
SPLINE
  5
243
330
21A
100
AcDbEntity
  8
0
  6
Continuous
 62
     7
100
AcDbSpline
 70
     3
 71
     3
 72
    17
 73
    13
 74
     0
 42
0.000000001
 43
0.0000001
 40
0.0
 40
0.0
 40
0.0
 40
0.0
 40
1.0
 40
1.0
 40
1.0
 40
2.0
 40
2.0
 40
2.0
 40
3.0
 40
3.0
 40
3.0
 40
4.0
 40
4.0
 40
4.0
 40
4.0
 10
339.8337736612
 20
24.277087349
 30
0.0
 10
339.5998088156
 20
24.277087349
 30
0.0
 10
339.4694794049
 20
24.4791241061
 30
0.0
 10
339.4694794049
 20
24.695292968
 30
0.0
 10
339.4694794049
 20
24.9098915961
 30
0.0
 10
339.6053046341
 20
25.1087878854
 30
0.0
 10
339.8337736612
 20
25.1087878854
 30
0.0
 10
340.0732343254
 20
25.1087878854
 30
0.0
 10
340.208797849
 20
24.9198364105
 30
0.0
 10
340.208797849
 20
24.695292968
 30
0.0
 10
340.208797849
 20
24.4691792917
 30
0.0
 10
340.0755896762
 20
24.277087349
 30
0.0
 10
339.8337736612
 20
24.277087349
 30
0.0
  0
SPLINE
  5
244
330
21A
100
AcDbEntity
  8
0
  6
Continuous
 62
     7
100
AcDbSpline
 70
     3
 71
     3
 72
    50
 73
    46
 74
     0
 42
0.000000001
 43
0.0000001
 40
0.0
 40
0.0
 40
0.0
 40
0.0
 40
1.0
 40
1.0
 40
1.0
 40
2.0
 40
2.0
 40
2.0
 40
3.0
 40
3.0
 40
3.0
 40
4.0
 40
4.0
 40
4.0
 40
5.0
 40
5.0
 40
5.0
 40
6.0
 40
6.0
 40
6.0
 40
7.0
 40
7.0
 40
7.0
 40
8.0
 40
8.0
 40
8.0
 40
9.0
 40
9.0
 40
9.0
 40
10.0
 40
10.0
 40
10.0
 40
11.0
 40
11.0
 40
11.0
 40
12.0
 40
12.0
 40
12.0
 40
13.0
 40
13.0
 40
13.0
 40
14.0
 40
14.0
 40
14.0
 40
15.0
 40
15.0
 40
15.0
 40
15.0
 10
340.4179006585
 20
25.2720922073
 30
0.0
 10
340.4179006585
 20
25.2720922073
 30
0.0
 10
340.1962359781
 20
25.2720922073
 30
0.0
 10
340.1962359781
 20
25.2720922073
 30
0.0
 10
340.1962359781
 20
25.2720922073
 30
0.0
 10
340.1962359781
 20
25.0747661517
 30
0.0
 10
340.1962359781
 20
25.0747661517
 30
0.0
 10
340.1962359781
 20
25.0747661517
 30
0.0
 10
340.1915252765
 20
25.0747661517
 30
0.0
 10
340.1915252765
 20
25.0747661517
 30
0.0
 10
340.1001900068
 20
25.2176574333
 30
0.0
 10
339.9622711324
 20
25.306113941
 30
0.0
 10
339.7895454074
 20
25.306113941
 30
0.0
 10
339.4571792396
 20
25.306113941
 30
0.0
 10
339.2480764301
 20
25.0182377326
 30
0.0
 10
339.2480764301
 20
24.7026207261
 30
0.0
 10
339.2480764301
 20
24.3728716147
 30
0.0
 10
339.44514078
 20
24.0797612935
 30
0.0
 10
339.8000136332
 20
24.0797612935
 30
0.0
 10
339.9622711324
 20
24.0797612935
 30
0.0
 10
340.1022836519
 20
24.1682178011
 30
0.0
 10
340.1915252765
 20
24.2990706231
 30
0.0
 10
340.1915252765
 20
24.2990706231
 30
0.0
 10
340.1962359781
 20
24.2990706231
 30
0.0
 10
340.1962359781
 20
24.2990706231
 30
0.0
 10
340.1962359781
 20
24.2990706231
 30
0.0
 10
340.1962359781
 20
24.0797612935
 30
0.0
 10
340.1962359781
 20
24.0797612935
 30
0.0
 10
340.1962359781
 20
23.8431793914
 30
0.0
 10
340.139707559
 20
23.6563215616
 30
0.0
 10
339.8664868667
 20
23.6563215616
 30
0.0
 10
339.664188404
 20
23.6563215616
 30
0.0
 10
339.521558828
 20
23.7746125127
 30
0.0
 10
339.521558828
 20
23.9808365601
 30
0.0
 10
339.521558828
 20
23.9808365601
 30
0.0
 10
339.2998941476
 20
23.9808365601
 30
0.0
 10
339.2998941476
 20
23.9808365601
 30
0.0
 10
339.3048665549
 20
23.6563215616
 30
0.0
 10
339.5359526385
 20
23.4595189174
 30
0.0
 10
339.8562803466
 20
23.4595189174
 30
0.0
 10
340.304320409
 20
23.4595189174
 30
0.0
 10
340.4179006585
 20
23.7447780693
 30
0.0
 10
340.4179006585
 20
24.1415238255
 30
0.0
 10
340.4179006585
 20
24.1415238255
 30
0.0
 10
340.4179006585
 20
25.2720922073
 30
0.0
 10
340.4179006585
 20
25.2720922073
 30
0.0
  0
SPLINE
  5
245
330
21A
100
AcDbEntity
  8
0
  6
Continuous
 62
     7
100
AcDbSpline
 70
     3
 71
     3
 72
    44
 73
    40
 74
     0
 42
0.000000001
 43
0.0000001
 40
0.0
 40
0.0
 40
0.0
 40
0.0
 40
1.0
 40
1.0
 40
1.0
 40
2.0
 40
2.0
 40
2.0
 40
3.0
 40
3.0
 40
3.0
 40
4.0
 40
4.0
 40
4.0
 40
5.0
 40
5.0
 40
5.0
 40
6.0
 40
6.0
 40
6.0
 40
7.0
 40
7.0
 40
7.0
 40
8.0
 40
8.0
 40
8.0
 40
9.0
 40
9.0
 40
9.0
 40
10.0
 40
10.0
 40
10.0
 40
11.0
 40
11.0
 40
11.0
 40
12.0
 40
12.0
 40
12.0
 40
13.0
 40
13.0
 40
13.0
 40
13.0
 10
341.9868259939
 20
26.257152251
 30
0.0
 10
341.9868259939
 20
26.257152251
 30
0.0
 10
341.9868259939
 20
24.1190171401
 30
0.0
 10
341.9868259939
 20
24.1190171401
 30
0.0
 10
341.9868259939
 20
24.1190171401
 30
0.0
 10
342.2082289687
 20
24.1190171401
 30
0.0
 10
342.2082289687
 20
24.1190171401
 30
0.0
 10
342.2082289687
 20
24.1190171401
 30
0.0
 10
342.2082289687
 20
24.6487093634
 30
0.0
 10
342.2082289687
 20
24.6487093634
 30
0.0
 10
342.2082289687
 20
24.8585972898
 30
0.0
 10
342.2082289687
 20
25.1093112967
 30
0.0
 10
342.4934881206
 20
25.1093112967
 30
0.0
 10
342.7203869139
 20
25.1093112967
 30
0.0
 10
342.7473425952
 20
24.9763648296
 30
0.0
 10
342.7473425952
 20
24.7800855967
 30
0.0
 10
342.7473425952
 20
24.7800855967
 30
0.0
 10
342.7473425952
 20
24.1190171401
 30
0.0
 10
342.7473425952
 20
24.1190171401
 30
0.0
 10
342.7473425952
 20
24.1190171401
 30
0.0
 10
342.9692689812
 20
24.1190171401
 30
0.0
 10
342.9692689812
 20
24.1190171401
 30
0.0
 10
342.9692689812
 20
24.1190171401
 30
0.0
 10
342.9692689812
 20
24.8062561611
 30
0.0
 10
342.9692689812
 20
24.8062561611
 30
0.0
 10
342.9692689812
 20
25.0868046114
 30
0.0
 10
342.8852614695
 20
25.3066373523
 30
0.0
 10
342.5602230598
 20
25.3066373523
 30
0.0
 10
342.4204722459
 20
25.3066373523
 30
0.0
 10
342.2822916659
 20
25.2401641187
 30
0.0
 10
342.2129396703
 20
25.1171624661
 30
0.0
 10
342.2129396703
 20
25.1171624661
 30
0.0
 10
342.2082289687
 20
25.1171624661
 30
0.0
 10
342.2082289687
 20
25.1171624661
 30
0.0
 10
342.2082289687
 20
25.1171624661
 30
0.0
 10
342.2082289687
 20
26.257152251
 30
0.0
 10
342.2082289687
 20
26.257152251
 30
0.0
 10
342.2082289687
 20
26.257152251
 30
0.0
 10
341.9868259939
 20
26.257152251
 30
0.0
 10
341.9868259939
 20
26.257152251
 30
0.0
  0
LWPOLYLINE
  5
246
330
21A
100
AcDbEntity
  8
0
  6
Continuous
 62
     7
100
AcDbPolyline
 90
        2
 70
     0
 43
0.2
 10
344.80906
 20
25.064821
 10
345.02549
 20
25.064821
  0
LWPOLYLINE
  5
247
330
21A
100
AcDbEntity
  8
0
  6
Continuous
 62
     7
100
AcDbPolyline
 90
        2
 70
     0
 43
0.2
 10
345.02549
 20
25.064821
 10
345.02549
 20
25.271569
  0
LWPOLYLINE
  5
248
330
21A
100
AcDbEntity
  8
0
  6
Continuous
 62
     7
100
AcDbPolyline
 90
        2
 70
     0
 43
0.2
 10
345.02549
 20
25.271569
 10
344.80906
 20
25.271569
  0
LWPOLYLINE
  5
249
330
21A
100
AcDbEntity
  8
0
  6
Continuous
 62
     7
100
AcDbPolyline
 90
        2
 70
     0
 43
0.2
 10
344.80906
 20
25.271569
 10
344.80906
 20
25.712281
  0
LWPOLYLINE
  5
24A
330
21A
100
AcDbEntity
  8
0
  6
Continuous
 62
     7
100
AcDbPolyline
 90
        2
 70
     0
 43
0.2
 10
344.80906
 20
25.712281
 10
344.587395
 20
25.712281
  0
LWPOLYLINE
  5
24B
330
21A
100
AcDbEntity
  8
0
  6
Continuous
 62
     7
100
AcDbPolyline
 90
        2
 70
     0
 43
0.2
 10
344.587395
 20
25.712281
 10
344.587395
 20
25.271569
  0
LWPOLYLINE
  5
24C
330
21A
100
AcDbEntity
  8
0
  6
Continuous
 62
     7
100
AcDbPolyline
 90
        2
 70
     0
 43
0.2
 10
344.587395
 20
25.271569
 10
344.466749
 20
25.271569
  0
LWPOLYLINE
  5
24D
330
21A
100
AcDbEntity
  8
0
  6
Continuous
 62
     7
100
AcDbPolyline
 90
        2
 70
     0
 43
0.2
 10
344.466749
 20
25.271569
 10
344.466749
 20
25.064821
  0
LWPOLYLINE
  5
24E
330
21A
100
AcDbEntity
  8
0
  6
Continuous
 62
     7
100
AcDbPolyline
 90
        2
 70
     0
 43
0.2
 10
344.466749
 20
25.064821
 10
344.587395
 20
25.064821
  0
LWPOLYLINE
  5
24F
330
21A
100
AcDbEntity
  8
0
  6
Continuous
 62
     7
100
AcDbPolyline
 90
        2
 70
     0
 43
0.2
 10
344.587395
 20
25.064821
 10
344.587395
 20
24.119017
  0
LWPOLYLINE
  5
250
330
21A
100
AcDbEntity
  8
0
  6
Continuous
 62
     7
100
AcDbPolyline
 90
        2
 70
     0
 43
0.2
 10
344.587395
 20
24.119017
 10
344.80906
 20
24.119017
  0
LWPOLYLINE
  5
251
330
21A
100
AcDbEntity
  8
0
  6
Continuous
 62
     7
100
AcDbPolyline
 90
        2
 70
     0
 43
0.2
 10
344.80906
 20
24.119017
 10
344.80906
 20
25.064821
  0
SPLINE
  5
252
330
21A
100
AcDbEntity
  8
0
  6
Continuous
 62
     7
100
AcDbSpline
 70
     3
 71
     3
 72
    20
 73
    16
 74
     0
 42
0.000000001
 43
0.0000001
 40
0.0
 40
0.0
 40
0.0
 40
0.0
 40
1.0
 40
1.0
 40
1.0
 40
2.0
 40
2.0
 40
2.0
 40
3.0
 40
3.0
 40
3.0
 40
4.0
 40
4.0
 40
4.0
 40
5.0
 40
5.0
 40
5.0
 40
5.0
 10
332.5910699653
 20
34.4799435835
 30
0.0
 10
332.5910699653
 20
34.4799435835
 30
0.0
 10
334.9074266198
 20
31.6503821612
 30
0.0
 10
334.9074266198
 20
31.6503821612
 30
0.0
 10
334.2557795664
 20
30.9982116966
 30
0.0
 10
333.4789063624
 20
30.2622954258
 30
0.0
 10
332.5077167178
 20
30.2622954258
 30
0.0
 10
331.5091788333
 20
30.2622954258
 30
0.0
 10
330.5658608398
 20
31.1918738731
 30
0.0
 10
330.5658608398
 20
32.1910660216
 30
0.0
 10
330.5658608398
 20
33.1902581702
 30
0.0
 10
331.7447139129
 20
33.8968634088
 30
0.0
 10
332.4662363732
 20
34.3967211887
 30
0.0
 10
332.4662363732
 20
34.3967211887
 30
0.0
 10
332.5910699653
 20
34.4799435835
 30
0.0
 10
332.5910699653
 20
34.4799435835
 30
0.0
  0
SPLINE
  5
253
330
21A
100
AcDbEntity
  8
0
  6
Continuous
 62
     7
100
AcDbSpline
 70
     3
 71
     3
 72
    23
 73
    19
 74
     0
 42
0.000000001
 43
0.0000001
 40
0.0
 40
0.0
 40
0.0
 40
0.0
 40
1.0
 40
1.0
 40
1.0
 40
2.0
 40
2.0
 40
2.0
 40
3.0
 40
3.0
 40
3.0
 40
4.0
 40
4.0
 40
4.0
 40
5.0
 40
5.0
 40
5.0
 40
6.0
 40
6.0
 40
6.0
 40
6.0
 10
332.8684779479
 20
36.1176975032
 30
0.0
 10
332.8684779479
 20
36.1176975032
 30
0.0
 10
332.5219796753
 20
36.561026864
 30
0.0
 10
332.5219796753
 20
36.561026864
 30
0.0
 10
332.2161766304
 20
36.949136334
 30
0.0
 10
331.8972883033
 20
37.3376383624
 30
0.0
 10
331.8972883033
 20
37.8645826765
 30
0.0
 10
331.8972883033
 20
38.5307543931
 30
0.0
 10
332.4386264278
 20
38.9744763124
 30
0.0
 10
333.0625326829
 20
38.9744763124
 30
0.0
 10
333.756314345
 20
38.9744763124
 30
0.0
 10
334.2835203647
 20
38.5722347377
 30
0.0
 10
334.2835203647
 20
37.8372344367
 30
0.0
 10
334.2835203647
 20
37.0739699262
 30
0.0
 10
333.56225961
 20
36.6438567003
 30
0.0
 10
333.0351844431
 20
36.228137285
 30
0.0
 10
333.0351844431
 20
36.228137285
 30
0.0
 10
332.8684779479
 20
36.1176975032
 30
0.0
 10
332.8684779479
 20
36.1176975032
 30
0.0
  0
SPLINE
  5
254
330
21A
100
AcDbEntity
  8
0
  6
Continuous
 62
     7
100
AcDbSpline
 70
     3
 71
     3
 72
    50
 73
    46
 74
     0
 42
0.000000001
 43
0.0000001
 40
0.0
 40
0.0
 40
0.0
 40
0.0
 40
1.0
 40
1.0
 40
1.0
 40
2.0
 40
2.0
 40
2.0
 40
3.0
 40
3.0
 40
3.0
 40
4.0
 40
4.0
 40
4.0
 40
5.0
 40
5.0
 40
5.0
 40
6.0
 40
6.0
 40
6.0
 40
7.0
 40
7.0
 40
7.0
 40
8.0
 40
8.0
 40
8.0
 40
9.0
 40
9.0
 40
9.0
 40
10.0
 40
10.0
 40
10.0
 40
11.0
 40
11.0
 40
11.0
 40
12.0
 40
12.0
 40
12.0
 40
13.0
 40
13.0
 40
13.0
 40
14.0
 40
14.0
 40
14.0
 40
15.0
 40
15.0
 40
15.0
 40
15.0
 10
336.8220651108
 20
29.3191082851
 30
0.0
 10
336.8220651108
 20
29.3191082851
 30
0.0
 10
338.4312931154
 20
29.3191082851
 30
0.0
 10
338.4312931154
 20
29.3191082851
 30
0.0
 10
338.4312931154
 20
29.3191082851
 30
0.0
 10
336.5582658218
 20
31.6362500565
 30
0.0
 10
336.5582658218
 20
31.6362500565
 30
0.0
 10
336.5582658218
 20
31.6362500565
 30
0.0
 10
337.8346042472
 20
33.1337297511
 30
0.0
 10
337.8346042472
 20
33.1337297511
 30
0.0
 10
337.8346042472
 20
33.1337297511
 30
0.0
 10
337.0023802995
 20
33.9947413196
 30
0.0
 10
337.0023802995
 20
33.9947413196
 30
0.0
 10
337.0023802995
 20
33.9947413196
 30
0.0
 10
335.7817851762
 20
32.5794371972
 30
0.0
 10
335.7817851762
 20
32.5794371972
 30
0.0
 10
335.7817851762
 20
32.5794371972
 30
0.0
 10
333.6038708074
 20
35.2148130316
 30
0.0
 10
333.6038708074
 20
35.2148130316
 30
0.0
 10
334.4774442468
 20
35.8528513916
 30
0.0
 10
335.504115488
 20
36.6438567003
 30
0.0
 10
335.504115488
 20
37.8227097735
 30
0.0
 10
335.504115488
 20
39.1964026985
 30
0.0
 10
334.3662193482
 20
40.0008858479
 30
0.0
 10
333.0909277453
 20
40.0008858479
 30
0.0
 10
331.7174965259
 20
40.0008858479
 30
0.0
 10
330.6765623271
 20
39.1546606483
 30
0.0
 10
330.6765623271
 20
37.7120082861
 30
0.0
 10
330.6765623271
 20
36.8244335947
 30
0.0
 10
331.2319017036
 20
36.0475603906
 30
0.0
 10
331.8280671605
 20
35.4231307242
 30
0.0
 10
331.8280671605
 20
35.4231307242
 30
0.0
 10
331.1761584014
 20
34.9515371538
 30
0.0
 10
331.1761584014
 20
34.9515371538
 30
0.0
 10
330.177620517
 20
34.2302763992
 30
0.0
 10
329.3447423052
 20
33.5090156445
 30
0.0
 10
329.3447423052
 20
32.1774573281
 30
0.0
 10
329.3447423052
 20
30.3737820301
 30
0.0
 10
330.8017884778
 20
29.097181899
 30
0.0
 10
332.5493279151
 20
29.097181899
 30
0.0
 10
333.784185996
 20
29.097181899
 30
0.0
 10
334.8935562207
 20
29.8053573715
 30
0.0
 10
335.6844306767
 20
30.7338889962
 30
0.0
 10
335.6844306767
 20
30.7338889962
 30
0.0
 10
336.8220651108
 20
29.3191082851
 30
0.0
 10
336.8220651108
 20
29.3191082851
 30
0.0
  0
LINE
  5
255
330
21A
100
AcDbEntity
  8
0
  6
Continuous
 62
     7
100
AcDbLine
 10
322.624926
 20
27.292983
 30
0.0
 11
345.038837
 21
27.292983
 31
0.0
  0
LINE
  5
256
330
21A
100
AcDbEntity
  8
0
  6
Continuous
 62
     7
100
AcDbLine
 10
345.038837
 20
27.292983
 30
0.0
 11
345.038837
 21
49.706894
 31
0.0
  0
LINE
  5
257
330
21A
100
AcDbEntity
  8
0
  6
Continuous
 62
     7
100
AcDbLine
 10
345.038837
 20
49.706894
 30
0.0
 11
322.624926
 21
49.706894
 31
0.0
  0
LINE
  5
258
330
21A
100
AcDbEntity
  8
0
  6
Continuous
 62
     7
100
AcDbLine
 10
322.624926
 20
49.706894
 30
0.0
 11
322.624926
 21
27.292983
 31
0.0
  0
ENDBLK
  5
259
330
21A
100
AcDbEntity
  8
0
  6
ByBlock
 62
     0
100
AcDbBlockEnd
  0
BLOCK
  5
27B
330
21B
100
AcDbEntity
  8
0
100
AcDbBlockBegin
  2
*T5
 70
     1
 10
0.0
 20
0.0
 30
0.0
  3
*T5
  1
*T5
  0
LINE
  5
27C
330
21B
100
AcDbEntity
  8
0
  6
Continuous
 62
     2
100
AcDbLine
 10
0.0
 20
0.0
 30
0.0
 11
90.0
 21
0.0
 31
0.0
  0
LINE
  5
27D
330
21B
100
AcDbEntity
  8
0
  6
Continuous
 62
     2
100
AcDbLine
 10
0.0
 20
0.0
 30
0.0
 11
0.0
 21
-40.0
 31
0.0
  0
LINE
  5
27E
330
21B
100
AcDbEntity
  8
0
  6
Continuous
 62
     2
100
AcDbLine
 10
30.0
 20
-6.0
 30
0.0
 11
90.0
 21
-6.0
 31
0.0
  0
LINE
  5
27F
330
21B
100
AcDbEntity
  8
0
  6
Continuous
 62
     2
100
AcDbLine
 10
30.0
 20
-12.0
 30
0.0
 11
90.0
 21
-12.0
 31
0.0
  0
LINE
  5
280
330
21B
100
AcDbEntity
  8
0
  6
Continuous
 62
     2
100
AcDbLine
 10
30.0
 20
-22.0
 30
0.0
 11
90.0
 21
-22.0
 31
0.0
  0
LINE
  5
281
330
21B
100
AcDbEntity
  8
0
  6
Continuous
 62
     2
100
AcDbLine
 10
0.0
 20
-27.0
 30
0.0
 11
90.0
 21
-27.0
 31
0.0
  0
LINE
  5
282
330
21B
100
AcDbEntity
  8
0
  6
Continuous
 62
     2
100
AcDbLine
 10
0.0
 20
-40.0
 30
0.0
 11
90.0
 21
-40.0
 31
0.0
  0
LINE
  5
283
330
21B
100
AcDbEntity
  8
0
  6
Continuous
 62
     2
100
AcDbLine
 10
30.0
 20
0.0
 30
0.0
 11
30.0
 21
-27.0
 31
0.0
  0
LINE
  5
284
330
21B
100
AcDbEntity
  8
0
  6
Continuous
 62
     2
100
AcDbLine
 10
70.0
 20
0.0
 30
0.0
 11
70.0
 21
-12.0
 31
0.0
  0
LINE
  5
285
330
21B
100
AcDbEntity
  8
0
  6
Continuous
 62
     2
100
AcDbLine
 10
90.0
 20
0.0
 30
0.0
 11
90.0
 21
-40.0
 31
0.0
  0
MTEXT
  5
286
330
21B
100
AcDbEntity
  8
9_SOLID
  6
Continuous
 62
     2
100
AcDbMText
 10
31.4875
 20
-1.5
 30
0.0
 40
3.0
 41
48.914498
 46
0.0
 71
     1
 72
     1
  1
A233_C_401
 73
     1
 44
0.9
  0
MTEXT
  5
287
330
21B
100
AcDbEntity
  8
9_SOLID
  6
Continuous
 62
     2
100
AcDbMText
 10
71.4875
 20
-1.25
 30
0.0
 40
3.5
 41
30.966543
 46
0.0
 71
     1
 72
     1
  1
Rev:00
 73
     1
 44
0.9
  0
MTEXT
  5
288
330
21B
100
AcDbEntity
  8
9_SOLID
  6
Continuous
 62
     2
100
AcDbMText
 10
31.4875
 20
-7.75
 30
0.0
 40
3.5
 41
40.724907
 46
0.0
 71
     1
 72
     1
  1
Scale:1:1
 73
     1
 44
0.9
  0
MTEXT
  5
289
330
21B
100
AcDbEntity
  8
9_SOLID
  6
Continuous
 62
     2
100
AcDbMText
 10
71.4875
 20
-7.25
 30
0.0
 40
3.5
 41
11.944238
 46
0.0
 71
     1
 72
     1
  1
A3
 73
     1
 44
0.9
  0
MTEXT
  5
28A
330
21B
100
AcDbEntity
  8
9_SOLID
  6
Continuous
 62
     2
100
AcDbMText
 10
31.4875
 20
-15.25
 30
0.0
 40
3.5
 41
42.858736
 46
0.0
 71
     1
 72
     1
  1
NAKA 1.0
 73
     1
 44
0.9
  0
MTEXT
  5
28B
330
21B
100
AcDbEntity
  8
9_SOLID
  6
Continuous
 62
     2
100
AcDbMText
 10
31.4875
 20
-23.25
 30
0.0
 40
2.5
 41
47.695167
 46
0.0
 71
     1
 72
     1
  1
DATE:28.02.23
 73
     1
 44
0.9
  0
MTEXT
  5
28C
330
21B
100
AcDbEntity
  8
9_SOLID
  6
Continuous
 62
     2
100
AcDbMText
 10
1.4875
 20
-27.3125
 30
0.0
 40
2.25
 41
148.98513
 46
0.0
 71
     1
 72
     1
  1
Any integral or partial reproductions are prohibited \Pwithout prior authorisation of L & L Luce & Light s.r.l., \Pin accordance with the law in force. \PAll rights reserved.
 73
     1
 44
0.9
  0
ENDBLK
  5
28D
330
21B
100
AcDbEntity
  8
0
  6
ByBlock
 62
     0
100
AcDbBlockEnd
  0
ENDSEC
  0
SECTION
  2
ENTITIES
  0
MTEXT
  5
28E
330
214
100
AcDbEntity
  8
0
  6
Continuous
 62
     2
100
AcDbMText
 10
1.646722
 20
53.595027
 30
0.0
 40
4.0
 41
3.428571
 46
0.0
 71
     1
 72
     1
  1
1
  7
TEXTSTYLE_2
 73
     1
 44
0.9
  0
MTEXT
  5
28F
330
214
100
AcDbEntity
  8
0
  6
Continuous
 62
     2
100
AcDbMText
 10
1.646722
 20
153.595027
 30
0.0
 40
4.0
 41
4.714286
 46
0.0
 71
     1
 72
     1
  1
2
  7
TEXTSTYLE_2
 73
     1
 44
0.9
  0
MTEXT
  5
290
330
214
100
AcDbEntity
  8
0
  6
Continuous
 62
     2
100
AcDbMText
 10
1.646722
 20
253.595027
 30
0.0
 40
4.0
 41
4.285714
 46
0.0
 71
     1
 72
     1
  1
3
  7
TEXTSTYLE_2
 73
     1
 44
0.9
  0
MTEXT
  5
291
330
214
100
AcDbEntity
  8
0
  6
Continuous
 62
     2
100
AcDbMText
 10
414.646722
 20
60.626871
 30
0.0
 40
4.0
 41
3.428571
 46
0.0
 71
     1
 72
     1
  1
1
  7
TEXTSTYLE_2
 73
     1
 44
0.9
  0
MTEXT
  5
292
330
214
100
AcDbEntity
  8
0
  6
Continuous
 62
     2
100
AcDbMText
 10
414.646722
 20
160.626871
 30
0.0
 40
4.0
 41
4.714286
 46
0.0
 71
     1
 72
     1
  1
2
  7
TEXTSTYLE_2
 73
     1
 44
0.9
  0
MTEXT
  5
293
330
214
100
AcDbEntity
  8
0
  6
Continuous
 62
     2
100
AcDbMText
 10
414.646722
 20
260.626871
 30
0.0
 40
4.0
 41
4.285714
 46
0.0
 71
     1
 72
     1
  1
3
  7
TEXTSTYLE_2
 73
     1
 44
0.9
  0
MTEXT
  5
294
330
214
100
AcDbEntity
  8
0
  6
Continuous
 62
     2
100
AcDbMText
 10
362.154891
 20
5.35876
 30
0.0
 40
4.0
 41
3.6
 46
0.0
 71
     1
 72
     1
  1
A
  7
TEXTSTYLE_3
 73
     1
 44
0.9
  0
MTEXT
  5
295
330
214
100
AcDbEntity
  8
0
  6
Continuous
 62
     2
100
AcDbMText
 10
262.154891
 20
5.35876
 30
0.0
 40
4.0
 41
3.6
 46
0.0
 71
     1
 72
     1
  1
B
  7
TEXTSTYLE_3
 73
     1
 44
0.9
  0
MTEXT
  5
296
330
214
100
AcDbEntity
  8
0
  6
Continuous
 62
     2
100
AcDbMText
 10
162.154891
 20
5.35876
 30
0.0
 40
4.0
 41
3.6
 46
0.0
 71
     1
 72
     1
  1
C
  7
TEXTSTYLE_3
 73
     1
 44
0.9
  0
MTEXT
  5
297
330
214
100
AcDbEntity
  8
0
  6
Continuous
 62
     2
100
AcDbMText
 10
55.797869
 20
5.535344
 30
0.0
 40
4.0
 41
3.6
 46
0.0
 71
     1
 72
     1
  1
D
  7
TEXTSTYLE_3
 73
     1
 44
0.9
  0
MTEXT
  5
298
330
214
100
AcDbEntity
  8
0
  6
Continuous
 62
     2
100
AcDbMText
 10
362.154891
 20
295.35876
 30
0.0
 40
4.0
 41
3.6
 46
0.0
 71
     1
 72
     1
  1
A
  7
TEXTSTYLE_3
 73
     1
 44
0.9
  0
MTEXT
  5
299
330
214
100
AcDbEntity
  8
0
  6
Continuous
 62
     2
100
AcDbMText
 10
262.154891
 20
295.35876
 30
0.0
 40
4.0
 41
3.6
 46
0.0
 71
     1
 72
     1
  1
B
  7
TEXTSTYLE_3
 73
     1
 44
0.9
  0
MTEXT
  5
29A
330
214
100
AcDbEntity
  8
0
  6
Continuous
 62
     2
100
AcDbMText
 10
162.154891
 20
295.35876
 30
0.0
 40
4.0
 41
3.6
 46
0.0
 71
     1
 72
     1
  1
C
  7
TEXTSTYLE_3
 73
     1
 44
0.9
  0
MTEXT
  5
29B
330
214
100
AcDbEntity
  8
0
  6
Continuous
 62
     2
100
AcDbMText
 10
53.987883
 20
295.57949
 30
0.0
 40
4.0
 41
3.6
 46
0.0
 71
     1
 72
     1
  1
D
  7
TEXTSTYLE_3
 73
     1
 44
0.9
  0
DIMENSION
  5
29C
330
214
100
AcDbEntity
  8
0
  6
Continuous
 62
     2
100
AcDbDimension
280
     0
  2
*D1
 10
107.009339
 20
191.71716
 30
0.0
 11
107.009339
 21
212.349644
 31
0.0
 70
   160
 71
     2
 42
41.395431
 73
     0
 74
     0
 75
     0
  3
DIMSTYLE_1
100
AcDbAlignedDimension
 13
128.160974
 23
233.11259
 33
0.0
 14
149.753867
 24
191.71716
 34
0.0
 50
270.0
100
AcDbRotatedDimension
  0
DIMENSION
  5
29D
330
214
100
AcDbEntity
  8
0
  6
Continuous
 62
     2
100
AcDbDimension
280
     0
  2
*D2
 10
177.453867
 20
159.23157
 30
0.0
 11
152.445824
 21
159.23157
 31
0.0
 70
   160
 71
     2
 42
50.0
 73
     0
 74
     0
 75
     0
  3
DIMSTYLE_1
100
AcDbAlignedDimension
 13
127.453867
 23
145.932847
 33
0.0
 14
177.453867
 24
145.932847
 34
0.0
100
AcDbRotatedDimension
  0
DIMENSION
  5
29E
330
214
100
AcDbEntity
  8
0
  6
Continuous
 62
     2
100
AcDbDimension
280
     0
  2
*D3
 10
107.009339
 20
96.432847
 30
0.0
 11
107.009339
 21
121.424804
 31
0.0
 70
   160
 71
     2
 42
50.0
 73
     0
 74
     0
 75
     0
  3
DIMSTYLE_1
100
AcDbAlignedDimension
 13
127.953867
 23
146.432847
 33
0.0
 14
127.953867
 24
96.432847
 34
0.0
 50
270.0
100
AcDbRotatedDimension
  0
INSERT
  5
29F
330
214
100
AcDbEntity
  8
0
  6
Continuous
 62
     2
100
AcDbBlockReference
  2
LOGO2_BL0
 10
333.831816
 20
36.583206
 30
0.0
  0
ACAD_TABLE
  5
2A0
102
{ACAD_XDICTIONARY
360
3D0
102
}
330
214
100
AcDbEntity
  8
0
  6
Continuous
 62
     2
160
              3304
310
E80C000017000000880000001D000000000000000000F03F000000000000000000000000000000009DBFA1A1170074400000000000000000000000000000F03F000000000000000071C60482A60A494000000000000000000000000000000000000000000000F03F0000000000000000000000000000000000000000000000
310
000000000000000000000000000000F03F54000000200000000200000000000000000000000000000000000000000000000000000000000000008056400000000000000000000000000000000000000000000000000000000000000000000000000000F03F5400000020000000020000000000000000000000000000000000
310
00000000000000000000000000000000000000000000000044C0000000000000000000000000000000000000000000000000000000000000F03F5400000020000000020000000000000000003E4000000000000018C00000000000000000000000000080564000000000000018C00000000000000000000000000000000000
310
00000000000000000000000000F03F5400000020000000020000000000000000003E4000000000000028C00000000000000000000000000080564000000000000028C0000000000000000000000000000000000000000000000000000000000000F03F5400000020000000020000000000000000003E4000000000000036C0
310
0000000000000000000000000080564000000000000036C0000000000000000000000000000000000000000000000000000000000000F03F54000000200000000200000000000000000000000000000000003BC0000000000000000000000000008056400000000000003BC000000000000000000000000000000000000000
310
0000000000000000000000F03F540000002000000002000000000000000000000000000000000044C00000000000000000000000000080564000000000000044C0000000000000000000000000000000000000000000000000000000000000F03F5400000020000000020000000000000000003E4000000000000000000000
310
0000000000000000000000003E400000000000003BC0000000000000000000000000000000000000000000000000000000000000F03F540000002000000002000000000000000080514000000000000000000000000000000000000000000080514000000000000028C0000000000000000000000000000000000000000000
310
000000000000000000F03F540000002000000002000000000000000080564000000000000000000000000000000000000000000080564000000000000044C0000000000000000000000000000000000000000000000000000000000000F03F0C0000001000000014000000D000000026000000CDCCCCCCCC7C3F404E621058
310
393412C0000000000000000000000000000000000000000000000000000000000000F03F000000000000F03F0000000000000000000000000000000041003200330033005F0043005F003400300031000000000014000000010000000000000000000840000000000000F03F0000000000000000000000000000F03F000000
310
0000000000000000000000000000000000000000000000000000000000000000000000000061007200690061006C002E00740074006600000000000000C800000026000000C2F5285C8FC6514075931804560E13C0000000000000000000000000000000000000000000000000000000000000F03F000000000000F03F0000
310
00000000000000000000000000005200650076003A0030003000000000000C000000010000000000000000000C40000000000000F03F0000000000000000000000000000F03F0000000000000000000000000000000000000000000000000000000000000000000000000000000061007200690061006C002E007400740066
310
00000000000000CC00000026000000FA7E6ABC74433F405839B4C8769E26C0000000000000000000000000000000000000000000000000000000000000F03F000000000000F03F000000000000000000000000000000005300630061006C0065003A0031003A003100000012000000010000000000000000000C4000000000
310
0000F03F0000000000000000000000000000F03F0000000000000000000000000000000000000000000000000000000000000000000000000000000061007200690061006C002E00740074006600000000000000C0000000260000003333333333DF5140BA490C022B8725C000000000000000000000000000000000000000
310
0000000000000000000000F03F000000000000F03F00000000000000000000000000000000410033000000000004000000010000000000000000000C40000000000000F03F0000000000000000000000000000F03F000000000000000000000000000000000000000000000000000000000000000000000000000000006100
310
7200690061006C002E00740074006600000000000000CC00000026000000E8FBA9F1D21D3F40DD24068195C332C0000000000000000000000000000000000000000000000000000000000000F03F000000000000F03F000000000000000000000000000000004E0041004B004100200031002E003000000000001000000001
310
0000000000000000000C40000000000000F03F0000000000000000000000000000F03F0000000000000000000000000000000000000000000000000000000000000000000000000000000061007200690061006C002E00740074006600000000000000D40000002600000048E17A14AE373F40C3F5285C8FC239C000000000
310
0000000000000000000000000000000000000000000000000000F03F000000000000F03F0000000000000000000000000000000044004100540045003A00320038002E00300032002E003200330000001A000000010000000000000000000440000000000000F03F0000000000000000000000000000F03F00000000000000
310
00000000000000000000000000000000000000000000000000000000000000000061007200690061006C002E007400740066000000000000002401000026000000CDCCCCCCCCCCF73F0000000000903DC0000000000000000000000000000000000000000000000000000000000000F03F000000000000F03F000000000000
310
0000000000000000000041006E007900200069006E00740065006700720061006C0020006F00720020007000610072007400690061006C00200072006500700072006F00640075006300740069006F006E00730020006100720065002000700072006F00680069006200690074006500640000000000680000000100000000
310
00000000000240000000000000F03F0000000000000000000000000000F03F0000000000000000000000000000000000000000000000000000000000000000000000000000000061007200690061006C002E007400740066000000000000002C01000026000000FED478E926B1F73F37894160E57C40C00000000000000000
310
00000000000000000000000000000000000000000000F03F000000000000F03F0000000000000000000000000000000077006900740068006F007500740020007000720069006F007200200061007500740068006F007200690073006100740069006F006E0020006F00660020004C002000260020004C0020004C00750063
310
0065002000260020004C006900670068007400200073002E0072002E006C002E002C00000072000000010000000000000000000240000000000000F03F0000000000000000000000000000F03F0000000000000000000000000000000000000000000000000000000000000000000000000000000061007200690061006C00
310
2E007400740066000000000000000401000026000000C1CAA145B673F43F4F1E166A4D3142C0000000000000000000000000000000000000000000000000000000000000F03F000000000000F03F0000000000000000000000000000000069006E0020006100630063006F007200640061006E006300650020007700690074
310
006800200074006800650020006C0061007700200069006E00200066006F007200630065002E000000000048000000010000000000000000000240000000000000F03F0000000000000000000000000000F03F0000000000000000000000000000000000000000000000000000000000000000000000000000000061007200
310
690061006C002E00740074006600000000000000E400000026000000CDCCCCCCCCCCF73F302AA913D0E043C0000000000000000000000000000000000000000000000000000000000000F03F000000000000F03F0000000000000000000000000000000041006C006C00200072006900670068007400730020007200650073
310
00650072007600650064002E000000000028000000010000000000000000000240000000000000F03F0000000000000000000000000000F03F0000000000000000000000000000000000000000000000000000000000000000000000000000000061007200690061006C002E00740074006600000000000000080000001F00
310
0000
100
AcDbBlockReference
  2
*T5
 10
320.005769
 20
50.083206
 30
0.0
100
AcDbTable
342
3A2
343
21B
 11
1.0
 21
0.0
 31
0.0
 90
       22
 91
        5
 92
        5
 93
        0
 94
        0
 95
        0
 96
        0
141
6.0
141
6.0
141
10.0
141
5.0
141
13.0
142
10.0
142
10.0
142
10.0
142
40.0
142
20.0
171
     1
172
     0
173
     0
174
     0
175
     3
176
     4
 91
       32
178
     0
145
0.0
140
3.5
 92
        0
301
CELL_VALUE
 93
        2
 90
        4
  1
 
 94
        0
300

302
 
304
ACVALUE_END
171
     1
172
     0
173
     1
174
     0
175
     1
176
     1
 91
        0
178
     0
145
0.0
 92
        0
301
CELL_VALUE
 93
        3
 90
        0
 91
        0
 94
        0
300

302

304
ACVALUE_END
171
     1
172
     0
173
     1
174
     0
175
     1
176
     1
 91
        0
178
     0
145
0.0
 92
        0
301
CELL_VALUE
 93
        3
 90
        0
 91
        0
 94
        0
300

302

304
ACVALUE_END
171
     1
172
     0
173
     0
174
     0
175
     1
176
     1
 91
       33
178
     0
145
0.0
170
     4
140
3.0
 92
        0
301
CELL_VALUE
 93
        2
 90
        4
  1
A233_C_401
 94
        0
300

302
A233_C_401
304
ACVALUE_END
171
     1
172
     0
173
     0
174
     0
175
     1
176
     1
 91
       33
178
     0
145
0.0
170
     4
140
3.5
 92
        0
301
CELL_VALUE
 93
        2
 90
        4
  1
Rev:00
 94
        0
300

302
Rev:00
304
ACVALUE_END
171
     1
172
     0
173
     1
174
     0
175
     1
176
     1
 91
        0
178
     0
145
0.0
 92
        0
301
CELL_VALUE
 93
        3
 90
        0
 91
        0
 94
        0
300

302

304
ACVALUE_END
171
     1
172
     0
173
     1
174
     0
175
     1
176
     1
 91
        0
178
     0
145
0.0
 92
        0
301
CELL_VALUE
 93
        3
 90
        0
 91
        0
 94
        0
300

302

304
ACVALUE_END
171
     1
172
     0
173
     1
174
     0
175
     1
176
     1
 91
        0
178
     0
145
0.0
 92
        0
301
CELL_VALUE
 93
        3
 90
        0
 91
        0
 94
        0
300

302

304
ACVALUE_END
171
     1
172
     0
173
     0
174
     0
175
     1
176
     1
 91
       33
178
     0
145
0.0
170
     1
140
3.5
 92
        0
301
CELL_VALUE
 93
        2
 90
        4
  1
Scale:1:1
 94
        0
300

302
Scale:1:1
304
ACVALUE_END
171
     1
172
     0
173
     0
174
     0
175
     1
176
     1
 91
       33
178
     0
145
0.0
170
     4
140
3.5
 92
        0
301
CELL_VALUE
 93
        2
 90
        4
  1
A3
 94
        0
300

302
A3
304
ACVALUE_END
171
     1
172
     0
173
     1
174
     0
175
     1
176
     1
 91
        0
178
     0
145
0.0
 92
        0
301
CELL_VALUE
 93
        3
 90
        0
 91
        0
 94
        0
300

302

304
ACVALUE_END
171
     1
172
     0
173
     1
174
     0
175
     1
176
     1
 91
        0
178
     0
145
0.0
 92
        0
301
CELL_VALUE
 93
        3
 90
        0
 91
        0
 94
        0
300

302

304
ACVALUE_END
171
     1
172
     0
173
     1
174
     0
175
     1
176
     1
 91
        0
178
     0
145
0.0
 92
        0
301
CELL_VALUE
 93
        3
 90
        0
 91
        0
 94
        0
300

302

304
ACVALUE_END
171
     1
172
     0
173
     0
174
     0
175
     2
176
     1
 91
       33
178
     0
145
0.0
170
     4
140
3.5
 92
        0
301
CELL_VALUE
 93
        2
 90
        4
  1
NAKA 1.0
 94
        0
300

302
NAKA 1.0
304
ACVALUE_END
171
     1
172
     0
173
     1
174
     0
175
     1
176
     1
 91
        0
178
     0
145
0.0
 92
        0
301
CELL_VALUE
 93
        3
 90
        0
 91
        0
 94
        0
300

302

304
ACVALUE_END
171
     1
172
     0
173
     1
174
     0
175
     1
176
     1
 91
        0
178
     0
145
0.0
 92
        0
301
CELL_VALUE
 93
        3
 90
        0
 91
        0
 94
        0
300

302

304
ACVALUE_END
171
     1
172
     0
173
     1
174
     0
175
     1
176
     1
 91
        0
178
     0
145
0.0
 92
        0
301
CELL_VALUE
 93
        3
 90
        0
 91
        0
 94
        0
300

302

304
ACVALUE_END
171
     1
172
     0
173
     1
174
     0
175
     1
176
     1
 91
        0
178
     0
145
0.0
 92
        0
301
CELL_VALUE
 93
        3
 90
        0
 91
        0
 94
        0
300

302

304
ACVALUE_END
171
     1
172
     0
173
     0
174
     0
175
     2
176
     1
 91
       33
178
     0
145
0.0
170
     4
140
2.5
 92
        0
301
CELL_VALUE
 93
        2
 90
        4
  1
DATE:28.02.23
 94
        0
300

302
DATE:28.02.23
304
ACVALUE_END
171
     1
172
     0
173
     1
174
     0
175
     1
176
     1
 91
        0
178
     0
145
0.0
 92
        0
301
CELL_VALUE
 93
        3
 90
        0
 91
        0
 94
        0
300

302

304
ACVALUE_END
171
     1
172
     0
173
     0
174
     0
175
     5
176
     1
 91
       33
178
     0
145
0.0
170
     4
140
2.25
 92
        0
301
CELL_VALUE
 93
        2
 90
        4
  1
Any integral or partial reproductions are prohibited \Pwithout prior authorisation of L & L Luce & Light s.r.l., \Pin accordance with the law in force. \PAll rights reserved.
 94
        0
300

302
Any integral or partial reproductions are prohibited \Pwithout prior authorisation of L & L Luce & Light s.r.l., \Pin accordance with the law in force. \PAll rights reserved.
304
ACVALUE_END
171
     1
172
     0
173
     1
174
     0
175
     1
176
     1
 91
        0
178
     0
145
0.0
 92
        0
301
CELL_VALUE
 93
        3
 90
        0
 91
        0
 94
        0
300

302

304
ACVALUE_END
171
     1
172
     0
173
     1
174
     0
175
     1
176
     1
 91
        0
178
     0
145
0.0
 92
        0
301
CELL_VALUE
 93
        3
 90
        0
 91
        0
 94
        0
300

302

304
ACVALUE_END
171
     1
172
     0
173
     1
174
     0
175
     1
176
     1
 91
        0
178
     0
145
0.0
 92
        0
301
CELL_VALUE
 93
        3
 90
        0
 91
        0
 94
        0
300

302

304
ACVALUE_END
171
     1
172
     0
173
     1
174
     0
175
     1
176
     1
 91
        0
178
     0
145
0.0
 92
        0
301
CELL_VALUE
 93
        3
 90
        0
 91
        0
 94
        0
300

302

304
ACVALUE_END
  0
LINE
  5
2A1
330
214
100
AcDbEntity
  8
0
  6
Continuous
 62
     7
100
AcDbLine
 10
0.0
 20
0.0
 30
0.0
 11
0.0
 21
297.0
 31
0.0
  0
LWPOLYLINE
  5
2A2
330
214
100
AcDbEntity
  8
0
  6
Continuous
 62
     7
100
AcDbPolyline
 90
        2
 70
     0
 43
0.1
 10
7.053631
 20
0.0
 10
7.053631
 20
297.0
  0
LWPOLYLINE
  5
2A3
330
214
100
AcDbEntity
  8
0
  6
Continuous
 62
     7
100
AcDbPolyline
 90
        2
 70
     0
 43
0.5
 10
10.053631
 20
10.031844
 10
10.053631
 20
287.0
  0
LINE
  5
2A4
330
214
100
AcDbEntity
  8
0
  6
Continuous
 62
     7
100
AcDbLine
 10
0.0
 20
0.0
 30
0.0
 11
420.0
 21
0.0
 31
0.0
  0
LWPOLYLINE
  5
2A5
330
214
100
AcDbEntity
  8
0
  6
Continuous
 62
     7
100
AcDbPolyline
 90
        2
 70
     0
 43
0.1
 10
0.0
 20
7.031844
 10
420.0
 20
7.031844
  0
LWPOLYLINE
  5
2A6
330
214
100
AcDbEntity
  8
0
  6
Continuous
 62
     7
100
AcDbPolyline
 90
        2
 70
     0
 43
0.5
 10
10.053631
 20
10.031844
 10
410.0
 20
10.031844
  0
LINE
  5
2A7
330
214
100
AcDbEntity
  8
0
  6
Continuous
 62
     7
100
AcDbLine
 10
113.0
 20
297.0
 30
0.0
 11
113.0
 21
290.0
 31
0.0
  0
LINE
  5
2A8
330
214
100
AcDbEntity
  8
0
  6
Continuous
 62
     7
100
AcDbLine
 10
113.0
 20
7.0
 30
0.0
 11
113.0
 21
0.0
 31
0.0
  0
LWPOLYLINE
  5
2A9
330
214
100
AcDbEntity
  8
0
  6
Continuous
 62
     7
100
AcDbPolyline
 90
        2
 70
     0
 43
0.1
 10
123.0
 20
10.0
 10
123.0
 20
0.0
  0
LWPOLYLINE
  5
2AA
330
214
100
AcDbEntity
  8
0
  6
Continuous
 62
     7
100
AcDbPolyline
 90
        2
 70
     0
 43
0.1
 10
123.0
 20
287.0
 10
123.0
 20
297.0
  0
LINE
  5
2AB
330
214
100
AcDbEntity
  8
0
  6
Continuous
 62
     7
100
AcDbLine
 10
0.0
 20
99.968156
 30
0.0
 11
7.0
 21
99.968156
 31
0.0
  0
LINE
  5
2AC
330
214
100
AcDbEntity
  8
0
  6
Continuous
 62
     7
100
AcDbLine
 10
413.0
 20
107.0
 30
0.0
 11
420.0
 21
107.0
 31
0.0
  0
LWPOLYLINE
  5
2AD
330
214
100
AcDbEntity
  8
0
  6
Continuous
 62
     7
100
AcDbPolyline
 90
        2
 70
     0
 43
0.1
 10
210.0
 20
10.0
 10
210.0
 20
0.0
  0
LWPOLYLINE
  5
2AE
330
214
100
AcDbEntity
  8
0
  6
Continuous
 62
     7
100
AcDbPolyline
 90
        2
 70
     0
 43
0.1
 10
210.0
 20
287.0
 10
210.0
 20
297.0
  0
LWPOLYLINE
  5
2AF
330
214
100
AcDbEntity
  8
0
  6
Continuous
 62
     7
100
AcDbPolyline
 90
        2
 70
     0
 43
0.1
 10
10.0
 20
148.5
 10
0.0
 20
148.5
  0
LWPOLYLINE
  5
2B0
330
214
100
AcDbEntity
  8
0
  6
Continuous
 62
     7
100
AcDbPolyline
 90
        2
 70
     0
 43
0.1
 10
410.0
 20
148.5
 10
420.0
 20
148.5
  0
LINE
  5
2B1
330
214
100
AcDbEntity
  8
0
  6
Continuous
 62
     7
100
AcDbLine
 10
0.0
 20
199.968156
 30
0.0
 11
7.0
 21
199.968156
 31
0.0
  0
LWPOLYLINE
  5
2B2
330
214
100
AcDbEntity
  8
0
  6
Continuous
 62
     7
100
AcDbPolyline
 90
        2
 70
     0
 43
0.1
 10
10.0
 20
202.968156
 10
0.0
 20
202.968156
  0
LWPOLYLINE
  5
2B3
330
214
100
AcDbEntity
  8
0
  6
Continuous
 62
     7
100
AcDbPolyline
 90
        2
 70
     0
 43
0.1
 10
410.0
 20
210.0
 10
420.0
 20
210.0
  0
LINE
  5
2B4
330
214
100
AcDbEntity
  8
0
  6
Continuous
 62
     7
100
AcDbLine
 10
313.0
 20
297.0
 30
0.0
 11
313.0
 21
290.0
 31
0.0
  0
LINE
  5
2B5
330
214
100
AcDbEntity
  8
0
  6
Continuous
 62
     7
100
AcDbLine
 10
313.0
 20
7.0
 30
0.0
 11
313.0
 21
0.0
 31
0.0
  0
LWPOLYLINE
  5
2B6
330
214
100
AcDbEntity
  8
0
  6
Continuous
 62
     7
100
AcDbPolyline
 90
        2
 70
     0
 43
0.5
 10
10.053631
 20
287.0
 10
410.0
 20
287.0
  0
LWPOLYLINE
  5
2B7
330
214
100
AcDbEntity
  8
0
  6
Continuous
 62
     7
100
AcDbPolyline
 90
        2
 70
     0
 43
0.1
 10
0.0
 20
290.0
 10
420.0
 20
290.0
  0
LINE
  5
2B8
330
214
100
AcDbEntity
  8
0
  6
Continuous
 62
     7
100
AcDbLine
 10
0.0
 20
297.0
 30
0.0
 11
420.0
 21
297.0
 31
0.0
  0
LWPOLYLINE
  5
2B9
330
214
100
AcDbEntity
  8
0
  6
Continuous
 62
     7
100
AcDbPolyline
 90
        2
 70
     0
 43
0.5
 10
410.0
 20
10.031844
 10
410.0
 20
287.0
  0
LWPOLYLINE
  5
2BA
330
214
100
AcDbEntity
  8
0
  6
Continuous
 62
     7
100
AcDbPolyline
 90
        2
 70
     0
 43
0.1
 10
413.0
 20
0.0
 10
413.0
 20
297.0
  0
LINE
  5
2BB
330
214
100
AcDbEntity
  8
0
  6
Continuous
 62
     7
100
AcDbLine
 10
420.0
 20
0.0
 30
0.0
 11
420.0
 21
297.0
 31
0.0
  0
LINE
  5
2BC
330
214
100
AcDbEntity
  8
7_ALL_FEATURES
  6
Continuous
 62
     7
100
AcDbLine
 10
127.953867
 20
232.61259
 30
0.0
 11
128.160974
 21
233.11259
 31
0.0
  0
LINE
  5
2BD
330
214
100
AcDbEntity
  8
7_ALL_FEATURES
  6
Continuous
 62
     7
100
AcDbLine
 10
127.453867
 20
232.61259
 30
0.0
 11
127.953867
 21
233.11259
 31
0.0
  0
LINE
  5
2BE
330
214
100
AcDbEntity
  8
7_ALL_FEATURES
  6
Continuous
 62
     7
100
AcDbLine
 10
127.453867
 20
232.61259
 30
0.0
 11
127.453867
 21
229.61259
 31
0.0
  0
LINE
  5
2BF
330
214
100
AcDbEntity
  8
7_ALL_FEATURES
  6
Continuous
 62
     7
100
AcDbLine
 10
127.953867
 20
232.61259
 30
0.0
 11
127.953867
 21
229.61259
 31
0.0
  0
LINE
  5
2C0
330
214
100
AcDbEntity
  8
7_ALL_FEATURES
  6
Continuous
 62
     9
100
AcDbLine
 10
130.995063
 20
229.11259
 30
0.0
 11
130.995063
 21
228.621316
 31
0.0
  0
LINE
  5
2C1
330
214
100
AcDbEntity
  8
7_ALL_FEATURES
  6
Continuous
 62
     7
100
AcDbLine
 10
129.495292
 20
228.621316
 30
0.0
 11
129.477685
 21
227.61259
 31
0.0
  0
LINE
  5
2C2
330
214
100
AcDbEntity
  8
7_ALL_FEATURES
  6
Continuous
 62
     9
100
AcDbLine
 10
130.995063
 20
228.621316
 30
0.0
 11
130.977456
 21
227.61259
 31
0.0
  0
LINE
  5
2C3
330
214
100
AcDbEntity
  8
7_ALL_FEATURES
  6
Continuous
 62
     3
100
AcDbLine
 10
133.945652
 20
201.204667
 30
0.0
 11
129.312943
 21
210.104017
 31
0.0
  0
LINE
  5
2C4
330
214
100
AcDbEntity
  8
7_ALL_FEATURES
  6
Continuous
 62
     7
100
AcDbLine
 10
149.753867
 20
191.71716
 30
0.0
 11
155.153867
 21
191.71716
 31
0.0
  0
LINE
  5
2C5
330
214
100
AcDbEntity
  8
7_ALL_FEATURES
  6
Continuous
 62
     7
100
AcDbLine
 10
134.389157
 20
201.435541
 30
0.0
 11
129.756448
 21
210.334892
 31
0.0
  0
LINE
  5
2C6
330
214
100
AcDbEntity
  8
7_ALL_FEATURES
  6
Continuous
 62
     9
100
AcDbLine
 10
135.399047
 20
203.11259
 30
0.0
 11
135.416198
 21
202.621316
 31
0.0
  0
LINE
  5
2C7
330
214
100
AcDbEntity
  8
7_ALL_FEATURES
  6
Continuous
 62
     7
100
AcDbLine
 10
134.934034
 20
201.603864
 30
0.0
 11
134.488625
 21
227.121316
 31
0.0
  0
LINE
  5
2C8
330
214
100
AcDbEntity
  8
7_ALL_FEATURES
  6
Continuous
 62
     9
100
AcDbLine
 10
135.416198
 20
202.621316
 30
0.0
 11
135.433958
 21
201.603864
 31
0.0
  0
LINE
  5
2C9
330
214
100
AcDbEntity
  8
3_ALL_AXES
  6
Continuous
 62
     7
100
AcDbLine
 10
134.653867
 20
200.23259
 30
0.0
 11
134.653867
 21
200.61259
 31
0.0
  0
LINE
  5
2CA
330
214
100
AcDbEntity
  8
7_ALL_FEATURES
  6
Continuous
 62
     9
100
AcDbLine
 10
134.921364
 20
200.61259
 30
0.0
 11
134.921364
 21
201.11259
 31
0.0
  0
LINE
  5
2CB
330
214
100
AcDbEntity
  8
7_ALL_FEATURES
  6
Continuous
 62
     9
100
AcDbLine
 10
135.433958
 20
201.603864
 30
0.0
 11
135.433958
 21
201.11259
 31
0.0
  0
LINE
  5
2CC
330
214
100
AcDbEntity
  8
7_ALL_FEATURES
  6
Continuous
 62
     3
100
AcDbLine
 10
130.122511
 20
215.363866
 30
0.0
 11
131.112788
 21
216.354144
 31
0.0
  0
LINE
  5
2CD
330
214
100
AcDbEntity
  8
7_ALL_FEATURES
  6
Continuous
 62
     7
100
AcDbLine
 10
131.466342
 20
216.00059
 30
0.0
 11
130.476065
 21
215.010313
 31
0.0
  0
LINE
  5
2CE
330
214
100
AcDbEntity
  8
3_ALL_AXES
  6
Continuous
 62
     9
100
AcDbLine
 10
147.103014
 20
195.11259
 30
0.0
 11
157.80472
 21
195.11259
 31
0.0
  0
LINE
  5
2CF
330
214
100
AcDbEntity
  8
7_ALL_FEATURES
  6
Continuous
 62
     9
100
AcDbLine
 10
137.398743
 20
203.603864
 30
0.0
 11
136.988244
 21
227.121316
 31
0.0
  0
LINE
  5
2D0
330
214
100
AcDbEntity
  8
7_ALL_FEATURES
  6
Continuous
 62
     9
100
AcDbLine
 10
136.988244
 20
227.121316
 30
0.0
 11
136.988244
 21
227.61259
 31
0.0
  0
LINE
  5
2D1
330
214
100
AcDbEntity
  8
7_ALL_FEATURES
  6
Continuous
 62
     9
100
AcDbLine
 10
137.398743
 20
203.11259
 30
0.0
 11
137.398743
 21
203.603864
 31
0.0
  0
LINE
  5
2D2
330
214
100
AcDbEntity
  8
3_ALL_AXES
  6
Continuous
 62
     7
100
AcDbLine
 10
147.103014
 20
195.61259
 30
0.0
 11
157.80472
 21
195.61259
 31
0.0
  0
LINE
  5
2D3
330
214
100
AcDbEntity
  8
3_ALL_AXES
  6
Continuous
 62
     7
100
AcDbLine
 10
147.103014
 20
195.61259
 30
0.0
 11
146.953867
 21
195.761737
 31
0.0
  0
LINE
  5
2D4
330
214
100
AcDbEntity
  8
7_ALL_FEATURES
  6
Continuous
 62
     7
100
AcDbLine
 10
127.953867
 20
229.61259
 30
0.0
 11
128.160974
 21
229.11259
 31
0.0
  0
LINE
  5
2D5
330
214
100
AcDbEntity
  8
3_ALL_AXES
  6
Continuous
 62
     7
100
AcDbLine
 10
168.418867
 20
198.41259
 30
0.0
 11
164.488867
 21
198.41259
 31
0.0
  0
LINE
  5
2D6
330
214
100
AcDbEntity
  8
3_ALL_AXES
  6
Continuous
 62
     7
100
AcDbLine
 10
140.418867
 20
198.41259
 30
0.0
 11
136.488867
 21
198.41259
 31
0.0
  0
LINE
  5
2D7
330
214
100
AcDbEntity
  8
7_ALL_FEATURES
  6
Continuous
 62
     7
100
AcDbLine
 10
160.953867
 20
199.11259
 30
0.0
 11
159.945216
 21
199.11259
 31
0.0
  0
LINE
  5
2D8
330
214
100
AcDbEntity
  8
7_ALL_FEATURES
  6
Continuous
 62
     7
100
AcDbLine
 10
143.953867
 20
199.11259
 30
0.0
 11
144.962519
 21
199.11259
 31
0.0
  0
LINE
  5
2D9
330
214
100
AcDbEntity
  8
7_ALL_FEATURES
  6
Continuous
 62
     9
100
AcDbLine
 10
160.953867
 20
199.603864
 30
0.0
 11
159.945216
 21
199.603864
 31
0.0
  0
LINE
  5
2DA
330
214
100
AcDbEntity
  8
7_ALL_FEATURES
  6
Continuous
 62
     9
100
AcDbLine
 10
143.953867
 20
199.603864
 30
0.0
 11
144.962519
 21
199.603864
 31
0.0
  0
LINE
  5
2DB
330
214
100
AcDbEntity
  8
7_ALL_FEATURES
  6
Continuous
 62
     7
100
AcDbLine
 10
130.084079
 20
214.554426
 30
0.0
 11
129.726942
 21
214.911563
 31
0.0
  0
LINE
  5
2DC
330
214
100
AcDbEntity
  8
3_ALL_AXES
  6
Continuous
 62
     7
100
AcDbLine
 10
157.953867
 20
200.16259
 30
0.0
 11
146.953867
 21
200.16259
 31
0.0
  0
LINE
  5
2DD
330
214
100
AcDbEntity
  8
3_ALL_AXES
  6
Continuous
 62
     7
100
AcDbLine
 10
170.253867
 20
200.23259
 30
0.0
 11
162.653867
 21
200.23259
 31
0.0
  0
LINE
  5
2DE
330
214
100
AcDbEntity
  8
3_ALL_AXES
  6
Continuous
 62
     7
100
AcDbLine
 10
142.253867
 20
200.23259
 30
0.0
 11
134.653867
 21
200.23259
 31
0.0
  0
LINE
  5
2DF
330
214
100
AcDbEntity
  8
3_ALL_AXES
  6
Continuous
 62
     7
100
AcDbLine
 10
170.253867
 20
200.61259
 30
0.0
 11
169.986371
 21
200.61259
 31
0.0
  0
LINE
  5
2E0
330
214
100
AcDbEntity
  8
7_ALL_FEATURES
  6
Continuous
 62
     3
100
AcDbLine
 10
169.986371
 20
200.61259
 30
0.0
 11
162.653867
 21
200.61259
 31
0.0
  0
LINE
  5
2E1
330
214
100
AcDbEntity
  8
7_ALL_FEATURES
  6
Continuous
 62
     3
100
AcDbLine
 10
142.253867
 20
200.61259
 30
0.0
 11
134.921364
 21
200.61259
 31
0.0
  0
LINE
  5
2E2
330
214
100
AcDbEntity
  8
3_ALL_AXES
  6
Continuous
 62
     7
100
AcDbLine
 10
134.921364
 20
200.61259
 30
0.0
 11
134.653867
 21
200.61259
 31
0.0
  0
LINE
  5
2E3
330
214
100
AcDbEntity
  8
3_ALL_AXES
  6
Continuous
 62
     7
100
AcDbLine
 10
157.953867
 20
200.86259
 30
0.0
 11
146.953867
 21
200.86259
 31
0.0
  0
LINE
  5
2E4
330
214
100
AcDbEntity
  8
7_ALL_FEATURES
  6
Continuous
 62
     7
100
AcDbLine
 10
169.986371
 20
201.11259
 30
0.0
 11
161.953867
 21
201.11259
 31
0.0
  0
LINE
  5
2E5
330
214
100
AcDbEntity
  8
7_ALL_FEATURES
  6
Continuous
 62
     7
100
AcDbLine
 10
134.921364
 20
201.11259
 30
0.0
 11
142.953867
 21
201.11259
 31
0.0
  0
LINE
  5
2E6
330
214
100
AcDbEntity
  8
7_ALL_FEATURES
  6
Continuous
 62
     9
100
AcDbLine
 10
169.473777
 20
201.603864
 30
0.0
 11
161.953867
 21
201.603864
 31
0.0
  0
LINE
  5
2E7
330
214
100
AcDbEntity
  8
7_ALL_FEATURES
  6
Continuous
 62
     9
100
AcDbLine
 10
135.433958
 20
201.603864
 30
0.0
 11
142.953867
 21
201.603864
 31
0.0
  0
LINE
  5
2E8
330
214
100
AcDbEntity
  8
7_ALL_FEATURES
  6
Continuous
 62
     7
100
AcDbLine
 10
131.466342
 20
216.00059
 30
0.0
 11
131.112788
 21
216.354144
 31
0.0
  0
LINE
  5
2E9
330
214
100
AcDbEntity
  8
3_ALL_AXES
  6
Continuous
 62
     7
100
AcDbLine
 10
142.253867
 20
200.23259
 30
0.0
 11
142.253867
 21
200.61259
 31
0.0
  0
LINE
  5
2EA
330
214
100
AcDbEntity
  8
7_ALL_FEATURES
  6
Continuous
 62
     7
100
AcDbLine
 10
142.253867
 20
200.61259
 30
0.0
 11
142.253867
 21
201.11259
 31
0.0
  0
LINE
  5
2EB
330
214
100
AcDbEntity
  8
7_ALL_FEATURES
  6
Continuous
 62
     9
100
AcDbLine
 10
142.953867
 20
201.603864
 30
0.0
 11
142.953867
 21
201.11259
 31
0.0
  0
LINE
  5
2EC
330
214
100
AcDbEntity
  8
7_ALL_FEATURES
  6
Continuous
 62
     7
100
AcDbLine
 10
143.453867
 20
200.61259
 30
0.0
 11
143.453867
 21
199.61259
 31
0.0
  0
LINE
  5
2ED
330
214
100
AcDbEntity
  8
7_ALL_FEATURES
  6
Continuous
 62
     9
100
AcDbLine
 10
143.953867
 20
200.603864
 30
0.0
 11
143.953867
 21
199.11259
 31
0.0
  0
LINE
  5
2EE
330
214
100
AcDbEntity
  8
7_ALL_FEATURES
  6
Continuous
 62
     9
100
AcDbLine
 10
129.312943
 20
210.104017
 30
0.0
 11
129.756448
 21
210.334892
 31
0.0
  0
LINE
  5
2EF
330
214
100
AcDbEntity
  8
7_ALL_FEATURES
  6
Continuous
 62
     9
100
AcDbLine
 10
135.416198
 20
202.621316
 30
0.0
 11
145.015188
 21
202.621316
 31
0.0
  0
LINE
  5
2F0
330
214
100
AcDbEntity
  8
7_ALL_FEATURES
  6
Continuous
 62
     9
100
AcDbLine
 10
159.892546
 20
202.621316
 30
0.0
 11
169.491536
 21
202.621316
 31
0.0
  0
LINE
  5
2F1
330
214
100
AcDbEntity
  8
7_ALL_FEATURES
  6
Continuous
 62
     7
100
AcDbLine
 10
169.508687
 20
203.11259
 30
0.0
 11
135.399047
 21
203.11259
 31
0.0
  0
LINE
  5
2F2
330
214
100
AcDbEntity
  8
7_ALL_FEATURES
  6
Continuous
 62
     9
100
AcDbLine
 10
167.508991
 20
203.603864
 30
0.0
 11
137.398743
 21
203.603864
 31
0.0
  0
LINE
  5
2F3
330
214
100
AcDbEntity
  8
7_ALL_FEATURES
  6
Continuous
 62
     9
100
AcDbLine
 10
144.962519
 20
199.603864
 30
0.0
 11
144.962519
 21
199.11259
 31
0.0
  0
LINE
  5
2F4
330
214
100
AcDbEntity
  8
7_ALL_FEATURES
  6
Continuous
 62
     9
100
AcDbLine
 10
145.015188
 20
202.621316
 30
0.0
 11
145.015188
 21
203.11259
 31
0.0
  0
LINE
  5
2F5
330
214
100
AcDbEntity
  8
7_ALL_FEATURES
  6
Continuous
 62
     9
100
AcDbLine
 10
144.962519
 20
199.603864
 30
0.0
 11
145.015188
 21
202.621316
 31
0.0
  0
LINE
  5
2F6
330
214
100
AcDbEntity
  8
7_ALL_FEATURES
  6
Continuous
 62
     7
100
AcDbLine
 10
145.462442
 20
199.603864
 30
0.0
 11
145.515112
 21
202.621316
 31
0.0
  0
LINE
  5
2F7
330
214
100
AcDbEntity
  8
3_ALL_AXES
  6
Continuous
 62
     7
100
AcDbLine
 10
146.953867
 20
203.11259
 30
0.0
 11
146.953867
 21
200.86259
 31
0.0
  0
LINE
  5
2F8
330
214
100
AcDbEntity
  8
3_ALL_AXES
  6
Continuous
 62
     7
100
AcDbLine
 10
146.953867
 20
195.761737
 30
0.0
 11
146.953867
 21
200.16259
 31
0.0
  0
LINE
  5
2F9
330
214
100
AcDbEntity
  8
3_ALL_AXES
  6
Continuous
 62
     7
100
AcDbLine
 10
147.103014
 20
195.11259
 30
0.0
 11
147.103014
 21
195.61259
 31
0.0
  0
LINE
  5
2FA
330
214
100
AcDbEntity
  8
7_ALL_FEATURES
  6
Continuous
 62
     7
100
AcDbLine
 10
127.453867
 20
229.61259
 30
0.0
 11
127.953867
 21
229.11259
 31
0.0
  0
LINE
  5
2FB
330
214
100
AcDbEntity
  8
3_ALL_AXES
  6
Continuous
 62
     7
100
AcDbLine
 10
148.453867
 20
200.16259
 30
0.0
 11
148.453867
 21
200.86259
 31
0.0
  0
LINE
  5
2FC
330
214
100
AcDbEntity
  8
3_ALL_AXES
  6
Continuous
 62
     7
100
AcDbLine
 10
152.453867
 20
203.11259
 30
0.0
 11
152.453867
 21
200.86259
 31
0.0
  0
LINE
  5
2FD
330
214
100
AcDbEntity
  8
3_ALL_AXES
  6
Continuous
 62
     7
100
AcDbLine
 10
152.453867
 20
200.16259
 30
0.0
 11
152.453867
 21
196.61259
 31
0.0
  0
LINE
  5
2FE
330
214
100
AcDbEntity
  8
7_ALL_FEATURES
  6
Continuous
 62
     9
100
AcDbLine
 10
170.962083
 20
201.204667
 30
0.0
 11
170.518577
 21
201.435541
 31
0.0
  0
LINE
  5
2FF
330
214
100
AcDbEntity
  8
7_ALL_FEATURES
  6
Continuous
 62
     9
100
AcDbLine
 10
133.945652
 20
201.204667
 30
0.0
 11
134.389157
 21
201.435541
 31
0.0
  0
LINE
  5
300
330
214
100
AcDbEntity
  8
3_ALL_AXES
  6
Continuous
 62
     7
100
AcDbLine
 10
156.453867
 20
200.16259
 30
0.0
 11
156.453867
 21
200.86259
 31
0.0
  0
LINE
  5
301
330
214
100
AcDbEntity
  8
7_ALL_FEATURES
  6
Continuous
 62
     7
100
AcDbLine
 10
159.445292
 20
199.603864
 30
0.0
 11
159.392622
 21
202.621316
 31
0.0
  0
LINE
  5
302
330
214
100
AcDbEntity
  8
3_ALL_AXES
  6
Continuous
 62
     7
100
AcDbLine
 10
157.80472
 20
195.11259
 30
0.0
 11
157.80472
 21
195.61259
 31
0.0
  0
LINE
  5
303
330
214
100
AcDbEntity
  8
3_ALL_AXES
  6
Continuous
 62
     7
100
AcDbLine
 10
157.953867
 20
203.11259
 30
0.0
 11
157.953867
 21
200.86259
 31
0.0
  0
LINE
  5
304
330
214
100
AcDbEntity
  8
3_ALL_AXES
  6
Continuous
 62
     7
100
AcDbLine
 10
157.953867
 20
200.16259
 30
0.0
 11
157.953867
 21
195.761737
 31
0.0
  0
LINE
  5
305
330
214
100
AcDbEntity
  8
7_ALL_FEATURES
  6
Continuous
 62
     7
100
AcDbLine
 10
177.453867
 20
229.61259
 30
0.0
 11
176.953867
 21
229.11259
 31
0.0
  0
LINE
  5
306
330
214
100
AcDbEntity
  8
7_ALL_FEATURES
  6
Continuous
 62
     9
100
AcDbLine
 10
159.945216
 20
199.603864
 30
0.0
 11
159.892546
 21
202.621316
 31
0.0
  0
LINE
  5
307
330
214
100
AcDbEntity
  8
7_ALL_FEATURES
  6
Continuous
 62
     9
100
AcDbLine
 10
159.892546
 20
202.621316
 30
0.0
 11
159.892546
 21
203.11259
 31
0.0
  0
LINE
  5
308
330
214
100
AcDbEntity
  8
7_ALL_FEATURES
  6
Continuous
 62
     9
100
AcDbLine
 10
159.945216
 20
199.11259
 30
0.0
 11
159.945216
 21
199.603864
 31
0.0
  0
LINE
  5
309
330
214
100
AcDbEntity
  8
7_ALL_FEATURES
  6
Continuous
 62
     9
100
AcDbLine
 10
160.953867
 20
199.11259
 30
0.0
 11
160.953867
 21
200.603864
 31
0.0
  0
LINE
  5
30A
330
214
100
AcDbEntity
  8
7_ALL_FEATURES
  6
Continuous
 62
     9
100
AcDbLine
 10
175.594791
 20
210.104017
 30
0.0
 11
175.151286
 21
210.334892
 31
0.0
  0
LINE
  5
30B
330
214
100
AcDbEntity
  8
7_ALL_FEATURES
  6
Continuous
 62
     7
100
AcDbLine
 10
161.453867
 20
200.61259
 30
0.0
 11
161.453867
 21
199.61259
 31
0.0
  0
LINE
  5
30C
330
214
100
AcDbEntity
  8
7_ALL_FEATURES
  6
Continuous
 62
     9
100
AcDbLine
 10
161.953867
 20
201.11259
 30
0.0
 11
161.953867
 21
201.603864
 31
0.0
  0
LINE
  5
30D
330
214
100
AcDbEntity
  8
3_ALL_AXES
  6
Continuous
 62
     7
100
AcDbLine
 10
162.653867
 20
200.23259
 30
0.0
 11
162.653867
 21
200.61259
 31
0.0
  0
LINE
  5
30E
330
214
100
AcDbEntity
  8
7_ALL_FEATURES
  6
Continuous
 62
     7
100
AcDbLine
 10
162.653867
 20
200.61259
 30
0.0
 11
162.653867
 21
201.11259
 31
0.0
  0
LINE
  5
30F
330
214
100
AcDbEntity
  8
7_ALL_FEATURES
  6
Continuous
 62
     7
100
AcDbLine
 10
173.441392
 20
216.00059
 30
0.0
 11
173.794946
 21
216.354144
 31
0.0
  0
LINE
  5
310
330
214
100
AcDbEntity
  8
7_ALL_FEATURES
  6
Continuous
 62
     9
100
AcDbLine
 10
167.508991
 20
203.11259
 30
0.0
 11
167.508991
 21
203.603864
 31
0.0
  0
LINE
  5
311
330
214
100
AcDbEntity
  8
7_ALL_FEATURES
  6
Continuous
 62
     9
100
AcDbLine
 10
167.91949
 20
227.121316
 30
0.0
 11
167.508991
 21
203.603864
 31
0.0
  0
LINE
  5
312
330
214
100
AcDbEntity
  8
7_ALL_FEATURES
  6
Continuous
 62
     7
100
AcDbLine
 10
174.823655
 20
214.554426
 30
0.0
 11
175.180792
 21
214.911563
 31
0.0
  0
LINE
  5
313
330
214
100
AcDbEntity
  8
7_ALL_FEATURES
  6
Continuous
 62
     9
100
AcDbLine
 10
136.988244
 20
227.121316
 30
0.0
 11
167.91949
 21
227.121316
 31
0.0
  0
LINE
  5
314
330
214
100
AcDbEntity
  8
7_ALL_FEATURES
  6
Continuous
 62
     7
100
AcDbLine
 10
129.477685
 20
227.61259
 30
0.0
 11
175.43005
 21
227.61259
 31
0.0
  0
LINE
  5
315
330
214
100
AcDbEntity
  8
7_ALL_FEATURES
  6
Continuous
 62
     9
100
AcDbLine
 10
167.91949
 20
227.121316
 30
0.0
 11
167.91949
 21
227.61259
 31
0.0
  0
LINE
  5
316
330
214
100
AcDbEntity
  8
7_ALL_FEATURES
  6
Continuous
 62
     9
100
AcDbLine
 10
169.473777
 20
201.11259
 30
0.0
 11
169.473777
 21
201.603864
 31
0.0
  0
LINE
  5
317
330
214
100
AcDbEntity
  8
7_ALL_FEATURES
  6
Continuous
 62
     9
100
AcDbLine
 10
169.986371
 20
200.61259
 30
0.0
 11
169.986371
 21
201.11259
 31
0.0
  0
LINE
  5
318
330
214
100
AcDbEntity
  8
7_ALL_FEATURES
  6
Continuous
 62
     9
100
AcDbLine
 10
169.473777
 20
201.603864
 30
0.0
 11
169.491536
 21
202.621316
 31
0.0
  0
LINE
  5
319
330
214
100
AcDbEntity
  8
7_ALL_FEATURES
  6
Continuous
 62
     9
100
AcDbLine
 10
169.491536
 20
202.621316
 30
0.0
 11
169.508687
 21
203.11259
 31
0.0
  0
LINE
  5
31A
330
214
100
AcDbEntity
  8
7_ALL_FEATURES
  6
Continuous
 62
     7
100
AcDbLine
 10
176.953867
 20
229.61259
 30
0.0
 11
176.74676
 21
229.11259
 31
0.0
  0
LINE
  5
31B
330
214
100
AcDbEntity
  8
3_ALL_AXES
  6
Continuous
 62
     7
100
AcDbLine
 10
157.80472
 20
195.61259
 30
0.0
 11
157.953867
 21
195.761737
 31
0.0
  0
LINE
  5
31C
330
214
100
AcDbEntity
  8
7_ALL_FEATURES
  6
Continuous
 62
     9
100
AcDbLine
 10
130.995063
 20
228.621316
 30
0.0
 11
173.912671
 21
228.621316
 31
0.0
  0
LINE
  5
31D
330
214
100
AcDbEntity
  8
7_ALL_FEATURES
  6
Continuous
 62
     7
100
AcDbLine
 10
176.953867
 20
229.11259
 30
0.0
 11
127.953867
 21
229.11259
 31
0.0
  0
LINE
  5
31E
330
214
100
AcDbEntity
  8
7_ALL_FEATURES
  6
Continuous
 62
     7
100
AcDbLine
 10
177.453867
 20
229.61259
 30
0.0
 11
127.453867
 21
229.61259
 31
0.0
  0
LINE
  5
31F
330
214
100
AcDbEntity
  8
7_ALL_FEATURES
  6
Continuous
 62
     7
100
AcDbLine
 10
174.43167
 20
215.010313
 30
0.0
 11
173.441392
 21
216.00059
 31
0.0
  0
LINE
  5
320
330
214
100
AcDbEntity
  8
3_ALL_AXES
  6
Continuous
 62
     7
100
AcDbLine
 10
170.253867
 20
200.23259
 30
0.0
 11
170.253867
 21
200.61259
 31
0.0
  0
LINE
  5
321
330
214
100
AcDbEntity
  8
7_ALL_FEATURES
  6
Continuous
 62
     7
100
AcDbLine
 10
169.973701
 20
201.603864
 30
0.0
 11
170.419109
 21
227.121316
 31
0.0
  0
LINE
  5
322
330
214
100
AcDbEntity
  8
7_ALL_FEATURES
  6
Continuous
 62
     3
100
AcDbLine
 10
173.794946
 20
216.354144
 30
0.0
 11
174.785223
 21
215.363866
 31
0.0
  0
LINE
  5
323
330
214
100
AcDbEntity
  8
7_ALL_FEATURES
  6
Continuous
 62
     9
100
AcDbLine
 10
173.912671
 20
228.621316
 30
0.0
 11
173.930278
 21
227.61259
 31
0.0
  0
LINE
  5
324
330
214
100
AcDbEntity
  8
7_ALL_FEATURES
  6
Continuous
 62
     9
100
AcDbLine
 10
173.912671
 20
229.11259
 30
0.0
 11
173.912671
 21
228.621316
 31
0.0
  0
LINE
  5
325
330
214
100
AcDbEntity
  8
7_ALL_FEATURES
  6
Continuous
 62
     7
100
AcDbLine
 10
175.151286
 20
210.334892
 30
0.0
 11
170.518577
 21
201.435541
 31
0.0
  0
LINE
  5
326
330
214
100
AcDbEntity
  8
7_ALL_FEATURES
  6
Continuous
 62
     3
100
AcDbLine
 10
175.594791
 20
210.104017
 30
0.0
 11
170.962083
 21
201.204667
 31
0.0
  0
LINE
  5
327
330
214
100
AcDbEntity
  8
7_ALL_FEATURES
  6
Continuous
 62
     7
100
AcDbLine
 10
127.453867
 20
232.61259
 30
0.0
 11
177.453867
 21
232.61259
 31
0.0
  0
LINE
  5
328
330
214
100
AcDbEntity
  8
7_ALL_FEATURES
  6
Continuous
 62
     7
100
AcDbLine
 10
127.953867
 20
233.11259
 30
0.0
 11
176.953867
 21
233.11259
 31
0.0
  0
LINE
  5
329
330
214
100
AcDbEntity
  8
7_ALL_FEATURES
  6
Continuous
 62
     7
100
AcDbLine
 10
175.412442
 20
228.621316
 30
0.0
 11
175.43005
 21
227.61259
 31
0.0
  0
LINE
  5
32A
330
214
100
AcDbEntity
  8
7_ALL_FEATURES
  6
Continuous
 62
     7
100
AcDbLine
 10
176.953867
 20
232.61259
 30
0.0
 11
176.953867
 21
229.61259
 31
0.0
  0
LINE
  5
32B
330
214
100
AcDbEntity
  8
7_ALL_FEATURES
  6
Continuous
 62
     7
100
AcDbLine
 10
177.453867
 20
232.61259
 30
0.0
 11
177.453867
 21
229.61259
 31
0.0
  0
LINE
  5
32C
330
214
100
AcDbEntity
  8
7_ALL_FEATURES
  6
Continuous
 62
     7
100
AcDbLine
 10
177.453867
 20
232.61259
 30
0.0
 11
176.953867
 21
233.11259
 31
0.0
  0
LINE
  5
32D
330
214
100
AcDbEntity
  8
7_ALL_FEATURES
  6
Continuous
 62
     7
100
AcDbLine
 10
176.953867
 20
232.61259
 30
0.0
 11
176.74676
 21
233.11259
 31
0.0
  0
LINE
  5
32E
330
214
100
AcDbEntity
  8
7_ALL_FEATURES
  6
Continuous
 62
     7
100
AcDbLine
 10
127.953867
 20
146.432847
 30
0.0
 11
127.453867
 21
145.932847
 31
0.0
  0
LINE
  5
32F
330
214
100
AcDbEntity
  8
7_ALL_FEATURES
  6
Continuous
 62
     7
100
AcDbLine
 10
128.160974
 20
145.932847
 30
0.0
 11
127.953867
 21
145.72574
 31
0.0
  0
LINE
  5
330
330
214
100
AcDbEntity
  8
7_ALL_FEATURES
  6
Continuous
 62
     7
100
AcDbLine
 10
127.453867
 20
96.932847
 30
0.0
 11
127.953867
 21
96.432847
 31
0.0
  0
LINE
  5
331
330
214
100
AcDbEntity
  8
7_ALL_FEATURES
  6
Continuous
 62
     7
100
AcDbLine
 10
127.953867
 20
97.139953
 30
0.0
 11
128.160974
 21
96.932847
 31
0.0
  0
LINE
  5
332
330
214
100
AcDbEntity
  8
7_ALL_FEATURES
  6
Continuous
 62
     7
100
AcDbLine
 10
127.453867
 20
145.932847
 30
0.0
 11
127.453867
 21
96.932847
 31
0.0
  0
LINE
  5
333
330
214
100
AcDbEntity
  8
7_ALL_FEATURES
  6
Continuous
 62
     7
100
AcDbLine
 10
127.953867
 20
145.72574
 30
0.0
 11
127.953867
 21
97.139953
 31
0.0
  0
LINE
  5
334
330
214
100
AcDbEntity
  8
7_ALL_FEATURES
  6
Continuous
 62
     7
100
AcDbLine
 10
127.953867
 20
96.432847
 30
0.0
 11
176.953867
 21
96.432847
 31
0.0
  0
LINE
  5
335
330
214
100
AcDbEntity
  8
7_ALL_FEATURES
  6
Continuous
 62
     7
100
AcDbLine
 10
128.160974
 20
96.932847
 30
0.0
 11
176.74676
 21
96.932847
 31
0.0
  0
LINE
  5
336
330
214
100
AcDbEntity
  8
7_ALL_FEATURES
  6
Continuous
 62
     7
100
AcDbLine
 10
127.953867
 20
96.432847
 30
0.0
 11
128.160974
 21
96.932847
 31
0.0
  0
LINE
  5
337
330
214
100
AcDbEntity
  8
7_ALL_FEATURES
  6
Continuous
 62
     7
100
AcDbLine
 10
177.453867
 20
145.932847
 30
0.0
 11
176.953867
 21
145.72574
 31
0.0
  0
LINE
  5
338
330
214
100
AcDbEntity
  8
7_ALL_FEATURES
  6
Continuous
 62
     7
100
AcDbLine
 10
177.453867
 20
96.932847
 30
0.0
 11
176.953867
 21
97.139953
 31
0.0
  0
LINE
  5
339
330
214
100
AcDbEntity
  8
7_ALL_FEATURES
  6
Continuous
 62
     7
100
AcDbLine
 10
127.953867
 20
146.432847
 30
0.0
 11
128.160974
 21
145.932847
 31
0.0
  0
LINE
  5
33A
330
214
100
AcDbEntity
  8
7_ALL_FEATURES
  6
Continuous
 62
     7
100
AcDbLine
 10
176.953867
 20
146.432847
 30
0.0
 11
176.74676
 21
145.932847
 31
0.0
  0
LINE
  5
33B
330
214
100
AcDbEntity
  8
7_ALL_FEATURES
  6
Continuous
 62
     7
100
AcDbLine
 10
127.453867
 20
96.932847
 30
0.0
 11
127.953867
 21
97.139953
 31
0.0
  0
LINE
  5
33C
330
214
100
AcDbEntity
  8
7_ALL_FEATURES
  6
Continuous
 62
     7
100
AcDbLine
 10
127.453867
 20
145.932847
 30
0.0
 11
127.953867
 21
145.72574
 31
0.0
  0
LINE
  5
33D
330
214
100
AcDbEntity
  8
7_ALL_FEATURES
  6
Continuous
 62
     7
100
AcDbLine
 10
176.953867
 20
96.432847
 30
0.0
 11
176.74676
 21
96.932847
 31
0.0
  0
LINE
  5
33E
330
214
100
AcDbEntity
  8
7_ALL_FEATURES
  6
Continuous
 62
     7
100
AcDbLine
 10
176.953867
 20
97.139953
 30
0.0
 11
176.953867
 21
145.72574
 31
0.0
  0
LINE
  5
33F
330
214
100
AcDbEntity
  8
7_ALL_FEATURES
  6
Continuous
 62
     7
100
AcDbLine
 10
177.453867
 20
96.932847
 30
0.0
 11
177.453867
 21
145.932847
 31
0.0
  0
LINE
  5
340
330
214
100
AcDbEntity
  8
7_ALL_FEATURES
  6
Continuous
 62
     7
100
AcDbLine
 10
176.74676
 20
145.932847
 30
0.0
 11
128.160974
 21
145.932847
 31
0.0
  0
LINE
  5
341
330
214
100
AcDbEntity
  8
7_ALL_FEATURES
  6
Continuous
 62
     7
100
AcDbLine
 10
176.953867
 20
146.432847
 30
0.0
 11
127.953867
 21
146.432847
 31
0.0
  0
LINE
  5
342
330
214
100
AcDbEntity
  8
7_ALL_FEATURES
  6
Continuous
 62
     7
100
AcDbLine
 10
176.74676
 20
96.932847
 30
0.0
 11
176.953867
 21
97.139953
 31
0.0
  0
LINE
  5
343
330
214
100
AcDbEntity
  8
7_ALL_FEATURES
  6
Continuous
 62
     7
100
AcDbLine
 10
176.953867
 20
96.432847
 30
0.0
 11
177.453867
 21
96.932847
 31
0.0
  0
LINE
  5
344
330
214
100
AcDbEntity
  8
7_ALL_FEATURES
  6
Continuous
 62
     7
100
AcDbLine
 10
176.953867
 20
145.72574
 30
0.0
 11
176.74676
 21
145.932847
 31
0.0
  0
LINE
  5
345
330
214
100
AcDbEntity
  8
7_ALL_FEATURES
  6
Continuous
 62
     7
100
AcDbLine
 10
177.453867
 20
145.932847
 30
0.0
 11
176.953867
 21
146.432847
 31
0.0
  0
ARC
  5
346
330
214
100
AcDbEntity
  8
3_ALL_AXES
  6
Continuous
 62
     7
100
AcDbCircle
 10
138.59631
 20
202.08523
 30
0.0
 40
4.1
100
AcDbArc
 50
296.393026
 51
333.136697
  0
ARC
  5
347
330
214
100
AcDbEntity
  8
3_ALL_AXES
  6
Continuous
 62
     7
100
AcDbCircle
 10
138.311424
 20
202.08523
 30
0.0
 40
4.1
100
AcDbArc
 50
206.863303
 51
243.606974
  0
ARC
  5
348
330
214
100
AcDbEntity
  8
7_ALL_FEATURES
  6
Continuous
 62
     3
100
AcDbCircle
 10
134.921364
 20
201.71259
 30
0.0
 40
1.1
100
AcDbArc
 50
207.5
 51
270.0
  0
ARC
  5
349
330
214
100
AcDbEntity
  8
7_ALL_FEATURES
  6
Continuous
 62
     7
100
AcDbCircle
 10
134.921364
 20
201.71259
 30
0.0
 40
0.6
100
AcDbArc
 50
207.5
 51
270.0
  0
ARC
  5
34A
330
214
100
AcDbEntity
  8
7_ALL_FEATURES
  6
Continuous
 62
     7
100
AcDbCircle
 10
135.433958
 20
201.61259
 30
0.0
 40
0.5
100
AcDbArc
 50
181.0
 51
270.0
  0
ARC
  5
34B
330
214
100
AcDbEntity
  8
7_ALL_FEATURES
  6
Continuous
 62
     7
100
AcDbCircle
 10
135.399047
 20
203.61259
 30
0.0
 40
0.5
100
AcDbArc
 50
181.0
 51
270.0
  0
ARC
  5
34C
330
214
100
AcDbEntity
  8
3_ALL_AXES
  6
Continuous
 62
     7
100
AcDbCircle
 10
150.603014
 20
195.11259
 30
0.0
 40
3.5
100
AcDbArc
 50
180.0
 51
255.959161
  0
ARC
  5
34D
330
214
100
AcDbEntity
  8
7_ALL_FEATURES
  6
Continuous
 62
     9
100
AcDbCircle
 10
142.953859
 20
200.603855
 30
0.0
 40
1.0000098913
100
AcDbArc
 50
0.000492
 51
89.999508
  0
ARC
  5
34E
330
214
100
AcDbEntity
  8
7_ALL_FEATURES
  6
Continuous
 62
     7
100
AcDbCircle
 10
146.015036
 20
202.61259
 30
0.0
 40
0.5
100
AcDbArc
 50
90.0
 51
179.0
  0
ARC
  5
34F
330
214
100
AcDbEntity
  8
7_ALL_FEATURES
  6
Continuous
 62
     7
100
AcDbCircle
 10
144.962519
 20
199.61259
 30
0.0
 40
0.5
100
AcDbArc
 50
270.0
 51
359.0
  0
ARC
  5
350
330
214
100
AcDbEntity
  8
7_ALL_FEATURES
  6
Continuous
 62
     7
100
AcDbCircle
 10
143.953867
 20
199.61259
 30
0.0
 40
0.5
100
AcDbArc
 50
180.0
 51
270.0
  0
ARC
  5
351
330
214
100
AcDbEntity
  8
7_ALL_FEATURES
  6
Continuous
 62
     7
100
AcDbCircle
 10
142.953867
 20
200.61259
 30
0.0
 40
0.5
100
AcDbArc
 50
0.0
 51
90.0
  0
ARC
  5
352
330
214
100
AcDbEntity
  8
7_ALL_FEATURES
  6
Continuous
 62
     3
100
AcDbCircle
 10
133.304492
 20
212.181886
 30
0.0
 40
4.5
100
AcDbArc
 50
135.0
 51
207.5
  0
ARC
  5
353
330
214
100
AcDbEntity
  8
7_ALL_FEATURES
  6
Continuous
 62
     7
100
AcDbCircle
 10
133.304492
 20
212.181886
 30
0.0
 40
4.0
100
AcDbArc
 50
135.0
 51
207.5
  0
ARC
  5
354
330
214
100
AcDbEntity
  8
7_ALL_FEATURES
  6
Continuous
 62
     7
100
AcDbCircle
 10
133.988701
 20
227.11259
 30
0.0
 40
0.5
100
AcDbArc
 50
1.0
 51
90.0
  0
ARC
  5
355
330
214
100
AcDbEntity
  8
7_ALL_FEATURES
  6
Continuous
 62
     7
100
AcDbCircle
 10
129.995216
 20
228.61259
 30
0.0
 40
0.5
100
AcDbArc
 50
90.0
 51
179.0
  0
ARC
  5
356
330
214
100
AcDbEntity
  8
3_ALL_AXES
  6
Continuous
 62
     7
100
AcDbCircle
 10
154.30472
 20
195.11259
 30
0.0
 40
3.5
100
AcDbArc
 50
284.040839
 51
360.0
  0
ARC
  5
357
330
214
100
AcDbEntity
  8
7_ALL_FEATURES
  6
Continuous
 62
     9
100
AcDbCircle
 10
161.953874
 20
200.603857
 30
0.0
 40
1.0000083596
100
AcDbArc
 50
90.000415
 51
179.999585
  0
ARC
  5
358
330
214
100
AcDbEntity
  8
7_ALL_FEATURES
  6
Continuous
 62
     7
100
AcDbCircle
 10
158.892698
 20
202.61259
 30
0.0
 40
0.5
100
AcDbArc
 50
1.0
 51
90.0
  0
ARC
  5
359
330
214
100
AcDbEntity
  8
7_ALL_FEATURES
  6
Continuous
 62
     7
100
AcDbCircle
 10
160.953867
 20
199.61259
 30
0.0
 40
0.5
100
AcDbArc
 50
270.0
 51
360.0
  0
ARC
  5
35A
330
214
100
AcDbEntity
  8
7_ALL_FEATURES
  6
Continuous
 62
     7
100
AcDbCircle
 10
159.945216
 20
199.61259
 30
0.0
 40
0.5
100
AcDbArc
 50
181.0
 51
270.0
  0
ARC
  5
35B
330
214
100
AcDbEntity
  8
7_ALL_FEATURES
  6
Continuous
 62
     7
100
AcDbCircle
 10
161.953867
 20
200.61259
 30
0.0
 40
0.5
100
AcDbArc
 50
90.0
 51
180.0
  0
ARC
  5
35C
330
214
100
AcDbEntity
  8
3_ALL_AXES
  6
Continuous
 62
     7
100
AcDbCircle
 10
166.59631
 20
202.08523
 30
0.0
 40
4.1
100
AcDbArc
 50
296.393026
 51
333.136697
  0
ARC
  5
35D
330
214
100
AcDbEntity
  8
3_ALL_AXES
  6
Continuous
 62
     7
100
AcDbCircle
 10
166.311424
 20
202.08523
 30
0.0
 40
4.1
100
AcDbArc
 50
206.863303
 51
243.606974
  0
ARC
  5
35E
330
214
100
AcDbEntity
  8
7_ALL_FEATURES
  6
Continuous
 62
     3
100
AcDbCircle
 10
169.986371
 20
201.71259
 30
0.0
 40
1.1
100
AcDbArc
 50
270.0
 51
332.5
  0
ARC
  5
35F
330
214
100
AcDbEntity
  8
7_ALL_FEATURES
  6
Continuous
 62
     7
100
AcDbCircle
 10
169.986371
 20
201.71259
 30
0.0
 40
0.6
100
AcDbArc
 50
270.0
 51
332.5
  0
ARC
  5
360
330
214
100
AcDbEntity
  8
7_ALL_FEATURES
  6
Continuous
 62
     7
100
AcDbCircle
 10
169.473777
 20
201.61259
 30
0.0
 40
0.5
100
AcDbArc
 50
270.0
 51
359.0
  0
ARC
  5
361
330
214
100
AcDbEntity
  8
7_ALL_FEATURES
  6
Continuous
 62
     7
100
AcDbCircle
 10
169.508687
 20
203.61259
 30
0.0
 40
0.5
100
AcDbArc
 50
270.0
 51
359.0
  0
ARC
  5
362
330
214
100
AcDbEntity
  8
7_ALL_FEATURES
  6
Continuous
 62
     3
100
AcDbCircle
 10
171.603243
 20
212.181886
 30
0.0
 40
4.5
100
AcDbArc
 50
332.5
 51
45.0
  0
ARC
  5
363
330
214
100
AcDbEntity
  8
7_ALL_FEATURES
  6
Continuous
 62
     7
100
AcDbCircle
 10
171.603243
 20
212.181886
 30
0.0
 40
4.0
100
AcDbArc
 50
332.5
 51
45.0
  0
ARC
  5
364
330
214
100
AcDbEntity
  8
7_ALL_FEATURES
  6
Continuous
 62
     7
100
AcDbCircle
 10
170.919033
 20
227.11259
 30
0.0
 40
0.5
100
AcDbArc
 50
90.0
 51
179.0
  0
ARC
  5
365
330
214
100
AcDbEntity
  8
7_ALL_FEATURES
  6
Continuous
 62
     7
100
AcDbCircle
 10
174.912519
 20
228.61259
 30
0.0
 40
0.5
100
AcDbArc
 50
1.0
 51
90.0
  0
SPLINE
  5
366
330
214
100
AcDbEntity
  8
3_ALL_AXES
  6
Continuous
 62
     7
100
AcDbSpline
 70
     0
 71
     3
 72
    15
 73
    11
 74
     0
 42
0.000000001
 43
0.0000001
 40
0.0
 40
0.0
 40
0.0
 40
0.0
 40
0.1268070762
 40
0.2523224618
 40
0.3765769124
 40
0.5000000474
 40
0.6234231675
 40
0.7476775799
 40
0.8731929293
 40
1.0
 40
1.0
 40
1.0
 40
1.0
 10
146.9538671374
 20
196.6125901651
 30
0.0
 10
147.1669495701
 20
196.4895669652
 30
0.0
 10
147.6004244596
 20
196.2604759011
 30
0.0
 10
148.2791155162
 20
195.9854999588
 30
0.0
 10
148.9830034691
 20
195.8043868892
 30
0.0
 10
149.7038673888
 20
195.7404839341
 30
0.0
 10
150.4247312396
 20
195.8043868974
 30
0.0
 10
151.1286189892
 20
195.985500056
 30
0.0
 10
151.8073098964
 20
196.260475941
 30
0.0
 10
152.2407847138
 20
196.4895669705
 30
0.0
 10
152.4538671374
 20
196.6125901651
 30
0.0
  0
SPLINE
  5
367
330
214
100
AcDbEntity
  8
3_ALL_AXES
  6
Continuous
 62
     7
100
AcDbSpline
 70
     0
 71
     3
 72
    15
 73
    11
 74
     0
 42
0.000000001
 43
0.0000001
 40
0.0
 40
0.0
 40
0.0
 40
0.0
 40
0.1268070762
 40
0.2523224618
 40
0.3765769124
 40
0.5000000474
 40
0.6234231675
 40
0.7476775799
 40
0.8731929293
 40
1.0
 40
1.0
 40
1.0
 40
1.0
 10
152.4538671374
 20
196.6125901651
 30
0.0
 10
152.6669495701
 20
196.4895669652
 30
0.0
 10
153.1004244596
 20
196.2604759011
 30
0.0
 10
153.7791155162
 20
195.9854999588
 30
0.0
 10
154.4830034691
 20
195.8043868892
 30
0.0
 10
155.2038673888
 20
195.7404839341
 30
0.0
 10
155.9247312396
 20
195.8043868974
 30
0.0
 10
156.6286189892
 20
195.985500056
 30
0.0
 10
157.3073098964
 20
196.260475941
 30
0.0
 10
157.7407847138
 20
196.4895669705
 30
0.0
 10
157.9538671374
 20
196.6125901651
 30
0.0
  0
SPLINE
  5
368
330
214
100
AcDbEntity
  8
7_ALL_FEATURES
  6
Continuous
 62
     9
100
AcDbSpline
 70
     0
 71
     3
 72
    28
 73
    24
 74
     0
 42
0.000000001
 43
0.0000001
 40
0.0
 40
0.0
 40
0.0
 40
0.0
 40
0.0003121399
 40
0.0012187411
 40
0.0027248106
 40
0.0048299989
 40
0.0075333445
 40
0.010833719
 40
0.0192204683
 40
0.0299713207
 40
0.0430566507
 40
0.0584461549
 40
0.0761067881
 40
0.1180544209
 40
0.1684978943
 40
0.2269476739
 40
0.2928473864
 40
0.3655547191
 40
0.4443749766
 40
0.5285518613
 40
0.6172720754
 40
0.8048821667
 40
1.0
 40
1.0
 40
1.0
 40
1.0
 10
134.4886249508
 20
227.1213163683
 30
0.0
 10
134.4886216336
 20
227.1215764309
 30
0.0
 10
134.4901977025
 20
227.121437192
 30
0.0
 10
134.491920889
 20
227.1218856018
 30
0.0
 10
134.4959873456
 20
227.1219167987
 30
0.0
 10
134.5011104532
 20
227.1221722469
 30
0.0
 10
134.5079168292
 20
227.1223301972
 30
0.0
 10
134.5198796844
 20
227.1226041556
 30
0.0
 10
134.5385897032
 20
227.1228914077
 30
0.0
 10
134.5654298698
 20
227.1232092532
 30
0.0
 10
134.5981151075
 20
227.123499092
 30
0.0
 10
134.6365547072
 20
227.1237667292
 30
0.0
 10
134.6990444233
 20
227.1241081407
 30
0.0
 10
134.7907418613
 20
227.1244471582
 30
0.0
 10
134.9164265577
 20
227.1247278583
 30
0.0
 10
135.062068901
 20
227.1248957942
 30
0.0
 10
135.2262622406
 20
227.124948364
 30
0.0
 10
135.4074288207
 20
227.1248843201
 30
0.0
 10
135.6038243875
 20
227.1247035608
 30
0.0
 10
135.813562212
 20
227.1244075379
 30
0.0
 10
136.1139465013
 20
227.1238520423
 30
0.0
 10
136.5067692936
 20
227.1228889829
 30
0.0
 10
136.8256674746
 20
227.1218830067
 30
0.0
 10
136.9882441887
 20
227.1213163683
 30
0.0
  0
SPLINE
  5
369
330
214
100
AcDbEntity
  8
7_ALL_FEATURES
  6
Continuous
 62
     9
100
AcDbSpline
 70
     0
 71
     3
 72
    28
 73
    24
 74
     0
 42
0.000000001
 43
0.0000001
 40
0.0
 40
0.0
 40
0.0
 40
0.0
 40
0.0003150311
 40
0.001224749
 40
0.0027340232
 40
0.0048424286
 40
0.0075489314
 40
0.0108523302
 40
0.0192445159
 40
0.0300002854
 40
0.0430899958
 40
0.0584831984
 40
0.0761466171
 40
0.1180974157
 40
0.168541322
 40
0.2269886165
 40
0.2928828912
 40
0.365581573
 40
0.4443898359
 40
0.528555367
 40
0.6172630531
 40
0.8048682394
 40
1.0
 40
1.0
 40
1.0
 40
1.0
 10
170.0086106652
 20
203.6038639619
 30
0.0
 10
170.008605222
 20
203.6036015255
 30
0.0
 10
170.0070407378
 20
203.6037454269
 30
0.0
 10
170.0052922982
 20
203.6032930595
 30
0.0
 10
170.0012283851
 20
203.6032636713
 30
0.0
 10
169.9960925446
 20
203.6030075537
 30
0.0
 10
169.9892801931
 20
203.6028500145
 30
0.0
 10
169.9773067541
 20
203.6025761781
 30
0.0
 10
169.9585861787
 20
203.6022891485
 30
0.0
 10
169.9317334792
 20
203.6019712117
 30
0.0
 10
169.8990375106
 20
203.6016812463
 30
0.0
 10
169.8605888311
 20
203.6014134769
 30
0.0
 10
169.7980910943
 20
203.6010720571
 30
0.0
 10
169.706388337
 20
203.6007332053
 30
0.0
 10
169.5807027285
 20
203.6004525455
 30
0.0
 10
169.4350666395
 20
203.6002845438
 30
0.0
 10
169.2708871264
 20
203.6002319373
 30
0.0
 10
169.0897422975
 20
203.6002959882
 30
0.0
 10
168.8933734129
 20
203.6004767255
 30
0.0
 10
168.6836655021
 20
203.6007726108
 30
0.0
 10
168.3833052279
 20
203.601327816
 30
0.0
 10
167.9904853993
 20
203.6022920958
 30
0.0
 10
167.6715797257
 20
203.6032960981
 30
0.0
 10
167.5089914274
 20
203.6038639619
 30
0.0
  0
SPLINE
  5
36A
330
214
100
AcDbEntity
  8
7_ALL_FEATURES
  6
Continuous
 62
     9
100
AcDbSpline
 70
     0
 71
     3
 72
    28
 73
    24
 74
     0
 42
0.000000001
 43
0.0000001
 40
0.0
 40
0.0
 40
0.0
 40
0.0
 40
0.1951002834
 40
0.3826834213
 40
0.4714007435
 40
0.5555760784
 40
0.6343998985
 40
0.7071113681
 40
0.7730147
 40
0.8314701685
 40
0.8819186448
 40
0.9238757206
 40
0.9415393383
 40
0.9569322042
 40
0.9700216553
 40
0.9807758229
 40
0.9891641151
 40
0.9924650665
 40
0.9951689096
 40
0.997274511
 40
0.9987809044
 40
0.9996877346
 40
1.0
 40
1.0
 40
1.0
 40
1.0
 10
167.9194900861
 20
227.1213163683
 30
0.0
 10
168.0820521758
 20
227.121882976
 30
0.0
 10
168.4009132732
 20
227.1228888547
 30
0.0
 10
168.7936965718
 20
227.1238517731
 30
0.0
 10
169.0940546993
 20
227.1244073928
 30
0.0
 10
169.3037917899
 20
227.1247033988
 30
0.0
 10
169.5001924793
 20
227.1248842492
 30
0.0
 10
169.6813684893
 20
227.1249483638
 30
0.0
 10
169.8455730305
 20
227.124895847
 30
0.0
 10
169.9912272975
 20
227.1247280354
 30
0.0
 10
170.1169287697
 20
227.1244472661
 30
0.0
 10
170.2086407312
 20
227.1241083966
 30
0.0
 10
170.2711436029
 20
227.1237669854
 30
0.0
 10
170.3095919246
 20
227.1234993186
 30
0.0
 10
170.3422861575
 20
227.1232094484
 30
0.0
 10
170.3691338105
 20
227.122891562
 30
0.0
 10
170.3878483442
 20
227.1226042057
 30
0.0
 10
170.3998133999
 20
227.1223302
 30
0.0
 10
170.4066209735
 20
227.1221722539
 30
0.0
 10
170.4117452155
 20
227.1219167473
 30
0.0
 10
170.4158122471
 20
227.1218856692
 30
0.0
 10
170.4175363797
 20
227.121437033
 30
0.0
 10
170.4191123988
 20
227.1215765385
 30
0.0
 10
170.4191093239
 20
227.1213163683
 30
0.0
  0
SPLINE
  5
36B
330
214
100
AcDbEntity
  8
7_ALL_FEATURES
  6
Continuous
 62
     9
100
AcDbSpline
 70
     0
 71
     3
 72
    26
 73
    22
 74
     0
 42
0.000000001
 43
0.0000001
 40
0.0
 40
0.0
 40
0.0
 40
0.0
 40
0.195071506
 40
0.3826237677
 40
0.5554799084
 40
0.6342889652
 40
0.7069921141
 40
0.7728853488
 40
0.8313430459
 40
0.8817965774
 40
0.9237664708
 40
0.9414343752
 40
0.9568375015
 40
0.9699390124
 40
0.9807022587
 40
0.9890992123
 40
0.995116878
 40
0.9972303206
 40
0.9987457222
 40
0.9996640461
 40
1.0
 40
1.0
 40
1.0
 40
1.0
 10
173.9126708106
 20
228.6213163683
 30
0.0
 10
174.0101970222
 20
228.6218845568
 30
0.0
 10
174.2014908586
 20
228.6228877318
 30
0.0
 10
174.4792060912
 20
228.6240237678
 30
0.0
 10
174.6987963049
 20
228.6246350357
 30
0.0
 10
174.8609671901
 20
228.6248841577
 30
0.0
 10
174.9696611271
 20
228.6249484574
 30
0.0
 10
175.0681801936
 20
228.6248957743
 30
0.0
 10
175.1555752895
 20
228.6247281735
 30
0.0
 10
175.2310091127
 20
228.6244473534
 30
0.0
 10
175.2860497788
 20
228.6241090953
 30
0.0
 10
175.3235650347
 20
228.6237668751
 30
0.0
 10
175.3466494347
 20
228.6235000468
 30
0.0
 10
175.3662752116
 20
228.6232071308
 30
0.0
 10
175.3824142007
 20
228.6228975111
 30
0.0
 10
175.3949659119
 20
228.6225542835
 30
0.0
 10
175.403290079
 20
228.6222611946
 30
0.0
 10
175.4080157666
 20
228.6219544755
 30
0.0
 10
175.410429253
 20
228.6218060977
 30
0.0
 10
175.4115381268
 20
228.6215609896
 30
0.0
 10
175.4124389521
 20
228.6214842972
 30
0.0
 10
175.4124423534
 20
228.6213163683
 30
0.0
  0
SPLINE
  5
36C
330
214
100
AcDbEntity
  8
7_ALL_FEATURES
  6
Continuous
 62
     9
100
AcDbSpline
 70
     0
 71
     3
 72
    26
 73
    22
 74
     0
 42
0.000000001
 43
0.0000001
 40
0.0
 40
0.0
 40
0.0
 40
0.0
 40
0.0003356494
 40
0.0012532658
 40
0.0027676369
 40
0.0048797955
 40
0.0108944076
 40
0.0192881154
 40
0.0300463294
 40
0.0431392416
 40
0.0585330686
 40
0.0761939349
 40
0.1181477645
 40
0.1685858033
 40
0.2270339394
 40
0.2929172656
 40
0.3656112744
 40
0.4444161111
 40
0.6172782905
 40
0.8048899259
 40
1.0
 40
1.0
 40
1.0
 40
1.0
 10
129.4952919213
 20
228.6213163683
 30
0.0
 10
129.4952951969
 20
228.6214841474
 30
0.0
 10
129.496195416
 20
228.6215611012
 30
0.0
 10
129.4973033234
 20
228.6218059125
 30
0.0
 10
129.4997152812
 20
228.6219543903
 30
0.0
 10
129.5044382812
 20
228.6222609791
 30
0.0
 10
129.5127586667
 20
228.6225540675
 30
0.0
 10
129.5253047061
 20
228.6228971609
 30
0.0
 10
129.5414352589
 20
228.6232067381
 30
0.0
 10
129.5610495705
 20
228.6234996875
 30
0.0
 10
129.5841215033
 20
228.6237665268
 30
0.0
 10
129.6216205612
 20
228.6241086223
 30
0.0
 10
129.6766419323
 20
228.6244469256
 30
0.0
 10
129.7520551998
 20
228.6247278887
 30
0.0
 10
129.8394328182
 20
228.6248956257
 30
0.0
 10
129.9379375837
 20
228.6249484671
 30
0.0
 10
130.0466198902
 20
228.624884311
 30
0.0
 10
130.2087871197
 20
228.6246354184
 30
0.0
 10
130.428407933
 20
228.6240240693
 30
0.0
 10
130.7061751599
 20
228.6228881489
 30
0.0
 10
130.8975179683
 20
228.6218847847
 30
0.0
 10
130.9950634641
 20
228.6213163683
 30
0.0
  0
SPLINE
  5
36D
330
214
100
AcDbEntity
  8
7_ALL_FEATURES
  6
Continuous
 62
     9
100
AcDbSpline
 70
     0
 71
     3
 72
    21
 73
    17
 74
     0
 42
0.000000001
 43
0.0000001
 40
0.0
 40
0.0
 40
0.0
 40
0.0
 40
0.1949036555
 40
0.3824597344
 40
0.5552020693
 40
0.7066655643
 40
0.7725289575
 40
0.8309657532
 40
0.8814037321
 40
0.9233516092
 40
0.956438361
 40
0.9803191929
 40
0.9887418594
 40
0.9948067372
 40
0.9985204231
 40
1.0
 40
1.0
 40
1.0
 40
1.0
 10
135.4339575869
 20
201.6038639619
 30
0.0
 10
135.4014665707
 20
201.6032970018
 30
0.0
 10
135.3377074763
 20
201.6022922502
 30
0.0
 10
135.245146278
 20
201.6011563501
 30
0.0
 10
135.1598239283
 20
201.6004455061
 30
0.0
 10
135.094788021
 20
201.6002112445
 30
0.0
 10
135.0488109212
 20
201.6002846445
 30
0.0
 10
135.0196761172
 20
201.6004526234
 30
0.0
 10
134.9945352555
 20
201.6007328799
 30
0.0
 10
134.9736069955
 20
201.6011195959
 30
0.0
 10
134.9571523313
 20
201.601606422
 30
0.0
 10
134.9461967048
 20
201.6021182282
 30
0.0
 10
134.9399045208
 20
201.6026171657
 30
0.0
 10
134.9367456161
 20
201.602972157
 30
0.0
 10
134.9351595412
 20
201.6032942791
 30
0.0
 10
134.9340380446
 20
201.603617312
 30
0.0
 10
134.9340337393
 20
201.6038639619
 30
0.0
  0
SPLINE
  5
36E
330
214
100
AcDbEntity
  8
7_ALL_FEATURES
  6
Continuous
 62
     9
100
AcDbSpline
 70
     0
 71
     3
 72
    21
 73
    17
 74
     0
 42
0.000000001
 43
0.0000001
 40
0.0
 40
0.0
 40
0.0
 40
0.0
 40
0.1948110237
 40
0.3824960649
 40
0.5552418146
 40
0.7066424536
 40
0.7725321731
 40
0.8309736691
 40
0.88139365
 40
0.9233573487
 40
0.9564412511
 40
0.9803046448
 40
0.9887294231
 40
0.9947997303
 40
0.9985188152
 40
1.0
 40
1.0
 40
1.0
 40
1.0
 10
135.4161978891
 20
202.6213163683
 30
0.0
 10
135.3837223556
 20
202.6207496784
 30
0.0
 10
135.3199572762
 20
202.61974539
 30
0.0
 10
135.2273895793
 20
202.6186086554
 30
0.0
 10
135.1420557454
 20
202.6178972695
 30
0.0
 10
135.0770254367
 20
202.6176646429
 30
0.0
 10
135.0310537039
 20
202.617737173
 30
0.0
 10
135.0019167547
 20
202.6179046002
 30
0.0
 10
134.9767755221
 20
202.6181854552
 30
0.0
 10
134.9558480827
 20
202.61857167
 30
0.0
 10
134.9393942678
 20
202.6190587275
 30
0.0
 10
134.9284416001
 20
202.6195718526
 30
0.0
 10
134.9221513459
 20
202.620070917
 30
0.0
 10
134.91898963
 20
202.6204252396
 30
0.0
 10
134.9174027144
 20
202.6207479206
 30
0.0
 10
134.9162783515
 20
202.6210694507
 30
0.0
 10
134.9162740415
 20
202.6213163683
 30
0.0
  0
SPLINE
  5
36F
330
214
100
AcDbEntity
  8
7_ALL_FEATURES
  6
Continuous
 62
     9
100
AcDbSpline
 70
     0
 71
     3
 72
    21
 73
    17
 74
     0
 42
0.000000001
 43
0.0000001
 40
0.0
 40
0.0
 40
0.0
 40
0.0
 40
0.1948110117
 40
0.3824960254
 40
0.5552417657
 40
0.7066424105
 40
0.7725321356
 40
0.8309736338
 40
0.8813936223
 40
0.9233573309
 40
0.9564412386
 40
0.9803046372
 40
0.9887294185
 40
0.9947997283
 40
0.998518815
 40
1.0
 40
1.0
 40
1.0
 40
1.0
 10
169.4915363856
 20
202.6213163683
 30
0.0
 10
169.5240119171
 20
202.6207496788
 30
0.0
 10
169.5877769899
 20
202.619745391
 30
0.0
 10
169.6803446786
 20
202.6186086568
 30
0.0
 10
169.7656785072
 20
202.6178972708
 30
0.0
 10
169.8307088162
 20
202.6176646441
 30
0.0
 10
169.8766805512
 20
202.6177371741
 30
0.0
 10
169.9058175029
 20
202.6179046015
 30
0.0
 10
169.9309587388
 20
202.6181854565
 30
0.0
 10
169.9518861819
 20
202.6185716712
 30
0.0
 10
169.9683400001
 20
202.6190587289
 30
0.0
 10
169.9792926702
 20
202.6195718538
 30
0.0
 10
169.9855829259
 20
202.620070918
 30
0.0
 10
169.9887446434
 20
202.6204252402
 30
0.0
 10
169.9903315593
 20
202.6207479213
 30
0.0
 10
169.9914559232
 20
202.6210694507
 30
0.0
 10
169.9914602332
 20
202.6213163683
 30
0.0
  0
SPLINE
  5
370
330
214
100
AcDbEntity
  8
7_ALL_FEATURES
  6
Continuous
 62
     9
100
AcDbSpline
 70
     0
 71
     3
 72
    21
 73
    17
 74
     0
 42
0.000000001
 43
0.0000001
 40
0.0
 40
0.0
 40
0.0
 40
0.0
 40
0.1949068538
 40
0.3824679249
 40
0.5552093702
 40
0.7066693617
 40
0.7725320274
 40
0.8309683434
 40
0.8814061474
 40
0.9233532511
 40
0.9564390912
 40
0.980319509
 40
0.9887420391
 40
0.9948068164
 40
0.998520441
 40
1.0
 40
1.0
 40
1.0
 40
1.0
 10
169.4737766878
 20
201.6038639619
 30
0.0
 10
169.5062682374
 20
201.6032969925
 30
0.0
 10
169.5700286977
 20
201.6022922288
 30
0.0
 10
169.6625911137
 20
201.6011563179
 30
0.0
 10
169.7479135638
 20
201.6004454782
 30
0.0
 10
169.8129486177
 20
201.6002112435
 30
0.0
 10
169.8589249324
 20
201.60028465
 30
0.0
 10
169.888059506
 20
201.6004526422
 30
0.0
 10
169.9132001299
 20
201.6007328939
 30
0.0
 10
169.9341280794
 20
201.6011196094
 30
0.0
 10
169.9505823947
 20
201.6016064415
 30
0.0
 10
169.9615377752
 20
201.602118236
 30
0.0
 10
169.9678298539
 20
201.6026171677
 30
0.0
 10
169.9709887035
 20
201.6029721597
 30
0.0
 10
169.9725747576
 20
201.603294277
 30
0.0
 10
169.9736962301
 20
201.603617315
 30
0.0
 10
169.9737005354
 20
201.6038639619
 30
0.0
  0
SPLINE
  5
371
330
214
100
AcDbEntity
  8
7_ALL_FEATURES
  6
Continuous
 62
     9
100
AcDbSpline
 70
     0
 71
     3
 72
    21
 73
    17
 74
     0
 42
0.000000001
 43
0.0000001
 40
0.0
 40
0.0
 40
0.0
 40
0.0
 40
0.0014812891
 40
0.0052006783
 40
0.0112714822
 40
0.0196969407
 40
0.0435622098
 40
0.0766486053
 40
0.1186152542
 40
0.1690384459
 40
0.2274832136
 40
0.2933760138
 40
0.4447810742
 40
0.6175269231
 40
0.8052052259
 40
1.0
 40
1.0
 40
1.0
 40
1.0
 10
161.4538671374
 20
200.6125901651
 30
0.0
 10
161.4538671374
 20
200.6123431173
 30
0.0
 10
161.4527481095
 20
200.6120019088
 30
0.0
 10
161.4511664694
 20
200.6116514512
 30
0.0
 10
161.4480101912
 20
200.6112418682
 30
0.0
 10
161.4417271936
 20
200.6106328897
 30
0.0
 10
161.430780965
 20
200.6099284603
 30
0.0
 10
161.4143319295
 20
200.6091540693
 30
0.0
 10
161.3934065997
 20
200.6084024516
 30
0.0
 10
161.3682648673
 20
200.6076826616
 30
0.0
 10
161.3391248072
 20
200.6070065798
 30
0.0
 10
161.2931455404
 20
200.6061315614
 30
0.0
 10
161.2280999963
 20
200.6052291051
 30
0.0
 10
161.1427411143
 20
200.6044511445
 30
0.0
 10
161.05014329
 20
200.6039724085
 30
0.0
 10
160.9863547999
 20
200.6038639619
 30
0.0
 10
160.9538671374
 20
200.6038639619
 30
0.0
  0
SPLINE
  5
372
330
214
100
AcDbEntity
  8
7_ALL_FEATURES
  6
Continuous
 62
     9
100
AcDbSpline
 70
     0
 71
     3
 72
    21
 73
    17
 74
     0
 42
0.000000001
 43
0.0000001
 40
0.0
 40
0.0
 40
0.0
 40
0.0
 40
0.0014793124
 40
0.0051922257
 40
0.0112561954
 40
0.0196781607
 40
0.0435590232
 40
0.0766441976
 40
0.1185914293
 40
0.1690318026
 40
0.2274697431
 40
0.2933350095
 40
0.4447975968
 40
0.6175378125
 40
0.8051017731
 40
1.0
 40
1.0
 40
1.0
 40
1.0
 10
161.4538671374
 20
199.6125901651
 30
0.0
 10
161.4538671374
 20
199.6123434466
 30
0.0
 10
161.4527514626
 20
199.6120006749
 30
0.0
 10
161.4511709568
 20
199.611650894
 30
0.0
 10
161.4480182353
 20
199.6112406693
 30
0.0
 10
161.4417340335
 20
199.6106318549
 30
0.0
 10
161.4307860592
 20
199.6099288276
 30
0.0
 10
161.4143377456
 20
199.6091546242
 30
0.0
 10
161.3934130215
 20
199.608402482
 30
0.0
 10
161.3682727365
 20
199.6076833169
 30
0.0
 10
161.3391355228
 20
199.607006657
 30
0.0
 10
161.2931523434
 20
199.6061306868
 30
0.0
 10
161.2281026262
 20
199.6052297099
 30
0.0
 10
161.1427540516
 20
199.6044513539
 30
0.0
 10
161.0501588592
 20
199.6039718874
 30
0.0
 10
160.9863720977
 20
199.6038639619
 30
0.0
 10
160.9538671374
 20
199.6038639619
 30
0.0
  0
SPLINE
  5
373
330
214
100
AcDbEntity
  8
7_ALL_FEATURES
  6
Continuous
 62
     9
100
AcDbSpline
 70
     0
 71
     3
 72
    21
 73
    17
 74
     0
 42
0.000000001
 43
0.0000001
 40
0.0
 40
0.0
 40
0.0
 40
0.0
 40
0.0014793143
 40
0.00519224
 40
0.0112561402
 40
0.0196778719
 40
0.0435576328
 40
0.07664197
 40
0.1185874539
 40
0.1690242943
 40
0.2274587827
 40
0.2933206802
 40
0.4447794567
 40
0.6175186474
 40
0.8050865452
 40
1.0
 40
1.0
 40
1.0
 40
1.0
 10
159.4452919213
 20
199.6038639619
 30
0.0
 10
159.4452962259
 20
199.6036173558
 30
0.0
 10
159.4464173977
 20
199.6032942382
 30
0.0
 10
159.4480032598
 20
199.6029721855
 30
0.0
 10
159.4511616565
 20
199.6026171685
 30
0.0
 10
159.4574533729
 20
199.6021182699
 30
0.0
 10
159.4684082478
 20
199.601606541
 30
0.0
 10
159.4848619399
 20
199.6011196795
 30
0.0
 10
159.5057892065
 20
199.6007329389
 30
0.0
 10
159.5309290972
 20
199.6004526793
 30
0.0
 10
159.5600630788
 20
199.6002846494
 30
0.0
 10
159.6060387613
 20
199.600211247
 30
0.0
 10
159.6710731129
 20
199.6004454412
 30
0.0
 10
159.7563961288
 20
199.6011562466
 30
0.0
 10
159.8489604134
 20
199.6022922029
 30
0.0
 10
159.9127231168
 20
199.6032969733
 30
0.0
 10
159.9452157689
 20
199.6038639619
 30
0.0
  0
SPLINE
  5
374
330
214
100
AcDbEntity
  8
7_ALL_FEATURES
  6
Continuous
 62
     9
100
AcDbSpline
 70
     0
 71
     3
 72
    21
 73
    17
 74
     0
 42
0.000000001
 43
0.0000001
 40
0.0
 40
0.0
 40
0.0
 40
0.0
 40
0.0014527478
 40
0.0051340272
 40
0.011166524
 40
0.0195600033
 40
0.0433917237
 40
0.0764169807
 40
0.1183352049
 40
0.1687470575
 40
0.2271608738
 40
0.2930277433
 40
0.4445039511
 40
0.6173302607
 40
0.8049557721
 40
1.0
 40
1.0
 40
1.0
 40
1.0
 10
159.3926220937
 20
202.6213163683
 30
0.0
 10
159.3926183285
 20
202.6215585545
 30
0.0
 10
159.3937352179
 20
202.6218905567
 30
0.0
 10
159.3952992117
 20
202.6222038701
 30
0.0
 10
159.3984465345
 20
202.6225644339
 30
0.0
 10
159.4047173066
 20
202.6230620768
 30
0.0
 10
159.415651907
 20
202.6235750211
 30
0.0
 10
159.4320822069
 20
202.6240602812
 30
0.0
 10
159.452991462
 20
202.6244462971
 30
0.0
 10
159.478119156
 20
202.6247273466
 30
0.0
 10
159.5072465523
 20
202.6248960745
 30
0.0
 10
159.5532227382
 20
202.6249692002
 30
0.0
 10
159.6182756906
 20
202.6247342084
 30
0.0
 10
159.703626184
 20
202.6240249606
 30
0.0
 10
159.796236902
 20
202.6228895891
 30
0.0
 10
159.8600312475
 20
202.6218794109
 30
0.0
 10
159.8925459412
 20
202.6213163683
 30
0.0
  0
SPLINE
  5
375
330
214
100
AcDbEntity
  8
7_ALL_FEATURES
  6
Continuous
 62
     9
100
AcDbSpline
 70
     0
 71
     3
 72
    21
 73
    17
 74
     0
 42
0.000000001
 43
0.0000001
 40
0.0
 40
0.0
 40
0.0
 40
0.0
 40
0.1947947741
 40
0.3824730769
 40
0.5552189258
 40
0.7066239862
 40
0.7725167864
 40
0.8309615541
 40
0.8813847458
 40
0.9233513947
 40
0.9564377902
 40
0.9803030593
 40
0.9887285178
 40
0.9947993217
 40
0.9985187109
 40
1.0
 40
1.0
 40
1.0
 40
1.0
 10
143.9538671374
 20
200.6038639619
 30
0.0
 10
143.9213794749
 20
200.6038639619
 30
0.0
 10
143.8575909847
 20
200.6039724085
 30
0.0
 10
143.7649931605
 20
200.6044511445
 30
0.0
 10
143.6796342784
 20
200.6052291051
 30
0.0
 10
143.6145887343
 20
200.6061315614
 30
0.0
 10
143.5686094675
 20
200.6070065798
 30
0.0
 10
143.5394694074
 20
200.6076826616
 30
0.0
 10
143.514327675
 20
200.6084024516
 30
0.0
 10
143.4934023452
 20
200.6091540693
 30
0.0
 10
143.4769533097
 20
200.6099284603
 30
0.0
 10
143.4660070812
 20
200.6106328897
 30
0.0
 10
143.4597240835
 20
200.6112418682
 30
0.0
 10
143.4565678053
 20
200.6116514512
 30
0.0
 10
143.4549861652
 20
200.6120019088
 30
0.0
 10
143.4538671374
 20
200.6123431173
 30
0.0
 10
143.4538671374
 20
200.6125901651
 30
0.0
  0
SPLINE
  5
376
330
214
100
AcDbEntity
  8
7_ALL_FEATURES
  6
Continuous
 62
     9
100
AcDbSpline
 70
     0
 71
     3
 72
    21
 73
    17
 74
     0
 42
0.000000001
 43
0.0000001
 40
0.0
 40
0.0
 40
0.0
 40
0.0
 40
0.1948982269
 40
0.3824621874
 40
0.5552024031
 40
0.7066649904
 40
0.7725302568
 40
0.8309681973
 40
0.8814085706
 40
0.9233558023
 40
0.9564409768
 40
0.9803218393
 40
0.9887438046
 40
0.9948077743
 40
0.9985206876
 40
1.0
 40
1.0
 40
1.0
 40
1.0
 10
143.9538671374
 20
199.6038639619
 30
0.0
 10
143.921362177
 20
199.6038639619
 30
0.0
 10
143.8575754155
 20
199.6039718874
 30
0.0
 10
143.7649802231
 20
199.6044513539
 30
0.0
 10
143.6796316486
 20
199.6052297099
 30
0.0
 10
143.6145819313
 20
199.6061306868
 30
0.0
 10
143.5685987519
 20
199.607006657
 30
0.0
 10
143.5394615383
 20
199.6076833169
 30
0.0
 10
143.5143212532
 20
199.608402482
 30
0.0
 10
143.4933965292
 20
199.6091546242
 30
0.0
 10
143.4769482156
 20
199.6099288276
 30
0.0
 10
143.4660002412
 20
199.6106318549
 30
0.0
 10
143.4597160394
 20
199.6112406693
 30
0.0
 10
143.456563318
 20
199.611650894
 30
0.0
 10
143.4549828121
 20
199.6120006749
 30
0.0
 10
143.4538671374
 20
199.6123434466
 30
0.0
 10
143.4538671374
 20
199.6125901651
 30
0.0
  0
SPLINE
  5
377
330
214
100
AcDbEntity
  8
7_ALL_FEATURES
  6
Continuous
 62
     9
100
AcDbSpline
 70
     0
 71
     3
 72
    21
 73
    17
 74
     0
 42
0.000000001
 43
0.0000001
 40
0.0
 40
0.0
 40
0.0
 40
0.0
 40
0.1949134548
 40
0.3824813526
 40
0.5552205433
 40
0.7066793198
 40
0.7725412173
 40
0.8309757057
 40
0.8814125461
 40
0.92335803
 40
0.9564423672
 40
0.9803221281
 40
0.9887438598
 40
0.99480776
 40
0.9985206857
 40
1.0
 40
1.0
 40
1.0
 40
1.0
 10
144.9625185058
 20
199.6038639619
 30
0.0
 10
144.9950111579
 20
199.6032969733
 30
0.0
 10
145.0587738613
 20
199.6022922029
 30
0.0
 10
145.1513381459
 20
199.6011562466
 30
0.0
 10
145.2366611618
 20
199.6004454412
 30
0.0
 10
145.3016955134
 20
199.600211247
 30
0.0
 10
145.3476711959
 20
199.6002846494
 30
0.0
 10
145.3768051775
 20
199.6004526793
 30
0.0
 10
145.4019450682
 20
199.6007329389
 30
0.0
 10
145.4228723349
 20
199.6011196795
 30
0.0
 10
145.4393260269
 20
199.601606541
 30
0.0
 10
145.4502809019
 20
199.6021182699
 30
0.0
 10
145.4565726182
 20
199.6026171685
 30
0.0
 10
145.4597310149
 20
199.6029721855
 30
0.0
 10
145.461316877
 20
199.6032942382
 30
0.0
 10
145.4624380489
 20
199.6036173558
 30
0.0
 10
145.4624423534
 20
199.6038639619
 30
0.0
  0
SPLINE
  5
378
330
214
100
AcDbEntity
  8
7_ALL_FEATURES
  6
Continuous
 62
     9
100
AcDbSpline
 70
     0
 71
     3
 72
    21
 73
    17
 74
     0
 42
0.000000001
 43
0.0000001
 40
0.0
 40
0.0
 40
0.0
 40
0.0
 40
0.1950022151
 40
0.3825555017
 40
0.5553792837
 40
0.7068688851
 40
0.7727470049
 40
0.8311728381
 40
0.8816036543
 40
0.9235348397
 40
0.9565830417
 40
0.9804275493
 40
0.9888253307
 40
0.9948618984
 40
0.9985462441
 40
1.0
 40
1.0
 40
1.0
 40
1.0
 10
145.0151883335
 20
202.6213163683
 30
0.0
 10
145.0476959953
 20
202.6218797005
 30
0.0
 10
145.1114712521
 20
202.6228899401
 30
0.0
 10
145.20406246
 20
202.6240235575
 30
0.0
 10
145.2894026545
 20
202.6247342487
 30
0.0
 10
145.3544592542
 20
202.6249691504
 30
0.0
 10
145.4004415226
 20
202.624896143
 30
0.0
 10
145.4295759416
 20
202.6247274079
 30
0.0
 10
145.4547109486
 20
202.6244470122
 30
0.0
 10
145.4756293586
 20
202.6240612149
 30
0.0
 10
145.4920677272
 20
202.6235760457
 30
0.0
 10
145.5030090708
 20
202.6230622765
 30
0.0
 10
145.5092831935
 20
202.6225639656
 30
0.0
 10
145.5124326884
 20
202.6222036648
 30
0.0
 10
145.5139975432
 20
202.6218898457
 30
0.0
 10
145.5151157981
 20
202.6215587247
 30
0.0
 10
145.515112181
 20
202.6213163683
 30
0.0
  0
SPLINE
  5
379
330
214
100
AcDbEntity
  8
7_ALL_FEATURES
  6
Continuous
 62
     9
100
AcDbSpline
 70
     0
 71
     3
 72
    28
 73
    24
 74
     0
 42
0.000000001
 43
0.0000001
 40
0.0
 40
0.0
 40
0.0
 40
0.0
 40
0.1950897798
 40
0.3826488746
 40
0.4713551738
 40
0.555520603
 40
0.6343368341
 40
0.707043622
 40
0.7729438073
 40
0.831400104
 40
0.8818524443
 40
0.9238195406
 40
0.9414880299
 40
0.9568878914
 40
0.9699854466
 40
0.9807471741
 40
0.9891422468
 40
0.9924469717
 40
0.9951547095
 40
0.9972642011
 40
0.9987743541
 40
0.9996846852
 40
1.0
 40
1.0
 40
1.0
 40
1.0
 10
137.3987428474
 20
203.6038639619
 30
0.0
 10
137.23618953
 20
203.6032962935
 30
0.0
 10
136.9173572444
 20
203.6022923903
 30
0.0
 10
136.5246119601
 20
203.6013282508
 30
0.0
 10
136.2242913347
 20
203.6007729646
 30
0.0
 10
136.0145780275
 20
203.6004770058
 30
0.0
 10
135.8181958366
 20
203.6002960977
 30
0.0
 10
135.6370326912
 20
203.6002319357
 30
0.0
 10
135.472834
 20
203.6002844669
 30
0.0
 10
135.3271784591
 20
203.6004522418
 30
0.0
 10
135.2014647442
 20
203.6007329409
 30
0.0
 10
135.1097371545
 20
203.6010715492
 30
0.0
 10
135.0472160659
 20
203.6014130855
 30
0.0
 10
135.008751076
 20
203.6016808999
 30
0.0
 10
134.9760380601
 20
203.601970867
 30
0.0
 10
134.9491714474
 20
203.6022888123
 30
0.0
 10
134.9304424149
 20
203.6025759726
 30
0.0
 10
134.9184644112
 20
203.6028498749
 30
0.0
 10
134.9116490691
 20
203.6030074164
 30
0.0
 10
134.9065104471
 20
203.603263659
 30
0.0
 10
134.9024446182
 20
203.6032928521
 30
0.0
 10
134.9006943453
 20
203.603745676
 30
0.0
 10
134.8991293977
 20
203.6036012964
 30
0.0
 10
134.8991236095
 20
203.6038639619
 30
0.0
  0
ENDSEC
  0
SECTION
  2
OBJECTS
  0
DICTIONARY
  5
C
330
0
100
AcDbDictionary
281
     1
  3
ACAD_DETAILVIEWSTYLE
350
3D9
  3
ACAD_GROUP
350
D
  3
ACAD_IMAGE_DICT
350
3C9
  3
ACAD_LAYOUT
350
1A
  3
ACAD_MATERIAL
350
3BD
  3
ACAD_MLEADERSTYLE
350
3D8
  3
ACAD_MLINESTYLE
350
17
  3
ACAD_PLOTSETTINGS
350
19
  3
ACAD_PLOTSTYLENAME
350
E
  3
ACAD_SCALELIST
350
37F
  3
ACAD_SECTIONVIEWSTYLE
350
3DA
  3
ACAD_TABLESTYLE
350
3A1
  3
ACAD_VISUALSTYLE
350
3A4
  3
ACDB_RECOMPOSE_DATA
350
3D6
  3
AcDbVariableDictionary
350
3D2
  3
HOST_DOC_SETTINGS
350
3C7
  3
MCS_STREAM_DICT
350
3C3
  0
SUN
  5
3C6
330
1F4
100
AcDbSun
 90
        1
290
     0
 63
     7
421
 16777215
 40
1.0
291
     1
 91
  2455826
 92
 54000000
292
     0
 70
     2
 71
   256
280
     1
  0
DICTIONARY
  5
3D0
330
2A0
100
AcDbDictionary
280
     1
281
     1
  3
ACAD_XREC_ROUNDTRIP
360
3D1
  0
DICTIONARY
  5
3D9
102
{ACAD_REACTORS
330
C
102
}
330
C
100
AcDbDictionary
281
     1
  0
DICTIONARY
  5
D
102
{ACAD_REACTORS
330
C
102
}
330
C
100
AcDbDictionary
281
     1
  0
DICTIONARY
  5
3C9
102
{ACAD_REACTORS
330
C
102
}
330
C
100
AcDbDictionary
281
     1
  0
DICTIONARY
  5
1A
102
{ACAD_REACTORS
330
C
102
}
330
C
100
AcDbDictionary
281
     1
  3
Layout1
350
37C
  3
Model
350
37B
  0
DICTIONARY
  5
3BD
102
{ACAD_REACTORS
330
C
102
}
330
C
100
AcDbDictionary
281
     1
  3
ByBlock
350
3BF
  3
ByLayer
350
3BE
  3
Global
350
3C0
  0
DICTIONARY
  5
3D8
102
{ACAD_REACTORS
330
C
102
}
330
C
100
AcDbDictionary
281
     1
  0
DICTIONARY
  5
17
102
{ACAD_REACTORS
330
C
102
}
330
C
100
AcDbDictionary
281
     1
  3
Standard
350
18
  0
DICTIONARY
  5
19
102
{ACAD_REACTORS
330
C
102
}
330
C
100
AcDbDictionary
281
     1
  0
ACDBDICTIONARYWDFLT
  5
E
102
{ACAD_REACTORS
330
C
102
}
330
C
100
AcDbDictionary
281
     1
  3
Normal
350
F
100
AcDbDictionaryWithDefault
340
F
  0
DICTIONARY
  5
37F
102
{ACAD_REACTORS
330
C
102
}
330
C
100
AcDbDictionary
281
     1
  3
A0
350
380
  3
A1
350
381
  3
A2
350
382
  3
A3
350
383
  3
A4
350
384
  3
A5
350
385
  3
A6
350
386
  3
A7
350
387
  3
A8
350
388
  3
A9
350
389
  3
B0
350
38A
  3
B1
350
38B
  3
B2
350
38C
  3
B3
350
38D
  3
B4
350
38E
  3
B5
350
38F
  3
B6
350
390
  3
B7
350
391
  3
B8
350
392
  3
B9
350
393
  3
C0
350
394
  3
C1
350
395
  3
C2
350
396
  3
C3
350
397
  3
C4
350
398
  3
C5
350
399
  3
C6
350
39A
  3
C7
350
39B
  3
C8
350
39C
  3
C9
350
39D
  3
D0
350
39E
  3
D1
350
39F
  3
D2
350
3A0
  0
DICTIONARY
  5
3DA
102
{ACAD_REACTORS
330
C
102
}
330
C
100
AcDbDictionary
281
     1
  0
DICTIONARY
  5
3A1
102
{ACAD_REACTORS
330
C
102
}
330
C
100
AcDbDictionary
281
     1
  3
Standard
350
3A2
  0
DICTIONARY
  5
3A4
102
{ACAD_REACTORS
330
C
102
}
330
C
100
AcDbDictionary
281
     1
  3
2dWireframe
350
3A9
  3
Basic
350
3AC
  3
Brighten
350
3B0
  3
ColorChange
350
3B4
  3
Conceptual
350
3AE
  3
Dim
350
3AF
  3
EdgeColorOff
350
3B7
  3
Facepattern
350
3B3
  3
Flat
350
3A5
  3
FlatWithEdges
350
3A6
  3
Gouraud
350
3A7
  3
GouraudWithEdges
350
3A8
  3
Hidden
350
3AB
  3
JitterOff
350
3B5
  3
Linepattern
350
3B2
  3
OverhangOff
350
3B6
  3
Realistic
350
3AD
  3
Shaded
350
3BC
  3
Shaded with edges
350
3BB
  3
Shades of Gray
350
3B8
  3
Sketchy
350
3B9
  3
Thicken
350
3B1
  3
Wireframe
350
3AA
  3
X-Ray
350
3BA
  0
XRECORD
  5
3D6
102
{ACAD_REACTORS
330
C
102
}
330
C
100
AcDbXrecord
280
     1
 90
        1
330
2A0
330
3A2
  0
DICTIONARY
  5
3D2
102
{ACAD_REACTORS
330
C
102
}
330
C
100
AcDbDictionary
281
     1
  3
CANNOSCALE
350
3D3
  3
CTABLESTYLE
350
3D7
  0
DICTIONARY
  5
3C7
102
{ACAD_REACTORS
330
C
102
}
330
C
100
AcDbDictionary
281
     1
  3
NCDocParameters
350
3C8
  0
DICTIONARY
  5
3C3
102
{ACAD_REACTORS
330
C
102
}
330
C
100
AcDbDictionary
281
     1
  3
MC_VERSION_DATA
350
3CC
  3
MCS_DOCUMENT_ID
350
3C4
  3
MCS_PARAMS_DATA
350
3CA
  0
XRECORD
  5
3D1
102
{ACAD_REACTORS
330
3D0
102
}
330
3D0
100
AcDbXrecord
280
     1
102
ACAD_ROUNDTRIP_2008_TABLE_ENTITY
360
3CE
 70
     2
 90
        1
 10
0.0
 20
0.0
 30
0.0
 90
        0
 90
        4
361
3CF
  0
LAYOUT
  5
37C
102
{ACAD_REACTORS
330
1A
102
}
330
1A
100
AcDbPlotSettings
  1

  2
none_device
  4
ISO_A3_(420.00_x_297.00_MM)
  6

 40
0.0
 41
0.0
 42
0.0
 43
0.0
 44
420.0
 45
297.0
 46
0.0
 47
0.0
 48
0.0
 49
0.0
140
0.0
141
0.0
142
1.0
143
1.0
 70
     0
 72
     1
 73
     0
 74
     0
  7

 75
     0
 76
     0
 77
     2
 78
   300
147
1.0
148
0.0
149
0.0
100
AcDbLayout
  1
Layout1
 70
     0
 71
     1
 10
0.0
 20
0.0
 11
420.0
 21
297.0
 12
0.0
 22
0.0
 32
0.0
 14
0.0
 24
0.0
 34
0.0
 15
0.0
 25
0.0
 35
0.0
146
0.0
 13
0.0
 23
0.0
 33
0.0
 16
1.0
 26
0.0
 36
0.0
 17
0.0
 27
1.0
 37
0.0
 76
     0
330
215
  0
LAYOUT
  5
37B
102
{ACAD_REACTORS
330
1A
102
}
330
1A
100
AcDbPlotSettings
  1

  2
none_device
  4
ISO_A3_(420.00_x_297.00_MM)
  6

 40
0.0
 41
0.0
 42
0.0
 43
0.0
 44
420.0
 45
297.0
 46
0.0
 47
0.0
 48
0.0
 49
0.0
140
0.0
141
0.0
142
1.0
143
1.0
 70
  1024
 72
     1
 73
     0
 74
     0
  7

 75
     0
 76
     0
 77
     2
 78
   300
147
1.0
148
0.0
149
0.0
100
AcDbLayout
  1
Model
 70
     0
 71
     0
 10
0.0
 20
0.0
 11
420.0
 21
297.0
 12
0.0
 22
0.0
 32
0.0
 14
0.0
 24
0.0
 34
0.0
 15
0.0
 25
0.0
 35
0.0
146
0.0
 13
0.0
 23
0.0
 33
0.0
 16
1.0
 26
0.0
 36
0.0
 17
0.0
 27
1.0
 37
0.0
 76
     0
330
214
331
1F4
  0
MATERIAL
  5
3BF
102
{ACAD_REACTORS
330
3BD
102
}
330
3BD
100
AcDbMaterial
  1
ByBlock
 72
     1
 94
      127
  0
MATERIAL
  5
3BE
102
{ACAD_REACTORS
330
3BD
102
}
330
3BD
100
AcDbMaterial
  1
ByLayer
 72
     1
 94
      127
  0
MATERIAL
  5
3C0
102
{ACAD_REACTORS
330
3BD
102
}
330
3BD
100
AcDbMaterial
  1
Global
 72
     1
 94
      127
  0
MLINESTYLE
  5
18
102
{ACAD_REACTORS
330
17
102
}
330
17
100
AcDbMlineStyle
  2
STANDARD
 70
     0
  3

 62
   256
 51
90.0
 52
90.0
 71
     2
 49
0.5
 62
   256
  6
BYLAYER
 49
-0.5
 62
   256
  6
BYLAYER
  0
ACDBPLACEHOLDER
  5
F
102
{ACAD_REACTORS
330
E
102
}
330
E
  0
SCALE
  5
380
102
{ACAD_REACTORS
330
37F
102
}
330
37F
100
AcDbScale
 70
     0
300
1:1
140
1.0
141
1.0
290
     1
  0
SCALE
  5
381
102
{ACAD_REACTORS
330
37F
102
}
330
37F
100
AcDbScale
 70
     0
300
1:2
140
1.0
141
2.0
290
     0
  0
SCALE
  5
382
102
{ACAD_REACTORS
330
37F
102
}
330
37F
100
AcDbScale
 70
     0
300
1:4
140
1.0
141
4.0
290
     0
  0
SCALE
  5
383
102
{ACAD_REACTORS
330
37F
102
}
330
37F
100
AcDbScale
 70
     0
300
1:5
140
1.0
141
5.0
290
     0
  0
SCALE
  5
384
102
{ACAD_REACTORS
330
37F
102
}
330
37F
100
AcDbScale
 70
     0
300
1:8
140
1.0
141
8.0
290
     0
  0
SCALE
  5
385
102
{ACAD_REACTORS
330
37F
102
}
330
37F
100
AcDbScale
 70
     0
300
1:10
140
1.0
141
10.0
290
     0
  0
SCALE
  5
386
102
{ACAD_REACTORS
330
37F
102
}
330
37F
100
AcDbScale
 70
     0
300
1:16
140
1.0
141
16.0
290
     0
  0
SCALE
  5
387
102
{ACAD_REACTORS
330
37F
102
}
330
37F
100
AcDbScale
 70
     0
300
1:20
140
1.0
141
20.0
290
     0
  0
SCALE
  5
388
102
{ACAD_REACTORS
330
37F
102
}
330
37F
100
AcDbScale
 70
     0
300
1:30
140
1.0
141
30.0
290
     0
  0
SCALE
  5
389
102
{ACAD_REACTORS
330
37F
102
}
330
37F
100
AcDbScale
 70
     0
300
1:40
140
1.0
141
40.0
290
     0
  0
SCALE
  5
38A
102
{ACAD_REACTORS
330
37F
102
}
330
37F
100
AcDbScale
 70
     0
300
1:50
140
1.0
141
50.0
290
     0
  0
SCALE
  5
38B
102
{ACAD_REACTORS
330
37F
102
}
330
37F
100
AcDbScale
 70
     0
300
1:100
140
1.0
141
100.0
290
     0
  0
SCALE
  5
38C
102
{ACAD_REACTORS
330
37F
102
}
330
37F
100
AcDbScale
 70
     0
300
2:1
140
2.0
141
1.0
290
     0
  0
SCALE
  5
38D
102
{ACAD_REACTORS
330
37F
102
}
330
37F
100
AcDbScale
 70
     0
300
4:1
140
4.0
141
1.0
290
     0
  0
SCALE
  5
38E
102
{ACAD_REACTORS
330
37F
102
}
330
37F
100
AcDbScale
 70
     0
300
8:1
140
8.0
141
1.0
290
     0
  0
SCALE
  5
38F
102
{ACAD_REACTORS
330
37F
102
}
330
37F
100
AcDbScale
 70
     0
300
10:1
140
10.0
141
1.0
290
     0
  0
SCALE
  5
390
102
{ACAD_REACTORS
330
37F
102
}
330
37F
100
AcDbScale
 70
     0
300
100:1
140
100.0
141
1.0
290
     0
  0
SCALE
  5
391
102
{ACAD_REACTORS
330
37F
102
}
330
37F
100
AcDbScale
 70
     0
300
1/128" = 1'-0"
140
0.007812
141
12.0
290
     0
  0
SCALE
  5
392
102
{ACAD_REACTORS
330
37F
102
}
330
37F
100
AcDbScale
 70
     0
300
1/64" = 1'-0"
140
0.015625
141
12.0
290
     0
  0
SCALE
  5
393
102
{ACAD_REACTORS
330
37F
102
}
330
37F
100
AcDbScale
 70
     0
300
1/32" = 1'-0"
140
0.03125
141
12.0
290
     0
  0
SCALE
  5
394
102
{ACAD_REACTORS
330
37F
102
}
330
37F
100
AcDbScale
 70
     0
300
1/16" = 1'-0"
140
0.0625
141
12.0
290
     0
  0
SCALE
  5
395
102
{ACAD_REACTORS
330
37F
102
}
330
37F
100
AcDbScale
 70
     0
300
3/32" = 1'-0"
140
0.09375
141
12.0
290
     0
  0
SCALE
  5
396
102
{ACAD_REACTORS
330
37F
102
}
330
37F
100
AcDbScale
 70
     0
300
1/8" = 1'-0"
140
0.125
141
12.0
290
     0
  0
SCALE
  5
397
102
{ACAD_REACTORS
330
37F
102
}
330
37F
100
AcDbScale
 70
     0
300
3/16" = 1'-0"
140
0.1875
141
12.0
290
     0
  0
SCALE
  5
398
102
{ACAD_REACTORS
330
37F
102
}
330
37F
100
AcDbScale
 70
     0
300
1/4" = 1'-0"
140
0.25
141
12.0
290
     0
  0
SCALE
  5
399
102
{ACAD_REACTORS
330
37F
102
}
330
37F
100
AcDbScale
 70
     0
300
3/8" = 1'-0"
140
0.375
141
12.0
290
     0
  0
SCALE
  5
39A
102
{ACAD_REACTORS
330
37F
102
}
330
37F
100
AcDbScale
 70
     0
300
1/2" = 1'-0"
140
0.5
141
12.0
290
     0
  0
SCALE
  5
39B
102
{ACAD_REACTORS
330
37F
102
}
330
37F
100
AcDbScale
 70
     0
300
3/4" = 1'-0"
140
0.75
141
12.0
290
     0
  0
SCALE
  5
39C
102
{ACAD_REACTORS
330
37F
102
}
330
37F
100
AcDbScale
 70
     0
300
1" = 1'-0"
140
1.0
141
12.0
290
     0
  0
SCALE
  5
39D
102
{ACAD_REACTORS
330
37F
102
}
330
37F
100
AcDbScale
 70
     0
300
1-1/2" = 1'-0"
140
1.5
141
12.0
290
     0
  0
SCALE
  5
39E
102
{ACAD_REACTORS
330
37F
102
}
330
37F
100
AcDbScale
 70
     0
300
3" = 1'-0"
140
3.0
141
12.0
290
     0
  0
SCALE
  5
39F
102
{ACAD_REACTORS
330
37F
102
}
330
37F
100
AcDbScale
 70
     0
300
6" = 1'-0"
140
6.0
141
12.0
290
     0
  0
SCALE
  5
3A0
102
{ACAD_REACTORS
330
37F
102
}
330
37F
100
AcDbScale
 70
     0
300
1'-0" = 1'-0"
140
12.0
141
12.0
290
     0
  0
TABLESTYLE
  5
3A2
102
{ACAD_REACTORS
330
3A1
102
}
102
{ACAD_XDICTIONARY
360
3D4
102
}
330
3A1
100
AcDbTableStyle
  3
Standard
 70
     0
 71
     0
 40
0.06
 41
0.06
280
     0
281
     0
  7
STANDARD
140
4.5
170
     2
 62
     0
 63
   257
283
     0
 90
        4
 91
        0
  1

274
    -2
284
     1
 64
     0
275
    -2
285
     1
 65
     0
276
    -2
286
     1
 66
     0
277
    -2
287
     1
 67
     0
278
    -2
288
     1
 68
     0
279
    -2
289
     1
 69
     0
  7
STANDARD
140
6.0
170
     5
 62
     0
 63
   257
283
     0
 90
        4
 91
        0
  1

274
    -2
284
     1
 64
     0
275
    -2
285
     1
 65
     0
276
    -2
286
     1
 66
     0
277
    -2
287
     1
 67
     0
278
    -2
288
     1
 68
     0
279
    -2
289
     1
 69
     0
  7
STANDARD
140
4.5
170
     5
 62
     0
 63
   257
283
     0
 90
        4
 91
        0
  1

274
    -2
284
     1
 64
     0
275
    -2
285
     1
 65
     0
276
    -2
286
     1
 66
     0
277
    -2
287
     1
 67
     0
278
    -2
288
     1
 68
     0
279
    -2
289
     1
 69
     0
  0
VISUALSTYLE
  5
3A9
102
{ACAD_REACTORS
330
3A4
102
}
330
3A4
100
AcDbVisualStyle
  2
2dWireframe
 70
     4
177
     3
291
     0
 70
    58
 90
        0
176
     1
 90
        2
176
     1
 90
        0
176
     1
 90
        0
176
     1
 40
0.6
176
     1
 40
30.0
176
     1
 62
     7
420
 16777215
176
     1
 90
        1
176
     1
 90
        4
176
     1
 62
     7
176
     1
 62
   257
176
     1
 90
        1
176
     1
 90
        1
176
     1
 40
1.0
176
     1
 90
        0
176
     1
 62
   257
176
     1
 40
1.0
176
     1
 90
        1
176
     1
 90
        6
176
     1
 90
        2
176
     1
 62
     7
176
     1
 90
        5
176
     1
 90
        0
176
     1
 90
        0
176
     1
290
     0
176
     1
 90
        1
176
     1
 40
0.0
176
     1
 90
        0
176
     1
290
     1
176
     1
290
     1
176
     1
290
     0
176
     1
290
     0
176
     1
290
     0
176
     1
290
     0
176
     1
290
     0
176
     1
290
     0
176
     1
290
     0
176
     1
 90
       50
176
     1
 40
0.0
176
     1
 40
1.0
176
     1
 90
        0
176
     1
 62
    18
420
        0
176
     1
 90
       50
176
     1
 90
        3
176
     1
 62
     5
420
      255
176
     1
290
     0
176
     1
 90
       50
176
     1
 90
       50
176
     1
 90
       50
176
     1
290
     0
176
     1
 90
       50
176
     1
 62
   256
176
     0
 40
1.0
176
     0
 90
        2
176
     1
  1
strokes_ogs.tif
176
     1
290
     0
176
     1
 40
1.0
176
     1
 40
1.0
176
     1
  0
VISUALSTYLE
  5
3AC
102
{ACAD_REACTORS
330
3A4
102
}
330
3A4
100
AcDbVisualStyle
  2
Basic
 70
     7
177
     3
291
     1
 70
    58
 90
        1
176
     1
 90
        0
176
     1
 90
        1
176
     1
 90
        0
176
     1
 40
0.6
176
     1
 40
30.0
176
     1
 62
     7
420
 16777215
176
     1
 90
        0
176
     1
 90
        4
176
     1
 62
     7
176
     1
 62
   257
176
     1
 90
        1
176
     1
 90
        1
176
     1
 40
1.0
176
     1
 90
        8
176
     1
 62
     7
176
     1
 40
1.0
176
     1
 90
        1
176
     1
 90
        6
176
     1
 90
        2
176
     1
 62
     7
176
     1
 90
        5
176
     1
 90
        0
176
     1
 90
        0
176
     1
290
     0
176
     1
 90
        1
176
     1
 40
0.0
176
     1
 90
        0
176
     1
290
     0
176
     1
290
     1
176
     1
290
     1
176
     1
290
     0
176
     1
290
     0
176
     1
290
     0
176
     1
290
     0
176
     1
290
     0
176
     1
290
     0
176
     1
 90
       50
176
     1
 40
0.0
176
     1
 40
1.0
176
     1
 90
        0
176
     1
 62
    18
420
        0
176
     1
 90
       50
176
     1
 90
        3
176
     1
 62
     5
420
      255
176
     1
290
     0
176
     1
 90
       50
176
     1
 90
       50
176
     1
 90
       50
176
     1
290
     0
176
     1
 90
       50
176
     1
 62
   256
176
     0
 40
1.0
176
     0
 90
        2
176
     1
  1
strokes_ogs.tif
176
     1
290
     0
176
     1
 40
1.0
176
     1
 40
1.0
176
     1
  0
VISUALSTYLE
  5
3B0
102
{ACAD_REACTORS
330
3A4
102
}
330
3A4
100
AcDbVisualStyle
  2
Brighten
 70
    12
177
     3
291
     1
 70
    58
 90
        2
176
     1
 90
        2
176
     1
 90
        0
176
     1
 90
        0
176
     1
 40
0.6
176
     1
 40
30.0
176
     1
 62
     7
420
 16777215
176
     1
 90
        1
176
     1
 90
        4
176
     1
 62
     7
176
     1
 62
   257
176
     1
 90
        1
176
     1
 90
        1
176
     1
 40
1.0
176
     1
 90
        8
176
     1
 62
     7
176
     1
 40
1.0
176
     1
 90
        1
176
     1
 90
        6
176
     1
 90
        2
176
     1
 62
     7
176
     1
 90
        5
176
     1
 90
        0
176
     1
 90
        0
176
     1
290
     0
176
     1
 90
        1
176
     1
 40
50.0
176
     1
 90
        0
176
     1
290
     0
176
     1
290
     1
176
     1
290
     1
176
     1
290
     0
176
     1
290
     0
176
     1
290
     0
176
     1
290
     0
176
     1
290
     0
176
     1
290
     0
176
     1
 90
       50
176
     1
 40
0.0
176
     1
 40
1.0
176
     1
 90
        0
176
     1
 62
    18
420
        0
176
     1
 90
       50
176
     1
 90
        3
176
     1
 62
     5
420
      255
176
     1
290
     0
176
     1
 90
       50
176
     1
 90
       50
176
     1
 90
       50
176
     1
290
     0
176
     1
 90
       50
176
     1
 62
   256
176
     0
 40
1.0
176
     0
 90
        2
176
     1
  1
strokes_ogs.tif
176
     1
290
     0
176
     1
 40
1.0
176
     1
 40
1.0
176
     1
  0
VISUALSTYLE
  5
3B4
102
{ACAD_REACTORS
330
3A4
102
}
330
3A4
100
AcDbVisualStyle
  2
ColorChange
 70
    16
177
     3
291
     1
 70
    58
 90
        2
176
     1
 90
        2
176
     1
 90
        3
176
     1
 90
        0
176
     1
 40
0.6
176
     1
 40
30.0
176
     1
 62
     8
420
  8421504
176
     1
 90
        1
176
     1
 90
        4
176
     1
 62
     7
176
     1
 62
   257
176
     1
 90
        1
176
     1
 90
        1
176
     1
 40
1.0
176
     1
 90
        8
176
     1
 62
     8
420
  8421504
176
     1
 40
1.0
176
     1
 90
        1
176
     1
 90
        6
176
     1
 90
        2
176
     1
 62
     7
176
     1
 90
        5
176
     1
 90
        0
176
     1
 90
        0
176
     1
290
     0
176
     1
 90
        1
176
     1
 40
0.0
176
     1
 90
        0
176
     1
290
     0
176
     1
290
     1
176
     1
290
     1
176
     1
290
     0
176
     1
290
     0
176
     1
290
     0
176
     1
290
     0
176
     1
290
     0
176
     1
290
     0
176
     1
 90
       50
176
     1
 40
0.0
176
     1
 40
1.0
176
     1
 90
        0
176
     1
 62
    18
420
        0
176
     1
 90
       50
176
     1
 90
        3
176
     1
 62
     5
420
      255
176
     1
290
     0
176
     1
 90
       50
176
     1
 90
       50
176
     1
 90
       50
176
     1
290
     0
176
     1
 90
       50
176
     1
 62
   256
176
     0
 40
1.0
176
     0
 90
        2
176
     1
  1
strokes_ogs.tif
176
     1
290
     0
176
     1
 40
1.0
176
     1
 40
1.0
176
     1
  0
VISUALSTYLE
  5
3AE
102
{ACAD_REACTORS
330
3A4
102
}
330
3A4
100
AcDbVisualStyle
  2
Conceptual
 70
     9
177
     3
291
     0
 70
    58
 90
        3
176
     1
 90
        2
176
     1
 90
        0
176
     1
 90
        0
176
     1
 40
0.6
176
     1
 40
30.0
176
     1
 62
     7
420
 16777215
176
     1
 90
        2
176
     1
 90
        2
176
     1
 62
     7
176
     1
 62
   257
176
     1
 90
        1
176
     1
 90
        1
176
     1
 40
179.0
176
     1
 90
        8
176
     1
 62
     7
176
     1
 40
1.0
176
     1
 90
        1
176
     1
 90
        6
176
     1
 90
        2
176
     1
 62
     7
176
     1
 90
        3
176
     1
 90
        0
176
     1
 90
        0
176
     1
290
     0
176
     1
 90
        1
176
     1
 40
0.0
176
     1
 90
        0
176
     1
290
     0
176
     1
290
     1
176
     1
290
     1
176
     1
290
     0
176
     1
290
     0
176
     1
290
     0
176
     1
290
     0
176
     1
290
     0
176
     1
290
     0
176
     1
 90
       50
176
     1
 40
0.0
176
     1
 40
1.0
176
     1
 90
        0
176
     1
 62
    18
420
        0
176
     1
 90
       50
176
     1
 90
        3
176
     1
 62
     5
420
      255
176
     1
290
     0
176
     1
 90
       50
176
     1
 90
       50
176
     1
 90
       50
176
     1
290
     0
176
     1
 90
       50
176
     1
 62
   256
176
     0
 40
1.0
176
     0
 90
        2
176
     1
  1
strokes_ogs.tif
176
     1
290
     0
176
     1
 40
1.0
176
     1
 40
1.0
176
     1
  0
VISUALSTYLE
  5
3AF
102
{ACAD_REACTORS
330
3A4
102
}
330
3A4
100
AcDbVisualStyle
  2
Dim
 70
    11
177
     3
291
     1
 70
    58
 90
        2
176
     1
 90
        2
176
     1
 90
        0
176
     1
 90
        0
176
     1
 40
0.6
176
     1
 40
30.0
176
     1
 62
     7
420
 16777215
176
     1
 90
        1
176
     1
 90
        4
176
     1
 62
     7
176
     1
 62
   257
176
     1
 90
        1
176
     1
 90
        1
176
     1
 40
1.0
176
     1
 90
        8
176
     1
 62
     7
176
     1
 40
1.0
176
     1
 90
        1
176
     1
 90
        6
176
     1
 90
        2
176
     1
 62
     7
176
     1
 90
        5
176
     1
 90
        0
176
     1
 90
        0
176
     1
290
     0
176
     1
 90
        1
176
     1
 40
-50.0
176
     1
 90
        0
176
     1
290
     0
176
     1
290
     1
176
     1
290
     1
176
     1
290
     0
176
     1
290
     0
176
     1
290
     0
176
     1
290
     0
176
     1
290
     0
176
     1
290
     0
176
     1
 90
       50
176
     1
 40
0.0
176
     1
 40
1.0
176
     1
 90
        0
176
     1
 62
    18
420
        0
176
     1
 90
       50
176
     1
 90
        3
176
     1
 62
     5
420
      255
176
     1
290
     0
176
     1
 90
       50
176
     1
 90
       50
176
     1
 90
       50
176
     1
290
     0
176
     1
 90
       50
176
     1
 62
   256
176
     0
 40
1.0
176
     0
 90
        2
176
     1
  1
strokes_ogs.tif
176
     1
290
     0
176
     1
 40
1.0
176
     1
 40
1.0
176
     1
  0
VISUALSTYLE
  5
3B7
102
{ACAD_REACTORS
330
3A4
102
}
330
3A4
100
AcDbVisualStyle
  2
EdgeColorOff
 70
    22
177
     3
291
     1
 70
    58
 90
        2
176
     0
 90
        2
176
     0
 90
        0
176
     0
 90
        0
176
     0
 40
0.6
176
     0
 40
30.0
176
     0
 62
     7
420
 16777215
176
     0
 90
        1
176
     0
 90
        4
176
     0
 62
     7
176
     0
 62
   257
176
     0
 90
        1
176
     0
 90
        1
176
     0
 40
1.0
176
     0
 90
        8
176
     2
 62
     7
176
     0
 40
1.0
176
     0
 90
        1
176
     0
 90
        6
176
     0
 90
        2
176
     0
 62
     7
176
     0
 90
        5
176
     0
 90
        0
176
     0
 90
        0
176
     0
290
     0
176
     0
 90
        1
176
     0
 40
0.0
176
     0
 90
        0
176
     0
290
     0
176
     0
290
     1
176
     0
290
     1
176
     0
290
     0
176
     0
290
     0
176
     0
290
     0
176
     0
290
     0
176
     0
290
     0
176
     0
290
     0
176
     0
 90
       50
176
     0
 40
0.0
176
     0
 40
1.0
176
     0
 90
        0
176
     0
 62
    18
420
        0
176
     0
 90
       50
176
     0
 90
        3
176
     0
 62
     5
420
      255
176
     0
290
     0
176
     0
 90
       50
176
     0
 90
       50
176
     0
 90
       50
176
     0
290
     0
176
     0
 90
       50
176
     0
 62
   256
176
     0
 40
1.0
176
     0
 90
        2
176
     0
  1
strokes_ogs.tif
176
     0
290
     0
176
     0
 40
1.0
176
     0
 40
1.0
176
     0
  0
VISUALSTYLE
  5
3B3
102
{ACAD_REACTORS
330
3A4
102
}
330
3A4
100
AcDbVisualStyle
  2
Facepattern
 70
    15
177
     3
291
     1
 70
    58
 90
        2
176
     1
 90
        2
176
     1
 90
        0
176
     1
 90
        0
176
     1
 40
0.6
176
     1
 40
30.0
176
     1
 62
     7
420
 16777215
176
     1
 90
        1
176
     1
 90
        4
176
     1
 62
     7
176
     1
 62
   257
176
     1
 90
        1
176
     1
 90
        1
176
     1
 40
1.0
176
     1
 90
        8
176
     1
 62
     7
176
     1
 40
1.0
176
     1
 90
        1
176
     1
 90
        6
176
     1
 90
        2
176
     1
 62
     7
176
     1
 90
        5
176
     1
 90
        0
176
     1
 90
        0
176
     1
290
     0
176
     1
 90
        1
176
     1
 40
0.0
176
     1
 90
        0
176
     1
290
     0
176
     1
290
     1
176
     1
290
     1
176
     1
290
     0
176
     1
290
     0
176
     1
290
     0
176
     1
290
     0
176
     1
290
     0
176
     1
290
     0
176
     1
 90
       50
176
     1
 40
0.0
176
     1
 40
1.0
176
     1
 90
        0
176
     1
 62
    18
420
        0
176
     1
 90
       50
176
     1
 90
        3
176
     1
 62
     5
420
      255
176
     1
290
     0
176
     1
 90
       50
176
     1
 90
       50
176
     1
 90
       50
176
     1
290
     0
176
     1
 90
       50
176
     1
 62
   256
176
     0
 40
1.0
176
     0
 90
        2
176
     1
  1
strokes_ogs.tif
176
     1
290
     0
176
     1
 40
1.0
176
     1
 40
1.0
176
     1
  0
VISUALSTYLE
  5
3A5
102
{ACAD_REACTORS
330
3A4
102
}
330
3A4
100
AcDbVisualStyle
  2
Flat
 70
     0
177
     3
291
     1
 70
    58
 90
        2
176
     1
 90
        1
176
     1
 90
        1
176
     1
 90
        2
176
     1
 40
0.6
176
     1
 40
30.0
176
     1
 62
     7
420
 16777215
176
     1
 90
        0
176
     1
 90
        0
176
     1
 62
     7
176
     1
 62
   257
176
     1
 90
        1
176
     1
 90
        1
176
     1
 40
1.0
176
     1
 90
        8
176
     1
 62
     7
176
     1
 40
1.0
176
     1
 90
        1
176
     1
 90
        6
176
     1
 90
        2
176
     1
 62
     7
176
     1
 90
        5
176
     1
 90
        0
176
     1
 90
        0
176
     1
290
     0
176
     1
 90
       13
176
     1
 40
0.0
176
     1
 90
        0
176
     1
290
     0
176
     1
290
     1
176
     1
290
     1
176
     1
290
     0
176
     1
290
     0
176
     1
290
     0
176
     1
290
     0
176
     1
290
     0
176
     1
290
     0
176
     1
 90
       50
176
     1
 40
0.0
176
     1
 40
1.0
176
     1
 90
        0
176
     1
 62
    18
420
        0
176
     1
 90
       50
176
     1
 90
        3
176
     1
 62
     5
420
      255
176
     1
290
     0
176
     1
 90
       50
176
     1
 90
       50
176
     1
 90
       50
176
     1
290
     0
176
     1
 90
       50
176
     1
 62
   256
176
     0
 40
1.0
176
     0
 90
        2
176
     1
  1
strokes_ogs.tif
176
     1
290
     0
176
     1
 40
1.0
176
     1
 40
1.0
176
     1
  0
VISUALSTYLE
  5
3A6
102
{ACAD_REACTORS
330
3A4
102
}
330
3A4
100
AcDbVisualStyle
  2
FlatWithEdges
 70
     1
177
     3
291
     1
 70
    58
 90
        2
176
     1
 90
        1
176
     1
 90
        1
176
     1
 90
        2
176
     1
 40
0.6
176
     1
 40
30.0
176
     1
 62
     7
420
 16777215
176
     1
 90
        1
176
     1
 90
        0
176
     1
 62
     7
176
     1
 62
   257
176
     1
 90
        1
176
     1
 90
        1
176
     1
 40
1.0
176
     1
 90
        0
176
     1
 62
   257
176
     1
 40
1.0
176
     1
 90
        1
176
     1
 90
        6
176
     1
 90
        2
176
     1
 62
     7
176
     1
 90
        5
176
     1
 90
        0
176
     1
 90
        0
176
     1
290
     0
176
     1
 90
       13
176
     1
 40
0.0
176
     1
 90
        0
176
     1
290
     0
176
     1
290
     1
176
     1
290
     1
176
     1
290
     0
176
     1
290
     0
176
     1
290
     0
176
     1
290
     0
176
     1
290
     0
176
     1
290
     0
176
     1
 90
       50
176
     1
 40
0.0
176
     1
 40
1.0
176
     1
 90
        0
176
     1
 62
    18
420
        0
176
     1
 90
       50
176
     1
 90
        3
176
     1
 62
     5
420
      255
176
     1
290
     0
176
     1
 90
       50
176
     1
 90
       50
176
     1
 90
       50
176
     1
290
     0
176
     1
 90
       50
176
     1
 62
   256
176
     0
 40
1.0
176
     0
 90
        2
176
     1
  1
strokes_ogs.tif
176
     1
290
     0
176
     1
 40
1.0
176
     1
 40
1.0
176
     1
  0
VISUALSTYLE
  5
3A7
102
{ACAD_REACTORS
330
3A4
102
}
330
3A4
100
AcDbVisualStyle
  2
Gouraud
 70
     2
177
     3
291
     1
 70
    58
 90
        2
176
     1
 90
        2
176
     1
 90
        1
176
     1
 90
        2
176
     1
 40
0.6
176
     1
 40
30.0
176
     1
 62
     7
420
 16777215
176
     1
 90
        0
176
     1
 90
        0
176
     1
 62
     7
176
     1
 62
   257
176
     1
 90
        1
176
     1
 90
        1
176
     1
 40
1.0
176
     1
 90
        0
176
     1
 62
     7
176
     1
 40
1.0
176
     1
 90
        1
176
     1
 90
        6
176
     1
 90
        2
176
     1
 62
     7
176
     1
 90
        5
176
     1
 90
        0
176
     1
 90
        0
176
     1
290
     0
176
     1
 90
       13
176
     1
 40
0.0
176
     1
 90
        0
176
     1
290
     0
176
     1
290
     1
176
     1
290
     1
176
     1
290
     0
176
     1
290
     0
176
     1
290
     0
176
     1
290
     0
176
     1
290
     0
176
     1
290
     0
176
     1
 90
       50
176
     1
 40
0.0
176
     1
 40
1.0
176
     1
 90
        0
176
     1
 62
    18
420
        0
176
     1
 90
       50
176
     1
 90
        3
176
     1
 62
     5
420
      255
176
     1
290
     0
176
     1
 90
       50
176
     1
 90
       50
176
     1
 90
       50
176
     1
290
     0
176
     1
 90
       50
176
     1
 62
   256
176
     0
 40
1.0
176
     0
 90
        2
176
     1
  1
strokes_ogs.tif
176
     1
290
     0
176
     1
 40
1.0
176
     1
 40
1.0
176
     1
  0
VISUALSTYLE
  5
3A8
102
{ACAD_REACTORS
330
3A4
102
}
330
3A4
100
AcDbVisualStyle
  2
GouraudWithEdges
 70
     3
177
     3
291
     1
 70
    58
 90
        2
176
     1
 90
        2
176
     1
 90
        1
176
     1
 90
        2
176
     1
 40
0.6
176
     1
 40
30.0
176
     1
 62
     7
420
 16777215
176
     1
 90
        1
176
     1
 90
        0
176
     1
 62
     7
176
     1
 62
   257
176
     1
 90
        1
176
     1
 90
        1
176
     1
 40
1.0
176
     1
 90
        0
176
     1
 62
   257
176
     1
 40
1.0
176
     1
 90
        1
176
     1
 90
        6
176
     1
 90
        2
176
     1
 62
     7
176
     1
 90
        5
176
     1
 90
        0
176
     1
 90
        0
176
     1
290
     0
176
     1
 90
       13
176
     1
 40
0.0
176
     1
 90
        0
176
     1
290
     0
176
     1
290
     1
176
     1
290
     1
176
     1
290
     0
176
     1
290
     0
176
     1
290
     0
176
     1
290
     0
176
     1
290
     0
176
     1
290
     0
176
     1
 90
       50
176
     1
 40
0.0
176
     1
 40
1.0
176
     1
 90
        0
176
     1
 62
    18
420
        0
176
     1
 90
       50
176
     1
 90
        3
176
     1
 62
     5
420
      255
176
     1
290
     0
176
     1
 90
       50
176
     1
 90
       50
176
     1
 90
       50
176
     1
290
     0
176
     1
 90
       50
176
     1
 62
   256
176
     0
 40
1.0
176
     0
 90
        2
176
     1
  1
strokes_ogs.tif
176
     1
290
     0
176
     1
 40
1.0
176
     1
 40
1.0
176
     1
  0
VISUALSTYLE
  5
3AB
102
{ACAD_REACTORS
330
3A4
102
}
330
3A4
100
AcDbVisualStyle
  2
Hidden
 70
     6
177
     3
291
     0
 70
    58
 90
        1
176
     1
 90
        2
176
     1
 90
        2
176
     1
 90
        0
176
     1
 40
0.6
176
     1
 40
30.0
176
     1
 62
     7
420
 16777215
176
     1
 90
        2
176
     1
 90
        2
176
     1
 62
     7
176
     1
 62
   257
176
     1
 90
        2
176
     1
 90
        1
176
     1
 40
40.0
176
     1
 90
        0
176
     1
 62
   257
176
     1
 40
1.0
176
     1
 90
        1
176
     1
 90
        6
176
     1
 90
        2
176
     1
 62
     7
176
     1
 90
        3
176
     1
 90
        0
176
     1
 90
        0
176
     1
290
     0
176
     1
 90
        1
176
     1
 40
0.0
176
     1
 90
        0
176
     1
290
     0
176
     1
290
     1
176
     1
290
     1
176
     1
290
     0
176
     1
290
     0
176
     1
290
     0
176
     1
290
     0
176
     1
290
     0
176
     1
290
     0
176
     1
 90
       50
176
     1
 40
0.0
176
     1
 40
1.0
176
     1
 90
        0
176
     1
 62
    18
420
        0
176
     1
 90
       50
176
     1
 90
        3
176
     1
 62
     5
420
      255
176
     1
290
     0
176
     1
 90
       50
176
     1
 90
       50
176
     1
 90
       50
176
     1
290
     0
176
     1
 90
       50
176
     1
 62
   256
176
     0
 40
1.0
176
     0
 90
        2
176
     1
  1
strokes_ogs.tif
176
     1
290
     0
176
     1
 40
1.0
176
     1
 40
1.0
176
     1
  0
VISUALSTYLE
  5
3B5
102
{ACAD_REACTORS
330
3A4
102
}
330
3A4
100
AcDbVisualStyle
  2
JitterOff
 70
    20
177
     3
291
     1
 70
    58
 90
        2
176
     0
 90
        2
176
     0
 90
        0
176
     0
 90
        0
176
     0
 40
0.6
176
     0
 40
30.0
176
     0
 62
     7
420
 16777215
176
     0
 90
        1
176
     0
 90
        4
176
     0
 62
     7
176
     0
 62
   257
176
     0
 90
        1
176
     0
 90
        1
176
     0
 40
1.0
176
     0
 90
       10
176
     2
 62
     7
176
     0
 40
1.0
176
     0
 90
        1
176
     0
 90
        6
176
     0
 90
        2
176
     0
 62
     7
176
     0
 90
        5
176
     0
 90
        0
176
     0
 90
        0
176
     0
290
     0
176
     0
 90
        1
176
     0
 40
0.0
176
     0
 90
        0
176
     0
290
     0
176
     0
290
     1
176
     0
290
     1
176
     0
290
     0
176
     0
290
     0
176
     0
290
     0
176
     0
290
     0
176
     0
290
     0
176
     0
290
     0
176
     0
 90
       50
176
     0
 40
0.0
176
     0
 40
1.0
176
     0
 90
        0
176
     0
 62
    18
420
        0
176
     0
 90
       50
176
     0
 90
        3
176
     0
 62
     5
420
      255
176
     0
290
     0
176
     0
 90
       50
176
     0
 90
       50
176
     0
 90
       50
176
     0
290
     0
176
     0
 90
       50
176
     0
 62
   256
176
     0
 40
1.0
176
     0
 90
        2
176
     0
  1
strokes_ogs.tif
176
     0
290
     0
176
     0
 40
1.0
176
     0
 40
1.0
176
     0
  0
VISUALSTYLE
  5
3B2
102
{ACAD_REACTORS
330
3A4
102
}
330
3A4
100
AcDbVisualStyle
  2
Linepattern
 70
    14
177
     3
291
     1
 70
    58
 90
        2
176
     1
 90
        2
176
     1
 90
        0
176
     1
 90
        0
176
     1
 40
0.6
176
     1
 40
30.0
176
     1
 62
     7
420
 16777215
176
     1
 90
        1
176
     1
 90
        4
176
     1
 62
     7
176
     1
 62
   257
176
     1
 90
        7
176
     1
 90
        7
176
     1
 40
1.0
176
     1
 90
        8
176
     1
 62
     7
176
     1
 40
1.0
176
     1
 90
        1
176
     1
 90
        6
176
     1
 90
        2
176
     1
 62
     7
176
     1
 90
        5
176
     1
 90
        0
176
     1
 90
        0
176
     1
290
     0
176
     1
 90
        1
176
     1
 40
0.0
176
     1
 90
        0
176
     1
290
     0
176
     1
290
     1
176
     1
290
     1
176
     1
290
     0
176
     1
290
     0
176
     1
290
     0
176
     1
290
     0
176
     1
290
     0
176
     1
290
     0
176
     1
 90
       50
176
     1
 40
0.0
176
     1
 40
1.0
176
     1
 90
        0
176
     1
 62
    18
420
        0
176
     1
 90
       50
176
     1
 90
        3
176
     1
 62
     5
420
      255
176
     1
290
     0
176
     1
 90
       50
176
     1
 90
       50
176
     1
 90
       50
176
     1
290
     0
176
     1
 90
       50
176
     1
 62
   256
176
     0
 40
1.0
176
     0
 90
        2
176
     1
  1
strokes_ogs.tif
176
     1
290
     0
176
     1
 40
1.0
176
     1
 40
1.0
176
     1
  0
VISUALSTYLE
  5
3B6
102
{ACAD_REACTORS
330
3A4
102
}
330
3A4
100
AcDbVisualStyle
  2
OverhangOff
 70
    21
177
     3
291
     1
 70
    58
 90
        2
176
     0
 90
        2
176
     0
 90
        0
176
     0
 90
        0
176
     0
 40
0.6
176
     0
 40
30.0
176
     0
 62
     7
420
 16777215
176
     0
 90
        1
176
     0
 90
        4
176
     0
 62
     7
176
     0
 62
   257
176
     0
 90
        1
176
     0
 90
        1
176
     0
 40
1.0
176
     0
 90
        9
176
     2
 62
     7
176
     0
 40
1.0
176
     0
 90
        1
176
     0
 90
        6
176
     0
 90
        2
176
     0
 62
     7
176
     0
 90
        5
176
     0
 90
        0
176
     0
 90
        0
176
     0
290
     0
176
     0
 90
        1
176
     0
 40
0.0
176
     0
 90
        0
176
     0
290
     0
176
     0
290
     1
176
     0
290
     1
176
     0
290
     0
176
     0
290
     0
176
     0
290
     0
176
     0
290
     0
176
     0
290
     0
176
     0
290
     0
176
     0
 90
       50
176
     0
 40
0.0
176
     0
 40
1.0
176
     0
 90
        0
176
     0
 62
    18
420
        0
176
     0
 90
       50
176
     0
 90
        3
176
     0
 62
     5
420
      255
176
     0
290
     0
176
     0
 90
       50
176
     0
 90
       50
176
     0
 90
       50
176
     0
290
     0
176
     0
 90
       50
176
     0
 62
   256
176
     0
 40
1.0
176
     0
 90
        2
176
     0
  1
strokes_ogs.tif
176
     0
290
     0
176
     0
 40
1.0
176
     0
 40
1.0
176
     0
  0
VISUALSTYLE
  5
3AD
102
{ACAD_REACTORS
330
3A4
102
}
330
3A4
100
AcDbVisualStyle
  2
Realistic
 70
     8
177
     3
291
     0
 70
    58
 90
        2
176
     1
 90
        3
176
     1
 90
        0
176
     1
 90
        2
176
     1
 40
0.6
176
     1
 40
30.0
176
     1
 62
     7
420
 16777215
176
     1
 90
        0
176
     1
 90
        0
176
     1
 62
     7
176
     1
 62
   257
176
     1
 90
        1
176
     1
 90
        1
176
     1
 40
1.0
176
     1
 90
        8
176
     1
 62
   257
176
     1
 40
1.0
176
     1
 90
        1
176
     1
 90
        6
176
     1
 90
        2
176
     1
 62
     7
176
     1
 90
        3
176
     1
 90
        0
176
     1
 90
        0
176
     1
290
     0
176
     1
 90
       13
176
     1
 40
0.0
176
     1
 90
        0
176
     1
290
     0
176
     1
290
     1
176
     1
290
     1
176
     1
290
     0
176
     1
290
     0
176
     1
290
     0
176
     1
290
     0
176
     1
290
     0
176
     1
290
     0
176
     1
 90
       50
176
     1
 40
0.0
176
     1
 40
1.0
176
     1
 90
        0
176
     1
 62
    18
420
        0
176
     1
 90
       50
176
     1
 90
        3
176
     1
 62
     5
420
      255
176
     1
290
     0
176
     1
 90
       50
176
     1
 90
       50
176
     1
 90
       50
176
     1
290
     0
176
     1
 90
       50
176
     1
 62
   256
176
     0
 40
1.0
176
     0
 90
        2
176
     1
  1
strokes_ogs.tif
176
     1
290
     0
176
     1
 40
1.0
176
     1
 40
1.0
176
     1
  0
VISUALSTYLE
  5
3BC
102
{ACAD_REACTORS
330
3A4
102
}
330
3A4
100
AcDbVisualStyle
  2
Shaded
 70
    27
177
     3
291
     0
 70
    58
 90
        2
176
     1
 90
        2
176
     1
 90
        1
176
     1
 90
        2
176
     1
 40
0.6
176
     1
 40
30.0
176
     1
 62
     7
420
 16777215
176
     1
 90
        0
176
     1
 90
        4
176
     1
 62
     7
176
     1
 62
   257
176
     1
 90
        1
176
     1
 90
        1
176
     1
 40
1.0
176
     1
 90
        8
176
     1
 62
   257
176
     1
 40
1.0
176
     1
 90
        1
176
     1
 90
        6
176
     1
 90
        2
176
     1
 62
     8
420
  7895160
176
     1
 90
        3
176
     1
 90
        0
176
     1
 90
        0
176
     1
290
     0
176
     1
 90
        5
176
     1
 40
0.0
176
     1
 90
        0
176
     1
290
     0
176
     1
290
     1
176
     1
290
     1
176
     1
290
     0
176
     1
290
     0
176
     1
290
     0
176
     1
290
     0
176
     1
290
     0
176
     1
290
     0
176
     1
 90
       50
176
     1
 40
0.0
176
     1
 40
1.0
176
     1
 90
        0
176
     1
 62
    18
420
        0
176
     1
 90
       50
176
     1
 90
        3
176
     1
 62
     5
420
      255
176
     1
290
     0
176
     1
 90
       50
176
     1
 90
       50
176
     1
 90
       50
176
     1
290
     0
176
     1
 90
       50
176
     1
 62
   256
176
     0
 40
1.0
176
     0
 90
        2
176
     1
  1
strokes_ogs.tif
176
     1
290
     0
176
     1
 40
1.0
176
     1
 40
1.0
176
     1
  0
VISUALSTYLE
  5
3BB
102
{ACAD_REACTORS
330
3A4
102
}
330
3A4
100
AcDbVisualStyle
  2
Shaded with edges
 70
    26
177
     3
291
     0
 70
    58
 90
        2
176
     1
 90
        2
176
     1
 90
        1
176
     1
 90
        2
176
     1
 40
0.6
176
     1
 40
30.0
176
     1
 62
     7
420
 16777215
176
     1
 90
        1
176
     1
 90
       10
176
     1
 62
     7
176
     1
 62
   257
176
     1
 90
        2
176
     1
 90
        1
176
     1
 40
1.0
176
     1
 90
        8
176
     1
 62
   257
176
     1
 40
1.0
176
     1
 90
        1
176
     1
 90
        6
176
     1
 90
        2
176
     1
 62
     7
176
     1
 90
        3
176
     1
 90
        0
176
     1
 90
        0
176
     1
290
     0
176
     1
 90
        5
176
     1
 40
0.0
176
     1
 90
        0
176
     1
290
     0
176
     1
290
     1
176
     1
290
     1
176
     1
290
     0
176
     1
290
     0
176
     1
290
     0
176
     1
290
     0
176
     1
290
     0
176
     1
290
     0
176
     1
 90
       50
176
     1
 40
0.0
176
     1
 40
1.0
176
     1
 90
        0
176
     1
 62
    18
420
        0
176
     1
 90
       50
176
     1
 90
        3
176
     1
 62
     5
420
      255
176
     1
290
     0
176
     1
 90
       50
176
     1
 90
       50
176
     1
 90
       50
176
     1
290
     0
176
     1
 90
       50
176
     1
 62
   256
176
     0
 40
1.0
176
     0
 90
        2
176
     1
  1
strokes_ogs.tif
176
     1
290
     0
176
     1
 40
1.0
176
     1
 40
1.0
176
     1
  0
VISUALSTYLE
  5
3B8
102
{ACAD_REACTORS
330
3A4
102
}
330
3A4
100
AcDbVisualStyle
  2
Shades of Gray
 70
    23
177
     3
291
     0
 70
    58
 90
        2
176
     1
 90
        2
176
     1
 90
        3
176
     1
 90
        0
176
     1
 40
0.6
176
     1
 40
30.0
176
     1
 62
     7
420
 16777215
176
     1
 90
        2
176
     1
 90
        2
176
     1
 62
     7
176
     1
 62
     7
176
     1
 90
        1
176
     1
 90
        1
176
     1
 40
40.0
176
     1
 90
        8
176
     1
 62
     7
176
     1
 40
1.0
176
     1
 90
        1
176
     1
 90
        6
176
     1
 90
        2
176
     1
 62
     7
176
     1
 90
        3
176
     1
 90
        0
176
     1
 90
        0
176
     1
290
     0
176
     1
 90
        1
176
     1
 40
0.0
176
     1
 90
        0
176
     1
290
     0
176
     1
290
     1
176
     1
290
     1
176
     1
290
     0
176
     1
290
     0
176
     1
290
     0
176
     1
290
     0
176
     1
290
     0
176
     1
290
     0
176
     1
 90
       50
176
     1
 40
0.0
176
     1
 40
1.0
176
     1
 90
        0
176
     1
 62
    18
420
        0
176
     1
 90
       50
176
     1
 90
        3
176
     1
 62
     5
420
      255
176
     1
290
     0
176
     1
 90
       50
176
     1
 90
       50
176
     1
 90
       50
176
     1
290
     0
176
     1
 90
       50
176
     1
 62
   256
176
     0
 40
1.0
176
     0
 90
        2
176
     1
  1
strokes_ogs.tif
176
     1
290
     0
176
     1
 40
1.0
176
     1
 40
1.0
176
     1
  0
VISUALSTYLE
  5
3B9
102
{ACAD_REACTORS
330
3A4
102
}
330
3A4
100
AcDbVisualStyle
  2
Sketchy
 70
    24
177
     3
291
     0
 70
    58
 90
        1
176
     1
 90
        2
176
     1
 90
        2
176
     1
 90
        0
176
     1
 40
0.6
176
     1
 40
30.0
176
     1
 62
     7
420
 16777215
176
     1
 90
        2
176
     1
 90
        2
176
     1
 62
     7
176
     1
 62
     7
176
     1
 90
        1
176
     1
 90
        1
176
     1
 40
40.0
176
     1
 90
       11
176
     1
 62
     7
176
     1
 40
1.0
176
     1
 90
        1
176
     1
 90
        6
176
     1
 90
        2
176
     1
 62
     7
176
     1
 90
        6
176
     1
 90
        0
176
     1
 90
        0
176
     1
290
     0
176
     1
 90
        1
176
     1
 40
0.0
176
     1
 90
        0
176
     1
290
     0
176
     1
290
     1
176
     1
290
     1
176
     1
290
     0
176
     1
290
     0
176
     1
290
     0
176
     1
290
     0
176
     1
290
     0
176
     1
290
     0
176
     1
 90
       50
176
     1
 40
0.0
176
     1
 40
1.0
176
     1
 90
        0
176
     1
 62
    18
420
        0
176
     1
 90
       50
176
     1
 90
        3
176
     1
 62
     5
420
      255
176
     1
290
     0
176
     1
 90
       50
176
     1
 90
       50
176
     1
 90
       50
176
     1
290
     0
176
     1
 90
       50
176
     1
 62
   256
176
     0
 40
1.0
176
     0
 90
        2
176
     1
  1
strokes_ogs.tif
176
     1
290
     0
176
     1
 40
1.0
176
     1
 40
1.0
176
     1
  0
VISUALSTYLE
  5
3B1
102
{ACAD_REACTORS
330
3A4
102
}
330
3A4
100
AcDbVisualStyle
  2
Thicken
 70
    13
177
     3
291
     1
 70
    58
 90
        2
176
     1
 90
        2
176
     1
 90
        0
176
     1
 90
        0
176
     1
 40
0.6
176
     1
 40
30.0
176
     1
 62
     7
420
 16777215
176
     1
 90
        1
176
     1
 90
        4
176
     1
 62
     7
176
     1
 62
   257
176
     1
 90
        1
176
     1
 90
        1
176
     1
 40
1.0
176
     1
 90
       12
176
     1
 62
     7
176
     1
 40
1.0
176
     1
 90
        1
176
     1
 90
        6
176
     1
 90
        2
176
     1
 62
     7
176
     1
 90
        5
176
     1
 90
        0
176
     1
 90
        0
176
     1
290
     0
176
     1
 90
        1
176
     1
 40
0.0
176
     1
 90
        0
176
     1
290
     0
176
     1
290
     1
176
     1
290
     1
176
     1
290
     0
176
     1
290
     0
176
     1
290
     0
176
     1
290
     0
176
     1
290
     0
176
     1
290
     0
176
     1
 90
       50
176
     1
 40
0.0
176
     1
 40
1.0
176
     1
 90
        0
176
     1
 62
    18
420
        0
176
     1
 90
       50
176
     1
 90
        3
176
     1
 62
     5
420
      255
176
     1
290
     0
176
     1
 90
       50
176
     1
 90
       50
176
     1
 90
       50
176
     1
290
     0
176
     1
 90
       50
176
     1
 62
   256
176
     0
 40
1.0
176
     0
 90
        2
176
     1
  1
strokes_ogs.tif
176
     1
290
     0
176
     1
 40
1.0
176
     1
 40
1.0
176
     1
  0
VISUALSTYLE
  5
3AA
102
{ACAD_REACTORS
330
3A4
102
}
330
3A4
100
AcDbVisualStyle
  2
Wireframe
 70
     5
177
     3
291
     0
 70
    58
 90
        0
176
     1
 90
        2
176
     1
 90
        0
176
     1
 90
        0
176
     1
 40
0.6
176
     1
 40
30.0
176
     1
 62
     7
420
 16777215
176
     1
 90
        1
176
     1
 90
        4
176
     1
 62
     7
176
     1
 62
   257
176
     1
 90
        1
176
     1
 90
        1
176
     1
 40
1.0
176
     1
 90
        0
176
     1
 62
   257
176
     1
 40
1.0
176
     1
 90
        1
176
     1
 90
        6
176
     1
 90
        2
176
     1
 62
     7
176
     1
 90
        3
176
     1
 90
        0
176
     1
 90
        0
176
     1
290
     0
176
     1
 90
        1
176
     1
 40
0.0
176
     1
 90
        0
176
     1
290
     0
176
     1
290
     1
176
     1
290
     1
176
     1
290
     0
176
     1
290
     0
176
     1
290
     0
176
     1
290
     0
176
     1
290
     0
176
     1
290
     0
176
     1
 90
       50
176
     1
 40
0.0
176
     1
 40
1.0
176
     1
 90
        0
176
     1
 62
    18
420
        0
176
     1
 90
       50
176
     1
 90
        3
176
     1
 62
     5
420
      255
176
     1
290
     0
176
     1
 90
       50
176
     1
 90
       50
176
     1
 90
       50
176
     1
290
     0
176
     1
 90
       50
176
     1
 62
   256
176
     0
 40
1.0
176
     0
 90
        2
176
     1
  1
strokes_ogs.tif
176
     1
290
     0
176
     1
 40
1.0
176
     1
 40
1.0
176
     1
  0
VISUALSTYLE
  5
3BA
102
{ACAD_REACTORS
330
3A4
102
}
330
3A4
100
AcDbVisualStyle
  2
X-Ray
 70
    25
177
     3
291
     0
 70
    58
 90
        2
176
     1
 90
        2
176
     1
 90
        1
176
     1
 90
        1
176
     1
 40
0.5
176
     1
 40
30.0
176
     1
 62
     7
420
 16777215
176
     1
 90
        1
176
     1
 90
        0
176
     1
 62
     7
176
     1
 62
   257
176
     1
 90
        1
176
     1
 90
        1
176
     1
 40
1.0
176
     1
 90
        8
176
     1
 62
     7
176
     1
 40
1.0
176
     1
 90
        1
176
     1
 90
        6
176
     1
 90
        2
176
     1
 62
     7
176
     1
 90
        3
176
     1
 90
        0
176
     1
 90
        0
176
     1
290
     0
176
     1
 90
       13
176
     1
 40
0.0
176
     1
 90
        0
176
     1
290
     0
176
     1
290
     1
176
     1
290
     1
176
     1
290
     0
176
     1
290
     0
176
     1
290
     0
176
     1
290
     0
176
     1
290
     0
176
     1
290
     0
176
     1
 90
       50
176
     1
 40
0.0
176
     1
 40
1.0
176
     1
 90
        0
176
     1
 62
    18
420
        0
176
     1
 90
       50
176
     1
 90
        3
176
     1
 62
     5
420
      255
176
     1
290
     0
176
     1
 90
       50
176
     1
 90
       50
176
     1
 90
       50
176
     1
290
     0
176
     1
 90
       50
176
     1
 62
   256
176
     0
 40
1.0
176
     0
 90
        2
176
     1
  1
strokes_ogs.tif
176
     1
290
     0
176
     1
 40
1.0
176
     1
 40
1.0
176
     1
  0
DICTIONARYVAR
  5
3D3
102
{ACAD_REACTORS
330
3D2
102
}
330
3D2
100
DictionaryVariables
280
     0
  1
1:1
  0
DICTIONARYVAR
  5
3D7
102
{ACAD_REACTORS
330
3D2
102
}
330
3D2
100
DictionaryVariables
280
     0
  1
Standard
  0
CSACDOCUMENTOPTIONS
  5
3C8
102
{ACAD_REACTORS
330
3C7
102
}
330
3C7
  0
XRECORD
  5
3CC
102
{ACAD_REACTORS
330
3C3
102
}
330
3C3
100
AcDbXrecord
280
     1
300
MC_VERSION_DATA
 90
       95
310
0600000002000000570000001C000000E404000000000000000000007801936764E5D8CF7A8393818115C460606066E0646662626666706006F214793899F8DE3171E725E6E53B3BBA2878E6951050AF75FEFFFFFF520032DE0F3057000000
  0
XRECORD
  5
3C4
102
{ACAD_REACTORS
330
3C3
102
}
330
3C3
100
AcDbXrecord
280
     1
300
MCS_DOCUMENT_ID
 90
       60
310
0600000002000000150000001C000000E404000000000000000000007801E3BD5FE39396B363A1F3E24F39F57F9DEEDDFB0F04007D900D9A15000000
  0
XRECORD
  5
3CA
102
{ACAD_REACTORS
330
3C3
102
}
330
3C3
100
AcDbXrecord
280
     1
300
MCS_PARAMS_DATA
 90
     3313
310
0600000002000000F64B00001C000000E404000000000000000000007801C55C5B6C5CC519DE9D595FD6B9DF494B53970A1A6F4A58DF92A6426A1A1210527090E23EF0543976A2BA75E25CAC160A6DA92AF5A55255A96AD556551F4A49A0CF15A03EC0438190865E482021147221409310B6900B3826B1FB7F7366CEFC73E6
310
1CAFBDDE3D9B07D8FF3F73CEF7DFE6FB67E6ECBA757EA3143929F767A4FCCE8636299AA49C90529036BB402C105929F279912F89C6DEAF6FD8BC69AB14A46C51EAC2B9898909BA39945F872C1FCD848A834A91A13B1AD51D6D5266E8A9FAF627E9AABE92BD45CA6F03BD81A3CFC24D59D990C96408C7E066656E0232E13A03
310
14B0AB01724443F05CC3F08780DFC8F19B03FC710A073DC8486413411B49060E3311A05C24C45064703B01D7CCE196A818E5C59C9268B967CBD6DED68ED59DC52EEB78BEF08E09F8223D745649346F1DE9DB35D0B777C089FC5FC3C8EB60BF1A286CF47FE3467F17CC59C5CD990B0CD948C1A77FB9F5CA0E4F479188EA541E
310
3C25A2E22BC99C8892456878B2821857F6B05492C2AD881B41409C21325211340605C9C6DC6006EC49AC088A0CCBB25B1159B72248E415019155047D5453031360047082A7405D92B72AB0F03379693EAB50870260AC609E2C6F6510BB3D081DFE4EF5EFECD71494A7B3590EC7F12C5B25CB32539229914732934ECE22AF1D
310
D259AC8B7B7649E437DE7BDFA69EADF76EE95186E95A7ED74C032DBFA66A9BF1CEF341B19B78E45DDED9EF56FE29189043E4814BF734E1FF34659991678231F23A51010DA578E8294D435524988818E84710A7B2643B4F7C134F5CC6936D1E4176D01398C4D0A83AE0A6BDC86B0BB5C3E1E8299D70A5A945AC12322FE697C4
310
9C8DC3BBBE34D2BA77FBEEA1BEFEED79D15C120DF70F0FEE1A093EF60C8FF47F4BCAB3B0ED666EDB17F5733E2B445B5E2C298985C507BB8BEBBA3A3A3774178B1D777FA5B36B9D327BBE1ED84C030BC74C9EDAB5B64D88BC405AEF1E1CD9D73A34B88F70838775AD5DDBD1B9B6BBABBB73A0ABA37F5D7BE0E757F57D1DB80F
310
037BFBB60D6D6F1DDED1DA3B3CB47D6FDF2EF8A0AD5933506CEF2FF6F7ADD9D6B56D5DFF9A60D6A95222FF670B51F8295953F8455019945B7EE9315C7A8AFEC352DE9D4B4A5050256AA6D1B42D5F0C265BEED4473538E9811F770DEFDCDD3732B86D706870E4A1D69DC303E45F6349C807B6EFCB8B8692103DC352AE816545
310
9E9E798813B5E9A692C86DD9B1A355A5424F8E0BF018466AF90D150136590E2905AA568F782650907D5A7180140B84AD0159F8156902B8F63BDA8BE1A72E29AF48322EA98B5F578631B6F5489B26184C63434803DB221A328E6B58DEAED6DB808FEB6DC068BD0DF8A4DE065CABB7018B3045EB390B3EAD7704C6EA6DC07518
310
10B79C17773A0DB6C361F03BDD064B22C8C7303844629E5064B47323116EB9039777E096BB70247238880C6E39831B9F221C81B3E543C57019D4736C30574EE2DD4AD73B12B9771099772B997713E97A974DF4CECD5D9582B938116EC00926492C777A7F676A8F441E4C882C98032C983211AE26DE8974E196022EC7174366
310
F9AE62C95769E105B5C4B012E2E82ED8CD3516C5E34D519CF0D1F6765A8551C6CC0505130A3E8ABEC46EF81CED54DC1DA04AB7BC4DB0CA082453194AB29B82400C2B438BA6322032B88FE093B3E13470C11297490C8EEF78E88158D51A8AD42283A38F61044E78707A57F8BBDFE2DF2167F36975041D1DA7FCF59430C35792
310
05112533A905D5D3CAAB4759DBB4CA160F3E9309466F934A1794E7E1154C402D3088858048DCDF7EA3E7FECD5B7A7B376D5480CBF43A7E5E49CCBE6BEB37D945B2402FC65F52AB73B67E7F3A58AE93F37A04F6B7011D680556EBCCA2819BC8A21C320F385BBDB4EE56E6E32CE2CB18E358AD7676B4C7C096B1674BAF7B1278
310
1E906198B0DF8681EA696AF34D20563061CAB731C0DB01185B8B0DCA46538BD880EB0E2C6FC3120B40E62289BC162112587895C11513E18290E892090EBF46A9321968C513E0BB89A0AE8F2431B88A7DFC9E07A7BD0A8E668E3AF3CDEA083A3A8ECFB770A00AB53712018F2859D8DB3D93C2E4D422CB77A40BB73A5DB807A7
310
0857A5727AC8838BE45965D0D3D5B29CBEEF99145F4E558AC0C3E9C23D922EDC0FD285FBA107E7958EEDE721E98018A3E3AAC64E7F5C166D7ABA81B65C437BB31D766C74A6ED6E1FBC2766B7AFDAD87156F9771BF44A2A724C461AB43EE729AAFB710D63E2111810BBA3ABC9AE6037E09AB9BF3AB40BE8309F8736AB64CAB2
310
BE7E3364E5AC569CA6976081AF5A311628A8EF68C5B3A4609E3E86AC3AA156E3E83562F4B5A292099A878C61EB3B549CF92354989982613F016CE7AD5A4D09AA1F5126387AAD451EE384D9C035A925859E39C1AA865EE9A9B8DA21CEE289167F7CF1D4C4BC7A125EC5AED5D8BB0B5A9D9144D134CFA71BF85A8D44BE568348
310
F6AA55A2F3CAEACF6982FD29118CC249D3CBF852A586F278BA70FBD3853B90085793EDE51E143F0AD06C6B4CB2242BDDBDD1419166C2865E85F9CE1648F3CBF54B2E655D5432557AB8C599EEE6E763403914E55050D879E2BFFA30F366F009F0CB378371CA9B99D05949929DD07465EA8797A3808B6B06B9536E64AF9C844C
310
903AF2F3709D3783A318A078E4F37AEBBCEC2DD1B228B722F785DC2DB9D64C476675A63353CC74E937B1FA39BFA7DB58A6AFC19E49583A4A9B6110A6BA038D3C80418F79D091B18A763C1D8524AA5361F194EC4CC4B23EDBA3192533E95398E41423EB6DCA1C239B4DBF91D13F6D762A6897D7013D496371DC8BECCAA7D45E
310
0C251095ABC98AA38E1B6540CD3DACF829EF15C38D27C2B92DA64A071D13897001094F16523EC1C9E5A99FF465029665AB5B13C49AF8984D174EA40B273D389D33BB29A272F6749622C2719C22AC925104534E7A8CF33714555C6B3CF3BE4BE0AF28994CA9B8353E0F28878DD26D8D2F007FBAAD11BD305CEB4EAB35BE08B8
310
B8D678FEB81BD9134AB6ADF10A644BBEF9C2334A81E4EAA6772450D87DD2AF49C178F020A0EBD3055FF292CC5B8AB3FC4114C86BA708ACDB15F49C43C04EBBE7FCBD0CA8A1CB2AF59CC3897035E1E39713E16AD873FE91085A131FFF19C04DBEDBF8D75406FD3B3A2842E56C8ABE82A171BC3BF89ECB0E0F287926BC7B0450
310
75E4DDA3C09F2EEF56BE2579157071BCBBE7881BD93E255BDE7D04B225A07C61BD5230DE1DBA8C1158736B225E412358525F03747D78F79897E472BCCBAF5BAF2BA0DDE3804E9B765F2F035A65DA3D910857134A7A2311AE52DA8D6E0E9C1341735A873DD47F12A16BE2E99BE9C275792B70532835F1AEDB838B7404B509F7
310
74C449519D9AA19EB28205FF5B08785CE3F9307262735AC933693C270155C7C6730AF8E9359ED3808B6B3CA387DDC6734EC9B6F1C897238DE72006D89713F9C2E58B91C6F3388D608DE70CA0A7DA7866D30F8008DC16BEAA2D26A2AAB848F4108A0CF46D0F54D7A73989E2C56D75B6B8431D2F6EAB64C5CD94644C04869974
310
1626C5B6A280378D1BEE62BCE2C3917700E714386FAA719B1D7E7D464DF7DD444F8317374E8CAA75BEF65E19D0F8F0523EC21D7470DCC60B8CAEF29753FC38EF4760CFDBF99B4673F680D0869F6742513F06849341B61DF57EE3400A02734628D75C0DBC8B68A868B98655ECA330208EA3C6F1B52E3DF1E8849E2433679564
310
431A886148B568E62C4406F75F64308EFD2F9D7039EA6D259B5B2BF91AD8396F72B01004EFC5CD6C88F911E8CCDF849C077E5C64E9488747967101058B73015D99FA9B900B808B63FFB117DCC85E50324556799F2F34BC086EC70CD18A4318C0D9FF2AB6807CDB718046B0A4BE0FE8B4D9FFA207EA504E3D7E65FA014C7226
310
B329B0E8D703AAFEBAA304E869379E693123CD68457958A4FF2F11AE86ECFF6119D078F6E7138AD87FF2370F86D6E1E34789702D76FED2134932CCA824CB8C811832A3160D33426421BD940847AF6F0C11D33DEECB1CFE9B7175D1F926045DE5BD8DBFBDBE9C081764D0049324E6DDB40A8607F34A225C4D16463974B5B836
310
F3B3A32E193EACE499B49986C93A780A6DA631A981D7A6CD34012EAECDFCF23937B23F51B26D337F80CCDBCC36A5C0ECD07DE7E7A7236D663D8D6033A419D0536D33E07F56B8C4CA7C0D48229F9610695A461A0883CE7B494E8DD95B004DF38E8247AB09FE45AC1A52EDAC32A0861DD8DA85D8A76276989D08579353913989
310
700119397510D9BB4CAB9DF096393711B4263ECE4B176E7EBA700B3C389DB3F0B5335AA6A7234288EA142D784A9083AFB414616018456CF64C3293C4CD2F49D3E5A5F0410CEE3E0F2E6A6FEA11580893E29AEE529C2FC11C4DF48D4AA628982DB44A422820F8563073C8F989CF2240392BED74F7768B819FDEDE6E09E0E29A
310
EE0AFA030B3CB273954C91D5916E83CC9BEE074FAB1E6B73B11CFB6CBEB73B4C23589D2D05F4CC9AAE2E4C768646F0614DBB4BD40606BDCC4B726A4DF72640A7DD749797013521AB4ED3C5971C1BF2225712D922FD192CAA82F186C253F467B664EED8B163100EA1787299890C1D4314EEF90B040C236113FD72905624B8F0
310
99FF03A92412CEF64B0000
  0
TABLECONTENT
  5
3CE
330
3D1
100
AcDbLinkedData
  1

300

100
AcDbLinkedTableData
 90
        5
300
COLUMN
  1
LINKEDTABLEDATACOLUMN_BEGIN
300

 91
        0
301
CUSTOMDATA
  1
DATAMAP_BEGIN
 90
        0
309
DATAMAP_END
309
LINKEDTABLEDATACOLUMN_END
  1
FORMATTEDTABLEDATACOLUMN_BEGIN
300
COLUMNTABLEFORMAT
  1
TABLEFORMAT_BEGIN
 90
        3
170
     0
309
TABLEFORMAT_END
309
FORMATTEDTABLEDATACOLUMN_END
  1
TABLECOLUMN_BEGIN
 90
        0
 40
10.0
309
TABLECOLUMN_END
300
COLUMN
  1
LINKEDTABLEDATACOLUMN_BEGIN
300

 91
        0
301
CUSTOMDATA
  1
DATAMAP_BEGIN
 90
        0
309
DATAMAP_END
309
LINKEDTABLEDATACOLUMN_END
  1
FORMATTEDTABLEDATACOLUMN_BEGIN
300
COLUMNTABLEFORMAT
  1
TABLEFORMAT_BEGIN
 90
        3
170
     0
309
TABLEFORMAT_END
309
FORMATTEDTABLEDATACOLUMN_END
  1
TABLECOLUMN_BEGIN
 90
        0
 40
10.0
309
TABLECOLUMN_END
300
COLUMN
  1
LINKEDTABLEDATACOLUMN_BEGIN
300

 91
        0
301
CUSTOMDATA
  1
DATAMAP_BEGIN
 90
        0
309
DATAMAP_END
309
LINKEDTABLEDATACOLUMN_END
  1
FORMATTEDTABLEDATACOLUMN_BEGIN
300
COLUMNTABLEFORMAT
  1
TABLEFORMAT_BEGIN
 90
        3
170
     0
309
TABLEFORMAT_END
309
FORMATTEDTABLEDATACOLUMN_END
  1
TABLECOLUMN_BEGIN
 90
        0
 40
10.0
309
TABLECOLUMN_END
300
COLUMN
  1
LINKEDTABLEDATACOLUMN_BEGIN
300

 91
        0
301
CUSTOMDATA
  1
DATAMAP_BEGIN
 90
        0
309
DATAMAP_END
309
LINKEDTABLEDATACOLUMN_END
  1
FORMATTEDTABLEDATACOLUMN_BEGIN
300
COLUMNTABLEFORMAT
  1
TABLEFORMAT_BEGIN
 90
        3
170
     0
309
TABLEFORMAT_END
309
FORMATTEDTABLEDATACOLUMN_END
  1
TABLECOLUMN_BEGIN
 90
        0
 40
40.0
309
TABLECOLUMN_END
300
COLUMN
  1
LINKEDTABLEDATACOLUMN_BEGIN
300

 91
        0
301
CUSTOMDATA
  1
DATAMAP_BEGIN
 90
        0
309
DATAMAP_END
309
LINKEDTABLEDATACOLUMN_END
  1
FORMATTEDTABLEDATACOLUMN_BEGIN
300
COLUMNTABLEFORMAT
  1
TABLEFORMAT_BEGIN
 90
        3
170
     0
309
TABLEFORMAT_END
309
FORMATTEDTABLEDATACOLUMN_END
  1
TABLECOLUMN_BEGIN
 90
        0
 40
20.0
309
TABLECOLUMN_END
 91
        5
301
ROW
  1
LINKEDTABLEDATAROW_BEGIN
 90
        5
300
CELL
  1
LINKEDTABLEDATACELL_BEGIN
 90
        0
300

 91
        0
301
CUSTOMDATA
  1
DATAMAP_BEGIN
 90
        1
300
ACAD_ROUNDTRIP_2008_CELL_CHECKSUM
301
DATAMAP_VALUE
 93
        2
 90
        2
140
32.0
 94
        0
300

302

304
ACVALUE_END
309
DATAMAP_END
 92
        0
 95
        1
302
CONTENT
  1
CELLCONTENT_BEGIN
 90
        1
300
VALUE
 93
        2
 90
        4
  1
 
 94
        0
300

302
 
304
ACVALUE_END
 91
        0
309
CELLCONTENT_END
  1
FORMATTEDCELLCONTENT_BEGIN
170
     1
300
CONTENTFORMAT
  1
CONTENTFORMAT_BEGIN
 90
      132
 91
        0
 92
      512
 93
        0
300

 40
0.0
140
1.0
 94
        1
 62
     0
340
0
144
3.5
309
CONTENTFORMAT_END
309
FORMATTEDCELLCONTENT_END
309
LINKEDTABLEDATACELL_END
  1
FORMATTEDTABLEDATACELL_BEGIN
300
CELLTABLEFORMAT
  1
TABLEFORMAT_BEGIN
 90
        1
170
     1
 91
        0
 92
        0
 62
   257
 93
        1
300
CONTENTFORMAT
  1
CONTENTFORMAT_BEGIN
 90
        0
 91
        0
 92
      512
 93
        0
300

 40
0.0
140
1.0
 94
        1
 62
     0
340
0
144
0.18
309
CONTENTFORMAT_END
171
     0
 94
        0
309
TABLEFORMAT_END
309
FORMATTEDTABLEDATACELL_END
  1
TABLECELL_BEGIN
 90
        0
 91
        0
309
TABLECELL_END
300
CELL
  1
LINKEDTABLEDATACELL_BEGIN
 90
        0
300

 91
        0
301
CUSTOMDATA
  1
DATAMAP_BEGIN
 90
        0
309
DATAMAP_END
 92
        0
 95
        0
309
LINKEDTABLEDATACELL_END
  1
FORMATTEDTABLEDATACELL_BEGIN
300
CELLTABLEFORMAT
  1
TABLEFORMAT_BEGIN
 90
        1
170
     1
 91
        0
 92
        0
 62
   257
 93
        1
300
CONTENTFORMAT
  1
CONTENTFORMAT_BEGIN
 90
        0
 91
        0
 92
      512
 93
        0
300

 40
0.0
140
1.0
 94
        1
 62
     0
340
0
144
0.18
309
CONTENTFORMAT_END
171
     0
 94
        0
309
TABLEFORMAT_END
309
FORMATTEDTABLEDATACELL_END
  1
TABLECELL_BEGIN
 90
        0
 91
        0
309
TABLECELL_END
300
CELL
  1
LINKEDTABLEDATACELL_BEGIN
 90
        0
300

 91
        0
301
CUSTOMDATA
  1
DATAMAP_BEGIN
 90
        0
309
DATAMAP_END
 92
        0
 95
        0
309
LINKEDTABLEDATACELL_END
  1
FORMATTEDTABLEDATACELL_BEGIN
300
CELLTABLEFORMAT
  1
TABLEFORMAT_BEGIN
 90
        1
170
     1
 91
        0
 92
        0
 62
   257
 93
        1
300
CONTENTFORMAT
  1
CONTENTFORMAT_BEGIN
 90
        0
 91
        0
 92
      512
 93
        0
300

 40
0.0
140
1.0
 94
        1
 62
     0
340
0
144
0.18
309
CONTENTFORMAT_END
171
     0
 94
        0
309
TABLEFORMAT_END
309
FORMATTEDTABLEDATACELL_END
  1
TABLECELL_BEGIN
 90
        0
 91
        0
309
TABLECELL_END
300
CELL
  1
LINKEDTABLEDATACELL_BEGIN
 90
        0
300

 91
        0
301
CUSTOMDATA
  1
DATAMAP_BEGIN
 90
        1
300
ACAD_ROUNDTRIP_2008_CELL_CHECKSUM
301
DATAMAP_VALUE
 93
        2
 90
        2
140
3402.0
 94
        0
300

302

304
ACVALUE_END
309
DATAMAP_END
 92
        0
 95
        1
302
CONTENT
  1
CELLCONTENT_BEGIN
 90
        1
300
VALUE
 93
        2
 90
        4
  1
A233_C_401
 94
        0
300

302
A233_C_401
304
ACVALUE_END
 91
        0
309
CELLCONTENT_END
  1
FORMATTEDCELLCONTENT_BEGIN
170
     1
300
CONTENTFORMAT
  1
CONTENTFORMAT_BEGIN
 90
      132
 91
        0
 92
      512
 93
        0
300

 40
0.0
140
1.0
 94
        1
 62
     0
340
0
144
3.0
309
CONTENTFORMAT_END
309
FORMATTEDCELLCONTENT_END
309
LINKEDTABLEDATACELL_END
  1
FORMATTEDTABLEDATACELL_BEGIN
300
CELLTABLEFORMAT
  1
TABLEFORMAT_BEGIN
 90
        1
170
     1
 91
       16
 92
        0
 62
   257
 93
        1
300
CONTENTFORMAT
  1
CONTENTFORMAT_BEGIN
 90
       16
 91
        0
 92
      512
 93
        0
300

 40
0.0
140
1.0
 94
        4
 62
     0
340
0
144
0.18
309
CONTENTFORMAT_END
171
     0
 94
        4
 95
        1
302
GRIDFORMAT
  1
GRIDFORMAT_BEGIN
 90
       26
 91
        1
 62
     0
 92
       -2
340
0
 93
        0
 40
0.045
309
GRIDFORMAT_END
 95
        4
302
GRIDFORMAT
  1
GRIDFORMAT_BEGIN
 90
       26
 91
        1
 62
     0
 92
       -2
340
0
 93
        0
 40
0.045
309
GRIDFORMAT_END
 95
        8
302
GRIDFORMAT
  1
GRIDFORMAT_BEGIN
 90
       26
 91
        1
 62
     0
 92
       -2
340
0
 93
        0
 40
0.045
309
GRIDFORMAT_END
 95
       32
302
GRIDFORMAT
  1
GRIDFORMAT_BEGIN
 90
       26
 91
        1
 62
     0
 92
       -2
340
0
 93
        0
 40
0.045
309
GRIDFORMAT_END
309
TABLEFORMAT_END
309
FORMATTEDTABLEDATACELL_END
  1
TABLECELL_BEGIN
 90
        0
 91
        0
309
TABLECELL_END
300
CELL
  1
LINKEDTABLEDATACELL_BEGIN
 90
        0
300

 91
        0
301
CUSTOMDATA
  1
DATAMAP_BEGIN
 90
        1
300
ACAD_ROUNDTRIP_2008_CELL_CHECKSUM
301
DATAMAP_VALUE
 93
        2
 90
        2
140
1398.0
 94
        0
300

302

304
ACVALUE_END
309
DATAMAP_END
 92
        0
 95
        1
302
CONTENT
  1
CELLCONTENT_BEGIN
 90
        1
300
VALUE
 93
        2
 90
        4
  1
Rev:00
 94
        0
300

302
Rev:00
304
ACVALUE_END
 91
        0
309
CELLCONTENT_END
  1
FORMATTEDCELLCONTENT_BEGIN
170
     1
300
CONTENTFORMAT
  1
CONTENTFORMAT_BEGIN
 90
      132
 91
        0
 92
      512
 93
        0
300

 40
0.0
140
1.0
 94
        1
 62
     0
340
0
144
3.5
309
CONTENTFORMAT_END
309
FORMATTEDCELLCONTENT_END
309
LINKEDTABLEDATACELL_END
  1
FORMATTEDTABLEDATACELL_BEGIN
300
CELLTABLEFORMAT
  1
TABLEFORMAT_BEGIN
 90
        1
170
     1
 91
       16
 92
        0
 62
   257
 93
        1
300
CONTENTFORMAT
  1
CONTENTFORMAT_BEGIN
 90
       16
 91
        0
 92
      512
 93
        0
300

 40
0.0
140
1.0
 94
        4
 62
     0
340
0
144
0.18
309
CONTENTFORMAT_END
171
     0
 94
        4
 95
        1
302
GRIDFORMAT
  1
GRIDFORMAT_BEGIN
 90
       26
 91
        1
 62
     0
 92
       -2
340
0
 93
        0
 40
0.045
309
GRIDFORMAT_END
 95
        4
302
GRIDFORMAT
  1
GRIDFORMAT_BEGIN
 90
       26
 91
        1
 62
     0
 92
       -2
340
0
 93
        0
 40
0.045
309
GRIDFORMAT_END
 95
        8
302
GRIDFORMAT
  1
GRIDFORMAT_BEGIN
 90
       26
 91
        1
 62
     0
 92
       -2
340
0
 93
        0
 40
0.045
309
GRIDFORMAT_END
 95
       32
302
GRIDFORMAT
  1
GRIDFORMAT_BEGIN
 90
       26
 91
        1
 62
     0
 92
       -2
340
0
 93
        0
 40
0.045
309
GRIDFORMAT_END
309
TABLEFORMAT_END
309
FORMATTEDTABLEDATACELL_END
  1
TABLECELL_BEGIN
 90
        0
 91
        0
309
TABLECELL_END
 91
        0
301
CUSTOMDATA
  1
DATAMAP_BEGIN
 90
        0
309
DATAMAP_END
309
LINKEDTABLEDATAROW_END
  1
FORMATTEDTABLEDATAROW_BEGIN
300
ROWTABLEFORMAT
  1
TABLEFORMAT_BEGIN
 90
        2
170
     0
309
TABLEFORMAT_END
309
FORMATTEDTABLEDATAROW_END
  1
TABLEROW_BEGIN
 90
        1
 40
6.0
309
TABLEROW_END
301
ROW
  1
LINKEDTABLEDATAROW_BEGIN
 90
        5
300
CELL
  1
LINKEDTABLEDATACELL_BEGIN
 90
        0
300

 91
        0
301
CUSTOMDATA
  1
DATAMAP_BEGIN
 90
        0
309
DATAMAP_END
 92
        0
 95
        0
309
LINKEDTABLEDATACELL_END
  1
FORMATTEDTABLEDATACELL_BEGIN
300
CELLTABLEFORMAT
  1
TABLEFORMAT_BEGIN
 90
        1
170
     1
 91
        0
 92
        0
 62
   257
 93
        1
300
CONTENTFORMAT
  1
CONTENTFORMAT_BEGIN
 90
        0
 91
        0
 92
      512
 93
        0
300

 40
0.0
140
1.0
 94
        1
 62
     0
340
0
144
0.18
309
CONTENTFORMAT_END
171
     0
 94
        0
309
TABLEFORMAT_END
309
FORMATTEDTABLEDATACELL_END
  1
TABLECELL_BEGIN
 90
        0
 91
        0
309
TABLECELL_END
300
CELL
  1
LINKEDTABLEDATACELL_BEGIN
 90
        0
300

 91
        0
301
CUSTOMDATA
  1
DATAMAP_BEGIN
 90
        0
309
DATAMAP_END
 92
        0
 95
        0
309
LINKEDTABLEDATACELL_END
  1
FORMATTEDTABLEDATACELL_BEGIN
300
CELLTABLEFORMAT
  1
TABLEFORMAT_BEGIN
 90
        1
170
     1
 91
        0
 92
        0
 62
   257
 93
        1
300
CONTENTFORMAT
  1
CONTENTFORMAT_BEGIN
 90
        0
 91
        0
 92
      512
 93
        0
300

 40
0.0
140
1.0
 94
        1
 62
     0
340
0
144
0.18
309
CONTENTFORMAT_END
171
     0
 94
        0
309
TABLEFORMAT_END
309
FORMATTEDTABLEDATACELL_END
  1
TABLECELL_BEGIN
 90
        0
 91
        0
309
TABLECELL_END
300
CELL
  1
LINKEDTABLEDATACELL_BEGIN
 90
        0
300

 91
        0
301
CUSTOMDATA
  1
DATAMAP_BEGIN
 90
        0
309
DATAMAP_END
 92
        0
 95
        0
309
LINKEDTABLEDATACELL_END
  1
FORMATTEDTABLEDATACELL_BEGIN
300
CELLTABLEFORMAT
  1
TABLEFORMAT_BEGIN
 90
        1
170
     1
 91
        0
 92
        0
 62
   257
 93
        1
300
CONTENTFORMAT
  1
CONTENTFORMAT_BEGIN
 90
        0
 91
        0
 92
      512
 93
        0
300

 40
0.0
140
1.0
 94
        1
 62
     0
340
0
144
0.18
309
CONTENTFORMAT_END
171
     0
 94
        0
309
TABLEFORMAT_END
309
FORMATTEDTABLEDATACELL_END
  1
TABLECELL_BEGIN
 90
        0
 91
        0
309
TABLECELL_END
300
CELL
  1
LINKEDTABLEDATACELL_BEGIN
 90
        0
300

 91
        0
301
CUSTOMDATA
  1
DATAMAP_BEGIN
 90
        1
300
ACAD_ROUNDTRIP_2008_CELL_CHECKSUM
301
DATAMAP_VALUE
 93
        2
 90
        2
140
3105.0
 94
        0
300

302

304
ACVALUE_END
309
DATAMAP_END
 92
        0
 95
        1
302
CONTENT
  1
CELLCONTENT_BEGIN
 90
        1
300
VALUE
 93
        2
 90
        4
  1
Scale:1:1
 94
        0
300

302
Scale:1:1
304
ACVALUE_END
 91
        0
309
CELLCONTENT_END
  1
FORMATTEDCELLCONTENT_BEGIN
170
     1
300
CONTENTFORMAT
  1
CONTENTFORMAT_BEGIN
 90
      132
 91
        0
 92
      512
 93
        0
300

 40
0.0
140
1.0
 94
        1
 62
     0
340
0
144
3.5
309
CONTENTFORMAT_END
309
FORMATTEDCELLCONTENT_END
309
LINKEDTABLEDATACELL_END
  1
FORMATTEDTABLEDATACELL_BEGIN
300
CELLTABLEFORMAT
  1
TABLEFORMAT_BEGIN
 90
        1
170
     1
 91
       16
 92
        0
 62
   257
 93
        1
300
CONTENTFORMAT
  1
CONTENTFORMAT_BEGIN
 90
       16
 91
        0
 92
      512
 93
        0
300

 40
0.0
140
1.0
 94
        1
 62
     0
340
0
144
0.18
309
CONTENTFORMAT_END
171
     0
 94
        4
 95
        1
302
GRIDFORMAT
  1
GRIDFORMAT_BEGIN
 90
       26
 91
        1
 62
     0
 92
       -2
340
0
 93
        0
 40
0.045
309
GRIDFORMAT_END
 95
        4
302
GRIDFORMAT
  1
GRIDFORMAT_BEGIN
 90
       26
 91
        1
 62
     0
 92
       -2
340
0
 93
        0
 40
0.045
309
GRIDFORMAT_END
 95
        8
302
GRIDFORMAT
  1
GRIDFORMAT_BEGIN
 90
       26
 91
        1
 62
     0
 92
       -2
340
0
 93
        0
 40
0.045
309
GRIDFORMAT_END
 95
       32
302
GRIDFORMAT
  1
GRIDFORMAT_BEGIN
 90
       26
 91
        1
 62
     0
 92
       -2
340
0
 93
        0
 40
0.045
309
GRIDFORMAT_END
309
TABLEFORMAT_END
309
FORMATTEDTABLEDATACELL_END
  1
TABLECELL_BEGIN
 90
        0
 91
        0
309
TABLECELL_END
300
CELL
  1
LINKEDTABLEDATACELL_BEGIN
 90
        0
300

 91
        0
301
CUSTOMDATA
  1
DATAMAP_BEGIN
 90
        1
300
ACAD_ROUNDTRIP_2008_CELL_CHECKSUM
301
DATAMAP_VALUE
 93
        2
 90
        2
140
167.0
 94
        0
300

302

304
ACVALUE_END
309
DATAMAP_END
 92
        0
 95
        1
302
CONTENT
  1
CELLCONTENT_BEGIN
 90
        1
300
VALUE
 93
        2
 90
        4
  1
A3
 94
        0
300

302
A3
304
ACVALUE_END
 91
        0
309
CELLCONTENT_END
  1
FORMATTEDCELLCONTENT_BEGIN
170
     1
300
CONTENTFORMAT
  1
CONTENTFORMAT_BEGIN
 90
      132
 91
        0
 92
      512
 93
        0
300

 40
0.0
140
1.0
 94
        1
 62
     0
340
0
144
3.5
309
CONTENTFORMAT_END
309
FORMATTEDCELLCONTENT_END
309
LINKEDTABLEDATACELL_END
  1
FORMATTEDTABLEDATACELL_BEGIN
300
CELLTABLEFORMAT
  1
TABLEFORMAT_BEGIN
 90
        1
170
     1
 91
       16
 92
        0
 62
   257
 93
        1
300
CONTENTFORMAT
  1
CONTENTFORMAT_BEGIN
 90
       16
 91
        0
 92
      512
 93
        0
300

 40
0.0
140
1.0
 94
        4
 62
     0
340
0
144
0.18
309
CONTENTFORMAT_END
171
     0
 94
        4
 95
        1
302
GRIDFORMAT
  1
GRIDFORMAT_BEGIN
 90
       26
 91
        1
 62
     0
 92
       -2
340
0
 93
        0
 40
0.045
309
GRIDFORMAT_END
 95
        4
302
GRIDFORMAT
  1
GRIDFORMAT_BEGIN
 90
       26
 91
        1
 62
     0
 92
       -2
340
0
 93
        0
 40
0.045
309
GRIDFORMAT_END
 95
        8
302
GRIDFORMAT
  1
GRIDFORMAT_BEGIN
 90
       26
 91
        1
 62
     0
 92
       -2
340
0
 93
        0
 40
0.045
309
GRIDFORMAT_END
 95
       32
302
GRIDFORMAT
  1
GRIDFORMAT_BEGIN
 90
       26
 91
        1
 62
     0
 92
       -2
340
0
 93
        0
 40
0.045
309
GRIDFORMAT_END
309
TABLEFORMAT_END
309
FORMATTEDTABLEDATACELL_END
  1
TABLECELL_BEGIN
 90
        0
 91
        0
309
TABLECELL_END
 91
        0
301
CUSTOMDATA
  1
DATAMAP_BEGIN
 90
        0
309
DATAMAP_END
309
LINKEDTABLEDATAROW_END
  1
FORMATTEDTABLEDATAROW_BEGIN
300
ROWTABLEFORMAT
  1
TABLEFORMAT_BEGIN
 90
        2
170
     0
309
TABLEFORMAT_END
309
FORMATTEDTABLEDATAROW_END
  1
TABLEROW_BEGIN
 90
        2
 40
6.0
309
TABLEROW_END
301
ROW
  1
LINKEDTABLEDATAROW_BEGIN
 90
        5
300
CELL
  1
LINKEDTABLEDATACELL_BEGIN
 90
        0
300

 91
        0
301
CUSTOMDATA
  1
DATAMAP_BEGIN
 90
        0
309
DATAMAP_END
 92
        0
 95
        0
309
LINKEDTABLEDATACELL_END
  1
FORMATTEDTABLEDATACELL_BEGIN
300
CELLTABLEFORMAT
  1
TABLEFORMAT_BEGIN
 90
        1
170
     1
 91
        0
 92
        0
 62
   257
 93
        1
300
CONTENTFORMAT
  1
CONTENTFORMAT_BEGIN
 90
        0
 91
        0
 92
      512
 93
        0
300

 40
0.0
140
1.0
 94
        1
 62
     0
340
0
144
0.18
309
CONTENTFORMAT_END
171
     0
 94
        0
309
TABLEFORMAT_END
309
FORMATTEDTABLEDATACELL_END
  1
TABLECELL_BEGIN
 90
        0
 91
        0
309
TABLECELL_END
300
CELL
  1
LINKEDTABLEDATACELL_BEGIN
 90
        0
300

 91
        0
301
CUSTOMDATA
  1
DATAMAP_BEGIN
 90
        0
309
DATAMAP_END
 92
        0
 95
        0
309
LINKEDTABLEDATACELL_END
  1
FORMATTEDTABLEDATACELL_BEGIN
300
CELLTABLEFORMAT
  1
TABLEFORMAT_BEGIN
 90
        1
170
     1
 91
        0
 92
        0
 62
   257
 93
        1
300
CONTENTFORMAT
  1
CONTENTFORMAT_BEGIN
 90
        0
 91
        0
 92
      512
 93
        0
300

 40
0.0
140
1.0
 94
        1
 62
     0
340
0
144
0.18
309
CONTENTFORMAT_END
171
     0
 94
        0
309
TABLEFORMAT_END
309
FORMATTEDTABLEDATACELL_END
  1
TABLECELL_BEGIN
 90
        0
 91
        0
309
TABLECELL_END
300
CELL
  1
LINKEDTABLEDATACELL_BEGIN
 90
        0
300

 91
        0
301
CUSTOMDATA
  1
DATAMAP_BEGIN
 90
        0
309
DATAMAP_END
 92
        0
 95
        0
309
LINKEDTABLEDATACELL_END
  1
FORMATTEDTABLEDATACELL_BEGIN
300
CELLTABLEFORMAT
  1
TABLEFORMAT_BEGIN
 90
        1
170
     1
 91
        0
 92
        0
 62
   257
 93
        1
300
CONTENTFORMAT
  1
CONTENTFORMAT_BEGIN
 90
        0
 91
        0
 92
      512
 93
        0
300

 40
0.0
140
1.0
 94
        1
 62
     0
340
0
144
0.18
309
CONTENTFORMAT_END
171
     0
 94
        0
309
TABLEFORMAT_END
309
FORMATTEDTABLEDATACELL_END
  1
TABLECELL_BEGIN
 90
        0
 91
        0
309
TABLECELL_END
300
CELL
  1
LINKEDTABLEDATACELL_BEGIN
 90
        0
300

 91
        0
301
CUSTOMDATA
  1
DATAMAP_BEGIN
 90
        1
300
ACAD_ROUNDTRIP_2008_CELL_CHECKSUM
301
DATAMAP_VALUE
 93
        2
 90
        2
140
1853.0
 94
        0
300

302

304
ACVALUE_END
309
DATAMAP_END
 92
        0
 95
        1
302
CONTENT
  1
CELLCONTENT_BEGIN
 90
        1
300
VALUE
 93
        2
 90
        4
  1
NAKA 1.0
 94
        0
300

302
NAKA 1.0
304
ACVALUE_END
 91
        0
309
CELLCONTENT_END
  1
FORMATTEDCELLCONTENT_BEGIN
170
     1
300
CONTENTFORMAT
  1
CONTENTFORMAT_BEGIN
 90
      132
 91
        0
 92
      512
 93
        0
300

 40
0.0
140
1.0
 94
        1
 62
     0
340
0
144
3.5
309
CONTENTFORMAT_END
309
FORMATTEDCELLCONTENT_END
309
LINKEDTABLEDATACELL_END
  1
FORMATTEDTABLEDATACELL_BEGIN
300
CELLTABLEFORMAT
  1
TABLEFORMAT_BEGIN
 90
        1
170
     1
 91
       16
 92
        0
 62
   257
 93
        1
300
CONTENTFORMAT
  1
CONTENTFORMAT_BEGIN
 90
       16
 91
        0
 92
      512
 93
        0
300

 40
0.0
140
1.0
 94
        4
 62
     0
340
0
144
0.18
309
CONTENTFORMAT_END
171
     0
 94
        4
 95
        1
302
GRIDFORMAT
  1
GRIDFORMAT_BEGIN
 90
       26
 91
        1
 62
     0
 92
       -2
340
0
 93
        0
 40
0.045
309
GRIDFORMAT_END
 95
        4
302
GRIDFORMAT
  1
GRIDFORMAT_BEGIN
 90
       26
 91
        1
 62
     0
 92
       -2
340
0
 93
        0
 40
0.045
309
GRIDFORMAT_END
 95
        8
302
GRIDFORMAT
  1
GRIDFORMAT_BEGIN
 90
       26
 91
        1
 62
     0
 92
       -2
340
0
 93
        0
 40
0.045
309
GRIDFORMAT_END
 95
       32
302
GRIDFORMAT
  1
GRIDFORMAT_BEGIN
 90
       26
 91
        1
 62
     0
 92
       -2
340
0
 93
        0
 40
0.045
309
GRIDFORMAT_END
309
TABLEFORMAT_END
309
FORMATTEDTABLEDATACELL_END
  1
TABLECELL_BEGIN
 90
        0
 91
        0
309
TABLECELL_END
300
CELL
  1
LINKEDTABLEDATACELL_BEGIN
 90
        0
300

 91
        0
301
CUSTOMDATA
  1
DATAMAP_BEGIN
 90
        0
309
DATAMAP_END
 92
        0
 95
        0
309
LINKEDTABLEDATACELL_END
  1
FORMATTEDTABLEDATACELL_BEGIN
300
CELLTABLEFORMAT
  1
TABLEFORMAT_BEGIN
 90
        1
170
     1
 91
        0
 92
        0
 62
   257
 93
        1
300
CONTENTFORMAT
  1
CONTENTFORMAT_BEGIN
 90
        0
 91
        0
 92
      512
 93
        0
300

 40
0.0
140
1.0
 94
        1
 62
     0
340
0
144
0.18
309
CONTENTFORMAT_END
171
     0
 94
        0
309
TABLEFORMAT_END
309
FORMATTEDTABLEDATACELL_END
  1
TABLECELL_BEGIN
 90
        0
 91
        0
309
TABLECELL_END
 91
        0
301
CUSTOMDATA
  1
DATAMAP_BEGIN
 90
        0
309
DATAMAP_END
309
LINKEDTABLEDATAROW_END
  1
FORMATTEDTABLEDATAROW_BEGIN
300
ROWTABLEFORMAT
  1
TABLEFORMAT_BEGIN
 90
        2
170
     0
309
TABLEFORMAT_END
309
FORMATTEDTABLEDATAROW_END
  1
TABLEROW_BEGIN
 90
        3
 40
10.0
309
TABLEROW_END
301
ROW
  1
LINKEDTABLEDATAROW_BEGIN
 90
        5
300
CELL
  1
LINKEDTABLEDATACELL_BEGIN
 90
        0
300

 91
        0
301
CUSTOMDATA
  1
DATAMAP_BEGIN
 90
        0
309
DATAMAP_END
 92
        0
 95
        0
309
LINKEDTABLEDATACELL_END
  1
FORMATTEDTABLEDATACELL_BEGIN
300
CELLTABLEFORMAT
  1
TABLEFORMAT_BEGIN
 90
        1
170
     1
 91
        0
 92
        0
 62
   257
 93
        1
300
CONTENTFORMAT
  1
CONTENTFORMAT_BEGIN
 90
        0
 91
        0
 92
      512
 93
        0
300

 40
0.0
140
1.0
 94
        1
 62
     0
340
0
144
0.18
309
CONTENTFORMAT_END
171
     0
 94
        0
309
TABLEFORMAT_END
309
FORMATTEDTABLEDATACELL_END
  1
TABLECELL_BEGIN
 90
        0
 91
        0
309
TABLECELL_END
300
CELL
  1
LINKEDTABLEDATACELL_BEGIN
 90
        0
300

 91
        0
301
CUSTOMDATA
  1
DATAMAP_BEGIN
 90
        0
309
DATAMAP_END
 92
        0
 95
        0
309
LINKEDTABLEDATACELL_END
  1
FORMATTEDTABLEDATACELL_BEGIN
300
CELLTABLEFORMAT
  1
TABLEFORMAT_BEGIN
 90
        1
170
     1
 91
        0
 92
        0
 62
   257
 93
        1
300
CONTENTFORMAT
  1
CONTENTFORMAT_BEGIN
 90
        0
 91
        0
 92
      512
 93
        0
300

 40
0.0
140
1.0
 94
        1
 62
     0
340
0
144
0.18
309
CONTENTFORMAT_END
171
     0
 94
        0
309
TABLEFORMAT_END
309
FORMATTEDTABLEDATACELL_END
  1
TABLECELL_BEGIN
 90
        0
 91
        0
309
TABLECELL_END
300
CELL
  1
LINKEDTABLEDATACELL_BEGIN
 90
        0
300

 91
        0
301
CUSTOMDATA
  1
DATAMAP_BEGIN
 90
        0
309
DATAMAP_END
 92
        0
 95
        0
309
LINKEDTABLEDATACELL_END
  1
FORMATTEDTABLEDATACELL_BEGIN
300
CELLTABLEFORMAT
  1
TABLEFORMAT_BEGIN
 90
        1
170
     1
 91
        0
 92
        0
 62
   257
 93
        1
300
CONTENTFORMAT
  1
CONTENTFORMAT_BEGIN
 90
        0
 91
        0
 92
      512
 93
        0
300

 40
0.0
140
1.0
 94
        1
 62
     0
340
0
144
0.18
309
CONTENTFORMAT_END
171
     0
 94
        0
309
TABLEFORMAT_END
309
FORMATTEDTABLEDATACELL_END
  1
TABLECELL_BEGIN
 90
        0
 91
        0
309
TABLECELL_END
300
CELL
  1
LINKEDTABLEDATACELL_BEGIN
 90
        0
300

 91
        0
301
CUSTOMDATA
  1
DATAMAP_BEGIN
 90
        1
300
ACAD_ROUNDTRIP_2008_CELL_CHECKSUM
301
DATAMAP_VALUE
 93
        2
 90
        2
140
4777.0
 94
        0
300

302

304
ACVALUE_END
309
DATAMAP_END
 92
        0
 95
        1
302
CONTENT
  1
CELLCONTENT_BEGIN
 90
        1
300
VALUE
 93
        2
 90
        4
  1
DATE:28.02.23
 94
        0
300

302
DATE:28.02.23
304
ACVALUE_END
 91
        0
309
CELLCONTENT_END
  1
FORMATTEDCELLCONTENT_BEGIN
170
     1
300
CONTENTFORMAT
  1
CONTENTFORMAT_BEGIN
 90
      132
 91
        0
 92
      512
 93
        0
300

 40
0.0
140
1.0
 94
        1
 62
     0
340
0
144
2.5
309
CONTENTFORMAT_END
309
FORMATTEDCELLCONTENT_END
309
LINKEDTABLEDATACELL_END
  1
FORMATTEDTABLEDATACELL_BEGIN
300
CELLTABLEFORMAT
  1
TABLEFORMAT_BEGIN
 90
        1
170
     1
 91
       16
 92
        0
 62
   257
 93
        1
300
CONTENTFORMAT
  1
CONTENTFORMAT_BEGIN
 90
       16
 91
        0
 92
      512
 93
        0
300

 40
0.0
140
1.0
 94
        4
 62
     0
340
0
144
0.18
309
CONTENTFORMAT_END
171
     0
 94
        4
 95
        1
302
GRIDFORMAT
  1
GRIDFORMAT_BEGIN
 90
       26
 91
        1
 62
     0
 92
       -2
340
0
 93
        0
 40
0.045
309
GRIDFORMAT_END
 95
        4
302
GRIDFORMAT
  1
GRIDFORMAT_BEGIN
 90
       26
 91
        1
 62
     0
 92
       -2
340
0
 93
        0
 40
0.045
309
GRIDFORMAT_END
 95
        8
302
GRIDFORMAT
  1
GRIDFORMAT_BEGIN
 90
       26
 91
        1
 62
     0
 92
       -2
340
0
 93
        0
 40
0.045
309
GRIDFORMAT_END
 95
       32
302
GRIDFORMAT
  1
GRIDFORMAT_BEGIN
 90
       26
 91
        1
 62
     0
 92
       -2
340
0
 93
        0
 40
0.045
309
GRIDFORMAT_END
309
TABLEFORMAT_END
309
FORMATTEDTABLEDATACELL_END
  1
TABLECELL_BEGIN
 90
        0
 91
        0
309
TABLECELL_END
300
CELL
  1
LINKEDTABLEDATACELL_BEGIN
 90
        0
300

 91
        0
301
CUSTOMDATA
  1
DATAMAP_BEGIN
 90
        0
309
DATAMAP_END
 92
        0
 95
        0
309
LINKEDTABLEDATACELL_END
  1
FORMATTEDTABLEDATACELL_BEGIN
300
CELLTABLEFORMAT
  1
TABLEFORMAT_BEGIN
 90
        1
170
     1
 91
        0
 92
        0
 62
   257
 93
        1
300
CONTENTFORMAT
  1
CONTENTFORMAT_BEGIN
 90
        0
 91
        0
 92
      512
 93
        0
300

 40
0.0
140
1.0
 94
        1
 62
     0
340
0
144
0.18
309
CONTENTFORMAT_END
171
     0
 94
        0
309
TABLEFORMAT_END
309
FORMATTEDTABLEDATACELL_END
  1
TABLECELL_BEGIN
 90
        0
 91
        0
309
TABLECELL_END
 91
        0
301
CUSTOMDATA
  1
DATAMAP_BEGIN
 90
        0
309
DATAMAP_END
309
LINKEDTABLEDATAROW_END
  1
FORMATTEDTABLEDATAROW_BEGIN
300
ROWTABLEFORMAT
  1
TABLEFORMAT_BEGIN
 90
        2
170
     0
309
TABLEFORMAT_END
309
FORMATTEDTABLEDATAROW_END
  1
TABLEROW_BEGIN
 90
        3
 40
5.0
309
TABLEROW_END
301
ROW
  1
LINKEDTABLEDATAROW_BEGIN
 90
        5
300
CELL
  1
LINKEDTABLEDATACELL_BEGIN
 90
        0
300

 91
        0
301
CUSTOMDATA
  1
DATAMAP_BEGIN
 90
        1
300
ACAD_ROUNDTRIP_2008_CELL_CHECKSUM
301
DATAMAP_VALUE
 93
        2
 90
        2
140
1361482.0
 94
        0
300

302

304
ACVALUE_END
309
DATAMAP_END
 92
        0
 95
        1
302
CONTENT
  1
CELLCONTENT_BEGIN
 90
        1
300
VALUE
 93
        2
 90
        4
  1
Any integral or partial reproductions are prohibited \Pwithout prior authorisation of L & L Luce & Light s.r.l., \Pin accordance with the law in force. \PAll rights reserved.
 94
        0
300

302
Any integral or partial reproductions are prohibited \Pwithout prior authorisation of L & L Luce & Light s.r.l., \Pin accordance with the law in force. \PAll rights reserved.
304
ACVALUE_END
 91
        0
309
CELLCONTENT_END
  1
FORMATTEDCELLCONTENT_BEGIN
170
     1
300
CONTENTFORMAT
  1
CONTENTFORMAT_BEGIN
 90
      132
 91
        0
 92
      512
 93
        0
300

 40
0.0
140
1.0
 94
        1
 62
     0
340
0
144
2.25
309
CONTENTFORMAT_END
309
FORMATTEDCELLCONTENT_END
309
LINKEDTABLEDATACELL_END
  1
FORMATTEDTABLEDATACELL_BEGIN
300
CELLTABLEFORMAT
  1
TABLEFORMAT_BEGIN
 90
        1
170
     1
 91
       16
 92
        0
 62
   257
 93
        1
300
CONTENTFORMAT
  1
CONTENTFORMAT_BEGIN
 90
       16
 91
        0
 92
      512
 93
        0
300

 40
0.0
140
1.0
 94
        4
 62
     0
340
0
144
0.18
309
CONTENTFORMAT_END
171
     0
 94
        4
 95
        1
302
GRIDFORMAT
  1
GRIDFORMAT_BEGIN
 90
       26
 91
        1
 62
     0
 92
       -2
340
0
 93
        0
 40
0.045
309
GRIDFORMAT_END
 95
        4
302
GRIDFORMAT
  1
GRIDFORMAT_BEGIN
 90
       26
 91
        1
 62
     0
 92
       -2
340
0
 93
        0
 40
0.045
309
GRIDFORMAT_END
 95
        8
302
GRIDFORMAT
  1
GRIDFORMAT_BEGIN
 90
       26
 91
        1
 62
     0
 92
       -2
340
0
 93
        0
 40
0.045
309
GRIDFORMAT_END
 95
       32
302
GRIDFORMAT
  1
GRIDFORMAT_BEGIN
 90
       26
 91
        1
 62
     0
 92
       -2
340
0
 93
        0
 40
0.045
309
GRIDFORMAT_END
309
TABLEFORMAT_END
309
FORMATTEDTABLEDATACELL_END
  1
TABLECELL_BEGIN
 90
        0
 91
        0
309
TABLECELL_END
300
CELL
  1
LINKEDTABLEDATACELL_BEGIN
 90
        0
300

 91
        0
301
CUSTOMDATA
  1
DATAMAP_BEGIN
 90
        0
309
DATAMAP_END
 92
        0
 95
        0
309
LINKEDTABLEDATACELL_END
  1
FORMATTEDTABLEDATACELL_BEGIN
300
CELLTABLEFORMAT
  1
TABLEFORMAT_BEGIN
 90
        1
170
     1
 91
        0
 92
        0
 62
   257
 93
        1
300
CONTENTFORMAT
  1
CONTENTFORMAT_BEGIN
 90
        0
 91
        0
 92
      512
 93
        0
300

 40
0.0
140
1.0
 94
        1
 62
     0
340
0
144
0.18
309
CONTENTFORMAT_END
171
     0
 94
        0
309
TABLEFORMAT_END
309
FORMATTEDTABLEDATACELL_END
  1
TABLECELL_BEGIN
 90
        0
 91
        0
309
TABLECELL_END
300
CELL
  1
LINKEDTABLEDATACELL_BEGIN
 90
        0
300

 91
        0
301
CUSTOMDATA
  1
DATAMAP_BEGIN
 90
        0
309
DATAMAP_END
 92
        0
 95
        0
309
LINKEDTABLEDATACELL_END
  1
FORMATTEDTABLEDATACELL_BEGIN
300
CELLTABLEFORMAT
  1
TABLEFORMAT_BEGIN
 90
        1
170
     1
 91
        0
 92
        0
 62
   257
 93
        1
300
CONTENTFORMAT
  1
CONTENTFORMAT_BEGIN
 90
        0
 91
        0
 92
      512
 93
        0
300

 40
0.0
140
1.0
 94
        1
 62
     0
340
0
144
0.18
309
CONTENTFORMAT_END
171
     0
 94
        0
309
TABLEFORMAT_END
309
FORMATTEDTABLEDATACELL_END
  1
TABLECELL_BEGIN
 90
        0
 91
        0
309
TABLECELL_END
300
CELL
  1
LINKEDTABLEDATACELL_BEGIN
 90
        0
300

 91
        0
301
CUSTOMDATA
  1
DATAMAP_BEGIN
 90
        0
309
DATAMAP_END
 92
        0
 95
        0
309
LINKEDTABLEDATACELL_END
  1
FORMATTEDTABLEDATACELL_BEGIN
300
CELLTABLEFORMAT
  1
TABLEFORMAT_BEGIN
 90
        1
170
     1
 91
        0
 92
        0
 62
   257
 93
        1
300
CONTENTFORMAT
  1
CONTENTFORMAT_BEGIN
 90
        0
 91
        0
 92
      512
 93
        0
300

 40
0.0
140
1.0
 94
        1
 62
     0
340
0
144
0.18
309
CONTENTFORMAT_END
171
     0
 94
        0
309
TABLEFORMAT_END
309
FORMATTEDTABLEDATACELL_END
  1
TABLECELL_BEGIN
 90
        0
 91
        0
309
TABLECELL_END
300
CELL
  1
LINKEDTABLEDATACELL_BEGIN
 90
        0
300

 91
        0
301
CUSTOMDATA
  1
DATAMAP_BEGIN
 90
        0
309
DATAMAP_END
 92
        0
 95
        0
309
LINKEDTABLEDATACELL_END
  1
FORMATTEDTABLEDATACELL_BEGIN
300
CELLTABLEFORMAT
  1
TABLEFORMAT_BEGIN
 90
        1
170
     1
 91
        0
 92
        0
 62
   257
 93
        1
300
CONTENTFORMAT
  1
CONTENTFORMAT_BEGIN
 90
        0
 91
        0
 92
      512
 93
        0
300

 40
0.0
140
1.0
 94
        1
 62
     0
340
0
144
0.18
309
CONTENTFORMAT_END
171
     0
 94
        0
309
TABLEFORMAT_END
309
FORMATTEDTABLEDATACELL_END
  1
TABLECELL_BEGIN
 90
        0
 91
        0
309
TABLECELL_END
 91
        0
301
CUSTOMDATA
  1
DATAMAP_BEGIN
 90
        0
309
DATAMAP_END
309
LINKEDTABLEDATAROW_END
  1
FORMATTEDTABLEDATAROW_BEGIN
300
ROWTABLEFORMAT
  1
TABLEFORMAT_BEGIN
 90
        2
170
     0
309
TABLEFORMAT_END
309
FORMATTEDTABLEDATAROW_END
  1
TABLEROW_BEGIN
 90
        3
 40
13.0
309
TABLEROW_END
100
AcDbFormattedTableData
300
TABLEFORMAT
  1
TABLEFORMAT_BEGIN
 90
        4
170
     1
 91
    15360
 92
        0
 62
   257
 93
        1
300
CONTENTFORMAT
  1
CONTENTFORMAT_BEGIN
 90
        0
 91
        0
 92
      512
 93
        0
300

 40
0.0
140
1.0
 94
        1
 62
     0
340
0
144
0.18
309
CONTENTFORMAT_END
171
     1
301
MARGIN
  1
CELLMARGIN_BEGIN
 40
0.06
 40
0.06
 40
0.06
 40
0.06
 40
0.06
 40
0.06
309
CELLMARGIN_END
 94
        0
309
TABLEFORMAT_END
 90
        4
 91
        0
 92
        0
 93
        3
 94
        2
 91
        2
 92
        3
 93
        2
 94
        4
 91
        3
 92
        3
 93
        3
 94
        4
 91
        4
 92
        0
 93
        4
 94
        4
100
AcDbTableContent
340
3A2
  0
TABLEGEOMETRY
  5
3CF
330
3D1
100
AcDbTableGeometry
 90
        5
 91
        5
 92
       25
 93
        0
 40
0.0
 41
0.0
330
0
 94
        0
 93
        0
 40
0.0
 41
0.0
330
0
 94
        0
 93
        0
 40
0.0
 41
0.0
330
0
 94
        0
 93
        0
 40
0.0
 41
0.0
330
0
 94
        0
 93
        0
 40
0.0
 41
0.0
330
0
 94
        0
 93
        0
 40
0.0
 41
0.0
330
0
 94
        0
 93
        0
 40
0.0
 41
0.0
330
0
 94
        0
 93
        0
 40
0.0
 41
0.0
330
0
 94
        0
 93
        0
 40
0.0
 41
0.0
330
0
 94
        0
 93
        0
 40
0.0
 41
0.0
330
0
 94
        0
 93
        0
 40
0.0
 41
0.0
330
0
 94
        0
 93
        0
 40
0.0
 41
0.0
330
0
 94
        0
 93
        0
 40
0.0
 41
0.0
330
0
 94
        0
 93
        0
 40
0.0
 41
0.0
330
0
 94
        0
 93
        0
 40
0.0
 41
0.0
330
0
 94
        0
 93
        0
 40
0.0
 41
0.0
330
0
 94
        0
 93
        0
 40
0.0
 41
0.0
330
0
 94
        0
 93
        0
 40
0.0
 41
0.0
330
0
 94
        0
 93
        0
 40
0.0
 41
0.0
330
0
 94
        0
 93
        0
 40
0.0
 41
0.0
330
0
 94
        0
 93
        0
 40
0.0
 41
0.0
330
0
 94
        0
 93
        0
 40
0.0
 41
0.0
330
0
 94
        0
 93
        0
 40
0.0
 41
0.0
330
0
 94
        0
 93
        0
 40
0.0
 41
0.0
330
0
 94
        0
 93
        0
 40
0.0
 41
0.0
330
0
 94
        0
  0
DICTIONARY
  5
3D4
330
3A2
100
AcDbDictionary
280
     1
281
     1
  3
ACAD_ROUNDTRIP_2008_TABLESTYLE_CELLSTYLEMAP
360
3D5
  0
CELLSTYLEMAP
  5
3D5
102
{ACAD_REACTORS
330
3D4
102
}
330
3D4
100
AcDbCellStyleMap
 90
        3
300
CELLSTYLE
  1
TABLEFORMAT_BEGIN
 90
        5
170
     1
 91
        0
 92
        0
 62
   257
 93
        1
300
CONTENTFORMAT
  1
CONTENTFORMAT_BEGIN
 90
        0
 91
        0
 92
        4
 93
        0
300

 40
0.0
140
1.0
 94
        5
 62
     0
340
11
144
6.0
309
CONTENTFORMAT_END
171
     1
301
MARGIN
  1
CELLMARGIN_BEGIN
 40
1.5
 40
1.5
 40
1.5
 40
1.5
 40
1.5
 40
1.5
309
CELLMARGIN_END
 94
        6
 95
        1
302
GRIDFORMAT
  1
GRIDFORMAT_BEGIN
 90
        0
 91
        1
 62
     0
 92
       -2
340
14
 93
        0
 40
0.045
309
GRIDFORMAT_END
 95
        2
302
GRIDFORMAT
  1
GRIDFORMAT_BEGIN
 90
        0
 91
        1
 62
     0
 92
       -2
340
14
 93
        0
 40
0.045
309
GRIDFORMAT_END
 95
        4
302
GRIDFORMAT
  1
GRIDFORMAT_BEGIN
 90
        0
 91
        1
 62
     0
 92
       -2
340
14
 93
        0
 40
0.045
309
GRIDFORMAT_END
 95
        8
302
GRIDFORMAT
  1
GRIDFORMAT_BEGIN
 90
        0
 91
        1
 62
     0
 92
       -2
340
14
 93
        0
 40
0.045
309
GRIDFORMAT_END
 95
       16
302
GRIDFORMAT
  1
GRIDFORMAT_BEGIN
 90
        0
 91
        1
 62
     0
 92
       -2
340
14
 93
        0
 40
0.045
309
GRIDFORMAT_END
 95
       32
302
GRIDFORMAT
  1
GRIDFORMAT_BEGIN
 90
        0
 91
        1
 62
     0
 92
       -2
340
14
 93
        0
 40
0.045
309
GRIDFORMAT_END
309
TABLEFORMAT_END
  1
CELLSTYLE_BEGIN
 90
        1
 91
        1
300
_TITLE
309
CELLSTYLE_END
300
CELLSTYLE
  1
TABLEFORMAT_BEGIN
 90
        5
170
     1
 91
        0
 92
        0
 62
   257
 93
        1
300
CONTENTFORMAT
  1
CONTENTFORMAT_BEGIN
 90
        0
 91
        0
 92
        4
 93
        0
300

 40
0.0
140
1.0
 94
        5
 62
     0
340
11
144
4.5
309
CONTENTFORMAT_END
171
     1
301
MARGIN
  1
CELLMARGIN_BEGIN
 40
1.5
 40
1.5
 40
1.5
 40
1.5
 40
1.5
 40
1.5
309
CELLMARGIN_END
 94
        6
 95
        1
302
GRIDFORMAT
  1
GRIDFORMAT_BEGIN
 90
        0
 91
        1
 62
     0
 92
       -2
340
14
 93
        0
 40
0.045
309
GRIDFORMAT_END
 95
        2
302
GRIDFORMAT
  1
GRIDFORMAT_BEGIN
 90
        0
 91
        1
 62
     0
 92
       -2
340
14
 93
        0
 40
0.045
309
GRIDFORMAT_END
 95
        4
302
GRIDFORMAT
  1
GRIDFORMAT_BEGIN
 90
        0
 91
        1
 62
     0
 92
       -2
340
14
 93
        0
 40
0.045
309
GRIDFORMAT_END
 95
        8
302
GRIDFORMAT
  1
GRIDFORMAT_BEGIN
 90
        0
 91
        1
 62
     0
 92
       -2
340
14
 93
        0
 40
0.045
309
GRIDFORMAT_END
 95
       16
302
GRIDFORMAT
  1
GRIDFORMAT_BEGIN
 90
        0
 91
        1
 62
     0
 92
       -2
340
14
 93
        0
 40
0.045
309
GRIDFORMAT_END
 95
       32
302
GRIDFORMAT
  1
GRIDFORMAT_BEGIN
 90
        0
 91
        1
 62
     0
 92
       -2
340
14
 93
        0
 40
0.045
309
GRIDFORMAT_END
309
TABLEFORMAT_END
  1
CELLSTYLE_BEGIN
 90
        2
 91
        1
300
_HEADER
309
CELLSTYLE_END
300
CELLSTYLE
  1
TABLEFORMAT_BEGIN
 90
        5
170
     1
 91
        0
 92
        0
 62
   257
 93
        1
300
CONTENTFORMAT
  1
CONTENTFORMAT_BEGIN
 90
        0
 91
        0
 92
        4
 93
        0
300

 40
0.0
140
1.0
 94
        2
 62
     0
340
11
144
4.5
309
CONTENTFORMAT_END
171
     1
301
MARGIN
  1
CELLMARGIN_BEGIN
 40
1.5
 40
1.5
 40
1.5
 40
1.5
 40
1.5
 40
1.5
309
CELLMARGIN_END
 94
        6
 95
        1
302
GRIDFORMAT
  1
GRIDFORMAT_BEGIN
 90
        0
 91
        1
 62
     0
 92
       -2
340
14
 93
        0
 40
0.045
309
GRIDFORMAT_END
 95
        2
302
GRIDFORMAT
  1
GRIDFORMAT_BEGIN
 90
        0
 91
        1
 62
     0
 92
       -2
340
14
 93
        0
 40
0.045
309
GRIDFORMAT_END
 95
        4
302
GRIDFORMAT
  1
GRIDFORMAT_BEGIN
 90
        0
 91
        1
 62
     0
 92
       -2
340
14
 93
        0
 40
0.045
309
GRIDFORMAT_END
 95
        8
302
GRIDFORMAT
  1
GRIDFORMAT_BEGIN
 90
        0
 91
        1
 62
     0
 92
       -2
340
14
 93
        0
 40
0.045
309
GRIDFORMAT_END
 95
       16
302
GRIDFORMAT
  1
GRIDFORMAT_BEGIN
 90
        0
 91
        1
 62
     0
 92
       -2
340
14
 93
        0
 40
0.045
309
GRIDFORMAT_END
 95
       32
302
GRIDFORMAT
  1
GRIDFORMAT_BEGIN
 90
        0
 91
        1
 62
     0
 92
       -2
340
14
 93
        0
 40
0.045
309
GRIDFORMAT_END
309
TABLEFORMAT_END
  1
CELLSTYLE_BEGIN
 90
        3
 91
        2
300
_DATA
309
CELLSTYLE_END
  0
ENDSEC
  0
EOF
