999
DXF file: 3f2_c_021.dxf
999
Pro/ENGINEER 2011330 by Parametric Technology Corporation
  0
SECTION
  2
HEADER
  9
$ACADVER
  1
AC1021
  9
$DWGCODEPAGE
  3
ANSI_1252
  9
$EXTMAX
 10
210.0
 20
297.0
 30
0.0
  9
$EXTMIN
 10
0.0
 20
0.0
 30
0.0
  9
$LIMMIN
 10
0.0
 20
0.0
  9
$LIMMAX
 10
210.0
 20
297.0
  9
$VIEWCTR
 10
105.0
 20
148.5
  9
$VIEWSIZE
 40
297.0
  9
$CLAYER
  8
0
  9
$LTSCALE
 40
19.36
  9
$CELTYPE
  6
BYLAYER
  9
$DIMSCALE
 40
1.0
  9
$DIMASZ
 40
2.5
  9
$DIMEXO
 40
2.2
  9
$DIMDLI
 40
13.376
  9
$DIMEXE
 40
6.336
  9
$DIMCEN
 40
3.168
  9
$DIMLFAC
 40
1.0
  9
$DIMBLK
  1
_CLOSED
  9
$DIMTXT
 40
3.0
  9
$DIMTOL
 70
1
  9
$DIMLIM
 70
0
  9
$DIMTFAC
 40
1.0
  9
$DIMTP
 40
0.01
  9
$DIMTM
 40
0.01
  9
$PDMODE
 70
3
  9
$PDSIZE
 40
0.3125
  9
$HANDSEED
  5
59F
  9
$TILEMODE
 70
1
  9
$MEASUREMENT
 70
1
  9
$INSUNITS
 70
4
  0
ENDSEC
  0
SECTION
  2
CLASSES
  0
CLASS
  1
ACDBDICTIONARYWDFLT
  2
AcDbDictionaryWithDefault
  3
AutoCAD 2000
 90
0
 91
1
280
0
281
0
  0
CLASS
  1
ACDBPLACEHOLDER
  2
AcDbPlaceHolder
  3
AutoCAD 2000
 90
0
 91
1
280
0
281
0
  0
CLASS
  1
LAYOUT
  2
AcDbLayout
  3
AutoCAD 2000
 90
0
 91
0
280
0
281
0
  0
CLASS
  1
TABLESTYLE
  2
AcDbTableStyle
  3
ObjectDBX Classes
 90
2047
 91
1
280
0
281
0
  0
CLASS
  1
ACAD_TABLE
  2
AcDbTable
  3
ObjectDBX Classes
 90
1025
 91
1
280
0
281
1
  0
ENDSEC
  0
SECTION
  2
TABLES
  0
TABLE
  2
VPORT
  5
8
100
AcDbSymbolTable
 70
2
  0
VPORT
  5
1F4
100
AcDbSymbolTableRecord
100
AcDbViewportTableRecord
  2
*ACTIVE
 70
0
 10
0.0
 20
0.0
 11
1.0
 21
1.0
 12
105.0
 22
148.5
 13
0.0
 23
0.0
 14
1.0
 24
1.0
 15
0.0
 25
0.0
 16
0.0
 26
0.0
 36
1.0
 17
0.0
 27
0.0
 37
0.0
 40
297.0
 41
0.7070707071
 42
50.0
 43
0.0
 44
0.0
 50
0.0
 51
0.0
 71
0
 72
100
 73
1
 74
1
 75
0
 76
0
 77
0
 78
0
  0
ENDTAB
  0
TABLE
  2
LTYPE
  5
5
100
AcDbSymbolTable
 70
6
  0
LTYPE
  5
14
100
AcDbSymbolTableRecord
100
AcDbLinetypeTableRecord
  2
BYBLOCK
 70
0
  3

 72
65
 73
0
 40
0.0
  0
LTYPE
  5
15
100
AcDbSymbolTableRecord
100
AcDbLinetypeTableRecord
  2
BYLAYER
 70
0
  3

 72
65
 73
0
 40
0.0
  0
LTYPE
  5
16
100
AcDbSymbolTableRecord
100
AcDbLinetypeTableRecord
  2
CONTINUOUS
 70
64
  3
Solid line
 72
65
 73
0
 40
0.0
  0
LTYPE
  5
1F5
100
AcDbSymbolTableRecord
100
AcDbLinetypeTableRecord
  2
CENTER
 70
64
  3
____ _ ____ _ ____ _ ____ _ ____ _ ____ _ ____
 72
65
 73
4
 40
0.6
 49
0.375
 74
0
 49
-0.075
 74
0
 49
0.075
 74
0
 49
-0.075
 74
0
  0
LTYPE
  5
1F6
100
AcDbSymbolTableRecord
100
AcDbLinetypeTableRecord
  2
HIDDEN
 70
64
  3
- - - - - - - - - - - - - - - - - - - -
 72
65
 73
2
 40
0.2
 49
0.1
 74
0
 49
-0.1
 74
0
  0
LTYPE
  5
1F7
100
AcDbSymbolTableRecord
100
AcDbLinetypeTableRecord
  2
PHANTOM
 70
64
  3
_____ _ _ _____ _ _ _____ _ _ _____
 72
65
 73
6
 40
0.8
 49
0.45
 74
0
 49
-0.05
 74
0
 49
0.1
 74
0
 49
-0.05
 74
0
 49
0.1
 74
0
 49
-0.05
 74
0
  0
LTYPE
  5
1F8
100
AcDbSymbolTableRecord
100
AcDbLinetypeTableRecord
  2
DOT
 70
64
  3
. . . . . . . . . . . . . . . . . . . .
 72
65
 73
2
 40
0.2
 49
0.1
 74
0
 49
-0.1
 74
0
  0
LTYPE
  5
1F9
100
AcDbSymbolTableRecord
100
AcDbLinetypeTableRecord
  2
DASHED
 70
64
  3
- - - - - - - - - - - - - - - - - - - -
 72
65
 73
2
 40
0.2
 49
0.1
 74
0
 49
-0.1
 74
0
  0
ENDTAB
  0
TABLE
  2
LAYER
  5
2
100
AcDbSymbolTable
 70
36
  0
LAYER
  5
10
100
AcDbSymbolTableRecord
100
AcDbLayerTableRecord
  2
0
 70
0
 62
7
  6
CONTINUOUS
370
-3
390
F
  0
LAYER
  5
1FA
100
AcDbSymbolTableRecord
100
AcDbLayerTableRecord
  2
DEFAULT_1
 70
0
 62
7
  6
CENTER
370
-3
390
F
  0
LAYER
  5
1FB
100
AcDbSymbolTableRecord
100
AcDbLayerTableRecord
  2
DEFAULT_2
 70
0
 62
8
  6
HIDDEN
370
-3
390
F
  0
LAYER
  5
1FC
100
AcDbSymbolTableRecord
100
AcDbLayerTableRecord
  2
DEFAULT_3
 70
0
 62
7
  6
PHANTOM
370
-3
390
F
  0
LAYER
  5
1FD
100
AcDbSymbolTableRecord
100
AcDbLayerTableRecord
  2
01_ALL_DTM_PLN
 70
0
 62
7
  6
CONTINUOUS
370
-3
390
F
  0
LAYER
  5
1FE
100
AcDbSymbolTableRecord
100
AcDbLayerTableRecord
  2
01__ASM_ALL_DTM_PLN
 70
0
 62
7
  6
CONTINUOUS
370
-3
390
F
  0
LAYER
  5
1FF
100
AcDbSymbolTableRecord
100
AcDbLayerTableRecord
  2
01__ASM_DEF_DTM_PLN
 70
0
 62
7
  6
CONTINUOUS
370
-3
390
F
  0
LAYER
  5
200
100
AcDbSymbolTableRecord
100
AcDbLayerTableRecord
  2
01___PRT_ALL_DTM_PLN
 70
0
 62
7
  6
CONTINUOUS
370
-3
390
F
  0
LAYER
  5
201
100
AcDbSymbolTableRecord
100
AcDbLayerTableRecord
  2
01___PRT_DEF_DTM_PLN
 70
0
 62
7
  6
CONTINUOUS
370
-3
390
F
  0
LAYER
  5
202
100
AcDbSymbolTableRecord
100
AcDbLayerTableRecord
  2
02_ALL_AXES
 70
0
 62
7
  6
CONTINUOUS
370
-3
390
F
  0
LAYER
  5
203
100
AcDbSymbolTableRecord
100
AcDbLayerTableRecord
  2
02__ASM_ALL_AXES
 70
0
 62
7
  6
CONTINUOUS
370
-3
390
F
  0
LAYER
  5
204
100
AcDbSymbolTableRecord
100
AcDbLayerTableRecord
  2
02___PRT_ALL_AXES
 70
0
 62
7
  6
CONTINUOUS
370
-3
390
F
  0
LAYER
  5
205
100
AcDbSymbolTableRecord
100
AcDbLayerTableRecord
  2
03_ALL_CURVES
 70
0
 62
7
  6
CONTINUOUS
370
-3
390
F
  0
LAYER
  5
206
100
AcDbSymbolTableRecord
100
AcDbLayerTableRecord
  2
03__ASM_ALL_CURVES
 70
0
 62
7
  6
CONTINUOUS
370
-3
390
F
  0
LAYER
  5
207
100
AcDbSymbolTableRecord
100
AcDbLayerTableRecord
  2
03___PRT_ALL_CURVES
 70
0
 62
7
  6
CONTINUOUS
370
-3
390
F
  0
LAYER
  5
208
100
AcDbSymbolTableRecord
100
AcDbLayerTableRecord
  2
04_ALL_DTM_PNT
 70
0
 62
7
  6
CONTINUOUS
370
-3
390
F
  0
LAYER
  5
209
100
AcDbSymbolTableRecord
100
AcDbLayerTableRecord
  2
04__ASM_ALL_DTM_PNT
 70
0
 62
7
  6
CONTINUOUS
370
-3
390
F
  0
LAYER
  5
20A
100
AcDbSymbolTableRecord
100
AcDbLayerTableRecord
  2
04___PRT_ALL_DTM_PNT
 70
0
 62
7
  6
CONTINUOUS
370
-3
390
F
  0
LAYER
  5
20B
100
AcDbSymbolTableRecord
100
AcDbLayerTableRecord
  2
05_ALL_DTM_CSYS
 70
0
 62
7
  6
CONTINUOUS
370
-3
390
F
  0
LAYER
  5
20C
100
AcDbSymbolTableRecord
100
AcDbLayerTableRecord
  2
05__ASM_ALL_DTM_CSYS
 70
0
 62
7
  6
CONTINUOUS
370
-3
390
F
  0
LAYER
  5
20D
100
AcDbSymbolTableRecord
100
AcDbLayerTableRecord
  2
05__ASM_DEF_DTM_CSYS
 70
0
 62
7
  6
CONTINUOUS
370
-3
390
F
  0
LAYER
  5
20E
100
AcDbSymbolTableRecord
100
AcDbLayerTableRecord
  2
05___PRT_ALL_DTM_CSYS
 70
0
 62
7
  6
CONTINUOUS
370
-3
390
F
  0
LAYER
  5
20F
100
AcDbSymbolTableRecord
100
AcDbLayerTableRecord
  2
05___PRT_DEF_DTM_CSYS
 70
0
 62
7
  6
CONTINUOUS
370
-3
390
F
  0
LAYER
  5
210
100
AcDbSymbolTableRecord
100
AcDbLayerTableRecord
  2
06_ALL_SURFS
 70
0
 62
7
  6
CONTINUOUS
370
-3
390
F
  0
LAYER
  5
211
100
AcDbSymbolTableRecord
100
AcDbLayerTableRecord
  2
06__ASM_ALL_SURFS
 70
0
 62
7
  6
CONTINUOUS
370
-3
390
F
  0
LAYER
  5
212
100
AcDbSymbolTableRecord
100
AcDbLayerTableRecord
  2
06___PRT_ALL_SURFS
 70
0
 62
7
  6
CONTINUOUS
370
-3
390
F
  0
LAYER
  5
213
100
AcDbSymbolTableRecord
100
AcDbLayerTableRecord
  2
07__ASM_ALL_SKELETONS
 70
0
 62
7
  6
CONTINUOUS
370
-3
390
F
  0
LAYER
  5
214
100
AcDbSymbolTableRecord
100
AcDbLayerTableRecord
  2
1_ALL_PLANES
 70
0
 62
7
  6
CONTINUOUS
370
-3
390
F
  0
LAYER
  5
215
100
AcDbSymbolTableRecord
100
AcDbLayerTableRecord
  2
2_ALL_CSYS
 70
0
 62
7
  6
CONTINUOUS
370
-3
390
F
  0
LAYER
  5
216
100
AcDbSymbolTableRecord
100
AcDbLayerTableRecord
  2
3_ALL_AXES
 70
0
 62
7
  6
CONTINUOUS
370
-3
390
F
  0
LAYER
  5
217
100
AcDbSymbolTableRecord
100
AcDbLayerTableRecord
  2
4_ALL_POINTS
 70
0
 62
7
  6
CONTINUOUS
370
-3
390
F
  0
LAYER
  5
218
100
AcDbSymbolTableRecord
100
AcDbLayerTableRecord
  2
5_ALL_CURVES
 70
0
 62
7
  6
CONTINUOUS
370
-3
390
F
  0
LAYER
  5
219
100
AcDbSymbolTableRecord
100
AcDbLayerTableRecord
  2
5__COSTRUZIONE
 70
0
 62
7
  6
CONTINUOUS
370
-3
390
F
  0
LAYER
  5
21A
100
AcDbSymbolTableRecord
100
AcDbLayerTableRecord
  2
5__LL
 70
0
 62
7
  6
CONTINUOUS
370
-3
390
F
  0
LAYER
  5
21B
100
AcDbSymbolTableRecord
100
AcDbLayerTableRecord
  2
5__NEGATIVO
 70
0
 62
7
  6
CONTINUOUS
370
-3
390
F
  0
LAYER
  5
21C
100
AcDbSymbolTableRecord
100
AcDbLayerTableRecord
  2
5__POSITIVO
 70
0
 62
7
  6
CONTINUOUS
370
-3
390
F
  0
LAYER
  5
21D
100
AcDbSymbolTableRecord
100
AcDbLayerTableRecord
  2
5__SCHEDA_IMPORTATA
 70
0
 62
7
  6
CONTINUOUS
370
-3
390
F
  0
LAYER
  5
21E
100
AcDbSymbolTableRecord
100
AcDbLayerTableRecord
  2
6_ALL_SURFS
 70
0
 62
7
  6
CONTINUOUS
370
-3
390
F
  0
LAYER
  5
21F
100
AcDbSymbolTableRecord
100
AcDbLayerTableRecord
  2
6__COSTRUZIONE
 70
0
 62
7
  6
CONTINUOUS
370
-3
390
F
  0
LAYER
  5
220
100
AcDbSymbolTableRecord
100
AcDbLayerTableRecord
  2
7_ALL_FEATURES
 70
0
 62
7
  6
CONTINUOUS
370
-3
390
F
  0
LAYER
  5
221
100
AcDbSymbolTableRecord
100
AcDbLayerTableRecord
  2
8_ALL_NOTES_BALLOONS_SYMBOLS_GT
 70
0
 62
7
  6
CONTINUOUS
370
-3
390
F
  0
LAYER
  5
222
100
AcDbSymbolTableRecord
100
AcDbLayerTableRecord
  2
CLOSED_SHELL
 70
0
 62
7
  6
CONTINUOUS
370
-3
390
F
  0
LAYER
  5
223
100
AcDbSymbolTableRecord
100
AcDbLayerTableRecord
  2
INTFCLR_2
 70
0
 62
7
  6
CONTINUOUS
370
-3
390
F
  0
LAYER
  5
224
100
AcDbSymbolTableRecord
100
AcDbLayerTableRecord
  2
INTFCLR_3
 70
0
 62
7
  6
CONTINUOUS
370
-3
390
F
  0
LAYER
  5
225
100
AcDbSymbolTableRecord
100
AcDbLayerTableRecord
  2
INTFCLR_4
 70
0
 62
7
  6
CONTINUOUS
370
-3
390
F
  0
LAYER
  5
226
100
AcDbSymbolTableRecord
100
AcDbLayerTableRecord
  2
INTFCLR_5
 70
0
 62
7
  6
CONTINUOUS
370
-3
390
F
  0
LAYER
  5
227
100
AcDbSymbolTableRecord
100
AcDbLayerTableRecord
  2
INTFCLR_6
 70
0
 62
7
  6
CONTINUOUS
370
-3
390
F
  0
LAYER
  5
228
100
AcDbSymbolTableRecord
100
AcDbLayerTableRecord
  2
INTFCLR_7
 70
0
 62
7
  6
CONTINUOUS
370
-3
390
F
  0
LAYER
  5
229
100
AcDbSymbolTableRecord
100
AcDbLayerTableRecord
  2
INTFCLR_8
 70
0
 62
7
  6
CONTINUOUS
370
-3
390
F
  0
LAYER
  5
22A
100
AcDbSymbolTableRecord
100
AcDbLayerTableRecord
  2
INTF_CYAN
 70
0
 62
7
  6
CONTINUOUS
370
-3
390
F
  0
LAYER
  5
22B
100
AcDbSymbolTableRecord
100
AcDbLayerTableRecord
  2
INTF_YELLOW
 70
0
 62
7
  6
CONTINUOUS
370
-3
390
F
  0
LAYER
  5
22C
100
AcDbSymbolTableRecord
100
AcDbLayerTableRecord
  2
XXX_SOLIDO
 70
0
 62
7
  6
CONTINUOUS
370
-3
390
F
  0
ENDTAB
  0
TABLE
  2
STYLE
  5
3
100
AcDbSymbolTable
 70
1
  0
STYLE
  5
11
100
AcDbSymbolTableRecord
100
AcDbTextStyleTableRecord
  2
STANDARD
 70
0
 40
0.0
 41
0.85
 50
0.0
 71
0
 42
0.2
  3
txt
  4

  0
STYLE
  5
22D
100
AcDbSymbolTableRecord
100
AcDbTextStyleTableRecord
  2
TEXTSTYLE_1
 70
0
 40
0.0
 41
0.8
 50
0.0
 71
0
 42
0.2
  3
gdt
  4

  0
ENDTAB
  0
TABLE
  2
VIEW
  5
6
100
AcDbSymbolTable
 70
0
  0
ENDTAB
  0
TABLE
  2
UCS
  5
7
100
AcDbSymbolTable
 70
0
  0
ENDTAB
  0
TABLE
  2
APPID
  5
9
100
AcDbSymbolTable
 70
1
  0
APPID
  5
22E
100
AcDbSymbolTableRecord
100
AcDbRegAppTableRecord
  2
ACAD
 70
0
  0
ENDTAB
  0
TABLE
  2
BLOCK_RECORD
  5
1
100
AcDbSymbolTable
 70
0
  0
BLOCK_RECORD
  5
22F
100
AcDbSymbolTableRecord
100
AcDbBlockTableRecord
  2
*Model_Space
  0
BLOCK_RECORD
  5
230
100
AcDbSymbolTableRecord
100
AcDbBlockTableRecord
  2
*Paper_Space
  0
BLOCK_RECORD
  5
231
100
AcDbSymbolTableRecord
100
AcDbBlockTableRecord
  2
_CLOSED
  0
BLOCK_RECORD
  5
232
100
AcDbSymbolTableRecord
100
AcDbBlockTableRecord
  2
*D0
  0
BLOCK_RECORD
  5
233
100
AcDbSymbolTableRecord
100
AcDbBlockTableRecord
  2
*D1
  0
BLOCK_RECORD
  5
234
100
AcDbSymbolTableRecord
100
AcDbBlockTableRecord
  2
*D2
  0
BLOCK_RECORD
  5
235
100
AcDbSymbolTableRecord
100
AcDbBlockTableRecord
  2
*D3
  0
BLOCK_RECORD
  5
236
100
AcDbSymbolTableRecord
100
AcDbBlockTableRecord
  2
LOGO2_BL0
  0
BLOCK_RECORD
  5
237
100
AcDbSymbolTableRecord
100
AcDbBlockTableRecord
  2
*T1
  0
ENDTAB
  0
TABLE
  2
DIMSTYLE
  5
A
100
AcDbSymbolTable
 70
1
100
AcDbDimStyleTable
 71
0
  0
DIMSTYLE
105
238
100
AcDbSymbolTableRecord
100
AcDbDimStyleTableRecord
  2
STANDARD
 70
0
  3

  4

 40
1.0
 41
2.5
 42
0.0625
 43
0.38
 44
0.18
 45
0.0
 46
0.0
 47
0.01
 48
0.01
140
3.0
141
0.09
142
0.0
143
25.4
144
1.0
145
0.0
146
1.0
147
0.09
 71
1.0
 72
0.0
 73
0
 74
0
 75
0
 76
0
 77
1
 78
8
170
0
171
2
172
0
173
0
174
0
175
0
176
0
177
0
178
0
270
2
271
2
272
2
273
2
274
2
275
0
280
0
281
0
282
0
283
1
284
8
285
0
286
0
287
3
288
0
340
11
341
231
342
231
343
231
344
231
  0
DIMSTYLE
105
239
100
AcDbSymbolTableRecord
100
AcDbDimStyleTableRecord
  2
DIMSTYLE_1
 70
0
  3

  4

 40
1.0
 41
2.5
 42
0.0625
 43
0.38
 44
0.18
 45
0.0
 46
0.0
 47
0.3
 48
0.3
140
3.0
141
0.09
142
0.0
143
25.4
144
1.0
145
0.0
146
1.0
147
0.09
 71
0.0
 72
0.0
 73
0
 74
0
 75
0
 76
0
 77
1
 78
8
170
0
171
2
172
0
173
0
174
0
175
0
176
0
177
0
178
0
270
2
271
0
272
0
273
2
274
2
275
0
280
0
281
0
282
0
283
1
284
8
285
0
286
0
287
3
288
0
340
11
341
231
342
231
343
231
344
231
  0
DIMSTYLE
105
23A
100
AcDbSymbolTableRecord
100
AcDbDimStyleTableRecord
  2
DIMSTYLE_2
 70
0
  3

  4

 40
1.0
 41
2.5
 42
0.0625
 43
0.38
 44
0.18
 45
0.0
 46
0.0
 47
0.2
 48
0.2
140
3.0
141
0.09
142
0.0
143
25.4
144
1.0
145
0.0
146
1.0
147
0.09
 71
0.0
 72
0.0
 73
0
 74
0
 75
0
 76
0
 77
1
 78
8
170
0
171
2
172
0
173
0
174
0
175
0
176
0
177
0
178
0
270
2
271
0
272
0
273
2
274
2
275
0
280
0
281
0
282
0
283
1
284
8
285
0
286
0
287
3
288
0
340
11
341
231
342
231
343
231
344
231
  0
ENDTAB
  0
ENDSEC
  0
SECTION
  2
BLOCKS
  0
BLOCK
  5
20
100
AcDbEntity
  8
0
100
AcDbBlockBegin
  2
*Model_Space
 70
0
 10
0.0
 20
0.0
 30
0.0
  3
*Model_Space
  1

  0
ENDBLK
  5
21
100
AcDbEntity
  8
0
100
AcDbBlockEnd
  0
BLOCK
  5
1C
100
AcDbEntity
  8
0
100
AcDbBlockBegin
  2
*Paper_Space
 70
0
 10
0.0
 20
0.0
 30
0.0
  3
*Paper_Space
  1

  0
ENDBLK
  5
1D
100
AcDbEntity
  8
0
100
AcDbBlockEnd
  0
BLOCK
  5
23B
100
AcDbEntity
  8
0
100
AcDbBlockBegin
 62
2
  6
CONTINUOUS
  2
LOGO2_BL0
 70
64
 10
127.4014070164
 20
34.5546751742
  3
LOGO2_BL0
  1

  0
LINE
  5
23C
100
AcDbEntity
  8
0
100
AcDbLine
 62
7
  6
CONTINUOUS
 10
119.1443322446
 20
37.7501665131
 11
117.8399913152
 21
37.7501665131
  0
LINE
  5
23D
100
AcDbEntity
  8
0
100
AcDbLine
 62
7
  6
CONTINUOUS
 10
117.8399913152
 20
37.7501665131
 11
117.8399913152
 21
27.2911004532
  0
LINE
  5
23E
100
AcDbEntity
  8
0
100
AcDbLine
 62
7
  6
CONTINUOUS
 10
117.8399913152
 20
27.2911004532
 11
122.3210462035
 21
27.2911004532
  0
LINE
  5
23F
100
AcDbEntity
  8
0
100
AcDbLine
 62
7
  6
CONTINUOUS
 10
122.3210462035
 20
27.2911004532
 11
122.3210462035
 21
28.4839547783
  0
LINE
  5
240
100
AcDbEntity
  8
0
100
AcDbLine
 62
7
  6
CONTINUOUS
 10
122.3210462035
 20
28.4839547783
 11
119.1443322446
 21
28.4839547783
  0
LINE
  5
241
100
AcDbEntity
  8
0
100
AcDbLine
 62
7
  6
CONTINUOUS
 10
119.1443322446
 20
28.4839547783
 11
119.1443322446
 21
37.7501665131
  0
LINE
  5
242
100
AcDbEntity
  8
0
100
AcDbLine
 62
7
  6
CONTINUOUS
 10
134.0806584609
 20
37.7501665131
 11
132.7768409428
 21
37.7501665131
  0
LINE
  5
243
100
AcDbEntity
  8
0
100
AcDbLine
 62
7
  6
CONTINUOUS
 10
132.7768409428
 20
37.7501665131
 11
132.7768409428
 21
27.2911004532
  0
LINE
  5
244
100
AcDbEntity
  8
0
100
AcDbLine
 62
7
  6
CONTINUOUS
 10
132.7768409428
 20
27.2911004532
 11
137.2580266839
 21
27.2911004532
  0
LINE
  5
245
100
AcDbEntity
  8
0
100
AcDbLine
 62
7
  6
CONTINUOUS
 10
137.2580266839
 20
27.2911004532
 11
137.2580266839
 21
28.4839547783
  0
LINE
  5
246
100
AcDbEntity
  8
0
100
AcDbLine
 62
7
  6
CONTINUOUS
 10
137.2580266839
 20
28.4839547783
 11
134.0806584609
 21
28.4839547783
  0
LINE
  5
247
100
AcDbEntity
  8
0
100
AcDbLine
 62
7
  6
CONTINUOUS
 10
134.0806584609
 20
28.4839547783
 11
134.0806584609
 21
37.7501665131
  0
LWPOLYLINE
  5
248
100
AcDbEntity
  8
0
100
AcDbPolyline
 62
7
  6
CONTINUOUS
 90
2
 70
0
 43
0.2
 10
116.1943862262
 20
23.9475491463
 10
116.1943862262
 20
22.0904858969
  0
LWPOLYLINE
  5
249
100
AcDbEntity
  8
0
100
AcDbPolyline
 62
7
  6
CONTINUOUS
 90
2
 70
0
 43
0.2
 10
116.1943862262
 20
22.0904858969
 10
116.9901022365
 20
22.0904858969
  0
LWPOLYLINE
  5
24A
100
AcDbEntity
  8
0
100
AcDbPolyline
 62
7
  6
CONTINUOUS
 90
2
 70
0
 43
0.2
 10
116.9901022365
 20
22.0904858969
 10
116.9901022365
 20
22.3024674685
  0
LWPOLYLINE
  5
24B
100
AcDbEntity
  8
0
100
AcDbPolyline
 62
7
  6
CONTINUOUS
 90
2
 70
0
 43
0.2
 10
116.9901022365
 20
22.3024674685
 10
116.425995721
 20
22.3024674685
  0
LWPOLYLINE
  5
24C
100
AcDbEntity
  8
0
100
AcDbPolyline
 62
7
  6
CONTINUOUS
 90
2
 70
0
 43
0.2
 10
116.425995721
 20
22.3024674685
 10
116.425995721
 20
23.9475491463
  0
LWPOLYLINE
  5
24D
100
AcDbEntity
  8
0
100
AcDbPolyline
 62
7
  6
CONTINUOUS
 90
2
 70
0
 43
0.2
 10
116.425995721
 20
23.9475491463
 10
116.1943862262
 20
23.9475491463
  0
SPLINE
  5
24E
100
AcDbEntity
  8
0
100
AcDbSpline
 62
7
  6
CONTINUOUS
 70
2
 71
3
 72
35
 73
31
 74
0
 42
0.0000001
 43
0.0000001
 44
0.0000000001
 40
0.0
 40
0.0
 40
0.0
 40
0.0
 40
1.0
 40
1.0
 40
1.0
 40
2.0
 40
2.0
 40
2.0
 40
3.0
 40
3.0
 40
3.0
 40
4.0
 40
4.0
 40
4.0
 40
5.0
 40
5.0
 40
5.0
 40
6.0
 40
6.0
 40
6.0
 40
7.0
 40
7.0
 40
7.0
 40
8.0
 40
8.0
 40
8.0
 40
9.0
 40
9.0
 40
9.0
 40
10.0
 40
10.0
 40
10.0
 40
10.0
 10
118.3883954921
 20
23.2430375528
 30
0.0
 10
118.3883954921
 20
23.2430375528
 30
0.0
 10
118.3883954921
 20
22.5809222737
 30
0.0
 10
118.3883954921
 20
22.5809222737
 30
0.0
 10
118.3883954921
 20
22.2658286784
 30
0.0
 10
118.5362591809
 20
22.0512300503
 30
0.0
 10
118.8763456652
 20
22.0512300503
 30
0.0
 10
119.2159087382
 20
22.0512300503
 30
0.0
 10
119.3640341327
 20
22.2658286784
 30
0.0
 10
119.3640341327
 20
22.5809222737
 30
0.0
 10
119.3640341327
 20
22.5809222737
 30
0.0
 10
119.3640341327
 20
23.2430375528
 30
0.0
 10
119.3640341327
 20
23.2430375528
 30
0.0
 10
119.3640341327
 20
23.2430375528
 30
0.0
 10
119.1419768938
 20
23.2430375528
 30
0.0
 10
119.1419768938
 20
23.2430375528
 30
0.0
 10
119.1419768938
 20
23.2430375528
 30
0.0
 10
119.1419768938
 20
22.6060460155
 30
0.0
 10
119.1419768938
 20
22.6060460155
 30
0.0
 10
119.1419768938
 20
22.4202350083
 30
0.0
 10
119.0952624364
 20
22.2574540978
 30
0.0
 10
118.8763456652
 20
22.2574540978
 30
0.0
 10
118.6569054828
 20
22.2574540978
 30
0.0
 10
118.6101910253
 20
22.4202350083
 30
0.0
 10
118.6101910253
 20
22.6060460155
 30
0.0
 10
118.6101910253
 20
22.6060460155
 30
0.0
 10
118.6101910253
 20
23.2430375528
 30
0.0
 10
118.6101910253
 20
23.2430375528
 30
0.0
 10
118.6101910253
 20
23.2430375528
 30
0.0
 10
118.3883954921
 20
23.2430375528
 30
0.0
 10
118.3883954921
 20
23.2430375528
 30
0.0
  0
SPLINE
  5
24F
100
AcDbEntity
  8
0
100
AcDbSpline
 62
7
  6
CONTINUOUS
 70
2
 71
3
 72
35
 73
31
 74
0
 42
0.0000001
 43
0.0000001
 44
0.0000000001
 40
0.0
 40
0.0
 40
0.0
 40
0.0
 40
1.0
 40
1.0
 40
1.0
 40
2.0
 40
2.0
 40
2.0
 40
3.0
 40
3.0
 40
3.0
 40
4.0
 40
4.0
 40
4.0
 40
5.0
 40
5.0
 40
5.0
 40
6.0
 40
6.0
 40
6.0
 40
7.0
 40
7.0
 40
7.0
 40
8.0
 40
8.0
 40
8.0
 40
9.0
 40
9.0
 40
9.0
 40
10.0
 40
10.0
 40
10.0
 40
10.0
 10
121.7871666899
 20
23.2016880611
 30
0.0
 10
121.6987101822
 20
23.2529823673
 30
0.0
 10
121.5852607856
 20
23.2781061091
 30
0.0
 10
121.4816253506
 20
23.2781061091
 30
0.0
 10
121.1267524974
 20
23.2781061091
 30
0.0
 10
120.8513073072
 20
23.01430682
 30
0.0
 10
120.8513073072
 20
22.6568169104
 30
0.0
 10
120.8513073072
 20
22.3118888717
 30
0.0
 10
121.1297621123
 20
22.0517534616
 30
0.0
 10
121.4693251853
 20
22.0517534616
 30
0.0
 10
121.5852607856
 20
22.0517534616
 30
0.0
 10
121.6860174585
 20
22.0737367357
 30
0.0
 10
121.7871666899
 20
22.1276480984
 30
0.0
 10
121.7871666899
 20
22.1276480984
 30
0.0
 10
121.7871666899
 20
22.4102901938
 30
0.0
 10
121.7871666899
 20
22.4102901938
 30
0.0
 10
121.703290031
 20
22.3171229846
 30
0.0
 10
121.5997854488
 20
22.257977509
 30
0.0
 10
121.4716805361
 20
22.257977509
 30
0.0
 10
121.2379773961
 20
22.257977509
 30
0.0
 10
121.0727102819
 20
22.4301798228
 30
0.0
 10
121.0727102819
 20
22.6667617249
 30
0.0
 10
121.0727102819
 20
22.8787432965
 30
0.0
 10
121.2404635997
 20
23.0708352391
 30
0.0
 10
121.4572867257
 20
23.0708352391
 30
0.0
 10
121.59010234
 20
23.0708352391
 30
0.0
 10
121.6987101822
 20
23.0169238765
 30
0.0
 10
121.7871666899
 20
22.9159054979
 30
0.0
 10
121.7871666899
 20
22.9159054979
 30
0.0
 10
121.7871666899
 20
23.2016880611
 30
0.0
 10
121.7871666899
 20
23.2016880611
 30
0.0
  0
SPLINE
  5
250
100
AcDbEntity
  8
0
100
AcDbSpline
 62
7
  6
CONTINUOUS
 70
2
 71
3
 72
32
 73
28
 74
0
 42
0.0000001
 43
0.0000001
 44
0.0000000001
 40
0.0
 40
0.0
 40
0.0
 40
0.0
 40
1.0
 40
1.0
 40
1.0
 40
2.0
 40
2.0
 40
2.0
 40
3.0
 40
3.0
 40
3.0
 40
4.0
 40
4.0
 40
4.0
 40
5.0
 40
5.0
 40
5.0
 40
6.0
 40
6.0
 40
6.0
 40
7.0
 40
7.0
 40
7.0
 40
8.0
 40
8.0
 40
8.0
 40
9.0
 40
9.0
 40
9.0
 40
9.0
 10
124.3190379421
 20
22.6301229347
 30
0.0
 10
124.3190379421
 20
22.6301229347
 30
0.0
 10
124.3190379421
 20
22.6641446684
 30
0.0
 10
124.3190379421
 20
22.6641446684
 30
0.0
 10
124.3190379421
 20
23.0064556507
 30
0.0
 10
124.1461813643
 20
23.2781061091
 30
0.0
 10
123.7795317572
 20
23.2781061091
 30
0.0
 10
123.4079097428
 20
23.2781061091
 30
0.0
 10
123.2181731509
 20
23.0116897636
 30
0.0
 10
123.2181731509
 20
22.6568169104
 30
0.0
 10
123.2181731509
 20
22.3171229846
 30
0.0
 10
123.4322483676
 20
22.0512300503
 30
0.0
 10
123.7843733116
 20
22.0512300503
 30
0.0
 10
124.0083933428
 20
22.0512300503
 30
0.0
 10
124.2105609527
 20
22.166903945
 30
0.0
 10
124.3190379421
 20
22.3663236456
 30
0.0
 10
124.3190379421
 20
22.3663236456
 30
0.0
 10
124.1313949954
 20
22.4730995484
 30
0.0
 10
124.1313949954
 20
22.4730995484
 30
0.0
 10
124.047910895
 20
22.3343955571
 30
0.0
 10
123.9567064781
 20
22.2485561059
 30
0.0
 10
123.7871212208
 20
22.2485561059
 30
0.0
 10
123.5751396492
 20
22.2485561059
 30
0.0
 10
123.4421931821
 20
22.4333202905
 30
0.0
 10
123.4398378313
 20
22.6301229347
 30
0.0
 10
123.4398378313
 20
22.6301229347
 30
0.0
 10
124.3190379421
 20
22.6301229347
 30
0.0
 10
124.3190379421
 20
22.6301229347
 30
0.0
  0
SPLINE
  5
251
100
AcDbEntity
  8
0
100
AcDbSpline
 62
7
  6
CONTINUOUS
 70
2
 71
3
 72
14
 73
10
 74
0
 42
0.0000001
 43
0.0000001
 44
0.0000000001
 40
0.0
 40
0.0
 40
0.0
 40
0.0
 40
1.0
 40
1.0
 40
1.0
 40
2.0
 40
2.0
 40
2.0
 40
3.0
 40
3.0
 40
3.0
 40
3.0
 10
123.4518762909
 20
22.7976145468
 30
0.0
 10
123.4794862364
 20
22.9624891025
 30
0.0
 10
123.6073294434
 20
23.0854907552
 30
0.0
 10
123.7795317572
 20
23.0854907552
 30
0.0
 10
123.9567064781
 20
23.0854907552
 30
0.0
 10
124.0701558747
 20
22.9698168605
 30
0.0
 10
124.0973732617
 20
22.7976145468
 30
0.0
 10
124.0973732617
 20
22.7976145468
 30
0.0
 10
123.4518762909
 20
22.7976145468
 30
0.0
 10
123.4518762909
 20
22.7976145468
 30
0.0
  0
SPLINE
  5
252
100
AcDbEntity
  8
0
100
AcDbSpline
 62
7
  6
CONTINUOUS
 70
2
 71
3
 72
20
 73
16
 74
0
 42
0.0000001
 43
0.0000001
 44
0.0000000001
 40
0.0
 40
0.0
 40
0.0
 40
0.0
 40
1.0
 40
1.0
 40
1.0
 40
2.0
 40
2.0
 40
2.0
 40
3.0
 40
3.0
 40
3.0
 40
4.0
 40
4.0
 40
4.0
 40
5.0
 40
5.0
 40
5.0
 40
5.0
 10
126.3430693923
 20
23.006979062
 30
0.0
 10
126.3430693923
 20
23.006979062
 30
0.0
 10
126.7542089589
 20
22.5045042256
 30
0.0
 10
126.7542089589
 20
22.5045042256
 30
0.0
 10
126.6381425059
 20
22.388830331
 30
0.0
 10
126.5003544843
 20
22.2585009203
 30
0.0
 10
126.3284138763
 20
22.2585009203
 30
0.0
 10
126.1509774497
 20
22.2585009203
 30
0.0
 10
125.9834858375
 20
22.4228520647
 30
0.0
 10
125.9834858375
 20
22.59976508
 30
0.0
 10
125.9834858375
 20
22.7777249179
 30
0.0
 10
126.1932429112
 20
22.9038670383
 30
0.0
 10
126.3208244126
 20
22.9918001346
 30
0.0
 10
126.3208244126
 20
22.9918001346
 30
0.0
 10
126.3430693923
 20
23.006979062
 30
0.0
 10
126.3430693923
 20
23.006979062
 30
0.0
  0
SPLINE
  5
253
100
AcDbEntity
  8
0
100
AcDbSpline
 62
7
  6
CONTINUOUS
 70
2
 71
3
 72
23
 73
19
 74
0
 42
0.0000001
 43
0.0000001
 44
0.0000000001
 40
0.0
 40
0.0
 40
0.0
 40
0.0
 40
1.0
 40
1.0
 40
1.0
 40
2.0
 40
2.0
 40
2.0
 40
3.0
 40
3.0
 40
3.0
 40
4.0
 40
4.0
 40
4.0
 40
5.0
 40
5.0
 40
5.0
 40
6.0
 40
6.0
 40
6.0
 40
6.0
 10
126.3924009062
 20
23.297995738
 30
0.0
 10
126.3924009062
 20
23.297995738
 30
0.0
 10
126.3307692271
 20
23.3765074312
 30
0.0
 10
126.3307692271
 20
23.3765074312
 30
0.0
 10
126.2768578644
 20
23.4450743099
 30
0.0
 10
126.2200677397
 20
23.5141645999
 30
0.0
 10
126.2200677397
 20
23.6078552205
 30
0.0
 10
126.2200677397
 20
23.7266695828
 30
0.0
 10
126.3159828582
 20
23.8041344534
 30
0.0
 10
126.4269460512
 20
23.8041344534
 30
0.0
 10
126.5502094095
 20
23.8041344534
 30
0.0
 10
126.6435074716
 20
23.7329505183
 30
0.0
 10
126.6435074716
 20
23.6026211076
 30
0.0
 10
126.6435074716
 20
23.4675809953
 30
0.0
 10
126.5154025588
 20
23.3911629473
 30
0.0
 10
126.4218427911
 20
23.3173619557
 30
0.0
 10
126.4218427911
 20
23.3173619557
 30
0.0
 10
126.3924009062
 20
23.297995738
 30
0.0
 10
126.3924009062
 20
23.297995738
 30
0.0
  0
SPLINE
  5
254
100
AcDbEntity
  8
0
100
AcDbSpline
 62
7
  6
CONTINUOUS
 70
2
 71
3
 72
50
 73
46
 74
0
 42
0.0000001
 43
0.0000001
 44
0.0000000001
 40
0.0
 40
0.0
 40
0.0
 40
0.0
 40
1.0
 40
1.0
 40
1.0
 40
2.0
 40
2.0
 40
2.0
 40
3.0
 40
3.0
 40
3.0
 40
4.0
 40
4.0
 40
4.0
 40
5.0
 40
5.0
 40
5.0
 40
6.0
 40
6.0
 40
6.0
 40
7.0
 40
7.0
 40
7.0
 40
8.0
 40
8.0
 40
8.0
 40
9.0
 40
9.0
 40
9.0
 40
10.0
 40
10.0
 40
10.0
 40
11.0
 40
11.0
 40
11.0
 40
12.0
 40
12.0
 40
12.0
 40
13.0
 40
13.0
 40
13.0
 40
14.0
 40
14.0
 40
14.0
 40
15.0
 40
15.0
 40
15.0
 40
15.0
 10
127.0945571489
 20
22.0910093082
 30
0.0
 10
127.0945571489
 20
22.0910093082
 30
0.0
 10
127.3799471536
 20
22.0910093082
 30
0.0
 10
127.3799471536
 20
22.0910093082
 30
0.0
 10
127.3799471536
 20
22.0910093082
 30
0.0
 10
127.0475809858
 20
22.5018871692
 30
0.0
 10
127.0475809858
 20
22.5018871692
 30
0.0
 10
127.0475809858
 20
22.5018871692
 30
0.0
 10
127.2740872206
 20
22.7677801034
 30
0.0
 10
127.2740872206
 20
22.7677801034
 30
0.0
 10
127.2740872206
 20
22.7677801034
 30
0.0
 10
127.1258309733
 20
22.9206161995
 30
0.0
 10
127.1258309733
 20
22.9206161995
 30
0.0
 10
127.1258309733
 20
22.9206161995
 30
0.0
 10
126.9099238171
 20
22.6693787813
 30
0.0
 10
126.9099238171
 20
22.6693787813
 30
0.0
 10
126.9099238171
 20
22.6693787813
 30
0.0
 10
126.5228611697
 20
23.1373084727
 30
0.0
 10
126.5228611697
 20
23.1373084727
 30
0.0
 10
126.6783143222
 20
23.2514121334
 30
0.0
 10
126.8605923032
 20
23.3911629473
 30
0.0
 10
126.8605923032
 20
23.6005274624
 30
0.0
 10
126.8605923032
 20
23.8444371226
 30
0.0
 10
126.6585555461
 20
23.9878518155
 30
0.0
 10
126.4320493113
 20
23.9878518155
 30
0.0
 10
126.1878779455
 20
23.9878518155
 30
0.0
 10
126.0035063193
 20
23.8371093645
 30
0.0
 10
126.0035063193
 20
23.5806378335
 30
0.0
 10
126.0035063193
 20
23.4230910358
 30
0.0
 10
126.1021693471
 20
23.2854338671
 30
0.0
 10
126.2075058688
 20
23.1744706741
 30
0.0
 10
126.2075058688
 20
23.1744706741
 30
0.0
 10
126.091962827
 20
23.090724868
 30
0.0
 10
126.091962827
 20
23.090724868
 30
0.0
 10
125.9142646947
 20
22.9624891025
 30
0.0
 10
125.7669244172
 20
22.8347767483
 30
0.0
 10
125.7669244172
 20
22.5976714349
 30
0.0
 10
125.7669244172
 20
22.2773437267
 30
0.0
 10
126.0254895934
 20
22.0512300503
 30
0.0
 10
126.3358724871
 20
22.0512300503
 30
0.0
 10
126.5547892583
 20
22.0512300503
 30
0.0
 10
126.751984461
 20
22.1763253481
 30
0.0
 10
126.8922586861
 20
22.3422467264
 30
0.0
 10
126.8922586861
 20
22.3422467264
 30
0.0
 10
127.0945571489
 20
22.0910093082
 30
0.0
 10
127.0945571489
 20
22.0910093082
 30
0.0
  0
LWPOLYLINE
  5
255
100
AcDbEntity
  8
0
100
AcDbPolyline
 62
7
  6
CONTINUOUS
 90
2
 70
0
 43
0.2
 10
129.0300012386
 20
23.9475491463
 10
128.7986534494
 20
23.9475491463
  0
LWPOLYLINE
  5
256
100
AcDbEntity
  8
0
100
AcDbPolyline
 62
7
  6
CONTINUOUS
 90
2
 70
0
 43
0.2
 10
128.7986534494
 20
23.9475491463
 10
128.7986534494
 20
22.0904858969
  0
LWPOLYLINE
  5
257
100
AcDbEntity
  8
0
100
AcDbPolyline
 62
7
  6
CONTINUOUS
 90
2
 70
0
 43
0.2
 10
128.7986534494
 20
22.0904858969
 10
129.5939769013
 20
22.0904858969
  0
LWPOLYLINE
  5
258
100
AcDbEntity
  8
0
100
AcDbPolyline
 62
7
  6
CONTINUOUS
 90
2
 70
0
 43
0.2
 10
129.5939769013
 20
22.0904858969
 10
129.5939769013
 20
22.3024674685
  0
LWPOLYLINE
  5
259
100
AcDbEntity
  8
0
100
AcDbPolyline
 62
7
  6
CONTINUOUS
 90
2
 70
0
 43
0.2
 10
129.5939769013
 20
22.3024674685
 10
129.0300012386
 20
22.3024674685
  0
LWPOLYLINE
  5
25A
100
AcDbEntity
  8
0
100
AcDbPolyline
 62
7
  6
CONTINUOUS
 90
2
 70
0
 43
0.2
 10
129.0300012386
 20
22.3024674685
 10
129.0300012386
 20
23.9475491463
  0
LWPOLYLINE
  5
25B
100
AcDbEntity
  8
0
100
AcDbPolyline
 62
7
  6
CONTINUOUS
 90
2
 70
0
 43
0.2
 10
131.2730803128
 20
23.2430375528
 10
131.0519390436
 20
23.2430375528
  0
LWPOLYLINE
  5
25C
100
AcDbEntity
  8
0
100
AcDbPolyline
 62
7
  6
CONTINUOUS
 90
2
 70
0
 43
0.2
 10
131.0519390436
 20
23.2430375528
 10
131.0519390436
 20
22.0910093082
  0
LWPOLYLINE
  5
25D
100
AcDbEntity
  8
0
100
AcDbPolyline
 62
7
  6
CONTINUOUS
 90
2
 70
0
 43
0.2
 10
131.0519390436
 20
22.0910093082
 10
131.2730803128
 20
22.0910093082
  0
LWPOLYLINE
  5
25E
100
AcDbEntity
  8
0
100
AcDbPolyline
 62
7
  6
CONTINUOUS
 90
2
 70
0
 43
0.2
 10
131.2730803128
 20
22.0910093082
 10
131.2730803128
 20
23.2430375528
  0
SPLINE
  5
25F
100
AcDbEntity
  8
0
100
AcDbSpline
 62
7
  6
CONTINUOUS
 70
2
 71
3
 72
17
 73
13
 74
0
 42
0.0000001
 43
0.0000001
 44
0.0000000001
 40
0.0
 40
0.0
 40
0.0
 40
0.0
 40
1.0
 40
1.0
 40
1.0
 40
2.0
 40
2.0
 40
2.0
 40
3.0
 40
3.0
 40
3.0
 40
4.0
 40
4.0
 40
4.0
 40
4.0
 10
131.162640531
 20
23.9255658722
 30
0.0
 10
131.0786330193
 20
23.9255658722
 30
0.0
 10
131.0100661406
 20
23.8564755822
 30
0.0
 10
131.0100661406
 20
23.770636131
 30
0.0
 10
131.0100661406
 20
23.6863669136
 30
0.0
 10
131.0786330193
 20
23.6204170914
 30
0.0
 10
131.162640531
 20
23.6204170914
 30
0.0
 10
131.2463863371
 20
23.6204170914
 30
0.0
 10
131.3152149214
 20
23.6863669136
 30
0.0
 10
131.3152149214
 20
23.770636131
 30
0.0
 10
131.3152149214
 20
23.8564755822
 30
0.0
 10
131.2463863371
 20
23.9255658722
 30
0.0
 10
131.162640531
 20
23.9255658722
 30
0.0
  0
SPLINE
  5
260
100
AcDbEntity
  8
0
100
AcDbSpline
 62
7
  6
CONTINUOUS
 70
2
 71
3
 72
17
 73
13
 74
0
 42
0.0000001
 43
0.0000001
 44
0.0000000001
 40
0.0
 40
0.0
 40
0.0
 40
0.0
 40
1.0
 40
1.0
 40
1.0
 40
2.0
 40
2.0
 40
2.0
 40
3.0
 40
3.0
 40
3.0
 40
4.0
 40
4.0
 40
4.0
 40
4.0
 10
133.4033642544
 20
22.2485561059
 30
0.0
 10
133.1693994087
 20
22.2485561059
 30
0.0
 10
133.039069998
 20
22.450592863
 30
0.0
 10
133.039069998
 20
22.6667617249
 30
0.0
 10
133.039069998
 20
22.8813603529
 30
0.0
 10
133.1748952272
 20
23.0802566423
 30
0.0
 10
133.4033642544
 20
23.0802566423
 30
0.0
 10
133.6428249186
 20
23.0802566423
 30
0.0
 10
133.7783884422
 20
22.8913051674
 30
0.0
 10
133.7783884422
 20
22.6667617249
 30
0.0
 10
133.7783884422
 20
22.4406480485
 30
0.0
 10
133.6451802694
 20
22.2485561059
 30
0.0
 10
133.4033642544
 20
22.2485561059
 30
0.0
  0
SPLINE
  5
261
100
AcDbEntity
  8
0
100
AcDbSpline
 62
7
  6
CONTINUOUS
 70
2
 71
3
 72
50
 73
46
 74
0
 42
0.0000001
 43
0.0000001
 44
0.0000000001
 40
0.0
 40
0.0
 40
0.0
 40
0.0
 40
1.0
 40
1.0
 40
1.0
 40
2.0
 40
2.0
 40
2.0
 40
3.0
 40
3.0
 40
3.0
 40
4.0
 40
4.0
 40
4.0
 40
5.0
 40
5.0
 40
5.0
 40
6.0
 40
6.0
 40
6.0
 40
7.0
 40
7.0
 40
7.0
 40
8.0
 40
8.0
 40
8.0
 40
9.0
 40
9.0
 40
9.0
 40
10.0
 40
10.0
 40
10.0
 40
11.0
 40
11.0
 40
11.0
 40
12.0
 40
12.0
 40
12.0
 40
13.0
 40
13.0
 40
13.0
 40
14.0
 40
14.0
 40
14.0
 40
15.0
 40
15.0
 40
15.0
 40
15.0
 10
133.9874912517
 20
23.2435609641
 30
0.0
 10
133.9874912517
 20
23.2435609641
 30
0.0
 10
133.7658265712
 20
23.2435609641
 30
0.0
 10
133.7658265712
 20
23.2435609641
 30
0.0
 10
133.7658265712
 20
23.2435609641
 30
0.0
 10
133.7658265712
 20
23.0462349086
 30
0.0
 10
133.7658265712
 20
23.0462349086
 30
0.0
 10
133.7658265712
 20
23.0462349086
 30
0.0
 10
133.7611158697
 20
23.0462349086
 30
0.0
 10
133.7611158697
 20
23.0462349086
 30
0.0
 10
133.6697805999
 20
23.1891261902
 30
0.0
 10
133.5318617256
 20
23.2775826978
 30
0.0
 10
133.3591360006
 20
23.2775826978
 30
0.0
 10
133.0267698328
 20
23.2775826978
 30
0.0
 10
132.8176670233
 20
22.9897064895
 30
0.0
 10
132.8176670233
 20
22.6740894829
 30
0.0
 10
132.8176670233
 20
22.3443403715
 30
0.0
 10
133.0147313732
 20
22.0512300503
 30
0.0
 10
133.3696042263
 20
22.0512300503
 30
0.0
 10
133.5318617256
 20
22.0512300503
 30
0.0
 10
133.6718742451
 20
22.139686558
 30
0.0
 10
133.7611158697
 20
22.27053938
 30
0.0
 10
133.7611158697
 20
22.27053938
 30
0.0
 10
133.7658265712
 20
22.27053938
 30
0.0
 10
133.7658265712
 20
22.27053938
 30
0.0
 10
133.7658265712
 20
22.27053938
 30
0.0
 10
133.7658265712
 20
22.0512300503
 30
0.0
 10
133.7658265712
 20
22.0512300503
 30
0.0
 10
133.7658265712
 20
21.8146481482
 30
0.0
 10
133.7092981522
 20
21.6277903184
 30
0.0
 10
133.4360774599
 20
21.6277903184
 30
0.0
 10
133.2337789971
 20
21.6277903184
 30
0.0
 10
133.0911494212
 20
21.7460812695
 30
0.0
 10
133.0911494212
 20
21.9523053169
 30
0.0
 10
133.0911494212
 20
21.9523053169
 30
0.0
 10
132.8694847408
 20
21.9523053169
 30
0.0
 10
132.8694847408
 20
21.9523053169
 30
0.0
 10
132.874457148
 20
21.6277903184
 30
0.0
 10
133.1055432316
 20
21.4309876742
 30
0.0
 10
133.4258709398
 20
21.4309876742
 30
0.0
 10
133.8739110022
 20
21.4309876742
 30
0.0
 10
133.9874912517
 20
21.7162468261
 30
0.0
 10
133.9874912517
 20
22.1129925823
 30
0.0
 10
133.9874912517
 20
22.1129925823
 30
0.0
 10
133.9874912517
 20
23.2435609641
 30
0.0
 10
133.9874912517
 20
23.2435609641
 30
0.0
  0
SPLINE
  5
262
100
AcDbEntity
  8
0
100
AcDbSpline
 62
7
  6
CONTINUOUS
 70
2
 71
3
 72
44
 73
40
 74
0
 42
0.0000001
 43
0.0000001
 44
0.0000000001
 40
0.0
 40
0.0
 40
0.0
 40
0.0
 40
1.0
 40
1.0
 40
1.0
 40
2.0
 40
2.0
 40
2.0
 40
3.0
 40
3.0
 40
3.0
 40
4.0
 40
4.0
 40
4.0
 40
5.0
 40
5.0
 40
5.0
 40
6.0
 40
6.0
 40
6.0
 40
7.0
 40
7.0
 40
7.0
 40
8.0
 40
8.0
 40
8.0
 40
9.0
 40
9.0
 40
9.0
 40
10.0
 40
10.0
 40
10.0
 40
11.0
 40
11.0
 40
11.0
 40
12.0
 40
12.0
 40
12.0
 40
13.0
 40
13.0
 40
13.0
 40
13.0
 10
135.556416587
 20
24.2286210079
 30
0.0
 10
135.556416587
 20
24.2286210079
 30
0.0
 10
135.556416587
 20
22.0904858969
 30
0.0
 10
135.556416587
 20
22.0904858969
 30
0.0
 10
135.556416587
 20
22.0904858969
 30
0.0
 10
135.7778195618
 20
22.0904858969
 30
0.0
 10
135.7778195618
 20
22.0904858969
 30
0.0
 10
135.7778195618
 20
22.0904858969
 30
0.0
 10
135.7778195618
 20
22.6201781203
 30
0.0
 10
135.7778195618
 20
22.6201781203
 30
0.0
 10
135.7778195618
 20
22.8300660467
 30
0.0
 10
135.7778195618
 20
23.0807800536
 30
0.0
 10
136.0630787137
 20
23.0807800536
 30
0.0
 10
136.289977507
 20
23.0807800536
 30
0.0
 10
136.3169331883
 20
22.9478335865
 30
0.0
 10
136.3169331883
 20
22.7515543535
 30
0.0
 10
136.3169331883
 20
22.7515543535
 30
0.0
 10
136.3169331883
 20
22.0904858969
 30
0.0
 10
136.3169331883
 20
22.0904858969
 30
0.0
 10
136.3169331883
 20
22.0904858969
 30
0.0
 10
136.5388595744
 20
22.0904858969
 30
0.0
 10
136.5388595744
 20
22.0904858969
 30
0.0
 10
136.5388595744
 20
22.0904858969
 30
0.0
 10
136.5388595744
 20
22.7777249179
 30
0.0
 10
136.5388595744
 20
22.7777249179
 30
0.0
 10
136.5388595744
 20
23.0582733682
 30
0.0
 10
136.4548520627
 20
23.2781061091
 30
0.0
 10
136.1298136529
 20
23.2781061091
 30
0.0
 10
135.990062839
 20
23.2781061091
 30
0.0
 10
135.8518822591
 20
23.2116328755
 30
0.0
 10
135.7825302634
 20
23.0886312229
 30
0.0
 10
135.7825302634
 20
23.0886312229
 30
0.0
 10
135.7778195618
 20
23.0886312229
 30
0.0
 10
135.7778195618
 20
23.0886312229
 30
0.0
 10
135.7778195618
 20
23.0886312229
 30
0.0
 10
135.7778195618
 20
24.2286210079
 30
0.0
 10
135.7778195618
 20
24.2286210079
 30
0.0
 10
135.7778195618
 20
24.2286210079
 30
0.0
 10
135.556416587
 20
24.2286210079
 30
0.0
 10
135.556416587
 20
24.2286210079
 30
0.0
  0
LWPOLYLINE
  5
263
100
AcDbEntity
  8
0
100
AcDbPolyline
 62
7
  6
CONTINUOUS
 90
2
 70
0
 43
0.2
 10
138.3786502512
 20
23.0362900941
 10
138.5950808188
 20
23.0362900941
  0
LWPOLYLINE
  5
264
100
AcDbEntity
  8
0
100
AcDbPolyline
 62
7
  6
CONTINUOUS
 90
2
 70
0
 43
0.2
 10
138.5950808188
 20
23.0362900941
 10
138.5950808188
 20
23.2430375528
  0
LWPOLYLINE
  5
265
100
AcDbEntity
  8
0
100
AcDbPolyline
 62
7
  6
CONTINUOUS
 90
2
 70
0
 43
0.2
 10
138.5950808188
 20
23.2430375528
 10
138.3786502512
 20
23.2430375528
  0
LWPOLYLINE
  5
266
100
AcDbEntity
  8
0
100
AcDbPolyline
 62
7
  6
CONTINUOUS
 90
2
 70
0
 43
0.2
 10
138.3786502512
 20
23.2430375528
 10
138.3786502512
 20
23.6837498572
  0
LWPOLYLINE
  5
267
100
AcDbEntity
  8
0
100
AcDbPolyline
 62
7
  6
CONTINUOUS
 90
2
 70
0
 43
0.2
 10
138.3786502512
 20
23.6837498572
 10
138.1569855708
 20
23.6837498572
  0
LWPOLYLINE
  5
268
100
AcDbEntity
  8
0
100
AcDbPolyline
 62
7
  6
CONTINUOUS
 90
2
 70
0
 43
0.2
 10
138.1569855708
 20
23.6837498572
 10
138.1569855708
 20
23.2430375528
  0
LWPOLYLINE
  5
269
100
AcDbEntity
  8
0
100
AcDbPolyline
 62
7
  6
CONTINUOUS
 90
2
 70
0
 43
0.2
 10
138.1569855708
 20
23.2430375528
 10
138.036339269
 20
23.2430375528
  0
LWPOLYLINE
  5
26A
100
AcDbEntity
  8
0
100
AcDbPolyline
 62
7
  6
CONTINUOUS
 90
2
 70
0
 43
0.2
 10
138.036339269
 20
23.2430375528
 10
138.036339269
 20
23.0362900941
  0
LWPOLYLINE
  5
26B
100
AcDbEntity
  8
0
100
AcDbPolyline
 62
7
  6
CONTINUOUS
 90
2
 70
0
 43
0.2
 10
138.036339269
 20
23.0362900941
 10
138.1569855708
 20
23.0362900941
  0
LWPOLYLINE
  5
26C
100
AcDbEntity
  8
0
100
AcDbPolyline
 62
7
  6
CONTINUOUS
 90
2
 70
0
 43
0.2
 10
138.1569855708
 20
23.0362900941
 10
138.1569855708
 20
22.0904858969
  0
LWPOLYLINE
  5
26D
100
AcDbEntity
  8
0
100
AcDbPolyline
 62
7
  6
CONTINUOUS
 90
2
 70
0
 43
0.2
 10
138.1569855708
 20
22.0904858969
 10
138.3786502512
 20
22.0904858969
  0
LWPOLYLINE
  5
26E
100
AcDbEntity
  8
0
100
AcDbPolyline
 62
7
  6
CONTINUOUS
 90
2
 70
0
 43
0.2
 10
138.3786502512
 20
22.0904858969
 10
138.3786502512
 20
23.0362900941
  0
SPLINE
  5
26F
100
AcDbEntity
  8
0
100
AcDbSpline
 62
7
  6
CONTINUOUS
 70
2
 71
3
 72
20
 73
16
 74
0
 42
0.0000001
 43
0.0000001
 44
0.0000000001
 40
0.0
 40
0.0
 40
0.0
 40
0.0
 40
1.0
 40
1.0
 40
1.0
 40
2.0
 40
2.0
 40
2.0
 40
3.0
 40
3.0
 40
3.0
 40
4.0
 40
4.0
 40
4.0
 40
5.0
 40
5.0
 40
5.0
 40
5.0
 10
126.1606605585
 20
32.4514123403
 30
0.0
 10
126.1606605585
 20
32.4514123403
 30
0.0
 10
128.477017213
 20
29.6218509181
 30
0.0
 10
128.477017213
 20
29.6218509181
 30
0.0
 10
127.8253701596
 20
28.9696804534
 30
0.0
 10
127.0484969555
 20
28.2337641827
 30
0.0
 10
126.0773073109
 20
28.2337641827
 30
0.0
 10
125.0787694265
 20
28.2337641827
 30
0.0
 10
124.1354514329
 20
29.1633426299
 30
0.0
 10
124.1354514329
 20
30.1625347785
 30
0.0
 10
124.1354514329
 20
31.161726927
 30
0.0
 10
125.314304506
 20
31.8683321656
 30
0.0
 10
126.0358269663
 20
32.3681899455
 30
0.0
 10
126.0358269663
 20
32.3681899455
 30
0.0
 10
126.1606605585
 20
32.4514123403
 30
0.0
 10
126.1606605585
 20
32.4514123403
 30
0.0
  0
SPLINE
  5
270
100
AcDbEntity
  8
0
100
AcDbSpline
 62
7
  6
CONTINUOUS
 70
2
 71
3
 72
23
 73
19
 74
0
 42
0.0000001
 43
0.0000001
 44
0.0000000001
 40
0.0
 40
0.0
 40
0.0
 40
0.0
 40
1.0
 40
1.0
 40
1.0
 40
2.0
 40
2.0
 40
2.0
 40
3.0
 40
3.0
 40
3.0
 40
4.0
 40
4.0
 40
4.0
 40
5.0
 40
5.0
 40
5.0
 40
6.0
 40
6.0
 40
6.0
 40
6.0
 10
126.4380685411
 20
34.0891662601
 30
0.0
 10
126.4380685411
 20
34.0891662601
 30
0.0
 10
126.0915702685
 20
34.5324956209
 30
0.0
 10
126.0915702685
 20
34.5324956209
 30
0.0
 10
125.7857672236
 20
34.9206050908
 30
0.0
 10
125.4668788964
 20
35.3091071193
 30
0.0
 10
125.4668788964
 20
35.8360514333
 30
0.0
 10
125.4668788964
 20
36.50222315
 30
0.0
 10
126.0082170209
 20
36.9459450693
 30
0.0
 10
126.632123276
 20
36.9459450693
 30
0.0
 10
127.3259049381
 20
36.9459450693
 30
0.0
 10
127.8531109578
 20
36.5437034945
 30
0.0
 10
127.8531109578
 20
35.8087031935
 30
0.0
 10
127.8531109578
 20
35.045438683
 30
0.0
 10
127.1318502031
 20
34.6153254572
 30
0.0
 10
126.6047750363
 20
34.1996060418
 30
0.0
 10
126.6047750363
 20
34.1996060418
 30
0.0
 10
126.4380685411
 20
34.0891662601
 30
0.0
 10
126.4380685411
 20
34.0891662601
 30
0.0
  0
SPLINE
  5
271
100
AcDbEntity
  8
0
100
AcDbSpline
 62
7
  6
CONTINUOUS
 70
2
 71
3
 72
50
 73
46
 74
0
 42
0.0000001
 43
0.0000001
 44
0.0000000001
 40
0.0
 40
0.0
 40
0.0
 40
0.0
 40
1.0
 40
1.0
 40
1.0
 40
2.0
 40
2.0
 40
2.0
 40
3.0
 40
3.0
 40
3.0
 40
4.0
 40
4.0
 40
4.0
 40
5.0
 40
5.0
 40
5.0
 40
6.0
 40
6.0
 40
6.0
 40
7.0
 40
7.0
 40
7.0
 40
8.0
 40
8.0
 40
8.0
 40
9.0
 40
9.0
 40
9.0
 40
10.0
 40
10.0
 40
10.0
 40
11.0
 40
11.0
 40
11.0
 40
12.0
 40
12.0
 40
12.0
 40
13.0
 40
13.0
 40
13.0
 40
14.0
 40
14.0
 40
14.0
 40
15.0
 40
15.0
 40
15.0
 40
15.0
 10
130.391655704
 20
27.2905770419
 30
0.0
 10
130.391655704
 20
27.2905770419
 30
0.0
 10
132.0008837085
 20
27.2905770419
 30
0.0
 10
132.0008837085
 20
27.2905770419
 30
0.0
 10
132.0008837085
 20
27.2905770419
 30
0.0
 10
130.1278564149
 20
29.6077188133
 30
0.0
 10
130.1278564149
 20
29.6077188133
 30
0.0
 10
130.1278564149
 20
29.6077188133
 30
0.0
 10
131.4041948404
 20
31.1051985079
 30
0.0
 10
131.4041948404
 20
31.1051985079
 30
0.0
 10
131.4041948404
 20
31.1051985079
 30
0.0
 10
130.5719708927
 20
31.9662100765
 30
0.0
 10
130.5719708927
 20
31.9662100765
 30
0.0
 10
130.5719708927
 20
31.9662100765
 30
0.0
 10
129.3513757693
 20
30.5509059541
 30
0.0
 10
129.3513757693
 20
30.5509059541
 30
0.0
 10
129.3513757693
 20
30.5509059541
 30
0.0
 10
127.1734614005
 20
33.1862817885
 30
0.0
 10
127.1734614005
 20
33.1862817885
 30
0.0
 10
128.04703484
 20
33.8243201484
 30
0.0
 10
129.0737060811
 20
34.6153254572
 30
0.0
 10
129.0737060811
 20
35.7941785303
 30
0.0
 10
129.0737060811
 20
37.1678714553
 30
0.0
 10
127.9358099413
 20
37.9723546048
 30
0.0
 10
126.6605183384
 20
37.9723546048
 30
0.0
 10
125.287087119
 20
37.9723546048
 30
0.0
 10
124.2461529203
 20
37.1261294051
 30
0.0
 10
124.2461529203
 20
35.6834770429
 30
0.0
 10
124.2461529203
 20
34.7959023515
 30
0.0
 10
124.8014922967
 20
34.0190291475
 30
0.0
 10
125.3976577536
 20
33.3945994811
 30
0.0
 10
125.3976577536
 20
33.3945994811
 30
0.0
 10
124.7457489946
 20
32.9230059107
 30
0.0
 10
124.7457489946
 20
32.9230059107
 30
0.0
 10
123.7472111101
 20
32.201745156
 30
0.0
 10
122.9143328983
 20
31.4804844013
 30
0.0
 10
122.9143328983
 20
30.148926085
 30
0.0
 10
122.9143328983
 20
28.345250787
 30
0.0
 10
124.3713790709
 20
27.0686506559
 30
0.0
 10
126.1189185083
 20
27.0686506559
 30
0.0
 10
127.3537765892
 20
27.0686506559
 30
0.0
 10
128.4631468138
 20
27.7768261283
 30
0.0
 10
129.2540212698
 20
28.705357753
 30
0.0
 10
129.2540212698
 20
28.705357753
 30
0.0
 10
130.391655704
 20
27.2905770419
 30
0.0
 10
130.391655704
 20
27.2905770419
 30
0.0
  0
LINE
  5
272
100
AcDbEntity
  8
0
100
AcDbLine
 62
7
  6
CONTINUOUS
 10
116.194517079
 20
25.2644519466
 11
138.6084278066
 21
25.2644519466
  0
LINE
  5
273
100
AcDbEntity
  8
0
100
AcDbLine
 62
7
  6
CONTINUOUS
 10
138.6084278066
 20
25.2644519466
 11
138.6084278066
 21
47.6783626742
  0
LINE
  5
274
100
AcDbEntity
  8
0
100
AcDbLine
 62
7
  6
CONTINUOUS
 10
138.6084278066
 20
47.6783626742
 11
116.194517079
 21
47.6783626742
  0
LINE
  5
275
100
AcDbEntity
  8
0
100
AcDbLine
 62
7
  6
CONTINUOUS
 10
116.194517079
 20
47.6783626742
 11
116.194517079
 21
25.2644519466
  0
ENDBLK
  5
276
100
AcDbEntity
  8
0
  6
BYBLOCK
 62
0
100
AcDbBlockEnd
  0
BLOCK
  5
277
100
AcDbEntity
  8
0
100
AcDbBlockBegin
  2
_CLOSED
 70
64
 10
0.0
 20
0.0
  3
_CLOSED
  1

  0
LINE
  5
278
100
AcDbEntity
  8
0
  6
BYBLOCK
 62
0
100
AcDbLine
 10
0.0
 20
0.0
 11
-1.0
 21
0.2
  0
LINE
  5
279
100
AcDbEntity
  8
0
  6
BYBLOCK
 62
0
100
AcDbLine
 10
-1.0
 20
0.2
 11
-1.0
 21
-0.2
  0
LINE
  5
27A
100
AcDbEntity
  8
0
  6
BYBLOCK
 62
0
100
AcDbLine
 10
-1.0
 20
-0.2
 11
0.0
 21
0.0
  0
LINE
  5
27B
100
AcDbEntity
  8
0
  6
BYBLOCK
 62
0
100
AcDbLine
 10
-1.0
 20
0.0
 11
0.0
 21
0.0
  0
ENDBLK
  5
27C
100
AcDbEntity
  8
0
  6
BYBLOCK
 62
0
100
AcDbBlockEnd
  0
BLOCK
  5
27D
100
AcDbEntity
  8
0
100
AcDbBlockBegin
 62
2
  6
CONTINUOUS
  2
*D0
 70
65
 10
0.0
 20
0.0
  3
*D0
  1

  0
LINE
  5
27E
100
AcDbEntity
  8
0
100
AcDbLine
 62
2
  6
CONTINUOUS
 10
27.3029491161
 20
167.2425109134
 11
21.0435707549
 21
167.2425109134
  0
LINE
  5
27F
100
AcDbEntity
  8
0
100
AcDbLine
 62
2
  6
CONTINUOUS
 10
27.3029491161
 20
94.0217541456
 11
21.0435707549
 21
94.0217541456
  0
LINE
  5
280
100
AcDbEntity
  8
0
100
AcDbLine
 62
2
  6
CONTINUOUS
 10
21.7935707549
 20
167.2425109134
 11
21.7935707549
 21
130.6321325295
  0
LINE
  5
281
100
AcDbEntity
  8
0
100
AcDbLine
 62
2
  6
CONTINUOUS
 10
21.7935707549
 20
94.0217541456
 11
21.7935707549
 21
130.6321325295
  0
INSERT
  5
282
100
AcDbEntity
  8
0
100
AcDbBlockReference
 62
2
  6
CONTINUOUS
  2
_CLOSED
 10
21.7935707549
 20
167.2425109134
 41
2.5
 42
2.5
 43
2.5
 50
90.0
  0
INSERT
  5
283
100
AcDbEntity
  8
0
100
AcDbBlockReference
 62
2
  6
CONTINUOUS
  2
_CLOSED
 10
21.7935707549
 20
94.0217541456
 41
2.5
 42
2.5
 43
2.5
 50
270.0
  0
ENDBLK
  5
284
100
AcDbEntity
  8
0
  6
BYBLOCK
 62
0
100
AcDbBlockEnd
  0
BLOCK
  5
285
100
AcDbEntity
  8
0
100
AcDbBlockBegin
 62
2
  6
CONTINUOUS
  2
*D1
 70
65
 10
0.0
 20
0.0
  3
*D1
  1

  0
LINE
  5
286
100
AcDbEntity
  8
0
100
AcDbLine
 62
2
  6
CONTINUOUS
 10
95.7848240967
 20
172.6917659925
 11
95.7848240967
 21
179.4345591002
  0
LINE
  5
287
100
AcDbEntity
  8
0
100
AcDbLine
 62
2
  6
CONTINUOUS
 10
33.3640673289
 20
173.5902462773
 11
33.3640673289
 21
179.4345591002
  0
LINE
  5
288
100
AcDbEntity
  8
0
100
AcDbLine
 62
2
  6
CONTINUOUS
 10
95.7848240967
 20
178.6845591002
 11
64.5744457128
 21
178.6845591002
  0
LINE
  5
289
100
AcDbEntity
  8
0
100
AcDbLine
 62
2
  6
CONTINUOUS
 10
33.3640673289
 20
178.6845591002
 11
64.5744457128
 21
178.6845591002
  0
INSERT
  5
28A
100
AcDbEntity
  8
0
100
AcDbBlockReference
 62
2
  6
CONTINUOUS
  2
_CLOSED
 10
95.7848240967
 20
178.6845591002
 41
2.5
 42
2.5
 43
2.5
  0
INSERT
  5
28B
100
AcDbEntity
  8
0
100
AcDbBlockReference
 62
2
  6
CONTINUOUS
  2
_CLOSED
 10
33.3640673289
 20
178.6845591002
 41
2.5
 42
2.5
 43
2.5
 50
180.0
  0
ENDBLK
  5
28C
100
AcDbEntity
  8
0
  6
BYBLOCK
 62
0
100
AcDbBlockEnd
  0
BLOCK
  5
28D
100
AcDbEntity
  8
0
100
AcDbBlockBegin
 62
2
  6
CONTINUOUS
  2
*D2
 70
65
 10
0.0
 20
0.0
  3
*D2
  1

  0
LINE
  5
28E
100
AcDbEntity
  8
0
100
AcDbLine
 62
2
  6
CONTINUOUS
 10
27.3029491161
 20
212.1086154002
 11
21.0435707549
 21
212.1086154002
  0
LINE
  5
28F
100
AcDbEntity
  8
0
100
AcDbLine
 62
2
  6
CONTINUOUS
 10
27.3029491161
 20
247.8586154002
 11
21.0435707549
 21
247.8586154002
  0
LINE
  5
290
100
AcDbEntity
  8
0
100
AcDbLine
 62
2
  6
CONTINUOUS
 10
21.7935707549
 20
212.1086154002
 11
21.7935707549
 21
229.9836154002
  0
LINE
  5
291
100
AcDbEntity
  8
0
100
AcDbLine
 62
2
  6
CONTINUOUS
 10
21.7935707549
 20
247.8586154002
 11
21.7935707549
 21
229.9836154002
  0
INSERT
  5
292
100
AcDbEntity
  8
0
100
AcDbBlockReference
 62
2
  6
CONTINUOUS
  2
_CLOSED
 10
21.7935707549
 20
212.1086154002
 41
2.5
 42
2.5
 43
2.5
 50
270.0
  0
INSERT
  5
293
100
AcDbEntity
  8
0
100
AcDbBlockReference
 62
2
  6
CONTINUOUS
  2
_CLOSED
 10
21.7935707549
 20
247.8586154002
 41
2.5
 42
2.5
 43
2.5
 50
90.0
  0
ENDBLK
  5
294
100
AcDbEntity
  8
0
  6
BYBLOCK
 62
0
100
AcDbBlockEnd
  0
BLOCK
  5
295
100
AcDbEntity
  8
0
100
AcDbBlockBegin
 62
2
  6
CONTINUOUS
  2
*D3
 70
65
 10
0.0
 20
0.0
  3
*D3
  1

  0
LINE
  5
296
100
AcDbEntity
  8
0
100
AcDbLine
 62
2
  6
CONTINUOUS
 10
143.4906276129
 20
204.2212736052
 11
143.4906276129
 21
197.6218044082
  0
LINE
  5
297
100
AcDbEntity
  8
0
100
AcDbLine
 62
2
  6
CONTINUOUS
 10
116.280249229
 20
204.1879749191
 11
116.280249229
 21
197.6218044082
  0
LINE
  5
298
100
AcDbEntity
  8
0
100
AcDbLine
 62
2
  6
CONTINUOUS
 10
143.4906276129
 20
198.3718044082
 11
129.8854384209
 21
198.3718044082
  0
LINE
  5
299
100
AcDbEntity
  8
0
100
AcDbLine
 62
2
  6
CONTINUOUS
 10
116.280249229
 20
198.3718044082
 11
129.8854384209
 21
198.3718044082
  0
INSERT
  5
29A
100
AcDbEntity
  8
0
100
AcDbBlockReference
 62
2
  6
CONTINUOUS
  2
_CLOSED
 10
143.4906276129
 20
198.3718044082
 41
2.5
 42
2.5
 43
2.5
 50
0.0
  0
INSERT
  5
29B
100
AcDbEntity
  8
0
100
AcDbBlockReference
 62
2
  6
CONTINUOUS
  2
_CLOSED
 10
116.280249229
 20
198.3718044082
 41
2.5
 42
2.5
 43
2.5
 50
180.0
  0
ENDBLK
  5
29C
100
AcDbEntity
  8
0
  6
BYBLOCK
 62
0
100
AcDbBlockEnd
  0
BLOCK
  5
29D
100
AcDbEntity
  8
0
100
AcDbBlockBegin
  2
*T1
 70
1
 10
0.0
 20
0.0
  3
*T1
  1

  0
LINE
  5
29E
100
AcDbEntity
  8
0
100
AcDbLine
 62
2
  6
CONTINUOUS
 10
0.0
 20
0.0
 11
90.0
 21
0.0
  0
LINE
  5
29F
100
AcDbEntity
  8
0
100
AcDbLine
 62
2
  6
CONTINUOUS
 10
0.0
 20
0.0
 11
0.0
 21
-40.0
  0
LINE
  5
2A0
100
AcDbEntity
  8
0
100
AcDbLine
 62
2
  6
CONTINUOUS
 10
30.0
 20
-6.0
 11
90.0
 21
-6.0
  0
LINE
  5
2A1
100
AcDbEntity
  8
0
100
AcDbLine
 62
2
  6
CONTINUOUS
 10
30.0
 20
-12.0
 11
90.0
 21
-12.0
  0
LINE
  5
2A2
100
AcDbEntity
  8
0
100
AcDbLine
 62
2
  6
CONTINUOUS
 10
30.0
 20
-22.0
 11
90.0
 21
-22.0
  0
LINE
  5
2A3
100
AcDbEntity
  8
0
100
AcDbLine
 62
2
  6
CONTINUOUS
 10
0.0
 20
-27.0
 11
90.0
 21
-27.0
  0
LINE
  5
2A4
100
AcDbEntity
  8
0
100
AcDbLine
 62
2
  6
CONTINUOUS
 10
0.0
 20
-40.0
 11
90.0
 21
-40.0
  0
LINE
  5
2A5
100
AcDbEntity
  8
0
100
AcDbLine
 62
2
  6
CONTINUOUS
 10
30.0
 20
0.0
 11
30.0
 21
-27.0
  0
LINE
  5
2A6
100
AcDbEntity
  8
0
100
AcDbLine
 62
2
  6
CONTINUOUS
 10
70.0
 20
0.0
 11
70.0
 21
-12.0
  0
LINE
  5
2A7
100
AcDbEntity
  8
0
100
AcDbLine
 62
2
  6
CONTINUOUS
 10
90.0
 20
0.0
 11
90.0
 21
-40.0
  0
ENDBLK
  5
2A8
100
AcDbEntity
  8
0
100
AcDbBlockEnd
  0
ENDSEC
  0
SECTION
  2
ENTITIES
  0
DIMENSION
  5
2A9
100
AcDbEntity
  8
0
100
AcDbDimension
 62
2
  6
CONTINUOUS
  2
*D0
 10
21.7935707549
 20
94.0217541456
 11
21.0435707549
 21
128.3821325295
 70
160
 71
2
 42
73.2207567678
  3
DIMSTYLE_1
100
AcDbAlignedDimension
 13
27.3029491161
 23
167.2425109134
 14
27.3029491161
 24
94.0217541456
 50
270.0
100
AcDbRotatedDimension
  0
DIMENSION
  5
2AA
100
AcDbEntity
  8
0
100
AcDbDimension
 62
2
  6
CONTINUOUS
  2
*D1
 10
33.3640673289
 20
178.6845591002
 11
62.2173028557
 21
179.4345591002
 70
160
 71
2
 42
62.4207567678
  3
DIMSTYLE_1
100
AcDbAlignedDimension
 13
95.7848240967
 23
172.6917659925
 14
33.3640673289
 24
173.5902462773
 50
180.0
100
AcDbRotatedDimension
  0
DIMENSION
  5
2AB
100
AcDbEntity
  8
0
100
AcDbDimension
 62
2
  6
CONTINUOUS
  2
*D2
 10
21.7935707549
 20
247.8586154002
 11
21.0435707549
 21
227.7336154002
 70
160
 71
2
 42
35.75
  3
DIMSTYLE_1
100
AcDbAlignedDimension
 13
27.3029491161
 23
212.1086154002
 14
27.3029491161
 24
247.8586154002
 50
90.0
100
AcDbRotatedDimension
  0
DIMENSION
  5
2AC
100
AcDbEntity
  8
0
100
AcDbDimension
 62
2
  6
CONTINUOUS
  2
*D3
 10
116.280249229
 20
198.3718044082
 11
127.5282955638
 21
199.1218044082
 70
160
 71
2
 42
27.2103783839
  3
DIMSTYLE_2
100
AcDbAlignedDimension
 13
143.4906276129
 23
204.2212736052
 14
116.280249229
 24
204.1879749191
 50
180.0
100
AcDbRotatedDimension
  0
INSERT
  5
2AD
100
AcDbEntity
  8
0
100
AcDbBlockReference
 62
2
  6
CONTINUOUS
  2
LOGO2_BL0
 10
127.4014070164
 20
34.5546751742
  0
LWPOLYLINE
  5
2AE
100
AcDbEntity
  8
0
100
AcDbPolyline
 62
2
  6
CONTINUOUS
 90
6
 70
0
 10
145.062859375
 20
43.5546745605
 10
146.1342851563
 20
43.5546745605
 10
146.3485703125
 20
43.7689597168
 10
146.3485703125
 20
44.8403881836
 10
145.92
 20
45.2689584961
 10
145.4914296875
 20
45.2689584961
  0
LWPOLYLINE
  5
2AF
100
AcDbEntity
  8
0
100
AcDbPolyline
 62
2
  6
CONTINUOUS
 90
5
 70
0
 10
145.92
 20
45.2689584961
 10
146.27715625
 20
45.4832490234
 10
146.27715625
 20
46.1261044922
 10
145.92
 20
46.5546748047
 10
145.062859375
 20
46.5546748047
  0
LWPOLYLINE
  5
2B0
100
AcDbEntity
  8
0
100
AcDbPolyline
 62
2
  6
CONTINUOUS
 90
3
 70
0
 10
147.2057109375
 20
43.5546745605
 10
147.2057109375
 20
46.5546748047
 10
148.491421875
 20
46.5546748047
  0
LINE
  5
2B1
100
AcDbEntity
  8
0
100
AcDbLine
 62
2
  6
CONTINUOUS
 10
148.491421875
 20
45.2689584961
 11
147.2057109375
 21
45.2689584961
  0
LWPOLYLINE
  5
2B2
100
AcDbEntity
  8
0
100
AcDbPolyline
 62
2
  6
CONTINUOUS
 90
7
 70
0
 10
150.8485800781
 20
43.5546745605
 10
149.3485839844
 20
43.5546745605
 10
150.8485800781
 20
45.6975341797
 10
150.8485800781
 20
46.1261044922
 10
150.4200097656
 20
46.5546748047
 10
149.7771542969
 20
46.5546748047
 10
149.3485839844
 20
45.9118193359
  0
LINE
  5
2B3
100
AcDbEntity
  8
0
100
AcDbLine
 62
2
  6
CONTINUOUS
 10
151.7057207031
 20
43.5546745605
 11
153.4200019531
 21
43.5546745605
  0
LWPOLYLINE
  5
2B4
100
AcDbEntity
  8
0
100
AcDbPolyline
 62
2
  6
CONTINUOUS
 90
6
 70
0
 10
155.3485683594
 20
43.5546745605
 10
154.4914277344
 20
43.5546745605
 10
154.0628574219
 20
43.9832475586
 10
154.0628574219
 20
46.1261044922
 10
154.4914277344
 20
46.5546748047
 10
155.3485683594
 20
46.5546748047
  0
LINE
  5
2B5
100
AcDbEntity
  8
0
100
AcDbLine
 62
2
  6
CONTINUOUS
 10
156.5628652344
 20
43.5546745605
 11
158.2771464844
 21
43.5546745605
  0
LWPOLYLINE
  5
2B6
100
AcDbEntity
  8
0
100
AcDbPolyline
 62
2
  6
CONTINUOUS
 90
13
 70
0
 10
158.9200019531
 20
44.4118178711
 10
158.9200019531
 20
45.6975341797
 10
159.1342871094
 20
46.1261044922
 10
159.5628574219
 20
46.5546748047
 10
159.7771425781
 20
46.5546748047
 10
160.2057128906
 20
46.1261044922
 10
160.4199980469
 20
45.6975341797
 10
160.4199980469
 20
44.4118178711
 10
160.2057128906
 20
43.9832475586
 10
159.7771425781
 20
43.5546745605
 10
159.5628574219
 20
43.5546745605
 10
159.1342871094
 20
43.9832475586
 10
158.9200019531
 20
44.4118178711
  0
LWPOLYLINE
  5
2B7
100
AcDbEntity
  8
0
100
AcDbPolyline
 62
2
  6
CONTINUOUS
 90
7
 70
0
 10
162.77715625
 20
43.5546745605
 10
161.2771386719
 20
43.5546745605
 10
162.77715625
 20
45.6975341797
 10
162.77715625
 20
46.1261044922
 10
162.3485644531
 20
46.5546748047
 10
161.7057089844
 20
46.5546748047
 10
161.2771386719
 20
45.9118193359
  0
LWPOLYLINE
  5
2B8
100
AcDbEntity
  8
0
100
AcDbPolyline
 62
2
  6
CONTINUOUS
 90
3
 70
0
 10
163.634296875
 20
45.6975341797
 10
164.4914375
 20
46.5546748047
 10
164.4914375
 20
43.5546745605
  0
LWPOLYLINE
  5
2B9
100
AcDbEntity
  8
0
100
AcDbPolyline
 62
2
  6
CONTINUOUS
 90
7
 70
0
 10
185.0628554688
 20
42.8046765137
 10
185.0628554688
 20
46.3046772461
 10
186.312859375
 20
46.3046772461
 10
186.8128652344
 20
45.8046767578
 10
186.8128652344
 20
44.8046757813
 10
186.312859375
 20
44.304675293
 10
185.0628554688
 20
44.304675293
  0
LINE
  5
2BA
100
AcDbEntity
  8
0
100
AcDbLine
 62
2
  6
CONTINUOUS
 10
185.8128535156
 20
44.304675293
 11
186.8128652344
 21
42.8046765137
  0
LWPOLYLINE
  5
2BB
100
AcDbEntity
  8
0
100
AcDbPolyline
 62
2
  6
CONTINUOUS
 90
9
 70
0
 10
189.3128515625
 20
42.8046765137
 10
188.3128613281
 20
42.8046765137
 10
187.8128554688
 20
43.3046743164
 10
187.8128554688
 20
44.8046757813
 10
188.3128613281
 20
45.3046762695
 10
188.8128671875
 20
45.3046762695
 10
189.3128515625
 20
44.8046757813
 10
189.3128515625
 20
44.0546750488
 10
187.8128554688
 20
44.0546750488
  0
LWPOLYLINE
  5
2BC
100
AcDbEntity
  8
0
100
AcDbPolyline
 62
2
  6
CONTINUOUS
 90
3
 70
0
 10
190.3128632813
 20
45.3046762695
 10
191.0628613281
 20
42.8046765137
 10
191.812859375
 20
45.3046762695
  0
LWPOLYLINE
  5
2BD
100
AcDbEntity
  8
0
100
AcDbPolyline
 62
2
  6
CONTINUOUS
 90
4
 70
0
 10
192.8128496094
 20
42.8046765137
 10
192.8128496094
 20
43.0546740723
 10
192.9795253906
 20
43.0546740723
 10
192.8128496094
 20
42.8046765137
  0
LWPOLYLINE
  5
2BE
100
AcDbEntity
  8
0
100
AcDbPolyline
 62
2
  6
CONTINUOUS
 90
4
 70
0
 10
192.8128496094
 20
44.304675293
 10
192.8128496094
 20
44.5546755371
 10
192.9795253906
 20
44.5546755371
 10
192.8128496094
 20
44.304675293
  0
LWPOLYLINE
  5
2BF
100
AcDbEntity
  8
0
100
AcDbPolyline
 62
2
  6
CONTINUOUS
 90
13
 70
0
 10
194.0628535156
 20
43.8046748047
 10
194.0628535156
 20
45.3046762695
 10
194.3128671875
 20
45.8046767578
 10
194.8128515625
 20
46.3046772461
 10
195.0628652344
 20
46.3046772461
 10
195.5628496094
 20
45.8046767578
 10
195.8128632813
 20
45.3046762695
 10
195.8128632813
 20
43.8046748047
 10
195.5628496094
 20
43.3046743164
 10
195.0628652344
 20
42.8046765137
 10
194.8128515625
 20
42.8046765137
 10
194.3128671875
 20
43.3046743164
 10
194.0628535156
 20
43.8046748047
  0
LWPOLYLINE
  5
2C0
100
AcDbEntity
  8
0
100
AcDbPolyline
 62
2
  6
CONTINUOUS
 90
13
 70
0
 10
196.8128535156
 20
43.8046748047
 10
196.8128535156
 20
45.3046762695
 10
197.0628671875
 20
45.8046767578
 10
197.5628515625
 20
46.3046772461
 10
197.8128652344
 20
46.3046772461
 10
198.3128496094
 20
45.8046767578
 10
198.5628632813
 20
45.3046762695
 10
198.5628632813
 20
43.8046748047
 10
198.3128496094
 20
43.3046743164
 10
197.8128652344
 20
42.8046765137
 10
197.5628515625
 20
42.8046765137
 10
197.0628671875
 20
43.3046743164
 10
196.8128535156
 20
43.8046748047
  0
LWPOLYLINE
  5
2C1
100
AcDbEntity
  8
0
100
AcDbPolyline
 62
2
  6
CONTINUOUS
 90
10
 70
0
 10
145.062859375
 20
37.0546762695
 10
145.3128515625
 20
36.8046760254
 10
146.3128632813
 20
36.8046760254
 10
146.8128691406
 20
37.3046765137
 10
146.8128691406
 20
37.8046743164
 10
145.062859375
 20
39.3046757813
 10
145.062859375
 20
39.8046762695
 10
145.5628652344
 20
40.3046740723
 10
146.5628554688
 20
40.3046740723
 10
146.8128691406
 20
40.0546765137
  0
LWPOLYLINE
  5
2C2
100
AcDbEntity
  8
0
100
AcDbPolyline
 62
2
  6
CONTINUOUS
 90
6
 70
0
 10
149.0628632813
 20
36.8046760254
 10
148.0628515625
 20
36.8046760254
 10
147.812859375
 20
37.0546762695
 10
147.812859375
 20
39.0546755371
 10
148.0628515625
 20
39.3046757813
 10
149.0628632813
 20
39.3046757813
  0
LWPOLYLINE
  5
2C3
100
AcDbEntity
  8
0
100
AcDbPolyline
 62
2
  6
CONTINUOUS
 90
4
 70
0
 10
151.5628496094
 20
36.8046760254
 10
151.5628496094
 20
38.804675293
 10
151.3128574219
 20
39.3046757813
 10
150.0628535156
 20
39.3046757813
  0
LWPOLYLINE
  5
2C4
100
AcDbEntity
  8
0
100
AcDbPolyline
 62
2
  6
CONTINUOUS
 90
6
 70
0
 10
151.5628496094
 20
36.8046760254
 10
150.562859375
 20
36.8046760254
 10
150.0628535156
 20
37.0546762695
 10
150.0628535156
 20
37.8046743164
 10
150.562859375
 20
38.0546745605
 10
151.5628496094
 20
38.0546745605
  0
LWPOLYLINE
  5
2C5
100
AcDbEntity
  8
0
100
AcDbPolyline
 62
2
  6
CONTINUOUS
 90
4
 70
0
 10
153.312859375
 20
36.8046760254
 10
152.8128535156
 20
36.8046760254
 10
152.5628613281
 20
37.0546762695
 10
152.5628613281
 20
40.3046740723
  0
LWPOLYLINE
  5
2C6
100
AcDbEntity
  8
0
100
AcDbPolyline
 62
2
  6
CONTINUOUS
 90
9
 70
0
 10
155.8128671875
 20
36.8046760254
 10
154.8128554688
 20
36.8046760254
 10
154.3128496094
 20
37.3046765137
 10
154.3128496094
 20
38.804675293
 10
154.8128554688
 20
39.3046757813
 10
155.3128613281
 20
39.3046757813
 10
155.8128671875
 20
38.804675293
 10
155.8128671875
 20
38.0546745605
 10
154.3128496094
 20
38.0546745605
  0
LWPOLYLINE
  5
2C7
100
AcDbEntity
  8
0
100
AcDbPolyline
 62
2
  6
CONTINUOUS
 90
4
 70
0
 10
156.8128574219
 20
36.8046760254
 10
156.8128574219
 20
37.0546762695
 10
156.9795332031
 20
37.0546762695
 10
156.8128574219
 20
36.8046760254
  0
LWPOLYLINE
  5
2C8
100
AcDbEntity
  8
0
100
AcDbPolyline
 62
2
  6
CONTINUOUS
 90
4
 70
0
 10
156.8128574219
 20
38.3046748047
 10
156.8128574219
 20
38.5546750488
 10
156.9795332031
 20
38.5546750488
 10
156.8128574219
 20
38.3046748047
  0
LWPOLYLINE
  5
2C9
100
AcDbEntity
  8
0
100
AcDbPolyline
 62
2
  6
CONTINUOUS
 90
3
 70
0
 10
158.0628613281
 20
39.3046757813
 10
159.0628515625
 20
40.3046740723
 10
159.0628515625
 20
36.8046760254
  0
LWPOLYLINE
  5
2CA
100
AcDbEntity
  8
0
100
AcDbPolyline
 62
2
  6
CONTINUOUS
 90
4
 70
0
 10
160.0628632813
 20
36.8046760254
 10
160.0628632813
 20
37.0546762695
 10
160.2295175781
 20
37.0546762695
 10
160.0628632813
 20
36.8046760254
  0
LWPOLYLINE
  5
2CB
100
AcDbEntity
  8
0
100
AcDbPolyline
 62
2
  6
CONTINUOUS
 90
4
 70
0
 10
160.0628632813
 20
38.3046748047
 10
160.0628632813
 20
38.5546750488
 10
160.2295175781
 20
38.5546750488
 10
160.0628632813
 20
38.3046748047
  0
LWPOLYLINE
  5
2CC
100
AcDbEntity
  8
0
100
AcDbPolyline
 62
2
  6
CONTINUOUS
 90
3
 70
0
 10
161.3128671875
 20
39.3046757813
 10
162.3128574219
 20
40.3046740723
 10
162.3128574219
 20
36.8046760254
  0
LWPOLYLINE
  5
2CD
100
AcDbEntity
  8
0
100
AcDbPolyline
 62
2
  6
CONTINUOUS
 90
3
 70
0
 10
185.0628554688
 20
37.3046765137
 10
186.0628671875
 20
40.8046745605
 10
187.0628574219
 20
37.3046765137
  0
LINE
  5
2CE
100
AcDbEntity
  8
0
100
AcDbLine
 62
2
  6
CONTINUOUS
 10
185.3961855469
 20
38.3046748047
 11
186.7295273438
 21
38.3046748047
  0
LINE
  5
2CF
100
AcDbEntity
  8
0
100
AcDbLine
 62
2
  6
CONTINUOUS
 10
189.2295351563
 20
37.3046765137
 11
189.2295351563
 21
39.0546755371
  0
LWPOLYLINE
  5
2D0
100
AcDbEntity
  8
0
100
AcDbPolyline
 62
2
  6
CONTINUOUS
 90
3
 70
0
 10
189.8128574219
 20
38.0546745605
 10
188.0628691406
 20
38.0546745605
 10
188.8128671875
 20
40.8046745605
  0
LWPOLYLINE
  5
2D1
100
AcDbEntity
  8
0
100
AcDbPolyline
 62
2
  6
CONTINUOUS
 90
3
 70
0
 10
145.062859375
 20
32.8046748047
 10
145.062859375
 20
29.3046740723
 10
146.3128632813
 20
29.3046740723
  0
LWPOLYLINE
  5
2D2
100
AcDbEntity
  8
0
100
AcDbPolyline
 62
2
  6
CONTINUOUS
 90
3
 70
0
 10
147.3128535156
 20
32.8046748047
 10
148.3128652344
 20
31.3046760254
 10
148.3128652344
 20
29.3046740723
  0
LINE
  5
2D3
100
AcDbEntity
  8
0
100
AcDbLine
 62
2
  6
CONTINUOUS
 10
148.3128652344
 20
31.3046760254
 11
149.3128554688
 21
32.8046748047
  0
LWPOLYLINE
  5
2D4
100
AcDbEntity
  8
0
100
AcDbPolyline
 62
2
  6
CONTINUOUS
 90
10
 70
0
 10
150.3128671875
 20
29.5546743164
 10
150.562859375
 20
29.3046740723
 10
151.5628496094
 20
29.3046740723
 10
152.0628554688
 20
29.8046745605
 10
152.0628554688
 20
30.3046750488
 10
150.3128671875
 20
31.8046765137
 10
150.3128671875
 20
32.3046743164
 10
150.8128515625
 20
32.8046748047
 10
151.8128632813
 20
32.8046748047
 10
152.0628554688
 20
32.5546745605
  0
LWPOLYLINE
  5
2D5
100
AcDbEntity
  8
0
100
AcDbPolyline
 62
2
  6
CONTINUOUS
 90
10
 70
0
 10
153.0628671875
 20
29.5546743164
 10
153.312859375
 20
29.3046740723
 10
154.3128496094
 20
29.3046740723
 10
154.8128554688
 20
29.8046745605
 10
154.8128554688
 20
30.3046750488
 10
153.0628671875
 20
31.8046765137
 10
153.0628671875
 20
32.3046743164
 10
153.5628515625
 20
32.8046748047
 10
154.5628632813
 20
32.8046748047
 10
154.8128554688
 20
32.5546745605
  0
LWPOLYLINE
  5
2D6
100
AcDbEntity
  8
0
100
AcDbPolyline
 62
2
  6
CONTINUOUS
 90
5
 70
0
 10
158.5628671875
 20
29.3046740723
 10
158.5628671875
 20
32.8046748047
 10
159.5628574219
 20
30.8046755371
 10
160.5628691406
 20
32.8046748047
 10
160.5628691406
 20
29.3046740723
  0
LINE
  5
2D7
100
AcDbEntity
  8
0
100
AcDbLine
 62
2
  6
CONTINUOUS
 10
162.2295195313
 20
29.3046740723
 11
162.2295195313
 21
32.8046748047
  0
LWPOLYLINE
  5
2D8
100
AcDbEntity
  8
0
100
AcDbPolyline
 62
2
  6
CONTINUOUS
 90
4
 70
0
 10
163.8128535156
 20
29.3046740723
 10
163.8128535156
 20
32.8046748047
 10
165.5628632813
 20
29.3046740723
 10
165.5628632813
 20
32.8046748047
  0
LINE
  5
2D9
100
AcDbEntity
  8
0
100
AcDbLine
 62
2
  6
CONTINUOUS
 10
167.2295351563
 20
29.3046740723
 11
167.2295351563
 21
32.8046748047
  0
LWPOLYLINE
  5
2DA
100
AcDbEntity
  8
0
100
AcDbPolyline
 62
2
  6
CONTINUOUS
 90
7
 70
0
 10
145.062859375
 20
22.304675293
 10
145.062859375
 20
24.8046750488
 10
145.9557070313
 20
24.8046750488
 10
146.3128632813
 20
24.4475322266
 10
146.3128632813
 20
22.6618181152
 10
145.9557070313
 20
22.304675293
 10
145.062859375
 20
22.304675293
  0
LWPOLYLINE
  5
2DB
100
AcDbEntity
  8
0
100
AcDbPolyline
 62
2
  6
CONTINUOUS
 90
3
 70
0
 10
147.3247558594
 20
22.304675293
 10
148.039046875
 20
24.8046750488
 10
148.7533378906
 20
22.304675293
  0
LINE
  5
2DC
100
AcDbEntity
  8
0
100
AcDbLine
 62
2
  6
CONTINUOUS
 10
147.5628671875
 20
23.0189609375
 11
148.5152480469
 21
23.0189609375
  0
LINE
  5
2DD
100
AcDbEntity
  8
0
100
AcDbLine
 62
2
  6
CONTINUOUS
 10
150.1818984375
 20
22.304675293
 11
150.1818984375
 21
24.8046750488
  0
LINE
  5
2DE
100
AcDbEntity
  8
0
100
AcDbLine
 62
2
  6
CONTINUOUS
 10
149.4676289063
 20
24.8046750488
 11
150.8961894531
 21
24.8046750488
  0
LWPOLYLINE
  5
2DF
100
AcDbEntity
  8
0
100
AcDbPolyline
 62
2
  6
CONTINUOUS
 90
3
 70
0
 10
151.6104804688
 20
22.304675293
 10
151.6104804688
 20
24.8046750488
 10
152.68190625
 20
24.8046750488
  0
LINE
  5
2E0
100
AcDbEntity
  8
0
100
AcDbLine
 62
2
  6
CONTINUOUS
 10
152.3247714844
 20
23.733246582
 11
151.6104804688
 21
23.733246582
  0
LINE
  5
2E1
100
AcDbEntity
  8
0
100
AcDbLine
 62
2
  6
CONTINUOUS
 10
151.6104804688
 20
22.304675293
 11
152.68190625
 21
22.304675293
  0
LWPOLYLINE
  5
2E2
100
AcDbEntity
  8
0
100
AcDbPolyline
 62
2
  6
CONTINUOUS
 90
4
 70
0
 10
153.3961972656
 20
22.304675293
 10
153.3961972656
 20
22.4832467041
 10
153.5152421875
 20
22.4832467041
 10
153.3961972656
 20
22.304675293
  0
LWPOLYLINE
  5
2E3
100
AcDbEntity
  8
0
100
AcDbPolyline
 62
2
  6
CONTINUOUS
 90
4
 70
0
 10
153.3961972656
 20
23.3761037598
 10
153.3961972656
 20
23.5546765137
 10
153.5152421875
 20
23.5546765137
 10
153.3961972656
 20
23.3761037598
  0
LWPOLYLINE
  5
2E4
100
AcDbEntity
  8
0
100
AcDbPolyline
 62
2
  6
CONTINUOUS
 90
3
 70
0
 10
154.2890449219
 20
24.0903894043
 10
155.0033359375
 20
24.8046750488
 10
155.0033359375
 20
22.304675293
  0
LWPOLYLINE
  5
2E5
100
AcDbEntity
  8
0
100
AcDbPolyline
 62
2
  6
CONTINUOUS
 90
4
 70
0
 10
155.7176269531
 20
24.2689621582
 10
155.7176269531
 20
24.8046750488
 10
156.9676308594
 20
24.8046750488
 10
156.2533398438
 20
22.304675293
  0
LINE
  5
2E6
100
AcDbEntity
  8
0
100
AcDbLine
 62
2
  6
CONTINUOUS
 10
159.1104824219
 20
24.566579834
 11
157.6819003906
 21
22.3641990967
  0
LWPOLYLINE
  5
2E7
100
AcDbEntity
  8
0
100
AcDbPolyline
 62
2
  6
CONTINUOUS
 90
13
 70
0
 10
159.5866621094
 20
23.0189609375
 10
159.5866621094
 20
24.0903894043
 10
159.7652402344
 20
24.4475322266
 10
160.122375
 20
24.8046750488
 10
160.300953125
 20
24.8046750488
 10
160.6580878906
 20
24.4475322266
 10
160.8366660156
 20
24.0903894043
 10
160.8366660156
 20
23.0189609375
 10
160.6580878906
 20
22.6618181152
 10
160.300953125
 20
22.304675293
 10
160.122375
 20
22.304675293
 10
159.7652402344
 20
22.6618181152
 10
159.5866621094
 20
23.0189609375
  0
LWPOLYLINE
  5
2E8
100
AcDbEntity
  8
0
100
AcDbPolyline
 62
2
  6
CONTINUOUS
 90
8
 70
0
 10
161.5509570313
 20
22.304675293
 10
162.2652480469
 20
22.304675293
 10
162.6223828125
 20
22.6618181152
 10
162.6223828125
 20
23.3761037598
 10
162.2652480469
 20
23.733246582
 10
161.5509570313
 20
23.733246582
 10
161.5509570313
 20
24.8046750488
 10
162.6223828125
 20
24.8046750488
  0
LINE
  5
2E9
100
AcDbEntity
  8
0
100
AcDbLine
 62
2
  6
CONTINUOUS
 10
164.765234375
 20
24.566579834
 11
163.3366738281
 21
22.3641990967
  0
LWPOLYLINE
  5
2EA
100
AcDbEntity
  8
0
100
AcDbPolyline
 62
2
  6
CONTINUOUS
 90
3
 70
0
 10
165.2414355469
 20
24.0903894043
 10
165.9557265625
 20
24.8046750488
 10
165.9557265625
 20
22.304675293
  0
LWPOLYLINE
  5
2EB
100
AcDbEntity
  8
0
100
AcDbPolyline
 62
2
  6
CONTINUOUS
 90
4
 70
0
 10
166.6699960938
 20
24.2689621582
 10
166.6699960938
 20
24.8046750488
 10
167.92
 20
24.8046750488
 10
167.2057089844
 20
22.304675293
  0
LWPOLYLINE
  5
2EC
100
AcDbEntity
  8
0
100
AcDbPolyline
 62
2
  6
CONTINUOUS
 90
3
 70
0
 10
115.0628515625
 20
18.4921749268
 10
115.7057070313
 20
20.7421757813
 10
116.3485839844
 20
18.4921749268
  0
LINE
  5
2ED
100
AcDbEntity
  8
0
100
AcDbLine
 62
2
  6
CONTINUOUS
 10
115.2771367188
 20
19.1350317383
 11
116.1342988281
 21
19.1350317383
  0
LWPOLYLINE
  5
2EE
100
AcDbEntity
  8
0
100
AcDbPolyline
 62
2
  6
CONTINUOUS
 90
5
 70
0
 10
116.9914394531
 20
18.4921749268
 10
116.9914394531
 20
20.099317627
 10
117.7949980469
 20
20.099317627
 10
117.9557226563
 20
19.9386037598
 10
117.9557226563
 20
18.4921749268
  0
LWPOLYLINE
  5
2EF
100
AcDbEntity
  8
0
100
AcDbPolyline
 62
2
  6
CONTINUOUS
 90
3
 70
0
 10
118.598578125
 20
17.9564606934
 10
118.9200058594
 20
17.9564606934
 10
119.5628613281
 20
20.099317627
  0
LINE
  5
2F0
100
AcDbEntity
  8
0
100
AcDbLine
 62
2
  6
CONTINUOUS
 10
118.598578125
 20
20.099317627
 11
119.0807089844
 21
18.4921749268
  0
LINE
  5
2F1
100
AcDbEntity
  8
0
100
AcDbLine
 62
2
  6
CONTINUOUS
 10
122.0807226563
 20
18.4921749268
 11
122.0807226563
 21
20.099317627
  0
LWPOLYLINE
  5
2F2
100
AcDbEntity
  8
0
100
AcDbPolyline
 62
2
  6
CONTINUOUS
 90
4
 70
0
 10
122.0807226563
 20
20.5814605713
 10
122.0807226563
 20
20.7421757813
 10
122.1342832031
 20
20.7421757813
 10
122.0807226563
 20
20.5814605713
  0
LWPOLYLINE
  5
2F3
100
AcDbEntity
  8
0
100
AcDbPolyline
 62
2
  6
CONTINUOUS
 90
5
 70
0
 10
122.9378632813
 20
18.4921749268
 10
122.9378632813
 20
20.099317627
 10
123.741421875
 20
20.099317627
 10
123.9021464844
 20
19.9386037598
 10
123.9021464844
 20
18.4921749268
  0
LINE
  5
2F4
100
AcDbEntity
  8
0
100
AcDbLine
 62
2
  6
CONTINUOUS
 10
124.8128691406
 20
18.4921749268
 11
124.8128691406
 21
20.7421757813
  0
LINE
  5
2F5
100
AcDbEntity
  8
0
100
AcDbLine
 62
2
  6
CONTINUOUS
 10
124.5450019531
 20
20.099317627
 11
125.1878574219
 21
20.099317627
  0
LWPOLYLINE
  5
2F6
100
AcDbEntity
  8
0
100
AcDbPolyline
 62
2
  6
CONTINUOUS
 90
9
 70
0
 10
126.7949960938
 20
18.4921749268
 10
126.152140625
 20
18.4921749268
 10
125.8307128906
 20
18.8136040039
 10
125.8307128906
 20
19.7778898926
 10
126.152140625
 20
20.099317627
 10
126.4735683594
 20
20.099317627
 10
126.7949960938
 20
19.7778898926
 10
126.7949960938
 20
19.2957469482
 10
125.8307128906
 20
19.2957469482
  0
LWPOLYLINE
  5
2F7
100
AcDbEntity
  8
0
100
AcDbPolyline
 62
2
  6
CONTINUOUS
 90
9
 70
0
 10
127.4378515625
 20
17.9564606934
 10
128.2414316406
 20
17.9564606934
 10
128.40215625
 20
18.1707471924
 10
128.40215625
 20
20.099317627
 10
127.5985761719
 20
20.099317627
 10
127.4378515625
 20
19.9386037598
 10
127.4378515625
 20
18.6528887939
 10
127.5985761719
 20
18.4921749268
 10
128.40215625
 20
18.4921749268
  0
LWPOLYLINE
  5
2F8
100
AcDbEntity
  8
0
100
AcDbPolyline
 62
2
  6
CONTINUOUS
 90
5
 70
0
 10
129.0450117188
 20
18.4921749268
 10
129.0450117188
 20
20.099317627
 10
129.6878671875
 20
20.099317627
 10
129.7950097656
 20
19.9386037598
 10
129.7950097656
 20
19.6171746826
  0
LWPOLYLINE
  5
2F9
100
AcDbEntity
  8
0
100
AcDbPolyline
 62
2
  6
CONTINUOUS
 90
4
 70
0
 10
131.4557089844
 20
18.4921749268
 10
131.4557089844
 20
19.7778898926
 10
131.2950058594
 20
20.099317627
 10
130.4914257813
 20
20.099317627
  0
LWPOLYLINE
  5
2FA
100
AcDbEntity
  8
0
100
AcDbPolyline
 62
2
  6
CONTINUOUS
 90
6
 70
0
 10
131.4557089844
 20
18.4921749268
 10
130.8128535156
 20
18.4921749268
 10
130.4914257813
 20
18.6528887939
 10
130.4914257813
 20
19.1350317383
 10
130.8128535156
 20
19.2957469482
 10
131.4557089844
 20
19.2957469482
  0
LWPOLYLINE
  5
2FB
100
AcDbEntity
  8
0
100
AcDbPolyline
 62
2
  6
CONTINUOUS
 90
4
 70
0
 10
132.5807167969
 20
18.4921749268
 10
132.2592890625
 20
18.4921749268
 10
132.0985644531
 20
18.6528887939
 10
132.0985644531
 20
20.7421757813
  0
LWPOLYLINE
  5
2FC
100
AcDbEntity
  8
0
100
AcDbPolyline
 62
2
  6
CONTINUOUS
 90
9
 70
0
 10
134.9914355469
 20
18.8136040039
 10
134.9914355469
 20
19.7778898926
 10
135.3128632813
 20
20.099317627
 10
135.6342910156
 20
20.099317627
 10
135.95571875
 20
19.7778898926
 10
135.95571875
 20
18.8136040039
 10
135.6342910156
 20
18.4921749268
 10
135.3128632813
 20
18.4921749268
 10
134.9914355469
 20
18.8136040039
  0
LWPOLYLINE
  5
2FD
100
AcDbEntity
  8
0
100
AcDbPolyline
 62
2
  6
CONTINUOUS
 90
5
 70
0
 10
136.5985742188
 20
18.4921749268
 10
136.5985742188
 20
20.099317627
 10
137.2414296875
 20
20.099317627
 10
137.3485722656
 20
19.9386037598
 10
137.3485722656
 20
19.6171746826
  0
LWPOLYLINE
  5
2FE
100
AcDbEntity
  8
0
100
AcDbPolyline
 62
2
  6
CONTINUOUS
 90
7
 70
0
 10
139.8128515625
 20
17.9564606934
 10
139.8128515625
 20
20.099317627
 10
140.6164316406
 20
20.099317627
 10
140.77715625
 20
19.9386037598
 10
140.77715625
 20
18.6528887939
 10
140.6164316406
 20
18.4921749268
 10
139.8128515625
 20
18.4921749268
  0
LWPOLYLINE
  5
2FF
100
AcDbEntity
  8
0
100
AcDbPolyline
 62
2
  6
CONTINUOUS
 90
4
 70
0
 10
142.3842949219
 20
18.4921749268
 10
142.3842949219
 20
19.7778898926
 10
142.2235703125
 20
20.099317627
 10
141.4200117188
 20
20.099317627
  0
LWPOLYLINE
  5
300
100
AcDbEntity
  8
0
100
AcDbPolyline
 62
2
  6
CONTINUOUS
 90
6
 70
0
 10
142.3842949219
 20
18.4921749268
 10
141.7414394531
 20
18.4921749268
 10
141.4200117188
 20
18.6528887939
 10
141.4200117188
 20
19.1350317383
 10
141.7414394531
 20
19.2957469482
 10
142.3842949219
 20
19.2957469482
  0
LWPOLYLINE
  5
301
100
AcDbEntity
  8
0
100
AcDbPolyline
 62
2
  6
CONTINUOUS
 90
5
 70
0
 10
143.0271503906
 20
18.4921749268
 10
143.0271503906
 20
20.099317627
 10
143.6700058594
 20
20.099317627
 10
143.7771484375
 20
19.9386037598
 10
143.7771484375
 20
19.6171746826
  0
LINE
  5
302
100
AcDbEntity
  8
0
100
AcDbLine
 62
2
  6
CONTINUOUS
 10
144.7414316406
 20
18.4921749268
 11
144.7414316406
 21
20.7421757813
  0
LINE
  5
303
100
AcDbEntity
  8
0
100
AcDbLine
 62
2
  6
CONTINUOUS
 10
144.4735644531
 20
20.099317627
 11
145.1164414063
 21
20.099317627
  0
LINE
  5
304
100
AcDbEntity
  8
0
100
AcDbLine
 62
2
  6
CONTINUOUS
 10
146.0807246094
 20
18.4921749268
 11
146.0807246094
 21
20.099317627
  0
LWPOLYLINE
  5
305
100
AcDbEntity
  8
0
100
AcDbPolyline
 62
2
  6
CONTINUOUS
 90
4
 70
0
 10
146.0807246094
 20
20.5814605713
 10
146.0807246094
 20
20.7421757813
 10
146.1342851563
 20
20.7421757813
 10
146.0807246094
 20
20.5814605713
  0
LWPOLYLINE
  5
306
100
AcDbEntity
  8
0
100
AcDbPolyline
 62
2
  6
CONTINUOUS
 90
4
 70
0
 10
147.9021484375
 20
18.4921749268
 10
147.9021484375
 20
19.7778898926
 10
147.7414238281
 20
20.099317627
 10
146.9378652344
 20
20.099317627
  0
LWPOLYLINE
  5
307
100
AcDbEntity
  8
0
100
AcDbPolyline
 62
2
  6
CONTINUOUS
 90
6
 70
0
 10
147.9021484375
 20
18.4921749268
 10
147.2592929688
 20
18.4921749268
 10
146.9378652344
 20
18.6528887939
 10
146.9378652344
 20
19.1350317383
 10
147.2592929688
 20
19.2957469482
 10
147.9021484375
 20
19.2957469482
  0
LWPOLYLINE
  5
308
100
AcDbEntity
  8
0
100
AcDbPolyline
 62
2
  6
CONTINUOUS
 90
4
 70
0
 10
149.02715625
 20
18.4921749268
 10
148.7057070313
 20
18.4921749268
 10
148.5450039063
 20
18.6528887939
 10
148.5450039063
 20
20.7421757813
  0
LWPOLYLINE
  5
309
100
AcDbEntity
  8
0
100
AcDbPolyline
 62
2
  6
CONTINUOUS
 90
5
 70
0
 10
151.4378535156
 20
18.4921749268
 10
151.4378535156
 20
20.099317627
 10
152.0807089844
 20
20.099317627
 10
152.1878515625
 20
19.9386037598
 10
152.1878515625
 20
19.6171746826
  0
LWPOLYLINE
  5
30A
100
AcDbEntity
  8
0
100
AcDbPolyline
 62
2
  6
CONTINUOUS
 90
9
 70
0
 10
153.8485722656
 20
18.4921749268
 10
153.2057167969
 20
18.4921749268
 10
152.8842890625
 20
18.8136040039
 10
152.8842890625
 20
19.7778898926
 10
153.2057167969
 20
20.099317627
 10
153.5271445313
 20
20.099317627
 10
153.8485722656
 20
19.7778898926
 10
153.8485722656
 20
19.2957469482
 10
152.8842890625
 20
19.2957469482
  0
LWPOLYLINE
  5
30B
100
AcDbEntity
  8
0
100
AcDbPolyline
 62
2
  6
CONTINUOUS
 90
7
 70
0
 10
154.4914277344
 20
17.9564606934
 10
154.4914277344
 20
20.099317627
 10
155.2950078125
 20
20.099317627
 10
155.4557109375
 20
19.9386037598
 10
155.4557109375
 20
18.6528887939
 10
155.2950078125
 20
18.4921749268
 10
154.4914277344
 20
18.4921749268
  0
LWPOLYLINE
  5
30C
100
AcDbEntity
  8
0
100
AcDbPolyline
 62
2
  6
CONTINUOUS
 90
5
 70
0
 10
156.0985664063
 20
18.4921749268
 10
156.0985664063
 20
20.099317627
 10
156.741421875
 20
20.099317627
 10
156.8485644531
 20
19.9386037598
 10
156.8485644531
 20
19.6171746826
  0
LWPOLYLINE
  5
30D
100
AcDbEntity
  8
0
100
AcDbPolyline
 62
2
  6
CONTINUOUS
 90
9
 70
0
 10
157.5450019531
 20
18.8136040039
 10
157.5450019531
 20
19.7778898926
 10
157.8664296875
 20
20.099317627
 10
158.1878574219
 20
20.099317627
 10
158.5092851563
 20
19.7778898926
 10
158.5092851563
 20
18.8136040039
 10
158.1878574219
 20
18.4921749268
 10
157.8664296875
 20
18.4921749268
 10
157.5450019531
 20
18.8136040039
  0
LWPOLYLINE
  5
30E
100
AcDbEntity
  8
0
100
AcDbPolyline
 62
2
  6
CONTINUOUS
 90
7
 70
0
 10
160.1164238281
 20
20.7421757813
 10
160.1164238281
 20
18.4921749268
 10
159.4735683594
 20
18.4921749268
 10
159.152140625
 20
18.6528887939
 10
159.152140625
 20
19.9386037598
 10
159.4735683594
 20
20.099317627
 10
160.1164238281
 20
20.099317627
  0
LWPOLYLINE
  5
30F
100
AcDbEntity
  8
0
100
AcDbPolyline
 62
2
  6
CONTINUOUS
 90
5
 70
0
 10
160.7592792969
 20
20.099317627
 10
160.7592792969
 20
18.6528887939
 10
160.9200039063
 20
18.4921749268
 10
161.7235839844
 20
18.4921749268
 10
161.7235839844
 20
20.099317627
  0
LWPOLYLINE
  5
310
100
AcDbEntity
  8
0
100
AcDbPolyline
 62
2
  6
CONTINUOUS
 90
6
 70
0
 10
163.1699980469
 20
18.4921749268
 10
162.5271425781
 20
18.4921749268
 10
162.3664394531
 20
18.6528887939
 10
162.3664394531
 20
19.9386037598
 10
162.5271425781
 20
20.099317627
 10
163.1699980469
 20
20.099317627
  0
LINE
  5
311
100
AcDbEntity
  8
0
100
AcDbLine
 62
2
  6
CONTINUOUS
 10
164.0807207031
 20
18.4921749268
 11
164.0807207031
 21
20.7421757813
  0
LINE
  5
312
100
AcDbEntity
  8
0
100
AcDbLine
 62
2
  6
CONTINUOUS
 10
163.8128535156
 20
20.099317627
 11
164.4557089844
 21
20.099317627
  0
LINE
  5
313
100
AcDbEntity
  8
0
100
AcDbLine
 62
2
  6
CONTINUOUS
 10
165.4199921875
 20
18.4921749268
 11
165.4199921875
 21
20.099317627
  0
LWPOLYLINE
  5
314
100
AcDbEntity
  8
0
100
AcDbPolyline
 62
2
  6
CONTINUOUS
 90
4
 70
0
 10
165.4199921875
 20
20.5814605713
 10
165.4199921875
 20
20.7421757813
 10
165.4735742188
 20
20.7421757813
 10
165.4199921875
 20
20.5814605713
  0
LWPOLYLINE
  5
315
100
AcDbEntity
  8
0
100
AcDbPolyline
 62
2
  6
CONTINUOUS
 90
9
 70
0
 10
166.2771542969
 20
18.8136040039
 10
166.2771542969
 20
19.7778898926
 10
166.5985820313
 20
20.099317627
 10
166.9200097656
 20
20.099317627
 10
167.2414375
 20
19.7778898926
 10
167.2414375
 20
18.8136040039
 10
166.9200097656
 20
18.4921749268
 10
166.5985820313
 20
18.4921749268
 10
166.2771542969
 20
18.8136040039
  0
LWPOLYLINE
  5
316
100
AcDbEntity
  8
0
100
AcDbPolyline
 62
2
  6
CONTINUOUS
 90
5
 70
0
 10
167.8842929688
 20
18.4921749268
 10
167.8842929688
 20
20.099317627
 10
168.6878515625
 20
20.099317627
 10
168.8485761719
 20
19.9386037598
 10
168.8485761719
 20
18.4921749268
  0
LWPOLYLINE
  5
317
100
AcDbEntity
  8
0
100
AcDbPolyline
 62
2
  6
CONTINUOUS
 90
12
 70
0
 10
169.4914316406
 20
18.6528887939
 10
169.65215625
 20
18.4921749268
 10
170.2950117188
 20
18.4921749268
 10
170.4557148438
 20
18.6528887939
 10
170.4557148438
 20
19.1350317383
 10
170.2950117188
 20
19.2421756592
 10
169.65215625
 20
19.3493182373
 10
169.4914316406
 20
19.4564608154
 10
169.4914316406
 20
19.9386037598
 10
169.65215625
 20
20.099317627
 10
170.2950117188
 20
20.099317627
 10
170.4557148438
 20
19.9386037598
  0
LWPOLYLINE
  5
318
100
AcDbEntity
  8
0
100
AcDbPolyline
 62
2
  6
CONTINUOUS
 90
4
 70
0
 10
173.8307167969
 20
18.4921749268
 10
173.8307167969
 20
19.7778898926
 10
173.6699921875
 20
20.099317627
 10
172.8664335938
 20
20.099317627
  0
LWPOLYLINE
  5
319
100
AcDbEntity
  8
0
100
AcDbPolyline
 62
2
  6
CONTINUOUS
 90
6
 70
0
 10
173.8307167969
 20
18.4921749268
 10
173.1878613281
 20
18.4921749268
 10
172.8664335938
 20
18.6528887939
 10
172.8664335938
 20
19.1350317383
 10
173.1878613281
 20
19.2957469482
 10
173.8307167969
 20
19.2957469482
  0
LWPOLYLINE
  5
31A
100
AcDbEntity
  8
0
100
AcDbPolyline
 62
2
  6
CONTINUOUS
 90
5
 70
0
 10
174.4735722656
 20
18.4921749268
 10
174.4735722656
 20
20.099317627
 10
175.1164277344
 20
20.099317627
 10
175.2235703125
 20
19.9386037598
 10
175.2235703125
 20
19.6171746826
  0
LWPOLYLINE
  5
31B
100
AcDbEntity
  8
0
100
AcDbPolyline
 62
2
  6
CONTINUOUS
 90
9
 70
0
 10
176.8842910156
 20
18.4921749268
 10
176.2414355469
 20
18.4921749268
 10
175.9200078125
 20
18.8136040039
 10
175.9200078125
 20
19.7778898926
 10
176.2414355469
 20
20.099317627
 10
176.5628632813
 20
20.099317627
 10
176.8842910156
 20
19.7778898926
 10
176.8842910156
 20
19.2957469482
 10
175.9200078125
 20
19.2957469482
  0
LWPOLYLINE
  5
31C
100
AcDbEntity
  8
0
100
AcDbPolyline
 62
2
  6
CONTINUOUS
 90
7
 70
0
 10
179.2950097656
 20
17.9564606934
 10
179.2950097656
 20
20.099317627
 10
180.0985683594
 20
20.099317627
 10
180.2592929688
 20
19.9386037598
 10
180.2592929688
 20
18.6528887939
 10
180.0985683594
 20
18.4921749268
 10
179.2950097656
 20
18.4921749268
  0
LWPOLYLINE
  5
31D
100
AcDbEntity
  8
0
100
AcDbPolyline
 62
2
  6
CONTINUOUS
 90
5
 70
0
 10
180.9021484375
 20
18.4921749268
 10
180.9021484375
 20
20.099317627
 10
181.5450039063
 20
20.099317627
 10
181.6521464844
 20
19.9386037598
 10
181.6521464844
 20
19.6171746826
  0
LWPOLYLINE
  5
31E
100
AcDbEntity
  8
0
100
AcDbPolyline
 62
2
  6
CONTINUOUS
 90
9
 70
0
 10
182.3485839844
 20
18.8136040039
 10
182.3485839844
 20
19.7778898926
 10
182.6700117188
 20
20.099317627
 10
182.9914394531
 20
20.099317627
 10
183.3128671875
 20
19.7778898926
 10
183.3128671875
 20
18.8136040039
 10
182.9914394531
 20
18.4921749268
 10
182.6700117188
 20
18.4921749268
 10
182.3485839844
 20
18.8136040039
  0
LINE
  5
31F
100
AcDbEntity
  8
0
100
AcDbLine
 62
2
  6
CONTINUOUS
 10
183.9557226563
 20
18.4921749268
 11
183.9557226563
 21
20.7421757813
  0
LWPOLYLINE
  5
320
100
AcDbEntity
  8
0
100
AcDbPolyline
 62
2
  6
CONTINUOUS
 90
4
 70
0
 10
183.9557226563
 20
20.099317627
 10
184.75928125
 20
20.099317627
 10
184.9200058594
 20
19.9386037598
 10
184.9200058594
 20
18.4921749268
  0
LINE
  5
321
100
AcDbEntity
  8
0
100
AcDbLine
 62
2
  6
CONTINUOUS
 10
185.8842890625
 20
18.4921749268
 11
185.8842890625
 21
20.099317627
  0
LWPOLYLINE
  5
322
100
AcDbEntity
  8
0
100
AcDbPolyline
 62
2
  6
CONTINUOUS
 90
4
 70
0
 10
185.8842890625
 20
20.5814605713
 10
185.8842890625
 20
20.7421757813
 10
185.9378496094
 20
20.7421757813
 10
185.8842890625
 20
20.5814605713
  0
LINE
  5
323
100
AcDbEntity
  8
0
100
AcDbLine
 62
2
  6
CONTINUOUS
 10
186.7414296875
 20
18.4921749268
 11
186.7414296875
 21
20.7421757813
  0
LWPOLYLINE
  5
324
100
AcDbEntity
  8
0
100
AcDbPolyline
 62
2
  6
CONTINUOUS
 90
6
 70
0
 10
186.7414296875
 20
20.099317627
 10
187.5450097656
 20
20.099317627
 10
187.7057128906
 20
19.9386037598
 10
187.7057128906
 20
18.6528887939
 10
187.5450097656
 20
18.4921749268
 10
186.7414296875
 20
18.4921749268
  0
LINE
  5
325
100
AcDbEntity
  8
0
100
AcDbLine
 62
2
  6
CONTINUOUS
 10
188.6699960938
 20
18.4921749268
 11
188.6699960938
 21
20.099317627
  0
LWPOLYLINE
  5
326
100
AcDbEntity
  8
0
100
AcDbPolyline
 62
2
  6
CONTINUOUS
 90
4
 70
0
 10
188.6699960938
 20
20.5814605713
 10
188.6699960938
 20
20.7421757813
 10
188.723578125
 20
20.7421757813
 10
188.6699960938
 20
20.5814605713
  0
LINE
  5
327
100
AcDbEntity
  8
0
100
AcDbLine
 62
2
  6
CONTINUOUS
 10
189.7950039063
 20
18.4921749268
 11
189.7950039063
 21
20.7421757813
  0
LINE
  5
328
100
AcDbEntity
  8
0
100
AcDbLine
 62
2
  6
CONTINUOUS
 10
189.5271367188
 20
20.099317627
 11
190.1699921875
 21
20.099317627
  0
LWPOLYLINE
  5
329
100
AcDbEntity
  8
0
100
AcDbPolyline
 62
2
  6
CONTINUOUS
 90
9
 70
0
 10
191.7771523438
 20
18.4921749268
 10
191.134296875
 20
18.4921749268
 10
190.8128691406
 20
18.8136040039
 10
190.8128691406
 20
19.7778898926
 10
191.134296875
 20
20.099317627
 10
191.4557246094
 20
20.099317627
 10
191.7771523438
 20
19.7778898926
 10
191.7771523438
 20
19.2957469482
 10
190.8128691406
 20
19.2957469482
  0
LWPOLYLINE
  5
32A
100
AcDbEntity
  8
0
100
AcDbPolyline
 62
2
  6
CONTINUOUS
 90
7
 70
0
 10
193.3842910156
 20
20.7421757813
 10
193.3842910156
 20
18.4921749268
 10
192.7414355469
 20
18.4921749268
 10
192.4200078125
 20
18.6528887939
 10
192.4200078125
 20
19.9386037598
 10
192.7414355469
 20
20.099317627
 10
193.3842910156
 20
20.099317627
  0
LWPOLYLINE
  5
32B
100
AcDbEntity
  8
0
100
AcDbPolyline
 62
2
  6
CONTINUOUS
 90
5
 70
0
 10
115.0628515625
 20
16.7243183594
 10
115.491421875
 20
15.1171756592
 10
115.8664316406
 20
16.4028892822
 10
116.2414414063
 20
15.1171756592
 10
116.6700117188
 20
16.7243183594
  0
LINE
  5
32C
100
AcDbEntity
  8
0
100
AcDbLine
 62
2
  6
CONTINUOUS
 10
117.6342949219
 20
15.1171756592
 11
117.6342949219
 21
16.7243183594
  0
LWPOLYLINE
  5
32D
100
AcDbEntity
  8
0
100
AcDbPolyline
 62
2
  6
CONTINUOUS
 90
4
 70
0
 10
117.6342949219
 20
17.2064613037
 10
117.6342949219
 20
17.3671751709
 10
117.6878554688
 20
17.3671751709
 10
117.6342949219
 20
17.2064613037
  0
LINE
  5
32E
100
AcDbEntity
  8
0
100
AcDbLine
 62
2
  6
CONTINUOUS
 10
118.75928125
 20
15.1171756592
 11
118.75928125
 21
17.3671751709
  0
LINE
  5
32F
100
AcDbEntity
  8
0
100
AcDbLine
 62
2
  6
CONTINUOUS
 10
118.4914355469
 20
16.7243183594
 11
119.1342910156
 21
16.7243183594
  0
LINE
  5
330
100
AcDbEntity
  8
0
100
AcDbLine
 62
2
  6
CONTINUOUS
 10
119.7771464844
 20
15.1171756592
 11
119.7771464844
 21
17.3671751709
  0
LWPOLYLINE
  5
331
100
AcDbEntity
  8
0
100
AcDbPolyline
 62
2
  6
CONTINUOUS
 90
4
 70
0
 10
119.7771464844
 20
16.7243183594
 10
120.5807265625
 20
16.7243183594
 10
120.7414296875
 20
16.5636031494
 10
120.7414296875
 20
15.1171756592
  0
LWPOLYLINE
  5
332
100
AcDbEntity
  8
0
100
AcDbPolyline
 62
2
  6
CONTINUOUS
 90
9
 70
0
 10
121.3842851563
 20
15.4386033936
 10
121.3842851563
 20
16.4028892822
 10
121.7057128906
 20
16.7243183594
 10
122.027140625
 20
16.7243183594
 10
122.3485683594
 20
16.4028892822
 10
122.3485683594
 20
15.4386033936
 10
122.027140625
 20
15.1171756592
 10
121.7057128906
 20
15.1171756592
 10
121.3842851563
 20
15.4386033936
  0
LWPOLYLINE
  5
333
100
AcDbEntity
  8
0
100
AcDbPolyline
 62
2
  6
CONTINUOUS
 90
5
 70
0
 10
122.9914238281
 20
16.7243183594
 10
122.9914238281
 20
15.2778895264
 10
123.1521484375
 20
15.1171756592
 10
123.9557070313
 20
15.1171756592
 10
123.9557070313
 20
16.7243183594
  0
LINE
  5
334
100
AcDbEntity
  8
0
100
AcDbLine
 62
2
  6
CONTINUOUS
 10
124.8664296875
 20
15.1171756592
 11
124.8664296875
 21
17.3671751709
  0
LINE
  5
335
100
AcDbEntity
  8
0
100
AcDbLine
 62
2
  6
CONTINUOUS
 10
124.5985839844
 20
16.7243183594
 11
125.2414394531
 21
16.7243183594
  0
LWPOLYLINE
  5
336
100
AcDbEntity
  8
0
100
AcDbPolyline
 62
2
  6
CONTINUOUS
 90
7
 70
0
 10
127.6521367188
 20
14.5814614258
 10
127.6521367188
 20
16.7243183594
 10
128.4557167969
 20
16.7243183594
 10
128.6164414063
 20
16.5636031494
 10
128.6164414063
 20
15.2778895264
 10
128.4557167969
 20
15.1171756592
 10
127.6521367188
 20
15.1171756592
  0
LWPOLYLINE
  5
337
100
AcDbEntity
  8
0
100
AcDbPolyline
 62
2
  6
CONTINUOUS
 90
5
 70
0
 10
129.259296875
 20
15.1171756592
 10
129.259296875
 20
16.7243183594
 10
129.9021523438
 20
16.7243183594
 10
130.0092949219
 20
16.5636031494
 10
130.0092949219
 20
16.242175415
  0
LINE
  5
338
100
AcDbEntity
  8
0
100
AcDbLine
 62
2
  6
CONTINUOUS
 10
131.0271386719
 20
15.1171756592
 11
131.0271386719
 21
16.7243183594
  0
LWPOLYLINE
  5
339
100
AcDbEntity
  8
0
100
AcDbPolyline
 62
2
  6
CONTINUOUS
 90
4
 70
0
 10
131.0271386719
 20
17.2064613037
 10
131.0271386719
 20
17.3671751709
 10
131.0807207031
 20
17.3671751709
 10
131.0271386719
 20
17.2064613037
  0
LWPOLYLINE
  5
33A
100
AcDbEntity
  8
0
100
AcDbPolyline
 62
2
  6
CONTINUOUS
 90
9
 70
0
 10
131.8842792969
 20
15.4386033936
 10
131.8842792969
 20
16.4028892822
 10
132.2057070313
 20
16.7243183594
 10
132.52715625
 20
16.7243183594
 10
132.8485839844
 20
16.4028892822
 10
132.8485839844
 20
15.4386033936
 10
132.52715625
 20
15.1171756592
 10
132.2057070313
 20
15.1171756592
 10
131.8842792969
 20
15.4386033936
  0
LWPOLYLINE
  5
33B
100
AcDbEntity
  8
0
100
AcDbPolyline
 62
2
  6
CONTINUOUS
 90
5
 70
0
 10
133.4914394531
 20
15.1171756592
 10
133.4914394531
 20
16.7243183594
 10
134.1342949219
 20
16.7243183594
 10
134.2414375
 20
16.5636031494
 10
134.2414375
 20
16.242175415
  0
LWPOLYLINE
  5
33C
100
AcDbEntity
  8
0
100
AcDbPolyline
 62
2
  6
CONTINUOUS
 90
4
 70
0
 10
137.67
 20
15.1171756592
 10
137.67
 20
16.4028892822
 10
137.509296875
 20
16.7243183594
 10
136.7057167969
 20
16.7243183594
  0
LWPOLYLINE
  5
33D
100
AcDbEntity
  8
0
100
AcDbPolyline
 62
2
  6
CONTINUOUS
 90
6
 70
0
 10
137.67
 20
15.1171756592
 10
137.0271445313
 20
15.1171756592
 10
136.7057167969
 20
15.2778895264
 10
136.7057167969
 20
15.7600324707
 10
137.0271445313
 20
15.9207463379
 10
137.67
 20
15.9207463379
  0
LWPOLYLINE
  5
33E
100
AcDbEntity
  8
0
100
AcDbPolyline
 62
2
  6
CONTINUOUS
 90
5
 70
0
 10
138.3128554688
 20
16.7243183594
 10
138.3128554688
 20
15.2778895264
 10
138.4735800781
 20
15.1171756592
 10
139.2771386719
 20
15.1171756592
 10
139.2771386719
 20
16.7243183594
  0
LINE
  5
33F
100
AcDbEntity
  8
0
100
AcDbLine
 62
2
  6
CONTINUOUS
 10
140.1878613281
 20
15.1171756592
 11
140.1878613281
 21
17.3671751709
  0
LINE
  5
340
100
AcDbEntity
  8
0
100
AcDbLine
 62
2
  6
CONTINUOUS
 10
139.9199941406
 20
16.7243183594
 11
140.5628496094
 21
16.7243183594
  0
LINE
  5
341
100
AcDbEntity
  8
0
100
AcDbLine
 62
2
  6
CONTINUOUS
 10
141.2057265625
 20
15.1171756592
 11
141.2057265625
 21
17.3671751709
  0
LWPOLYLINE
  5
342
100
AcDbEntity
  8
0
100
AcDbPolyline
 62
2
  6
CONTINUOUS
 90
4
 70
0
 10
141.2057265625
 20
16.7243183594
 10
142.0092851563
 20
16.7243183594
 10
142.1700097656
 20
16.5636031494
 10
142.1700097656
 20
15.1171756592
  0
LWPOLYLINE
  5
343
100
AcDbEntity
  8
0
100
AcDbPolyline
 62
2
  6
CONTINUOUS
 90
9
 70
0
 10
142.8128652344
 20
15.4386033936
 10
142.8128652344
 20
16.4028892822
 10
143.1342929688
 20
16.7243183594
 10
143.4557207031
 20
16.7243183594
 10
143.7771484375
 20
16.4028892822
 10
143.7771484375
 20
15.4386033936
 10
143.4557207031
 20
15.1171756592
 10
143.1342929688
 20
15.1171756592
 10
142.8128652344
 20
15.4386033936
  0
LWPOLYLINE
  5
344
100
AcDbEntity
  8
0
100
AcDbPolyline
 62
2
  6
CONTINUOUS
 90
5
 70
0
 10
144.4200039063
 20
15.1171756592
 10
144.4200039063
 20
16.7243183594
 10
145.062859375
 20
16.7243183594
 10
145.1700019531
 20
16.5636031494
 10
145.1700019531
 20
16.242175415
  0
LINE
  5
345
100
AcDbEntity
  8
0
100
AcDbLine
 62
2
  6
CONTINUOUS
 10
146.1878671875
 20
15.1171756592
 11
146.1878671875
 21
16.7243183594
  0
LWPOLYLINE
  5
346
100
AcDbEntity
  8
0
100
AcDbPolyline
 62
2
  6
CONTINUOUS
 90
4
 70
0
 10
146.1878671875
 20
17.2064613037
 10
146.1878671875
 20
17.3671751709
 10
146.2414277344
 20
17.3671751709
 10
146.1878671875
 20
17.2064613037
  0
LWPOLYLINE
  5
347
100
AcDbEntity
  8
0
100
AcDbPolyline
 62
2
  6
CONTINUOUS
 90
12
 70
0
 10
147.0450078125
 20
15.2778895264
 10
147.2057109375
 20
15.1171756592
 10
147.8485664063
 20
15.1171756592
 10
148.0092910156
 20
15.2778895264
 10
148.0092910156
 20
15.7600324707
 10
147.8485664063
 20
15.8671750488
 10
147.2057109375
 20
15.974317627
 10
147.0450078125
 20
16.0814615479
 10
147.0450078125
 20
16.5636031494
 10
147.2057109375
 20
16.7243183594
 10
147.8485664063
 20
16.7243183594
 10
148.0092910156
 20
16.5636031494
  0
LWPOLYLINE
  5
348
100
AcDbEntity
  8
0
100
AcDbPolyline
 62
2
  6
CONTINUOUS
 90
4
 70
0
 10
149.6164296875
 20
15.1171756592
 10
149.6164296875
 20
16.4028892822
 10
149.4557265625
 20
16.7243183594
 10
148.6521464844
 20
16.7243183594
  0
LWPOLYLINE
  5
349
100
AcDbEntity
  8
0
100
AcDbPolyline
 62
2
  6
CONTINUOUS
 90
6
 70
0
 10
149.6164296875
 20
15.1171756592
 10
148.9735742188
 20
15.1171756592
 10
148.6521464844
 20
15.2778895264
 10
148.6521464844
 20
15.7600324707
 10
148.9735742188
 20
15.9207463379
 10
149.6164296875
 20
15.9207463379
  0
LINE
  5
34A
100
AcDbEntity
  8
0
100
AcDbLine
 62
2
  6
CONTINUOUS
 10
150.5271523438
 20
15.1171756592
 11
150.5271523438
 21
17.3671751709
  0
LINE
  5
34B
100
AcDbEntity
  8
0
100
AcDbLine
 62
2
  6
CONTINUOUS
 10
150.2592851563
 20
16.7243183594
 11
150.902140625
 21
16.7243183594
  0
LINE
  5
34C
100
AcDbEntity
  8
0
100
AcDbLine
 62
2
  6
CONTINUOUS
 10
151.8664238281
 20
15.1171756592
 11
151.8664238281
 21
16.7243183594
  0
LWPOLYLINE
  5
34D
100
AcDbEntity
  8
0
100
AcDbPolyline
 62
2
  6
CONTINUOUS
 90
4
 70
0
 10
151.8664238281
 20
17.2064613037
 10
151.8664238281
 20
17.3671751709
 10
151.9200058594
 20
17.3671751709
 10
151.8664238281
 20
17.2064613037
  0
LWPOLYLINE
  5
34E
100
AcDbEntity
  8
0
100
AcDbPolyline
 62
2
  6
CONTINUOUS
 90
9
 70
0
 10
152.7235644531
 20
15.4386033936
 10
152.7235644531
 20
16.4028892822
 10
153.0449921875
 20
16.7243183594
 10
153.3664414063
 20
16.7243183594
 10
153.6878691406
 20
16.4028892822
 10
153.6878691406
 20
15.4386033936
 10
153.3664414063
 20
15.1171756592
 10
153.0449921875
 20
15.1171756592
 10
152.7235644531
 20
15.4386033936
  0
LWPOLYLINE
  5
34F
100
AcDbEntity
  8
0
100
AcDbPolyline
 62
2
  6
CONTINUOUS
 90
5
 70
0
 10
154.3307246094
 20
15.1171756592
 10
154.3307246094
 20
16.7243183594
 10
155.1342832031
 20
16.7243183594
 10
155.2950078125
 20
16.5636031494
 10
155.2950078125
 20
15.1171756592
  0
LWPOLYLINE
  5
350
100
AcDbEntity
  8
0
100
AcDbPolyline
 62
2
  6
CONTINUOUS
 90
9
 70
0
 10
157.7057265625
 20
15.4386033936
 10
157.7057265625
 20
16.4028892822
 10
158.0271542969
 20
16.7243183594
 10
158.3485820313
 20
16.7243183594
 10
158.6700097656
 20
16.4028892822
 10
158.6700097656
 20
15.4386033936
 10
158.3485820313
 20
15.1171756592
 10
158.0271542969
 20
15.1171756592
 10
157.7057265625
 20
15.4386033936
  0
LWPOLYLINE
  5
351
100
AcDbEntity
  8
0
100
AcDbPolyline
 62
2
  6
CONTINUOUS
 90
4
 70
0
 10
159.5807109375
 20
15.1171756592
 10
159.5807109375
 20
17.2064613037
 10
159.7414355469
 20
17.3671751709
 10
160.0628632813
 20
17.3671751709
  0
LINE
  5
352
100
AcDbEntity
  8
0
100
AcDbLine
 62
2
  6
CONTINUOUS
 10
160.0628632813
 20
16.7243183594
 11
159.3128652344
 21
16.7243183594
  0
LWPOLYLINE
  5
353
100
AcDbEntity
  8
0
100
AcDbPolyline
 62
2
  6
CONTINUOUS
 90
3
 70
0
 10
162.3664394531
 20
17.3671751709
 10
162.3664394531
 20
15.1171756592
 10
163.1699980469
 20
15.1171756592
  0
LWPOLYLINE
  5
354
100
AcDbEntity
  8
0
100
AcDbPolyline
 62
2
  6
CONTINUOUS
 90
12
 70
0
 10
167.0271523438
 20
15.9207463379
 10
166.384296875
 20
15.1171756592
 10
165.9021445313
 20
15.1171756592
 10
165.5807167969
 20
15.4386033936
 10
165.5807167969
 20
15.9207463379
 10
166.7057246094
 20
16.7243183594
 10
166.7057246094
 20
17.0457460938
 10
166.384296875
 20
17.3671751709
 10
166.0628691406
 20
17.3671751709
 10
165.7414414063
 20
17.0457460938
 10
165.7414414063
 20
16.7243183594
 10
166.8664277344
 20
15.1171756592
  0
LWPOLYLINE
  5
355
100
AcDbEntity
  8
0
100
AcDbPolyline
 62
2
  6
CONTINUOUS
 90
3
 70
0
 10
169.4378496094
 20
17.3671751709
 10
169.4378496094
 20
15.1171756592
 10
170.2414296875
 20
15.1171756592
  0
LWPOLYLINE
  5
356
100
AcDbEntity
  8
0
100
AcDbPolyline
 62
2
  6
CONTINUOUS
 90
3
 70
0
 10
172.6521484375
 20
17.3671751709
 10
172.6521484375
 20
15.1171756592
 10
173.4557070313
 20
15.1171756592
  0
LWPOLYLINE
  5
357
100
AcDbEntity
  8
0
100
AcDbPolyline
 62
2
  6
CONTINUOUS
 90
5
 70
0
 10
174.0985839844
 20
16.7243183594
 10
174.0985839844
 20
15.2778895264
 10
174.2592871094
 20
15.1171756592
 10
175.0628671875
 20
15.1171756592
 10
175.0628671875
 20
16.7243183594
  0
LWPOLYLINE
  5
358
100
AcDbEntity
  8
0
100
AcDbPolyline
 62
2
  6
CONTINUOUS
 90
6
 70
0
 10
176.50928125
 20
15.1171756592
 10
175.8664257813
 20
15.1171756592
 10
175.7057226563
 20
15.2778895264
 10
175.7057226563
 20
16.5636031494
 10
175.8664257813
 20
16.7243183594
 10
176.50928125
 20
16.7243183594
  0
LWPOLYLINE
  5
359
100
AcDbEntity
  8
0
100
AcDbPolyline
 62
2
  6
CONTINUOUS
 90
9
 70
0
 10
178.1164414063
 20
15.1171756592
 10
177.4735644531
 20
15.1171756592
 10
177.1521367188
 20
15.4386033936
 10
177.1521367188
 20
16.4028892822
 10
177.4735644531
 20
16.7243183594
 10
177.7949921875
 20
16.7243183594
 10
178.1164414063
 20
16.4028892822
 10
178.1164414063
 20
15.9207463379
 10
177.1521367188
 20
15.9207463379
  0
LWPOLYLINE
  5
35A
100
AcDbEntity
  8
0
100
AcDbPolyline
 62
2
  6
CONTINUOUS
 90
12
 70
0
 10
181.9735742188
 20
15.9207463379
 10
181.33071875
 20
15.1171756592
 10
180.8485664063
 20
15.1171756592
 10
180.5271386719
 20
15.4386033936
 10
180.5271386719
 20
15.9207463379
 10
181.6521464844
 20
16.7243183594
 10
181.6521464844
 20
17.0457460938
 10
181.33071875
 20
17.3671751709
 10
181.0092910156
 20
17.3671751709
 10
180.6878632813
 20
17.0457460938
 10
180.6878632813
 20
16.7243183594
 10
181.8128496094
 20
15.1171756592
  0
LWPOLYLINE
  5
35B
100
AcDbEntity
  8
0
100
AcDbPolyline
 62
2
  6
CONTINUOUS
 90
3
 70
0
 10
184.3842929688
 20
17.3671751709
 10
184.3842929688
 20
15.1171756592
 10
185.1878515625
 20
15.1171756592
  0
LINE
  5
35C
100
AcDbEntity
  8
0
100
AcDbLine
 62
2
  6
CONTINUOUS
 10
186.15215625
 20
15.1171756592
 11
186.15215625
 21
16.7243183594
  0
LWPOLYLINE
  5
35D
100
AcDbEntity
  8
0
100
AcDbPolyline
 62
2
  6
CONTINUOUS
 90
4
 70
0
 10
186.15215625
 20
17.2064613037
 10
186.15215625
 20
17.3671751709
 10
186.2057167969
 20
17.3671751709
 10
186.15215625
 20
17.2064613037
  0
LWPOLYLINE
  5
35E
100
AcDbEntity
  8
0
100
AcDbPolyline
 62
2
  6
CONTINUOUS
 90
9
 70
0
 10
187.009296875
 20
14.5814614258
 10
187.8128554688
 20
14.5814614258
 10
187.9735800781
 20
14.795746582
 10
187.9735800781
 20
16.7243183594
 10
187.17
 20
16.7243183594
 10
187.009296875
 20
16.5636031494
 10
187.009296875
 20
15.2778895264
 10
187.17
 20
15.1171756592
 10
187.9735800781
 20
15.1171756592
  0
LINE
  5
35F
100
AcDbEntity
  8
0
100
AcDbLine
 62
2
  6
CONTINUOUS
 10
188.6164355469
 20
15.1171756592
 11
188.6164355469
 21
17.3671751709
  0
LWPOLYLINE
  5
360
100
AcDbEntity
  8
0
100
AcDbPolyline
 62
2
  6
CONTINUOUS
 90
4
 70
0
 10
188.6164355469
 20
16.7243183594
 10
189.4199941406
 20
16.7243183594
 10
189.58071875
 20
16.5636031494
 10
189.58071875
 20
15.1171756592
  0
LINE
  5
361
100
AcDbEntity
  8
0
100
AcDbLine
 62
2
  6
CONTINUOUS
 10
190.4914414063
 20
15.1171756592
 11
190.4914414063
 21
17.3671751709
  0
LINE
  5
362
100
AcDbEntity
  8
0
100
AcDbLine
 62
2
  6
CONTINUOUS
 10
190.2235742188
 20
16.7243183594
 11
190.8664296875
 21
16.7243183594
  0
LWPOLYLINE
  5
363
100
AcDbEntity
  8
0
100
AcDbPolyline
 62
2
  6
CONTINUOUS
 90
12
 70
0
 10
193.2771484375
 20
15.2778895264
 10
193.4378515625
 20
15.1171756592
 10
194.0807070313
 20
15.1171756592
 10
194.2414316406
 20
15.2778895264
 10
194.2414316406
 20
15.7600324707
 10
194.0807070313
 20
15.8671750488
 10
193.4378515625
 20
15.974317627
 10
193.2771484375
 20
16.0814615479
 10
193.2771484375
 20
16.5636031494
 10
193.4378515625
 20
16.7243183594
 10
194.0807070313
 20
16.7243183594
 10
194.2414316406
 20
16.5636031494
  0
LWPOLYLINE
  5
364
100
AcDbEntity
  8
0
100
AcDbPolyline
 62
2
  6
CONTINUOUS
 90
9
 70
0
 10
195.3664394531
 20
15.4921746826
 10
195.42
 20
15.3850321045
 10
195.42
 20
15.3314608154
 10
195.3664394531
 20
15.2243182373
 10
195.259296875
 20
15.2243182373
 10
195.2057148438
 20
15.3314608154
 10
195.2057148438
 20
15.3850321045
 10
195.259296875
 20
15.4921746826
 10
195.3664394531
 20
15.4921746826
  0
LWPOLYLINE
  5
365
100
AcDbEntity
  8
0
100
AcDbPolyline
 62
2
  6
CONTINUOUS
 90
5
 70
0
 10
196.1699980469
 20
15.1171756592
 10
196.1699980469
 20
16.7243183594
 10
196.8128535156
 20
16.7243183594
 10
196.9199960938
 20
16.5636031494
 10
196.9199960938
 20
16.242175415
  0
LWPOLYLINE
  5
366
100
AcDbEntity
  8
0
100
AcDbPolyline
 62
2
  6
CONTINUOUS
 90
9
 70
0
 10
198.0985644531
 20
15.4921746826
 10
198.1521464844
 20
15.3850321045
 10
198.1521464844
 20
15.3314608154
 10
198.0985644531
 20
15.2243182373
 10
197.991421875
 20
15.2243182373
 10
197.9378613281
 20
15.3314608154
 10
197.9378613281
 20
15.3850321045
 10
197.991421875
 20
15.4921746826
 10
198.0985644531
 20
15.4921746826
  0
LWPOLYLINE
  5
367
100
AcDbEntity
  8
0
100
AcDbPolyline
 62
2
  6
CONTINUOUS
 90
4
 70
0
 10
199.384296875
 20
15.1171756592
 10
199.0628691406
 20
15.1171756592
 10
198.9021445313
 20
15.2778895264
 10
198.9021445313
 20
17.3671751709
  0
LWPOLYLINE
  5
368
100
AcDbEntity
  8
0
100
AcDbPolyline
 62
2
  6
CONTINUOUS
 90
9
 70
0
 10
200.5092832031
 20
15.4921746826
 10
200.5628652344
 20
15.3850321045
 10
200.5628652344
 20
15.3314608154
 10
200.5092832031
 20
15.2243182373
 10
200.402140625
 20
15.2243182373
 10
200.3485800781
 20
15.3314608154
 10
200.3485800781
 20
15.3850321045
 10
200.402140625
 20
15.4921746826
 10
200.5092832031
 20
15.4921746826
  0
LWPOLYLINE
  5
369
100
AcDbEntity
  8
0
100
AcDbPolyline
 62
2
  6
CONTINUOUS
 90
10
 70
0
 10
201.7949941406
 20
15.4921746826
 10
201.8485761719
 20
15.3850321045
 10
201.8485761719
 20
15.3314608154
 10
201.7414335938
 20
15.2243182373
 10
201.6878515625
 20
15.2243182373
 10
201.6342910156
 20
15.2778895264
 10
201.6342910156
 20
15.3314608154
 10
201.6878515625
 20
15.4386033936
 10
201.7414335938
 20
15.4921746826
 10
201.7949941406
 20
15.4921746826
  0
LWPOLYLINE
  5
36A
100
AcDbEntity
  8
0
100
AcDbPolyline
 62
2
  6
CONTINUOUS
 90
3
 70
0
 10
201.8485761719
 20
15.3314608154
 10
201.7949941406
 20
15.1707469482
 10
201.6878515625
 20
14.9564604492
  0
LINE
  5
36B
100
AcDbEntity
  8
0
100
AcDbLine
 62
2
  6
CONTINUOUS
 10
115.3842792969
 20
11.7421750488
 11
115.3842792969
 21
13.349317749
  0
LWPOLYLINE
  5
36C
100
AcDbEntity
  8
0
100
AcDbPolyline
 62
2
  6
CONTINUOUS
 90
4
 70
0
 10
115.3842792969
 20
13.8314606934
 10
115.3842792969
 20
13.9921745605
 10
115.4378613281
 20
13.9921745605
 10
115.3842792969
 20
13.8314606934
  0
LWPOLYLINE
  5
36D
100
AcDbEntity
  8
0
100
AcDbPolyline
 62
2
  6
CONTINUOUS
 90
5
 70
0
 10
116.2414414063
 20
11.7421750488
 10
116.2414414063
 20
13.349317749
 10
117.045
 20
13.349317749
 10
117.2057246094
 20
13.1886038818
 10
117.2057246094
 20
11.7421750488
  0
LWPOLYLINE
  5
36E
100
AcDbEntity
  8
0
100
AcDbPolyline
 62
2
  6
CONTINUOUS
 90
4
 70
0
 10
120.5807265625
 20
11.7421750488
 10
120.5807265625
 20
13.0278900146
 10
120.4200019531
 20
13.349317749
 10
119.616421875
 20
13.349317749
  0
LWPOLYLINE
  5
36F
100
AcDbEntity
  8
0
100
AcDbPolyline
 62
2
  6
CONTINUOUS
 90
6
 70
0
 10
120.5807265625
 20
11.7421750488
 10
119.9378496094
 20
11.7421750488
 10
119.616421875
 20
11.902888916
 10
119.616421875
 20
12.3850318604
 10
119.9378496094
 20
12.5457470703
 10
120.5807265625
 20
12.5457470703
  0
LWPOLYLINE
  5
370
100
AcDbEntity
  8
0
100
AcDbPolyline
 62
2
  6
CONTINUOUS
 90
6
 70
0
 10
122.027140625
 20
11.7421750488
 10
121.3842851563
 20
11.7421750488
 10
121.2235820313
 20
11.902888916
 10
121.2235820313
 20
13.1886038818
 10
121.3842851563
 20
13.349317749
 10
122.027140625
 20
13.349317749
  0
LWPOLYLINE
  5
371
100
AcDbEntity
  8
0
100
AcDbPolyline
 62
2
  6
CONTINUOUS
 90
6
 70
0
 10
123.4735761719
 20
11.7421750488
 10
122.8307207031
 20
11.7421750488
 10
122.6699960938
 20
11.902888916
 10
122.6699960938
 20
13.1886038818
 10
122.8307207031
 20
13.349317749
 10
123.4735761719
 20
13.349317749
  0
LWPOLYLINE
  5
372
100
AcDbEntity
  8
0
100
AcDbPolyline
 62
2
  6
CONTINUOUS
 90
9
 70
0
 10
124.1164316406
 20
12.063604126
 10
124.1164316406
 20
13.0278900146
 10
124.437859375
 20
13.349317749
 10
124.7592871094
 20
13.349317749
 10
125.0807148438
 20
13.0278900146
 10
125.0807148438
 20
12.063604126
 10
124.7592871094
 20
11.7421750488
 10
124.437859375
 20
11.7421750488
 10
124.1164316406
 20
12.063604126
  0
LWPOLYLINE
  5
373
100
AcDbEntity
  8
0
100
AcDbPolyline
 62
2
  6
CONTINUOUS
 90
5
 70
0
 10
125.7235703125
 20
11.7421750488
 10
125.7235703125
 20
13.349317749
 10
126.3664257813
 20
13.349317749
 10
126.4735683594
 20
13.1886038818
 10
126.4735683594
 20
12.8671748047
  0
LWPOLYLINE
  5
374
100
AcDbEntity
  8
0
100
AcDbPolyline
 62
2
  6
CONTINUOUS
 90
7
 70
0
 10
128.1342890625
 20
13.9921745605
 10
128.1342890625
 20
11.7421750488
 10
127.4914335938
 20
11.7421750488
 10
127.1700058594
 20
11.902888916
 10
127.1700058594
 20
13.1886038818
 10
127.4914335938
 20
13.349317749
 10
128.1342890625
 20
13.349317749
  0
LWPOLYLINE
  5
375
100
AcDbEntity
  8
0
100
AcDbPolyline
 62
2
  6
CONTINUOUS
 90
4
 70
0
 10
129.7414277344
 20
11.7421750488
 10
129.7414277344
 20
13.0278900146
 10
129.5807246094
 20
13.349317749
 10
128.7771445313
 20
13.349317749
  0
LWPOLYLINE
  5
376
100
AcDbEntity
  8
0
100
AcDbPolyline
 62
2
  6
CONTINUOUS
 90
6
 70
0
 10
129.7414277344
 20
11.7421750488
 10
129.0985722656
 20
11.7421750488
 10
128.7771445313
 20
11.902888916
 10
128.7771445313
 20
12.3850318604
 10
129.0985722656
 20
12.5457470703
 10
129.7414277344
 20
12.5457470703
  0
LWPOLYLINE
  5
377
100
AcDbEntity
  8
0
100
AcDbPolyline
 62
2
  6
CONTINUOUS
 90
5
 70
0
 10
130.3842832031
 20
11.7421750488
 10
130.3842832031
 20
13.349317749
 10
131.1878632813
 20
13.349317749
 10
131.3485664063
 20
13.1886038818
 10
131.3485664063
 20
11.7421750488
  0
LWPOLYLINE
  5
378
100
AcDbEntity
  8
0
100
AcDbPolyline
 62
2
  6
CONTINUOUS
 90
6
 70
0
 10
132.7950019531
 20
11.7421750488
 10
132.1521464844
 20
11.7421750488
 10
131.991421875
 20
11.902888916
 10
131.991421875
 20
13.1886038818
 10
132.1521464844
 20
13.349317749
 10
132.7950019531
 20
13.349317749
  0
LWPOLYLINE
  5
379
100
AcDbEntity
  8
0
100
AcDbPolyline
 62
2
  6
CONTINUOUS
 90
9
 70
0
 10
134.402140625
 20
11.7421750488
 10
133.7592851563
 20
11.7421750488
 10
133.4378574219
 20
12.063604126
 10
133.4378574219
 20
13.0278900146
 10
133.7592851563
 20
13.349317749
 10
134.0807128906
 20
13.349317749
 10
134.402140625
 20
13.0278900146
 10
134.402140625
 20
12.5457470703
 10
133.4378574219
 20
12.5457470703
  0
LWPOLYLINE
  5
37A
100
AcDbEntity
  8
0
100
AcDbPolyline
 62
2
  6
CONTINUOUS
 90
5
 70
0
 10
136.812859375
 20
13.349317749
 10
137.2414296875
 20
11.7421750488
 10
137.6164394531
 20
13.0278900146
 10
137.9914277344
 20
11.7421750488
 10
138.4199980469
 20
13.349317749
  0
LINE
  5
37B
100
AcDbEntity
  8
0
100
AcDbLine
 62
2
  6
CONTINUOUS
 10
139.38428125
 20
11.7421750488
 11
139.38428125
 21
13.349317749
  0
LWPOLYLINE
  5
37C
100
AcDbEntity
  8
0
100
AcDbPolyline
 62
2
  6
CONTINUOUS
 90
4
 70
0
 10
139.38428125
 20
13.8314606934
 10
139.38428125
 20
13.9921745605
 10
139.4378632813
 20
13.9921745605
 10
139.38428125
 20
13.8314606934
  0
LINE
  5
37D
100
AcDbEntity
  8
0
100
AcDbLine
 62
2
  6
CONTINUOUS
 10
140.5092890625
 20
11.7421750488
 11
140.5092890625
 21
13.9921745605
  0
LINE
  5
37E
100
AcDbEntity
  8
0
100
AcDbLine
 62
2
  6
CONTINUOUS
 10
140.241421875
 20
13.349317749
 11
140.8842988281
 21
13.349317749
  0
LINE
  5
37F
100
AcDbEntity
  8
0
100
AcDbLine
 62
2
  6
CONTINUOUS
 10
141.5271542969
 20
11.7421750488
 11
141.5271542969
 21
13.9921745605
  0
LWPOLYLINE
  5
380
100
AcDbEntity
  8
0
100
AcDbPolyline
 62
2
  6
CONTINUOUS
 90
4
 70
0
 10
141.5271542969
 20
13.349317749
 10
142.3307128906
 20
13.349317749
 10
142.4914375
 20
13.1886038818
 10
142.4914375
 20
11.7421750488
  0
LINE
  5
381
100
AcDbEntity
  8
0
100
AcDbLine
 62
2
  6
CONTINUOUS
 10
145.1700019531
 20
11.7421750488
 11
145.1700019531
 21
13.9921745605
  0
LINE
  5
382
100
AcDbEntity
  8
0
100
AcDbLine
 62
2
  6
CONTINUOUS
 10
144.90215625
 20
13.349317749
 11
145.5450117188
 21
13.349317749
  0
LINE
  5
383
100
AcDbEntity
  8
0
100
AcDbLine
 62
2
  6
CONTINUOUS
 10
146.1878671875
 20
11.7421750488
 11
146.1878671875
 21
13.9921745605
  0
LWPOLYLINE
  5
384
100
AcDbEntity
  8
0
100
AcDbPolyline
 62
2
  6
CONTINUOUS
 90
4
 70
0
 10
146.1878671875
 20
13.349317749
 10
146.9914257813
 20
13.349317749
 10
147.1521503906
 20
13.1886038818
 10
147.1521503906
 20
11.7421750488
  0
LWPOLYLINE
  5
385
100
AcDbEntity
  8
0
100
AcDbPolyline
 62
2
  6
CONTINUOUS
 90
9
 70
0
 10
148.7592890625
 20
11.7421750488
 10
148.1164335938
 20
11.7421750488
 10
147.7950058594
 20
12.063604126
 10
147.7950058594
 20
13.0278900146
 10
148.1164335938
 20
13.349317749
 10
148.4378613281
 20
13.349317749
 10
148.7592890625
 20
13.0278900146
 10
148.7592890625
 20
12.5457470703
 10
147.7950058594
 20
12.5457470703
  0
LWPOLYLINE
  5
386
100
AcDbEntity
  8
0
100
AcDbPolyline
 62
2
  6
CONTINUOUS
 90
4
 70
0
 10
151.6521386719
 20
11.7421750488
 10
151.3307109375
 20
11.7421750488
 10
151.1700078125
 20
11.902888916
 10
151.1700078125
 20
13.9921745605
  0
LWPOLYLINE
  5
387
100
AcDbEntity
  8
0
100
AcDbPolyline
 62
2
  6
CONTINUOUS
 90
4
 70
0
 10
153.2592988281
 20
11.7421750488
 10
153.2592988281
 20
13.0278900146
 10
153.0985742188
 20
13.349317749
 10
152.2949941406
 20
13.349317749
  0
LWPOLYLINE
  5
388
100
AcDbEntity
  8
0
100
AcDbPolyline
 62
2
  6
CONTINUOUS
 90
6
 70
0
 10
153.2592988281
 20
11.7421750488
 10
152.616421875
 20
11.7421750488
 10
152.2949941406
 20
11.902888916
 10
152.2949941406
 20
12.3850318604
 10
152.616421875
 20
12.5457470703
 10
153.2592988281
 20
12.5457470703
  0
LWPOLYLINE
  5
389
100
AcDbEntity
  8
0
100
AcDbPolyline
 62
2
  6
CONTINUOUS
 90
5
 70
0
 10
153.9021542969
 20
13.349317749
 10
154.3307246094
 20
11.7421750488
 10
154.7057128906
 20
13.0278900146
 10
155.0807226563
 20
11.7421750488
 10
155.5092929688
 20
13.349317749
  0
LINE
  5
38A
100
AcDbEntity
  8
0
100
AcDbLine
 62
2
  6
CONTINUOUS
 10
158.2414394531
 20
11.7421750488
 11
158.2414394531
 21
13.349317749
  0
LWPOLYLINE
  5
38B
100
AcDbEntity
  8
0
100
AcDbPolyline
 62
2
  6
CONTINUOUS
 90
4
 70
0
 10
158.2414394531
 20
13.8314606934
 10
158.2414394531
 20
13.9921745605
 10
158.295
 20
13.9921745605
 10
158.2414394531
 20
13.8314606934
  0
LWPOLYLINE
  5
38C
100
AcDbEntity
  8
0
100
AcDbPolyline
 62
2
  6
CONTINUOUS
 90
5
 70
0
 10
159.0985800781
 20
11.7421750488
 10
159.0985800781
 20
13.349317749
 10
159.9021386719
 20
13.349317749
 10
160.0628632813
 20
13.1886038818
 10
160.0628632813
 20
11.7421750488
  0
LWPOLYLINE
  5
38D
100
AcDbEntity
  8
0
100
AcDbPolyline
 62
2
  6
CONTINUOUS
 90
4
 70
0
 10
162.7414277344
 20
11.7421750488
 10
162.7414277344
 20
13.8314606934
 10
162.9021523438
 20
13.9921745605
 10
163.2235800781
 20
13.9921745605
  0
LINE
  5
38E
100
AcDbEntity
  8
0
100
AcDbLine
 62
2
  6
CONTINUOUS
 10
163.2235800781
 20
13.349317749
 11
162.4735820313
 21
13.349317749
  0
LWPOLYLINE
  5
38F
100
AcDbEntity
  8
0
100
AcDbPolyline
 62
2
  6
CONTINUOUS
 90
9
 70
0
 10
163.7592929688
 20
12.063604126
 10
163.7592929688
 20
13.0278900146
 10
164.0807207031
 20
13.349317749
 10
164.4021484375
 20
13.349317749
 10
164.7235761719
 20
13.0278900146
 10
164.7235761719
 20
12.063604126
 10
164.4021484375
 20
11.7421750488
 10
164.0807207031
 20
11.7421750488
 10
163.7592929688
 20
12.063604126
  0
LWPOLYLINE
  5
390
100
AcDbEntity
  8
0
100
AcDbPolyline
 62
2
  6
CONTINUOUS
 90
5
 70
0
 10
165.3664316406
 20
11.7421750488
 10
165.3664316406
 20
13.349317749
 10
166.0092871094
 20
13.349317749
 10
166.1164296875
 20
13.1886038818
 10
166.1164296875
 20
12.8671748047
  0
LWPOLYLINE
  5
391
100
AcDbEntity
  8
0
100
AcDbPolyline
 62
2
  6
CONTINUOUS
 90
6
 70
0
 10
167.6164257813
 20
11.7421750488
 10
166.9735703125
 20
11.7421750488
 10
166.8128671875
 20
11.902888916
 10
166.8128671875
 20
13.1886038818
 10
166.9735703125
 20
13.349317749
 10
167.6164257813
 20
13.349317749
  0
LWPOLYLINE
  5
392
100
AcDbEntity
  8
0
100
AcDbPolyline
 62
2
  6
CONTINUOUS
 90
9
 70
0
 10
169.2235644531
 20
11.7421750488
 10
168.5807089844
 20
11.7421750488
 10
168.25928125
 20
12.063604126
 10
168.25928125
 20
13.0278900146
 10
168.5807089844
 20
13.349317749
 10
168.9021367188
 20
13.349317749
 10
169.2235644531
 20
13.0278900146
 10
169.2235644531
 20
12.5457470703
 10
168.25928125
 20
12.5457470703
  0
LWPOLYLINE
  5
393
100
AcDbEntity
  8
0
100
AcDbPolyline
 62
2
  6
CONTINUOUS
 90
9
 70
0
 10
170.3485722656
 20
12.117175415
 10
170.4021542969
 20
12.0100328369
 10
170.4021542969
 20
11.9564615479
 10
170.3485722656
 20
11.849317627
 10
170.2414296875
 20
11.849317627
 10
170.1878691406
 20
11.9564615479
 10
170.1878691406
 20
12.0100328369
 10
170.2414296875
 20
12.117175415
 10
170.3485722656
 20
12.117175415
  0
LWPOLYLINE
  5
394
100
AcDbEntity
  8
0
100
AcDbPolyline
 62
2
  6
CONTINUOUS
 90
3
 70
0
 10
115.0628515625
 20
8.3671751099
 10
115.7057070313
 20
10.617175293
 10
116.3485839844
 20
8.3671751099
  0
LINE
  5
395
100
AcDbEntity
  8
0
100
AcDbLine
 62
2
  6
CONTINUOUS
 10
115.2771367188
 20
9.0100325928
 11
116.1342988281
 21
9.0100325928
  0
LWPOLYLINE
  5
396
100
AcDbEntity
  8
0
100
AcDbPolyline
 62
2
  6
CONTINUOUS
 90
4
 70
0
 10
117.4735703125
 20
8.3671751099
 10
117.1521425781
 20
8.3671751099
 10
116.9914394531
 20
8.5278896484
 10
116.9914394531
 20
10.617175293
  0
LWPOLYLINE
  5
397
100
AcDbEntity
  8
0
100
AcDbPolyline
 62
2
  6
CONTINUOUS
 90
4
 70
0
 10
118.598578125
 20
8.3671751099
 10
118.2771503906
 20
8.3671751099
 10
118.1164257813
 20
8.5278896484
 10
118.1164257813
 20
10.617175293
  0
LWPOLYLINE
  5
398
100
AcDbEntity
  8
0
100
AcDbPolyline
 62
2
  6
CONTINUOUS
 90
5
 70
0
 10
121.009296875
 20
8.3671751099
 10
121.009296875
 20
9.9743178101
 10
121.6521523438
 20
9.9743178101
 10
121.7592949219
 20
9.8136039429
 10
121.7592949219
 20
9.4921748657
  0
LINE
  5
399
100
AcDbEntity
  8
0
100
AcDbLine
 62
2
  6
CONTINUOUS
 10
122.7771386719
 20
8.3671751099
 11
122.7771386719
 21
9.9743178101
  0
LWPOLYLINE
  5
39A
100
AcDbEntity
  8
0
100
AcDbPolyline
 62
2
  6
CONTINUOUS
 90
4
 70
0
 10
122.7771386719
 20
10.4564607544
 10
122.7771386719
 20
10.617175293
 10
122.8307207031
 20
10.617175293
 10
122.7771386719
 20
10.4564607544
  0
LWPOLYLINE
  5
39B
100
AcDbEntity
  8
0
100
AcDbPolyline
 62
2
  6
CONTINUOUS
 90
9
 70
0
 10
123.6342792969
 20
7.8314608765
 10
124.437859375
 20
7.8314608765
 10
124.5985839844
 20
8.0457467041
 10
124.5985839844
 20
9.9743178101
 10
123.7950039063
 20
9.9743178101
 10
123.6342792969
 20
9.8136039429
 10
123.6342792969
 20
8.5278896484
 10
123.7950039063
 20
8.3671751099
 10
124.5985839844
 20
8.3671751099
  0
LINE
  5
39C
100
AcDbEntity
  8
0
100
AcDbLine
 62
2
  6
CONTINUOUS
 10
125.2414394531
 20
8.3671751099
 11
125.2414394531
 21
10.617175293
  0
LWPOLYLINE
  5
39D
100
AcDbEntity
  8
0
100
AcDbPolyline
 62
2
  6
CONTINUOUS
 90
4
 70
0
 10
125.2414394531
 20
9.9743178101
 10
126.0449980469
 20
9.9743178101
 10
126.2057226563
 20
9.8136039429
 10
126.2057226563
 20
8.3671751099
  0
LINE
  5
39E
100
AcDbEntity
  8
0
100
AcDbLine
 62
2
  6
CONTINUOUS
 10
127.1164238281
 20
8.3671751099
 11
127.1164238281
 21
10.617175293
  0
LINE
  5
39F
100
AcDbEntity
  8
0
100
AcDbLine
 62
2
  6
CONTINUOUS
 10
126.848578125
 20
9.9743178101
 11
127.4914335938
 21
9.9743178101
  0
LWPOLYLINE
  5
3A0
100
AcDbEntity
  8
0
100
AcDbPolyline
 62
2
  6
CONTINUOUS
 90
12
 70
0
 10
128.1342890625
 20
8.5278896484
 10
128.2949921875
 20
8.3671751099
 10
128.9378691406
 20
8.3671751099
 10
129.0985722656
 20
8.5278896484
 10
129.0985722656
 20
9.0100325928
 10
128.9378691406
 20
9.1171751709
 10
128.2949921875
 20
9.224317749
 10
128.1342890625
 20
9.3314609985
 10
128.1342890625
 20
9.8136039429
 10
128.2949921875
 20
9.9743178101
 10
128.9378691406
 20
9.9743178101
 10
129.0985722656
 20
9.8136039429
  0
LWPOLYLINE
  5
3A1
100
AcDbEntity
  8
0
100
AcDbPolyline
 62
2
  6
CONTINUOUS
 90
5
 70
0
 10
131.5092910156
 20
8.3671751099
 10
131.5092910156
 20
9.9743178101
 10
132.1521464844
 20
9.9743178101
 10
132.2592890625
 20
9.8136039429
 10
132.2592890625
 20
9.4921748657
  0
LWPOLYLINE
  5
3A2
100
AcDbEntity
  8
0
100
AcDbPolyline
 62
2
  6
CONTINUOUS
 90
9
 70
0
 10
133.9200097656
 20
8.3671751099
 10
133.2771542969
 20
8.3671751099
 10
132.9557265625
 20
8.6886035156
 10
132.9557265625
 20
9.6528894043
 10
133.2771542969
 20
9.9743178101
 10
133.5985820313
 20
9.9743178101
 10
133.9200097656
 20
9.6528894043
 10
133.9200097656
 20
9.17074646
 10
132.9557265625
 20
9.17074646
  0
LWPOLYLINE
  5
3A3
100
AcDbEntity
  8
0
100
AcDbPolyline
 62
2
  6
CONTINUOUS
 90
12
 70
0
 10
134.5628652344
 20
8.5278896484
 10
134.7235683594
 20
8.3671751099
 10
135.3664238281
 20
8.3671751099
 10
135.5271484375
 20
8.5278896484
 10
135.5271484375
 20
9.0100325928
 10
135.3664238281
 20
9.1171751709
 10
134.7235683594
 20
9.224317749
 10
134.5628652344
 20
9.3314609985
 10
134.5628652344
 20
9.8136039429
 10
134.7235683594
 20
9.9743178101
 10
135.3664238281
 20
9.9743178101
 10
135.5271484375
 20
9.8136039429
  0
LWPOLYLINE
  5
3A4
100
AcDbEntity
  8
0
100
AcDbPolyline
 62
2
  6
CONTINUOUS
 90
9
 70
0
 10
137.1342871094
 20
8.3671751099
 10
136.4914316406
 20
8.3671751099
 10
136.1700039063
 20
8.6886035156
 10
136.1700039063
 20
9.6528894043
 10
136.4914316406
 20
9.9743178101
 10
136.812859375
 20
9.9743178101
 10
137.1342871094
 20
9.6528894043
 10
137.1342871094
 20
9.17074646
 10
136.1700039063
 20
9.17074646
  0
LWPOLYLINE
  5
3A5
100
AcDbEntity
  8
0
100
AcDbPolyline
 62
2
  6
CONTINUOUS
 90
5
 70
0
 10
137.7771425781
 20
8.3671751099
 10
137.7771425781
 20
9.9743178101
 10
138.4199980469
 20
9.9743178101
 10
138.527140625
 20
9.8136039429
 10
138.527140625
 20
9.4921748657
  0
LWPOLYLINE
  5
3A6
100
AcDbEntity
  8
0
100
AcDbPolyline
 62
2
  6
CONTINUOUS
 90
3
 70
0
 10
139.223578125
 20
9.9743178101
 10
139.7057089844
 20
8.3671751099
 10
140.1878613281
 20
9.9743178101
  0
LWPOLYLINE
  5
3A7
100
AcDbEntity
  8
0
100
AcDbPolyline
 62
2
  6
CONTINUOUS
 90
9
 70
0
 10
141.795
 20
8.3671751099
 10
141.1521445313
 20
8.3671751099
 10
140.8307167969
 20
8.6886035156
 10
140.8307167969
 20
9.6528894043
 10
141.1521445313
 20
9.9743178101
 10
141.4735722656
 20
9.9743178101
 10
141.795
 20
9.6528894043
 10
141.795
 20
9.17074646
 10
140.8307167969
 20
9.17074646
  0
LWPOLYLINE
  5
3A8
100
AcDbEntity
  8
0
100
AcDbPolyline
 62
2
  6
CONTINUOUS
 90
7
 70
0
 10
143.4021386719
 20
10.617175293
 10
143.4021386719
 20
8.3671751099
 10
142.7592832031
 20
8.3671751099
 10
142.4378554688
 20
8.5278896484
 10
142.4378554688
 20
9.8136039429
 10
142.7592832031
 20
9.9743178101
 10
143.4021386719
 20
9.9743178101
  0
LWPOLYLINE
  5
3A9
100
AcDbEntity
  8
0
100
AcDbPolyline
 62
2
  6
CONTINUOUS
 90
9
 70
0
 10
144.5271464844
 20
8.7421754761
 10
144.5807070313
 20
8.6350322266
 10
144.5807070313
 20
8.5814609375
 10
144.5271464844
 20
8.4743183594
 10
144.4200039063
 20
8.4743183594
 10
144.366421875
 20
8.5814609375
 10
144.366421875
 20
8.6350322266
 10
144.4200039063
 20
8.7421754761
 10
144.5271464844
 20
8.7421754761
  0
ACAD_TABLE
  5
3AA
100
AcDbEntity
  8
0
 62
2
  6
CONTINUOUS
100
AcDbBlockReference
  2
*T1
 10
113.5753599716
 20
48.0546751742
 30
0.0
100
AcDbTable
342
       59D
343
237
 11
1.0
 21
0.0
 31
0.0
 90
22
 91
5
 92
5
 93
0
 94
0
 95
0
 96
0
141
6.0
141
6.0
141
10.0
141
5.0
141
13.0
142
10.0
142
10.0
142
10.0
142
40.0
142
20.0
171
1
172
0
173
0
174
0
175
3
176
4
 91
1
178
0
145
0.0
170
5
171
1
172
0
173
1
174
0
175
1
176
1
 91
1
178
0
145
0.0
170
1
171
1
172
0
173
1
174
0
175
1
176
1
 91
1
178
0
145
0.0
170
1
171
1
172
0
173
0
174
0
175
1
176
1
 91
33
178
0
145
0.0
301
CELL_VALUE
 90
4
  1
{\Ftxt.shx;\W6.761905;\H3.000000; }
304
ACVALUE_END
170
4
140
3.0
171
1
172
0
173
0
174
0
175
1
176
1
 91
33
178
0
145
0.0
301
CELL_VALUE
 90
4
  1
{\Ftxt.shx;\W2.571429;\H3.500000; }{\Ftxt.shx;\W1.571429;\H3.500000; }
304
ACVALUE_END
170
1
140
3.5
171
1
172
0
173
1
174
0
175
1
176
1
 91
1
178
0
145
0.0
170
1
171
1
172
0
173
1
174
0
175
1
176
1
 91
1
178
0
145
0.0
170
1
171
1
172
0
173
1
174
0
175
1
176
1
 91
1
178
0
145
0.0
170
1
171
1
172
0
173
0
174
0
175
1
176
1
 91
33
178
0
145
0.0
301
CELL_VALUE
 90
4
  1
{\Ftxt.shx;\W3.714286;\H3.500000; }{\Ftxt.shx;\W1.500000;\H3.500000; }
304
ACVALUE_END
170
1
140
3.5
171
1
172
0
173
0
174
0
175
1
176
1
 91
33
178
0
145
0.0
301
CELL_VALUE
 90
4
  1
{\Ftxt.shx;\W1.642857;\H3.500000; }
304
ACVALUE_END
170
4
140
3.5
171
1
172
0
173
1
174
0
175
1
176
1
 91
1
178
0
145
0.0
170
1
171
1
172
0
173
1
174
0
175
1
176
1
 91
1
178
0
145
0.0
170
1
171
1
172
0
173
1
174
0
175
1
176
1
 91
1
178
0
145
0.0
170
1
171
1
172
0
173
0
174
0
175
2
176
1
 91
33
178
0
145
0.0
301
CELL_VALUE
 90
4
  1
{\Ftxt.shx;\W6.785714;\H3.500000; }
304
ACVALUE_END
170
4
140
3.5
171
1
172
0
173
1
174
0
175
1
176
1
 91
1
178
0
145
0.0
170
1
171
1
172
0
173
1
174
0
175
1
176
1
 91
1
178
0
145
0.0
170
1
171
1
172
0
173
1
174
0
175
1
176
1
 91
1
178
0
145
0.0
170
1
171
1
172
0
173
1
174
0
175
1
176
1
 91
1
178
0
145
0.0
170
1
171
1
172
0
173
0
174
0
175
2
176
1
 91
33
178
0
145
0.0
301
CELL_VALUE
 90
4
  1
{\Ftxt.shx;\W3.690476;\H2.500000; }{\Ftxt.shx;\W5.738095;\H2.500000; }
304
ACVALUE_END
170
4
140
2.5
171
1
172
0
173
1
174
0
175
1
176
1
 91
1
178
0
145
0.0
170
1
171
1
172
0
173
0
174
0
175
5
176
1
 91
33
178
0
145
0.0
301
CELL_VALUE
 90
4
  1
{\Ftxt.shx;\W35.880952;\H2.250000; }\P{\Ftxt.shx;\W22.452381;\H2.250000; }{\Ftxt.shx;\W6.642857;\H2.250000; }{\Ftxt.shx;\W10.595238;\H2.250000; }\P{\Ftxt.shx;\W25.714286;\H2.250000; }\P{\Ftxt.shx;\W13.452381;\H2.250000; }
304
ACVALUE_END
170
4
140
2.25
171
1
172
0
173
1
174
0
175
1
176
1
 91
1
178
0
145
0.0
170
1
171
1
172
0
173
1
174
0
175
1
176
1
 91
1
178
0
145
0.0
170
1
171
1
172
0
173
1
174
0
175
1
176
1
 91
1
178
0
145
0.0
170
1
171
1
172
0
173
1
174
0
175
1
176
1
 91
1
178
0
145
0.0
170
1
  0
LINE
  5
3AB
100
AcDbEntity
  8
0
100
AcDbLine
 62
7
  6
CONTINUOUS
 10
0.0
 20
0.0
 11
210.0
 21
0.0
  0
LINE
  5
3AC
100
AcDbEntity
  8
0
100
AcDbLine
 62
7
  6
CONTINUOUS
 10
0.0
 20
0.0
 11
0.0
 21
297.0
  0
LINE
  5
3AD
100
AcDbEntity
  8
0
100
AcDbLine
 62
7
  6
CONTINUOUS
 10
210.0
 20
0.0
 11
210.0
 21
297.0
  0
LINE
  5
3AE
100
AcDbEntity
  8
0
100
AcDbLine
 62
7
  6
CONTINUOUS
 10
0.0
 20
297.0
 11
210.0
 21
297.0
  0
LWPOLYLINE
  5
3AF
100
AcDbEntity
  8
0
100
AcDbPolyline
 62
2
  6
CONTINUOUS
 90
6
 70
0
 43
0.1500000038
 10
21.0435742188
 20
130.7392753906
 10
21.0435742188
 20
131.8107011719
 10
20.8292890625
 20
132.0249863281
 10
19.7578525391
 20
132.0249863281
 10
19.3292822266
 20
131.5964160156
 10
19.3292822266
 20
131.1678457031
  0
LWPOLYLINE
  5
3B0
100
AcDbEntity
  8
0
100
AcDbPolyline
 62
2
  6
CONTINUOUS
 90
10
 70
0
 43
0.1500000038
 10
63.2887304688
 20
182.4345488281
 10
62.645875
 20
181.7916933594
 10
62.2173046875
 20
180.9345527344
 10
62.2173046875
 20
179.8631269531
 10
62.645875
 20
179.4345566406
 10
63.2887304688
 20
179.4345566406
 10
63.7173007813
 20
179.8631269531
 10
63.7173007813
 20
180.7202675781
 10
63.2887304688
 20
181.1488378906
 10
62.3601650391
 20
181.1488378906
  0
LWPOLYLINE
  5
3B1
100
AcDbEntity
  8
7_ALL_FEATURES
100
AcDbPolyline
 62
7
  6
CONTINUOUS
 90
19
 70
0
 10
94.7851667717
 20
94.0215827903
 10
94.8841718769
 20
94.0241638132
 10
94.9888366431
 20
94.0331716234
 10
95.0870822921
 20
94.0486512933
 10
95.1787490242
 20
94.070568431
 10
95.2636742506
 20
94.0988266108
 10
95.3414748948
 20
94.1331304608
 10
95.4124523333
 20
94.173374899
 10
95.4769926551
 20
94.2196009462
 10
95.5352582765
 20
94.2718193895
 10
95.5874281076
 20
94.3301483773
 10
95.6336109909
 20
94.3947651535
 10
95.673807777
 20
94.4658219054
 10
95.7080550756
 20
94.5436932269
 10
95.7362504358
 20
94.628676942
 10
95.7581037384
 20
94.720395307
 10
95.7735209214
 20
94.8186914899
 10
95.7824680487
 20
94.9234133149
 10
95.7849954652
 20
95.0214114711
  0
LINE
  5
3B2
100
AcDbEntity
  8
7_ALL_FEATURES
100
AcDbLine
 62
7
  6
CONTINUOUS
 10
94.7851667717
 20
94.0215828081
 11
34.3637246542
 21
94.0215828081
  0
LINE
  5
3B3
100
AcDbEntity
  8
7_ALL_FEATURES
100
AcDbLine
 62
9
  6
CONTINUOUS
 10
94.7851667717
 20
94.0217541456
 11
34.3637246539
 21
94.0217541456
  0
LINE
  5
3B4
100
AcDbEntity
  8
7_ALL_FEATURES
100
AcDbLine
 62
9
  6
CONTINUOUS
 10
95.7849954342
 20
95.0214114711
 11
95.7848240967
 21
95.0214114706
  0
LINE
  5
3B5
100
AcDbEntity
  8
7_ALL_FEATURES
100
AcDbLine
 62
9
  6
CONTINUOUS
 10
33.3638959914
 20
95.0214114706
 11
33.3640673289
 21
95.0214114706
  0
LWPOLYLINE
  5
3B6
100
AcDbEntity
  8
0
100
AcDbPolyline
 62
2
  6
CONTINUOUS
 90
5
 70
0
 43
0.1500000038
 10
19.3292822266
 20
131.5964160156
 10
19.1149970703
 20
131.9535615234
 10
18.4721416016
 20
131.9535615234
 10
18.0435712891
 20
131.5964160156
 10
18.0435712891
 20
130.7392753906
  0
LWPOLYLINE
  5
3B7
100
AcDbEntity
  8
7_ALL_FEATURES
100
AcDbPolyline
 62
7
  6
CONTINUOUS
 90
19
 70
0
 10
33.3638959605
 20
95.0214114706
 10
33.366476648
 20
94.9224126185
 10
33.3754834969
 20
94.8177524527
 10
33.3909615987
 20
94.7195106321
 10
33.4128764384
 20
94.6278474352
 10
33.4411316546
 20
94.5429250641
 10
33.4754317514
 20
94.4651269859
 10
33.5156714008
 20
94.3941520038
 10
33.5618923845
 20
94.3296127037
 10
33.6141069012
 20
94.2713456072
 10
33.6724343969
 20
94.2191718651
 10
33.7370521786
 20
94.1729839316
 10
33.8081113842
 20
94.1327823609
 10
33.8859852888
 20
94.0985313013
 10
33.970971883
 20
94.0703329758
 10
34.0626937847
 20
94.0484773772
 10
34.1609938025
 20
94.0330586274
 10
34.2657202371
 20
94.0241105387
 10
34.3637246542
 20
94.0215827903
  0
LINE
  5
3B8
100
AcDbEntity
  8
7_ALL_FEATURES
100
AcDbLine
 62
7
  6
CONTINUOUS
 10
33.3638959914
 20
95.0214114706
 11
33.3638959914
 21
166.2428535879
  0
LINE
  5
3B9
100
AcDbEntity
  8
7_ALL_FEATURES
100
AcDbLine
 62
9
  6
CONTINUOUS
 10
33.3640673289
 20
166.2428577749
 11
33.3640673289
 21
95.0214072866
  0
LINE
  5
3BA
100
AcDbEntity
  8
7_ALL_FEATURES
100
AcDbLine
 62
9
  6
CONTINUOUS
 10
33.5090894984
 20
166.097831419
 11
33.5090894984
 21
95.16643364
  0
LINE
  5
3BB
100
AcDbEntity
  8
7_ALL_FEATURES
100
AcDbLine
 62
9
  6
CONTINUOUS
 10
33.8345718104
 20
166.0308815204
 11
33.8345718104
 21
95.2333835385
  0
LINE
  5
3BC
100
AcDbEntity
  8
7_ALL_FEATURES
100
AcDbLine
 62
9
  6
CONTINUOUS
 10
34.3637246542
 20
94.0215828081
 11
34.3637246539
 21
94.0217541456
  0
LINE
  5
3BD
100
AcDbEntity
  8
7_ALL_FEATURES
100
AcDbLine
 62
9
  6
CONTINUOUS
 10
34.3637246539
 20
167.2426822509
 11
34.3637246539
 21
167.2425109134
  0
LINE
  5
3BE
100
AcDbEntity
  8
7_ALL_FEATURES
100
AcDbLine
 62
9
  6
CONTINUOUS
 10
38.1643639683
 20
143.4967545669
 11
38.1643639681
 21
136.5675105194
  0
LINE
  5
3BF
100
AcDbEntity
  8
7_ALL_FEATURES
100
AcDbLine
 62
9
  6
CONTINUOUS
 10
39.5179828467
 20
143.434602174
 11
39.5749479603
 21
143.9078256234
  0
LINE
  5
3C0
100
AcDbEntity
  8
7_ALL_FEATURES
100
AcDbLine
 62
9
  6
CONTINUOUS
 10
39.0156729159
 20
143.4967498412
 11
39.0156728972
 21
136.5675133823
  0
LINE
  5
3C1
100
AcDbEntity
  8
7_ALL_FEATURES
100
AcDbLine
 62
9
  6
CONTINUOUS
 10
39.4672522418
 20
137.7821491077
 11
39.467252233
 21
142.282116274
  0
LINE
  5
3C2
100
AcDbEntity
  8
7_ALL_FEATURES
100
AcDbLine
 62
9
  6
CONTINUOUS
 10
39.5179827999
 20
136.6296627455
 11
39.5749478647
 21
136.1564394558
  0
LINE
  5
3C3
100
AcDbEntity
  8
7_ALL_FEATURES
100
AcDbLine
 62
9
  6
CONTINUOUS
 10
41.8769039789
 20
137.7821325295
 11
41.8769039693
 21
142.2821325295
  0
LINE
  5
3C4
100
AcDbEntity
  8
7_ALL_FEATURES
100
AcDbLine
 62
7
  6
CONTINUOUS
 10
46.5240522962
 20
137.7821325295
 11
46.5240522962
 21
142.2821325295
  0
LINE
  5
3C5
100
AcDbEntity
  8
7_ALL_FEATURES
100
AcDbLine
 62
9
  6
CONTINUOUS
 10
46.5873452032
 20
136.8582204197
 11
46.5873452032
 21
143.2060446394
  0
LINE
  5
3C6
100
AcDbEntity
  8
7_ALL_FEATURES
100
AcDbLine
 62
9
  6
CONTINUOUS
 10
46.5882896765
 20
143.2060446277
 11
46.5882878966
 21
136.858220408
  0
LINE
  5
3C7
100
AcDbEntity
  8
7_ALL_FEATURES
100
AcDbLine
 62
9
  6
CONTINUOUS
 10
47.5869162008
 20
143.1855676744
 11
47.5869143497
 21
141.7999885629
  0
LINE
  5
3C8
100
AcDbEntity
  8
7_ALL_FEATURES
100
AcDbLine
 62
9
  6
CONTINUOUS
 10
47.586920004
 20
138.2642572204
 11
47.5869255007
 21
136.8786366832
  0
LINE
  5
3C9
100
AcDbEntity
  8
7_ALL_FEATURES
100
AcDbLine
 62
9
  6
CONTINUOUS
 10
94.6401446023
 20
167.0974887439
 11
94.7851667717
 21
167.2425109134
  0
LINE
  5
3CA
100
AcDbEntity
  8
7_ALL_FEATURES
100
AcDbLine
 62
9
  6
CONTINUOUS
 10
46.7255707345
 20
136.850604828
 11
46.7267234319
 21
136.8499285672
  0
LINE
  5
3CB
100
AcDbEntity
  8
7_ALL_FEATURES
100
AcDbLine
 62
9
  6
CONTINUOUS
 10
94.7851667717
 20
94.0217541456
 11
94.6401446023
 21
94.166776315
  0
LINE
  5
3CC
100
AcDbEntity
  8
7_ALL_FEATURES
100
AcDbLine
 62
9
  6
CONTINUOUS
 10
95.6398019273
 20
166.097831419
 11
95.7848240967
 21
166.2428577724
  0
LWPOLYLINE
  5
3CD
100
AcDbEntity
  8
0
100
AcDbPolyline
 62
2
  6
CONTINUOUS
 90
4
 70
0
 43
0.1500000038
 10
18.6864267578
 20
128.3821279297
 10
18.0435712891
 20
128.3821279297
 10
18.0435712891
 20
129.8821347656
 10
21.0435742188
 20
129.0249941406
  0
LINE
  5
3CE
100
AcDbEntity
  8
7_ALL_FEATURES
100
AcDbLine
 62
9
  6
CONTINUOUS
 10
95.7848240967
 20
95.0214072841
 11
95.6398019273
 21
95.16643364
  0
LINE
  5
3CF
100
AcDbEntity
  8
7_ALL_FEATURES
100
AcDbLine
 62
9
  6
CONTINUOUS
 10
64.5744384302
 20
143.9560890839
 11
64.5744382389
 21
144.9484637218
  0
LINE
  5
3D0
100
AcDbEntity
  8
7_ALL_FEATURES
100
AcDbLine
 62
9
  6
CONTINUOUS
 10
64.5744508882
 20
136.1081760117
 11
64.5744510257
 21
135.115801355
  0
LINE
  5
3D1
100
AcDbEntity
  8
7_ALL_FEATURES
100
AcDbLine
 62
9
  6
CONTINUOUS
 10
33.5090894984
 20
95.16643364
 11
33.3640673289
 21
95.0214072866
  0
LINE
  5
3D2
100
AcDbEntity
  8
7_ALL_FEATURES
100
AcDbLine
 62
9
  6
CONTINUOUS
 10
33.3640673289
 20
166.2428577749
 11
33.5090894984
 21
166.097831419
  0
LINE
  5
3D3
100
AcDbEntity
  8
7_ALL_FEATURES
100
AcDbLine
 62
9
  6
CONTINUOUS
 10
34.5087468234
 20
94.166776315
 11
34.3637246539
 21
94.0217541456
  0
LINE
  5
3D4
100
AcDbEntity
  8
7_ALL_FEATURES
100
AcDbLine
 62
9
  6
CONTINUOUS
 10
81.0800405653
 20
141.675503454
 11
81.5619714217
 21
141.8000078365
  0
LINE
  5
3D5
100
AcDbEntity
  8
7_ALL_FEATURES
100
AcDbLine
 62
9
  6
CONTINUOUS
 10
39.0156728851
 20
136.5675105178
 11
38.1643641692
 21
136.5675105194
  0
LINE
  5
3D6
100
AcDbEntity
  8
7_ALL_FEATURES
100
AcDbLine
 62
9
  6
CONTINUOUS
 10
90.1332185095
 20
136.5675104934
 11
90.9845274574
 21
136.5675104926
  0
LINE
  5
3D7
100
AcDbEntity
  8
7_ALL_FEATURES
100
AcDbLine
 62
9
  6
CONTINUOUS
 10
48.0688393857
 20
141.6755064184
 11
47.5869200034
 21
141.8000078367
  0
LINE
  5
3D8
100
AcDbEntity
  8
7_ALL_FEATURES
100
AcDbLine
 62
9
  6
CONTINUOUS
 10
34.3637246539
 20
167.2425109134
 11
34.5087468234
 21
167.0974887439
  0
LINE
  5
3D9
100
AcDbEntity
  8
7_ALL_FEATURES
100
AcDbLine
 62
9
  6
CONTINUOUS
 10
89.6816391839
 20
137.7821491077
 11
87.2719881069
 21
137.7821223697
  0
LINE
  5
3DA
100
AcDbEntity
  8
7_ALL_FEATURES
100
AcDbLine
 62
9
  6
CONTINUOUS
 10
87.2719874468
 20
137.7821325295
 11
82.6248391295
 21
137.7821325295
  0
LINE
  5
3DB
100
AcDbEntity
  8
7_ALL_FEATURES
100
AcDbLine
 62
9
  6
CONTINUOUS
 10
39.4672522418
 20
137.7821491077
 11
46.5240522962
 21
137.7821325295
  0
LINE
  5
3DC
100
AcDbEntity
  8
7_ALL_FEATURES
100
AcDbLine
 62
9
  6
CONTINUOUS
 10
47.8541220391
 20
140.0321271067
 11
47.4333003332
 21
140.0321325293
  0
LINE
  5
3DD
100
AcDbEntity
  8
7_ALL_FEATURES
100
AcDbLine
 62
9
  6
CONTINUOUS
 10
81.2947698002
 20
140.0321325295
 11
47.8541216254
 21
140.0321325295
  0
LINE
  5
3DE
100
AcDbEntity
  8
7_ALL_FEATURES
100
AcDbLine
 62
9
  6
CONTINUOUS
 10
81.2947697068
 20
140.0321379523
 11
81.7155908204
 21
140.0321325295
  0
LINE
  5
3DF
100
AcDbEntity
  8
7_ALL_FEATURES
100
AcDbLine
 62
9
  6
CONTINUOUS
 10
48.0688397162
 20
138.3887587256
 11
47.5869200037
 21
138.2642572214
  0
LINE
  5
3E0
100
AcDbEntity
  8
7_ALL_FEATURES
100
AcDbLine
 62
9
  6
CONTINUOUS
 10
41.8769039693
 20
142.2821325295
 11
46.5240522962
 21
142.2821325295
  0
LINE
  5
3E1
100
AcDbEntity
  8
7_ALL_FEATURES
100
AcDbLine
 62
9
  6
CONTINUOUS
 10
89.6816391926
 20
142.282116274
 11
82.6248391295
 21
142.2821325295
  0
LINE
  5
3E2
100
AcDbEntity
  8
7_ALL_FEATURES
100
AcDbLine
 62
9
  6
CONTINUOUS
 10
39.467252233
 20
142.282116274
 11
41.8769033072
 21
142.2821424914
  0
LINE
  5
3E3
100
AcDbEntity
  8
7_ALL_FEATURES
100
AcDbLine
 62
9
  6
CONTINUOUS
 10
39.0156729159
 20
143.4967545662
 11
38.1643639683
 21
143.4967545669
  0
LINE
  5
3E4
100
AcDbEntity
  8
7_ALL_FEATURES
100
AcDbLine
 62
9
  6
CONTINUOUS
 10
90.1332185527
 20
143.4967545207
 11
90.9845272984
 21
143.4967545183
  0
LINE
  5
3E5
100
AcDbEntity
  8
7_ALL_FEATURES
100
AcDbLine
 62
9
  6
CONTINUOUS
 10
81.0800501367
 20
138.3887591323
 11
81.561971422
 21
138.2642572213
  0
LINE
  5
3E6
100
AcDbEntity
  8
7_ALL_FEATURES
100
AcDbLine
 62
9
  6
CONTINUOUS
 10
81.5619657962
 20
136.8786367013
 11
81.561971422
 21
138.2642572214
  0
LINE
  5
3E7
100
AcDbEntity
  8
7_ALL_FEATURES
100
AcDbLine
 62
9
  6
CONTINUOUS
 10
81.561971422
 20
141.8000078376
 11
81.561971422
 21
143.1855541582
  0
LINE
  5
3E8
100
AcDbEntity
  8
7_ALL_FEATURES
100
AcDbLine
 62
9
  6
CONTINUOUS
 10
82.5606015897
 20
136.858220417
 11
82.5606011517
 21
143.2060446366
  0
LINE
  5
3E9
100
AcDbEntity
  8
7_ALL_FEATURES
100
AcDbLine
 62
9
  6
CONTINUOUS
 10
82.5615462224
 20
143.2060446395
 11
82.5615462224
 21
136.8582204198
  0
LINE
  5
3EA
100
AcDbEntity
  8
7_ALL_FEATURES
100
AcDbLine
 62
7
  6
CONTINUOUS
 10
82.6248391295
 20
142.2821325295
 11
82.6248391295
 21
137.7821325295
  0
LINE
  5
3EB
100
AcDbEntity
  8
7_ALL_FEATURES
100
AcDbLine
 62
9
  6
CONTINUOUS
 10
87.2719874564
 20
142.2821325295
 11
87.2719874468
 21
137.7821325295
  0
LINE
  5
3EC
100
AcDbEntity
  8
7_ALL_FEATURES
100
AcDbLine
 62
9
  6
CONTINUOUS
 10
89.6816391926
 20
142.282116274
 11
89.6816391839
 21
137.7821491077
  0
LINE
  5
3ED
100
AcDbEntity
  8
7_ALL_FEATURES
100
AcDbLine
 62
9
  6
CONTINUOUS
 10
90.1332185095
 20
136.5675152711
 11
90.1332185348
 21
143.4967497485
  0
LINE
  5
3EE
100
AcDbEntity
  8
7_ALL_FEATURES
100
AcDbLine
 62
9
  6
CONTINUOUS
 10
89.6309085737
 20
136.629662886
 11
89.5739434601
 21
136.1564394351
  0
LINE
  5
3EF
100
AcDbEntity
  8
7_ALL_FEATURES
100
AcDbLine
 62
9
  6
CONTINUOUS
 10
90.9845274574
 20
136.5675104926
 11
90.9845274581
 21
143.4967545183
  0
LINE
  5
3F0
100
AcDbEntity
  8
7_ALL_FEATURES
100
AcDbLine
 62
9
  6
CONTINUOUS
 10
89.6309086292
 20
143.4346023144
 11
89.5739435703
 21
143.9078255538
  0
LWPOLYLINE
  5
3F1
100
AcDbEntity
  8
7_ALL_FEATURES
100
AcDbPolyline
 62
7
  6
CONTINUOUS
 90
19
 70
0
 10
95.7849954652
 20
166.2428535884
 10
95.7824147776
 20
166.3418524405
 10
95.7734079288
 20
166.4465126063
 10
95.757929827
 20
166.5447544269
 10
95.7360149873
 20
166.6364176237
 10
95.7077597711
 20
166.7213399949
 10
95.6734596743
 20
166.7991380731
 10
95.6332200249
 20
166.8701130552
 10
95.5869990412
 20
166.9346523552
 10
95.5347845245
 20
166.9929194518
 10
95.4764570288
 20
167.0450931939
 10
95.411839247
 20
167.0912811273
 10
95.3407800414
 20
167.1314826981
 10
95.2629061369
 20
167.1657337576
 10
95.1779195427
 20
167.1939320832
 10
95.086197641
 20
167.2157876817
 10
94.9878976232
 20
167.2312064316
 10
94.8831711886
 20
167.2401545203
 10
94.7851667714
 20
167.2426822686
  0
LINE
  5
3F2
100
AcDbEntity
  8
7_ALL_FEATURES
100
AcDbLine
 62
9
  6
CONTINUOUS
 10
94.7851667717
 20
94.0215828081
 11
94.7851667717
 21
94.0217541456
  0
LINE
  5
3F3
100
AcDbEntity
  8
7_ALL_FEATURES
100
AcDbLine
 62
9
  6
CONTINUOUS
 10
94.7851667714
 20
167.2426822509
 11
94.7851667717
 21
167.2425109134
  0
LINE
  5
3F4
100
AcDbEntity
  8
7_ALL_FEATURES
100
AcDbLine
 62
9
  6
CONTINUOUS
 10
95.3143196153
 20
95.2333835385
 11
95.3143196153
 21
166.0308815204
  0
LINE
  5
3F5
100
AcDbEntity
  8
7_ALL_FEATURES
100
AcDbLine
 62
9
  6
CONTINUOUS
 10
95.6398019273
 20
95.16643364
 11
95.6398019273
 21
166.097831419
  0
LINE
  5
3F6
100
AcDbEntity
  8
7_ALL_FEATURES
100
AcDbLine
 62
9
  6
CONTINUOUS
 10
95.7848240967
 20
95.0214072841
 11
95.7848240967
 21
166.2428577724
  0
LINE
  5
3F7
100
AcDbEntity
  8
7_ALL_FEATURES
100
AcDbLine
 62
7
  6
CONTINUOUS
 10
95.7849954342
 20
166.2428535884
 11
95.7849954342
 21
95.0214114711
  0
LINE
  5
3F8
100
AcDbEntity
  8
7_ALL_FEATURES
100
AcDbLine
 62
9
  6
CONTINUOUS
 10
95.7849954342
 20
166.2428535884
 11
95.7848240967
 21
166.2428535884
  0
LINE
  5
3F9
100
AcDbEntity
  8
7_ALL_FEATURES
100
AcDbLine
 62
9
  6
CONTINUOUS
 10
33.3638959914
 20
166.2428535879
 11
33.3640673289
 21
166.2428535884
  0
LWPOLYLINE
  5
3FA
100
AcDbEntity
  8
7_ALL_FEATURES
100
AcDbPolyline
 62
7
  6
CONTINUOUS
 90
19
 70
0
 10
34.3637246539
 20
167.2426822687
 10
34.2647195488
 20
167.2401012458
 10
34.1600547825
 20
167.2310934356
 10
34.0618091336
 20
167.2156137656
 10
33.9701424014
 20
167.193696628
 10
33.8852171751
 20
167.1654384482
 10
33.8074165309
 20
167.1311345982
 10
33.7364390924
 20
167.0908901599
 10
33.6718987705
 20
167.0446641128
 10
33.6136331492
 20
166.9924456695
 10
33.5614633181
 20
166.9341166816
 10
33.5152804348
 20
166.8694999055
 10
33.4750836487
 20
166.7984431536
 10
33.4408363501
 20
166.7205718321
 10
33.4126409899
 20
166.635588117
 10
33.3907876873
 20
166.5438697519
 10
33.3753705043
 20
166.4455735691
 10
33.366423377
 20
166.3408517441
 10
33.3638959605
 20
166.2428535879
  0
LINE
  5
3FB
100
AcDbEntity
  8
7_ALL_FEATURES
100
AcDbLine
 62
9
  6
CONTINUOUS
 10
34.3637246539
 20
167.2425109134
 11
94.7851667717
 21
167.2425109134
  0
LINE
  5
3FC
100
AcDbEntity
  8
7_ALL_FEATURES
100
AcDbLine
 62
7
  6
CONTINUOUS
 10
34.3637246539
 20
167.2426822509
 11
94.7851667715
 21
167.2426822509
  0
LWPOLYLINE
  5
3FD
100
AcDbEntity
  8
0
100
AcDbPolyline
 62
2
  6
CONTINUOUS
 90
7
 70
0
 43
0.1500000038
 10
66.0744482422
 20
179.4345566406
 10
64.5744414063
 20
179.4345566406
 10
66.0744482422
 20
181.5774082031
 10
66.0744482422
 20
182.0059785156
 10
65.6458779297
 20
182.4345488281
 10
65.0030224609
 20
182.4345488281
 10
64.5744414063
 20
181.7916933594
  0
LWPOLYLINE
  5
3FE
100
AcDbEntity
  8
0
100
AcDbPolyline
 62
2
  6
CONTINUOUS
 90
6
 70
0
 43
0.1500000038
 10
21.0435742188
 20
227.7336230469
 10
21.0435742188
 20
228.8050488281
 10
20.8292890625
 20
229.0193339844
 10
19.7578525391
 20
229.0193339844
 10
19.3292822266
 20
228.5907636719
 10
19.3292822266
 20
228.1621933594
  0
LWPOLYLINE
  5
3FF
100
AcDbEntity
  8
0
100
AcDbPolyline
 62
2
  6
CONTINUOUS
 90
5
 70
0
 43
0.1500000038
 10
19.3292822266
 20
228.5907636719
 10
19.1149970703
 20
228.9478984375
 10
18.4721416016
 20
228.9478984375
 10
18.0435712891
 20
228.5907636719
 10
18.0435712891
 20
227.7336230469
  0
LWPOLYLINE
  5
400
100
AcDbEntity
  8
0
100
AcDbPolyline
 62
2
  6
CONTINUOUS
 90
10
 70
0
 43
0.1500000038
 10
18.0435712891
 20
230.9479003906
 10
18.6864267578
 20
230.3050449219
 10
19.5435673828
 20
229.8764746094
 10
20.6150039063
 20
229.8764746094
 10
21.0435742188
 20
230.3050449219
 10
21.0435742188
 20
230.9479003906
 10
20.6150039063
 20
231.3764707031
 10
19.7578525391
 20
231.3764707031
 10
19.3292822266
 20
230.9479003906
 10
19.3292822266
 20
230.0193242188
  0
LINE
  5
401
100
AcDbEntity
  8
7_ALL_FEATURES
100
AcDbLine
 62
9
  6
CONTINUOUS
 10
34.3637246539
 20
213.1086154002
 11
34.3637246539
 21
213.6217038743
  0
LINE
  5
402
100
AcDbEntity
  8
7_ALL_FEATURES
100
AcDbLine
 62
7
  6
CONTINUOUS
 10
33.5090894984
 20
219.1598770892
 11
33.3640673289
 21
213.6217038743
  0
LINE
  5
403
100
AcDbEntity
  8
7_ALL_FEATURES
100
AcDbLine
 62
9
  6
CONTINUOUS
 10
34.5087468234
 20
219.1598770892
 11
34.3637246539
 21
213.6217038743
  0
LINE
  5
404
100
AcDbEntity
  8
7_ALL_FEATURES
100
AcDbLine
 62
7
  6
CONTINUOUS
 10
36.3375386736
 20
213.1086154002
 11
36.3244457128
 21
212.6086154002
  0
LINE
  5
405
100
AcDbEntity
  8
7_ALL_FEATURES
100
AcDbLine
 62
9
  6
CONTINUOUS
 10
39.5744457128
 20
212.1086154002
 11
39.5744457128
 21
212.6086154002
  0
LINE
  5
406
100
AcDbEntity
  8
7_ALL_FEATURES
100
AcDbLine
 62
9
  6
CONTINUOUS
 10
40.0288368082
 20
212.1086154002
 11
40.0288368082
 21
212.4211148918
  0
LINE
  5
407
100
AcDbEntity
  8
7_ALL_FEATURES
100
AcDbLine
 62
9
  6
CONTINUOUS
 10
40.8695368984
 20
212.6086154002
 11
40.8695368984
 21
213.0650375288
  0
LINE
  5
408
100
AcDbEntity
  8
06___PRT_ALL_SURFS
100
AcDbLine
 62
9
  6
CONTINUOUS
 10
38.9123876542
 20
212.6086154002
 11
38.929848039
 21
213.1086154002
  0
LINE
  5
409
100
AcDbEntity
  8
7_ALL_FEATURES
100
AcDbLine
 62
7
  6
CONTINUOUS
 10
38.1651626054
 20
232.7345743056
 11
38.1643639683
 21
232.7332801368
  0
LINE
  5
40A
100
AcDbEntity
  8
7_ALL_FEATURES
100
AcDbLine
 62
7
  6
CONTINUOUS
 10
40.5269341572
 20
212.5650375288
 11
40.5744910587
 21
213.1086154002
  0
LINE
  5
40B
100
AcDbEntity
  8
7_ALL_FEATURES
100
AcDbLine
 62
9
  6
CONTINUOUS
 10
40.8733482385
 20
213.1086154002
 11
40.8695356544
 21
213.0650375288
  0
LINE
  5
40C
100
AcDbEntity
  8
7_ALL_FEATURES
100
AcDbLine
 62
7
  6
CONTINUOUS
 10
90.7923568266
 20
212.1086154002
 11
89.1200546175
 21
212.1086154002
  0
LINE
  5
40D
100
AcDbEntity
  8
7_ALL_FEATURES
100
AcDbLine
 62
7
  6
CONTINUOUS
 10
80.0288368082
 20
212.1086154002
 11
49.1200546175
 21
212.1086154002
  0
LINE
  5
40E
100
AcDbEntity
  8
7_ALL_FEATURES
100
AcDbLine
 62
7
  6
CONTINUOUS
 10
40.0288368082
 20
212.1086154002
 11
38.3565345991
 21
212.1086154002
  0
LINE
  5
40F
100
AcDbEntity
  8
7_ALL_FEATURES
100
AcDbLine
 62
9
  6
CONTINUOUS
 10
91.255869232
 20
212.4211154002
 11
89.1200546175
 21
212.4211148935
  0
LINE
  5
410
100
AcDbEntity
  8
7_ALL_FEATURES
100
AcDbLine
 62
9
  6
CONTINUOUS
 10
57.3317756345
 20
212.4211153065
 11
51.8171156847
 21
212.4211150292
  0
LINE
  5
411
100
AcDbEntity
  8
7_ALL_FEATURES
100
AcDbLine
 62
9
  6
CONTINUOUS
 10
40.0288368082
 20
212.4211148918
 11
37.8930221936
 21
212.4211154002
  0
LINE
  5
412
100
AcDbEntity
  8
7_ALL_FEATURES
100
AcDbLine
 62
9
  6
CONTINUOUS
 10
80.0288368082
 20
212.4211148918
 11
57.7952161421
 21
212.4211169755
  0
LINE
  5
413
100
AcDbEntity
  8
7_ALL_FEATURES
100
AcDbLine
 62
9
  6
CONTINUOUS
 10
51.3536752836
 20
212.4211169754
 11
49.1200546175
 21
212.4211148935
  0
LINE
  5
414
100
AcDbEntity
  8
7_ALL_FEATURES
100
AcDbLine
 62
7
  6
CONTINUOUS
 10
88.6181446987
 20
212.6086154002
 11
80.530746727
 21
212.6086154002
  0
LINE
  5
415
100
AcDbEntity
  8
7_ALL_FEATURES
100
AcDbLine
 62
7
  6
CONTINUOUS
 10
48.6181446987
 20
212.6086154002
 11
40.530746727
 21
212.6086154002
  0
LINE
  5
416
100
AcDbEntity
  8
7_ALL_FEATURES
100
AcDbLine
 62
7
  6
CONTINUOUS
 10
36.3244457128
 20
212.6086154002
 11
40.07258114
 21
212.6086154002
  0
LINE
  5
417
100
AcDbEntity
  8
7_ALL_FEATURES
100
AcDbLine
 62
7
  6
CONTINUOUS
 10
49.0763102857
 20
212.6086154002
 11
80.07258114
 21
212.6086154002
  0
LINE
  5
418
100
AcDbEntity
  8
7_ALL_FEATURES
100
AcDbLine
 62
7
  6
CONTINUOUS
 10
89.0763102857
 20
212.6086154002
 11
92.8244457128
 21
212.6086154002
  0
LWPOLYLINE
  5
419
100
AcDbEntity
  8
7_ALL_FEATURES
100
AcDbPolyline
 62
7
  6
CONTINUOUS
 90
18
 70
0
 10
56.9837166231
 20
212.6086156091
 10
57.0249053202
 20
212.6077961359
 10
57.0705328676
 20
212.6047160717
 10
57.1107684436
 20
212.5996577726
 10
57.1454428043
 20
212.5930480019
 10
57.1745743771
 20
212.5853908553
 10
57.1984865889
 20
212.5771917509
 10
57.2178529014
 20
212.5688395935
 10
57.2336891733
 20
212.5604565504
 10
57.2469342856
 20
212.5519864609
 10
57.25842079
 20
212.5432057303
 10
57.2689036709
 20
212.5336871947
 10
57.278985946
 20
212.5228392553
 10
57.289031792
 20
212.5100165915
 10
57.2990926521
 20
212.4947234933
 10
57.3090012668
 20
212.4766739544
 10
57.3183957149
 20
212.4559785814
 10
57.3242893213
 20
212.4406045965
  0
LINE
  5
41A
100
AcDbEntity
  8
7_ALL_FEATURES
100
AcDbLine
 62
9
  6
CONTINUOUS
 10
48.2793538223
 20
213.0650375288
 11
48.2755412607
 21
213.1086154002
  0
LINE
  5
41B
100
AcDbEntity
  8
7_ALL_FEATURES
100
AcDbLine
 62
7
  6
CONTINUOUS
 10
48.5744003669
 20
213.1086154002
 11
48.6219572684
 21
212.5650375288
  0
LINE
  5
41C
100
AcDbEntity
  8
7_ALL_FEATURES
100
AcDbLine
 62
9
  6
CONTINUOUS
 10
48.2793545272
 20
212.6086154002
 11
48.2793545272
 21
213.0650375288
  0
LINE
  5
41D
100
AcDbEntity
  8
7_ALL_FEATURES
100
AcDbLine
 62
9
  6
CONTINUOUS
 10
88.279355771
 20
213.0650375288
 11
80.8695376059
 21
213.0650375288
  0
LINE
  5
41E
100
AcDbEntity
  8
7_ALL_FEATURES
100
AcDbLine
 62
9
  6
CONTINUOUS
 10
48.2793538223
 20
213.0650375288
 11
40.8695356544
 21
213.0650375288
  0
LINE
  5
41F
100
AcDbEntity
  8
7_ALL_FEATURES
100
AcDbLine
 62
7
  6
CONTINUOUS
 10
95.2849954342
 20
213.1086154002
 11
33.8638959914
 21
213.1086154002
  0
LINE
  5
420
100
AcDbEntity
  8
7_ALL_FEATURES
100
AcDbLine
 62
9
  6
CONTINUOUS
 10
94.7851667717
 20
213.6217038743
 11
34.3637246539
 21
213.6217038743
  0
LINE
  5
421
100
AcDbEntity
  8
7_ALL_FEATURES
100
AcDbLine
 62
9
  6
CONTINUOUS
 10
49.1200546175
 20
212.4211148935
 11
49.1200546175
 21
212.1086154002
  0
LINE
  5
422
100
AcDbEntity
  8
7_ALL_FEATURES
100
AcDbLine
 62
9
  6
CONTINUOUS
 10
51.3536752836
 20
212.4211169754
 11
51.3536752836
 21
212.1086154002
  0
LINE
  5
423
100
AcDbEntity
  8
7_ALL_FEATURES
100
AcDbLine
 62
9
  6
CONTINUOUS
 10
57.7952161421
 20
212.1086154002
 11
57.7952161421
 21
212.4211169755
  0
LWPOLYLINE
  5
424
100
AcDbEntity
  8
7_ALL_FEATURES
100
AcDbPolyline
 62
7
  6
CONTINUOUS
 90
18
 70
0
 10
51.8246020287
 20
212.4406043775
 10
51.830716189
 20
212.4565134667
 10
51.8401176187
 20
212.4771274906
 10
51.8500275249
 20
212.4951023999
 10
51.8600853305
 20
212.5103296584
 10
51.8701275848
 20
212.523098644
 10
51.8802102285
 20
212.5339065959
 10
51.890702653
 20
212.543398842
 10
51.9022106382
 20
212.5521637408
 10
51.9154907978
 20
212.5606246847
 10
51.9313772736
 20
212.5690019459
 10
51.9508095908
 20
212.5773481346
 10
51.9748037769
 20
212.5855378983
 10
52.0040265718
 20
212.5931785438
 10
52.0387927459
 20
212.5997630704
 10
52.0791118021
 20
212.6047881187
 10
52.1248065648
 20
212.6078293623
 10
52.1651740501
 20
212.6086156082
  0
LINE
  5
425
100
AcDbEntity
  8
7_ALL_FEATURES
100
AcDbLine
 62
9
  6
CONTINUOUS
 10
80.0288368082
 20
212.1086154002
 11
80.0288368082
 21
212.4211148918
  0
LINE
  5
426
100
AcDbEntity
  8
7_ALL_FEATURES
100
AcDbLine
 62
9
  6
CONTINUOUS
 10
80.8695368984
 20
212.6086154002
 11
80.8695368984
 21
213.0650375288
  0
LINE
  5
427
100
AcDbEntity
  8
7_ALL_FEATURES
100
AcDbLine
 62
7
  6
CONTINUOUS
 10
80.5269341572
 20
212.5650375288
 11
80.5744910587
 21
213.1086154002
  0
LINE
  5
428
100
AcDbEntity
  8
7_ALL_FEATURES
100
AcDbLine
 62
9
  6
CONTINUOUS
 10
80.8733501674
 20
213.1086154002
 11
80.8695376059
 21
213.0650375288
  0
LINE
  5
429
100
AcDbEntity
  8
7_ALL_FEATURES
100
AcDbLine
 62
9
  6
CONTINUOUS
 10
88.279355771
 20
213.0650375288
 11
88.2755431869
 21
213.1086154002
  0
LINE
  5
42A
100
AcDbEntity
  8
7_ALL_FEATURES
100
AcDbLine
 62
7
  6
CONTINUOUS
 10
88.5744003669
 20
213.1086154002
 11
88.6219572684
 21
212.5650375288
  0
LINE
  5
42B
100
AcDbEntity
  8
06___PRT_ALL_SURFS
100
AcDbLine
 62
9
  6
CONTINUOUS
 10
90.2365037715
 20
212.6086154002
 11
90.2190433867
 21
213.1086154002
  0
LINE
  5
42C
100
AcDbEntity
  8
7_ALL_FEATURES
100
AcDbLine
 62
9
  6
CONTINUOUS
 10
88.2793545272
 20
212.6086154002
 11
88.2793545272
 21
213.0650375288
  0
LINE
  5
42D
100
AcDbEntity
  8
7_ALL_FEATURES
100
AcDbLine
 62
9
  6
CONTINUOUS
 10
89.1200546175
 20
212.4211148935
 11
89.1200546175
 21
212.1086154002
  0
LINE
  5
42E
100
AcDbEntity
  8
7_ALL_FEATURES
100
AcDbLine
 62
9
  6
CONTINUOUS
 10
89.5744457128
 20
212.1086154002
 11
89.5744457128
 21
212.6086154002
  0
LINE
  5
42F
100
AcDbEntity
  8
7_ALL_FEATURES
100
AcDbLine
 62
7
  6
CONTINUOUS
 10
90.9837416765
 20
232.734553499
 11
90.9845274574
 21
232.7332801367
  0
LINE
  5
430
100
AcDbEntity
  8
7_ALL_FEATURES
100
AcDbLine
 62
7
  6
CONTINUOUS
 10
92.811352752
 20
213.1086154002
 11
92.8244457128
 21
212.6086154002
  0
LINE
  5
431
100
AcDbEntity
  8
7_ALL_FEATURES
100
AcDbLine
 62
9
  6
CONTINUOUS
 10
94.7851667717
 20
213.6217038743
 11
94.6401446023
 21
219.1598770892
  0
LINE
  5
432
100
AcDbEntity
  8
7_ALL_FEATURES
100
AcDbLine
 62
9
  6
CONTINUOUS
 10
94.7851667717
 20
213.1086154002
 11
94.7851667717
 21
213.6217038743
  0
LINE
  5
433
100
AcDbEntity
  8
7_ALL_FEATURES
100
AcDbLine
 62
7
  6
CONTINUOUS
 10
95.6398019273
 20
219.1598770892
 11
95.7848240967
 21
213.6217038743
  0
LINE
  5
434
100
AcDbEntity
  8
7_ALL_FEATURES
100
AcDbLine
 62
9
  6
CONTINUOUS
 10
117.2799065539
 20
213.1086154002
 11
117.2799065539
 21
213.6217038743
  0
LINE
  5
435
100
AcDbEntity
  8
7_ALL_FEATURES
100
AcDbLine
 62
7
  6
CONTINUOUS
 10
116.280249229
 20
213.6217038743
 11
117.1512738475
 21
246.8847920644
  0
LINE
  5
436
100
AcDbEntity
  8
7_ALL_FEATURES
100
AcDbLine
 62
9
  6
CONTINUOUS
 10
117.2799023675
 20
213.6217038743
 11
117.4249287234
 21
219.1598770892
  0
LINE
  5
437
100
AcDbEntity
  8
06___PRT_ALL_SURFS
100
AcDbLine
 62
7
  6
CONTINUOUS
 10
119.2406276129
 20
212.6086154002
 11
119.2537205736
 21
213.1086154002
  0
LWPOLYLINE
  5
438
100
AcDbEntity
  8
0
100
AcDbPolyline
 62
2
  6
CONTINUOUS
 90
7
 70
0
 43
0.1500000038
 10
129.028296875
 20
199.1218066406
 10
127.5283007813
 20
199.1218066406
 10
129.028296875
 20
201.2646582031
 10
129.028296875
 20
201.6932285156
 10
128.5997265625
 20
202.1217988281
 10
127.9568710938
 20
202.1217988281
 10
127.5283007813
 20
201.4789433594
  0
LINE
  5
439
100
AcDbEntity
  8
7_ALL_FEATURES
100
AcDbLine
 62
9
  6
CONTINUOUS
 10
122.4906276129
 20
212.1086154002
 11
122.4906276129
 21
213.1086154002
  0
LWPOLYLINE
  5
43A
100
AcDbEntity
  8
0
100
AcDbPolyline
 62
2
  6
CONTINUOUS
 90
4
 70
0
 43
0.1500000038
 10
129.8854375
 20
201.4789433594
 10
129.8854375
 20
202.1217988281
 10
131.3854335938
 20
202.1217988281
 10
130.5282929688
 20
199.1218066406
  0
LINE
  5
43B
100
AcDbEntity
  8
7_ALL_FEATURES
100
AcDbLine
 62
7
  6
CONTINUOUS
 10
184.5085387266
 20
212.1086154002
 11
175.022718124
 21
212.1086154002
  0
LINE
  5
43C
100
AcDbEntity
  8
7_ALL_FEATURES
100
AcDbLine
 62
7
  6
CONTINUOUS
 10
163.9585371017
 20
212.1086154002
 11
121.2727164991
 21
212.1086154002
  0
LINE
  5
43D
100
AcDbEntity
  8
7_ALL_FEATURES
100
AcDbLine
 62
9
  6
CONTINUOUS
 10
184.9720511321
 20
212.4211154002
 11
174.5592040936
 21
212.4211154002
  0
LINE
  5
43E
100
AcDbEntity
  8
7_ALL_FEATURES
100
AcDbLine
 62
9
  6
CONTINUOUS
 10
164.4220511321
 20
212.4211154002
 11
120.8092040936
 21
212.4211154002
  0
LINE
  5
43F
100
AcDbEntity
  8
7_ALL_FEATURES
100
AcDbLine
 62
7
  6
CONTINUOUS
 10
119.2406276129
 20
212.6086154002
 11
141.1580879976
 21
212.6086154002
  0
LINE
  5
440
100
AcDbEntity
  8
06___PRT_ALL_SURFS
100
AcDbLine
 62
7
  6
CONTINUOUS
 10
141.1580879976
 20
212.6086154002
 11
164.6231672281
 21
212.6086154002
  0
LINE
  5
441
100
AcDbEntity
  8
7_ALL_FEATURES
100
AcDbLine
 62
7
  6
CONTINUOUS
 10
164.6231672281
 20
212.6086154002
 11
166.4093719446
 21
212.6086154002
  0
LINE
  5
442
100
AcDbEntity
  8
7_ALL_FEATURES
100
AcDbLine
 62
7
  6
CONTINUOUS
 10
172.5718832811
 20
212.6086154002
 11
186.5406276129
 21
212.6086154002
  0
LINE
  5
443
100
AcDbEntity
  8
7_ALL_FEATURES
100
AcDbLine
 62
7
  6
CONTINUOUS
 10
116.7800778915
 20
213.1086154002
 11
189.0011773343
 21
213.1086154002
  0
LINE
  5
444
100
AcDbEntity
  8
7_ALL_FEATURES
100
AcDbLine
 62
9
  6
CONTINUOUS
 10
117.2799023675
 20
213.6217038743
 11
188.5013528557
 21
213.6217038743
  0
LINE
  5
445
100
AcDbEntity
  8
7_ALL_FEATURES
100
AcDbLine
 62
9
  6
CONTINUOUS
 10
140.0260055761
 20
233.2086154002
 11
140.0260055754
 21
232.7332801368
  0
LINE
  5
446
100
AcDbEntity
  8
7_ALL_FEATURES
100
AcDbLine
 62
7
  6
CONTINUOUS
 10
141.1580879976
 20
212.6086154002
 11
141.1755483823
 21
213.1086154002
  0
LINE
  5
447
100
AcDbEntity
  8
7_ALL_FEATURES
100
AcDbLine
 62
9
  6
CONTINUOUS
 10
117.4249287234
 20
219.1598770892
 11
188.3563265023
 21
219.1598770892
  0
LINE
  5
448
100
AcDbEntity
  8
7_ALL_FEATURES
100
AcDbLine
 62
9
  6
CONTINUOUS
 10
143.4906276129
 20
247.4786154002
 11
143.4906276129
 21
233.2086154002
  0
LINE
  5
449
100
AcDbEntity
  8
06___PRT_ALL_SURFS
100
AcDbLine
 62
9
  6
CONTINUOUS
 10
141.6574789638
 20
212.6086154002
 11
141.6749393486
 21
213.1086154002
  0
LINE
  5
44A
100
AcDbEntity
  8
7_ALL_FEATURES
100
AcDbLine
 62
9
  6
CONTINUOUS
 10
117.4918786219
 20
221.8992129548
 11
188.2893766038
 21
221.8992129548
  0
LINE
  5
44B
100
AcDbEntity
  8
7_ALL_FEATURES
100
AcDbLine
 62
9
  6
CONTINUOUS
 10
146.9552496246
 20
233.2086134648
 11
146.9552496229
 21
232.7332800124
  0
LWPOLYLINE
  5
44C
100
AcDbEntity
  8
7_ALL_FEATURES
100
AcDbPolyline
 62
7
  6
CONTINUOUS
 90
4
 70
0
 10
147.005745676
 20
233.2422635462
 10
147.0061296656
 20
233.2426111479
 10
146.9940820292
 20
233.2344470643
 10
146.9539403202
 20
233.217435503
  0
LWPOLYLINE
  5
44D
100
AcDbEntity
  8
7_ALL_FEATURES
100
AcDbPolyline
 62
7
  6
CONTINUOUS
 90
3
 70
0
 10
140.0274139294
 20
233.2174062484
 10
139.9872220547
 20
233.2344184731
 10
139.9793253289
 20
233.2394435233
  0
LINE
  5
44E
100
AcDbEntity
  8
7_ALL_FEATURES
100
AcDbLine
 62
9
  6
CONTINUOUS
 10
140.0260055754
 20
232.7332801368
 11
146.9552496229
 21
232.7332801363
  0
LINE
  5
44F
100
AcDbEntity
  8
7_ALL_FEATURES
100
AcDbLine
 62
7
  6
CONTINUOUS
 10
140.0260103011
 20
233.2086154002
 11
146.95524676
 21
233.2086154002
  0
LINE
  5
450
100
AcDbEntity
  8
7_ALL_FEATURES
100
AcDbLine
 62
7
  6
CONTINUOUS
 10
140.0880134296
 20
233.2086154461
 11
140.0274139294
 21
233.2174062484
  0
LINE
  5
451
100
AcDbEntity
  8
7_ALL_FEATURES
100
AcDbLine
 62
7
  6
CONTINUOUS
 10
146.9539403202
 20
233.217435503
 11
146.8932301987
 21
233.2086154455
  0
LINE
  5
452
100
AcDbEntity
  8
06___PRT_ALL_SURFS
100
AcDbLine
 62
9
  6
CONTINUOUS
 10
164.1063158771
 20
213.1086154002
 11
164.1237762619
 21
212.6086154002
  0
LINE
  5
453
100
AcDbEntity
  8
7_ALL_FEATURES
100
AcDbLine
 62
7
  6
CONTINUOUS
 10
164.6231672281
 20
212.6086154002
 11
164.6057068434
 21
213.1086154002
  0
LINE
  5
454
100
AcDbEntity
  8
7_ALL_FEATURES
100
AcDbLine
 62
9
  6
CONTINUOUS
 10
163.8656276129
 20
212.1086154002
 11
163.8656276129
 21
212.6086154002
  0
LWPOLYLINE
  5
455
100
AcDbEntity
  8
6_ALL_SURFS
100
AcDbPolyline
 62
7
  6
CONTINUOUS
 90
5
 70
0
 10
147.3856768432
 20
246.257427213
 10
147.1803046851
 20
246.3981113475
 10
145.9065318927
 20
247.0158141491
 10
144.6290167555
 20
247.3761522129
 10
143.4906276129
 20
247.4786154002
  0
LINE
  5
456
100
AcDbEntity
  8
7_ALL_FEATURES
100
AcDbLine
 62
9
  6
CONTINUOUS
 10
165.3424401921
 20
212.6086154002
 11
165.3861845239
 21
213.1086154002
  0
LINE
  5
457
100
AcDbEntity
  8
7_ALL_FEATURES
100
AcDbLine
 62
9
  6
CONTINUOUS
 10
165.8759060684
 20
212.6086154002
 11
165.9196504001
 21
213.1086154002
  0
LINE
  5
458
100
AcDbEntity
  8
7_ALL_FEATURES
100
AcDbLine
 62
9
  6
CONTINUOUS
 10
166.2319996348
 20
213.1086154002
 11
166.188255303
 21
212.6086154002
  0
LINE
  5
459
100
AcDbEntity
  8
7_ALL_FEATURES
100
AcDbLine
 62
7
  6
CONTINUOUS
 10
166.4531162764
 20
213.1086154002
 11
166.4093719446
 21
212.6086154002
  0
LINE
  5
45A
100
AcDbEntity
  8
06___PRT_ALL_SURFS
100
AcDbLine
 62
7
  6
CONTINUOUS
 10
187.6303240572
 20
247.8586154002
 11
148.4069587871
 21
247.8586154002
  0
LINE
  5
45B
100
AcDbEntity
  8
06___PRT_ALL_SURFS
100
AcDbLine
 62
7
  6
CONTINUOUS
 10
138.5742964383
 20
247.8586154002
 11
118.1509311685
 21
247.8586154002
  0
LINE
  5
45C
100
AcDbEntity
  8
7_ALL_FEATURES
100
AcDbLine
 62
7
  6
CONTINUOUS
 10
172.5718832811
 20
212.6086154002
 11
172.5281389493
 21
213.1086154002
  0
LINE
  5
45D
100
AcDbEntity
  8
7_ALL_FEATURES
100
AcDbLine
 62
9
  6
CONTINUOUS
 10
172.7929999227
 20
212.6086154002
 11
172.7492555909
 21
213.1086154002
  0
LINE
  5
45E
100
AcDbEntity
  8
7_ALL_FEATURES
100
AcDbLine
 62
9
  6
CONTINUOUS
 10
173.0616048256
 20
213.1086154002
 11
173.1053491573
 21
212.6086154002
  0
LINE
  5
45F
100
AcDbEntity
  8
7_ALL_FEATURES
100
AcDbLine
 62
9
  6
CONTINUOUS
 10
173.5950707018
 20
213.1086154002
 11
173.6388150336
 21
212.6086154002
  0
LWPOLYLINE
  5
460
100
AcDbEntity
  8
6_ALL_SURFS
100
AcDbPolyline
 62
7
  6
CONTINUOUS
 90
5
 70
0
 10
143.4906276129
 20
247.4786154002
 10
142.3422684124
 20
247.3743439982
 10
141.0552407359
 20
247.0083104039
 10
139.7730843121
 20
246.3817210639
 10
139.5955075046
 20
246.259193706
  0
LWPOLYLINE
  5
461
100
AcDbEntity
  8
7_ALL_FEATURES
100
AcDbPolyline
 62
7
  6
CONTINUOUS
 90
19
 70
0
 10
118.1509311685
 20
247.8586150989
 10
118.0623051884
 20
247.8565055227
 10
117.9603358853
 20
247.8482857255
 10
117.8636199224
 20
247.8337104865
 10
117.7726118458
 20
247.8127019195
 10
117.6880407068
 20
247.7854020128
 10
117.6104661568
 20
247.7521616612
 10
117.5401050571
 20
247.7134432855
 10
117.4765445135
 20
247.669475267
 10
117.4191272002
 20
247.6201634038
 10
117.3673065159
 20
247.5651906405
 10
117.3207204687
 20
247.5040602225
 10
117.2791877614
 20
247.4360916408
 10
117.2428501343
 20
247.3607404368
 10
117.2121623056
 20
247.2780620153
 10
117.1875413382
 20
247.1885312316
 10
117.169211999
 20
247.0928422744
 10
117.1571608172
 20
246.9914587795
 10
117.1512738475
 20
246.8847920644
  0
LINE
  5
462
100
AcDbEntity
  8
7_ALL_FEATURES
100
AcDbLine
 62
9
  6
CONTINUOUS
 10
175.1156276129
 20
212.1086154002
 11
175.1156276129
 21
212.6086154002
  0
LINE
  5
463
100
AcDbEntity
  8
7_ALL_FEATURES
100
AcDbLine
 62
9
  6
CONTINUOUS
 10
183.2906276129
 20
212.1086154002
 11
183.2906276129
 21
213.1086154002
  0
LINE
  5
464
100
AcDbEntity
  8
06___PRT_ALL_SURFS
100
AcDbLine
 62
7
  6
CONTINUOUS
 10
186.5406276129
 20
212.6086154002
 11
186.5275346521
 21
213.1086154002
  0
LWPOLYLINE
  5
465
100
AcDbEntity
  8
7_ALL_FEATURES
100
AcDbPolyline
 62
7
  6
CONTINUOUS
 90
19
 70
0
 10
188.6299813782
 20
246.8847920644
 10
188.6240944085
 20
246.9914587795
 10
188.6120432267
 20
247.0928422744
 10
188.5937138875
 20
247.1885312316
 10
188.5690929201
 20
247.2780620153
 10
188.5384050914
 20
247.3607404368
 10
188.5020674643
 20
247.4360916408
 10
188.460534757
 20
247.5040602225
 10
188.4139487098
 20
247.5651906405
 10
188.3621280255
 20
247.6201634038
 10
188.3047107123
 20
247.669475267
 10
188.2411501686
 20
247.7134432855
 10
188.1707890689
 20
247.7521616612
 10
188.0932145189
 20
247.7854020128
 10
188.0086433799
 20
247.8127019195
 10
187.9176353033
 20
247.8337104865
 10
187.8209193404
 20
247.8482857255
 10
187.7189500373
 20
247.8565055227
 10
187.6303240572
 20
247.8586150989
  0
LINE
  5
466
100
AcDbEntity
  8
7_ALL_FEATURES
100
AcDbLine
 62
9
  6
CONTINUOUS
 10
188.3563265023
 20
219.1598770892
 11
188.5013528557
 21
213.6217038743
  0
LINE
  5
467
100
AcDbEntity
  8
7_ALL_FEATURES
100
AcDbLine
 62
7
  6
CONTINUOUS
 10
188.6299813782
 20
246.8847920644
 11
189.5010059967
 21
213.6217038743
  0
LINE
  5
468
100
AcDbEntity
  8
7_ALL_FEATURES
100
AcDbLine
 62
9
  6
CONTINUOUS
 10
188.5013486718
 20
213.1086154002
 11
188.5013486718
 21
213.6217038743
  0
ARC
  5
469
100
AcDbEntity
  8
7_ALL_FEATURES
100
AcDbCircle
 62
7
  6
CONTINUOUS
 10
64.5458304677
 20
-257.1686394162
 40
401.1247295203
100
AcDbArc
 50
89.7457175129
 51
89.9959137012
  0
ARC
  5
46A
100
AcDbEntity
  8
7_ALL_FEATURES
100
AcDbCircle
 62
9
  6
CONTINUOUS
 10
59.4617848916
 20
-63.9192224442
 40
201.1246295849
100
AcDbArc
 50
93.2984444429
 51
93.6067011686
  0
ARC
  5
46B
100
AcDbEntity
  8
7_ALL_FEATURES
100
AcDbCircle
 62
9
  6
CONTINUOUS
 10
61.1700941695
 20
-45.7960410926
 40
183.2083261017
100
AcDbArc
 50
96.0008203271
 51
96.7011749935
  0
ARC
  5
46C
100
AcDbEntity
  8
7_ALL_FEATURES
100
AcDbCircle
 62
9
  6
CONTINUOUS
 10
58.9935764515
 20
-25.3952823116
 40
163.1912423403
100
AcDbArc
 50
96.0089574051
 51
96.8541391456
  0
ARC
  5
46D
100
AcDbEntity
  8
7_ALL_FEATURES
100
AcDbCircle
 62
9
  6
CONTINUOUS
 10
57.8648824877
 20
-15.8927590799
 40
153.1234509595
100
AcDbArc
 50
94.2206411384
 51
95.9406032804
  0
ARC
  5
46E
100
AcDbEntity
  8
7_ALL_FEATURES
100
AcDbCircle
 62
9
  6
CONTINUOUS
 10
57.6035695054
 20
-14.0261037548
 40
151.7391416114
100
AcDbArc
 50
94.1843913409
 51
95.9363841375
  0
ARC
  5
46F
100
AcDbEntity
  8
7_ALL_FEATURES
100
AcDbCircle
 62
9
  6
CONTINUOUS
 10
48.5025741708
 20
61.9524868364
 40
75.2157130008
100
AcDbArc
 50
96.8604218608
 51
97.2459730611
  0
ARC
  5
470
100
AcDbEntity
  8
7_ALL_FEATURES
100
AcDbCircle
 62
7
  6
CONTINUOUS
 10
61.2016381288
 20
137.7821559806
 40
14.6775858673
100
AcDbArc
 50
180.0000915445
 51
181.8490586405
  0
ARC
  5
471
100
AcDbEntity
  8
7_ALL_FEATURES
100
AcDbCircle
 62
9
  6
CONTINUOUS
 10
52.5901295714
 20
137.7823898841
 40
13.1228773318
100
AcDbArc
 50
180.0010512535
 51
185.0394177882
  0
ARC
  5
472
100
AcDbEntity
  8
7_ALL_FEATURES
100
AcDbCircle
 62
9
  6
CONTINUOUS
 10
53.6477663263
 20
137.7823727344
 40
11.770863085
100
AcDbArc
 50
180.0011692199
 51
184.3024203297
  0
ARC
  5
473
100
AcDbEntity
  8
7_ALL_FEATURES
100
AcDbCircle
 62
7
  6
CONTINUOUS
 10
46.6190146757
 20
139.6554403886
 40
2.8068592752
100
AcDbArc
 50
272.1981550371
 51
273.3976630441
  0
ARC
  5
474
100
AcDbEntity
  8
7_ALL_FEATURES
100
AcDbCircle
 62
9
  6
CONTINUOUS
 10
35.3421858862
 20
95.0217224448
 40
1.9781185815
100
AcDbArc
 50
180.0091284663
 51
180.385707977
  0
ARC
  5
475
100
AcDbEntity
  8
7_ALL_FEATURES
100
AcDbCircle
 62
9
  6
CONTINUOUS
 10
34.3640368992
 20
95.9997001277
 40
1.9779460067
100
AcDbArc
 50
269.6057264871
 51
269.9909550922
  0
ARC
  5
476
100
AcDbEntity
  8
7_ALL_FEATURES
100
AcDbCircle
 62
9
  6
CONTINUOUS
 10
39.0896254006
 20
135.8803330724
 40
0.7091240234
100
AcDbArc
 50
250.9628575099
 51
269.5405765829
  0
ARC
  5
477
100
AcDbEntity
  8
7_ALL_FEATURES
100
AcDbCircle
 62
7
  6
CONTINUOUS
 10
64.4420137689
 20
583.280976485
 40
447.172820085
100
AcDbArc
 50
270.016969028
 51
270.2413988275
  0
ARC
  5
478
100
AcDbEntity
  8
7_ALL_FEATURES
100
AcDbCircle
 62
9
  6
CONTINUOUS
 10
59.0933808472
 20
307.2019526148
 40
164.4351477122
100
AcDbArc
 50
263.258845633
 51
264.039159315
  0
ARC
  5
479
100
AcDbEntity
  8
7_ALL_FEATURES
100
AcDbCircle
 62
9
  6
CONTINUOUS
 10
58.9935473538
 20
305.4593683534
 40
163.1910612408
100
AcDbArc
 50
263.1458635586
 51
263.9910461145
  0
ARC
  5
47A
100
AcDbEntity
  8
7_ALL_FEATURES
100
AcDbCircle
 62
9
  6
CONTINUOUS
 10
57.8648949243
 20
295.9571640972
 40
153.1235914534
100
AcDbArc
 50
264.0593974703
 51
265.779358075
  0
ARC
  5
47B
100
AcDbEntity
  8
7_ALL_FEATURES
100
AcDbCircle
 62
9
  6
CONTINUOUS
 10
57.6035777264
 20
294.0904567774
 40
151.7392299445
100
AcDbArc
 50
264.063616145
 51
265.8156079867
  0
ARC
  5
47C
100
AcDbEntity
  8
7_ALL_FEATURES
100
AcDbCircle
 62
9
  6
CONTINUOUS
 10
48.5016840205
 20
218.1067163311
 40
75.2105810793
100
AcDbArc
 50
262.7542134582
 51
263.1397909138
  0
ARC
  5
47D
100
AcDbEntity
  8
7_ALL_FEATURES
100
AcDbCircle
 62
7
  6
CONTINUOUS
 10
61.2016398193
 20
142.2821090494
 40
14.6775875579
100
AcDbArc
 50
178.150941476
 51
179.9999083427
  0
ARC
  5
47E
100
AcDbEntity
  8
7_ALL_FEATURES
100
AcDbCircle
 62
9
  6
CONTINUOUS
 10
52.58289066
 20
142.2821917286
 40
13.1156384272
100
AcDbArc
 50
174.9591821834
 51
180.0003296238
  0
ARC
  5
47F
100
AcDbEntity
  8
7_ALL_FEATURES
100
AcDbCircle
 62
9
  6
CONTINUOUS
 10
53.6476987284
 20
142.2818969947
 40
11.7707954994
100
AcDbArc
 50
175.697577586
 51
179.9988535059
  0
ARC
  5
480
100
AcDbEntity
  8
7_ALL_FEATURES
100
AcDbCircle
 62
9
  6
CONTINUOUS
 10
34.3640379185
 20
165.2641360556
 40
1.9783748826
100
AcDbArc
 50
90.0090724661
 51
90.3860952077
  0
ARC
  5
481
100
AcDbEntity
  8
7_ALL_FEATURES
100
AcDbCircle
 62
9
  6
CONTINUOUS
 10
35.3417580713
 20
166.2425436324
 40
1.9776907665
100
AcDbArc
 50
179.6061133103
 51
179.9908989865
  0
ARC
  5
482
100
AcDbEntity
  8
7_ALL_FEATURES
100
AcDbCircle
 62
9
  6
CONTINUOUS
 10
39.0896254268
 20
144.1839320002
 40
0.7091240108
100
AcDbArc
 50
90.4594255882
 51
109.0371310428
  0
ARC
  5
483
100
AcDbEntity
  8
7_ALL_FEATURES
100
AcDbCircle
 62
7
  6
CONTINUOUS
 10
64.7068646638
 20
-303.2080157281
 40
447.1641244208
100
AcDbArc
 50
90.0169679632
 51
90.241404224
  0
ARC
  5
484
100
AcDbEntity
  8
7_ALL_FEATURES
100
AcDbCircle
 62
9
  6
CONTINUOUS
 10
69.6871119991
 20
-63.9191311398
 40
201.1245381176
100
AcDbArc
 50
86.393298749
 51
86.7015556158
  0
ARC
  5
485
100
AcDbEntity
  8
7_ALL_FEATURES
100
AcDbCircle
 62
9
  6
CONTINUOUS
 10
71.3516820418
 20
-38.0306632359
 40
175.1826350236
100
AcDbArc
 50
85.6580439334
 51
86.4039940101
  0
ARC
  5
486
100
AcDbEntity
  8
7_ALL_FEATURES
100
AcDbCircle
 62
9
  6
CONTINUOUS
 10
69.6076131447
 20
-36.5545694093
 40
173.8526712879
100
AcDbArc
 50
85.0480677121
 51
85.7295311549
  0
ARC
  5
487
100
AcDbEntity
  8
7_ALL_FEATURES
100
AcDbCircle
 62
9
  6
CONTINUOUS
 10
70.0519441476
 20
-32.5408067696
 40
170.313514508
100
AcDbArc
 50
85.0619366381
 51
85.7690342556
  0
ARC
  5
488
100
AcDbEntity
  8
7_ALL_FEATURES
100
AcDbCircle
 62
9
  6
CONTINUOUS
 10
70.0555104243
 20
-27.13768902
 40
164.4351491843
100
AcDbArc
 50
83.2588456395
 51
84.0391593184
  0
ARC
  5
489
100
AcDbEntity
  8
7_ALL_FEATURES
100
AcDbCircle
 62
9
  6
CONTINUOUS
 10
70.1553459311
 20
-25.3950881521
 40
163.1910459851
100
AcDbArc
 50
83.1458635771
 51
83.991046211
  0
ARC
  5
48A
100
AcDbEntity
  8
7_ALL_FEATURES
100
AcDbCircle
 62
9
  6
CONTINUOUS
 10
72.8119469734
 20
-0.0055738229
 40
137.1635032061
100
AcDbArc
 50
84.0073697613
 51
85.0637177716
  0
ARC
  5
48B
100
AcDbEntity
  8
7_ALL_FEATURES
100
AcDbCircle
 62
9
  6
CONTINUOUS
 10
72.9972709979
 20
1.1035223575
 40
136.5405371448
100
AcDbArc
 50
84.0130063946
 51
85.0780212925
  0
ARC
  5
48C
100
AcDbEntity
  8
7_ALL_FEATURES
100
AcDbCircle
 62
9
  6
CONTINUOUS
 10
80.6472221098
 20
61.9576036407
 40
75.2105248033
100
AcDbArc
 50
82.7542192999
 51
83.1397970494
  0
ARC
  5
48D
100
AcDbEntity
  8
7_ALL_FEATURES
100
AcDbCircle
 62
7
  6
CONTINUOUS
 10
67.9472532965
 20
137.7821559807
 40
14.6775858676
100
AcDbArc
 50
358.1509413572
 51
359.9999084553
  0
ARC
  5
48E
100
AcDbEntity
  8
7_ALL_FEATURES
100
AcDbCircle
 62
9
  6
CONTINUOUS
 10
76.566049421
 20
137.7820712474
 40
13.1155897631
100
AcDbArc
 50
354.9591725739
 51
0.0003401344
  0
ARC
  5
48F
100
AcDbEntity
  8
7_ALL_FEATURES
100
AcDbCircle
 62
9
  6
CONTINUOUS
 10
75.5012540894
 20
137.7823657471
 40
11.7707340952
100
AcDbArc
 50
355.6975664059
 51
359.9988647788
  0
ARC
  5
490
100
AcDbEntity
  8
7_ALL_FEATURES
100
AcDbCircle
 62
9
  6
CONTINUOUS
 10
94.7848535072
 20
96.000129002
 40
1.9783748812
100
AcDbArc
 50
270.009072466
 51
270.3860952079
  0
ARC
  5
491
100
AcDbEntity
  8
7_ALL_FEATURES
100
AcDbCircle
 62
9
  6
CONTINUOUS
 10
93.8071333549
 20
95.0217214265
 40
1.977690766
100
AcDbArc
 50
359.6061133102
 51
359.9908989865
  0
ARC
  5
492
100
AcDbEntity
  8
7_ALL_FEATURES
100
AcDbCircle
 62
9
  6
CONTINUOUS
 10
90.0592660101
 20
135.8803329499
 40
0.7091239018
100
AcDbArc
 50
270.4594247181
 51
289.0371322453
  0
ARC
  5
493
100
AcDbEntity
  8
7_ALL_FEATURES
100
AcDbCircle
 62
7
  6
CONTINUOUS
 10
64.6030309791
 20
537.2229461378
 40
401.1147711443
100
AcDbArc
 50
269.7457160957
 51
269.9959175809
  0
ARC
  5
494
100
AcDbEntity
  8
7_ALL_FEATURES
100
AcDbCircle
 62
9
  6
CONTINUOUS
 10
67.9787970881
 20
325.860307668
 40
183.2083276275
100
AcDbArc
 50
276.0008203326
 51
276.7011749906
  0
ARC
  5
495
100
AcDbEntity
  8
7_ALL_FEATURES
100
AcDbCircle
 62
9
  6
CONTINUOUS
 10
70.1553132801
 20
305.4595607039
 40
163.1912557797
100
AcDbArc
 50
276.0089575098
 51
276.8541393146
  0
ARC
  5
496
100
AcDbEntity
  8
7_ALL_FEATURES
100
AcDbCircle
 62
9
  6
CONTINUOUS
 10
71.2839915585
 20
295.9572196218
 40
153.1236471915
100
AcDbArc
 50
274.2206422406
 51
275.9406021816
  0
ARC
  5
497
100
AcDbEntity
  8
7_ALL_FEATURES
100
AcDbCircle
 62
9
  6
CONTINUOUS
 10
71.545320172
 20
294.0903877944
 40
151.739160673
100
AcDbArc
 50
274.1843914763
 51
275.9363840563
  0
ARC
  5
498
100
AcDbEntity
  8
7_ALL_FEATURES
100
AcDbCircle
 62
9
  6
CONTINUOUS
 10
80.646888164
 20
218.1094813763
 40
75.2133644034
100
AcDbArc
 50
276.8601993684
 51
277.245762135
  0
ARC
  5
499
100
AcDbEntity
  8
7_ALL_FEATURES
100
AcDbCircle
 62
7
  6
CONTINUOUS
 10
67.9472516057
 20
142.2821090494
 40
14.6775875585
100
AcDbArc
 50
0.0000916576
 51
1.8490585264
  0
ARC
  5
49A
100
AcDbEntity
  8
7_ALL_FEATURES
100
AcDbCircle
 62
9
  6
CONTINUOUS
 10
76.5584637305
 20
142.2818663959
 40
13.1231754645
100
AcDbArc
 50
0.0010909678
 51
5.0393416942
  0
ARC
  5
49B
100
AcDbEntity
  8
7_ALL_FEATURES
100
AcDbCircle
 62
9
  6
CONTINUOUS
 10
75.5010566058
 20
142.2818897146
 40
11.7709315906
100
AcDbArc
 50
0.0011819175
 51
4.3024079782
  0
ARC
  5
49C
100
AcDbEntity
  8
7_ALL_FEATURES
100
AcDbCircle
 62
9
  6
CONTINUOUS
 10
93.8067055395
 20
166.2425426142
 40
1.9781185815
100
AcDbArc
 50
0.0091284663
 51
0.385707977
  0
ARC
  5
49D
100
AcDbEntity
  8
7_ALL_FEATURES
100
AcDbCircle
 62
9
  6
CONTINUOUS
 10
94.7848545264
 20
165.2645649308
 40
1.9779460072
100
AcDbArc
 50
89.6057264869
 51
89.990955092
  0
ARC
  5
49E
100
AcDbEntity
  8
7_ALL_FEATURES
100
AcDbCircle
 62
9
  6
CONTINUOUS
 10
90.0592660286
 20
144.1839320127
 40
0.7091239972
100
AcDbArc
 50
70.9628388064
 51
89.5405768106
  0
ARC
  5
49F
100
AcDbEntity
  8
7_ALL_FEATURES
100
AcDbCircle
 62
7
  6
CONTINUOUS
 10
62.3983606115
 20
215.1153455157
 40
33.5791687027
100
AcDbArc
 50
31.6804580654
 51
32.144705077
  0
ARC
  5
4A0
100
AcDbEntity
  8
7_ALL_FEATURES
100
AcDbCircle
 62
7
  6
CONTINUOUS
 10
62.5441648157
 20
215.2070484386
 40
33.4069238375
100
AcDbArc
 50
32.1494559249
 51
33.6108369007
  0
ARC
  5
4A1
100
AcDbEntity
  8
7_ALL_FEATURES
100
AcDbCircle
 62
7
  6
CONTINUOUS
 10
62.5915039571
 20
215.2384794399
 40
33.3501004119
100
AcDbArc
 50
33.6243855074
 51
33.844296769
  0
ARC
  5
4A2
100
AcDbEntity
  8
7_ALL_FEATURES
100
AcDbCircle
 62
7
  6
CONTINUOUS
 10
62.6130101869
 20
215.2529011106
 40
33.3242063488
100
AcDbArc
 50
33.8442961781
 51
34.5346229067
  0
ARC
  5
4A3
100
AcDbEntity
  8
7_ALL_FEATURES
100
AcDbCircle
 62
7
  6
CONTINUOUS
 10
62.6153168737
 20
215.2544612448
 40
33.3214216063
100
AcDbArc
 50
34.1412291712
 51
34.2974466453
  0
ARC
  5
4A4
100
AcDbEntity
  8
7_ALL_FEATURES
100
AcDbCircle
 62
7
  6
CONTINUOUS
 10
62.7133110518
 20
215.3229156717
 40
33.2018867405
100
AcDbArc
 50
34.7580856541
 51
36.6583679846
  0
ARC
  5
4A5
100
AcDbEntity
  8
7_ALL_FEATURES
100
AcDbCircle
 62
7
  6
CONTINUOUS
 10
64.5744327156
 20
217.9020651189
 40
29.9565502812
100
AcDbArc
 50
90.0002932846
 51
90.3019409828
  0
ARC
  5
4A6
100
AcDbEntity
  8
7_ALL_FEATURES
100
AcDbCircle
 62
7
  6
CONTINUOUS
 10
64.574394617
 20
217.916433527
 40
29.9421818732
100
AcDbArc
 50
89.9998995986
 51
90.6103257491
  0
ARC
  5
4A7
100
AcDbEntity
  8
7_ALL_FEATURES
100
AcDbCircle
 62
7
  6
CONTINUOUS
 10
64.5742848721
 20
217.9301843118
 40
29.9284306997
100
AcDbArc
 50
90.3019416379
 51
90.610068484
  0
ARC
  5
4A8
100
AcDbEntity
  8
7_ALL_FEATURES
100
AcDbCircle
 62
7
  6
CONTINUOUS
 10
48.4723289707
 20
218.7709799364
 40
14.9682923709
100
AcDbArc
 50
167.9367922003
 51
178.5112080527
  0
ARC
  5
4A9
100
AcDbEntity
  8
7_ALL_FEATURES
100
AcDbCircle
 62
7
  6
CONTINUOUS
 10
48.4545135455
 20
218.7729581089
 40
14.9503679862
100
AcDbArc
 50
170.5807616951
 51
173.2234291298
  0
ARC
  5
4AA
100
AcDbEntity
  8
7_ALL_FEATURES
100
AcDbCircle
 62
7
  6
CONTINUOUS
 10
48.454544561
 20
218.7732316318
 40
14.9503665125
100
AcDbArc
 50
173.2244840814
 51
175.867160848
  0
ARC
  5
4AB
100
AcDbEntity
  8
7_ALL_FEATURES
100
AcDbCircle
 62
9
  6
CONTINUOUS
 10
48.4723337751
 20
218.7971563139
 40
13.968297209
100
AcDbArc
 50
167.9359916369
 51
178.5120086162
  0
ARC
  5
4AC
100
AcDbEntity
  8
7_ALL_FEATURES
100
AcDbCircle
 62
7
  6
CONTINUOUS
 10
40.7706657669
 20
213.6086154002
 40
0.9999999105
100
AcDbArc
 50
269.9999897256
 51
275.4374904601
  0
ARC
  5
4AD
100
AcDbEntity
  8
7_ALL_FEATURES
100
AcDbCircle
 62
7
  6
CONTINUOUS
 10
57.7952167132
 20
212.608616039
 40
0.5000006389
100
AcDbArc
 50
199.6350244848
 51
269.9999345574
  0
ARC
  5
4AE
100
AcDbEntity
  8
7_ALL_FEATURES
100
AcDbCircle
 62
7
  6
CONTINUOUS
 10
51.3536747125
 20
212.608616039
 40
0.5000006389
100
AcDbArc
 50
270.0000654426
 51
340.3649723727
  0
ARC
  5
4AF
100
AcDbEntity
  8
7_ALL_FEATURES
100
AcDbCircle
 62
7
  6
CONTINUOUS
 10
49.0763102857
 20
213.1086154002
 40
0.5
100
AcDbArc
 50
185.0
 51
270.0
  0
ARC
  5
4B0
100
AcDbEntity
  8
7_ALL_FEATURES
100
AcDbCircle
 62
7
  6
CONTINUOUS
 10
40.07258114
 20
213.1086154002
 40
0.5
100
AcDbArc
 50
270.0
 51
355.0
  0
ARC
  5
4B1
100
AcDbEntity
  8
7_ALL_FEATURES
100
AcDbCircle
 62
7
  6
CONTINUOUS
 10
38.3565345991
 20
212.6086154002
 40
0.5
100
AcDbArc
 50
202.024312837
 51
270.0
  0
ARC
  5
4B2
100
AcDbEntity
  8
7_ALL_FEATURES
100
AcDbCircle
 62
7
  6
CONTINUOUS
 10
40.0288368082
 20
212.6086154002
 40
0.5
100
AcDbArc
 50
270.0
 51
355.0
  0
ARC
  5
4B3
100
AcDbEntity
  8
7_ALL_FEATURES
100
AcDbCircle
 62
7
  6
CONTINUOUS
 10
49.1200546175
 20
212.6086154002
 40
0.5
100
AcDbArc
 50
185.0
 51
270.0
  0
ARC
  5
4B4
100
AcDbEntity
  8
7_ALL_FEATURES
100
AcDbCircle
 62
7
  6
CONTINUOUS
 10
33.8638959897
 20
213.6086154002
 40
0.5
100
AcDbArc
 50
178.4999999947
 51
270.0000002042
  0
ARC
  5
4B5
100
AcDbEntity
  8
7_ALL_FEATURES
100
AcDbCircle
 62
7
  6
CONTINUOUS
 10
37.6149147504
 20
212.3086154002
 40
0.3
100
AcDbArc
 50
22.024312837
 51
83.2024312837
  0
ARC
  5
4B6
100
AcDbEntity
  8
7_ALL_FEATURES
100
AcDbCircle
 62
7
  6
CONTINUOUS
 10
66.7505323469
 20
215.115344564
 40
33.5791705068
100
AcDbArc
 50
147.8553044198
 51
148.3195626259
  0
ARC
  5
4B7
100
AcDbEntity
  8
7_ALL_FEATURES
100
AcDbCircle
 62
7
  6
CONTINUOUS
 10
66.6047264594
 20
215.2070485376
 40
33.4069236573
100
AcDbArc
 50
146.3891599477
 51
147.8505340607
  0
ARC
  5
4B8
100
AcDbEntity
  8
7_ALL_FEATURES
100
AcDbCircle
 62
7
  6
CONTINUOUS
 10
66.5718442788
 20
215.2281775448
 40
33.3678480092
100
AcDbArc
 50
145.2416596258
 51
145.465412678
  0
ARC
  5
4B9
100
AcDbEntity
  8
7_ALL_FEATURES
100
AcDbCircle
 62
7
  6
CONTINUOUS
 10
66.5717207409
 20
215.2282627943
 40
33.3676979123
100
AcDbArc
 50
145.2431694518
 51
145.4654130112
  0
ARC
  5
4BA
100
AcDbEntity
  8
7_ALL_FEATURES
100
AcDbCircle
 62
7
  6
CONTINUOUS
 10
66.5573877218
 20
215.2384792706
 40
33.3501007165
100
AcDbArc
 50
146.15570377
 51
146.3756181994
  0
ARC
  5
4BB
100
AcDbEntity
  8
7_ALL_FEATURES
100
AcDbCircle
 62
7
  6
CONTINUOUS
 10
66.5358812384
 20
215.2529011108
 40
33.3242063484
100
AcDbArc
 50
145.4653770928
 51
146.1557043606
  0
ARC
  5
4BC
100
AcDbEntity
  8
7_ALL_FEATURES
100
AcDbCircle
 62
7
  6
CONTINUOUS
 10
66.533572983
 20
215.2544623127
 40
33.3214197084
100
AcDbArc
 50
145.7025532045
 51
145.8589376719
  0
ARC
  5
4BD
100
AcDbEntity
  8
7_ALL_FEATURES
100
AcDbCircle
 62
7
  6
CONTINUOUS
 10
66.4357016725
 20
215.3228282422
 40
33.2020362435
100
AcDbArc
 50
143.3415658312
 51
145.2434269782
  0
ARC
  5
4BE
100
AcDbEntity
  8
7_ALL_FEATURES
100
AcDbCircle
 62
7
  6
CONTINUOUS
 10
64.5744603707
 20
217.9030088545
 40
29.9556065457
100
AcDbArc
 50
89.677684099
 51
90.0003461894
  0
ARC
  5
4BF
100
AcDbEntity
  8
7_ALL_FEATURES
100
AcDbCircle
 62
7
  6
CONTINUOUS
 10
64.5744966693
 20
217.916409116
 40
29.9422062845
100
AcDbArc
 50
89.3898870708
 51
90.0004158762
  0
ARC
  5
4C0
100
AcDbEntity
  8
7_ALL_FEATURES
100
AcDbCircle
 62
7
  6
CONTINUOUS
 10
64.5746146317
 20
217.9310910327
 40
29.9275239441
100
AcDbArc
 50
89.3898135901
 51
89.6776769846
  0
ARC
  5
4C1
100
AcDbEntity
  8
7_ALL_FEATURES
100
AcDbCircle
 62
7
  6
CONTINUOUS
 10
80.676562455
 20
218.7709799364
 40
14.9682923709
100
AcDbArc
 50
1.4887919473
 51
12.0632077997
  0
ARC
  5
4C2
100
AcDbEntity
  8
7_ALL_FEATURES
100
AcDbCircle
 62
7
  6
CONTINUOUS
 10
80.6943778801
 20
218.7729581089
 40
14.9503679863
100
AcDbArc
 50
6.7765708702
 51
9.4192383049
  0
ARC
  5
4C3
100
AcDbEntity
  8
7_ALL_FEATURES
100
AcDbCircle
 62
7
  6
CONTINUOUS
 10
80.6943468646
 20
218.7732316318
 40
14.9503665125
100
AcDbArc
 50
4.132839152
 51
6.7755159186
  0
ARC
  5
4C4
100
AcDbEntity
  8
7_ALL_FEATURES
100
AcDbCircle
 62
9
  6
CONTINUOUS
 10
80.6765576506
 20
218.7971563139
 40
13.968297209
100
AcDbArc
 50
1.4879913838
 51
12.0640083631
  0
ARC
  5
4C5
100
AcDbEntity
  8
7_ALL_FEATURES
100
AcDbCircle
 62
7
  6
CONTINUOUS
 10
88.3782259058
 20
213.6086154002
 40
1.0
100
AcDbArc
 50
264.5624964281
 51
269.9999961209
  0
ARC
  5
4C6
100
AcDbEntity
  8
7_ALL_FEATURES
100
AcDbCircle
 62
7
  6
CONTINUOUS
 10
89.0763102857
 20
213.1086154002
 40
0.5
100
AcDbArc
 50
185.0
 51
270.0
  0
ARC
  5
4C7
100
AcDbEntity
  8
7_ALL_FEATURES
100
AcDbCircle
 62
7
  6
CONTINUOUS
 10
80.07258114
 20
213.1086154002
 40
0.5
100
AcDbArc
 50
270.0
 51
355.0
  0
ARC
  5
4C8
100
AcDbEntity
  8
7_ALL_FEATURES
100
AcDbCircle
 62
7
  6
CONTINUOUS
 10
90.7923568266
 20
212.6086154002
 40
0.5
100
AcDbArc
 50
270.0
 51
337.975687163
  0
ARC
  5
4C9
100
AcDbEntity
  8
7_ALL_FEATURES
100
AcDbCircle
 62
7
  6
CONTINUOUS
 10
89.1200546175
 20
212.6086154002
 40
0.5
100
AcDbArc
 50
185.0
 51
270.0
  0
ARC
  5
4CA
100
AcDbEntity
  8
7_ALL_FEATURES
100
AcDbCircle
 62
7
  6
CONTINUOUS
 10
80.0288368082
 20
212.6086154002
 40
0.5
100
AcDbArc
 50
270.0
 51
355.0
  0
ARC
  5
4CB
100
AcDbEntity
  8
7_ALL_FEATURES
100
AcDbCircle
 62
7
  6
CONTINUOUS
 10
95.2849954342
 20
213.6086154002
 40
0.5
100
AcDbArc
 50
270.0
 51
1.5
  0
ARC
  5
4CC
100
AcDbEntity
  8
7_ALL_FEATURES
100
AcDbCircle
 62
7
  6
CONTINUOUS
 10
91.5339766753
 20
212.3086154002
 40
0.3
100
AcDbArc
 50
90.0
 51
157.975687163
  0
ARC
  5
4CD
100
AcDbEntity
  8
7_ALL_FEATURES
100
AcDbCircle
 62
7
  6
CONTINUOUS
 10
89.904647742
 20
232.068111322
 40
1.2683015788
100
AcDbArc
 50
31.6992381919
 51
33.9588715771
  0
ARC
  5
4CE
100
AcDbEntity
  8
7_ALL_FEATURES
100
AcDbCircle
 62
9
  6
CONTINUOUS
 10
150.3155747897
 20
230.7629022098
 40
4.2224222375
100
AcDbArc
 50
139.3005783345
 51
144.2707472913
  0
ARC
  5
4CF
100
AcDbEntity
  8
7_ALL_FEATURES
100
AcDbCircle
 62
9
  6
CONTINUOUS
 10
136.7000666862
 20
230.7898384028
 40
4.1787882497
100
AcDbArc
 50
35.5250279191
 51
40.7268649956
  0
ARC
  5
4D0
100
AcDbEntity
  8
7_ALL_FEATURES
100
AcDbCircle
 62
9
  6
CONTINUOUS
 10
146.8354678513
 20
234.1531495013
 40
1.5160849326
100
AcDbArc
 50
347.0120306125
 51
359.674353521
  0
ARC
  5
4D1
100
AcDbEntity
  8
7_ALL_FEATURES
100
AcDbCircle
 62
9
  6
CONTINUOUS
 10
140.1457873379
 20
234.153149539
 40
1.5160848972
100
AcDbArc
 50
180.3256479376
 51
192.9879616537
  0
ARC
  5
4D2
100
AcDbEntity
  8
7_ALL_FEATURES
100
AcDbCircle
 62
7
  6
CONTINUOUS
 10
163.9585387266
 20
212.6086154002
 40
0.5
100
AcDbArc
 50
270.0
 51
337.975687163
  0
ARC
  5
4D3
100
AcDbEntity
  8
7_ALL_FEATURES
100
AcDbCircle
 62
7
  6
CONTINUOUS
 10
175.0227164991
 20
212.6086154002
 40
0.5
100
AcDbArc
 50
202.024312837
 51
270.0
  0
ARC
  5
4D4
100
AcDbEntity
  8
7_ALL_FEATURES
100
AcDbCircle
 62
7
  6
CONTINUOUS
 10
184.5085387266
 20
212.6086154002
 40
0.5
100
AcDbArc
 50
270.0
 51
337.975687163
  0
ARC
  5
4D5
100
AcDbEntity
  8
7_ALL_FEATURES
100
AcDbCircle
 62
7
  6
CONTINUOUS
 10
121.2727164991
 20
212.6086154002
 40
0.5
100
AcDbArc
 50
202.024312837
 51
270.0
  0
ARC
  5
4D6
100
AcDbEntity
  8
7_ALL_FEATURES
100
AcDbCircle
 62
7
  6
CONTINUOUS
 10
189.0011773343
 20
213.6086154002
 40
0.5
100
AcDbArc
 50
270.0
 51
1.5
  0
ARC
  5
4D7
100
AcDbEntity
  8
7_ALL_FEATURES
100
AcDbCircle
 62
7
  6
CONTINUOUS
 10
116.7800778915
 20
213.6086154002
 40
0.5
100
AcDbArc
 50
178.5
 51
270.0
  0
ARC
  5
4D8
100
AcDbEntity
  8
7_ALL_FEATURES
100
AcDbCircle
 62
9
  6
CONTINUOUS
 10
140.0881805844
 20
233.7019210939
 40
0.4933056761
100
AcDbArc
 50
263.9243674583
 51
269.9805855454
  0
ARC
  5
4D9
100
AcDbEntity
  8
7_ALL_FEATURES
100
AcDbCircle
 62
9
  6
CONTINUOUS
 10
146.8930746641
 20
233.7019210242
 40
0.4933056319
100
AcDbArc
 50
270.0180673484
 51
276.0755734923
  0
ARC
  5
4DA
100
AcDbEntity
  8
7_ALL_FEATURES
100
AcDbCircle
 62
9
  6
CONTINUOUS
 10
146.893128919
 20
233.7012713142
 40
0.492653829
100
AcDbArc
 50
276.0772965084
 51
277.1693738633
  0
ARC
  5
4DB
100
AcDbEntity
  8
7_ALL_FEATURES
100
AcDbCircle
 62
9
  6
CONTINUOUS
 10
140.0881263132
 20
233.701271249
 40
0.4926537375
100
AcDbArc
 50
262.8308361474
 51
263.9226445849
  0
ARC
  5
4DC
100
AcDbEntity
  8
7_ALL_FEATURES
100
AcDbCircle
 62
9
  6
CONTINUOUS
 10
146.6261623388
 20
233.5526029041
 40
0.4895688624
100
AcDbArc
 50
320.7309333103
 51
355.7480054578
  0
ARC
  5
4DD
100
AcDbEntity
  8
7_ALL_FEATURES
100
AcDbCircle
 62
9
  6
CONTINUOUS
 10
140.3550474393
 20
233.5525894658
 40
0.489522555
100
AcDbArc
 50
184.250819036
 51
219.809242789
  0
ARC
  5
4DE
100
AcDbEntity
  8
7_ALL_FEATURES
100
AcDbCircle
 62
9
  6
CONTINUOUS
 10
146.6279268171
 20
233.5515279419
 40
0.4875225068
100
AcDbArc
 50
320.354204549
 51
320.6974819837
  0
ARC
  5
4DF
100
AcDbEntity
  8
7_ALL_FEATURES
100
AcDbCircle
 62
7
  6
CONTINUOUS
 10
174.2810966504
 20
212.3086154002
 40
0.3
100
AcDbArc
 50
22.024312837
 51
90.0
  0
ARC
  5
4E0
100
AcDbEntity
  8
7_ALL_FEATURES
100
AcDbCircle
 62
7
  6
CONTINUOUS
 10
164.7001585753
 20
212.3086154002
 40
0.3
100
AcDbArc
 50
90.0
 51
157.975687163
  0
ARC
  5
4E1
100
AcDbEntity
  8
7_ALL_FEATURES
100
AcDbCircle
 62
7
  6
CONTINUOUS
 10
120.5310966504
 20
212.3086154002
 40
0.3
100
AcDbArc
 50
22.024312837
 51
83.2024312837
  0
ARC
  5
4E2
100
AcDbEntity
  8
7_ALL_FEATURES
100
AcDbCircle
 62
7
  6
CONTINUOUS
 10
185.2501585753
 20
212.3086154002
 40
0.3
100
AcDbArc
 50
90.0
 51
157.975687163
  0
SPLINE
  5
4E3
100
AcDbEntity
  8
7_ALL_FEATURES
100
AcDbSpline
 62
9
  6
CONTINUOUS
 70
0
 71
3
 72
8
 73
4
 74
0
 42
0.0000001
 43
0.0000001
 44
0.0000000001
 40
0.0
 40
0.0
 40
0.0
 40
0.0
 40
1.0
 40
1.0
 40
1.0
 40
1.0
 10
81.561971422
 20
138.2642572214
 30
0.0
 10
81.4364245171
 20
137.7782621101
 30
0.0
 10
81.2609664988
 20
137.3033274123
 30
0.0
 10
81.0476099135
 20
136.8489792627
 30
0.0
  0
SPLINE
  5
4E4
100
AcDbEntity
  8
7_ALL_FEATURES
100
AcDbSpline
 62
9
  6
CONTINUOUS
 70
0
 71
3
 72
8
 73
4
 74
0
 42
0.0000001
 43
0.0000001
 44
0.0000000001
 40
0.0
 40
0.0
 40
0.0
 40
0.0
 40
1.0
 40
1.0
 40
1.0
 40
1.0
 10
48.0987962022
 20
136.854210053
 30
0.0
 10
47.8865628404
 20
137.3069625311
 30
0.0
 10
47.7120406918
 20
137.7801367604
 30
0.0
 10
47.586920004
 20
138.2642572204
 30
0.0
  0
SPLINE
  5
4E5
100
AcDbEntity
  8
7_ALL_FEATURES
100
AcDbSpline
 62
9
  6
CONTINUOUS
 70
0
 71
3
 72
9
 73
5
 74
0
 42
0.0000001
 43
0.0000001
 44
0.0000000001
 40
0.0
 40
0.0
 40
0.0
 40
0.0
 40
0.2501260656
 40
1.0
 40
1.0
 40
1.0
 40
1.0
 10
47.5869143497
 20
141.7999885629
 30
0.0
 10
47.6182027352
 20
141.9210976489
 30
0.0
 10
47.755409499
 20
142.4021221268
 30
0.0
 10
47.9392089909
 20
142.8695060243
 30
0.0
 10
48.0983407562
 20
143.2090722877
 30
0.0
  0
SPLINE
  5
4E6
100
AcDbEntity
  8
7_ALL_FEATURES
100
AcDbSpline
 62
9
  6
CONTINUOUS
 70
0
 71
3
 72
9
 73
5
 74
0
 42
0.0000001
 43
0.0000001
 44
0.0000000001
 40
0.0
 40
0.0
 40
0.0
 40
0.0
 40
0.7498722138
 40
1.0
 40
1.0
 40
1.0
 40
1.0
 10
81.0503350029
 20
143.2095428682
 30
0.0
 10
81.2095391711
 20
142.8698741571
 30
0.0
 10
81.3934330503
 20
142.4023455675
 30
0.0
 10
81.5306691934
 20
141.9211570764
 30
0.0
 10
81.561971422
 20
141.8000078376
 30
0.0
  0
SPLINE
  5
4E7
100
AcDbEntity
  8
7_ALL_FEATURES
100
AcDbSpline
 62
9
  6
CONTINUOUS
 70
0
 71
3
 72
9
 73
5
 74
0
 42
0.0000001
 43
0.0000001
 44
0.0000000001
 40
0.0
 40
0.0
 40
0.0
 40
0.0
 40
0.2501154346
 40
1.0
 40
1.0
 40
1.0
 40
1.0
 10
81.7155907227
 20
140.0321325295
 30
0.0
 10
81.7155881718
 20
139.8840833722
 30
0.0
 10
81.7024394942
 20
139.2922076918
 30
0.0
 10
81.637311705
 20
138.7016907706
 30
0.0
 10
81.561971422
 20
138.2642572214
 30
0.0
  0
SPLINE
  5
4E8
100
AcDbEntity
  8
7_ALL_FEATURES
100
AcDbSpline
 62
9
  6
CONTINUOUS
 70
0
 71
3
 72
8
 73
4
 74
0
 42
0.0000001
 43
0.0000001
 44
0.0000000001
 40
0.0
 40
0.0
 40
0.0
 40
0.0
 40
1.0
 40
1.0
 40
1.0
 40
1.0
 10
81.561971422
 20
141.8000078376
 30
0.0
 10
81.6623923432
 20
141.2170820045
 30
0.0
 10
81.7155745646
 20
140.623644903
 30
0.0
 10
81.7155907227
 20
140.0321325295
 30
0.0
  0
SPLINE
  5
4E9
100
AcDbEntity
  8
7_ALL_FEATURES
100
AcDbSpline
 62
9
  6
CONTINUOUS
 70
0
 71
3
 72
9
 73
5
 74
0
 42
0.0000001
 43
0.0000001
 44
0.0000000001
 40
0.0
 40
0.0
 40
0.0
 40
0.0
 40
0.7498845659
 40
1.0
 40
1.0
 40
1.0
 40
1.0
 10
47.586920004
 20
138.2642572194
 30
0.0
 10
47.5115797192
 20
138.7016907692
 30
0.0
 10
47.4464519333
 20
139.2922076913
 30
0.0
 10
47.4333032534
 20
139.8840833724
 30
0.0
 10
47.433300703
 20
140.0321325295
 30
0.0
  0
SPLINE
  5
4EA
100
AcDbEntity
  8
7_ALL_FEATURES
100
AcDbSpline
 62
9
  6
CONTINUOUS
 70
0
 71
3
 72
8
 73
4
 74
0
 42
0.0000001
 43
0.0000001
 44
0.0000000001
 40
0.0
 40
0.0
 40
0.0
 40
0.0
 40
1.0
 40
1.0
 40
1.0
 40
1.0
 10
47.433300703
 20
140.0321325295
 30
0.0
 10
47.4333168264
 20
140.6236315222
 30
0.0
 10
47.4864958604
 20
141.2170553611
 30
0.0
 10
47.5869143497
 20
141.7999680352
 30
0.0
  0
SPLINE
  5
4EB
100
AcDbEntity
  8
7_ALL_FEATURES
100
AcDbSpline
 62
9
  6
CONTINUOUS
 70
0
 71
3
 72
9
 73
5
 74
0
 42
0.0000001
 43
0.0000001
 44
0.0000000001
 40
0.0
 40
0.0
 40
0.0
 40
0.0
 40
0.2502257165
 40
1.0
 40
1.0
 40
1.0
 40
1.0
 10
80.4174810281
 20
143.3632437307
 30
0.0
 10
80.4881482889
 20
143.2293303956
 30
0.0
 10
80.7569918042
 20
142.6872247152
 30
0.0
 10
80.966484802
 20
142.1147628639
 30
0.0
 10
81.0800507905
 20
141.675506096
 30
0.0
  0
SPLINE
  5
4EC
100
AcDbEntity
  8
7_ALL_FEATURES
100
AcDbSpline
 62
9
  6
CONTINUOUS
 70
0
 71
3
 72
9
 73
5
 74
0
 42
0.0000001
 43
0.0000001
 44
0.0000000001
 40
0.0
 40
0.0
 40
0.0
 40
0.0
 40
0.500031808
 40
1.0
 40
1.0
 40
1.0
 40
1.0
 10
81.0800507905
 20
141.675506096
 30
0.0
 10
81.1493392056
 20
141.4075205027
 30
0.0
 10
81.2571784059
 20
140.8630366193
 30
0.0
 10
81.2947597128
 20
140.3088953679
 30
0.0
 10
81.2947697981
 20
140.0321325295
 30
0.0
  0
SPLINE
  5
4ED
100
AcDbEntity
  8
7_ALL_FEATURES
100
AcDbSpline
 62
9
  6
CONTINUOUS
 70
0
 71
3
 72
9
 73
5
 74
0
 42
0.0000001
 43
0.0000001
 44
0.0000000001
 40
0.0
 40
0.0
 40
0.0
 40
0.0
 40
0.4999681937
 40
1.0
 40
1.0
 40
1.0
 40
1.0
 10
47.8541216276
 20
140.0321325295
 30
0.0
 10
47.8541314241
 20
140.3088953684
 30
0.0
 10
47.8917131852
 20
140.8630366196
 30
0.0
 10
47.9995522529
 20
141.4075204956
 30
0.0
 10
48.0688406352
 20
141.675506096
 30
0.0
  0
SPLINE
  5
4EE
100
AcDbEntity
  8
7_ALL_FEATURES
100
AcDbSpline
 62
9
  6
CONTINUOUS
 70
0
 71
3
 72
9
 73
5
 74
0
 42
0.0000001
 43
0.0000001
 44
0.0000000001
 40
0.0
 40
0.0
 40
0.0
 40
0.0
 40
0.2501988768
 40
1.0
 40
1.0
 40
1.0
 40
1.0
 10
48.0688406352
 20
141.675506096
 30
0.0
 10
48.1067310256
 20
141.8220669717
 30
0.0
 10
48.2771613417
 20
142.4028922154
 30
0.0
 10
48.5195035676
 20
142.9616364625
 30
0.0
 10
48.7312108594
 20
143.3628658706
 30
0.0
  0
SPLINE
  5
4EF
100
AcDbEntity
  8
7_ALL_FEATURES
100
AcDbSpline
 62
9
  6
CONTINUOUS
 70
0
 71
3
 72
9
 73
5
 74
0
 42
0.0000001
 43
0.0000001
 44
0.0000000001
 40
0.0
 40
0.0
 40
0.0
 40
0.0
 40
0.500000511
 40
1.0
 40
1.0
 40
1.0
 40
1.0
 10
48.7324740076
 20
136.6990071622
 30
0.0
 10
48.5909552338
 20
136.9670194962
 30
0.0
 10
48.3348983067
 20
137.5178755619
 30
0.0
 10
48.1447156568
 20
138.0953296187
 30
0.0
 10
48.0688406352
 20
138.388758963
 30
0.0
  0
SPLINE
  5
4F0
100
AcDbEntity
  8
7_ALL_FEATURES
100
AcDbSpline
 62
9
  6
CONTINUOUS
 70
0
 71
3
 72
9
 73
5
 74
0
 42
0.0000001
 43
0.0000001
 44
0.0000000001
 40
0.0
 40
0.0
 40
0.0
 40
0.0
 40
0.500016849
 40
1.0
 40
1.0
 40
1.0
 40
1.0
 10
48.0688406352
 20
138.388758963
 30
0.0
 10
47.9995603781
 20
138.6567382275
 30
0.0
 10
47.891702052
 20
139.2012179389
 30
0.0
 10
47.85412879
 20
139.7553612989
 30
0.0
 10
47.8541216254
 20
140.0321325295
 30
0.0
  0
SPLINE
  5
4F1
100
AcDbEntity
  8
7_ALL_FEATURES
100
AcDbSpline
 62
9
  6
CONTINUOUS
 70
0
 71
3
 72
9
 73
5
 74
0
 42
0.0000001
 43
0.0000001
 44
0.0000000001
 40
0.0
 40
0.0
 40
0.0
 40
0.0
 40
0.4999831515
 40
1.0
 40
1.0
 40
1.0
 40
1.0
 10
81.2947698002
 20
140.0321325295
 30
0.0
 10
81.2947628865
 20
139.7553612985
 30
0.0
 10
81.2571892553
 20
139.2012179376
 30
0.0
 10
81.1493310467
 20
138.6567382275
 30
0.0
 10
81.0800507905
 20
138.388758963
 30
0.0
  0
SPLINE
  5
4F2
100
AcDbEntity
  8
7_ALL_FEATURES
100
AcDbSpline
 62
9
  6
CONTINUOUS
 70
0
 71
3
 72
9
 73
5
 74
0
 42
0.0000001
 43
0.0000001
 44
0.0000000001
 40
0.0
 40
0.0
 40
0.0
 40
0.0
 40
0.4999639427
 40
1.0
 40
1.0
 40
1.0
 40
1.0
 10
81.0800507905
 20
138.388758963
 30
0.0
 10
81.0041299344
 20
138.0950868627
 30
0.0
 10
80.8137119694
 20
137.5171392224
 30
0.0
 10
80.5573618446
 20
136.9658281117
 30
0.0
 10
80.4156721985
 20
136.6975784758
 30
0.0
  0
SPLINE
  5
4F3
100
AcDbEntity
  8
7_ALL_FEATURES
100
AcDbSpline
 62
7
  6
CONTINUOUS
 70
0
 71
3
 72
18
 73
14
 74
0
 42
0.0000001
 43
0.0000001
 44
0.0000000001
 40
0.0
 40
0.0
 40
0.0
 40
0.0
 40
0.0146502581
 40
0.0367840351
 40
0.066705954
 40
0.1043496503
 40
0.1494851798
 40
0.2017795996
 40
0.3261181491
 40
0.4733078897
 40
0.6384440633
 40
0.8159929219
 40
1.0
 40
1.0
 40
1.0
 40
1.0
 10
82.5535091675
 20
136.815425371
 30
0.0
 10
82.5553441927
 20
136.8170348739
 30
0.0
 10
82.5587374658
 20
136.822311393
 30
0.0
 10
82.5631218897
 20
136.8324891685
 30
0.0
 10
82.5677277594
 20
136.846744802
 30
0.0
 10
82.5724657142
 20
136.864911649
 30
0.0
 10
82.5772735631
 20
136.8869042963
 30
0.0
 10
82.5840827417
 20
136.9232227929
 30
0.0
 10
82.5920889381
 20
136.9765945657
 30
0.0
 10
82.6005465606
 20
137.0488617958
 30
0.0
 10
82.6078441598
 20
137.1301618375
 30
0.0
 10
82.6136030848
 20
137.2177314626
 30
0.0
 10
82.6162073167
 20
137.2779195185
 30
0.0
 10
82.6171965304
 20
137.3085607786
 30
0.0
  0
SPLINE
  5
4F4
100
AcDbEntity
  8
7_ALL_FEATURES
100
AcDbSpline
 62
7
  6
CONTINUOUS
 70
0
 71
3
 72
18
 73
14
 74
0
 42
0.0000001
 43
0.0000001
 44
0.0000000001
 40
0.0
 40
0.0
 40
0.0
 40
0.0
 40
0.1840070573
 40
0.361555892
 40
0.5266920733
 40
0.6738818077
 40
0.7982203624
 40
0.850514785
 40
0.8956503172
 40
0.9332940197
 40
0.9632159461
 40
0.9853497326
 40
1.0
 40
1.0
 40
1.0
 40
1.0
 10
82.6171965306
 20
142.7557042763
 30
0.0
 10
82.6162073171
 20
142.7863455331
 30
0.0
 10
82.6136030856
 20
142.846533582
 30
0.0
 10
82.6078441613
 20
142.9341032015
 30
0.0
 10
82.6005465629
 20
143.0154032401
 30
0.0
 10
82.5920889408
 20
143.0876704718
 30
0.0
 10
82.5840827449
 20
143.1410422454
 30
0.0
 10
82.5772735666
 20
143.177360744
 30
0.0
 10
82.5724657178
 20
143.1993533936
 30
0.0
 10
82.5677277624
 20
143.2175202433
 30
0.0
 10
82.5631218928
 20
143.2317758812
 30
0.0
 10
82.5587374663
 20
143.2419536599
 30
0.0
 10
82.5553441941
 20
143.2472301839
 30
0.0
 10
82.5535091678
 20
143.2488396878
 30
0.0
  0
SPLINE
  5
4F5
100
AcDbEntity
  8
7_ALL_FEATURES
100
AcDbSpline
 62
7
  6
CONTINUOUS
 70
0
 71
3
 72
18
 73
14
 74
0
 42
0.0000001
 43
0.0000001
 44
0.0000000001
 40
0.0
 40
0.0
 40
0.0
 40
0.0
 40
0.0146502754
 40
0.0367840664
 40
0.0667059985
 40
0.1043497133
 40
0.1494852626
 40
0.2017797082
 40
0.3261183235
 40
0.4733081291
 40
0.6384443852
 40
0.8159931878
 40
1.0
 40
1.0
 40
1.0
 40
1.0
 10
46.5953822583
 20
143.248839688
 30
0.0
 10
46.593547231
 20
143.2472301832
 30
0.0
 10
46.5901539612
 20
143.2419536548
 30
0.0
 10
46.5857695319
 20
143.2317758746
 30
0.0
 10
46.5811636618
 20
143.2175202325
 30
0.0
 10
46.5764257052
 20
143.1993533773
 30
0.0
 10
46.5716178551
 20
143.177360719
 30
0.0
 10
46.5648086745
 20
143.1410422037
 30
0.0
 10
46.5568024763
 20
143.0876704044
 30
0.0
 10
46.5483448529
 20
143.0154031382
 30
0.0
 10
46.5410472555
 20
142.9341030805
 30
0.0
 10
46.5352883355
 20
142.8465334945
 30
0.0
 10
46.5326841073
 20
142.7863454917
 30
0.0
 10
46.5316948951
 20
142.7557042757
 30
0.0
  0
SPLINE
  5
4F6
100
AcDbEntity
  8
7_ALL_FEATURES
100
AcDbSpline
 62
7
  6
CONTINUOUS
 70
0
 71
3
 72
18
 73
14
 74
0
 42
0.0000001
 43
0.0000001
 44
0.0000000001
 40
0.0
 40
0.0
 40
0.0
 40
0.0
 40
0.1840068934
 40
0.3615557105
 40
0.5266919429
 40
0.6738817257
 40
0.7982203208
 40
0.8505147581
 40
0.8956503003
 40
0.9332940092
 40
0.9632159365
 40
0.9853497243
 40
1.0
 40
1.0
 40
1.0
 40
1.0
 10
46.5316948952
 20
137.3085607791
 30
0.0
 10
46.532684108
 20
137.2779195499
 30
0.0
 10
46.5352883373
 20
137.2177315317
 30
0.0
 10
46.5410472589
 20
137.1301619345
 30
0.0
 10
46.5483448567
 20
137.048861883
 30
0.0
 10
46.5568024799
 20
136.9765946286
 30
0.0
 10
46.5648086774
 20
136.9232228383
 30
0.0
 10
46.5716178574
 20
136.8869043293
 30
0.0
 10
46.5764257071
 20
136.8649116747
 30
0.0
 10
46.5811636631
 20
136.8467448226
 30
0.0
 10
46.5857695327
 20
136.8324891829
 30
0.0
 10
46.5901539619
 20
136.8223114043
 30
0.0
 10
46.5935472308
 20
136.8170348759
 30
0.0
 10
46.5953822581
 20
136.8154253711
 30
0.0
  0
SPLINE
  5
4F7
100
AcDbEntity
  8
7_ALL_FEATURES
100
AcDbSpline
 62
7
  6
CONTINUOUS
 70
0
 71
3
 72
11
 73
7
 74
0
 42
0.0000001
 43
0.0000001
 44
0.0000000001
 40
0.0
 40
0.0
 40
0.0
 40
0.0
 40
0.1845266634
 40
0.4228118786
 40
0.7003663292
 40
1.0
 40
1.0
 40
1.0
 40
1.0
 10
46.5797216572
 20
143.2129488876
 30
0.0
 10
46.5923324661
 20
143.2140338643
 30
0.0
 10
46.621331684
 20
143.2152320652
 30
0.0
 10
46.6693751909
 20
143.2153505653
 30
0.0
 10
46.7253003237
 20
143.2138954465
 30
0.0
 10
46.7648480449
 20
143.2119667583
 30
0.0
 10
46.7853650371
 20
143.2107501778
 30
0.0
  0
SPLINE
  5
4F8
100
AcDbEntity
  8
7_ALL_FEATURES
100
AcDbSpline
 62
7
  6
CONTINUOUS
 70
0
 71
3
 72
10
 73
6
 74
0
 42
0.0000001
 43
0.0000001
 44
0.0000000001
 40
0.0
 40
0.0
 40
0.0
 40
0.0
 40
0.5749765447
 40
0.8104957136
 40
1.0
 40
1.0
 40
1.0
 40
1.0
 10
46.7255707345
 20
136.850604828
 30
0.0
 10
46.6976264024
 20
136.8495540282
 30
0.0
 10
46.6582004981
 20
136.848650041
 30
0.0
 10
46.6095684387
 20
136.8494542642
 30
0.0
 10
46.5889149137
 20
136.8505254871
 30
0.0
 10
46.579732241
 20
136.8513152603
 30
0.0
  0
LINE
  5
4F9
100
AcDbEntity
  8
7_ALL_FEATURES
100
AcDbLine
 62
7
  6
CONTINUOUS
 10
46.7266735375
 20
136.8506465351
 11
46.7255707345
 21
136.850604828
  0
SPLINE
  5
4FA
100
AcDbEntity
  8
7_ALL_FEATURES
100
AcDbSpline
 62
7
  6
CONTINUOUS
 70
0
 71
3
 72
11
 73
7
 74
0
 42
0.0000001
 43
0.0000001
 44
0.0000000001
 40
0.0
 40
0.0
 40
0.0
 40
0.0
 40
0.1845259339
 40
0.4228110073
 40
0.7003657666
 40
1.0
 40
1.0
 40
1.0
 40
1.0
 10
82.5691704299
 20
136.8513162286
 30
0.0
 10
82.5565596323
 20
136.8502312302
 30
0.0
 10
82.527560381
 20
136.8490330049
 30
0.0
 10
82.4795167583
 20
136.8489144848
 30
0.0
 10
82.4235913951
 20
136.8503695997
 30
0.0
 10
82.3840434869
 20
136.8522982949
 30
0.0
 10
82.3635263901
 20
136.8535148816
 30
0.0
  0
SPLINE
  5
4FB
100
AcDbEntity
  8
7_ALL_FEATURES
100
AcDbSpline
 62
7
  6
CONTINUOUS
 70
0
 71
3
 72
11
 73
7
 74
0
 42
0.0000001
 43
0.0000001
 44
0.0000000001
 40
0.0
 40
0.0
 40
0.0
 40
0.0
 40
0.299630638
 40
0.5771831445
 40
0.8154690588
 40
1.0
 40
1.0
 40
1.0
 40
1.0
 10
82.3635263888
 20
143.2107501778
 30
0.0
 10
82.3840427573
 20
143.2119667213
 30
0.0
 10
82.4235893347
 20
143.2138953666
 30
0.0
 10
82.4795130372
 20
143.2153505079
 30
0.0
 10
82.5275557789
 20
143.2152321303
 30
0.0
 10
82.5565547511
 20
143.2140340856
 30
0.0
 10
82.5691656086
 20
143.2129492458
 30
0.0
  0
SPLINE
  5
4FC
100
AcDbEntity
  8
7_ALL_FEATURES
100
AcDbSpline
 62
7
  6
CONTINUOUS
 70
0
 71
3
 72
11
 73
7
 74
0
 42
0.0000001
 43
0.0000001
 44
0.0000000001
 40
0.0
 40
0.0
 40
0.0
 40
0.0
 40
0.2835612024
 40
0.5521471881
 40
0.7943284792
 40
1.0
 40
1.0
 40
1.0
 40
1.0
 10
82.3635263901
 20
136.8535148816
 30
0.0
 10
82.2592732324
 20
136.859696702
 30
0.0
 10
82.0561488592
 20
136.8697452299
 30
0.0
 10
81.7636934815
 20
136.8781877092
 30
0.0
 10
81.4998088542
 20
136.879630769
 30
0.0
 10
81.3348648659
 20
136.875768803
 30
0.0
 10
81.2591987288
 20
136.8722198734
 30
0.0
  0
SPLINE
  5
4FD
100
AcDbEntity
  8
7_ALL_FEATURES
100
AcDbSpline
 62
7
  6
CONTINUOUS
 70
0
 71
3
 72
11
 73
7
 74
0
 42
0.0000001
 43
0.0000001
 44
0.0000000001
 40
0.0
 40
0.0
 40
0.0
 40
0.0
 40
0.2056715206
 40
0.4478528207
 40
0.7164388125
 40
1.0
 40
1.0
 40
1.0
 40
1.0
 10
47.8896926937
 20
136.872219873
 30
0.0
 10
47.814026557
 20
136.8757688029
 30
0.0
 10
47.6490825661
 20
136.8796307694
 30
0.0
 10
47.3851979343
 20
136.878187709
 30
0.0
 10
47.0927425577
 20
136.8697452291
 30
0.0
 10
46.8896181886
 20
136.8596967013
 30
0.0
 10
46.7853650369
 20
136.8535148813
 30
0.0
  0
SPLINE
  5
4FE
100
AcDbEntity
  8
7_ALL_FEATURES
100
AcDbSpline
 62
7
  6
CONTINUOUS
 70
0
 71
3
 72
23
 73
19
 74
0
 42
0.0000001
 43
0.0000001
 44
0.0000000001
 40
0.0
 40
0.0
 40
0.0
 40
0.0
 40
0.0109664312
 40
0.0235263473
 40
0.0376827738
 40
0.0534294804
 40
0.0707532876
 40
0.0896358294
 40
0.1319816982
 40
0.1802455082
 40
0.2341569859
 40
0.2934055753
 40
0.3576444546
 40
0.4264938001
 40
0.4995436372
 40
0.6564699615
 40
0.8246467485
 40
1.0
 40
1.0
 40
1.0
 40
1.0
 10
48.2103002346
 20
136.8336032496
 30
0.0
 10
48.2610398849
 20
136.8164412891
 30
0.0
 10
48.3711556615
 20
136.7833430295
 30
0.0
 10
48.5497661496
 20
136.7387289249
 30
0.0
 10
48.7527257432
 20
136.6958424461
 30
0.0
 10
48.9797237031
 20
136.6547021464
 30
0.0
 10
49.2304217292
 20
136.6153084836
 30
0.0
 10
49.6105460039
 20
136.5631026335
 30
0.0
 10
50.1420870695
 20
136.5035021808
 30
0.0
 10
50.845233688
 20
136.4409233244
 30
0.0
 10
51.6317027497
 20
136.384693661
 30
0.0
 10
52.4967410472
 20
136.3345319255
 30
0.0
 10
53.4351402713
 20
136.2901682315
 30
0.0
 10
54.4412422832
 20
136.2512950167
 30
0.0
 10
55.9000844685
 20
136.2053181773
 30
0.0
 10
57.8443334038
 20
136.1615528835
 30
0.0
 10
60.2885000183
 20
136.1274514374
 30
0.0
 10
61.9663799669
 20
136.1156033274
 30
0.0
 10
62.8228528211
 20
136.1121252966
 30
0.0
  0
SPLINE
  5
4FF
100
AcDbEntity
  8
7_ALL_FEATURES
100
AcDbSpline
 62
7
  6
CONTINUOUS
 70
0
 71
3
 72
12
 73
8
 74
0
 42
0.0000001
 43
0.0000001
 44
0.0000000001
 40
0.0
 40
0.0
 40
0.0
 40
0.0
 40
0.0722534261
 40
0.160065978
 40
0.3818089113
 40
0.6629994454
 40
1.0
 40
1.0
 40
1.0
 40
1.0
 10
48.2103001817
 20
136.8336032681
 30
0.0
 10
48.202917233
 20
136.8361004429
 30
0.0
 10
48.1862665083
 20
136.8407551728
 30
0.0
 10
48.1459703402
 20
136.8493307753
 30
0.0
 10
48.0828148484
 20
136.8582680185
 30
0.0
 10
47.9925878871
 20
136.8666282003
 30
0.0
 10
47.9260043479
 20
136.8705167662
 30
0.0
 10
47.8896926937
 20
136.872219873
 30
0.0
  0
SPLINE
  5
500
100
AcDbEntity
  8
7_ALL_FEATURES
100
AcDbSpline
 62
7
  6
CONTINUOUS
 70
0
 71
3
 72
12
 73
8
 74
0
 42
0.0000001
 43
0.0000001
 44
0.0000000001
 40
0.0
 40
0.0
 40
0.0
 40
0.0
 40
0.3370008614
 40
0.6181914755
 40
0.8399342277
 40
0.9277466232
 40
1.0
 40
1.0
 40
1.0
 40
1.0
 10
81.2591987288
 20
136.8722198734
 30
0.0
 10
81.2228869817
 20
136.8705167624
 30
0.0
 10
81.1563032913
 20
136.8666281863
 30
0.0
 10
81.0660761606
 20
136.8582679758
 30
0.0
 10
81.0029205951
 20
136.8493306981
 30
0.0
 10
80.962624409
 20
136.8407550526
 30
0.0
 10
80.9459736836
 20
136.8361003039
 30
0.0
 10
80.9385907279
 20
136.8336031265
 30
0.0
  0
SPLINE
  5
501
100
AcDbEntity
  8
7_ALL_FEATURES
100
AcDbSpline
 62
7
  6
CONTINUOUS
 70
0
 71
3
 72
23
 73
19
 74
0
 42
0.0000001
 43
0.0000001
 44
0.0000000001
 40
0.0
 40
0.0
 40
0.0
 40
0.0
 40
0.1753532516
 40
0.3435300386
 40
0.500456363
 40
0.5735062
 40
0.6423555455
 40
0.7065944249
 40
0.7658430142
 40
0.8197544919
 40
0.8680183018
 40
0.9103641706
 40
0.9292467125
 40
0.9465705197
 40
0.9623172262
 40
0.9764736528
 40
0.9890335689
 40
1.0
 40
1.0
 40
1.0
 40
1.0
 10
66.3260386657
 20
136.1121252968
 30
0.0
 10
67.1825115169
 20
136.1156033228
 30
0.0
 10
68.860391459
 20
136.1274514402
 30
0.0
 10
71.3045580638
 20
136.1615528837
 30
0.0
 10
73.2488069909
 20
136.2053181782
 30
0.0
 10
74.7076491697
 20
136.2512950176
 30
0.0
 10
75.7137511771
 20
136.2901682325
 30
0.0
 10
76.6521503968
 20
136.3345319264
 30
0.0
 10
77.5171886904
 20
136.3846936619
 30
0.0
 10
78.3036577485
 20
136.4409233253
 30
0.0
 10
79.0068043638
 20
136.5035021816
 30
0.0
 10
79.538345427
 20
136.5631026341
 30
0.0
 10
79.9184697002
 20
136.6153084841
 30
0.0
 10
80.1691677252
 20
136.654702147
 30
0.0
 10
80.3961656843
 20
136.6958424463
 30
0.0
 10
80.5991252771
 20
136.7387289252
 30
0.0
 10
80.7777357635
 20
136.7833430307
 30
0.0
 10
80.8878515407
 20
136.8164412851
 30
0.0
 10
80.9385911903
 20
136.8336032455
 30
0.0
  0
SPLINE
  5
502
100
AcDbEntity
  8
7_ALL_FEATURES
100
AcDbSpline
 62
7
  6
CONTINUOUS
 70
0
 71
3
 72
17
 73
13
 74
0
 42
0.0000001
 43
0.0000001
 44
0.0000000001
 40
0.0
 40
0.0
 40
0.0
 40
0.0
 40
0.1736002467
 40
0.3412117432
 40
0.498363869
 40
0.6409354243
 40
0.7652412757
 40
0.8681017409
 40
0.9106593563
 40
0.9469426717
 40
0.9767569202
 40
1.0
 40
1.0
 40
1.0
 40
1.0
 10
46.7853650371
 20
143.2107501778
 30
0.0
 10
46.867883954
 20
143.2058571162
 30
0.0
 10
47.0301529951
 20
143.1975017423
 30
0.0
 10
47.2673231127
 20
143.1891132997
 30
0.0
 10
47.4898321322
 20
143.1851251067
 30
0.0
 10
47.6917614942
 20
143.1855261707
 30
0.0
 10
47.8677750915
 20
143.1901995028
 30
0.0
 10
47.9960346879
 20
143.1977276002
 30
0.0
 10
48.0821453516
 20
143.2062528363
 30
0.0
 10
48.133444799
 20
143.2131167372
 30
0.0
 10
48.175301494
 20
143.2207831379
 30
0.0
 10
48.1998163525
 20
143.2271157597
 30
0.0
 10
48.2103006139
 20
143.2306619082
 30
0.0
  0
SPLINE
  5
503
100
AcDbEntity
  8
7_ALL_FEATURES
100
AcDbSpline
 62
7
  6
CONTINUOUS
 70
0
 71
3
 72
23
 73
19
 74
0
 42
0.0000001
 43
0.0000001
 44
0.0000000001
 40
0.0
 40
0.0
 40
0.0
 40
0.0
 40
0.1753532707
 40
0.3435300558
 40
0.5004563651
 40
0.5735061926
 40
0.6423555271
 40
0.7065943976
 40
0.7658429767
 40
0.819754449
 40
0.8680182716
 40
0.9103641461
 40
0.9292466923
 40
0.9465705024
 40
0.9623172113
 40
0.9764736423
 40
0.9890335651
 40
1.0
 40
1.0
 40
1.0
 40
1.0
 10
62.8228342869
 20
143.9521396956
 30
0.0
 10
61.9663624238
 20
143.9486613351
 30
0.0
 10
60.2884845119
 20
143.9368135859
 30
0.0
 10
57.84432098
 20
143.902711914
 30
0.0
 10
55.9000746352
 20
143.8589466225
 30
0.0
 10
54.4412344715
 20
143.8129697666
 30
0.0
 10
53.4351338782
 20
143.7740965523
 30
0.0
 10
52.4967359911
 20
143.7297328652
 30
0.0
 10
51.6316989104
 20
143.6795711488
 30
0.0
 10
50.845230862
 20
143.6233415047
 30
0.0
 10
50.1420850738
 20
143.5607626753
 30
0.0
 10
49.6105445749
 20
143.5011622486
 30
0.0
 10
49.2304207227
 20
143.4489564258
 30
0.0
 10
48.9797229701
 20
143.4095627882
 30
0.0
 10
48.7527252537
 20
143.3684225146
 30
0.0
 10
48.5497658548
 20
143.3255360641
 30
0.0
 10
48.3711555249
 20
143.2809219892
 30
0.0
 10
48.2610398385
 20
143.2478237578
 30
0.0
 10
48.2103002353
 20
143.2306618131
 30
0.0
  0
SPLINE
  5
504
100
AcDbEntity
  8
7_ALL_FEATURES
100
AcDbSpline
 62
7
  6
CONTINUOUS
 70
0
 71
3
 72
23
 73
19
 74
0
 42
0.0000001
 43
0.0000001
 44
0.0000000001
 40
0.0
 40
0.0
 40
0.0
 40
0.0
 40
0.0109664323
 40
0.0235263532
 40
0.0376827827
 40
0.0534294909
 40
0.0707533009
 40
0.0896358475
 40
0.1319817242
 40
0.1802455508
 40
0.2341570283
 40
0.2934056132
 40
0.3576444899
 40
0.4264938303
 40
0.4995436626
 40
0.6564699763
 40
0.8246467541
 40
1.0
 40
1.0
 40
1.0
 40
1.0
 10
80.9385911904
 20
143.2306618132
 30
0.0
 10
80.88785155
 20
143.2478237705
 30
0.0
 10
80.7777357771
 20
143.2809220248
 30
0.0
 10
80.5991252996
 20
143.3255361279
 30
0.0
 10
80.3961657204
 20
143.3684226043
 30
0.0
 10
80.1691677914
 20
143.4095629014
 30
0.0
 10
79.9184697949
 20
143.4489565603
 30
0.0
 10
79.5383455578
 20
143.5011624099
 30
0.0
 10
79.0068045067
 20
143.5607628626
 30
0.0
 10
78.3036579761
 20
143.6233417136
 30
0.0
 10
77.5171890869
 20
143.6795713718
 30
0.0
 10
76.6521510787
 20
143.7297330953
 30
0.0
 10
75.7137521899
 20
143.7740967829
 30
0.0
 10
74.7076505347
 20
143.8129699929
 30
0.0
 10
73.2488088779
 20
143.8589468299
 30
0.0
 10
71.3045606334
 20
143.9027121265
 30
0.0
 10
68.8603948604
 20
143.9368135855
 30
0.0
 10
67.1825154764
 20
143.9486617039
 30
0.0
 10
66.3260429006
 20
143.9521397469
 30
0.0
  0
SPLINE
  5
505
100
AcDbEntity
  8
7_ALL_FEATURES
100
AcDbSpline
 62
7
  6
CONTINUOUS
 70
0
 71
3
 72
17
 73
13
 74
0
 42
0.0000001
 43
0.0000001
 44
0.0000000001
 40
0.0
 40
0.0
 40
0.0
 40
0.0
 40
0.0232431132
 40
0.0530574596
 40
0.0893409074
 40
0.1318986517
 40
0.2347594345
 40
0.3590657044
 40
0.5016373244
 40
0.6587890935
 40
0.8264000773
 40
1.0
 40
1.0
 40
1.0
 40
1.0
 10
80.9385908078
 20
143.2306619092
 30
0.0
 10
80.9490750842
 20
143.2271157556
 30
0.0
 10
80.9735900043
 20
143.220783121
 30
0.0
 10
81.0154468237
 20
143.2131167022
 30
0.0
 10
81.0667464431
 20
143.2062527938
 30
0.0
 10
81.152857383
 20
143.1977275479
 30
0.0
 10
81.281117393
 20
143.1901994569
 30
0.0
 10
81.4571313729
 20
143.1855261509
 30
0.0
 10
81.6590607958
 20
143.1851251222
 30
0.0
 10
81.8815694323
 20
143.1891133338
 30
0.0
 10
82.1187389821
 20
143.1975017698
 30
0.0
 10
82.2810076256
 20
143.2058571252
 30
0.0
 10
82.3635263888
 20
143.2107501778
 30
0.0
  0
SPLINE
  5
506
100
AcDbEntity
  8
7_ALL_FEATURES
100
AcDbSpline
 62
7
  6
CONTINUOUS
 70
0
 71
3
 72
15
 73
11
 74
0
 42
0.0000001
 43
0.0000001
 44
0.0000000001
 40
0.0
 40
0.0
 40
0.0
 40
0.0
 40
0.1128182337
 40
0.2274822047
 40
0.345551738
 40
0.4686400406
 40
0.5971549647
 40
0.7297485449
 40
0.8644935737
 40
1.0
 40
1.0
 40
1.0
 40
1.0
 10
39.7913072074
 20
136.160652598
 30
0.0
 10
39.7416354061
 20
136.1518226749
 30
0.0
 10
39.6424108572
 20
136.1277082319
 30
0.0
 10
39.4992982192
 20
136.067270621
 30
0.0
 10
39.3671143358
 20
135.9763528743
 30
0.0
 10
39.2553199944
 20
135.8524374329
 30
0.0
 10
39.1719050874
 20
135.700693616
 30
0.0
 10
39.1180342958
 20
135.5311559906
 30
0.0
 10
39.0896322654
 20
135.352771607
 30
0.0
 10
39.0841242887
 20
135.2318278887
 30
0.0
 10
39.0839397995
 20
135.1712318457
 30
0.0
  0
SPLINE
  5
507
100
AcDbEntity
  8
7_ALL_FEATURES
100
AcDbSpline
 62
9
  6
CONTINUOUS
 70
0
 71
3
 72
18
 73
14
 74
0
 42
0.0000001
 43
0.0000001
 44
0.0000000001
 40
0.0
 40
0.0
 40
0.0
 40
0.0
 40
0.1223191794
 40
0.2440403253
 40
0.3652828149
 40
0.4863602583
 40
0.608078982
 40
0.669876716
 40
0.7327653548
 40
0.7972154838
 40
0.8634951467
 40
0.9313379471
 40
1.0
 40
1.0
 40
1.0
 40
1.0
 10
89.5739434627
 20
136.1564394567
 30
0.0
 10
89.6065015782
 20
136.1578076075
 30
0.0
 10
89.6713974793
 20
136.1626074636
 30
0.0
 10
89.767746804
 20
136.1770022436
 30
0.0
 10
89.8620772417
 20
136.2003562198
 30
0.0
 10
89.9528712273
 20
136.2352709484
 30
0.0
 10
90.0229763327
 20
136.2775565283
 30
0.0
 10
90.0716917875
 20
136.3218859886
 30
0.0
 10
90.103186087
 20
136.3615574476
 30
0.0
 10
90.1270855515
 20
136.4076852948
 30
0.0
 10
90.1408592157
 20
136.4592121538
 30
0.0
 10
90.1432163214
 20
136.513585508
 30
0.0
 10
90.1374777576
 20
136.5497262444
 30
0.0
 10
90.1332175965
 20
136.5675153852
 30
0.0
  0
SPLINE
  5
508
100
AcDbEntity
  8
7_ALL_FEATURES
100
AcDbSpline
 62
9
  6
CONTINUOUS
 70
0
 71
3
 72
9
 73
5
 74
0
 42
0.0000001
 43
0.0000001
 44
0.0000000001
 40
0.0
 40
0.0
 40
0.0
 40
0.0
 40
0.2510056585
 40
1.0
 40
1.0
 40
1.0
 40
1.0
 10
89.3575709797
 20
136.1606543656
 30
0.0
 10
89.3756319041
 20
136.1592882328
 30
0.0
 10
89.4476524172
 20
136.1547931896
 30
0.0
 10
89.519939429
 20
136.1542776629
 30
0.0
 10
89.5739434601
 20
136.1564394351
 30
0.0
  0
SPLINE
  5
509
100
AcDbEntity
  8
7_ALL_FEATURES
100
AcDbSpline
 62
9
  6
CONTINUOUS
 70
0
 71
3
 72
17
 73
13
 74
0
 42
0.0000001
 43
0.0000001
 44
0.0000000001
 40
0.0
 40
0.0
 40
0.0
 40
0.0
 40
0.1823771013
 40
0.3586595296
 40
0.5228916479
 40
0.6695498712
 40
0.7937716773
 40
0.8915891639
 40
0.9297017291
 40
0.9603488676
 40
0.9835928287
 40
1.0
 40
1.0
 40
1.0
 40
1.0
 10
87.238818904
 20
136.8993124144
 30
0.0
 10
87.2356019417
 20
136.8686908275
 30
0.0
 10
87.2286115678
 20
136.8085385366
 30
0.0
 10
87.2164293407
 20
136.7210966999
 30
0.0
 10
87.2030339979
 20
136.6399383744
 30
0.0
 10
87.1889177572
 20
136.5678306424
 30
0.0
 10
87.1745777657
 20
136.5072497745
 30
0.0
 10
87.1621373268
 20
136.4650662597
 30
0.0
 10
87.1520540856
 20
136.4388044376
 30
0.0
 10
87.1453844787
 20
136.4247328488
 30
0.0
 10
87.1390831141
 20
136.4146798405
 30
0.0
 10
87.1342874745
 20
136.4097652437
 30
0.0
 10
87.1318908362
 20
136.4083764169
 30
0.0
  0
SPLINE
  5
50A
100
AcDbEntity
  8
7_ALL_FEATURES
100
AcDbSpline
 62
9
  6
CONTINUOUS
 70
0
 71
3
 72
17
 73
13
 74
0
 42
0.0000001
 43
0.0000001
 44
0.0000000001
 40
0.0
 40
0.0
 40
0.0
 40
0.0
 40
0.1824843276
 40
0.3587986383
 40
0.5230108679
 40
0.6696212262
 40
0.7937896169
 40
0.8915678544
 40
0.9296712798
 40
0.9603184445
 40
0.98357269
 40
1.0
 40
1.0
 40
1.0
 40
1.0
 10
84.712328343
 20
137.1405603846
 30
0.0
 10
84.7096714592
 20
137.1099557286
 30
0.0
 10
84.703785284
 20
137.0498365174
 30
0.0
 10
84.6932164144
 20
136.962420112
 30
0.0
 10
84.681327755
 20
136.8812721686
 30
0.0
 10
84.6685583871
 20
136.8091486761
 30
0.0
 10
84.6553573763
 20
136.7485165056
 30
0.0
 10
84.6437159993
 20
136.7062542035
 30
0.0
 10
84.6341354772
 20
136.6798993084
 30
0.0
 10
84.627737075
 20
136.6657513273
 30
0.0
 10
84.6216312289
 20
136.6556117212
 30
0.0
 10
84.6169356476
 20
136.6506224561
 30
0.0
 10
84.6145696428
 20
136.6491908531
 30
0.0
  0
SPLINE
  5
50B
100
AcDbEntity
  8
7_ALL_FEATURES
100
AcDbSpline
 62
9
  6
CONTINUOUS
 70
0
 71
3
 72
18
 73
14
 74
0
 42
0.0000001
 43
0.0000001
 44
0.0000000001
 40
0.0
 40
0.0
 40
0.0
 40
0.0
 40
0.068662046
 40
0.1365048414
 40
0.2027845012
 40
0.267234637
 40
0.3301232889
 40
0.3919210118
 40
0.513639615
 40
0.6347169768
 40
0.7559595021
 40
0.8776808767
 40
1.0
 40
1.0
 40
1.0
 40
1.0
 10
90.1332176474
 20
143.4967496375
 30
0.0
 10
90.1374778083
 20
143.5145387702
 30
0.0
 10
90.1432163136
 20
143.5506795033
 30
0.0
 10
90.140859145
 20
143.6050528314
 30
0.0
 10
90.1270853936
 20
143.6565796519
 30
0.0
 10
90.1031858305
 20
143.7027074337
 30
0.0
 10
90.0716914974
 20
143.7423788368
 30
0.0
 10
90.0229762132
 20
143.7867083868
 30
0.0
 10
89.9528713737
 20
143.8289942645
 30
0.0
 10
89.8620774423
 20
143.8639089685
 30
0.0
 10
89.7677469534
 20
143.8872628478
 30
0.0
 10
89.6713975572
 20
143.9016572137
 30
0.0
 10
89.6065016624
 20
143.9064574567
 30
0.0
 10
89.5739435703
 20
143.9078255538
 30
0.0
  0
SPLINE
  5
50C
100
AcDbEntity
  8
7_ALL_FEATURES
100
AcDbSpline
 62
9
  6
CONTINUOUS
 70
0
 71
3
 72
17
 73
13
 74
0
 42
0.0000001
 43
0.0000001
 44
0.0000000001
 40
0.0
 40
0.0
 40
0.0
 40
0.0
 40
0.1823771102
 40
0.3586595453
 40
0.5228916678
 40
0.6695498926
 40
0.7937716973
 40
0.8915891796
 40
0.9297017416
 40
0.9603488761
 40
0.9835928329
 40
1.0
 40
1.0
 40
1.0
 40
1.0
 10
87.2388188177
 20
143.1649526571
 30
0.0
 10
87.2356018551
 20
143.1955742442
 30
0.0
 10
87.2286114806
 20
143.2557265352
 30
0.0
 10
87.2164292525
 20
143.3431683714
 30
0.0
 10
87.2030339089
 20
143.4243266954
 30
0.0
 10
87.1889176676
 20
143.496434425
 30
0.0
 10
87.1745776758
 20
143.5570152894
 30
0.0
 10
87.162137237
 20
143.5991988008
 30
0.0
 10
87.152053996
 20
143.6254606196
 30
0.0
 10
87.1453843894
 20
143.6395322057
 30
0.0
 10
87.1390830254
 20
143.6495852113
 30
0.0
 10
87.134287386
 20
143.6544998061
 30
0.0
 10
87.1318907479
 20
143.6558886316
 30
0.0
  0
SPLINE
  5
50D
100
AcDbEntity
  8
7_ALL_FEATURES
100
AcDbSpline
 62
9
  6
CONTINUOUS
 70
0
 71
3
 72
9
 73
5
 74
0
 42
0.0000001
 43
0.0000001
 44
0.0000000001
 40
0.0
 40
0.0
 40
0.0
 40
0.0
 40
0.249190937
 40
1.0
 40
1.0
 40
1.0
 40
1.0
 10
89.5739435649
 20
143.9078255988
 30
0.0
 10
89.555976025
 20
143.9085448946
 30
0.0
 10
89.4838297413
 20
143.9103194598
 30
0.0
 10
89.411595828
 20
143.907697167
 30
0.0
 10
89.3575708319
 20
143.9036106805
 30
0.0
  0
SPLINE
  5
50E
100
AcDbEntity
  8
7_ALL_FEATURES
100
AcDbSpline
 62
9
  6
CONTINUOUS
 70
0
 71
3
 72
18
 73
14
 74
0
 42
0.0000001
 43
0.0000001
 44
0.0000000001
 40
0.0
 40
0.0
 40
0.0
 40
0.0
 40
0.122319152
 40
0.2440403202
 40
0.3652828246
 40
0.4863602669
 40
0.6080789863
 40
0.6698767187
 40
0.7327653559
 40
0.7972154826
 40
0.8634951433
 40
0.9313379422
 40
1.0
 40
1.0
 40
1.0
 40
1.0
 10
39.5749479581
 20
143.9078256057
 30
0.0
 10
39.5423898528
 20
143.9064574407
 30
0.0
 10
39.4774939602
 20
143.901657562
 30
0.0
 10
39.3811446378
 20
143.8872628031
 30
0.0
 10
39.2868141902
 20
143.8639088537
 30
0.0
 10
39.1960202053
 20
143.8289941328
 30
0.0
 10
39.125915107
 20
143.7867085571
 30
0.0
 10
39.0771996532
 20
143.7423791052
 30
0.0
 10
39.0457053523
 20
143.702707656
 30
0.0
 10
39.0218058793
 20
143.6565798119
 30
0.0
 10
39.0080322514
 20
143.605052967
 30
0.0
 10
39.0056750163
 20
143.5506795805
 30
0.0
 10
39.0114139337
 20
143.5145389353
 30
0.0
 10
39.0156738186
 20
143.4967497284
 30
0.0
  0
SPLINE
  5
50F
100
AcDbEntity
  8
7_ALL_FEATURES
100
AcDbSpline
 62
9
  6
CONTINUOUS
 70
0
 71
3
 72
9
 73
5
 74
0
 42
0.0000001
 43
0.0000001
 44
0.0000000001
 40
0.0
 40
0.0
 40
0.0
 40
0.0
 40
0.2510056598
 40
1.0
 40
1.0
 40
1.0
 40
1.0
 10
39.7913204471
 20
143.9036106932
 30
0.0
 10
39.7732595222
 20
143.9049768261
 30
0.0
 10
39.7012390068
 20
143.9094718696
 30
0.0
 10
39.6289519928
 20
143.9099873963
 30
0.0
 10
39.5749479603
 20
143.9078256234
 30
0.0
  0
SPLINE
  5
510
100
AcDbEntity
  8
7_ALL_FEATURES
100
AcDbSpline
 62
9
  6
CONTINUOUS
 70
0
 71
3
 72
17
 73
13
 74
0
 42
0.0000001
 43
0.0000001
 44
0.0000000001
 40
0.0
 40
0.0
 40
0.0
 40
0.0
 40
0.1823771012
 40
0.3586595295
 40
0.5228916478
 40
0.6695498712
 40
0.7937716774
 40
0.8915891641
 40
0.9297017293
 40
0.9603488677
 40
0.9835928288
 40
1.0
 40
1.0
 40
1.0
 40
1.0
 10
41.9100725105
 20
143.1649526438
 30
0.0
 10
41.9132894728
 20
143.1955742308
 30
0.0
 10
41.9202798466
 20
143.2557265219
 30
0.0
 10
41.9324620737
 20
143.3431683588
 30
0.0
 10
41.9458574165
 20
143.4243266846
 30
0.0
 10
41.9599736573
 20
143.4964344169
 30
0.0
 10
41.9743136489
 20
143.557015285
 30
0.0
 10
41.9867540879
 20
143.5991988
 30
0.0
 10
41.9968373291
 20
143.6254606222
 30
0.0
 10
42.003506936
 20
143.639532211
 30
0.0
 10
42.0098083006
 20
143.6495852193
 30
0.0
 10
42.0146039401
 20
143.6544998162
 30
0.0
 10
42.0170005785
 20
143.655888643
 30
0.0
  0
SPLINE
  5
511
100
AcDbEntity
  8
7_ALL_FEATURES
100
AcDbSpline
 62
9
  6
CONTINUOUS
 70
0
 71
3
 72
18
 73
14
 74
0
 42
0.0000001
 43
0.0000001
 44
0.0000000001
 40
0.0
 40
0.0
 40
0.0
 40
0.0
 40
0.0686623589
 40
0.1365052383
 40
0.2027848776
 40
0.2672351659
 40
0.3301240432
 40
0.3919216745
 40
0.5136406672
 40
0.6347173822
 40
0.7559590949
 40
0.8776792781
 40
1.0
 40
1.0
 40
1.0
 40
1.0
 10
39.0156734279
 20
136.567513447
 30
0.0
 10
39.0114249027
 20
136.549721524
 30
0.0
 10
39.0056712292
 20
136.5135846136
 30
0.0
 10
39.008033992
 20
136.4592100147
 30
0.0
 10
39.0218051706
 20
136.4076832263
 30
0.0
 10
39.0457087194
 20
136.3615572054
 30
0.0
 10
39.0772032149
 20
136.3218865737
 30
0.0
 10
39.1259172902
 20
136.2775556808
 30
0.0
 10
39.1960234563
 20
136.2352727151
 30
0.0
 10
39.2868154915
 20
136.2003557028
 30
0.0
 10
39.3811449252
 20
136.1770015924
 30
0.0
 10
39.4774935748
 20
136.1626062988
 30
0.0
 10
39.5423893988
 20
136.1578055821
 30
0.0
 10
39.5749478647
 20
136.1564394558
 30
0.0
  0
SPLINE
  5
512
100
AcDbEntity
  8
7_ALL_FEATURES
100
AcDbSpline
 62
9
  6
CONTINUOUS
 70
0
 71
3
 72
17
 73
13
 74
0
 42
0.0000001
 43
0.0000001
 44
0.0000000001
 40
0.0
 40
0.0
 40
0.0
 40
0.0
 40
0.1823771104
 40
0.3586595456
 40
0.5228916681
 40
0.6695498929
 40
0.7937716975
 40
0.8915891796
 40
0.9297017416
 40
0.9603488761
 40
0.9835928329
 40
1.0
 40
1.0
 40
1.0
 40
1.0
 10
41.9100726172
 20
136.8993124009
 30
0.0
 10
41.9132895798
 20
136.8686908139
 30
0.0
 10
41.9202799543
 20
136.8085385231
 30
0.0
 10
41.9324621825
 20
136.7210966871
 30
0.0
 10
41.945857526
 20
136.6399383634
 30
0.0
 10
41.9599737674
 20
136.5678306341
 30
0.0
 10
41.9743137591
 20
136.50724977
 30
0.0
 10
41.9867541979
 20
136.4650662588
 30
0.0
 10
41.9968374388
 20
136.43880444
 30
0.0
 10
42.0035070454
 20
136.424732854
 30
0.0
 10
42.0098084094
 20
136.4146798485
 30
0.0
 10
42.0146040488
 20
136.4097652537
 30
0.0
 10
42.0170006869
 20
136.4083764282
 30
0.0
  0
SPLINE
  5
513
100
AcDbEntity
  8
7_ALL_FEATURES
100
AcDbSpline
 62
9
  6
CONTINUOUS
 70
0
 71
3
 72
9
 73
5
 74
0
 42
0.0000001
 43
0.0000001
 44
0.0000000001
 40
0.0
 40
0.0
 40
0.0
 40
0.0
 40
0.2491909866
 40
1.0
 40
1.0
 40
1.0
 40
1.0
 10
39.5749478662
 20
136.1564394434
 30
0.0
 10
39.5929154095
 20
136.155720149
 30
0.0
 10
39.6650616927
 20
136.1539456134
 30
0.0
 10
39.7372956042
 20
136.1565678924
 30
0.0
 10
39.7913205958
 20
136.1606543786
 30
0.0
  0
SPLINE
  5
514
100
AcDbEntity
  8
7_ALL_FEATURES
100
AcDbSpline
 62
9
  6
CONTINUOUS
 70
0
 71
3
 72
17
 73
13
 74
0
 42
0.0000001
 43
0.0000001
 44
0.0000000001
 40
0.0
 40
0.0
 40
0.0
 40
0.0
 40
0.1250483376
 40
0.2500328106
 40
0.3749201156
 40
0.4374613919
 40
0.5000000526
 40
0.5625387015
 40
0.6250799353
 40
0.7499670791
 40
0.8749516042
 40
1.0
 40
1.0
 40
1.0
 40
1.0
 10
95.7847773878
 20
95.0081256619
 30
0.0
 10
95.784319764
 20
94.9416703692
 30
0.0
 10
95.7766882872
 20
94.8086550164
 30
0.0
 10
95.7379230964
 20
94.6124118245
 30
0.0
 10
95.6746110525
 20
94.4572302348
 30
0.0
 10
95.6019080611
 20
94.3456098588
 30
0.0
 10
95.5363432338
 20
94.2700445459
 30
0.0
 10
95.4607530433
 20
94.2045085497
 30
0.0
 10
95.349107029
 20
94.1318454354
 30
0.0
 10
95.193907458
 20
94.0685806687
 30
0.0
 10
94.9976566651
 20
94.0298581365
 30
0.0
 10
94.8646403332
 20
94.0222475979
 30
0.0
 10
94.7981849477
 20
94.0217990388
 30
0.0
  0
SPLINE
  5
515
100
AcDbEntity
  8
7_ALL_FEATURES
100
AcDbSpline
 62
9
  6
CONTINUOUS
 70
0
 71
3
 72
17
 73
13
 74
0
 42
0.0000001
 43
0.0000001
 44
0.0000000001
 40
0.0
 40
0.0
 40
0.0
 40
0.0
 40
0.1448413144
 40
0.2734111551
 40
0.3898771829
 40
0.4453594097
 40
0.5
 40
0.5546405903
 40
0.6101228171
 40
0.7265888449
 40
0.8551586856
 40
1.0
 40
1.0
 40
1.0
 40
1.0
 10
94.6401446023
 20
94.166776315
 30
0.0
 10
94.7183697069
 20
94.1668299174
 30
0.0
 10
94.8663424842
 20
94.1754972408
 30
0.0
 10
95.0729820277
 20
94.22104974
 30
0.0
 10
95.2226414848
 20
94.2875572122
 30
0.0
 10
95.3239317935
 20
94.3567198594
 30
0.0
 10
95.3908603259
 20
94.4157179165
 30
0.0
 10
95.4498583829
 20
94.4826464488
 30
0.0
 10
95.5190210301
 20
94.5839367575
 30
0.0
 10
95.5855285023
 20
94.7335962147
 30
0.0
 10
95.6310810016
 20
94.9402357581
 30
0.0
 10
95.6397483249
 20
95.0882085354
 30
0.0
 10
95.6398019273
 20
95.16643364
 30
0.0
  0
SPLINE
  5
516
100
AcDbEntity
  8
7_ALL_FEATURES
100
AcDbSpline
 62
9
  6
CONTINUOUS
 70
0
 71
3
 72
18
 73
14
 74
0
 42
0.0000001
 43
0.0000001
 44
0.0000000001
 40
0.0
 40
0.0
 40
0.0
 40
0.0
 40
0.1235292607
 40
0.2471894953
 40
0.3092022726
 40
0.3713439426
 40
0.4336493363
 40
0.4961437851
 40
0.558831271
 40
0.6216903883
 40
0.7475714138
 40
0.8737511181
 40
1.0
 40
1.0
 40
1.0
 40
1.0
 10
94.3363611111
 20
94.2337262136
 30
0.0
 10
94.402223745
 20
94.2340941868
 30
0.0
 10
94.5341261566
 20
94.2415943087
 30
0.0
 10
94.6966154489
 20
94.2741881356
 30
0.0
 10
94.8212104252
 20
94.3188662871
 30
0.0
 10
94.9106065012
 20
94.3629243365
 30
0.0
 10
94.9938890342
 20
94.4182324718
 30
0.0
 10
95.0689470542
 20
94.4847653329
 30
0.0
 10
95.1339902015
 20
94.5615078209
 30
0.0
 10
95.2060708088
 20
94.6749699101
 30
0.0
 10
95.268555509
 20
94.8324827291
 30
0.0
 10
95.3066058904
 20
95.0313381367
 30
0.0
 10
95.313959731
 20
95.1660707841
 30
0.0
 10
95.3143196583
 20
95.2333835385
 30
0.0
  0
SPLINE
  5
517
100
AcDbEntity
  8
7_ALL_FEATURES
100
AcDbSpline
 62
9
  6
CONTINUOUS
 70
0
 71
3
 72
18
 73
14
 74
0
 42
0.0000001
 43
0.0000001
 44
0.0000000001
 40
0.0
 40
0.0
 40
0.0
 40
0.0
 40
0.123529261
 40
0.2471894956
 40
0.3092022728
 40
0.3713439427
 40
0.433649336
 40
0.4961437846
 40
0.5588312703
 40
0.6216903876
 40
0.747571413
 40
0.8737511177
 40
1.0
 40
1.0
 40
1.0
 40
1.0
 10
34.8125303146
 20
94.2337262136
 30
0.0
 10
34.7466676647
 20
94.234094176
 30
0.0
 10
34.61476522
 20
94.2415942752
 30
0.0
 10
34.4522758812
 20
94.2741880702
 30
0.0
 10
34.3276808622
 20
94.3188661959
 30
0.0
 10
34.238284751
 20
94.3629242271
 30
0.0
 10
34.1550021798
 20
94.4182323477
 30
0.0
 10
34.0799441202
 20
94.4847652001
 30
0.0
 10
34.0149009346
 20
94.5615076872
 30
0.0
 10
33.9428202815
 20
94.6749697858
 30
0.0
 10
33.8803355396
 20
94.8324826338
 30
0.0
 10
33.8422851341
 20
95.0313380875
 30
0.0
 10
33.834931289
 20
95.1660707677
 30
0.0
 10
33.8345713614
 20
95.2333835385
 30
0.0
  0
SPLINE
  5
518
100
AcDbEntity
  8
7_ALL_FEATURES
100
AcDbSpline
 62
9
  6
CONTINUOUS
 70
0
 71
3
 72
17
 73
13
 74
0
 42
0.0000001
 43
0.0000001
 44
0.0000000001
 40
0.0
 40
0.0
 40
0.0
 40
0.0
 40
0.1250483312
 40
0.2500327365
 40
0.3749197288
 40
0.4374609593
 40
0.4999996013
 40
0.5625382658
 40
0.6250795465
 40
0.7499670069
 40
0.8749515988
 40
1.0
 40
1.0
 40
1.0
 40
1.0
 10
34.3504260265
 20
94.0218009519
 30
0.0
 10
34.2839707408
 20
94.0222590284
 30
0.0
 10
34.1509554645
 20
94.0298914528
 30
0.0
 10
33.9547128744
 20
94.0686587124
 30
0.0
 10
33.7995322482
 20
94.1319726975
 30
0.0
 10
33.6879133797
 20
94.2046776438
 30
0.0
 10
33.6123491185
 20
94.2702436198
 30
0.0
 10
33.5468142777
 20
94.3458348614
 30
0.0
 10
33.4741531189
 20
94.4574823808
 30
0.0
 10
33.41089029
 20
94.6126829125
 30
0.0
 10
33.3721698265
 20
94.8089343044
 30
0.0
 10
33.3645602328
 20
94.9419507092
 30
0.0
 10
33.3641121268
 20
95.0084061
 30
0.0
  0
SPLINE
  5
519
100
AcDbEntity
  8
7_ALL_FEATURES
100
AcDbSpline
 62
9
  6
CONTINUOUS
 70
0
 71
3
 72
17
 73
13
 74
0
 42
0.0000001
 43
0.0000001
 44
0.0000000001
 40
0.0
 40
0.0
 40
0.0
 40
0.0
 40
0.1448413144
 40
0.2734111551
 40
0.3898771829
 40
0.4453594097
 40
0.5
 40
0.5546405903
 40
0.6101228171
 40
0.7265888449
 40
0.8551586856
 40
1.0
 40
1.0
 40
1.0
 40
1.0
 10
34.5087468234
 20
94.166776315
 30
0.0
 10
34.4305217188
 20
94.1668299174
 30
0.0
 10
34.2825489414
 20
94.1754972408
 30
0.0
 10
34.075909398
 20
94.22104974
 30
0.0
 10
33.9262499408
 20
94.2875572122
 30
0.0
 10
33.8249596321
 20
94.3567198594
 30
0.0
 10
33.7580310998
 20
94.4157179165
 30
0.0
 10
33.6990330427
 20
94.4826464488
 30
0.0
 10
33.6298703956
 20
94.5839367575
 30
0.0
 10
33.5633629233
 20
94.7335962147
 30
0.0
 10
33.5178104241
 20
94.9402357581
 30
0.0
 10
33.5091431008
 20
95.0882085354
 30
0.0
 10
33.5090894984
 20
95.16643364
 30
0.0
  0
SPLINE
  5
51A
100
AcDbEntity
  8
7_ALL_FEATURES
100
AcDbSpline
 62
9
  6
CONTINUOUS
 70
0
 71
3
 72
17
 73
13
 74
0
 42
0.0000001
 43
0.0000001
 44
0.0000000001
 40
0.0
 40
0.0
 40
0.0
 40
0.0
 40
0.1250483376
 40
0.2500328106
 40
0.3749201156
 40
0.4374613919
 40
0.5000000526
 40
0.5625387015
 40
0.6250799353
 40
0.7499670791
 40
0.8749516042
 40
1.0
 40
1.0
 40
1.0
 40
1.0
 10
33.3641140378
 20
166.2561393971
 30
0.0
 10
33.3645716617
 20
166.3225946898
 30
0.0
 10
33.3722031385
 20
166.4556100426
 30
0.0
 10
33.4109683293
 20
166.6518532345
 30
0.0
 10
33.4742803731
 20
166.8070348241
 30
0.0
 10
33.5469833646
 20
166.9186552002
 30
0.0
 10
33.6125481918
 20
166.9942205131
 30
0.0
 10
33.6881383824
 20
167.0597565092
 30
0.0
 10
33.7997843966
 20
167.1324196236
 30
0.0
 10
33.9549839676
 20
167.1956843903
 30
0.0
 10
34.1512347606
 20
167.2344069225
 30
0.0
 10
34.2842510925
 20
167.2420174611
 30
0.0
 10
34.3507064779
 20
167.2424660202
 30
0.0
  0
SPLINE
  5
51B
100
AcDbEntity
  8
7_ALL_FEATURES
100
AcDbSpline
 62
9
  6
CONTINUOUS
 70
0
 71
3
 72
17
 73
13
 74
0
 42
0.0000001
 43
0.0000001
 44
0.0000000001
 40
0.0
 40
0.0
 40
0.0
 40
0.0
 40
0.1448413144
 40
0.2734111551
 40
0.3898771829
 40
0.4453594097
 40
0.5
 40
0.5546405903
 40
0.6101228171
 40
0.7265888449
 40
0.8551586856
 40
1.0
 40
1.0
 40
1.0
 40
1.0
 10
34.5087468234
 20
167.0974887439
 30
0.0
 10
34.4305217188
 20
167.0974351415
 30
0.0
 10
34.2825489414
 20
167.0887678182
 30
0.0
 10
34.075909398
 20
167.043215319
 30
0.0
 10
33.9262499408
 20
166.9767078467
 30
0.0
 10
33.8249596321
 20
166.9075451996
 30
0.0
 10
33.7580310998
 20
166.8485471425
 30
0.0
 10
33.6990330427
 20
166.7816186102
 30
0.0
 10
33.6298703956
 20
166.6803283015
 30
0.0
 10
33.5633629233
 20
166.5306688443
 30
0.0
 10
33.5178104241
 20
166.3240293009
 30
0.0
 10
33.5091431008
 20
166.1760565236
 30
0.0
 10
33.5090894984
 20
166.097831419
 30
0.0
  0
SPLINE
  5
51C
100
AcDbEntity
  8
7_ALL_FEATURES
100
AcDbSpline
 62
9
  6
CONTINUOUS
 70
0
 71
3
 72
18
 73
14
 74
0
 42
0.0000001
 43
0.0000001
 44
0.0000000001
 40
0.0
 40
0.0
 40
0.0
 40
0.0
 40
0.1235292607
 40
0.2471894953
 40
0.3092022726
 40
0.3713439426
 40
0.4336493362
 40
0.4961437851
 40
0.5588312709
 40
0.6216903883
 40
0.7475714137
 40
0.8737511181
 40
1.0
 40
1.0
 40
1.0
 40
1.0
 10
34.8125303146
 20
167.0305388454
 30
0.0
 10
34.7466676799
 20
167.0301708729
 30
0.0
 10
34.6147652667
 20
167.0226707522
 30
0.0
 10
34.4522759722
 20
166.990076927
 30
0.0
 10
34.3276809939
 20
166.9453987767
 30
0.0
 10
34.2382849163
 20
166.9013407281
 30
0.0
 10
34.1550023815
 20
166.8460325935
 30
0.0
 10
34.0799443598
 20
166.7794997327
 30
0.0
 10
34.0149012108
 20
166.7027572446
 30
0.0
 10
33.9428206016
 20
166.5892951548
 30
0.0
 10
33.8803358997
 20
166.4317823344
 30
0.0
 10
33.8422855174
 20
166.2329269245
 30
0.0
 10
33.8349316766
 20
166.0981942757
 30
0.0
 10
33.8345717493
 20
166.0308815204
 30
0.0
  0
SPLINE
  5
51D
100
AcDbEntity
  8
7_ALL_FEATURES
100
AcDbSpline
 62
9
  6
CONTINUOUS
 70
0
 71
3
 72
18
 73
14
 74
0
 42
0.0000001
 43
0.0000001
 44
0.0000000001
 40
0.0
 40
0.0
 40
0.0
 40
0.0
 40
0.123529261
 40
0.2471894956
 40
0.3092022728
 40
0.3713439427
 40
0.433649336
 40
0.4961437846
 40
0.5588312703
 40
0.6216903876
 40
0.747571413
 40
0.8737511177
 40
1.0
 40
1.0
 40
1.0
 40
1.0
 10
94.3363611111
 20
167.0305388454
 30
0.0
 10
94.402223761
 20
167.0301708829
 30
0.0
 10
94.5341262056
 20
167.0226707837
 30
0.0
 10
94.6966155445
 20
166.9900769888
 30
0.0
 10
94.8212105635
 20
166.9453988631
 30
0.0
 10
94.9106066747
 20
166.9013408318
 30
0.0
 10
94.9938892459
 20
166.8460327112
 30
0.0
 10
95.0689473054
 20
166.7794998589
 30
0.0
 10
95.1339904911
 20
166.7027573718
 30
0.0
 10
95.2060711441
 20
166.5892952732
 30
0.0
 10
95.2685558861
 20
166.4317824252
 30
0.0
 10
95.3066062916
 20
166.2329269715
 30
0.0
 10
95.3139601367
 20
166.0981942913
 30
0.0
 10
95.3143200643
 20
166.0308815204
 30
0.0
  0
SPLINE
  5
51E
100
AcDbEntity
  8
7_ALL_FEATURES
100
AcDbSpline
 62
9
  6
CONTINUOUS
 70
0
 71
3
 72
17
 73
13
 74
0
 42
0.0000001
 43
0.0000001
 44
0.0000000001
 40
0.0
 40
0.0
 40
0.0
 40
0.0
 40
0.1250483312
 40
0.2500327365
 40
0.3749197288
 40
0.4374609593
 40
0.4999996013
 40
0.5625382658
 40
0.6250795465
 40
0.7499670069
 40
0.8749515988
 40
1.0
 40
1.0
 40
1.0
 40
1.0
 10
94.7984653992
 20
167.2424641071
 30
0.0
 10
94.8649206849
 20
167.2420060305
 30
0.0
 10
94.9979359612
 20
167.2343736062
 30
0.0
 10
95.1941785513
 20
167.1956063466
 30
0.0
 10
95.3493591775
 20
167.1322923615
 30
0.0
 10
95.460978046
 20
167.0595874152
 30
0.0
 10
95.5365423071
 20
166.9940214391
 30
0.0
 10
95.602077148
 20
166.9184301975
 30
0.0
 10
95.6747383067
 20
166.8067826782
 30
0.0
 10
95.7380011357
 20
166.6515821465
 30
0.0
 10
95.7767215992
 20
166.4553307546
 30
0.0
 10
95.7843311929
 20
166.3223143498
 30
0.0
 10
95.7847792989
 20
166.2558589589
 30
0.0
  0
SPLINE
  5
51F
100
AcDbEntity
  8
7_ALL_FEATURES
100
AcDbSpline
 62
9
  6
CONTINUOUS
 70
0
 71
3
 72
17
 73
13
 74
0
 42
0.0000001
 43
0.0000001
 44
0.0000000001
 40
0.0
 40
0.0
 40
0.0
 40
0.0
 40
0.1448413144
 40
0.2734111551
 40
0.3898771829
 40
0.4453594097
 40
0.5
 40
0.5546405903
 40
0.6101228171
 40
0.7265888449
 40
0.8551586856
 40
1.0
 40
1.0
 40
1.0
 40
1.0
 10
94.6401446023
 20
167.0974887439
 30
0.0
 10
94.7183697069
 20
167.0974351415
 30
0.0
 10
94.8663424842
 20
167.0887678182
 30
0.0
 10
95.0729820277
 20
167.043215319
 30
0.0
 10
95.2226414848
 20
166.9767078467
 30
0.0
 10
95.3239317935
 20
166.9075451996
 30
0.0
 10
95.3908603259
 20
166.8485471425
 30
0.0
 10
95.4498583829
 20
166.7816186102
 30
0.0
 10
95.5190210301
 20
166.6803283015
 30
0.0
 10
95.5855285023
 20
166.5306688443
 30
0.0
 10
95.6310810016
 20
166.3240293009
 30
0.0
 10
95.6397483249
 20
166.1760565236
 30
0.0
 10
95.6398019273
 20
166.097831419
 30
0.0
  0
SPLINE
  5
520
100
AcDbEntity
  8
7_ALL_FEATURES
100
AcDbSpline
 62
9
  6
CONTINUOUS
 70
0
 71
3
 72
15
 73
11
 74
0
 42
0.0000001
 43
0.0000001
 44
0.0000000001
 40
0.0
 40
0.0
 40
0.0
 40
0.0
 40
0.0207408892
 40
0.0464285259
 40
0.1138475964
 40
0.2037054926
 40
0.3165368458
 40
0.4525813448
 40
0.6118844507
 40
1.0
 40
1.0
 40
1.0
 40
1.0
 10
95.6398019273
 20
95.16643364
 30
0.0
 10
95.6381137436
 20
95.1680121602
 30
0.0
 10
95.6339240099
 20
95.1711017899
 30
0.0
 10
95.622783572
 20
95.1772075793
 30
0.0
 10
95.6036441973
 20
95.1844508123
 30
0.0
 10
95.5746750225
 20
95.1926406554
 30
0.0
 10
95.537816257
 20
95.2008635213
 30
0.0
 10
95.4930812861
 20
95.2091135851
 30
0.0
 10
95.4178323095
 20
95.220904999
 30
0.0
 10
95.3572875128
 20
95.2284632228
 30
0.0
 10
95.3143196153
 20
95.2333835385
 30
0.0
  0
SPLINE
  5
521
100
AcDbEntity
  8
7_ALL_FEATURES
100
AcDbSpline
 62
9
  6
CONTINUOUS
 70
0
 71
3
 72
15
 73
11
 74
0
 42
0.0000001
 43
0.0000001
 44
0.0000000001
 40
0.0
 40
0.0
 40
0.0
 40
0.0
 40
0.3881155493
 40
0.5474186552
 40
0.6834631542
 40
0.7962945074
 40
0.8861524036
 40
0.9535714741
 40
0.9792591108
 40
1.0
 40
1.0
 40
1.0
 40
1.0
 10
95.3143196153
 20
166.0308815204
 30
0.0
 10
95.3572875128
 20
166.0358018362
 30
0.0
 10
95.4178323095
 20
166.04336006
 30
0.0
 10
95.4930812861
 20
166.0551514739
 30
0.0
 10
95.537816257
 20
166.0634015377
 30
0.0
 10
95.5746750225
 20
166.0716244036
 30
0.0
 10
95.6036441973
 20
166.0798142467
 30
0.0
 10
95.622783572
 20
166.0870574797
 30
0.0
 10
95.6339240099
 20
166.0931632691
 30
0.0
 10
95.6381137436
 20
166.0962528987
 30
0.0
 10
95.6398019273
 20
166.097831419
 30
0.0
  0
SPLINE
  5
522
100
AcDbEntity
  8
7_ALL_FEATURES
100
AcDbSpline
 62
9
  6
CONTINUOUS
 70
0
 71
3
 72
15
 73
11
 74
0
 42
0.0000001
 43
0.0000001
 44
0.0000000001
 40
0.0
 40
0.0
 40
0.0
 40
0.0
 40
0.3881155493
 40
0.5474186552
 40
0.6834631542
 40
0.7962945074
 40
0.8861524036
 40
0.9535714741
 40
0.9792591108
 40
1.0
 40
1.0
 40
1.0
 40
1.0
 10
33.8345718104
 20
95.2333835385
 30
0.0
 10
33.7916039129
 20
95.2284632228
 30
0.0
 10
33.7310591162
 20
95.220904999
 30
0.0
 10
33.6558101396
 20
95.2091135851
 30
0.0
 10
33.6110751687
 20
95.2008635213
 30
0.0
 10
33.5742164032
 20
95.1926406554
 30
0.0
 10
33.5452472284
 20
95.1844508123
 30
0.0
 10
33.5261078537
 20
95.1772075793
 30
0.0
 10
33.5149674157
 20
95.1711017899
 30
0.0
 10
33.5107776821
 20
95.1680121602
 30
0.0
 10
33.5090894984
 20
95.16643364
 30
0.0
  0
SPLINE
  5
523
100
AcDbEntity
  8
7_ALL_FEATURES
100
AcDbSpline
 62
9
  6
CONTINUOUS
 70
0
 71
3
 72
15
 73
11
 74
0
 42
0.0000001
 43
0.0000001
 44
0.0000000001
 40
0.0
 40
0.0
 40
0.0
 40
0.0
 40
0.0207408892
 40
0.0464285259
 40
0.1138475964
 40
0.2037054926
 40
0.3165368458
 40
0.4525813448
 40
0.6118844507
 40
1.0
 40
1.0
 40
1.0
 40
1.0
 10
33.5090894984
 20
166.097831419
 30
0.0
 10
33.5107776821
 20
166.0962528987
 30
0.0
 10
33.5149674157
 20
166.0931632691
 30
0.0
 10
33.5261078537
 20
166.0870574797
 30
0.0
 10
33.5452472284
 20
166.0798142467
 30
0.0
 10
33.5742164032
 20
166.0716244036
 30
0.0
 10
33.6110751687
 20
166.0634015377
 30
0.0
 10
33.6558101396
 20
166.0551514739
 30
0.0
 10
33.7310591162
 20
166.04336006
 30
0.0
 10
33.7916039129
 20
166.0358018362
 30
0.0
 10
33.8345718104
 20
166.0308815204
 30
0.0
  0
SPLINE
  5
524
100
AcDbEntity
  8
7_ALL_FEATURES
100
AcDbSpline
 62
9
  6
CONTINUOUS
 70
0
 71
3
 72
14
 73
10
 74
0
 42
0.0000001
 43
0.0000001
 44
0.0000000001
 40
0.0
 40
0.0
 40
0.0
 40
0.0
 40
0.0471342974
 40
0.114997691
 40
0.2050434771
 40
0.317875762
 40
0.4537756289
 40
0.6128007499
 40
1.0
 40
1.0
 40
1.0
 40
1.0
 10
94.6401446023
 20
94.166776315
 30
0.0
 10
94.6366695179
 20
94.1702589623
 30
0.0
 10
94.6262771593
 20
94.176684764
 30
0.0
 10
94.6064847103
 20
94.1847774211
 30
0.0
 10
94.5793844217
 20
94.1929717809
 30
0.0
 10
94.54499176
 20
94.2012028756
 30
0.0
 10
94.5032262381
 20
94.2094560774
 30
0.0
 10
94.4330047645
 20
94.2212483069
 30
0.0
 10
94.3764764182
 20
94.228807559
 30
0.0
 10
94.3363611111
 20
94.2337262136
 30
0.0
  0
SPLINE
  5
525
100
AcDbEntity
  8
7_ALL_FEATURES
100
AcDbSpline
 62
9
  6
CONTINUOUS
 70
0
 71
3
 72
37
 73
33
 74
0
 42
0.0000001
 43
0.0000001
 44
0.0000000001
 40
0.0
 40
0.0
 40
0.0
 40
0.0
 40
0.0050698939
 40
0.0109707402
 40
0.0176977044
 40
0.0252446064
 40
0.0427670193
 40
0.0634635146
 40
0.0872390375
 40
0.1139766561
 40
0.1435357241
 40
0.1757500084
 40
0.2104260452
 40
0.2473419825
 40
0.3268626575
 40
0.4119803222
 40
0.5
 40
0.5880196777
 40
0.6731373425
 40
0.7526580175
 40
0.7895739548
 40
0.8242499916
 40
0.8564642759
 40
0.8860233439
 40
0.9127609624
 40
0.9365364854
 40
0.9572329807
 40
0.9747553936
 40
0.9823022956
 40
0.9890292598
 40
0.994930106
 40
1.0
 40
1.0
 40
1.0
 40
1.0
 10
94.3363611111
 20
94.2337262136
 30
0.0
 10
94.2364685417
 20
94.2459782754
 30
0.0
 10
94.0199886654
 20
94.2698670026
 30
0.0
 10
93.6702114797
 20
94.3027745041
 30
0.0
 10
93.2710490674
 20
94.335374986
 30
0.0
 10
92.6414852835
 20
94.3806140797
 30
0.0
 10
91.7345797295
 20
94.4346832933
 30
0.0
 10
90.5053968536
 20
94.4947495057
 30
0.0
 10
89.0929881484
 20
94.552208413
 30
0.0
 10
87.5044183001
 20
94.6066061056
 30
0.0
 10
85.7481396907
 20
94.6574711804
 30
0.0
 10
83.8341172265
 20
94.7043701411
 30
0.0
 10
81.7739205059
 20
94.7468914235
 30
0.0
 10
78.7746620515
 20
94.7985004446
 30
0.0
 10
74.7739481833
 20
94.8484514487
 30
0.0
 10
69.7586108132
 20
94.8846620004
 30
0.0
 10
64.574445714
 20
94.8969051699
 30
0.0
 10
59.3902806147
 20
94.8846620004
 30
0.0
 10
54.3749432446
 20
94.8484514487
 30
0.0
 10
50.3742293764
 20
94.7985004446
 30
0.0
 10
47.3749709219
 20
94.7468914235
 30
0.0
 10
45.3147742012
 20
94.7043701411
 30
0.0
 10
43.4007517368
 20
94.6574711804
 30
0.0
 10
41.6444731274
 20
94.6066061056
 30
0.0
 10
40.0559032788
 20
94.552208413
 30
0.0
 10
38.6434945733
 20
94.4947495057
 30
0.0
 10
37.4143116972
 20
94.4346832933
 30
0.0
 10
36.507406143
 20
94.3806140798
 30
0.0
 10
35.8778423585
 20
94.335374986
 30
0.0
 10
35.4786799478
 20
94.3027745042
 30
0.0
 10
35.1289027617
 20
94.2698670034
 30
0.0
 10
34.9124228862
 20
94.2459782723
 30
0.0
 10
34.8125303146
 20
94.2337262136
 30
0.0
  0
SPLINE
  5
526
100
AcDbEntity
  8
7_ALL_FEATURES
100
AcDbSpline
 62
9
  6
CONTINUOUS
 70
0
 71
3
 72
14
 73
10
 74
0
 42
0.0000001
 43
0.0000001
 44
0.0000000001
 40
0.0
 40
0.0
 40
0.0
 40
0.0
 40
0.3871992501
 40
0.5462243711
 40
0.682124238
 40
0.7949565229
 40
0.885002309
 40
0.9528657026
 40
1.0
 40
1.0
 40
1.0
 40
1.0
 10
34.8125303146
 20
94.2337262136
 30
0.0
 10
34.7724150075
 20
94.228807559
 30
0.0
 10
34.7158866612
 20
94.2212483069
 30
0.0
 10
34.6456651875
 20
94.2094560774
 30
0.0
 10
34.6038996657
 20
94.2012028756
 30
0.0
 10
34.569507004
 20
94.1929717809
 30
0.0
 10
34.5424067154
 20
94.1847774211
 30
0.0
 10
34.5226142664
 20
94.176684764
 30
0.0
 10
34.5122219077
 20
94.1702589623
 30
0.0
 10
34.5087468234
 20
94.166776315
 30
0.0
  0
SPLINE
  5
527
100
AcDbEntity
  8
7_ALL_FEATURES
100
AcDbSpline
 62
9
  6
CONTINUOUS
 70
0
 71
3
 72
14
 73
10
 74
0
 42
0.0000001
 43
0.0000001
 44
0.0000000001
 40
0.0
 40
0.0
 40
0.0
 40
0.0
 40
0.0471342974
 40
0.114997691
 40
0.2050434771
 40
0.317875762
 40
0.4537756289
 40
0.6128007499
 40
1.0
 40
1.0
 40
1.0
 40
1.0
 10
34.5087468234
 20
167.0974887439
 30
0.0
 10
34.5122219077
 20
167.0940060967
 30
0.0
 10
34.5226142664
 20
167.087580295
 30
0.0
 10
34.5424067154
 20
167.0794876379
 30
0.0
 10
34.569507004
 20
167.0712932781
 30
0.0
 10
34.6038996657
 20
167.0630621834
 30
0.0
 10
34.6456651875
 20
167.0548089816
 30
0.0
 10
34.7158866612
 20
167.0430167521
 30
0.0
 10
34.7724150075
 20
167.0354575
 30
0.0
 10
34.8125303146
 20
167.0305388454
 30
0.0
  0
SPLINE
  5
528
100
AcDbEntity
  8
7_ALL_FEATURES
100
AcDbSpline
 62
9
  6
CONTINUOUS
 70
0
 71
3
 72
37
 73
33
 74
0
 42
0.0000001
 43
0.0000001
 44
0.0000000001
 40
0.0
 40
0.0
 40
0.0
 40
0.0
 40
0.005069894
 40
0.0109707402
 40
0.0176977044
 40
0.0252446064
 40
0.0427670193
 40
0.0634635146
 40
0.0872390376
 40
0.1139766561
 40
0.1435357241
 40
0.1757500084
 40
0.2104260452
 40
0.2473419825
 40
0.3268626575
 40
0.4119803223
 40
0.5
 40
0.5880196778
 40
0.6731373425
 40
0.7526580175
 40
0.7895739548
 40
0.8242499916
 40
0.8564642759
 40
0.8860233439
 40
0.9127609625
 40
0.9365364854
 40
0.9572329807
 40
0.9747553936
 40
0.9823022956
 40
0.9890292598
 40
0.9949301061
 40
1.0
 40
1.0
 40
1.0
 40
1.0
 10
34.8125303146
 20
167.0305388454
 30
0.0
 10
34.9124228862
 20
167.0182867867
 30
0.0
 10
35.1289027617
 20
166.9943980556
 30
0.0
 10
35.4786799478
 20
166.9614905548
 30
0.0
 10
35.8778423585
 20
166.928890073
 30
0.0
 10
36.507406143
 20
166.8836509792
 30
0.0
 10
37.4143116972
 20
166.8295817656
 30
0.0
 10
38.6434945733
 20
166.7695155533
 30
0.0
 10
40.0559032788
 20
166.712056646
 30
0.0
 10
41.6444731274
 20
166.6576589534
 30
0.0
 10
43.4007517368
 20
166.6067938786
 30
0.0
 10
45.3147742012
 20
166.5598949179
 30
0.0
 10
47.3749709219
 20
166.5173736355
 30
0.0
 10
50.3742293764
 20
166.4657646144
 30
0.0
 10
54.3749432446
 20
166.4158136103
 30
0.0
 10
59.3902806147
 20
166.3796030586
 30
0.0
 10
64.574445714
 20
166.3673598891
 30
0.0
 10
69.7586108132
 20
166.3796030586
 30
0.0
 10
74.7739481833
 20
166.4158136103
 30
0.0
 10
78.7746620515
 20
166.4657646144
 30
0.0
 10
81.7739205059
 20
166.5173736355
 30
0.0
 10
83.8341172265
 20
166.5598949179
 30
0.0
 10
85.7481396907
 20
166.6067938786
 30
0.0
 10
87.5044183001
 20
166.6576589534
 30
0.0
 10
89.0929881484
 20
166.712056646
 30
0.0
 10
90.5053968536
 20
166.7695155533
 30
0.0
 10
91.7345797295
 20
166.8295817657
 30
0.0
 10
92.6414852835
 20
166.8836509792
 30
0.0
 10
93.2710490674
 20
166.928890073
 30
0.0
 10
93.6702114797
 20
166.9614905549
 30
0.0
 10
94.0199886654
 20
166.9943980564
 30
0.0
 10
94.2364685417
 20
167.0182867836
 30
0.0
 10
94.3363611111
 20
167.0305388454
 30
0.0
  0
SPLINE
  5
529
100
AcDbEntity
  8
7_ALL_FEATURES
100
AcDbSpline
 62
9
  6
CONTINUOUS
 70
0
 71
3
 72
14
 73
10
 74
0
 42
0.0000001
 43
0.0000001
 44
0.0000000001
 40
0.0
 40
0.0
 40
0.0
 40
0.0
 40
0.3871992501
 40
0.5462243711
 40
0.682124238
 40
0.7949565229
 40
0.885002309
 40
0.9528657026
 40
1.0
 40
1.0
 40
1.0
 40
1.0
 10
94.3363611111
 20
167.0305388454
 30
0.0
 10
94.3764764182
 20
167.0354575
 30
0.0
 10
94.4330047645
 20
167.0430167521
 30
0.0
 10
94.5032262381
 20
167.0548089816
 30
0.0
 10
94.54499176
 20
167.0630621834
 30
0.0
 10
94.5793844217
 20
167.0712932781
 30
0.0
 10
94.6064847103
 20
167.0794876379
 30
0.0
 10
94.6262771593
 20
167.087580295
 30
0.0
 10
94.6366695179
 20
167.0940060967
 30
0.0
 10
94.6401446023
 20
167.0974887439
 30
0.0
  0
SPLINE
  5
52A
100
AcDbEntity
  8
7_ALL_FEATURES
100
AcDbSpline
 62
7
  6
CONTINUOUS
 70
0
 71
3
 72
15
 73
11
 74
0
 42
0.0000001
 43
0.0000001
 44
0.0000000001
 40
0.0
 40
0.0
 40
0.0
 40
0.0
 40
0.1128182337
 40
0.2274822047
 40
0.345551738
 40
0.4686400406
 40
0.5971549647
 40
0.7297485449
 40
0.8644935737
 40
1.0
 40
1.0
 40
1.0
 40
1.0
 10
89.3575842187
 20
143.903612461
 30
0.0
 10
89.40725602
 20
143.912442384
 30
0.0
 10
89.5064805689
 20
143.9365568269
 30
0.0
 10
89.649593207
 20
143.9969944379
 30
0.0
 10
89.7817770903
 20
144.0879121846
 30
0.0
 10
89.8935714318
 20
144.211827626
 30
0.0
 10
89.9769863387
 20
144.3635714429
 30
0.0
 10
90.0308571304
 20
144.5331090684
 30
0.0
 10
90.0592591607
 20
144.7114934519
 30
0.0
 10
90.0647671374
 20
144.8324371703
 30
0.0
 10
90.0649516266
 20
144.8930332133
 30
0.0
  0
SPLINE
  5
52B
100
AcDbEntity
  8
7_ALL_FEATURES
100
AcDbSpline
 62
9
  6
CONTINUOUS
 70
0
 71
3
 72
15
 73
11
 74
0
 42
0.0000001
 43
0.0000001
 44
0.0000000001
 40
0.0
 40
0.0
 40
0.0
 40
0.0
 40
0.1148388491
 40
0.2328255793
 40
0.3546924266
 40
0.4805719581
 40
0.609554348
 40
0.7400043171
 40
0.8704378061
 40
1.0
 40
1.0
 40
1.0
 40
1.0
 10
89.5739438266
 20
143.907824787
 30
0.0
 10
89.6202046966
 20
143.9222006566
 30
0.0
 10
89.7124563662
 20
143.9567362534
 30
0.0
 10
89.8445880846
 20
144.0280780804
 30
0.0
 10
89.9674185239
 20
144.1226880242
 30
0.0
 10
90.0747202636
 20
144.2410944933
 30
0.0
 10
90.1611824332
 20
144.3796780127
 30
0.0
 10
90.2249799726
 20
144.5319162404
 30
0.0
 10
90.2677738629
 20
144.6913673729
 30
0.0
 10
90.2845769499
 20
144.7999476034
 30
0.0
 10
90.2905691664
 20
144.8542720458
 30
0.0
  0
SPLINE
  5
52C
100
AcDbEntity
  8
7_ALL_FEATURES
100
AcDbSpline
 62
9
  6
CONTINUOUS
 70
0
 71
3
 72
15
 73
11
 74
0
 42
0.0000001
 43
0.0000001
 44
0.0000000001
 40
0.0
 40
0.0
 40
0.0
 40
0.0
 40
0.1148388318
 40
0.2328255497
 40
0.3546923901
 40
0.48057192
 40
0.6095543126
 40
0.7400042883
 40
0.8704377888
 40
1.0
 40
1.0
 40
1.0
 40
1.0
 10
89.5739435155
 20
136.1564401135
 30
0.0
 10
89.6202043892
 20
136.1420642786
 30
0.0
 10
89.7124560688
 20
136.1075287377
 30
0.0
 10
89.8445877965
 20
136.0361869527
 30
0.0
 10
89.9674182329
 20
135.9415770134
 30
0.0
 10
90.0747199519
 20
135.8231705249
 30
0.0
 10
90.1611820908
 20
135.6845869806
 30
0.0
 10
90.2249796058
 20
135.532348732
 30
0.0
 10
90.2677734893
 20
135.3728975814
 30
0.0
 10
90.284576586
 20
135.2643173394
 30
0.0
 10
90.2905688108
 20
135.2099928901
 30
0.0
  0
SPLINE
  5
52D
100
AcDbEntity
  8
7_ALL_FEATURES
100
AcDbSpline
 62
9
  6
CONTINUOUS
 70
0
 71
3
 72
9
 73
5
 74
0
 42
0.0000001
 43
0.0000001
 44
0.0000000001
 40
0.0
 40
0.0
 40
0.0
 40
0.0
 40
0.2354097666
 40
1.0
 40
1.0
 40
1.0
 40
1.0
 10
46.7267234319
 20
136.8499285672
 30
0.0
 10
46.7330427809
 20
136.8462285999
 30
0.0
 10
46.7601131339
 20
136.8308983635
 30
0.0
 10
46.7879966249
 20
136.8170287458
 30
0.0
 10
46.8095883887
 20
136.807055231
 30
0.0
  0
SPLINE
  5
52E
100
AcDbEntity
  8
7_ALL_FEATURES
100
AcDbSpline
 62
7
  6
CONTINUOUS
 70
0
 71
3
 72
15
 73
11
 74
0
 42
0.0000001
 43
0.0000001
 44
0.0000000001
 40
0.0
 40
0.0
 40
0.0
 40
0.0
 40
0.1128182834
 40
0.2274822887
 40
0.3455518262
 40
0.468640103
 40
0.5971549962
 40
0.7297485605
 40
0.8644935828
 40
1.0
 40
1.0
 40
1.0
 40
1.0
 10
89.3575857805
 20
136.1606551745
 30
0.0
 10
89.4072576397
 20
136.1518250345
 30
0.0
 10
89.5064822784
 20
136.1277102069
 30
0.0
 10
89.6495950226
 20
136.0672722026
 30
0.0
 10
89.7817790224
 20
135.9763542294
 30
0.0
 10
89.893573494
 20
135.8524386142
 30
0.0
 10
89.9769884193
 20
135.700694546
 30
0.0
 10
90.0308589943
 20
135.5311565948
 30
0.0
 10
90.0592605677
 20
135.3527718813
 30
0.0
 10
90.0647681109
 20
135.2318279719
 30
0.0
 10
90.0649523603
 20
135.1712318448
 30
0.0
  0
SPLINE
  5
52F
100
AcDbEntity
  8
7_ALL_FEATURES
100
AcDbSpline
 62
9
  6
CONTINUOUS
 70
0
 71
3
 72
13
 73
9
 74
0
 42
0.0000001
 43
0.0000001
 44
0.0000000001
 40
0.0
 40
0.0
 40
0.0
 40
0.0
 40
0.0915433923
 40
0.1950993902
 40
0.3097144566
 40
0.4342116162
 40
0.7070405889
 40
1.0
 40
1.0
 40
1.0
 40
1.0
 10
39.7913122383
 20
136.1606527555
 30
0.0
 10
40.4940875513
 20
136.1550730506
 30
0.0
 10
41.991879607
 20
136.1458593837
 30
0.0
 10
44.3696010834
 20
136.1359284883
 30
0.0
 10
47.0003250298
 20
136.1282878918
 30
0.0
 10
50.9305950761
 20
136.1202701012
 30
0.0
 10
56.2300568296
 20
136.1143156356
 30
0.0
 10
60.5737305121
 20
136.1124578282
 30
0.0
 10
62.8228401787
 20
136.1121253661
 30
0.0
  0
SPLINE
  5
530
100
AcDbEntity
  8
7_ALL_FEATURES
100
AcDbSpline
 62
7
  6
CONTINUOUS
 70
0
 71
3
 72
15
 73
11
 74
0
 42
0.0000001
 43
0.0000001
 44
0.0000000001
 40
0.0
 40
0.0
 40
0.0
 40
0.0
 40
0.1128182833
 40
0.2274822885
 40
0.3455518261
 40
0.4686401029
 40
0.5971549961
 40
0.7297485605
 40
0.8644935828
 40
1.0
 40
1.0
 40
1.0
 40
1.0
 10
39.7913056448
 20
143.9036098844
 30
0.0
 10
39.7416337856
 20
143.9124400244
 30
0.0
 10
39.642409147
 20
143.936554852
 30
0.0
 10
39.4992964028
 20
143.9969928563
 30
0.0
 10
39.3671124031
 20
144.0879108296
 30
0.0
 10
39.2553179314
 20
144.2118264447
 30
0.0
 10
39.1719030061
 20
144.3635705129
 30
0.0
 10
39.118032431
 20
144.5331084642
 30
0.0
 10
39.0896308576
 20
144.7114931777
 30
0.0
 10
39.0841233143
 20
144.832437087
 30
0.0
 10
39.0839390649
 20
144.8930332142
 30
0.0
  0
SPLINE
  5
531
100
AcDbEntity
  8
7_ALL_FEATURES
100
AcDbSpline
 62
9
  6
CONTINUOUS
 70
0
 71
3
 72
13
 73
9
 74
0
 42
0.0000001
 43
0.0000001
 44
0.0000000001
 40
0.0
 40
0.0
 40
0.0
 40
0.0
 40
0.2929594304
 40
0.5657883849
 40
0.6902855347
 40
0.804900594
 40
0.9084565881
 40
1.0
 40
1.0
 40
1.0
 40
1.0
 10
66.3260533119
 20
136.1121253785
 30
0.0
 10
68.57516293
 20
136.1124578337
 30
0.0
 10
72.9188362409
 20
136.1143156345
 30
0.0
 10
78.2182974641
 20
136.1202701033
 30
0.0
 10
82.1485668971
 20
136.1282878929
 30
0.0
 10
84.7792904547
 20
136.1359284903
 30
0.0
 10
87.1570117902
 20
136.1458593821
 30
0.0
 10
88.6548038365
 20
136.1550730371
 30
0.0
 10
89.3575792385
 20
136.1606527559
 30
0.0
  0
SPLINE
  5
532
100
AcDbEntity
  8
7_ALL_FEATURES
100
AcDbSpline
 62
9
  6
CONTINUOUS
 70
0
 71
3
 72
15
 73
11
 74
0
 42
0.0000001
 43
0.0000001
 44
0.0000000001
 40
0.0
 40
0.0
 40
0.0
 40
0.0
 40
0.1148388319
 40
0.23282555
 40
0.3546923905
 40
0.4805719206
 40
0.6095543132
 40
0.7400042888
 40
0.8704377891
 40
1.0
 40
1.0
 40
1.0
 40
1.0
 10
39.5749479077
 20
143.9078249497
 30
0.0
 10
39.5286870339
 20
143.9222007845
 30
0.0
 10
39.4364353541
 20
143.956736325
 30
0.0
 10
39.304303626
 20
144.0280781095
 30
0.0
 10
39.1814731889
 20
144.1226880481
 30
0.0
 10
39.0741714691
 20
144.2410945359
 30
0.0
 10
38.987709329
 20
144.3796780794
 30
0.0
 10
38.9239118127
 20
144.5319163273
 30
0.0
 10
38.8811179278
 20
144.6913674772
 30
0.0
 10
38.8643148301
 20
144.7999477188
 30
0.0
 10
38.8583226047
 20
144.8542721679
 30
0.0
  0
SPLINE
  5
533
100
AcDbEntity
  8
7_ALL_FEATURES
100
AcDbSpline
 62
9
  6
CONTINUOUS
 70
0
 71
3
 72
13
 73
9
 74
0
 42
0.0000001
 43
0.0000001
 44
0.0000000001
 40
0.0
 40
0.0
 40
0.0
 40
0.0
 40
0.2929597049
 40
0.5657885363
 40
0.6902856103
 40
0.8049005955
 40
0.9084565604
 40
1.0
 40
1.0
 40
1.0
 40
1.0
 10
62.8229425223
 20
143.9521403762
 30
0.0
 10
60.5738206014
 20
143.9518074873
 30
0.0
 10
56.2301264374
 20
143.9499493877
 30
0.0
 10
50.9306406096
 20
143.9439950472
 30
0.0
 10
47.0003554554
 20
143.9359772369
 30
0.0
 10
44.3696213471
 20
143.928336613
 30
0.0
 10
41.9918898128
 20
143.918405774
 30
0.0
 10
40.4940909878
 20
143.9091920576
 30
0.0
 10
39.7913121872
 20
143.903612303
 30
0.0
  0
SPLINE
  5
534
100
AcDbEntity
  8
7_ALL_FEATURES
100
AcDbSpline
 62
9
  6
CONTINUOUS
 70
0
 71
3
 72
15
 73
11
 74
0
 42
0.0000001
 43
0.0000001
 44
0.0000000001
 40
0.0
 40
0.0
 40
0.0
 40
0.0
 40
0.1148388454
 40
0.2328255715
 40
0.3546924149
 40
0.4805719441
 40
0.6095543339
 40
0.7400043054
 40
0.8704377993
 40
1.0
 40
1.0
 40
1.0
 40
1.0
 10
39.5749477025
 20
136.1564402515
 30
0.0
 10
39.5286868337
 20
136.1420643832
 30
0.0
 10
39.4364351668
 20
136.1075287886
 30
0.0
 10
39.3043034537
 20
136.0361869619
 30
0.0
 10
39.1814730226
 20
135.9415770142
 30
0.0
 10
39.0741712955
 20
135.8231705369
 30
0.0
 10
38.9877091433
 20
135.6845870066
 30
0.0
 10
38.9239116241
 20
135.532348767
 30
0.0
 10
38.8811177552
 20
135.3728976227
 30
0.0
 10
38.8643146825
 20
135.2643173851
 30
0.0
 10
38.858322473
 20
135.2099929391
 30
0.0
  0
SPLINE
  5
535
100
AcDbEntity
  8
7_ALL_FEATURES
100
AcDbSpline
 62
9
  6
CONTINUOUS
 70
0
 71
3
 72
13
 73
9
 74
0
 42
0.0000001
 43
0.0000001
 44
0.0000000001
 40
0.0
 40
0.0
 40
0.0
 40
0.0
 40
0.0915433932
 40
0.1950993913
 40
0.3097144574
 40
0.4342116162
 40
0.7070405876
 40
1.0
 40
1.0
 40
1.0
 40
1.0
 10
89.3575791884
 20
143.9036123035
 30
0.0
 10
88.6548039419
 20
143.9091920083
 30
0.0
 10
87.1570120334
 20
143.9184056746
 30
0.0
 10
84.7792907986
 20
143.9283365691
 30
0.0
 10
82.1485671332
 20
143.9359771652
 30
0.0
 10
78.2182975153
 20
143.9439949558
 30
0.0
 10
72.9188363199
 20
143.9499494271
 30
0.0
 10
68.5751630896
 20
143.9518072175
 30
0.0
 10
66.3260536472
 20
143.9521396915
 30
0.0
  0
SPLINE
  5
536
100
AcDbEntity
  8
7_ALL_FEATURES
100
AcDbSpline
 62
9
  6
CONTINUOUS
 70
0
 71
3
 72
37
 73
33
 74
0
 42
0.0000001
 43
0.0000001
 44
0.0000000001
 40
0.0
 40
0.0
 40
0.0
 40
0.0
 40
0.0050663217
 40
0.0109655112
 40
0.0176925785
 40
0.0252411593
 40
0.0427709789
 40
0.0634790368
 40
0.087268711
 40
0.114021435
 40
0.1435949303
 40
0.1758214258
 40
0.2105061406
 40
0.2474261815
 40
0.3269380438
 40
0.4120248712
 40
0.5
 40
0.5879751288
 40
0.6730619561
 40
0.7525738185
 40
0.7894938594
 40
0.8241785742
 40
0.8564050697
 40
0.885978565
 40
0.912731289
 40
0.9365209632
 40
0.9572290211
 40
0.9747588407
 40
0.9823074215
 40
0.9890344888
 40
0.9949336783
 40
1.0
 40
1.0
 40
1.0
 40
1.0
 10
95.3143196153
 20
95.2333835385
 30
0.0
 10
95.2111770719
 20
95.2456713234
 30
0.0
 10
94.9876207875
 20
95.2696254889
 30
0.0
 10
94.6263737649
 20
95.3026118805
 30
0.0
 10
94.2140247552
 20
95.3352865786
 30
0.0
 10
93.5635060815
 20
95.380624863
 30
0.0
 10
92.6263063552
 20
95.4347921082
 30
0.0
 10
91.355999872
 20
95.4949391871
 30
0.0
 10
89.8963119053
 20
95.552446569
 30
0.0
 10
88.2546345998
 20
95.6068597613
 30
0.0
 10
86.4397941773
 20
95.6577085461
 30
0.0
 10
84.462172919
 20
95.7045628708
 30
0.0
 10
82.3337987599
 20
95.7470164357
 30
0.0
 10
79.2359639967
 20
95.7985066158
 30
0.0
 10
75.1046165134
 20
95.8482948135
 30
0.0
 10
69.9263457056
 20
95.8843566244
 30
0.0
 10
64.574445714
 20
95.8965432419
 30
0.0
 10
59.2225457221
 20
95.8843566245
 30
0.0
 10
54.0442749135
 20
95.8482948135
 30
0.0
 10
49.9129274294
 20
95.7985066158
 30
0.0
 10
46.8150926658
 20
95.7470164357
 30
0.0
 10
44.6867185067
 20
95.7045628708
 30
0.0
 10
42.7090972484
 20
95.6577085462
 30
0.0
 10
40.8942568259
 20
95.6068597612
 30
0.0
 10
39.2525795203
 20
95.552446569
 30
0.0
 10
37.7928915536
 20
95.4949391871
 30
0.0
 10
36.5225850704
 20
95.4347921083
 30
0.0
 10
35.5853853441
 20
95.380624863
 30
0.0
 10
34.9348666704
 20
95.3352865787
 30
0.0
 10
34.5225176608
 20
95.3026118802
 30
0.0
 10
34.1612706381
 20
95.2696254897
 30
0.0
 10
33.937714354
 20
95.2456713216
 30
0.0
 10
33.8345718104
 20
95.2333835385
 30
0.0
  0
SPLINE
  5
537
100
AcDbEntity
  8
7_ALL_FEATURES
100
AcDbSpline
 62
9
  6
CONTINUOUS
 70
0
 71
3
 72
37
 73
33
 74
0
 42
0.0000001
 43
0.0000001
 44
0.0000000001
 40
0.0
 40
0.0
 40
0.0
 40
0.0
 40
0.0050663217
 40
0.0109655112
 40
0.0176925785
 40
0.0252411593
 40
0.0427709789
 40
0.0634790368
 40
0.087268711
 40
0.114021435
 40
0.1435949303
 40
0.1758214258
 40
0.2105061406
 40
0.2474261815
 40
0.3269380439
 40
0.4120248712
 40
0.5
 40
0.5879751288
 40
0.6730619562
 40
0.7525738185
 40
0.7894938594
 40
0.8241785742
 40
0.8564050697
 40
0.885978565
 40
0.912731289
 40
0.9365209632
 40
0.9572290211
 40
0.9747588407
 40
0.9823074215
 40
0.9890344888
 40
0.9949336783
 40
1.0
 40
1.0
 40
1.0
 40
1.0
 10
33.8345718104
 20
166.0308815204
 30
0.0
 10
33.937714354
 20
166.0185937373
 30
0.0
 10
34.1612706381
 20
165.9946395692
 30
0.0
 10
34.5225176608
 20
165.9616531787
 30
0.0
 10
34.9348666704
 20
165.9289784803
 30
0.0
 10
35.5853853441
 20
165.883640196
 30
0.0
 10
36.5225850704
 20
165.8294729507
 30
0.0
 10
37.7928915536
 20
165.7693258719
 30
0.0
 10
39.2525795203
 20
165.71181849
 30
0.0
 10
40.8942568259
 20
165.6574052978
 30
0.0
 10
42.7090972484
 20
165.6065565128
 30
0.0
 10
44.6867185067
 20
165.5597021882
 30
0.0
 10
46.8150926658
 20
165.5172486232
 30
0.0
 10
49.9129274294
 20
165.4657584432
 30
0.0
 10
54.0442749135
 20
165.4159702455
 30
0.0
 10
59.2225457221
 20
165.3799084345
 30
0.0
 10
64.574445714
 20
165.3677218171
 30
0.0
 10
69.9263457056
 20
165.3799084345
 30
0.0
 10
75.1046165134
 20
165.4159702455
 30
0.0
 10
79.2359639967
 20
165.4657584432
 30
0.0
 10
82.3337987599
 20
165.5172486233
 30
0.0
 10
84.462172919
 20
165.5597021881
 30
0.0
 10
86.4397941773
 20
165.6065565129
 30
0.0
 10
88.2546345998
 20
165.6574052977
 30
0.0
 10
89.8963119053
 20
165.71181849
 30
0.0
 10
91.355999872
 20
165.7693258719
 30
0.0
 10
92.6263063552
 20
165.8294729507
 30
0.0
 10
93.5635060815
 20
165.883640196
 30
0.0
 10
94.2140247552
 20
165.9289784804
 30
0.0
 10
94.6263737649
 20
165.9616531785
 30
0.0
 10
94.9876207875
 20
165.9946395701
 30
0.0
 10
95.2111770719
 20
166.0185937356
 30
0.0
 10
95.3143196153
 20
166.0308815204
 30
0.0
  0
SPLINE
  5
538
100
AcDbEntity
  8
7_ALL_FEATURES
100
AcDbSpline
 62
9
  6
CONTINUOUS
 70
0
 71
3
 72
15
 73
11
 74
0
 42
0.0000001
 43
0.0000001
 44
0.0000000001
 40
0.0
 40
0.0
 40
0.0
 40
0.0
 40
0.155978336
 40
0.307283739
 40
0.4498491067
 40
0.5810849159
 40
0.7002534568
 40
0.8082808915
 40
0.9072761609
 40
1.0
 40
1.0
 40
1.0
 40
1.0
 10
90.9845274581
 20
143.4967545183
 30
0.0
 10
90.9845265234
 20
143.5808779198
 30
0.0
 10
90.9758443256
 20
143.7467544409
 30
0.0
 10
90.9364221635
 20
143.9866669385
 30
0.0
 10
90.8722069847
 20
144.2074071761
 30
0.0
 10
90.786069577
 20
144.4018338806
 30
0.0
 10
90.6816053344
 20
144.5654731789
 30
0.0
 10
90.5624781603
 20
144.6962362022
 30
0.0
 10
90.4322532923
 20
144.7937090472
 30
0.0
 10
90.3378403238
 20
144.8379540422
 30
0.0
 10
90.2905690408
 20
144.8542720458
 30
0.0
  0
SPLINE
  5
539
100
AcDbEntity
  8
7_ALL_FEATURES
100
AcDbSpline
 62
9
  6
CONTINUOUS
 70
0
 71
3
 72
15
 73
11
 74
0
 42
0.0000001
 43
0.0000001
 44
0.0000000001
 40
0.0
 40
0.0
 40
0.0
 40
0.0
 40
0.092723821
 40
0.1917190844
 40
0.2997465253
 40
0.4189150621
 40
0.550150863
 40
0.6927162333
 40
0.8440216485
 40
1.0
 40
1.0
 40
1.0
 40
1.0
 10
90.2905686526
 20
135.2099928901
 30
0.0
 10
90.3378400164
 20
135.2263106661
 30
0.0
 10
90.432252967
 20
135.2705558054
 30
0.0
 10
90.5624779254
 20
135.3680285324
 30
0.0
 10
90.6816051176
 20
135.4987916131
 30
0.0
 10
90.78606943
 20
135.6624309072
 30
0.0
 10
90.8722069099
 20
135.8568576329
 30
0.0
 10
90.9364221345
 20
136.0775979181
 30
0.0
 10
90.9758443178
 20
136.3175104878
 30
0.0
 10
90.9845265229
 20
136.4833870629
 30
0.0
 10
90.9845274574
 20
136.5675104926
 30
0.0
  0
SPLINE
  5
53A
100
AcDbEntity
  8
7_ALL_FEATURES
100
AcDbSpline
 62
9
  6
CONTINUOUS
 70
0
 71
3
 72
13
 73
9
 74
0
 42
0.0000001
 43
0.0000001
 44
0.0000000001
 40
0.0
 40
0.0
 40
0.0
 40
0.0
 40
0.2922358231
 40
0.5662932135
 40
0.6914106846
 40
0.8062990274
 40
0.9095500496
 40
1.0
 40
1.0
 40
1.0
 40
1.0
 10
64.5744470857
 20
135.1158013554
 30
0.0
 10
67.0575379239
 20
135.1158013509
 30
0.0
 10
71.8692597886
 20
135.1173193585
 30
0.0
 10
77.7440868981
 20
135.1234885569
 30
0.0
 10
82.1120081788
 20
135.1324103108
 30
0.0
 10
85.0286058325
 20
135.141165043
 30
0.0
 10
87.6506247544
 20
135.1528869013
 30
0.0
 10
89.2964426971
 20
135.1641696429
 30
0.0
 10
90.0649520408
 20
135.1712318448
 30
0.0
  0
SPLINE
  5
53B
100
AcDbEntity
  8
7_ALL_FEATURES
100
AcDbSpline
 62
9
  6
CONTINUOUS
 70
0
 71
3
 72
13
 73
9
 74
0
 42
0.0000001
 43
0.0000001
 44
0.0000000001
 40
0.0
 40
0.0
 40
0.0
 40
0.0
 40
0.0904499308
 40
0.1937009583
 40
0.3085893094
 40
0.4337067915
 40
0.7077642021
 40
1.0
 40
1.0
 40
1.0
 40
1.0
 10
39.0839393851
 20
135.1712318457
 30
0.0
 10
39.8524486455
 20
135.1641697082
 30
0.0
 10
41.498266643
 20
135.1528868666
 30
0.0
 10
44.1202857967
 20
135.1411650525
 30
0.0
 10
47.0368839728
 20
135.1324103062
 30
0.0
 10
51.4048060604
 20
135.1234885562
 30
0.0
 10
57.2796338537
 20
135.117319357
 30
0.0
 10
62.0913561949
 20
135.1158013487
 30
0.0
 10
64.5744470857
 20
135.1158013554
 30
0.0
  0
SPLINE
  5
53C
100
AcDbEntity
  8
7_ALL_FEATURES
100
AcDbSpline
 62
9
  6
CONTINUOUS
 70
0
 71
3
 72
15
 73
11
 74
0
 42
0.0000001
 43
0.0000001
 44
0.0000000001
 40
0.0
 40
0.0
 40
0.0
 40
0.0
 40
0.1559783292
 40
0.3072837835
 40
0.4498492655
 40
0.5810850361
 40
0.7002535076
 40
0.8082808926
 40
0.9072761936
 40
1.0
 40
1.0
 40
1.0
 40
1.0
 10
38.1643639681
 20
136.5675105194
 30
0.0
 10
38.1643645258
 20
136.4833871103
 30
0.0
 10
38.1730473188
 20
136.3175105414
 30
0.0
 10
38.2124692811
 20
136.0775979442
 30
0.0
 10
38.2766842861
 20
135.8568575132
 30
0.0
 10
38.3628219614
 20
135.6624309224
 30
0.0
 10
38.4672862615
 20
135.4987916216
 30
0.0
 10
38.5864137009
 20
135.3680291976
 30
0.0
 10
38.7166378645
 20
135.2705546778
 30
0.0
 10
38.8110520349
 20
135.2263129928
 30
0.0
 10
38.8583225986
 20
135.2099929391
 30
0.0
  0
SPLINE
  5
53D
100
AcDbEntity
  8
7_ALL_FEATURES
100
AcDbSpline
 62
9
  6
CONTINUOUS
 70
0
 71
3
 72
15
 73
11
 74
0
 42
0.0000001
 43
0.0000001
 44
0.0000000001
 40
0.0
 40
0.0
 40
0.0
 40
0.0
 40
0.0927238219
 40
0.1917190863
 40
0.2997465266
 40
0.4189150629
 40
0.5501508636
 40
0.6927162338
 40
0.8440216491
 40
1.0
 40
1.0
 40
1.0
 40
1.0
 10
38.8583227628
 20
144.8542721679
 30
0.0
 10
38.8110513967
 20
144.8379543984
 30
0.0
 10
38.7166384523
 20
144.7937092419
 30
0.0
 10
38.586413496
 20
144.6962365164
 30
0.0
 10
38.4672863034
 20
144.565473437
 30
0.0
 10
38.362821992
 20
144.4018341449
 30
0.0
 10
38.2766845133
 20
144.2074074208
 30
0.0
 10
38.2124692883
 20
143.9866671372
 30
0.0
 10
38.173047111
 20
143.7467545695
 30
0.0
 10
38.1643648924
 20
143.5808779958
 30
0.0
 10
38.1643639683
 20
143.4967545669
 30
0.0
  0
SPLINE
  5
53E
100
AcDbEntity
  8
7_ALL_FEATURES
100
AcDbSpline
 62
9
  6
CONTINUOUS
 70
0
 71
3
 72
13
 73
9
 74
0
 42
0.0000001
 43
0.0000001
 44
0.0000000001
 40
0.0
 40
0.0
 40
0.0
 40
0.0
 40
0.2922359409
 40
0.5662932476
 40
0.6914106631
 40
0.8062989707
 40
0.9095499956
 40
1.0
 40
1.0
 40
1.0
 40
1.0
 10
64.5742793746
 20
144.9484637126
 30
0.0
 10
62.0912036055
 20
144.9484637163
 30
0.0
 10
57.2795125904
 20
144.9469455747
 30
0.0
 10
51.4047236827
 20
144.9407763944
 30
0.0
 10
47.0368321512
 20
144.9318546117
 30
0.0
 10
44.1202541216
 20
144.9230998968
 30
0.0
 10
41.4982519866
 20
144.9113780449
 30
0.0
 10
39.8524442132
 20
144.9000954234
 30
0.0
 10
39.0839393845
 20
144.8930332142
 30
0.0
  0
SPLINE
  5
53F
100
AcDbEntity
  8
7_ALL_FEATURES
100
AcDbSpline
 62
9
  6
CONTINUOUS
 70
0
 71
3
 72
13
 73
9
 74
0
 42
0.0000001
 43
0.0000001
 44
0.0000000001
 40
0.0
 40
0.0
 40
0.0
 40
0.0
 40
0.0904498769
 40
0.1937009019
 40
0.3085892884
 40
0.4337068263
 40
0.7077643222
 40
1.0
 40
1.0
 40
1.0
 40
1.0
 10
90.064952041
 20
144.8930332133
 30
0.0
 10
89.2964382653
 20
144.9000953947
 30
0.0
 10
87.6506100958
 20
144.9113782818
 30
0.0
 10
85.0285741517
 20
144.9231001283
 30
0.0
 10
82.1119563464
 20
144.9318548843
 30
0.0
 10
77.7440044918
 20
144.940776626
 30
0.0
 10
71.8691385002
 20
144.9469457982
 30
0.0
 10
67.0573853151
 20
144.9484637212
 30
0.0
 10
64.5742793746
 20
144.9484637126
 30
0.0
  0
SPLINE
  5
540
100
AcDbEntity
  8
7_ALL_FEATURES
100
AcDbSpline
 62
9
  6
CONTINUOUS
 70
0
 71
3
 72
19
 73
15
 74
0
 42
0.0000001
 43
0.0000001
 44
0.0000000001
 40
0.0
 40
0.0
 40
0.0
 40
0.0
 40
0.1928057721
 40
0.3787695104
 40
0.550367495
 40
0.7003723254
 40
0.7652877574
 40
0.8226093023
 40
0.8718567733
 40
0.9127228844
 40
0.9451310676
 40
0.9693801438
 40
0.9865944435
 40
1.0
 40
1.0
 40
1.0
 40
1.0
 10
80.869537614
 20
213.0650376222
 30
0.0
 10
80.8501032371
 20
213.0622781194
 30
0.0
 10
80.8118501972
 20
213.0573641349
 30
0.0
 10
80.7560919083
 20
213.0517493307
 30
0.0
 10
80.7045304107
 20
213.048199615
 30
0.0
 10
80.6651804317
 20
213.0470193387
 30
0.0
 10
80.6374616572
 20
213.0473847815
 30
0.0
 10
80.6200195743
 20
213.0482274266
 30
0.0
 10
80.605066244
 20
213.0496309913
 30
0.0
 10
80.5927387455
 20
213.0515702822
 30
0.0
 10
80.5830767652
 20
213.054005917
 30
0.0
 10
80.5761349998
 20
213.056923279
 30
0.0
 10
80.5715517296
 20
213.0604273235
 30
0.0
 10
80.5705595049
 20
213.063677757
 30
0.0
 10
80.5706784746
 20
213.0650373646
 30
0.0
  0
LINE
  5
541
100
AcDbEntity
  8
7_ALL_FEATURES
100
AcDbLine
 62
9
  6
CONTINUOUS
 10
90.5347964775
 20
213.1086177754
 11
90.5582939265
 21
212.6086154002
  0
LINE
  5
542
100
AcDbEntity
  8
7_ALL_FEATURES
100
AcDbLine
 62
9
  6
CONTINUOUS
 10
38.4426719656
 20
212.6086154002
 11
38.468863878
 21
213.1086187197
  0
SPLINE
  5
543
100
AcDbEntity
  8
7_ALL_FEATURES
100
AcDbSpline
 62
9
  6
CONTINUOUS
 70
0
 71
3
 72
19
 73
15
 74
0
 42
0.0000001
 43
0.0000001
 44
0.0000000001
 40
0.0
 40
0.0
 40
0.0
 40
0.0
 40
0.1928068178
 40
0.3787712557
 40
0.5503695451
 40
0.7003744838
 40
0.7652898436
 40
0.8226112625
 40
0.8718585895
 40
0.9127245409
 40
0.9451325227
 40
0.9693815039
 40
0.9865951661
 40
1.0
 40
1.0
 40
1.0
 40
1.0
 10
40.86953564
 20
213.0650373645
 30
0.0
 10
40.8501012667
 20
213.0622780469
 30
0.0
 10
40.8118484412
 20
213.0573631118
 30
0.0
 10
40.7560902528
 20
213.0517489829
 30
0.0
 10
40.7045290004
 20
213.0481993618
 30
0.0
 10
40.6651792516
 20
213.0470192932
 30
0.0
 10
40.6374606788
 20
213.0473848815
 30
0.0
 10
40.620018761
 20
213.0482276376
 30
0.0
 10
40.6050655752
 20
213.0496312712
 30
0.0
 10
40.5927382653
 20
213.0515707218
 30
0.0
 10
40.5830763363
 20
213.0540062895
 30
0.0
 10
40.5761349374
 20
213.0569239641
 30
0.0
 10
40.5715515893
 20
213.060427689
 30
0.0
 10
40.570559578
 20
213.0636779915
 30
0.0
 10
40.5706784883
 20
213.0650375209
 30
0.0
  0
SPLINE
  5
544
100
AcDbEntity
  8
7_ALL_FEATURES
100
AcDbSpline
 62
9
  6
CONTINUOUS
 70
0
 71
3
 72
19
 73
15
 74
0
 42
0.0000001
 43
0.0000001
 44
0.0000000001
 40
0.0
 40
0.0
 40
0.0
 40
0.0
 40
0.0134055561
 40
0.0306198562
 40
0.0548689324
 40
0.0872771156
 40
0.1281432267
 40
0.1773906976
 40
0.2347122425
 40
0.2996276744
 40
0.4496325046
 40
0.6212304892
 40
0.8071942276
 40
1.0
 40
1.0
 40
1.0
 40
1.0
 10
48.578212951
 20
213.0650373645
 30
0.0
 10
48.5783319208
 20
213.063677757
 30
0.0
 10
48.5773396959
 20
213.0604273236
 30
0.0
 10
48.572756426
 20
213.0569232789
 30
0.0
 10
48.5658146605
 20
213.0540059171
 30
0.0
 10
48.5561526803
 20
213.0515702822
 30
0.0
 10
48.543825182
 20
213.0496309914
 30
0.0
 10
48.5288718518
 20
213.0482274266
 30
0.0
 10
48.5114297691
 20
213.0473847815
 30
0.0
 10
48.4837109949
 20
213.0470193386
 30
0.0
 10
48.4443610162
 20
213.0481996149
 30
0.0
 10
48.392799519
 20
213.0517493305
 30
0.0
 10
48.3370412305
 20
213.0573641349
 30
0.0
 10
48.2987881909
 20
213.0622781186
 30
0.0
 10
48.2793538141
 20
213.0650376219
 30
0.0
  0
LINE
  5
545
100
AcDbEntity
  8
7_ALL_FEATURES
100
AcDbLine
 62
9
  6
CONTINUOUS
 10
38.5905974991
 20
212.6086154002
 11
38.614094931
 21
213.1086174134
  0
SPLINE
  5
546
100
AcDbEntity
  8
7_ALL_FEATURES
100
AcDbSpline
 62
9
  6
CONTINUOUS
 70
0
 71
3
 72
17
 73
13
 74
0
 42
0.0000001
 43
0.0000001
 44
0.0000000001
 40
0.0
 40
0.0
 40
0.0
 40
0.0
 40
0.03238254
 40
0.0664991573
 40
0.103793483
 40
0.1452904845
 40
0.2429596025
 40
0.3614981741
 40
0.4997646952
 40
0.6549560744
 40
0.8232118941
 40
1.0
 40
1.0
 40
1.0
 40
1.0
 10
57.3242898368
 20
212.440602956
 30
0.0
 10
57.3261016919
 20
212.435523825
 30
0.0
 10
57.3312027431
 20
212.4255379706
 30
0.0
 10
57.3426542561
 20
212.4124033367
 30
0.0
 10
57.3577597263
 20
212.4010190757
 30
0.0
 10
57.3839718632
 20
212.3874967272
 30
0.0
 10
57.4257444582
 20
212.3760365146
 30
0.0
 10
57.4846463812
 20
212.3702781888
 30
0.0
 10
57.5533754107
 20
212.3719672865
 30
0.0
 10
57.6298134155
 20
212.3810764521
 30
0.0
 10
57.7115646936
 20
212.3974297491
 30
0.0
 10
57.7670916646
 20
212.4124122342
 30
0.0
 10
57.7952161421
 20
212.4211154002
 30
0.0
  0
SPLINE
  5
547
100
AcDbEntity
  8
7_ALL_FEATURES
100
AcDbSpline
 62
9
  6
CONTINUOUS
 70
0
 71
3
 72
14
 73
10
 74
0
 42
0.0000001
 43
0.0000001
 44
0.0000000001
 40
0.0
 40
0.0
 40
0.0
 40
0.0
 40
0.2532665141
 40
0.378956464
 40
0.5039523973
 40
0.6282583374
 40
0.7519881978
 40
0.8755358544
 40
1.0
 40
1.0
 40
1.0
 40
1.0
 10
52.1651743879
 20
212.6086154002
 30
0.0
 10
52.0934005635
 20
212.6086153742
 30
0.0
 10
51.9859437023
 20
212.6059707477
 30
0.0
 10
51.8435678601
 20
212.5942939005
 30
0.0
 10
51.7381483513
 20
212.5804256938
 30
0.0
 10
51.6343540549
 20
212.5599305827
 30
0.0
 10
51.5330276181
 20
212.5304239344
 30
0.0
 10
51.4362400708
 20
212.4881871642
 30
0.0
 10
51.3779935035
 20
212.446667569
 30
0.0
 10
51.3536769366
 20
212.4211169754
 30
0.0
  0
SPLINE
  5
548
100
AcDbEntity
  8
7_ALL_FEATURES
100
AcDbSpline
 62
9
  6
CONTINUOUS
 70
0
 71
3
 72
17
 73
13
 74
0
 42
0.0000001
 43
0.0000001
 44
0.0000000001
 40
0.0
 40
0.0
 40
0.0
 40
0.0
 40
0.0323825428
 40
0.0664991624
 40
0.1037934895
 40
0.145290492
 40
0.2429596103
 40
0.3614981808
 40
0.4997647003
 40
0.6549560774
 40
0.8232118953
 40
1.0
 40
1.0
 40
1.0
 40
1.0
 10
51.8246015795
 20
212.4406029297
 30
0.0
 10
51.822789724
 20
212.4355237985
 30
0.0
 10
51.8176886721
 20
212.4255379437
 30
0.0
 10
51.8062371582
 20
212.4124033093
 30
0.0
 10
51.7911316874
 20
212.4010190482
 30
0.0
 10
51.7649195502
 20
212.3874967002
 30
0.0
 10
51.7231469553
 20
212.376036489
 30
0.0
 10
51.6642450331
 20
212.3702781662
 30
0.0
 10
51.5955160054
 20
212.3719672681
 30
0.0
 10
51.5190780031
 20
212.381076439
 30
0.0
 10
51.4373267282
 20
212.3974297421
 30
0.0
 10
51.3817997598
 20
212.4124122321
 30
0.0
 10
51.3536752836
 20
212.4211154002
 30
0.0
  0
SPLINE
  5
549
100
AcDbEntity
  8
7_ALL_FEATURES
100
AcDbSpline
 62
9
  6
CONTINUOUS
 70
0
 71
3
 72
19
 73
15
 74
0
 42
0.0000001
 43
0.0000001
 44
0.0000000001
 40
0.0
 40
0.0
 40
0.0
 40
0.0
 40
0.0134048343
 40
0.0306184961
 40
0.0548674774
 40
0.0872754591
 40
0.1281414106
 40
0.1773887375
 40
0.2347101565
 40
0.2996255163
 40
0.4496304551
 40
0.6212287444
 40
0.8071931822
 40
1.0
 40
1.0
 40
1.0
 40
1.0
 10
88.5782129374
 20
213.0650375209
 30
0.0
 10
88.5783318475
 20
213.0636779914
 30
0.0
 10
88.5773398366
 20
213.0604276889
 30
0.0
 10
88.5727564882
 20
213.0569239642
 30
0.0
 10
88.5658150894
 20
213.0540062895
 30
0.0
 10
88.5561531603
 20
213.0515707218
 30
0.0
 10
88.5438258504
 20
213.0496312712
 30
0.0
 10
88.5288726646
 20
213.0482276376
 30
0.0
 10
88.5114307467
 20
213.0473848815
 30
0.0
 10
88.483712174
 20
213.0470192932
 30
0.0
 10
88.4443624251
 20
213.0481993618
 30
0.0
 10
88.3928011726
 20
213.051748983
 30
0.0
 10
88.3370429842
 20
213.0573631114
 30
0.0
 10
88.2987901588
 20
213.0622780481
 30
0.0
 10
88.2793557853
 20
213.0650373646
 30
0.0
  0
LINE
  5
54A
100
AcDbEntity
  8
7_ALL_FEATURES
100
AcDbLine
 62
9
  6
CONTINUOUS
 10
89.076310281
 20
212.6086154002
 11
89.1200547333
 21
212.4211148935
  0
LINE
  5
54B
100
AcDbEntity
  8
7_ALL_FEATURES
100
AcDbLine
 62
9
  6
CONTINUOUS
 10
49.076310281
 20
212.6086154002
 11
49.1200547333
 21
212.4211148935
  0
LINE
  5
54C
100
AcDbEntity
  8
7_ALL_FEATURES
100
AcDbLine
 62
9
  6
CONTINUOUS
 10
80.0288366919
 20
212.4211148918
 11
80.0725811446
 21
212.6086154002
  0
SPLINE
  5
54D
100
AcDbEntity
  8
7_ALL_FEATURES
100
AcDbSpline
 62
9
  6
CONTINUOUS
 70
0
 71
3
 72
14
 73
10
 74
0
 42
0.0000001
 43
0.0000001
 44
0.0000000001
 40
0.0
 40
0.0
 40
0.0
 40
0.0
 40
0.1244641426
 40
0.2480117967
 40
0.3717416564
 40
0.496047597
 40
0.6210435305
 40
0.7467334818
 40
1.0
 40
1.0
 40
1.0
 40
1.0
 10
57.7952144891
 20
212.4211169755
 30
0.0
 10
57.7708978718
 20
212.4466675628
 30
0.0
 10
57.7126512902
 20
212.4881872271
 30
0.0
 10
57.6158636326
 20
212.5304239955
 30
0.0
 10
57.5145371048
 20
212.55993065
 30
0.0
 10
57.4107427111
 20
212.580425754
 30
0.0
 10
57.3053231061
 20
212.59429395
 30
0.0
 10
57.1629471343
 20
212.6059707784
 30
0.0
 10
57.0554901766
 20
212.6086153856
 30
0.0
 10
56.9837162878
 20
212.6086154002
 30
0.0
  0
LINE
  5
54E
100
AcDbEntity
  8
7_ALL_FEATURES
100
AcDbLine
 62
9
  6
CONTINUOUS
 10
40.0288366919
 20
212.4211148918
 11
40.0725811446
 21
212.6086154002
  0
LINE
  5
54F
100
AcDbEntity
  8
7_ALL_FEATURES
100
AcDbLine
 62
9
  6
CONTINUOUS
 10
90.6800275161
 20
213.1086193142
 11
90.7062194601
 21
212.6086154002
  0
SPLINE
  5
550
100
AcDbEntity
  8
7_ALL_FEATURES
100
AcDbSpline
 62
9
  6
CONTINUOUS
 70
0
 71
3
 72
17
 73
13
 74
0
 42
0.0000001
 43
0.0000001
 44
0.0000000001
 40
0.0
 40
0.0
 40
0.0
 40
0.0
 40
0.1729256124
 40
0.3394585515
 40
0.4945053523
 40
0.6336406256
 40
0.7535366693
 40
0.852613718
 40
0.8947431412
 40
0.9325775858
 40
0.9672015094
 40
1.0
 40
1.0
 40
1.0
 40
1.0
 10
49.1200546175
 20
212.4211154002
 30
0.0
 10
49.08837958
 20
212.4186993993
 30
0.0
 10
49.0260012226
 20
212.4162779224
 30
0.0
 10
48.9351257126
 20
212.4193762235
 30
0.0
 10
48.8509580646
 20
212.4292277811
 30
0.0
 10
48.7764644406
 20
212.4454195341
 30
0.0
 10
48.7142529801
 20
212.4673452028
 30
0.0
 10
48.6720241453
 20
212.4910466685
 30
0.0
 10
48.6472568447
 20
212.5128752248
 30
0.0
 10
48.633975718
 20
212.5293733612
 30
0.0
 10
48.625210339
 20
212.5467902717
 30
0.0
 10
48.622482399
 20
212.5590352583
 30
0.0
 10
48.6219572684
 20
212.5650375288
 30
0.0
  0
SPLINE
  5
551
100
AcDbEntity
  8
7_ALL_FEATURES
100
AcDbSpline
 62
9
  6
CONTINUOUS
 70
0
 71
3
 72
17
 73
13
 74
0
 42
0.0000001
 43
0.0000001
 44
0.0000000001
 40
0.0
 40
0.0
 40
0.0
 40
0.0
 40
0.1729256123
 40
0.3394585514
 40
0.4945053521
 40
0.6336406254
 40
0.7535366692
 40
0.8526137179
 40
0.8947431412
 40
0.9325775857
 40
0.9672015095
 40
1.0
 40
1.0
 40
1.0
 40
1.0
 10
40.0288368082
 20
212.4211154002
 30
0.0
 10
40.0605118457
 20
212.4186993995
 30
0.0
 10
40.122890203
 20
212.4162779224
 30
0.0
 10
40.2137657129
 20
212.4193762236
 30
0.0
 10
40.2979333609
 20
212.4292277811
 30
0.0
 10
40.3724269849
 20
212.4454195342
 30
0.0
 10
40.4346384455
 20
212.4673452028
 30
0.0
 10
40.4768672803
 20
212.4910466685
 30
0.0
 10
40.5016345809
 20
212.5128752248
 30
0.0
 10
40.5149157076
 20
212.5293733612
 30
0.0
 10
40.5236810867
 20
212.5467902717
 30
0.0
 10
40.5264090266
 20
212.5590352584
 30
0.0
 10
40.5269341572
 20
212.5650375288
 30
0.0
  0
SPLINE
  5
552
100
AcDbEntity
  8
7_ALL_FEATURES
100
AcDbSpline
 62
9
  6
CONTINUOUS
 70
0
 71
3
 72
17
 73
13
 74
0
 42
0.0000001
 43
0.0000001
 44
0.0000000001
 40
0.0
 40
0.0
 40
0.0
 40
0.0
 40
0.1729256124
 40
0.3394585515
 40
0.4945053523
 40
0.6336406256
 40
0.7535366693
 40
0.852613718
 40
0.8947431412
 40
0.9325775858
 40
0.9672015094
 40
1.0
 40
1.0
 40
1.0
 40
1.0
 10
89.1200546175
 20
212.4211154002
 30
0.0
 10
89.08837958
 20
212.4186993993
 30
0.0
 10
89.0260012226
 20
212.4162779224
 30
0.0
 10
88.9351257126
 20
212.4193762235
 30
0.0
 10
88.8509580646
 20
212.4292277811
 30
0.0
 10
88.7764644406
 20
212.4454195341
 30
0.0
 10
88.7142529801
 20
212.4673452028
 30
0.0
 10
88.6720241453
 20
212.4910466685
 30
0.0
 10
88.6472568447
 20
212.5128752248
 30
0.0
 10
88.633975718
 20
212.5293733612
 30
0.0
 10
88.625210339
 20
212.5467902717
 30
0.0
 10
88.622482399
 20
212.5590352583
 30
0.0
 10
88.6219572684
 20
212.5650375288
 30
0.0
  0
SPLINE
  5
553
100
AcDbEntity
  8
7_ALL_FEATURES
100
AcDbSpline
 62
9
  6
CONTINUOUS
 70
0
 71
3
 72
17
 73
13
 74
0
 42
0.0000001
 43
0.0000001
 44
0.0000000001
 40
0.0
 40
0.0
 40
0.0
 40
0.0
 40
0.1729256123
 40
0.3394585514
 40
0.4945053521
 40
0.6336406254
 40
0.7535366692
 40
0.8526137179
 40
0.8947431412
 40
0.9325775857
 40
0.9672015095
 40
1.0
 40
1.0
 40
1.0
 40
1.0
 10
80.0288368082
 20
212.4211154002
 30
0.0
 10
80.0605118457
 20
212.4186993995
 30
0.0
 10
80.122890203
 20
212.4162779224
 30
0.0
 10
80.2137657129
 20
212.4193762236
 30
0.0
 10
80.2979333609
 20
212.4292277811
 30
0.0
 10
80.3724269849
 20
212.4454195342
 30
0.0
 10
80.4346384455
 20
212.4673452028
 30
0.0
 10
80.4768672803
 20
212.4910466685
 30
0.0
 10
80.5016345809
 20
212.5128752248
 30
0.0
 10
80.5149157076
 20
212.5293733612
 30
0.0
 10
80.5236810867
 20
212.5467902717
 30
0.0
 10
80.5264090266
 20
212.5590352584
 30
0.0
 10
80.5269341572
 20
212.5650375288
 30
0.0
  0
LINE
  5
554
100
AcDbEntity
  8
7_ALL_FEATURES
100
AcDbLine
 62
7
  6
CONTINUOUS
 10
64.2556218309
 20
247.8569184806
 11
64.2554507237
 21
247.8569166581
  0
LINE
  5
555
100
AcDbEntity
  8
7_ALL_FEATURES
100
AcDbLine
 62
7
  6
CONTINUOUS
 10
38.9548224849
 20
233.9555192974
 11
38.9306041373
 21
233.9197542248
  0
LINE
  5
556
100
AcDbEntity
  8
7_ALL_FEATURES
100
AcDbLine
 62
7
  6
CONTINUOUS
 10
38.1670270499
 20
232.7376008731
 11
38.1656114807
 21
232.7353046
  0
LINE
  5
557
100
AcDbEntity
  8
7_ALL_FEATURES
100
AcDbLine
 62
7
  6
CONTINUOUS
 10
38.1656114807
 20
232.7353046
 11
38.1643637619
 21
232.7332802639
  0
LINE
  5
558
100
AcDbEntity
  8
7_ALL_FEATURES
100
AcDbLine
 62
7
  6
CONTINUOUS
 10
38.1643637617
 20
232.7332802635
 11
38.1749781615
 21
232.7504911446
  0
LINE
  5
559
100
AcDbEntity
  8
7_ALL_FEATURES
100
AcDbLine
 62
7
  6
CONTINUOUS
 10
38.3188093401
 20
232.9814526681
 11
38.3203260605
 21
232.9838660907
  0
LINE
  5
55A
100
AcDbEntity
  8
7_ALL_FEATURES
100
AcDbLine
 62
7
  6
CONTINUOUS
 10
38.7828883178
 20
233.6994218483
 11
38.7872366431
 21
233.7059622303
  0
LINE
  5
55B
100
AcDbEntity
  8
7_ALL_FEATURES
100
AcDbLine
 62
7
  6
CONTINUOUS
 10
90.3616535874
 20
233.7059640275
 11
90.3660041246
 21
233.6994203188
  0
LINE
  5
55C
100
AcDbEntity
  8
7_ALL_FEATURES
100
AcDbLine
 62
7
  6
CONTINUOUS
 10
90.8285684743
 20
232.9838611439
 11
90.8300791294
 21
232.9814573725
  0
LINE
  5
55D
100
AcDbEntity
  8
7_ALL_FEATURES
100
AcDbLine
 62
7
  6
CONTINUOUS
 10
90.973906893
 20
232.7505014684
 11
90.9845276637
 21
232.7332802639
  0
LINE
  5
55E
100
AcDbEntity
  8
7_ALL_FEATURES
100
AcDbLine
 62
7
  6
CONTINUOUS
 10
90.9845276645
 20
232.7332802627
 11
90.9818642821
 21
232.737601025
  0
LINE
  5
55F
100
AcDbEntity
  8
7_ALL_FEATURES
100
AcDbLine
 62
7
  6
CONTINUOUS
 10
90.4116517237
 20
233.6305588321
 11
90.3781583173
 21
233.6811212826
  0
LINE
  5
560
100
AcDbEntity
  8
7_ALL_FEATURES
100
AcDbLine
 62
7
  6
CONTINUOUS
 10
90.2182873705
 20
233.9197541034
 11
90.1940144858
 21
233.9555996028
  0
LINE
  5
561
100
AcDbEntity
  8
7_ALL_FEATURES
100
AcDbLine
 62
7
  6
CONTINUOUS
 10
38.1643683436
 20
232.733287698
 11
38.1651663096
 21
232.7345823781
  0
LINE
  5
562
100
AcDbEntity
  8
7_ALL_FEATURES
100
AcDbLine
 62
7
  6
CONTINUOUS
 10
38.1651663096
 20
232.7345823781
 11
38.1656161289
 21
232.7353121408
  0
LINE
  5
563
100
AcDbEntity
  8
7_ALL_FEATURES
100
AcDbLine
 62
7
  6
CONTINUOUS
 10
39.1575215377
 20
234.2510109138
 11
39.1580230477
 21
234.2517336338
  0
LINE
  5
564
100
AcDbEntity
  8
7_ALL_FEATURES
100
AcDbLine
 62
7
  6
CONTINUOUS
 10
90.9837409272
 20
232.7345567261
 11
90.9845230832
 21
232.7332876961
  0
SPLINE
  5
565
100
AcDbEntity
  8
7_ALL_FEATURES
100
AcDbSpline
 62
7
  6
CONTINUOUS
 70
0
 71
3
 72
71
 73
67
 74
0
 42
0.0000001
 43
0.0000001
 44
0.0000000001
 40
0.0
 40
0.0
 40
0.0
 40
0.0
 40
0.0016302337
 40
0.0036157706
 40
0.0075868444
 40
0.0115579182
 40
0.0155289921
 40
0.0195000659
 40
0.0234711397
 40
0.0274422136
 40
0.0314132874
 40
0.0393554351
 40
0.0472975828
 40
0.0552397304
 40
0.0631818781
 40
0.0711240258
 40
0.0790661734
 40
0.0870083211
 40
0.1028926165
 40
0.1187769118
 40
0.1346612071
 40
0.1505455025
 40
0.1664297978
 40
0.1823140932
 40
0.1981983885
 40
0.2140826838
 40
0.2458512745
 40
0.2776198652
 40
0.3093884559
 40
0.3411570466
 40
0.3729256373
 40
0.4046942279
 40
0.4364628186
 40
0.5
 40
0.5635371814
 40
0.5953057721
 40
0.6270743627
 40
0.6588429534
 40
0.6906115441
 40
0.7223801348
 40
0.7541487255
 40
0.7859173162
 40
0.8018016115
 40
0.8176859068
 40
0.8335702022
 40
0.8494544975
 40
0.8653387929
 40
0.8812230882
 40
0.8971073835
 40
0.9129916789
 40
0.9209338266
 40
0.9288759742
 40
0.9368181219
 40
0.9447602696
 40
0.9527024172
 40
0.9606445649
 40
0.9685867126
 40
0.9725577864
 40
0.9765288603
 40
0.9804999341
 40
0.9844710079
 40
0.9884420818
 40
0.9924131556
 40
0.9963842294
 40
0.9983697663
 40
1.0
 40
1.0
 40
1.0
 40
1.0
 10
95.3143205069
 20
221.8992131452
 30
0.0
 10
95.2809117214
 20
222.0557010167
 30
0.0
 10
95.2068128317
 20
222.3911015786
 30
0.0
 10
95.0513337337
 20
223.0496506377
 30
0.0
 10
94.8478832128
 20
223.8316253318
 30
0.0
 10
94.6037425878
 20
224.6778853993
 30
0.0
 10
94.3596019628
 20
225.4529281239
 30
0.0
 10
94.1154613378
 20
226.1709150608
 30
0.0
 10
93.8713207128
 20
226.8417462857
 30
0.0
 10
93.6271800878
 20
227.4727379277
 30
0.0
 10
93.3016592545
 20
228.2682920371
 30
0.0
 10
92.8947582128
 20
229.1881524024
 30
0.0
 10
92.4064769628
 20
230.1979672501
 30
0.0
 10
91.9181957128
 20
231.1306608029
 30
0.0
 10
91.4299144628
 20
231.9985388783
 30
0.0
 10
90.9416332128
 20
232.8107787752
 30
0.0
 10
90.4533519628
 20
233.5744868787
 30
0.0
 10
89.8023102962
 20
234.5354862389
 30
0.0
 10
88.9885082128
 20
235.6410239072
 30
0.0
 10
88.0119457128
 20
236.8419370662
 30
0.0
 10
87.0353832128
 20
237.9362159868
 30
0.0
 10
86.0588207128
 20
238.9381451514
 30
0.0
 10
85.0822582128
 20
239.8586262711
 30
0.0
 10
84.1056957128
 20
240.7062199981
 30
0.0
 10
83.1291332128
 20
241.4877908644
 30
0.0
 10
81.8270498795
 20
242.4492467046
 30
0.0
 10
80.1994457128
 20
243.5117276498
 30
0.0
 10
78.2463207128
 20
244.5922185798
 30
0.0
 10
76.2931957128
 20
245.4983244152
 30
0.0
 10
74.3400707128
 20
246.2449256304
 30
0.0
 10
72.3869457128
 20
246.8430058229
 30
0.0
 10
70.4338207128
 20
247.3006821785
 30
0.0
 10
67.8296540462
 20
247.7313375374
 30
0.0
 10
64.5744457128
 20
247.9434673087
 30
0.0
 10
61.3192373795
 20
247.7313375374
 30
0.0
 10
58.7150707128
 20
247.3006821785
 30
0.0
 10
56.7619457128
 20
246.8430058229
 30
0.0
 10
54.8088207128
 20
246.2449256304
 30
0.0
 10
52.8556957128
 20
245.4983244152
 30
0.0
 10
50.9025707128
 20
244.5922185798
 30
0.0
 10
48.9494457128
 20
243.5117276498
 30
0.0
 10
47.3218415462
 20
242.4492467046
 30
0.0
 10
46.0197582128
 20
241.4877908644
 30
0.0
 10
45.0431957128
 20
240.7062199981
 30
0.0
 10
44.0666332128
 20
239.8586262711
 30
0.0
 10
43.0900707128
 20
238.9381451514
 30
0.0
 10
42.1135082128
 20
237.9362159868
 30
0.0
 10
41.1369457128
 20
236.8419370662
 30
0.0
 10
40.1603832128
 20
235.6410239072
 30
0.0
 10
39.3465811295
 20
234.5354862389
 30
0.0
 10
38.6955394628
 20
233.5744868787
 30
0.0
 10
38.2072582128
 20
232.8107787752
 30
0.0
 10
37.7189769628
 20
231.9985388783
 30
0.0
 10
37.2306957128
 20
231.1306608029
 30
0.0
 10
36.7424144628
 20
230.1979672501
 30
0.0
 10
36.2541332128
 20
229.1881524024
 30
0.0
 10
35.8472321712
 20
228.2682920371
 30
0.0
 10
35.5217113378
 20
227.4727379277
 30
0.0
 10
35.2775707128
 20
226.8417462857
 30
0.0
 10
35.0334300878
 20
226.1709150608
 30
0.0
 10
34.7892894628
 20
225.4529281239
 30
0.0
 10
34.5451488378
 20
224.6778853993
 30
0.0
 10
34.3010082128
 20
223.8316253318
 30
0.0
 10
34.097557692
 20
223.0496506377
 30
0.0
 10
33.942078594
 20
222.3911015786
 30
0.0
 10
33.8679797043
 20
222.0557010167
 30
0.0
 10
33.8345709187
 20
221.8992131452
 30
0.0
  0
SPLINE
  5
566
100
AcDbEntity
  8
7_ALL_FEATURES
100
AcDbSpline
 62
9
  6
CONTINUOUS
 70
0
 71
3
 72
39
 73
35
 74
0
 42
0.0000001
 43
0.0000001
 44
0.0000000001
 40
0.0
 40
0.0
 40
0.0
 40
0.0
 40
0.031246116
 40
0.0624925656
 40
0.0937394438
 40
0.1249868182
 40
0.156234749
 40
0.1874832835
 40
0.2187324542
 40
0.2499822768
 40
0.2812327488
 40
0.3124838483
 40
0.3437355332
 40
0.3749877419
 40
0.4062403945
 40
0.4374933954
 40
0.4687466364
 40
0.5
 40
0.5312533636
 40
0.5625066046
 40
0.5937596055
 40
0.6250122581
 40
0.6562644668
 40
0.6875161517
 40
0.7187672511
 40
0.7500177232
 40
0.7812675458
 40
0.8125167165
 40
0.843765251
 40
0.8750131817
 40
0.9062605562
 40
0.9375074344
 40
0.968753884
 40
1.0
 40
1.0
 40
1.0
 40
1.0
 10
94.3363611111
 20
221.7165905638
 30
0.0
 10
94.1530437858
 20
222.5752316092
 30
0.0
 10
93.7194170495
 20
224.2790140923
 30
0.0
 10
92.8713340852
 20
226.775481639
 30
0.0
 10
91.8289831824
 20
229.1975512563
 30
0.0
 10
90.5970128953
 20
231.5289620865
 30
0.0
 10
89.181152375
 20
233.7536508104
 30
0.0
 10
87.5884143288
 20
235.8554943056
 30
0.0
 10
85.8272000524
 20
237.8185053003
 30
0.0
 10
83.9074267846
 20
239.6269607577
 30
0.0
 10
81.8406308493
 20
241.2656062925
 30
0.0
 10
79.6400421285
 20
242.7198980963
 30
0.0
 10
77.3206125127
 20
243.9762874193
 30
0.0
 10
74.8989842662
 20
245.0225341659
 30
0.0
 10
72.3933859699
 20
245.8480338632
 30
0.0
 10
69.8234488779
 20
246.4441362718
 30
0.0
 10
67.2099435966
 20
246.8044307141
 30
0.0
 10
64.574445714
 20
246.9249728184
 30
0.0
 10
61.9389478313
 20
246.8044307141
 30
0.0
 10
59.32544255
 20
246.4441362717
 30
0.0
 10
56.755505458
 20
245.8480338631
 30
0.0
 10
54.2499071617
 20
245.0225341658
 30
0.0
 10
51.8282789153
 20
243.9762874192
 30
0.0
 10
49.5088492994
 20
242.7198980963
 30
0.0
 10
47.3082605785
 20
241.2656062926
 30
0.0
 10
45.2414646431
 20
239.6269607578
 30
0.0
 10
43.3216913752
 20
237.8185053006
 30
0.0
 10
41.5604770987
 20
235.8554943061
 30
0.0
 10
39.9677390521
 20
233.7536508109
 30
0.0
 10
38.5518785321
 20
231.5289620869
 30
0.0
 10
37.3199082426
 20
229.1975512573
 30
0.0
 10
36.2775573476
 20
226.775481638
 30
0.0
 10
35.4294743521
 20
224.2790140979
 30
0.0
 10
34.9958476877
 20
222.5752315991
 30
0.0
 10
34.8125303146
 20
221.7165905638
 30
0.0
  0
SPLINE
  5
567
100
AcDbEntity
  8
7_ALL_FEATURES
100
AcDbSpline
 62
9
  6
CONTINUOUS
 70
0
 71
3
 72
28
 73
24
 74
0
 42
0.0000001
 43
0.0000001
 44
0.0000000001
 40
0.0
 40
0.0
 40
0.0
 40
0.0
 40
0.0002370063
 40
0.000767228
 40
0.001634077
 40
0.0028572124
 40
0.0064371009
 40
0.0116360535
 40
0.0185881527
 40
0.0274355797
 40
0.0383278205
 40
0.0514192024
 40
0.0668648069
 40
0.0848143656
 40
0.1287432639
 40
0.1839213005
 40
0.2503047897
 40
0.3269014463
 40
0.4119339887
 40
0.5032903898
 40
0.5990017035
 40
0.7976427455
 40
1.0
 40
1.0
 40
1.0
 40
1.0
 10
95.7848240959
 20
213.6217039048
 30
0.0
 10
95.7848220407
 20
213.6217828722
 30
0.0
 10
95.7845473928
 20
213.6219419052
 30
0.0
 10
95.7840638635
 20
213.6220736299
 30
0.0
 10
95.7831843999
 20
213.6222529735
 30
0.0
 10
95.7813267856
 20
213.622513846
 30
0.0
 10
95.7779972288
 20
213.6228410911
 30
0.0
 10
95.7727732016
 20
213.6232194073
 30
0.0
 10
95.7657832583
 20
213.6236182507
 30
0.0
 10
95.7568972869
 20
213.6240314758
 30
0.0
 10
95.745962497
 20
213.6244550648
 30
0.0
 10
95.7328277567
 20
213.6248827835
 30
0.0
 10
95.7173395127
 20
213.6253069748
 30
0.0
 10
95.6915740713
 20
213.6258947839
 30
0.0
 10
95.652563849
 20
213.6265277674
 30
0.0
 10
95.5974077305
 20
213.6270206451
 30
0.0
 10
95.5313614571
 20
213.6271808242
 30
0.0
 10
95.4553649538
 20
213.6269679218
 30
0.0
 10
95.3710465337
 20
213.6264321
 30
0.0
 10
95.2803586697
 20
213.6256835966
 30
0.0
 10
95.151807158
 20
213.6245385331
 30
0.0
 10
94.9862601439
 20
213.6231082851
 30
0.0
 10
94.8526109416
 20
213.6221451142
 30
0.0
 10
94.7851667717
 20
213.6217038743
 30
0.0
  0
SPLINE
  5
568
100
AcDbEntity
  8
7_ALL_FEATURES
100
AcDbSpline
 62
9
  6
CONTINUOUS
 70
0
 71
3
 72
23
 73
19
 74
0
 42
0.0000001
 43
0.0000001
 44
0.0000000001
 40
0.0
 40
0.0
 40
0.0
 40
0.0
 40
0.233851638
 40
0.4365264601
 40
0.6080295624
 40
0.6820943584
 40
0.7483699063
 40
0.8068584607
 40
0.8575633145
 40
0.9004895521
 40
0.9356456333
 40
0.963047215
 40
0.9827284699
 40
0.9897022815
 40
0.9948011811
 40
0.9966726893
 40
0.9981212173
 40
1.0
 40
1.0
 40
1.0
 40
1.0
 10
94.6401446023
 20
219.1598770893
 30
0.0
 10
94.7181894732
 20
219.1619193657
 30
0.0
 10
94.86388032
 20
219.1655135717
 30
0.0
 10
95.0668295773
 20
219.1696714051
 30
0.0
 10
95.2164606035
 20
219.1719013291
 30
0.0
 10
95.3205663928
 20
219.1727879109
 30
0.0
 10
95.3869456056
 20
219.1730141838
 30
0.0
 10
95.4455262343
 20
219.1728380384
 30
0.0
 10
95.4963092942
 20
219.172263803
 30
0.0
 10
95.5392945185
 20
219.1712912197
 30
0.0
 10
95.5744886309
 20
219.1699450596
 30
0.0
 10
95.6018887649
 20
219.1682041613
 30
0.0
 10
95.6198590583
 20
219.1663860571
 30
0.0
 10
95.6303039285
 20
219.1645244161
 30
0.0
 10
95.6348176312
 20
219.1633764709
 30
0.0
 10
95.637440046
 20
219.1622990412
 30
0.0
 10
95.6389236529
 20
219.1614761657
 30
0.0
 10
95.6397855082
 20
219.1605041077
 30
0.0
 10
95.6398019273
 20
219.1598770893
 30
0.0
  0
SPLINE
  5
569
100
AcDbEntity
  8
7_ALL_FEATURES
100
AcDbSpline
 62
9
  6
CONTINUOUS
 70
0
 71
3
 72
23
 73
19
 74
0
 42
0.0000001
 43
0.0000001
 44
0.0000000001
 40
0.0
 40
0.0
 40
0.0
 40
0.0
 40
0.2022395611
 40
0.4006212529
 40
0.5872676285
 40
0.6720512951
 40
0.748416326
 40
0.8146150019
 40
0.8696731518
 40
0.9135542485
 40
0.9469687435
 40
0.9710354834
 40
0.9799533935
 40
0.9870030847
 40
0.9923368451
 40
0.9961187162
 40
0.9985449359
 40
1.0
 40
1.0
 40
1.0
 40
1.0
 10
94.3363611111
 20
221.7165905638
 30
0.0
 10
94.4020726473
 20
221.7306107125
 30
0.0
 10
94.5322777631
 20
221.7582177031
 30
0.0
 10
94.723287174
 20
221.7980076789
 30
0.0
 10
94.8762558587
 20
221.8290572512
 30
0.0
 10
94.9896400154
 20
221.8513207709
 30
0.0
 10
95.0638356817
 20
221.8654693762
 30
0.0
 10
95.1284165825
 20
221.877308973
 30
0.0
 10
95.1824743758
 20
221.8866861766
 30
0.0
 10
95.2258963283
 20
221.8936352565
 30
0.0
 10
95.2592458091
 20
221.8983236161
 30
0.0
 10
95.2811755231
 20
221.9007802423
 30
0.0
 10
95.2944460057
 20
221.9017120769
 30
0.0
 10
95.3015215534
 20
221.9019319413
 30
0.0
 10
95.3068952127
 20
221.9018211517
 30
0.0
 10
95.3107116532
 20
221.901331635
 30
0.0
 10
95.3131747852
 20
221.900684615
 30
0.0
 10
95.3142187206
 20
221.8996857284
 30
0.0
 10
95.3143196583
 20
221.8992129641
 30
0.0
  0
SPLINE
  5
56A
100
AcDbEntity
  8
7_ALL_FEATURES
100
AcDbSpline
 62
9
  6
CONTINUOUS
 70
0
 71
3
 72
23
 73
19
 74
0
 42
0.0000001
 43
0.0000001
 44
0.0000000001
 40
0.0
 40
0.0
 40
0.0
 40
0.0
 40
0.2022395286
 40
0.400621196
 40
0.5872675632
 40
0.6720512333
 40
0.7484162726
 40
0.8146149598
 40
0.8696731216
 40
0.9135542288
 40
0.9469687321
 40
0.9710354777
 40
0.9799533899
 40
0.9870030826
 40
0.9923368441
 40
0.9961187159
 40
0.998544936
 40
1.0
 40
1.0
 40
1.0
 40
1.0
 10
34.8125303146
 20
221.7165905638
 30
0.0
 10
34.7468187616
 20
221.7306107164
 30
0.0
 10
34.6166136102
 20
221.7582177151
 30
0.0
 10
34.4256041414
 20
221.7980077042
 30
0.0
 10
34.2726354027
 20
221.8290572889
 30
0.0
 10
34.159251198
 20
221.8513208194
 30
0.0
 10
34.0850554934
 20
221.8654694332
 30
0.0
 10
34.0204745556
 20
221.877309038
 30
0.0
 10
33.966416729
 20
221.8866862485
 30
0.0
 10
33.9229947486
 20
221.8936353341
 30
0.0
 10
33.889645246
 20
221.8983236979
 30
0.0
 10
33.8677155177
 20
221.9007803266
 30
0.0
 10
33.8544450266
 20
221.9017121627
 30
0.0
 10
33.8473694743
 20
221.9019320277
 30
0.0
 10
33.8419958117
 20
221.9018212385
 30
0.0
 10
33.8381793689
 20
221.9013317219
 30
0.0
 10
33.8357162354
 20
221.900684702
 30
0.0
 10
33.8346722992
 20
221.8996858152
 30
0.0
 10
33.8345713614
 20
221.8992130507
 30
0.0
  0
SPLINE
  5
56B
100
AcDbEntity
  8
7_ALL_FEATURES
100
AcDbSpline
 62
9
  6
CONTINUOUS
 70
0
 71
3
 72
28
 73
24
 74
0
 42
0.0000001
 43
0.0000001
 44
0.0000000001
 40
0.0
 40
0.0
 40
0.0
 40
0.0
 40
0.2023572541
 40
0.4009982943
 40
0.4967096067
 40
0.5880660044
 40
0.6730985447
 40
0.7496952023
 40
0.8160786921
 40
0.8712567302
 40
0.9151856337
 40
0.9331351932
 40
0.9485807981
 40
0.96167218
 40
0.9725644208
 40
0.9814118477
 40
0.9883639468
 40
0.9935628993
 40
0.9971427877
 40
0.9983659231
 40
0.999232772
 40
0.9997629937
 40
1.0
 40
1.0
 40
1.0
 40
1.0
 10
34.3637246539
 20
213.6217038743
 30
0.0
 10
34.2962804842
 20
213.6221451141
 30
0.0
 10
34.1626312827
 20
213.6231082852
 30
0.0
 10
33.9970842697
 20
213.6245385331
 30
0.0
 10
33.8685327602
 20
213.6256835965
 30
0.0
 10
33.7778448985
 20
213.6264321
 30
0.0
 10
33.6935264799
 20
213.6269679215
 30
0.0
 10
33.6175299767
 20
213.6271808242
 30
0.0
 10
33.5514837023
 20
213.6270206453
 30
0.0
 10
33.4963275813
 20
213.6265277676
 30
0.0
 10
33.4573173564
 20
213.625894784
 30
0.0
 10
33.4315519129
 20
213.6253069748
 30
0.0
 10
33.4160636686
 20
213.6248827835
 30
0.0
 10
33.4029289281
 20
213.6244550648
 30
0.0
 10
33.3919941383
 20
213.6240314758
 30
0.0
 10
33.383108167
 20
213.6236182506
 30
0.0
 10
33.3761182237
 20
213.6232194073
 30
0.0
 10
33.3708941966
 20
213.6228410911
 30
0.0
 10
33.3675646399
 20
213.622513846
 30
0.0
 10
33.3657070256
 20
213.6222529735
 30
0.0
 10
33.3648275622
 20
213.6220736299
 30
0.0
 10
33.3643440328
 20
213.6219419052
 30
0.0
 10
33.364069385
 20
213.6217828722
 30
0.0
 10
33.3640673297
 20
213.6217039048
 30
0.0
  0
SPLINE
  5
56C
100
AcDbEntity
  8
7_ALL_FEATURES
100
AcDbSpline
 62
9
  6
CONTINUOUS
 70
0
 71
3
 72
23
 73
19
 74
0
 42
0.0000001
 43
0.0000001
 44
0.0000000001
 40
0.0
 40
0.0
 40
0.0
 40
0.0
 40
0.233851638
 40
0.4365264601
 40
0.6080295624
 40
0.6820943584
 40
0.7483699063
 40
0.8068584607
 40
0.8575633145
 40
0.9004895521
 40
0.9356456333
 40
0.963047215
 40
0.9827284699
 40
0.9897022815
 40
0.9948011811
 40
0.9966726893
 40
0.9981212173
 40
1.0
 40
1.0
 40
1.0
 40
1.0
 10
34.5087468234
 20
219.1598770893
 30
0.0
 10
34.4307019525
 20
219.1619193657
 30
0.0
 10
34.2850111057
 20
219.1655135717
 30
0.0
 10
34.0820618484
 20
219.1696714051
 30
0.0
 10
33.9324308221
 20
219.1719013291
 30
0.0
 10
33.8283250329
 20
219.1727879109
 30
0.0
 10
33.76194582
 20
219.1730141838
 30
0.0
 10
33.7033651914
 20
219.1728380384
 30
0.0
 10
33.6525821315
 20
219.172263803
 30
0.0
 10
33.6095969072
 20
219.1712912197
 30
0.0
 10
33.5744027948
 20
219.1699450597
 30
0.0
 10
33.5470026607
 20
219.1682041613
 30
0.0
 10
33.5290323674
 20
219.1663860571
 30
0.0
 10
33.5185874971
 20
219.1645244161
 30
0.0
 10
33.5140737945
 20
219.1633764709
 30
0.0
 10
33.5114513797
 20
219.1622990412
 30
0.0
 10
33.5099677728
 20
219.1614761657
 30
0.0
 10
33.5091059174
 20
219.1605041077
 30
0.0
 10
33.5090894984
 20
219.1598770893
 30
0.0
  0
LINE
  5
56D
100
AcDbEntity
  8
7_ALL_FEATURES
100
AcDbLine
 62
9
  6
CONTINUOUS
 10
119.3579038639
 20
212.6086154002
 11
119.3660007304
 21
213.1086174127
  0
LINE
  5
56E
100
AcDbEntity
  8
7_ALL_FEATURES
100
AcDbLine
 62
9
  6
CONTINUOUS
 10
186.4233513618
 20
212.6086154002
 11
186.4152544953
 21
213.1086174134
  0
LINE
  5
56F
100
AcDbEntity
  8
7_ALL_FEATURES
100
AcDbLine
 62
9
  6
CONTINUOUS
 10
119.444057708
 20
212.6086154002
 11
119.448382482
 21
213.1086187186
  0
LINE
  5
570
100
AcDbEntity
  8
7_ALL_FEATURES
100
AcDbLine
 62
9
  6
CONTINUOUS
 10
186.3371975177
 20
212.6086154002
 11
186.3328727437
 21
213.1086187197
  0
LINE
  5
571
100
AcDbEntity
  8
7_ALL_FEATURES
100
AcDbLine
 62
7
  6
CONTINUOUS
 10
147.4145841307
 20
246.9845946582
 11
147.4106348457
 21
246.8928409279
  0
SPLINE
  5
572
100
AcDbEntity
  8
7_ALL_FEATURES
100
AcDbSpline
 62
7
  6
CONTINUOUS
 70
0
 71
3
 72
10
 73
6
 74
0
 42
0.0000001
 43
0.0000001
 44
0.0000000001
 40
0.0
 40
0.0
 40
0.0
 40
0.0
 40
0.3195897785
 40
0.6284911746
 40
1.0
 40
1.0
 40
1.0
 40
1.0
 10
139.5706204467
 20
246.892838975
 30
0.0
 10
139.6242637704
 20
245.5031337325
 30
0.0
 10
139.7416501555
 20
242.7706333352
 30
0.0
 10
139.9738692149
 20
238.4251185323
 30
0.0
 10
140.171131194
 20
235.4706472283
 30
0.0
 10
140.2920983293
 20
233.8585059741
 30
0.0
  0
SPLINE
  5
573
100
AcDbEntity
  8
7_ALL_FEATURES
100
AcDbSpline
 62
7
  6
CONTINUOUS
 70
0
 71
3
 72
9
 73
5
 74
0
 42
0.0000001
 43
0.0000001
 44
0.0000000001
 40
0.0
 40
0.0
 40
0.0
 40
0.0
 40
0.4703756156
 40
1.0
 40
1.0
 40
1.0
 40
1.0
 10
140.3307337954
 20
233.2081360745
 30
0.0
 10
140.3267322514
 20
233.3102142198
 30
0.0
 10
140.3154943373
 20
233.5271214121
 30
0.0
 10
140.3007048905
 20
233.7438056014
 30
0.0
 10
140.2920982341
 20
233.8585073955
 30
0.0
  0
SPLINE
  5
574
100
AcDbEntity
  8
7_ALL_FEATURES
100
AcDbSpline
 62
7
  6
CONTINUOUS
 70
0
 71
3
 72
9
 73
5
 74
0
 42
0.0000001
 43
0.0000001
 44
0.0000000001
 40
0.0
 40
0.0
 40
0.0
 40
0.0
 40
0.529584328
 40
1.0
 40
1.0
 40
1.0
 40
1.0
 10
146.6891568742
 20
233.8585057771
 30
0.0
 10
146.6805572409
 20
233.7438975804
 30
0.0
 10
146.6657776251
 20
233.5273739168
 30
0.0
 10
146.6545433755
 20
233.3106276162
 30
0.0
 10
146.6505402693
 20
233.2086165304
 30
0.0
  0
SPLINE
  5
575
100
AcDbEntity
  8
7_ALL_FEATURES
100
AcDbSpline
 62
7
  6
CONTINUOUS
 70
0
 71
3
 72
10
 73
6
 74
0
 42
0.0000001
 43
0.0000001
 44
0.0000000001
 40
0.0
 40
0.0
 40
0.0
 40
0.0
 40
0.3715090306
 40
0.6804105549
 40
1.0
 40
1.0
 40
1.0
 40
1.0
 10
146.6891568927
 20
233.8585059741
 30
0.0
 10
146.8101241122
 20
235.4706483601
 30
0.0
 10
147.0073869148
 20
238.4251215277
 30
0.0
 10
147.2396031789
 20
242.7706370913
 30
0.0
 10
147.3569961966
 20
245.5031367487
 30
0.0
 10
147.4106348457
 20
246.8928409279
 30
0.0
  0
SPLINE
  5
576
100
AcDbEntity
  8
7_ALL_FEATURES
100
AcDbSpline
 62
7
  6
CONTINUOUS
 70
0
 71
3
 72
17
 73
13
 74
0
 42
0.0000001
 43
0.0000001
 44
0.0000000001
 40
0.0
 40
0.0
 40
0.0
 40
0.0
 40
0.1250421709
 40
0.2500299611
 40
0.3749311669
 40
0.4374628929
 40
0.4999903364
 40
0.5625179808
 40
0.6250486648
 40
0.7499609978
 40
0.874954559
 40
1.0
 40
1.0
 40
1.0
 40
1.0
 10
147.4145841307
 20
246.9845946582
 30
0.0
 10
147.4213061609
 20
247.0459600855
 30
0.0
 10
147.4412808259
 20
247.1681304962
 30
0.0
 10
147.4967802692
 20
247.3455063175
 30
0.0
 10
147.5702730001
 20
247.4826066025
 30
0.0
 10
147.6469158145
 20
247.579678355
 30
0.0
 10
147.7130361702
 20
247.6448789293
 30
0.0
 10
147.7868318606
 20
247.7012356514
 30
0.0
 10
147.8935052375
 20
247.7638108409
 30
0.0
 10
148.0389402525
 20
247.8186897841
 30
0.0
 10
148.2216210665
 20
247.8524376943
 30
0.0
 10
148.3452246744
 20
247.8586153938
 30
0.0
 10
148.4069587873
 20
247.8586153938
 30
0.0
  0
SPLINE
  5
577
100
AcDbEntity
  8
7_ALL_FEATURES
100
AcDbSpline
 62
7
  6
CONTINUOUS
 70
0
 71
3
 72
17
 73
13
 74
0
 42
0.0000001
 43
0.0000001
 44
0.0000000001
 40
0.0
 40
0.0
 40
0.0
 40
0.0
 40
0.1250421709
 40
0.2500299611
 40
0.3749311668
 40
0.4374628928
 40
0.4999903363
 40
0.5625179806
 40
0.6250486647
 40
0.7499609978
 40
0.8749545589
 40
1.0
 40
1.0
 40
1.0
 40
1.0
 10
139.5666710584
 20
246.9845946459
 30
0.0
 10
139.5599490203
 20
247.0459600616
 30
0.0
 10
139.5399743391
 20
247.1681304479
 30
0.0
 10
139.4844748713
 20
247.3455062281
 30
0.0
 10
139.410982123
 20
247.4826064734
 30
0.0
 10
139.3343393007
 20
247.5796781922
 30
0.0
 10
139.2682189431
 20
247.6448787415
 30
0.0
 10
139.1944232553
 20
247.7012354403
 30
0.0
 10
139.0877498876
 20
247.7638106026
 30
0.0
 10
138.9423148927
 20
247.8186895212
 30
0.0
 10
138.7596341091
 20
247.8524374166
 30
0.0
 10
138.6360305227
 20
247.8586151131
 30
0.0
 10
138.5742964205
 20
247.8586151128
 30
0.0
  0
LINE
  5
578
100
AcDbEntity
  8
7_ALL_FEATURES
100
AcDbLine
 62
7
  6
CONTINUOUS
 10
139.5706204467
 20
246.892838975
 11
139.5666710584
 21
246.9845946459
  0
SPLINE
  5
579
100
AcDbEntity
  8
7_ALL_FEATURES
100
AcDbSpline
 62
9
  6
CONTINUOUS
 70
0
 71
3
 72
11
 73
7
 74
0
 42
0.0000001
 43
0.0000001
 44
0.0000000001
 40
0.0
 40
0.0
 40
0.0
 40
0.0
 40
0.2493557318
 40
0.4990828258
 40
0.749307845
 40
1.0
 40
1.0
 40
1.0
 40
1.0
 10
140.0266434879
 20
233.2124690731
 30
0.0
 10
139.9800007626
 20
233.218335867
 30
0.0
 10
139.8878038466
 20
233.2436819978
 30
0.0
 10
139.7661898948
 20
233.3191660802
 30
0.0
 10
139.6704943481
 20
233.4259329906
 30
0.0
 10
139.6291189006
 20
233.5124866406
 30
0.0
 10
139.6149345189
 20
233.5575701021
 30
0.0
  0
SPLINE
  5
57A
100
AcDbEntity
  8
7_ALL_FEATURES
100
AcDbSpline
 62
9
  6
CONTINUOUS
 70
0
 71
3
 72
11
 73
7
 74
0
 42
0.0000001
 43
0.0000001
 44
0.0000000001
 40
0.0
 40
0.0
 40
0.0
 40
0.0
 40
0.2493557346
 40
0.499082828
 40
0.7493078422
 40
1.0
 40
1.0
 40
1.0
 40
1.0
 10
146.9546135474
 20
233.2124692728
 30
0.0
 10
147.0012560942
 20
233.2183362179
 30
0.0
 10
147.0934526087
 20
233.2436825523
 30
0.0
 10
147.2150659746
 20
233.3191666368
 30
0.0
 10
147.3107610604
 20
233.4259332922
 30
0.0
 10
147.3521363427
 20
233.5124866505
 30
0.0
 10
147.3663206865
 20
233.5575699572
 30
0.0
  0
SPLINE
  5
57B
100
AcDbEntity
  8
7_ALL_FEATURES
100
AcDbSpline
 62
9
  6
CONTINUOUS
 70
0
 71
3
 72
20
 73
16
 74
0
 42
0.0000001
 43
0.0000001
 44
0.0000000001
 40
0.0
 40
0.0
 40
0.0
 40
0.0
 40
0.0043274824
 40
0.0097309298
 40
0.0172857864
 40
0.0388078586
 40
0.0687826049
 40
0.1070572874
 40
0.1534405298
 40
0.2077050566
 40
0.2695911811
 40
0.4150477924
 40
0.5872181122
 40
0.7832230161
 40
1.0
 40
1.0
 40
1.0
 40
1.0
 10
138.5742964297
 20
247.8586153997
 30
0.0
 10
138.5742865711
 20
247.8388327462
 30
0.0
 10
138.574498641
 20
247.7943490185
 30
0.0
 10
138.574654817
 20
247.7153289798
 30
0.0
 10
138.575096045
 20
247.5577059366
 30
0.0
 10
138.5757894088
 20
247.2877579946
 30
0.0
 10
138.5769056957
 20
246.8773779988
 30
0.0
 10
138.578349621
 20
246.3533481276
 30
0.0
 10
138.5801610529
 20
245.718280523
 30
0.0
 10
138.5823603643
 20
244.9752762315
 30
0.0
 10
138.5860585692
 20
243.7793703384
 30
0.0
 10
138.5918795646
 20
242.0444738344
 30
0.0
 10
138.6008740574
 20
239.6964740246
 30
0.0
 10
138.6129741472
 20
237.0224502625
 30
0.0
 10
138.6234601122
 20
235.1354873493
 30
0.0
 10
138.6297269281
 20
234.1445327217
 30
0.0
  0
SPLINE
  5
57C
100
AcDbEntity
  8
7_ALL_FEATURES
100
AcDbSpline
 62
9
  6
CONTINUOUS
 70
0
 71
3
 72
15
 73
11
 74
0
 42
0.0000001
 43
0.0000001
 44
0.0000000001
 40
0.0
 40
0.0
 40
0.0
 40
0.0
 40
0.1142533027
 40
0.2308643545
 40
0.3505040823
 40
0.4737187602
 40
0.6007709702
 40
0.73145055
 40
0.8649602903
 40
1.0
 40
1.0
 40
1.0
 40
1.0
 10
138.6684879745
 20
233.8124150289
 30
0.0
 10
138.6845761477
 20
233.7429122512
 30
0.0
 10
138.7272880035
 20
233.6045934786
 30
0.0
 10
138.8230373693
 20
233.4068547528
 30
0.0
 10
138.9522097092
 20
233.2220676488
 30
0.0
 10
139.1149741025
 20
233.0566120976
 30
0.0
 10
139.3095917638
 20
232.9177133504
 30
0.0
 10
139.531641675
 20
232.8127181343
 30
0.0
 10
139.7736136585
 20
232.7476960866
 30
0.0
 10
139.9416859212
 20
232.7332816977
 30
0.0
 10
140.0260055754
 20
232.7332801368
 30
0.0
  0
SPLINE
  5
57D
100
AcDbEntity
  8
7_ALL_FEATURES
100
AcDbSpline
 62
9
  6
CONTINUOUS
 70
0
 71
3
 72
15
 73
11
 74
0
 42
0.0000001
 43
0.0000001
 44
0.0000000001
 40
0.0
 40
0.0
 40
0.0
 40
0.0
 40
0.1350396947
 40
0.2685494644
 40
0.3992291155
 40
0.5262813322
 40
0.6494959856
 40
0.7691356745
 40
0.8857467078
 40
1.0
 40
1.0
 40
1.0
 40
1.0
 10
146.9552496229
 20
232.7332801363
 30
0.0
 10
147.0395692582
 20
232.7332810764
 30
0.0
 10
147.20764151
 20
232.7476964448
 30
0.0
 10
147.4496134968
 20
232.8127180887
 30
0.0
 10
147.6716636543
 20
232.9177130336
 30
0.0
 10
147.8662811162
 20
233.0566120439
 30
0.0
 10
148.0290454853
 20
233.2220676214
 30
0.0
 10
148.1582171744
 20
233.4068548636
 30
0.0
 10
148.2539684288
 20
233.6045929697
 30
0.0
 10
148.2966765887
 20
233.7429125864
 30
0.0
 10
148.3127672032
 20
233.8124147839
 30
0.0
  0
SPLINE
  5
57E
100
AcDbEntity
  8
7_ALL_FEATURES
100
AcDbSpline
 62
9
  6
CONTINUOUS
 70
0
 71
3
 72
38
 73
34
 74
0
 42
0.0000001
 43
0.0000001
 44
0.0000000001
 40
0.0
 40
0.0
 40
0.0
 40
0.0
 40
0.2167780945
 40
0.3175721895
 40
0.4127839222
 40
0.502034053
 40
0.5849548624
 40
0.6611926796
 40
0.7304117469
 40
0.7922978646
 40
0.8465622849
 40
0.8707539859
 40
0.8929453185
 40
0.9131089235
 40
0.9312196876
 40
0.9472548394
 40
0.9611940175
 40
0.973019355
 40
0.9781344298
 40
0.9827155642
 40
0.9867612175
 40
0.9902701153
 40
0.9932411308
 40
0.9956732497
 40
0.9966869935
 40
0.9975657467
 40
0.9983094246
 40
0.9989179564
 40
0.999391308
 40
0.9997294513
 40
0.999847811
 40
0.999932358
 40
1.0
 40
1.0
 40
1.0
 40
1.0
 10
148.3515282967
 20
234.1445327225
 30
0.0
 10
148.3577950435
 20
235.1354924342
 30
0.0
 10
148.3658627187
 20
236.5872202863
 30
0.0
 10
148.3748499796
 20
238.4741995921
 30
0.0
 10
148.3805036048
 20
239.77820666
 30
0.0
 10
148.3853751192
 20
241.0005103002
 30
0.0
 10
148.3895759297
 20
242.1360785048
 30
0.0
 10
148.3931832156
 20
243.1800782244
 30
0.0
 10
148.3962751532
 20
244.1279211261
 30
0.0
 10
148.3988947171
 20
244.9753158185
 30
0.0
 10
148.4007943328
 20
245.6168736134
 30
0.0
 10
148.402116806
 20
246.0769715515
 30
0.0
 10
148.4029763271
 20
246.3811816859
 30
0.0
 10
148.4037451344
 20
246.6575935663
 30
0.0
 10
148.404426166
 20
246.9058632127
 30
0.0
 10
148.4050217024
 20
247.1256786369
 30
0.0
 10
148.4055338452
 20
247.3167609783
 30
0.0
 10
148.4059087162
 20
247.4579234608
 30
0.0
 10
148.4061684256
 20
247.556306731
 30
0.0
 10
148.4063336718
 20
247.6191260726
 30
0.0
 10
148.4064791731
 20
247.6746029634
 30
0.0
 10
148.4066050091
 20
247.7227193794
 30
0.0
 10
148.4067113725
 20
247.763459716
 30
0.0
 10
148.4067876533
 20
247.7927937252
 30
0.0
 10
148.4068392911
 20
247.8125632306
 30
0.0
 10
148.4068701322
 20
247.8246141547
 30
0.0
 10
148.4068980529
 20
247.8348128825
 30
0.0
 10
148.4069157895
 20
247.8431578483
 30
0.0
 10
148.4069427417
 20
247.8496503071
 30
0.0
 10
148.4069328411
 20
247.8538990205
 30
0.0
 10
148.4069673917
 20
247.85637507
 30
0.0
 10
148.4069212768
 20
247.857607116
 30
0.0
 10
148.4070184187
 20
247.8583119859
 30
0.0
 10
148.4069587869
 20
247.8586154002
 30
0.0
  0
LINE
  5
57F
100
AcDbEntity
  8
7_ALL_FEATURES
100
AcDbLine
 62
9
  6
CONTINUOUS
 10
117.4918786219
 20
221.8992129548
 11
118.1509311723
 21
247.8586150923
  0
LINE
  5
580
100
AcDbEntity
  8
7_ALL_FEATURES
100
AcDbLine
 62
9
  6
CONTINUOUS
 10
187.6303240534
 20
247.8586150923
 11
188.2893766038
 21
221.8992129548
  0
SPLINE
  5
581
100
AcDbEntity
  8
7_ALL_FEATURES
100
AcDbSpline
 62
9
  6
CONTINUOUS
 70
0
 71
3
 72
10
 73
6
 74
0
 42
0.0000001
 43
0.0000001
 44
0.0000000001
 40
0.0
 40
0.0
 40
0.0
 40
0.0
 40
0.2993853324
 40
0.6082755818
 40
1.0
 40
1.0
 40
1.0
 40
1.0
 10
139.5706197662
 20
246.8928532918
 30
0.0
 10
139.5738501863
 20
245.5726927194
 30
0.0
 10
139.5810388991
 20
242.890460372
 30
0.0
 10
139.5958166167
 20
238.4809017902
 30
0.0
 10
139.6095948415
 20
235.3915120168
 30
0.0
 10
139.6191478393
 20
233.6641970294
 30
0.0
  0
LINE
  5
582
100
AcDbEntity
  8
7_ALL_FEATURES
100
AcDbLine
 62
9
  6
CONTINUOUS
 10
140.1010227221
 20
233.2179589265
 11
140.1070067383
 21
233.2095701957
  0
LINE
  5
583
100
AcDbEntity
  8
7_ALL_FEATURES
100
AcDbLine
 62
9
  6
CONTINUOUS
 10
140.1070067383
 20
233.2095701957
 11
140.1076859651
 21
233.2086153554
  0
SPLINE
  5
584
100
AcDbEntity
  8
7_ALL_FEATURES
100
AcDbSpline
 62
9
  6
CONTINUOUS
 70
0
 71
3
 72
11
 73
7
 74
0
 42
0.0000001
 43
0.0000001
 44
0.0000000001
 40
0.0
 40
0.0
 40
0.0
 40
0.0
 40
0.2245785815
 40
0.4588883533
 40
0.7144566138
 40
1.0
 40
1.0
 40
1.0
 40
1.0
 10
139.6191478393
 20
233.6641970294
 30
0.0
 10
139.6411792017
 20
233.6621979896
 30
0.0
 10
139.6858753337
 20
233.6526278329
 30
0.0
 10
139.7498911526
 20
233.6221335417
 30
0.0
 10
139.8113193626
 20
233.5760688818
 30
0.0
 10
139.8485137789
 20
233.537615041
 30
0.0
 10
139.8668714975
 20
233.5163047098
 30
0.0
  0
SPLINE
  5
585
100
AcDbEntity
  8
7_ALL_FEATURES
100
AcDbSpline
 62
9
  6
CONTINUOUS
 70
0
 71
3
 72
10
 73
6
 74
0
 42
0.0000001
 43
0.0000001
 44
0.0000000001
 40
0.0
 40
0.0
 40
0.0
 40
0.0
 40
0.3917234151
 40
0.7006136046
 40
1.0
 40
1.0
 40
1.0
 40
1.0
 10
147.3621073868
 20
233.6641971032
 30
0.0
 10
147.3716603092
 20
235.3915058524
 30
0.0
 10
147.385439204
 20
238.4808876901
 30
0.0
 10
147.4002146158
 20
242.8904416434
 30
0.0
 10
147.407408429
 20
245.5726755831
 30
0.0
 10
147.4106347763
 20
246.8928394652
 30
0.0
  0
SPLINE
  5
586
100
AcDbEntity
  8
7_ALL_FEATURES
100
AcDbSpline
 62
9
  6
CONTINUOUS
 70
0
 71
3
 72
11
 73
7
 74
0
 42
0.0000001
 43
0.0000001
 44
0.0000000001
 40
0.0
 40
0.0
 40
0.0
 40
0.0
 40
0.2855433622
 40
0.5411115793
 40
0.7754213846
 40
1.0
 40
1.0
 40
1.0
 40
1.0
 10
147.114383717
 20
233.516304699
 30
0.0
 10
147.1327414368
 20
233.5376150303
 30
0.0
 10
147.1699358482
 20
233.5760688757
 30
0.0
 10
147.2313640744
 20
233.6221335243
 30
0.0
 10
147.2953798865
 20
233.6526278375
 30
0.0
 10
147.340076019
 20
233.6621980587
 30
0.0
 10
147.3621073868
 20
233.6641971032
 30
0.0
  0
LINE
  5
587
100
AcDbEntity
  8
7_ALL_FEATURES
100
AcDbLine
 62
9
  6
CONTINUOUS
 10
146.87356896
 20
233.2086148903
 11
146.880147563
 21
233.2178401215
  0
LINE
  5
588
100
AcDbEntity
  8
7_ALL_FEATURES
100
AcDbLine
 62
9
  6
CONTINUOUS
 10
146.880147563
 20
233.2178401215
 11
146.8878736824
 21
233.228609952
  0
LINE
  5
589
100
AcDbEntity
  8
7_ALL_FEATURES
100
AcDbLine
 62
9
  6
CONTINUOUS
 10
146.6505402693
 20
233.2086165304
 11
146.6542546759
 21
233.2086150767
  0
SPLINE
  5
58A
100
AcDbEntity
  8
7_ALL_FEATURES
100
AcDbSpline
 62
9
  6
CONTINUOUS
 70
0
 71
3
 72
20
 73
16
 74
0
 42
0.0000001
 43
0.0000001
 44
0.0000000001
 40
0.0
 40
0.0
 40
0.0
 40
0.0
 40
0.0200067904
 40
0.0414144391
 40
0.0659734443
 40
0.095577838
 40
0.132035035
 40
0.1768766574
 40
0.2311218723
 40
0.2950031457
 40
0.3678189613
 40
0.4481022811
 40
0.6238974868
 40
0.8102152529
 40
1.0
 40
1.0
 40
1.0
 40
1.0
 10
189.2890339288
 20
221.7165905638
 30
0.0
 10
189.2888485053
 20
221.7236718387
 30
0.0
 10
189.2866166248
 20
221.7383636495
 30
0.0
 10
189.2768511172
 20
221.7598888979
 30
0.0
 10
189.2597373358
 20
221.780792321
 30
0.0
 10
189.2344175964
 20
221.8008087673
 30
0.0
 10
189.1998751145
 20
221.8197673249
 30
0.0
 10
189.1551383302
 20
221.8374000851
 30
0.0
 10
189.0996162878
 20
221.8533490938
 30
0.0
 10
189.0334064401
 20
221.8672394872
 30
0.0
 10
188.9574233993
 20
221.8787907498
 30
0.0
 10
188.8416163408
 20
221.8912692563
 30
0.0
 10
188.6851346907
 20
221.9000449015
 30
0.0
 10
188.4897190183
 20
221.9028452541
 30
0.0
 10
188.3565516568
 20
221.9008954023
 30
0.0
 10
188.2893766038
 20
221.8992130507
 30
0.0
  0
SPLINE
  5
58B
100
AcDbEntity
  8
7_ALL_FEATURES
100
AcDbSpline
 62
9
  6
CONTINUOUS
 70
0
 71
3
 72
28
 73
24
 74
0
 42
0.0000001
 43
0.0000001
 44
0.0000000001
 40
0.0
 40
0.0
 40
0.0
 40
0.0
 40
0.0002369729
 40
0.0007671374
 40
0.0016339313
 40
0.002857014
 40
0.0064367888
 40
0.0116356238
 40
0.0185875996
 40
0.0274348972
 40
0.0383270018
 40
0.0514182366
 40
0.0668636736
 40
0.0848130386
 40
0.1287414535
 40
0.1839192449
 40
0.2503024033
 40
0.3268988843
 40
0.4119315655
 40
0.5032883702
 40
0.599000112
 40
0.7976419311
 40
1.0
 40
1.0
 40
1.0
 40
1.0
 10
189.5010059967
 20
213.6217038743
 30
0.0
 10
189.5010039527
 20
213.6217828305
 30
0.0
 10
189.5007293577
 20
213.6219418818
 30
0.0
 10
189.500245873
 20
213.6220736059
 30
0.0
 10
189.4993664725
 20
213.622252951
 30
0.0
 10
189.4975089381
 20
213.6225138165
 30
0.0
 10
189.4941794921
 20
213.622841067
 30
0.0
 10
189.4889556044
 20
213.6232193796
 30
0.0
 10
189.4819658143
 20
213.6236182253
 30
0.0
 10
189.4730800097
 20
213.6240314523
 30
0.0
 10
189.4621454032
 20
213.6244550444
 30
0.0
 10
189.4490108681
 20
213.6248827658
 30
0.0
 10
189.4335228583
 20
213.6253069633
 30
0.0
 10
189.4077578059
 20
213.6258947811
 30
0.0
 10
189.3687480516
 20
213.6265276603
 30
0.0
 10
189.313592516
 20
213.6270205052
 30
0.0
 10
189.2475467686
 20
213.6271808379
 30
0.0
 10
189.1715507035
 20
213.6269680692
 30
0.0
 10
189.0872325123
 20
213.6264321889
 30
0.0
 10
188.9965447032
 20
213.6256835831
 30
0.0
 10
188.8679931899
 20
213.624538571
 30
0.0
 10
188.7024461921
 20
213.6231082869
 30
0.0
 10
188.5687970152
 20
213.6221451903
 30
0.0
 10
188.5013528549
 20
213.6217039048
 30
0.0
  0
SPLINE
  5
58C
100
AcDbEntity
  8
7_ALL_FEATURES
100
AcDbSpline
 62
9
  6
CONTINUOUS
 70
0
 71
3
 72
23
 73
19
 74
0
 42
0.0000001
 43
0.0000001
 44
0.0000000001
 40
0.0
 40
0.0
 40
0.0
 40
0.0
 40
0.0018787827
 40
0.0033273107
 40
0.0051988189
 40
0.0102977185
 40
0.0172715301
 40
0.036952785
 40
0.0643543667
 40
0.0995104479
 40
0.1424366855
 40
0.1931415393
 40
0.2516300937
 40
0.3179056416
 40
0.3919704376
 40
0.5634735399
 40
0.766148362
 40
1.0
 40
1.0
 40
1.0
 40
1.0
 10
189.3559838273
 20
219.1598770893
 30
0.0
 10
189.3559674082
 20
219.1605041077
 30
0.0
 10
189.3551055529
 20
219.1614761657
 30
0.0
 10
189.353621946
 20
219.1622990412
 30
0.0
 10
189.3509995312
 20
219.1633764709
 30
0.0
 10
189.3464858285
 20
219.1645244161
 30
0.0
 10
189.3360409583
 20
219.1663860571
 30
0.0
 10
189.318070665
 20
219.1682041613
 30
0.0
 10
189.2906705309
 20
219.1699450597
 30
0.0
 10
189.2554764185
 20
219.1712912197
 30
0.0
 10
189.2124911942
 20
219.172263803
 30
0.0
 10
189.1617081343
 20
219.1728380384
 30
0.0
 10
189.1031275057
 20
219.1730141838
 30
0.0
 10
189.0367482928
 20
219.1727879109
 30
0.0
 10
188.9326425036
 20
219.1719013291
 30
0.0
 10
188.7830114773
 20
219.1696714051
 30
0.0
 10
188.58006222
 20
219.1655135717
 30
0.0
 10
188.4343713732
 20
219.1619193657
 30
0.0
 10
188.3563265023
 20
219.1598770893
 30
0.0
  0
SPLINE
  5
58D
100
AcDbEntity
  8
7_ALL_FEATURES
100
AcDbSpline
 62
9
  6
CONTINUOUS
 70
0
 71
3
 72
28
 73
24
 74
0
 42
0.0000001
 43
0.0000001
 44
0.0000000001
 40
0.0
 40
0.0
 40
0.0
 40
0.0
 40
0.2023580696
 40
0.4009998882
 40
0.496711627
 40
0.5880684245
 40
0.6731011022
 40
0.7496975876
 40
0.8160807498
 40
0.8712585417
 40
0.9151869597
 40
0.9331363253
 40
0.9485817627
 40
0.9616729977
 40
0.9725651025
 40
0.9814124002
 40
0.9883643762
 40
0.9935632111
 40
0.997142986
 40
0.9983660687
 40
0.9992328626
 40
0.9997630271
 40
1.0
 40
1.0
 40
1.0
 40
1.0
 10
117.2799023683
 20
213.6217039048
 30
0.0
 10
117.2124582079
 20
213.6221451902
 30
0.0
 10
117.0788090313
 20
213.623108287
 30
0.0
 10
116.9132620348
 20
213.624538571
 30
0.0
 10
116.7847105254
 20
213.6256835831
 30
0.0
 10
116.6940227211
 20
213.6264321887
 30
0.0
 10
116.6097045323
 20
213.6269680691
 30
0.0
 10
116.5337084658
 20
213.6271808378
 30
0.0
 10
116.4676627156
 20
213.6270205054
 30
0.0
 10
116.4125071777
 20
213.6265276604
 30
0.0
 10
116.3734974221
 20
213.6258947811
 30
0.0
 10
116.3477323685
 20
213.6253069633
 30
0.0
 10
116.3322443583
 20
213.6248827658
 30
0.0
 10
116.3191098229
 20
213.6244550444
 30
0.0
 10
116.3081752163
 20
213.6240314523
 30
0.0
 10
116.2992894116
 20
213.6236182253
 30
0.0
 10
116.2922996214
 20
213.6232193796
 30
0.0
 10
116.2870757336
 20
213.6228410669
 30
0.0
 10
116.2837462876
 20
213.6225138165
 30
0.0
 10
116.2818887532
 20
213.622252951
 30
0.0
 10
116.2810093527
 20
213.6220736059
 30
0.0
 10
116.280525868
 20
213.6219418818
 30
0.0
 10
116.280251273
 20
213.6217828305
 30
0.0
 10
116.280249229
 20
213.6217038743
 30
0.0
  0
SPLINE
  5
58E
100
AcDbEntity
  8
7_ALL_FEATURES
100
AcDbSpline
 62
9
  6
CONTINUOUS
 70
0
 71
3
 72
23
 73
19
 74
0
 42
0.0000001
 43
0.0000001
 44
0.0000000001
 40
0.0
 40
0.0
 40
0.0
 40
0.0
 40
0.0018787827
 40
0.0033273107
 40
0.0051988189
 40
0.0102977185
 40
0.0172715301
 40
0.036952785
 40
0.0643543667
 40
0.0995104479
 40
0.1424366855
 40
0.1931415393
 40
0.2516300937
 40
0.3179056416
 40
0.3919704376
 40
0.5634735399
 40
0.766148362
 40
1.0
 40
1.0
 40
1.0
 40
1.0
 10
116.4252713984
 20
219.1598770893
 30
0.0
 10
116.4252878175
 20
219.1605041077
 30
0.0
 10
116.4261496728
 20
219.1614761657
 30
0.0
 10
116.4276332797
 20
219.1622990412
 30
0.0
 10
116.4302556945
 20
219.1633764709
 30
0.0
 10
116.4347693972
 20
219.1645244161
 30
0.0
 10
116.4452142674
 20
219.1663860571
 30
0.0
 10
116.4631845608
 20
219.1682041613
 30
0.0
 10
116.4905846948
 20
219.1699450596
 30
0.0
 10
116.5257788072
 20
219.1712912197
 30
0.0
 10
116.5687640315
 20
219.172263803
 30
0.0
 10
116.6195470914
 20
219.1728380384
 30
0.0
 10
116.67812772
 20
219.1730141838
 30
0.0
 10
116.7445069329
 20
219.1727879109
 30
0.0
 10
116.8486127222
 20
219.1719013291
 30
0.0
 10
116.9982437484
 20
219.1696714051
 30
0.0
 10
117.2011930057
 20
219.1655135717
 30
0.0
 10
117.3468838525
 20
219.1619193657
 30
0.0
 10
117.4249287234
 20
219.1598770893
 30
0.0
  0
SPLINE
  5
58F
100
AcDbEntity
  8
7_ALL_FEATURES
100
AcDbSpline
 62
9
  6
CONTINUOUS
 70
0
 71
3
 72
20
 73
16
 74
0
 42
0.0000001
 43
0.0000001
 44
0.0000000001
 40
0.0
 40
0.0
 40
0.0
 40
0.0
 40
0.0200067889
 40
0.0414144406
 40
0.0659734532
 40
0.0955778583
 40
0.1320350694
 40
0.176876707
 40
0.2311219356
 40
0.2950032191
 40
0.3678190394
 40
0.4481023577
 40
0.623897546
 40
0.8102152842
 40
1.0
 40
1.0
 40
1.0
 40
1.0
 10
116.4922212969
 20
221.7165905638
 30
0.0
 10
116.4924067255
 20
221.7236718376
 30
0.0
 10
116.4946386175
 20
221.7383636462
 30
0.0
 10
116.5044041429
 20
221.7598888882
 30
0.0
 10
116.521517942
 20
221.7807923041
 30
0.0
 10
116.5468376992
 20
221.8008087431
 30
0.0
 10
116.5813801984
 20
221.8197672932
 30
0.0
 10
116.6261169986
 20
221.8374000456
 30
0.0
 10
116.6816390536
 20
221.8533490462
 30
0.0
 10
116.7478489087
 20
221.8672394315
 30
0.0
 10
116.8238319503
 20
221.8787906866
 30
0.0
 10
116.9396389969
 20
221.8912691838
 30
0.0
 10
117.0961206203
 20
221.9000448219
 30
0.0
 10
117.2915362527
 20
221.9028451709
 30
0.0
 10
117.4247035844
 20
221.900895319
 30
0.0
 10
117.4918786219
 20
221.8992129679
 30
0.0
  0
LINE
  5
590
100
AcDbEntity
  8
7_ALL_FEATURES
100
AcDbLine
 62
9
  6
CONTINUOUS
 10
188.2893766038
 20
221.8992129548
 11
188.3563265023
 21
219.1598770892
  0
LINE
  5
591
100
AcDbEntity
  8
7_ALL_FEATURES
100
AcDbLine
 62
9
  6
CONTINUOUS
 10
117.4249287234
 20
219.1598770892
 11
117.4918786219
 21
221.8992129548
  0
SPLINE
  5
592
100
AcDbEntity
  8
7_ALL_FEATURES
100
AcDbSpline
 62
7
  6
CONTINUOUS
 70
0
 71
3
 72
15
 73
11
 74
0
 42
0.0000001
 43
0.0000001
 44
0.0000000001
 40
0.0
 40
0.0
 40
0.0
 40
0.0
 40
0.0903601518
 40
0.1866729348
 40
0.293455198
 40
0.4145841677
 40
0.5501092089
 40
0.69589826
 40
0.8469924186
 40
1.0
 40
1.0
 40
1.0
 40
1.0
 10
139.619150258
 20
233.6641900756
 30
0.0
 10
139.610193444
 20
233.6988048834
 30
0.0
 10
139.5851400228
 20
233.7688711334
 30
0.0
 10
139.5229926162
 20
233.8681412399
 30
0.0
 10
139.4301868187
 20
233.9585081946
 30
0.0
 10
139.3060477472
 20
234.0332556921
 30
0.0
 10
139.1558367969
 20
234.0883122426
 30
0.0
 10
138.9879849296
 20
234.1236336398
 30
0.0
 10
138.8106663229
 20
234.1418219872
 30
0.0
 10
138.6902703176
 20
234.1448008385
 30
0.0
 10
138.6297269281
 20
234.1445329417
 30
0.0
  0
SPLINE
  5
593
100
AcDbEntity
  8
7_ALL_FEATURES
100
AcDbSpline
 62
9
  6
CONTINUOUS
 70
0
 71
3
 72
15
 73
11
 74
0
 42
0.0000001
 43
0.0000001
 44
0.0000000001
 40
0.0
 40
0.0
 40
0.0
 40
0.0
 40
0.0899009592
 40
0.1859631227
 40
0.2923539886
 40
0.4124346631
 40
0.5465549567
 40
0.6917881467
 40
0.8440454518
 40
1.0
 40
1.0
 40
1.0
 40
1.0
 10
139.6149351927
 20
233.5575702828
 30
0.0
 10
139.6004317516
 20
233.5854076642
 30
0.0
 10
139.5648779988
 20
233.6403376225
 30
0.0
 10
139.4917885688
 20
233.7127761807
 30
0.0
 10
139.3952443425
 20
233.7725452126
 30
0.0
 10
139.2760099879
 20
233.8153426364
 30
0.0
 10
139.1380733934
 20
233.8392914199
 30
0.0
 10
138.9871640842
 20
233.8452193946
 30
0.0
 10
138.8289415562
 20
233.8357119043
 30
0.0
 10
138.7222175471
 20
233.8212535857
 30
0.0
 10
138.6684879745
 20
233.8124151349
 30
0.0
  0
SPLINE
  5
594
100
AcDbEntity
  8
7_ALL_FEATURES
100
AcDbSpline
 62
9
  6
CONTINUOUS
 70
0
 71
3
 72
15
 73
11
 74
0
 42
0.0000001
 43
0.0000001
 44
0.0000000001
 40
0.0
 40
0.0
 40
0.0
 40
0.0
 40
0.0899009692
 40
0.1859631419
 40
0.2923540075
 40
0.4124346726
 40
0.5465549563
 40
0.6917881421
 40
0.8440454487
 40
1.0
 40
1.0
 40
1.0
 40
1.0
 10
147.3663198908
 20
233.5575702686
 30
0.0
 10
147.3808233671
 20
233.5854076346
 30
0.0
 10
147.4163771745
 20
233.6403375601
 30
0.0
 10
147.489466643
 20
233.7127760803
 30
0.0
 10
147.5860108772
 20
233.7725450886
 30
0.0
 10
147.7052452248
 20
233.8153424983
 30
0.0
 10
147.8431818092
 20
233.8392912676
 30
0.0
 10
147.9940911105
 20
233.8452192187
 30
0.0
 10
148.1523136316
 20
233.8357116906
 30
0.0
 10
148.2590376345
 20
233.8212533381
 30
0.0
 10
148.3127672032
 20
233.8124148681
 30
0.0
  0
SPLINE
  5
595
100
AcDbEntity
  8
7_ALL_FEATURES
100
AcDbSpline
 62
7
  6
CONTINUOUS
 70
0
 71
3
 72
15
 73
11
 74
0
 42
0.0000001
 43
0.0000001
 44
0.0000000001
 40
0.0
 40
0.0
 40
0.0
 40
0.0
 40
0.0903601365
 40
0.1866728851
 40
0.2934551384
 40
0.4145841275
 40
0.5501091783
 40
0.6958982186
 40
0.8469923778
 40
1.0
 40
1.0
 40
1.0
 40
1.0
 10
147.3621075444
 20
233.6641898234
 30
0.0
 10
147.3710641349
 20
233.6988046165
 30
0.0
 10
147.3961171571
 20
233.7688708589
 30
0.0
 10
147.4582641803
 20
233.8681409528
 30
0.0
 10
147.5510697558
 20
233.9585078121
 30
0.0
 10
147.6752086432
 20
234.0332551352
 30
0.0
 10
147.8254193504
 20
234.088311527
 30
0.0
 10
147.993270911
 20
234.1236328667
 30
0.0
 10
148.1705891982
 20
234.1418212852
 30
0.0
 10
148.2909849994
 20
234.1448002572
 30
0.0
 10
148.3515282967
 20
234.1445324373
 30
0.0
  0
SPLINE
  5
596
100
AcDbEntity
  8
7_ALL_FEATURES
100
AcDbSpline
 62
9
  6
CONTINUOUS
 70
0
 71
3
 72
14
 73
10
 74
0
 42
0.0000001
 43
0.0000001
 44
0.0000000001
 40
0.0
 40
0.0
 40
0.0
 40
0.0
 40
0.1750659622
 40
0.2712147341
 40
0.3773387223
 40
0.4991114097
 40
0.6443809155
 40
0.816822564
 40
1.0
 40
1.0
 40
1.0
 40
1.0
 10
139.6149345366
 20
233.5575700576
 30
0.0
 10
139.6177945566
 20
233.5229511917
 30
0.0
 10
139.6291252443
 20
233.4694809529
 30
0.0
 10
139.660259628
 20
233.4011174939
 30
0.0
 10
139.6965811997
 20
233.3476255728
 30
0.0
 10
139.7494981953
 20
233.2951109063
 30
0.0
 10
139.8238516551
 20
233.24809268
 30
0.0
 10
139.9188137959
 20
233.2157479388
 30
0.0
 10
139.9896641207
 20
233.208615566
 30
0.0
 10
140.0260104139
 20
233.2086154001
 30
0.0
  0
SPLINE
  5
597
100
AcDbEntity
  8
7_ALL_FEATURES
100
AcDbSpline
 62
9
  6
CONTINUOUS
 70
0
 71
3
 72
9
 73
5
 74
0
 42
0.0000001
 43
0.0000001
 44
0.0000000001
 40
0.0
 40
0.0
 40
0.0
 40
0.0
 40
0.2475682763
 40
1.0
 40
1.0
 40
1.0
 40
1.0
 10
139.6191494491
 20
233.6641969859
 30
0.0
 10
139.6177776083
 20
233.6554870406
 30
0.0
 10
139.6132266036
 20
233.6201577249
 30
0.0
 10
139.6128074094
 20
233.5842839333
 30
0.0
 10
139.6149345189
 20
233.5575701021
 30
0.0
  0
SPLINE
  5
598
100
AcDbEntity
  8
7_ALL_FEATURES
100
AcDbSpline
 62
9
  6
CONTINUOUS
 70
0
 71
3
 72
14
 73
10
 74
0
 42
0.0000001
 43
0.0000001
 44
0.0000000001
 40
0.0
 40
0.0
 40
0.0
 40
0.0
 40
0.1831781851
 40
0.3556178773
 40
0.5008876303
 40
0.6226588361
 40
0.7287852873
 40
0.8249360648
 40
1.0
 40
1.0
 40
1.0
 40
1.0
 10
146.9552466954
 20
233.2086153993
 30
0.0
 10
146.9915930107
 20
233.2086154999
 30
0.0
 10
147.0624428532
 20
233.2157483307
 30
0.0
 10
147.1574042563
 20
233.2480932781
 30
0.0
 10
147.2317569773
 20
233.2951110093
 30
0.0
 10
147.2846736242
 20
233.3476258999
 30
0.0
 10
147.3209959097
 20
233.4011178805
 30
0.0
 10
147.3521298288
 20
233.4694815175
 30
0.0
 10
147.3634636904
 20
233.5229513665
 30
0.0
 10
147.3663206865
 20
233.5575699572
 30
0.0
  0
SPLINE
  5
599
100
AcDbEntity
  8
7_ALL_FEATURES
100
AcDbSpline
 62
9
  6
CONTINUOUS
 70
0
 71
3
 72
9
 73
5
 74
0
 42
0.0000001
 43
0.0000001
 44
0.0000000001
 40
0.0
 40
0.0
 40
0.0
 40
0.0
 40
0.2532921388
 40
1.0
 40
1.0
 40
1.0
 40
1.0
 10
147.3663206989
 20
233.5575700448
 30
0.0
 10
147.3670368331
 20
233.5665632264
 30
0.0
 10
147.3687959299
 20
233.6021480408
 30
0.0
 10
147.3662437337
 20
233.6379250204
 30
0.0
 10
147.3621057637
 20
233.6641970592
 30
0.0
  0
ENDSEC
  0
SECTION
  2
OBJECTS
  0
DICTIONARY
  5
C
100
AcDbDictionary
280
0
281
1
  3
ACAD_GROUP
350
D
  3
ACAD_MLINESTYLE
350
17
  3
ACAD_LAYOUT
350
1A
  3
ACAD_PLOTSETTINGS
350
19
  3
ACAD_PLOTSTYLENAME
350
E
  3
ACAD_TABLESTYLE
350
       59A
  0
DICTIONARY
  5
D
102
{ACAD_REACTORS
330
C
102
}
100
AcDbDictionary
280
0
281
1
  0
ACDBDICTIONARYWDFLT
  5
E
102
{ACAD_REACTORS
330
C
102
}
100
AcDbDictionary
281
1
  3
Normal
350
F
100
AcDbDictionaryWithDefault
340
F
  0
DICTIONARY
  5
17
102
{ACAD_REACTORS
330
C
102
}
100
AcDbDictionary
280
0
281
1
  3
Standard
350
18
  0
DICTIONARY
  5
59A
330
C
100
AcDbDictionary
281
1
  3
Standard
350
       59D
  3
Standard1
350
       59E
  0
DICTIONARY
  5
19
102
{ACAD_REACTORS
330
C
102
}
100
AcDbDictionary
281
1
  0
DICTIONARY
  5
1A
102
{ACAD_REACTORS
330
C
102
}
100
AcDbDictionary
281
1
  3
Model
350
59B
  3
Layout1
350
59C
  0
ACDBPLACEHOLDER
  5
F
102
{ACAD_REACTORS
330
E
102
}
  0
MLINESTYLE
  5
18
102
{ACAD_REACTORS
330
17
102
}
100
AcDbMlineStyle
  2
STANDARD
 70
0
  3

 62
256
 51
90.0
 52
90.0
 71
2
 49
0.5
 62
256
  6
BYLAYER
 49
-0.5
 62
256
  6
BYLAYER
  0
LAYOUT
  5
59B
102
{ACAD_REACTORS
330
1A
102
}
100
AcDbPlotSettings
  1

  2
none_device
  4

  6

 40
0.0
 41
0.0
 42
0.0
 43
0.0
 44
210.0
 45
297.0
 46
0.0
 47
0.0
 48
0.0
 49
0.0
140
0.0
141
0.0
142
1.0
143
1.0
 70
1024
 72
1
 73
0
 74
0
  7

 75
0
147
1.0
148
0.0
149
0.0
100
AcDbLayout
  1
Model
 70
0
 71
0
 10
0.0
 20
0.0
 11
210.0
 21
297.0
 12
0.0
 22
0.0
 32
0.0
 14
0.0
 24
0.0
 34
0.0
 15
0.0
 25
0.0
 35
0.0
146
0.0
 13
0.0
 23
0.0
 33
0.0
 16
1.0
 26
0.0
 36
0.0
 17
0.0
 27
1.0
 37
0.0
 76
0
330
22F
345
0
346
0
  0
LAYOUT
  5
59C
102
{ACAD_REACTORS
330
1A
102
}
100
AcDbPlotSettings
  1

  2
none_device
  4

  6

 40
0.0
 41
0.0
 42
0.0
 43
0.0
 44
210.0
 45
297.0
 46
0.0
 47
0.0
 48
0.0
 49
0.0
140
0.0
141
0.0
142
1.0
143
1.0
 70
0
 72
1
 73
0
 74
0
  7

 75
0
147
1.0
148
0.0
149
0.0
100
AcDbLayout
  1
Layout1
 70
0
 71
1
 10
0.0
 20
0.0
 11
210.0
 21
297.0
 12
0.0
 22
0.0
 32
0.0
 14
0.0
 24
0.0
 34
0.0
 15
0.0
 25
0.0
 35
0.0
146
0.0
 13
0.0
 23
0.0
 33
0.0
 16
1.0
 26
0.0
 36
0.0
 17
0.0
 27
1.0
 37
0.0
 76
0
330
230
345
0
346
0
  0
TABLESTYLE
  5
59D
102
{ACAD_REACTORS
330
59A
330
3AA
102
}
330
59A
100
AcDbTableStyle
  3
Standard
 70
0
 71
0
 40
0.06
 41
0.06
280
1
281
1
  7
Standard
140
0.18
170
1
 62
0
 63
7
283
0
  7
Standard
140
0.18
170
1
 62
0
 63
7
283
0
  7
Standard
140
0.18
170
1
 62
0
 63
7
283
0
  0
TABLESTYLE
  5
59E
102
{ACAD_REACTORS
330
59A
102
}
330
59A
100
AcDbTableStyle
  3
Standard1
 70
1
 71
0
 40
0.06
 41
0.06
280
1
281
1
  7
Standard
140
0.18
170
1
 62
0
 63
7
283
0
  7
Standard
140
0.18
170
1
 62
0
 63
7
283
0
  7
Standard
140
0.18
170
1
 62
0
 63
7
283
0
  0
ENDSEC
  0
EOF
