  0
SECTION
  2
HEADER
  9
$ACADVER
  1
AC1027
  9
$ACADMAINTVER
 70
     8
  9
$DWGCODEPAGE
  3
ANSI_1252
  9
$REQUIREDVERSIONS
160
                 0
  9
$INSBASE
 10
0.0
 20
0.0
 30
0.0
  9
$EXTMIN
 10
0.0
 20
0.0
 30
0.0
  9
$EXTMAX
 10
594.0
 20
420.0
 30
0.0
  9
$LIMMIN
 10
0.0
 20
0.0
  9
$LIMMAX
 10
594.0
 20
420.0
  9
$ORTHOMODE
 70
     0
  9
$REGENMODE
 70
     1
  9
$FILLMODE
 70
     1
  9
$QTEXTMODE
 70
     0
  9
$MIRRTEXT
 70
     1
  9
$LTSCALE
 40
32.67
  9
$ATTMODE
 70
     1
  9
$TEXTSIZE
 40
0.2
  9
$TRACEWID
 40
0.05
  9
$TEXTSTYLE
  7
STANDARD
  9
$CLAYER
  8
0
  9
$CELTYPE
  6
BYLAYER
  9
$CECOLOR
 62
   256
  9
$CELTSCALE
 40
1.0
  9
$DISPSILH
 70
     0
  9
$DIMSCALE
 40
1.0
  9
$DIMASZ
 40
3.0
  9
$DIMEXO
 40
1.5
  9
$DIMDLI
 40
22.572
  9
$DIMRND
 40
0.0
  9
$DIMDLE
 40
0.0
  9
$DIMEXE
 40
2.0
  9
$DIMTP
 40
0.01
  9
$DIMTM
 40
0.01
  9
$DIMTXT
 40
3.0
  9
$DIMCEN
 40
5.346
  9
$DIMTSZ
 40
0.0
  9
$DIMTOL
 70
     1
  9
$DIMLIM
 70
     0
  9
$DIMTIH
 70
     1
  9
$DIMTOH
 70
     1
  9
$DIMSE1
 70
     0
  9
$DIMSE2
 70
     0
  9
$DIMTAD
 70
     0
  9
$DIMZIN
 70
     0
  9
$DIMBLK
  1
FILLED
  9
$DIMASO
 70
     1
  9
$DIMSHO
 70
     1
  9
$DIMPOST
  1

  9
$DIMAPOST
  1

  9
$DIMALT
 70
     0
  9
$DIMALTD
 70
     2
  9
$DIMALTF
 40
25.4
  9
$DIMLFAC
 40
1.0
  9
$DIMTOFL
 70
     0
  9
$DIMTVP
 40
0.0
  9
$DIMTIX
 70
     0
  9
$DIMSOXD
 70
     0
  9
$DIMSAH
 70
     0
  9
$DIMBLK1
  1

  9
$DIMBLK2
  1

  9
$DIMSTYLE
  2
STANDARD
  9
$DIMCLRD
 70
     0
  9
$DIMCLRE
 70
     0
  9
$DIMCLRT
 70
     0
  9
$DIMTFAC
 40
1.0
  9
$DIMGAP
 40
0.625
  9
$DIMJUST
 70
     0
  9
$DIMSD1
 70
     0
  9
$DIMSD2
 70
     0
  9
$DIMTOLJ
 70
     1
  9
$DIMTZIN
 70
     0
  9
$DIMALTZ
 70
     0
  9
$DIMALTTZ
 70
     0
  9
$DIMUPT
 70
     0
  9
$DIMDEC
 70
     4
  9
$DIMTDEC
 70
     4
  9
$DIMALTU
 70
     2
  9
$DIMALTTD
 70
     2
  9
$DIMTXSTY
  7
STANDARD
  9
$DIMAUNIT
 70
     0
  9
$DIMADEC
 70
     0
  9
$DIMALTRND
 40
0.0
  9
$DIMAZIN
 70
     0
  9
$DIMDSEP
 70
    46
  9
$DIMATFIT
 70
     3
  9
$DIMFRAC
 70
     0
  9
$DIMLDRBLK
  1

  9
$DIMLUNIT
 70
     2
  9
$DIMLWD
 70
    -2
  9
$DIMLWE
 70
    -2
  9
$DIMTMOVE
 70
     0
  9
$DIMFXL
 40
1.0
  9
$DIMFXLON
 70
     0
  9
$DIMJOGANG
 40
0.785398
  9
$DIMTFILL
 70
     0
  9
$DIMTFILLCLR
 70
     0
  9
$DIMARCSYM
 70
     0
  9
$DIMLTYPE
  6

  9
$DIMLTEX1
  6

  9
$DIMLTEX2
  6

  9
$DIMTXTDIRECTION
 70
     0
  9
$LUNITS
 70
     2
  9
$LUPREC
 70
     4
  9
$SKETCHINC
 40
0.1
  9
$FILLETRAD
 40
0.5
  9
$AUNITS
 70
     0
  9
$AUPREC
 70
     0
  9
$MENU
  1
.
  9
$ELEVATION
 40
0.0
  9
$PELEVATION
 40
0.0
  9
$THICKNESS
 40
0.0
  9
$LIMCHECK
 70
     0
  9
$CHAMFERA
 40
0.0
  9
$CHAMFERB
 40
0.0
  9
$CHAMFERC
 40
0.0
  9
$CHAMFERD
 40
0.0
  9
$SKPOLY
 70
     0
  9
$TDCREATE
 40
2447893.041666667
  9
$TDUCREATE
 40
0.0
  9
$TDUPDATE
 40
2460273.587357141
  9
$TDUUPDATE
 40
2460273.545690475
  9
$TDINDWG
 40
0.0
  9
$TDUSRTIMER
 40
0.0
  9
$USRTIMER
 70
     1
  9
$ANGBASE
 50
0.0
  9
$ANGDIR
 70
     0
  9
$PDMODE
 70
     3
  9
$PDSIZE
 40
0.3125
  9
$PLINEWID
 40
0.0
  9
$SPLFRAME
 70
     0
  9
$SPLINETYPE
 70
     6
  9
$SPLINESEGS
 70
     8
  9
$HANDSEED
  5
556
  9
$SURFTAB1
 70
     6
  9
$SURFTAB2
 70
     6
  9
$SURFTYPE
 70
     6
  9
$SURFU
 70
     6
  9
$SURFV
 70
     6
  9
$UCSBASE
  2

  9
$UCSNAME
  2

  9
$UCSORG
 10
0.0
 20
0.0
 30
0.0
  9
$UCSXDIR
 10
1.0
 20
0.0
 30
0.0
  9
$UCSYDIR
 10
0.0
 20
1.0
 30
0.0
  9
$UCSORTHOREF
  2

  9
$UCSORTHOVIEW
 70
     0
  9
$UCSORGTOP
 10
0.0
 20
0.0
 30
0.0
  9
$UCSORGBOTTOM
 10
0.0
 20
0.0
 30
0.0
  9
$UCSORGLEFT
 10
0.0
 20
0.0
 30
0.0
  9
$UCSORGRIGHT
 10
0.0
 20
0.0
 30
0.0
  9
$UCSORGFRONT
 10
0.0
 20
0.0
 30
0.0
  9
$UCSORGBACK
 10
0.0
 20
0.0
 30
0.0
  9
$PUCSBASE
  2

  9
$PUCSNAME
  2

  9
$PUCSORG
 10
0.0
 20
0.0
 30
0.0
  9
$PUCSXDIR
 10
1.0
 20
0.0
 30
0.0
  9
$PUCSYDIR
 10
0.0
 20
1.0
 30
0.0
  9
$PUCSORTHOREF
  2

  9
$PUCSORTHOVIEW
 70
     0
  9
$PUCSORGTOP
 10
0.0
 20
0.0
 30
0.0
  9
$PUCSORGBOTTOM
 10
0.0
 20
0.0
 30
0.0
  9
$PUCSORGLEFT
 10
0.0
 20
0.0
 30
0.0
  9
$PUCSORGRIGHT
 10
0.0
 20
0.0
 30
0.0
  9
$PUCSORGFRONT
 10
0.0
 20
0.0
 30
0.0
  9
$PUCSORGBACK
 10
0.0
 20
0.0
 30
0.0
  9
$USERI1
 70
     0
  9
$USERI2
 70
     0
  9
$USERI3
 70
     0
  9
$USERI4
 70
     0
  9
$USERI5
 70
     0
  9
$USERR1
 40
0.0
  9
$USERR2
 40
0.0
  9
$USERR3
 40
0.0
  9
$USERR4
 40
0.0
  9
$USERR5
 40
0.0
  9
$WORLDVIEW
 70
     1
  9
$SHADEDGE
 70
     3
  9
$SHADEDIF
 70
    70
  9
$TILEMODE
 70
     1
  9
$MAXACTVP
 70
    64
  9
$PINSBASE
 10
0.0
 20
0.0
 30
0.0
  9
$PLIMCHECK
 70
     0
  9
$PEXTMIN
 10
1.000000E+20
 20
1.000000E+20
 30
1.000000E+20
  9
$PEXTMAX
 10
-1.000000E+20
 20
-1.000000E+20
 30
-1.000000E+20
  9
$PLIMMIN
 10
0.0
 20
0.0
  9
$PLIMMAX
 10
12.0
 20
9.0
  9
$UNITMODE
 70
     0
  9
$VISRETAIN
 70
     1
  9
$PLINEGEN
 70
     0
  9
$PSLTSCALE
 70
     0
  9
$TREEDEPTH
 70
  3020
  9
$CMLSTYLE
  2

  9
$CMLJUST
 70
     0
  9
$CMLSCALE
 40
1.0
  9
$PROXYGRAPHICS
 70
     1
  9
$MEASUREMENT
 70
     1
  9
$CELWEIGHT
370
    -1
  9
$ENDCAPS
280
     0
  9
$JOINSTYLE
280
     0
  9
$LWDISPLAY
290
     0
  9
$INSUNITS
 70
     4
  9
$HYPERLINKBASE
  1

  9
$STYLESHEET
  1

  9
$XEDIT
290
     1
  9
$CEPSNTYPE
380
     0
  9
$PSTYLEMODE
290
     1
  9
$FINGERPRINTGUID
  2
{60ED60DA-E978-411E-95AD-B8CF62C61C4C}
  9
$VERSIONGUID
  2
{FAEB1C32-E019-11D5-929B-00C0DF256EC4}
  9
$EXTNAMES
290
     1
  9
$PSVPSCALE
 40
0.0
  9
$OLESTARTUP
290
     0
  9
$SORTENTS
280
   127
  9
$INDEXCTL
280
     0
  9
$HIDETEXT
280
     1
  9
$XCLIPFRAME
280
     2
  9
$HALOGAP
280
     0
  9
$OBSCOLOR
 70
   257
  9
$OBSLTYPE
280
     0
  9
$INTERSECTIONDISPLAY
280
     0
  9
$INTERSECTIONCOLOR
 70
   257
  9
$DIMASSOC
280
     2
  9
$PROJECTNAME
  1

  9
$CAMERADISPLAY
290
     0
  9
$LENSLENGTH
 40
50.0
  9
$CAMERAHEIGHT
 40
0.0
  9
$STEPSPERSEC
 40
2.0
  9
$STEPSIZE
 40
6.0
  9
$3DDWFPREC
 40
2.0
  9
$PSOLWIDTH
 40
0.25
  9
$PSOLHEIGHT
 40
4.0
  9
$LOFTANG1
 40
1.570796
  9
$LOFTANG2
 40
1.570796
  9
$LOFTMAG1
 40
0.0
  9
$LOFTMAG2
 40
0.0
  9
$LOFTPARAM
 70
     7
  9
$LOFTNORMALS
280
     1
  9
$LATITUDE
 40
37.795
  9
$LONGITUDE
 40
-122.394
  9
$NORTHDIRECTION
 40
0.0
  9
$TIMEZONE
 70
 -8000
  9
$LIGHTGLYPHDISPLAY
280
     1
  9
$TILEMODELIGHTSYNCH
280
     1
  9
$SOLIDHIST
280
     1
  9
$SHOWHIST
280
     1
  9
$DWFFRAME
280
     2
  9
$DGNFRAME
280
     2
  9
$REALWORLDSCALE
290
     1
  9
$INTERFERECOLOR
 62
   256
  9
$CSHADOW
280
     0
  9
$SHADOWPLANELOCATION
 40
0.0
  0
ENDSEC
  0
SECTION
  2
CLASSES
  0
CLASS
  1
ACDBDICTIONARYWDFLT
  2
AcDbDictionaryWithDefault
  3
ObjectDBX Classes
 90
        0
 91
        6
280
     0
281
     0
  0
CLASS
  1
ACDBPLACEHOLDER
  2
AcDbPlaceHolder
  3
ObjectDBX Classes
 90
        0
 91
        1
280
     0
281
     0
  0
CLASS
  1
LAYOUT
  2
AcDbLayout
  3
ObjectDBX Classes
 90
        0
 91
        1
280
     0
281
     0
  0
CLASS
  1
TABLESTYLE
  2
AcDbTableStyle
  3
ObjectDBX Classes
 90
     4095
 91
        5
280
     0
281
     0
  0
CLASS
  1
ACAD_TABLE
  2
AcDbTable
  3
ObjectDBX Classes
 90
     1025
 91
        5
280
     0
281
     1
  0
CLASS
  1
SCALE
  2
AcDbScale
  3
ObjectDBX Classes
 90
     1153
 91
        5
280
     0
281
     0
  0
CLASS
  1
TABLEGEOMETRY
  2
AcDbTableGeometry
  3
ObjectDBX Classes
 90
     1152
 91
        4
280
     0
281
     0
  0
CLASS
  1
VISUALSTYLE
  2
AcDbVisualStyle
  3
ObjectDBX Classes
 90
     4095
 91
        5
280
     0
281
     0
  0
CLASS
  1
MATERIAL
  2
AcDbMaterial
  3
ObjectDBX Classes
 90
     1153
 91
        5
280
     0
281
     0
  0
CLASS
  1
SUN
  2
AcDbSun
  3
SCENEOE
 90
     1153
 91
        5
280
     0
281
     0
  0
CLASS
  1
CSACDOCUMENTOPTIONS
  2
CDocDataContainer
  3
"DERU003_CSAPP"
 90
     4095
 91
        4
280
     0
281
     0
  0
CLASS
  1
TABLECONTENT
  2
AcDbTableContent
  3
ObjectDBX Classes
 90
     1152
 91
        4
280
     0
281
     0
  0
CLASS
  1
DICTIONARYVAR
  2
AcDbDictionaryVar
  3
ObjectDBX Classes
 90
        0
 91
        4
280
     0
281
     0
  0
CLASS
  1
CELLSTYLEMAP
  2
AcDbCellStyleMap
  3
ObjectDBX Classes
 90
     1152
 91
        4
280
     0
281
     0
  0
ENDSEC
  0
SECTION
  2
TABLES
  0
TABLE
  2
VPORT
  5
8
330
0
100
AcDbSymbolTable
 70
     1
  0
VPORT
  5
1F4
330
8
100
AcDbSymbolTableRecord
100
AcDbViewportTableRecord
  2
*ACTIVE
 70
     0
 10
0.0
 20
0.0
 11
1.0
 21
1.0
 12
297.0
 22
210.0
 13
0.0
 23
0.0
 14
1.0
 24
1.0
 15
0.0
 25
0.0
 16
0.0
 26
0.0
 36
1.0
 17
0.0
 27
0.0
 37
0.0
 40
420.0
 41
1.980415
 42
50.0
 43
0.0
 44
0.0
 50
0.0
 51
0.0
 71
    16
 72
   100
 73
     1
 74
     1
 75
     0
 76
     0
 77
     0
 78
     0
281
     0
 65
     1
110
0.0
120
0.0
130
0.0
111
1.0
121
0.0
131
0.0
112
0.0
122
1.0
132
0.0
 79
     0
146
0.0
 60
     3
 61
     5
292
     1
282
     1
141
0.0
142
0.0
 63
   256
361
541
  0
ENDTAB
  0
TABLE
  2
LTYPE
  5
5
330
0
100
AcDbSymbolTable
 70
     6
  0
LTYPE
  5
14
330
5
100
AcDbSymbolTableRecord
100
AcDbLinetypeTableRecord
  2
BYBLOCK
 70
     0
  3

 72
    65
 73
     0
 40
0.0
  0
LTYPE
  5
15
330
5
100
AcDbSymbolTableRecord
100
AcDbLinetypeTableRecord
  2
BYLAYER
 70
     0
  3

 72
    65
 73
     0
 40
0.0
  0
LTYPE
  5
16
330
5
100
AcDbSymbolTableRecord
100
AcDbLinetypeTableRecord
  2
CONTINUOUS
 70
     0
  3
Solid line
 72
    65
 73
     0
 40
0.0
  0
LTYPE
  5
1F5
330
5
100
AcDbSymbolTableRecord
100
AcDbLinetypeTableRecord
  2
CENTER
 70
     0
  3
____ _ ____ _ ____ _ ____ _ ____ _ ____ _ ____
 72
    65
 73
     4
 40
0.6
 49
0.375
 74
     0
 49
-0.075
 74
     0
 49
0.075
 74
     0
 49
-0.075
 74
     0
  0
LTYPE
  5
1F6
330
5
100
AcDbSymbolTableRecord
100
AcDbLinetypeTableRecord
  2
HIDDEN
 70
     0
  3
- - - - - - - - - - - - - - - - - - - -
 72
    65
 73
     2
 40
0.2
 49
0.1
 74
     0
 49
-0.1
 74
     0
  0
LTYPE
  5
1F7
330
5
100
AcDbSymbolTableRecord
100
AcDbLinetypeTableRecord
  2
PHANTOM
 70
     0
  3
_____ _ _ _____ _ _ _____ _ _ _____
 72
    65
 73
     6
 40
0.8
 49
0.45
 74
     0
 49
-0.05
 74
     0
 49
0.1
 74
     0
 49
-0.05
 74
     0
 49
0.1
 74
     0
 49
-0.05
 74
     0
  0
LTYPE
  5
1F8
330
5
100
AcDbSymbolTableRecord
100
AcDbLinetypeTableRecord
  2
DOT
 70
     0
  3
. . . . . . . . . . . . . . . . . . . .
 72
    65
 73
     2
 40
0.2
 49
0.1
 74
     0
 49
-0.1
 74
     0
  0
LTYPE
  5
1F9
330
5
100
AcDbSymbolTableRecord
100
AcDbLinetypeTableRecord
  2
DASHED
 70
     0
  3
- - - - - - - - - - - - - - - - - - - -
 72
    65
 73
     2
 40
0.2
 49
0.1
 74
     0
 49
-0.1
 74
     0
  0
ENDTAB
  0
TABLE
  2
LAYER
  5
2
330
0
100
AcDbSymbolTable
 70
    23
  0
LAYER
  5
10
330
2
100
AcDbSymbolTableRecord
100
AcDbLayerTableRecord
  2
0
 70
     0
 62
     7
  6
CONTINUOUS
370
    -3
390
F
347
53B
348
0
  0
LAYER
  5
1FA
330
2
100
AcDbSymbolTableRecord
100
AcDbLayerTableRecord
  2
DEFAULT_1
 70
     0
 62
     7
  6
CENTER
370
    -3
390
F
347
53B
348
0
  0
LAYER
  5
1FB
330
2
100
AcDbSymbolTableRecord
100
AcDbLayerTableRecord
  2
DEFAULT_2
 70
     0
 62
     8
  6
HIDDEN
370
    -3
390
F
347
53B
348
0
  0
LAYER
  5
1FC
330
2
100
AcDbSymbolTableRecord
100
AcDbLayerTableRecord
  2
DEFAULT_3
 70
     0
 62
     7
  6
PHANTOM
370
    -3
390
F
347
53B
348
0
  0
LAYER
  5
1FD
330
2
100
AcDbSymbolTableRecord
100
AcDbLayerTableRecord
  2
01___PRT_ALL_DTM_PLN
 70
     0
 62
     7
  6
CONTINUOUS
370
    -3
390
F
347
53B
348
0
  0
LAYER
  5
1FE
330
2
100
AcDbSymbolTableRecord
100
AcDbLayerTableRecord
  2
01___PRT_DEF_DTM_PLN
 70
     0
 62
     7
  6
CONTINUOUS
370
    -3
390
F
347
53B
348
0
  0
LAYER
  5
1FF
330
2
100
AcDbSymbolTableRecord
100
AcDbLayerTableRecord
  2
02___PRT_ALL_AXES
 70
     0
 62
     7
  6
CONTINUOUS
370
    -3
390
F
347
53B
348
0
  0
LAYER
  5
200
330
2
100
AcDbSymbolTableRecord
100
AcDbLayerTableRecord
  2
03___PRT_ALL_CURVES
 70
     0
 62
     7
  6
CONTINUOUS
370
    -3
390
F
347
53B
348
0
  0
LAYER
  5
201
330
2
100
AcDbSymbolTableRecord
100
AcDbLayerTableRecord
  2
04___PRT_ALL_DTM_PNT
 70
     0
 62
     7
  6
CONTINUOUS
370
    -3
390
F
347
53B
348
0
  0
LAYER
  5
202
330
2
100
AcDbSymbolTableRecord
100
AcDbLayerTableRecord
  2
05___PRT_ALL_DTM_CSYS
 70
     0
 62
     7
  6
CONTINUOUS
370
    -3
390
F
347
53B
348
0
  0
LAYER
  5
203
330
2
100
AcDbSymbolTableRecord
100
AcDbLayerTableRecord
  2
05___PRT_DEF_DTM_CSYS
 70
     0
 62
     7
  6
CONTINUOUS
370
    -3
390
F
347
53B
348
0
  0
LAYER
  5
204
330
2
100
AcDbSymbolTableRecord
100
AcDbLayerTableRecord
  2
06___PRT_ALL_SURFS
 70
     0
 62
     7
  6
CONTINUOUS
370
    -3
390
F
347
53B
348
0
  0
LAYER
  5
205
330
2
100
AcDbSymbolTableRecord
100
AcDbLayerTableRecord
  2
1_ALL_PLANES
 70
     0
 62
     7
  6
CONTINUOUS
370
    -3
390
F
347
53B
348
0
  0
LAYER
  5
206
330
2
100
AcDbSymbolTableRecord
100
AcDbLayerTableRecord
  2
2_ALL_CSYS
 70
     0
 62
     7
  6
CONTINUOUS
370
    -3
390
F
347
53B
348
0
  0
LAYER
  5
207
330
2
100
AcDbSymbolTableRecord
100
AcDbLayerTableRecord
  2
3_ALL_AXES
 70
     0
 62
     7
  6
CONTINUOUS
370
    -3
390
F
347
53B
348
0
  0
LAYER
  5
208
330
2
100
AcDbSymbolTableRecord
100
AcDbLayerTableRecord
  2
4_ALL_POINTS
 70
     0
 62
     7
  6
CONTINUOUS
370
    -3
390
F
347
53B
348
0
  0
LAYER
  5
209
330
2
100
AcDbSymbolTableRecord
100
AcDbLayerTableRecord
  2
5_ALL_CURVES
 70
     0
 62
     7
  6
CONTINUOUS
370
    -3
390
F
347
53B
348
0
  0
LAYER
  5
20A
330
2
100
AcDbSymbolTableRecord
100
AcDbLayerTableRecord
  2
5__COSTRUZIONE
 70
     0
 62
     7
  6
CONTINUOUS
370
    -3
390
F
347
53B
348
0
  0
LAYER
  5
20B
330
2
100
AcDbSymbolTableRecord
100
AcDbLayerTableRecord
  2
6_ALL_SURFS
 70
     0
 62
     7
  6
CONTINUOUS
370
    -3
390
F
347
53B
348
0
  0
LAYER
  5
20C
330
2
100
AcDbSymbolTableRecord
100
AcDbLayerTableRecord
  2
7_ALL_FEATURES
 70
     0
 62
     7
  6
CONTINUOUS
370
    -3
390
F
347
53B
348
0
  0
LAYER
  5
20D
330
2
100
AcDbSymbolTableRecord
100
AcDbLayerTableRecord
  2
9_SOLID
 70
     0
 62
     7
  6
CONTINUOUS
370
    -3
390
F
347
53B
348
0
  0
LAYER
  5
20E
330
2
100
AcDbSymbolTableRecord
100
AcDbLayerTableRecord
  2
XSEC_DATUMS
 70
     0
 62
     7
  6
CONTINUOUS
370
    -3
390
F
347
53B
348
0
  0
LAYER
  5
20F
330
2
100
AcDbSymbolTableRecord
100
AcDbLayerTableRecord
  2
XXX_SOLIDO
 70
     0
 62
     7
  6
CONTINUOUS
370
    -3
390
F
347
53B
348
0
  0
ENDTAB
  0
TABLE
  2
STYLE
  5
3
330
0
100
AcDbSymbolTable
 70
     4
  0
STYLE
  5
11
330
3
100
AcDbSymbolTableRecord
100
AcDbTextStyleTableRecord
  2
STANDARD
 70
     0
 40
0.0
 41
1.0
 50
0.0
 71
     0
 42
0.2
  3
arial.ttf
  4

  0
STYLE
  5
210
330
3
100
AcDbSymbolTableRecord
100
AcDbTextStyleTableRecord
  2
TEXTSTYLE_1
 70
     0
 40
0.0
 41
0.8
 50
0.0
 71
     0
 42
0.2
  3
gdt
  4

  0
STYLE
  5
211
330
3
100
AcDbSymbolTableRecord
100
AcDbTextStyleTableRecord
  2
TEXTSTYLE_2
 70
     0
 40
0.0
 41
1.0
 50
0.0
 71
     0
 42
0.2
  3
arial.ttf
  4

  0
STYLE
  5
212
330
3
100
AcDbSymbolTableRecord
100
AcDbTextStyleTableRecord
  2
TEXTSTYLE_3
 70
     0
 40
0.0
 41
1.0
 50
0.0
 71
     0
 42
0.2
  3
arial.ttf
  4

  0
ENDTAB
  0
TABLE
  2
VIEW
  5
6
330
0
100
AcDbSymbolTable
 70
     0
  0
ENDTAB
  0
TABLE
  2
UCS
  5
7
330
0
100
AcDbSymbolTable
 70
     0
  0
ENDTAB
  0
TABLE
  2
APPID
  5
9
330
0
100
AcDbSymbolTable
 70
     6
  0
APPID
  5
213
330
9
100
AcDbSymbolTableRecord
100
AcDbRegAppTableRecord
  2
ACAD
 70
     0
  0
APPID
  5
53C
330
9
100
AcDbSymbolTableRecord
100
AcDbRegAppTableRecord
  2
MCS_DIM1
 70
     0
  0
APPID
  5
53D
330
9
100
AcDbSymbolTableRecord
100
AcDbRegAppTableRecord
  2
McsXdata5
 70
     0
  0
APPID
  5
540
330
9
100
AcDbSymbolTableRecord
100
AcDbRegAppTableRecord
  2
MCS_DOCUMENT_ID
 70
     0
  0
APPID
  5
546
330
9
100
AcDbSymbolTableRecord
100
AcDbRegAppTableRecord
  2
MCS_PARAMS_DATA
 70
     0
  0
APPID
  5
548
330
9
100
AcDbSymbolTableRecord
100
AcDbRegAppTableRecord
  2
MC_VERSION_DATA
 70
     0
  0
ENDTAB
  0
TABLE
  2
DIMSTYLE
  5
A
330
0
100
AcDbSymbolTable
 70
     3
100
AcDbDimStyleTable
  0
DIMSTYLE
105
21F
330
A
100
AcDbSymbolTableRecord
100
AcDbDimStyleTableRecord
  2
STANDARD
 70
     0
 41
3.0
 42
1.5
 44
2.0
 47
0.01
 48
0.01
 71
     1
 73
     0
 74
     0
 77
     1
 78
     8
 79
     2
140
3.0
147
0.625
171
     1
178
     0
179
     2
271
     2
272
     2
284
     8
340
11
341
216
342
216
343
216
344
216
  0
DIMSTYLE
105
220
330
A
100
AcDbSymbolTableRecord
100
AcDbDimStyleTableRecord
  2
DIMSTYLE_1
 70
     0
 41
3.0
 42
1.5
 44
2.0
 47
0.3
 48
0.3
 73
     0
 74
     0
 77
     1
 78
     8
 79
     2
140
3.0
147
0.75
171
     1
178
     0
179
     2
271
     2
272
     2
284
     8
340
11
341
216
342
216
343
216
344
216
  0
DIMSTYLE
105
221
330
A
100
AcDbSymbolTableRecord
100
AcDbDimStyleTableRecord
  2
DIMSTYLE_2
 70
     0
 41
3.0
 42
1.5
 44
2.0
 47
0.5
 48
0.5
 73
     0
 74
     0
 77
     1
 78
     8
 79
     2
140
3.0
147
0.75
171
     1
178
     0
179
     2
271
     2
272
     2
284
     8
340
11
341
216
342
216
343
216
344
216
  0
ENDTAB
  0
TABLE
  2
BLOCK_RECORD
  5
1
330
0
100
AcDbSymbolTable
 70
     9
  0
BLOCK_RECORD
  5
214
330
1
100
AcDbSymbolTableRecord
100
AcDbBlockTableRecord
  2
*Model_Space
340
4F6
 70
     0
280
     1
281
     0
  0
BLOCK_RECORD
  5
215
330
1
100
AcDbSymbolTableRecord
100
AcDbBlockTableRecord
  2
*Paper_Space
340
4F7
 70
     0
280
     1
281
     0
  0
BLOCK_RECORD
  5
216
330
1
100
AcDbSymbolTableRecord
100
AcDbBlockTableRecord
  2
_FILLED
340
0
102
{BLKREFS
331
267
331
268
331
270
331
271
331
279
331
27A
331
282
331
283
331
28B
331
28C
331
294
331
295
102
}
 70
     0
280
     1
281
     0
  0
BLOCK_RECORD
  5
217
330
1
100
AcDbSymbolTableRecord
100
AcDbBlockTableRecord
  2
*D1
340
0
 70
     0
280
     1
281
     0
  0
BLOCK_RECORD
  5
218
330
1
100
AcDbSymbolTableRecord
100
AcDbBlockTableRecord
  2
*D2
340
0
 70
     0
280
     1
281
     0
  0
BLOCK_RECORD
  5
219
330
1
100
AcDbSymbolTableRecord
100
AcDbBlockTableRecord
  2
*D3
340
0
 70
     0
280
     1
281
     0
  0
BLOCK_RECORD
  5
21A
330
1
100
AcDbSymbolTableRecord
100
AcDbBlockTableRecord
  2
*D4
340
0
 70
     0
280
     1
281
     0
  0
BLOCK_RECORD
  5
21B
330
1
100
AcDbSymbolTableRecord
100
AcDbBlockTableRecord
  2
*D5
340
0
 70
     0
280
     1
281
     0
  0
BLOCK_RECORD
  5
21C
330
1
100
AcDbSymbolTableRecord
100
AcDbBlockTableRecord
  2
*D6
340
0
 70
     0
280
     1
281
     0
  0
BLOCK_RECORD
  5
21D
330
1
100
AcDbSymbolTableRecord
100
AcDbBlockTableRecord
  2
LOGO2_BL0
340
0
102
{BLKREFS
331
2B0
102
}
 70
     0
280
     1
281
     0
  0
BLOCK_RECORD
  5
21E
330
1
100
AcDbSymbolTableRecord
100
AcDbBlockTableRecord
  2
*T8
340
0
102
{BLKREFS
331
2B1
102
}
 70
     0
280
     1
281
     0
  0
ENDTAB
  0
ENDSEC
  0
SECTION
  2
BLOCKS
  0
BLOCK
  5
20
330
214
100
AcDbEntity
  8
0
100
AcDbBlockBegin
  2
*Model_Space
 70
     0
 10
0.0
 20
0.0
 30
0.0
  3
*Model_Space
  1
*Model_Space
  0
ENDBLK
  5
21
330
214
100
AcDbEntity
  8
0
100
AcDbBlockEnd
  0
BLOCK
  5
1C
330
215
100
AcDbEntity
 67
     1
  8
0
100
AcDbBlockBegin
  2
*Paper_Space
 70
     0
 10
0.0
 20
0.0
 30
0.0
  3
*Paper_Space
  1
*Paper_Space
  0
ENDBLK
  5
1D
330
215
100
AcDbEntity
 67
     1
  8
0
100
AcDbBlockEnd
  0
BLOCK
  5
25E
330
216
100
AcDbEntity
  8
0
100
AcDbBlockBegin
  2
_FILLED
 70
     0
 10
0.0
 20
0.0
 30
0.0
  3
_FILLED
  1
_FILLED
  0
SOLID
  5
25F
330
216
100
AcDbEntity
  8
0
  6
ByBlock
 62
     0
100
AcDbTrace
 10
0.0
 20
0.0
 30
0.0
 11
-1.0
 21
0.25
 31
0.0
 12
-1.0
 22
-0.25
 32
0.0
 13
-1.0
 23
-0.25
 33
0.0
  0
ENDBLK
  5
260
330
216
100
AcDbEntity
  8
0
  6
ByBlock
 62
     0
100
AcDbBlockEnd
  0
BLOCK
  5
261
330
217
100
AcDbEntity
  8
0
100
AcDbBlockBegin
  2
*D1
 70
     1
 10
0.0
 20
0.0
 30
0.0
  3
*D1
  1
*D1
  0
MTEXT
  5
262
330
217
100
AcDbEntity
  8
0
  6
Continuous
 62
     2
100
AcDbMText
 10
320.320546
 20
299.94818
 30
0.0
 40
3.0
 41
4.66171
 46
0.0
 71
     2
 72
     1
  1
75
 11
0.0
 21
1.0
 31
0.0
 73
     1
 44
0.9
  0
LINE
  5
263
330
217
100
AcDbEntity
  8
0
  6
Continuous
 62
     2
100
AcDbLine
 10
342.997488
 20
337.44818
 30
0.0
 11
322.070546
 21
337.44818
 31
0.0
  0
LINE
  5
264
330
217
100
AcDbEntity
  8
0
  6
Continuous
 62
     2
100
AcDbLine
 10
342.721022
 20
262.44818
 30
0.0
 11
322.070546
 21
262.44818
 31
0.0
  0
LINE
  5
265
330
217
100
AcDbEntity
  8
0
  6
Continuous
 62
     2
100
AcDbLine
 10
324.070546
 20
337.44818
 30
0.0
 11
324.070546
 21
299.94818
 31
0.0
  0
LINE
  5
266
330
217
100
AcDbEntity
  8
0
  6
Continuous
 62
     2
100
AcDbLine
 10
324.070546
 20
262.44818
 30
0.0
 11
324.070546
 21
299.94818
 31
0.0
  0
INSERT
  5
267
330
217
100
AcDbEntity
  8
0
  6
Continuous
 62
     2
100
AcDbBlockReference
  2
_FILLED
 10
324.070546
 20
337.44818
 30
0.0
 41
3.0
 42
3.0
 43
3.0
 50
90.0
  0
INSERT
  5
268
330
217
100
AcDbEntity
  8
0
  6
Continuous
 62
     2
100
AcDbBlockReference
  2
_FILLED
 10
324.070546
 20
262.44818
 30
0.0
 41
3.0
 42
3.0
 43
3.0
 50
270.0
  0
ENDBLK
  5
269
330
217
100
AcDbEntity
  8
0
  6
ByBlock
 62
     0
100
AcDbBlockEnd
  0
BLOCK
  5
26A
330
218
100
AcDbEntity
  8
0
100
AcDbBlockBegin
  2
*D2
 70
     1
 10
0.0
 20
0.0
 30
0.0
  3
*D2
  1
*D2
  0
MTEXT
  5
26B
330
218
100
AcDbEntity
  8
0
  6
Continuous
 62
     2
100
AcDbMText
 10
138.941918
 20
245.059954
 30
0.0
 40
3.0
 41
4.66171
 46
0.0
 71
     2
 72
     1
  1
84
 73
     1
 44
0.9
  0
LINE
  5
26C
330
218
100
AcDbEntity
  8
0
  6
Continuous
 62
     2
100
AcDbLine
 10
96.941918
 20
251.103218
 30
0.0
 11
96.941918
 21
239.309954
 31
0.0
  0
LINE
  5
26D
330
218
100
AcDbEntity
  8
0
  6
Continuous
 62
     2
100
AcDbLine
 10
180.941918
 20
251.658546
 30
0.0
 11
180.941918
 21
239.309954
 31
0.0
  0
LINE
  5
26E
330
218
100
AcDbEntity
  8
0
  6
Continuous
 62
     2
100
AcDbLine
 10
96.941918
 20
241.309954
 30
0.0
 11
138.941918
 21
241.309954
 31
0.0
  0
LINE
  5
26F
330
218
100
AcDbEntity
  8
0
  6
Continuous
 62
     2
100
AcDbLine
 10
180.941918
 20
241.309954
 30
0.0
 11
138.941918
 21
241.309954
 31
0.0
  0
INSERT
  5
270
330
218
100
AcDbEntity
  8
0
  6
Continuous
 62
     2
100
AcDbBlockReference
  2
_FILLED
 10
96.941918
 20
241.309954
 30
0.0
 41
3.0
 42
3.0
 43
3.0
 50
180.0
  0
INSERT
  5
271
330
218
100
AcDbEntity
  8
0
  6
Continuous
 62
     2
100
AcDbBlockReference
  2
_FILLED
 10
180.941918
 20
241.309954
 30
0.0
 41
3.0
 42
3.0
 43
3.0
  0
ENDBLK
  5
272
330
218
100
AcDbEntity
  8
0
  6
ByBlock
 62
     0
100
AcDbBlockEnd
  0
BLOCK
  5
273
330
219
100
AcDbEntity
  8
0
100
AcDbBlockBegin
  2
*D3
 70
     1
 10
0.0
 20
0.0
 30
0.0
  3
*D3
  1
*D3
  0
MTEXT
  5
274
330
219
100
AcDbEntity
  8
0
  6
Continuous
 62
     2
100
AcDbMText
 10
218.239611
 20
320.94818
 30
0.0
 40
3.0
 41
6.992565
 46
0.0
 71
     2
 72
     1
  1
117
 11
0.0
 21
1.0
 31
0.0
 73
     1
 44
0.9
  0
LINE
  5
275
330
219
100
AcDbEntity
  8
0
  6
Continuous
 62
     2
100
AcDbLine
 10
207.254867
 20
379.44818
 30
0.0
 11
223.989611
 21
379.44818
 31
0.0
  0
LINE
  5
276
330
219
100
AcDbEntity
  8
0
  6
Continuous
 62
     2
100
AcDbLine
 10
206.968375
 20
262.44818
 30
0.0
 11
223.989611
 21
262.44818
 31
0.0
  0
LINE
  5
277
330
219
100
AcDbEntity
  8
0
  6
Continuous
 62
     2
100
AcDbLine
 10
221.989611
 20
379.44818
 30
0.0
 11
221.989611
 21
320.94818
 31
0.0
  0
LINE
  5
278
330
219
100
AcDbEntity
  8
0
  6
Continuous
 62
     2
100
AcDbLine
 10
221.989611
 20
262.44818
 30
0.0
 11
221.989611
 21
320.94818
 31
0.0
  0
INSERT
  5
279
330
219
100
AcDbEntity
  8
0
  6
Continuous
 62
     2
100
AcDbBlockReference
  2
_FILLED
 10
221.989611
 20
379.44818
 30
0.0
 41
3.0
 42
3.0
 43
3.0
 50
90.0
  0
INSERT
  5
27A
330
219
100
AcDbEntity
  8
0
  6
Continuous
 62
     2
100
AcDbBlockReference
  2
_FILLED
 10
221.989611
 20
262.44818
 30
0.0
 41
3.0
 42
3.0
 43
3.0
 50
270.0
  0
ENDBLK
  5
27B
330
219
100
AcDbEntity
  8
0
  6
ByBlock
 62
     0
100
AcDbBlockEnd
  0
BLOCK
  5
27C
330
21A
100
AcDbEntity
  8
0
100
AcDbBlockBegin
  2
*D4
 70
     1
 10
0.0
 20
0.0
 30
0.0
  3
*D4
  1
*D4
  0
MTEXT
  5
27D
330
21A
100
AcDbEntity
  8
0
  6
Continuous
 62
     2
100
AcDbMText
 10
450.611897
 20
403.202036
 30
0.0
 40
3.0
 41
10.483271
 46
0.0
 71
     2
 72
     1
  1
126.8
 73
     1
 44
0.9
  0
LINE
  5
27E
330
21A
100
AcDbEntity
  8
0
  6
Continuous
 62
     2
100
AcDbLine
 10
514.011897
 20
392.732126
 30
0.0
 11
514.011897
 21
401.452036
 31
0.0
  0
LINE
  5
27F
330
21A
100
AcDbEntity
  8
0
  6
Continuous
 62
     2
100
AcDbLine
 10
387.211897
 20
392.413656
 30
0.0
 11
387.211897
 21
401.452036
 31
0.0
  0
LINE
  5
280
330
21A
100
AcDbEntity
  8
0
  6
Continuous
 62
     2
100
AcDbLine
 10
514.011897
 20
399.452036
 30
0.0
 11
450.611897
 21
399.452036
 31
0.0
  0
LINE
  5
281
330
21A
100
AcDbEntity
  8
0
  6
Continuous
 62
     2
100
AcDbLine
 10
387.211897
 20
399.452036
 30
0.0
 11
450.611897
 21
399.452036
 31
0.0
  0
INSERT
  5
282
330
21A
100
AcDbEntity
  8
0
  6
Continuous
 62
     2
100
AcDbBlockReference
  2
_FILLED
 10
514.011897
 20
399.452036
 30
0.0
 41
3.0
 42
3.0
 43
3.0
  0
INSERT
  5
283
330
21A
100
AcDbEntity
  8
0
  6
Continuous
 62
     2
100
AcDbBlockReference
  2
_FILLED
 10
387.211897
 20
399.452036
 30
0.0
 41
3.0
 42
3.0
 43
3.0
 50
180.0
  0
ENDBLK
  5
284
330
21A
100
AcDbEntity
  8
0
  6
ByBlock
 62
     0
100
AcDbBlockEnd
  0
BLOCK
  5
285
330
21B
100
AcDbEntity
  8
0
100
AcDbBlockBegin
  2
*D5
 70
     1
 10
0.0
 20
0.0
 30
0.0
  3
*D5
  1
*D5
  0
MTEXT
  5
286
330
21B
100
AcDbEntity
  8
0
  6
Continuous
 62
     2
100
AcDbMText
 10
370.711897
 20
249.473345
 30
0.0
 40
3.0
 41
4.66171
 46
0.0
 71
     2
 72
     1
  1
31
 73
     1
 44
0.9
  0
LINE
  5
287
330
21B
100
AcDbEntity
  8
0
  6
Continuous
 62
     2
100
AcDbLine
 10
355.211897
 20
252.507188
 30
0.0
 11
355.211897
 21
243.723345
 31
0.0
  0
LINE
  5
288
330
21B
100
AcDbEntity
  8
0
  6
Continuous
 62
     2
100
AcDbLine
 10
386.211897
 20
252.951451
 30
0.0
 11
386.211897
 21
243.723345
 31
0.0
  0
LINE
  5
289
330
21B
100
AcDbEntity
  8
0
  6
Continuous
 62
     2
100
AcDbLine
 10
355.211897
 20
245.723345
 30
0.0
 11
370.711897
 21
245.723345
 31
0.0
  0
LINE
  5
28A
330
21B
100
AcDbEntity
  8
0
  6
Continuous
 62
     2
100
AcDbLine
 10
386.211897
 20
245.723345
 30
0.0
 11
370.711897
 21
245.723345
 31
0.0
  0
INSERT
  5
28B
330
21B
100
AcDbEntity
  8
0
  6
Continuous
 62
     2
100
AcDbBlockReference
  2
_FILLED
 10
355.211897
 20
245.723345
 30
0.0
 41
3.0
 42
3.0
 43
3.0
 50
180.0
  0
INSERT
  5
28C
330
21B
100
AcDbEntity
  8
0
  6
Continuous
 62
     2
100
AcDbBlockReference
  2
_FILLED
 10
386.211897
 20
245.723345
 30
0.0
 41
3.0
 42
3.0
 43
3.0
  0
ENDBLK
  5
28D
330
21B
100
AcDbEntity
  8
0
  6
ByBlock
 62
     0
100
AcDbBlockEnd
  0
BLOCK
  5
28E
330
21C
100
AcDbEntity
  8
0
100
AcDbBlockBegin
  2
*D6
 70
     1
 10
0.0
 20
0.0
 30
0.0
  3
*D6
  1
*D6
  0
MTEXT
  5
28F
330
21C
100
AcDbEntity
  8
0
  6
Continuous
 62
     2
100
AcDbMText
 10
138.941918
 20
36.627606
 30
0.0
 40
3.0
 41
7.918216
 46
0.0
 71
     2
 72
     1
  1
Ø84
 73
     1
 44
0.9
  0
LINE
  5
290
330
21C
100
AcDbEntity
  8
0
  6
Continuous
 62
     2
100
AcDbLine
 10
96.941918
 20
39.919923
 30
0.0
 11
96.941918
 21
30.877606
 31
0.0
  0
LINE
  5
291
330
21C
100
AcDbEntity
  8
0
  6
Continuous
 62
     2
100
AcDbLine
 10
180.941918
 20
40.156864
 30
0.0
 11
180.941918
 21
30.877606
 31
0.0
  0
LINE
  5
292
330
21C
100
AcDbEntity
  8
0
  6
Continuous
 62
     2
100
AcDbLine
 10
96.941918
 20
32.877606
 30
0.0
 11
138.941918
 21
32.877606
 31
0.0
  0
LINE
  5
293
330
21C
100
AcDbEntity
  8
0
  6
Continuous
 62
     2
100
AcDbLine
 10
180.941918
 20
32.877606
 30
0.0
 11
138.941918
 21
32.877606
 31
0.0
  0
INSERT
  5
294
330
21C
100
AcDbEntity
  8
0
  6
Continuous
 62
     2
100
AcDbBlockReference
  2
_FILLED
 10
96.941918
 20
32.877606
 30
0.0
 41
3.0
 42
3.0
 43
3.0
 50
180.0
  0
INSERT
  5
295
330
21C
100
AcDbEntity
  8
0
  6
Continuous
 62
     2
100
AcDbBlockReference
  2
_FILLED
 10
180.941918
 20
32.877606
 30
0.0
 41
3.0
 42
3.0
 43
3.0
  0
ENDBLK
  5
296
330
21C
100
AcDbEntity
  8
0
  6
ByBlock
 62
     0
100
AcDbBlockEnd
  0
BLOCK
  5
222
330
21D
100
AcDbEntity
  8
0
100
AcDbBlockBegin
  2
LOGO2_BL0
 70
     0
 10
513.228361
 20
30.842622
 30
0.0
  3
LOGO2_BL0
  1
LOGO2_BL0
  0
LINE
  5
223
330
21D
100
AcDbEntity
  8
0
  6
Continuous
 62
     7
100
AcDbLine
 10
504.971286
 20
34.038113
 30
0.0
 11
503.666945
 21
34.038113
 31
0.0
  0
LINE
  5
224
330
21D
100
AcDbEntity
  8
0
  6
Continuous
 62
     7
100
AcDbLine
 10
503.666945
 20
34.038113
 30
0.0
 11
503.666945
 21
23.579047
 31
0.0
  0
LINE
  5
225
330
21D
100
AcDbEntity
  8
0
  6
Continuous
 62
     7
100
AcDbLine
 10
503.666945
 20
23.579047
 30
0.0
 11
508.148
 21
23.579047
 31
0.0
  0
LINE
  5
226
330
21D
100
AcDbEntity
  8
0
  6
Continuous
 62
     7
100
AcDbLine
 10
508.148
 20
23.579047
 30
0.0
 11
508.148
 21
24.771901
 31
0.0
  0
LINE
  5
227
330
21D
100
AcDbEntity
  8
0
  6
Continuous
 62
     7
100
AcDbLine
 10
508.148
 20
24.771901
 30
0.0
 11
504.971286
 21
24.771901
 31
0.0
  0
LINE
  5
228
330
21D
100
AcDbEntity
  8
0
  6
Continuous
 62
     7
100
AcDbLine
 10
504.971286
 20
24.771901
 30
0.0
 11
504.971286
 21
34.038113
 31
0.0
  0
LINE
  5
229
330
21D
100
AcDbEntity
  8
0
  6
Continuous
 62
     7
100
AcDbLine
 10
519.907613
 20
34.038113
 30
0.0
 11
518.603795
 21
34.038113
 31
0.0
  0
LINE
  5
22A
330
21D
100
AcDbEntity
  8
0
  6
Continuous
 62
     7
100
AcDbLine
 10
518.603795
 20
34.038113
 30
0.0
 11
518.603795
 21
23.579047
 31
0.0
  0
LINE
  5
22B
330
21D
100
AcDbEntity
  8
0
  6
Continuous
 62
     7
100
AcDbLine
 10
518.603795
 20
23.579047
 30
0.0
 11
523.084981
 21
23.579047
 31
0.0
  0
LINE
  5
22C
330
21D
100
AcDbEntity
  8
0
  6
Continuous
 62
     7
100
AcDbLine
 10
523.084981
 20
23.579047
 30
0.0
 11
523.084981
 21
24.771901
 31
0.0
  0
LINE
  5
22D
330
21D
100
AcDbEntity
  8
0
  6
Continuous
 62
     7
100
AcDbLine
 10
523.084981
 20
24.771901
 30
0.0
 11
519.907613
 21
24.771901
 31
0.0
  0
LINE
  5
22E
330
21D
100
AcDbEntity
  8
0
  6
Continuous
 62
     7
100
AcDbLine
 10
519.907613
 20
24.771901
 30
0.0
 11
519.907613
 21
34.038113
 31
0.0
  0
LWPOLYLINE
  5
22F
330
21D
100
AcDbEntity
  8
0
  6
Continuous
 62
     7
100
AcDbPolyline
 90
        2
 70
     0
 43
0.2
 10
502.02134
 20
20.235496
 10
502.02134
 20
18.378433
  0
LWPOLYLINE
  5
230
330
21D
100
AcDbEntity
  8
0
  6
Continuous
 62
     7
100
AcDbPolyline
 90
        2
 70
     0
 43
0.2
 10
502.02134
 20
18.378433
 10
502.817056
 20
18.378433
  0
LWPOLYLINE
  5
231
330
21D
100
AcDbEntity
  8
0
  6
Continuous
 62
     7
100
AcDbPolyline
 90
        2
 70
     0
 43
0.2
 10
502.817056
 20
18.378433
 10
502.817056
 20
18.590414
  0
LWPOLYLINE
  5
232
330
21D
100
AcDbEntity
  8
0
  6
Continuous
 62
     7
100
AcDbPolyline
 90
        2
 70
     0
 43
0.2
 10
502.817056
 20
18.590414
 10
502.25295
 20
18.590414
  0
LWPOLYLINE
  5
233
330
21D
100
AcDbEntity
  8
0
  6
Continuous
 62
     7
100
AcDbPolyline
 90
        2
 70
     0
 43
0.2
 10
502.25295
 20
18.590414
 10
502.25295
 20
20.235496
  0
LWPOLYLINE
  5
234
330
21D
100
AcDbEntity
  8
0
  6
Continuous
 62
     7
100
AcDbPolyline
 90
        2
 70
     0
 43
0.2
 10
502.25295
 20
20.235496
 10
502.02134
 20
20.235496
  0
SPLINE
  5
235
330
21D
100
AcDbEntity
  8
0
  6
Continuous
 62
     7
100
AcDbSpline
 70
     3
 71
     3
 72
    35
 73
    31
 74
     0
 42
0.000000001
 43
0.0000001
 40
0.0
 40
0.0
 40
0.0
 40
0.0
 40
1.0
 40
1.0
 40
1.0
 40
2.0
 40
2.0
 40
2.0
 40
3.0
 40
3.0
 40
3.0
 40
4.0
 40
4.0
 40
4.0
 40
5.0
 40
5.0
 40
5.0
 40
6.0
 40
6.0
 40
6.0
 40
7.0
 40
7.0
 40
7.0
 40
8.0
 40
8.0
 40
8.0
 40
9.0
 40
9.0
 40
9.0
 40
10.0
 40
10.0
 40
10.0
 40
10.0
 10
504.2153496503
 20
19.5309842046
 30
0.0
 10
504.2153496503
 20
19.5309842046
 30
0.0
 10
504.2153496503
 20
18.8688689254
 30
0.0
 10
504.2153496503
 20
18.8688689254
 30
0.0
 10
504.2153496503
 20
18.5537753301
 30
0.0
 10
504.3632133392
 20
18.3391767021
 30
0.0
 10
504.7032998234
 20
18.3391767021
 30
0.0
 10
505.0428628965
 20
18.3391767021
 30
0.0
 10
505.1909882909
 20
18.5537753301
 30
0.0
 10
505.1909882909
 20
18.8688689254
 30
0.0
 10
505.1909882909
 20
18.8688689254
 30
0.0
 10
505.1909882909
 20
19.5309842046
 30
0.0
 10
505.1909882909
 20
19.5309842046
 30
0.0
 10
505.1909882909
 20
19.5309842046
 30
0.0
 10
504.968931052
 20
19.5309842046
 30
0.0
 10
504.968931052
 20
19.5309842046
 30
0.0
 10
504.968931052
 20
19.5309842046
 30
0.0
 10
504.968931052
 20
18.8939926672
 30
0.0
 10
504.968931052
 20
18.8939926672
 30
0.0
 10
504.968931052
 20
18.70818166
 30
0.0
 10
504.9222165946
 20
18.5454007495
 30
0.0
 10
504.7032998234
 20
18.5454007495
 30
0.0
 10
504.483859641
 20
18.5454007495
 30
0.0
 10
504.4371451836
 20
18.70818166
 30
0.0
 10
504.4371451836
 20
18.8939926672
 30
0.0
 10
504.4371451836
 20
18.8939926672
 30
0.0
 10
504.4371451836
 20
19.5309842046
 30
0.0
 10
504.4371451836
 20
19.5309842046
 30
0.0
 10
504.4371451836
 20
19.5309842046
 30
0.0
 10
504.2153496503
 20
19.5309842046
 30
0.0
 10
504.2153496503
 20
19.5309842046
 30
0.0
  0
SPLINE
  5
236
330
21D
100
AcDbEntity
  8
0
  6
Continuous
 62
     7
100
AcDbSpline
 70
     3
 71
     3
 72
    35
 73
    31
 74
     0
 42
0.000000001
 43
0.0000001
 40
0.0
 40
0.0
 40
0.0
 40
0.0
 40
1.0
 40
1.0
 40
1.0
 40
2.0
 40
2.0
 40
2.0
 40
3.0
 40
3.0
 40
3.0
 40
4.0
 40
4.0
 40
4.0
 40
5.0
 40
5.0
 40
5.0
 40
6.0
 40
6.0
 40
6.0
 40
7.0
 40
7.0
 40
7.0
 40
8.0
 40
8.0
 40
8.0
 40
9.0
 40
9.0
 40
9.0
 40
10.0
 40
10.0
 40
10.0
 40
10.0
 10
507.6141208481
 20
19.4896347128
 30
0.0
 10
507.5256643405
 20
19.540929019
 30
0.0
 10
507.4122149438
 20
19.5660527609
 30
0.0
 10
507.3085795088
 20
19.5660527609
 30
0.0
 10
506.9537066556
 20
19.5660527609
 30
0.0
 10
506.6782614654
 20
19.3022534718
 30
0.0
 10
506.6782614654
 20
18.9447635622
 30
0.0
 10
506.6782614654
 20
18.5998355235
 30
0.0
 10
506.9567162706
 20
18.3397001134
 30
0.0
 10
507.2962793436
 20
18.3397001134
 30
0.0
 10
507.4122149438
 20
18.3397001134
 30
0.0
 10
507.5129716167
 20
18.3616833875
 30
0.0
 10
507.6141208481
 20
18.4155947501
 30
0.0
 10
507.6141208481
 20
18.4155947501
 30
0.0
 10
507.6141208481
 20
18.6982368456
 30
0.0
 10
507.6141208481
 20
18.6982368456
 30
0.0
 10
507.5302441892
 20
18.6050696363
 30
0.0
 10
507.4267396071
 20
18.5459241608
 30
0.0
 10
507.2986346944
 20
18.5459241608
 30
0.0
 10
507.0649315543
 20
18.5459241608
 30
0.0
 10
506.8996644402
 20
18.7181264745
 30
0.0
 10
506.8996644402
 20
18.9547083766
 30
0.0
 10
506.8996644402
 20
19.1666899482
 30
0.0
 10
507.0674177579
 20
19.3587818909
 30
0.0
 10
507.2842408839
 20
19.3587818909
 30
0.0
 10
507.4170564982
 20
19.3587818909
 30
0.0
 10
507.5256643405
 20
19.3048705282
 30
0.0
 10
507.6141208481
 20
19.2038521497
 30
0.0
 10
507.6141208481
 20
19.2038521497
 30
0.0
 10
507.6141208481
 20
19.4896347128
 30
0.0
 10
507.6141208481
 20
19.4896347128
 30
0.0
  0
SPLINE
  5
237
330
21D
100
AcDbEntity
  8
0
  6
Continuous
 62
     7
100
AcDbSpline
 70
     3
 71
     3
 72
    32
 73
    28
 74
     0
 42
0.000000001
 43
0.0000001
 40
0.0
 40
0.0
 40
0.0
 40
0.0
 40
1.0
 40
1.0
 40
1.0
 40
2.0
 40
2.0
 40
2.0
 40
3.0
 40
3.0
 40
3.0
 40
4.0
 40
4.0
 40
4.0
 40
5.0
 40
5.0
 40
5.0
 40
6.0
 40
6.0
 40
6.0
 40
7.0
 40
7.0
 40
7.0
 40
8.0
 40
8.0
 40
8.0
 40
9.0
 40
9.0
 40
9.0
 40
9.0
 10
510.1459921004
 20
18.9180695865
 30
0.0
 10
510.1459921004
 20
18.9180695865
 30
0.0
 10
510.1459921004
 20
18.9520913202
 30
0.0
 10
510.1459921004
 20
18.9520913202
 30
0.0
 10
510.1459921004
 20
19.2944023025
 30
0.0
 10
509.9731355225
 20
19.5660527609
 30
0.0
 10
509.6064859154
 20
19.5660527609
 30
0.0
 10
509.234863901
 20
19.5660527609
 30
0.0
 10
509.0451273092
 20
19.2996364153
 30
0.0
 10
509.0451273092
 20
18.9447635622
 30
0.0
 10
509.0451273092
 20
18.6050696363
 30
0.0
 10
509.2592025259
 20
18.3391767021
 30
0.0
 10
509.6113274698
 20
18.3391767021
 30
0.0
 10
509.835347501
 20
18.3391767021
 30
0.0
 10
510.037515111
 20
18.4548505967
 30
0.0
 10
510.1459921004
 20
18.6542702974
 30
0.0
 10
510.1459921004
 20
18.6542702974
 30
0.0
 10
509.9583491537
 20
18.7610462001
 30
0.0
 10
509.9583491537
 20
18.7610462001
 30
0.0
 10
509.8748650532
 20
18.6223422088
 30
0.0
 10
509.7836606363
 20
18.5365027576
 30
0.0
 10
509.6140753791
 20
18.5365027576
 30
0.0
 10
509.4020938075
 20
18.5365027576
 30
0.0
 10
509.2691473404
 20
18.7212669422
 30
0.0
 10
509.2667919896
 20
18.9180695865
 30
0.0
 10
509.2667919896
 20
18.9180695865
 30
0.0
 10
510.1459921004
 20
18.9180695865
 30
0.0
 10
510.1459921004
 20
18.9180695865
 30
0.0
  0
SPLINE
  5
238
330
21D
100
AcDbEntity
  8
0
  6
Continuous
 62
     7
100
AcDbSpline
 70
     3
 71
     3
 72
    14
 73
    10
 74
     0
 42
0.000000001
 43
0.0000001
 40
0.0
 40
0.0
 40
0.0
 40
0.0
 40
1.0
 40
1.0
 40
1.0
 40
2.0
 40
2.0
 40
2.0
 40
3.0
 40
3.0
 40
3.0
 40
3.0
 10
509.2788304492
 20
19.0855611986
 30
0.0
 10
509.3064403946
 20
19.2504357543
 30
0.0
 10
509.4342836017
 20
19.3734374069
 30
0.0
 10
509.6064859154
 20
19.3734374069
 30
0.0
 10
509.7836606363
 20
19.3734374069
 30
0.0
 10
509.897110033
 20
19.2577635123
 30
0.0
 10
509.92432742
 20
19.0855611986
 30
0.0
 10
509.92432742
 20
19.0855611986
 30
0.0
 10
509.2788304492
 20
19.0855611986
 30
0.0
 10
509.2788304492
 20
19.0855611986
 30
0.0
  0
SPLINE
  5
239
330
21D
100
AcDbEntity
  8
0
  6
Continuous
 62
     7
100
AcDbSpline
 70
     3
 71
     3
 72
    20
 73
    16
 74
     0
 42
0.000000001
 43
0.0000001
 40
0.0
 40
0.0
 40
0.0
 40
0.0
 40
1.0
 40
1.0
 40
1.0
 40
2.0
 40
2.0
 40
2.0
 40
3.0
 40
3.0
 40
3.0
 40
4.0
 40
4.0
 40
4.0
 40
5.0
 40
5.0
 40
5.0
 40
5.0
 10
512.1700235506
 20
19.2949257137
 30
0.0
 10
512.1700235506
 20
19.2949257137
 30
0.0
 10
512.5811631172
 20
18.7924508774
 30
0.0
 10
512.5811631172
 20
18.7924508774
 30
0.0
 10
512.4650966641
 20
18.6767769828
 30
0.0
 10
512.3273086426
 20
18.5464475721
 30
0.0
 10
512.1553680345
 20
18.5464475721
 30
0.0
 10
511.9779316079
 20
18.5464475721
 30
0.0
 10
511.8104399958
 20
18.7107987165
 30
0.0
 10
511.8104399958
 20
18.8877117318
 30
0.0
 10
511.8104399958
 20
19.0656715697
 30
0.0
 10
512.0201970694
 20
19.19181369
 30
0.0
 10
512.1477785708
 20
19.2797467864
 30
0.0
 10
512.1477785708
 20
19.2797467864
 30
0.0
 10
512.1700235506
 20
19.2949257137
 30
0.0
 10
512.1700235506
 20
19.2949257137
 30
0.0
  0
SPLINE
  5
23A
330
21D
100
AcDbEntity
  8
0
  6
Continuous
 62
     7
100
AcDbSpline
 70
     3
 71
     3
 72
    23
 73
    19
 74
     0
 42
0.000000001
 43
0.0000001
 40
0.0
 40
0.0
 40
0.0
 40
0.0
 40
1.0
 40
1.0
 40
1.0
 40
2.0
 40
2.0
 40
2.0
 40
3.0
 40
3.0
 40
3.0
 40
4.0
 40
4.0
 40
4.0
 40
5.0
 40
5.0
 40
5.0
 40
6.0
 40
6.0
 40
6.0
 40
6.0
 10
512.2193550644
 20
19.5859423898
 30
0.0
 10
512.2193550644
 20
19.5859423898
 30
0.0
 10
512.1577233853
 20
19.664454083
 30
0.0
 10
512.1577233853
 20
19.664454083
 30
0.0
 10
512.1038120226
 20
19.7330209617
 30
0.0
 10
512.0470218979
 20
19.8021112517
 30
0.0
 10
512.0470218979
 20
19.8958018722
 30
0.0
 10
512.0470218979
 20
20.0146162346
 30
0.0
 10
512.1429370164
 20
20.0920811052
 30
0.0
 10
512.2539002094
 20
20.0920811052
 30
0.0
 10
512.3771635677
 20
20.0920811052
 30
0.0
 10
512.4704616298
 20
20.02089717
 30
0.0
 10
512.4704616298
 20
19.8905677593
 30
0.0
 10
512.4704616298
 20
19.7555276471
 30
0.0
 10
512.3423567171
 20
19.679109599
 30
0.0
 10
512.2487969494
 20
19.6053086074
 30
0.0
 10
512.2487969494
 20
19.6053086074
 30
0.0
 10
512.2193550644
 20
19.5859423898
 30
0.0
 10
512.2193550644
 20
19.5859423898
 30
0.0
  0
SPLINE
  5
23B
330
21D
100
AcDbEntity
  8
0
  6
Continuous
 62
     7
100
AcDbSpline
 70
     3
 71
     3
 72
    50
 73
    46
 74
     0
 42
0.000000001
 43
0.0000001
 40
0.0
 40
0.0
 40
0.0
 40
0.0
 40
1.0
 40
1.0
 40
1.0
 40
2.0
 40
2.0
 40
2.0
 40
3.0
 40
3.0
 40
3.0
 40
4.0
 40
4.0
 40
4.0
 40
5.0
 40
5.0
 40
5.0
 40
6.0
 40
6.0
 40
6.0
 40
7.0
 40
7.0
 40
7.0
 40
8.0
 40
8.0
 40
8.0
 40
9.0
 40
9.0
 40
9.0
 40
10.0
 40
10.0
 40
10.0
 40
11.0
 40
11.0
 40
11.0
 40
12.0
 40
12.0
 40
12.0
 40
13.0
 40
13.0
 40
13.0
 40
14.0
 40
14.0
 40
14.0
 40
15.0
 40
15.0
 40
15.0
 40
15.0
 10
512.9215113071
 20
18.37895596
 30
0.0
 10
512.9215113071
 20
18.37895596
 30
0.0
 10
513.2069013118
 20
18.37895596
 30
0.0
 10
513.2069013118
 20
18.37895596
 30
0.0
 10
513.2069013118
 20
18.37895596
 30
0.0
 10
512.874535144
 20
18.7898338209
 30
0.0
 10
512.874535144
 20
18.7898338209
 30
0.0
 10
512.874535144
 20
18.7898338209
 30
0.0
 10
513.1010413789
 20
19.0557267552
 30
0.0
 10
513.1010413789
 20
19.0557267552
 30
0.0
 10
513.1010413789
 20
19.0557267552
 30
0.0
 10
512.9527851316
 20
19.2085628512
 30
0.0
 10
512.9527851316
 20
19.2085628512
 30
0.0
 10
512.9527851316
 20
19.2085628512
 30
0.0
 10
512.7368779753
 20
18.9573254331
 30
0.0
 10
512.7368779753
 20
18.9573254331
 30
0.0
 10
512.7368779753
 20
18.9573254331
 30
0.0
 10
512.3498153279
 20
19.4252551244
 30
0.0
 10
512.3498153279
 20
19.4252551244
 30
0.0
 10
512.5052684804
 20
19.5393587852
 30
0.0
 10
512.6875464614
 20
19.679109599
 30
0.0
 10
512.6875464614
 20
19.8884741142
 30
0.0
 10
512.6875464614
 20
20.1323837743
 30
0.0
 10
512.4855097043
 20
20.2757984672
 30
0.0
 10
512.2590034695
 20
20.2757984672
 30
0.0
 10
512.0148321037
 20
20.2757984672
 30
0.0
 10
511.8304604776
 20
20.1250560163
 30
0.0
 10
511.8304604776
 20
19.8685844852
 30
0.0
 10
511.8304604776
 20
19.7110376876
 30
0.0
 10
511.9291235053
 20
19.5733805189
 30
0.0
 10
512.034460027
 20
19.4624173259
 30
0.0
 10
512.034460027
 20
19.4624173259
 30
0.0
 10
511.9189169852
 20
19.3786715198
 30
0.0
 10
511.9189169852
 20
19.3786715198
 30
0.0
 10
511.741218853
 20
19.2504357543
 30
0.0
 10
511.5938785754
 20
19.1227234
 30
0.0
 10
511.5938785754
 20
18.8856180866
 30
0.0
 10
511.5938785754
 20
18.5652903785
 30
0.0
 10
511.8524437516
 20
18.3391767021
 30
0.0
 10
512.1628266454
 20
18.3391767021
 30
0.0
 10
512.3817434165
 20
18.3391767021
 30
0.0
 10
512.5789386192
 20
18.4642719999
 30
0.0
 10
512.7192128444
 20
18.6301933781
 30
0.0
 10
512.7192128444
 20
18.6301933781
 30
0.0
 10
512.9215113071
 20
18.37895596
 30
0.0
 10
512.9215113071
 20
18.37895596
 30
0.0
  0
LWPOLYLINE
  5
23C
330
21D
100
AcDbEntity
  8
0
  6
Continuous
 62
     7
100
AcDbPolyline
 90
        2
 70
     0
 43
0.2
 10
514.856955
 20
20.235496
 10
514.625608
 20
20.235496
  0
LWPOLYLINE
  5
23D
330
21D
100
AcDbEntity
  8
0
  6
Continuous
 62
     7
100
AcDbPolyline
 90
        2
 70
     0
 43
0.2
 10
514.625608
 20
20.235496
 10
514.625608
 20
18.378433
  0
LWPOLYLINE
  5
23E
330
21D
100
AcDbEntity
  8
0
  6
Continuous
 62
     7
100
AcDbPolyline
 90
        2
 70
     0
 43
0.2
 10
514.625608
 20
18.378433
 10
515.420931
 20
18.378433
  0
LWPOLYLINE
  5
23F
330
21D
100
AcDbEntity
  8
0
  6
Continuous
 62
     7
100
AcDbPolyline
 90
        2
 70
     0
 43
0.2
 10
515.420931
 20
18.378433
 10
515.420931
 20
18.590414
  0
LWPOLYLINE
  5
240
330
21D
100
AcDbEntity
  8
0
  6
Continuous
 62
     7
100
AcDbPolyline
 90
        2
 70
     0
 43
0.2
 10
515.420931
 20
18.590414
 10
514.856955
 20
18.590414
  0
LWPOLYLINE
  5
241
330
21D
100
AcDbEntity
  8
0
  6
Continuous
 62
     7
100
AcDbPolyline
 90
        2
 70
     0
 43
0.2
 10
514.856955
 20
18.590414
 10
514.856955
 20
20.235496
  0
LWPOLYLINE
  5
242
330
21D
100
AcDbEntity
  8
0
  6
Continuous
 62
     7
100
AcDbPolyline
 90
        2
 70
     0
 43
0.2
 10
517.100034
 20
19.530984
 10
516.878893
 20
19.530984
  0
LWPOLYLINE
  5
243
330
21D
100
AcDbEntity
  8
0
  6
Continuous
 62
     7
100
AcDbPolyline
 90
        2
 70
     0
 43
0.2
 10
516.878893
 20
19.530984
 10
516.878893
 20
18.378956
  0
LWPOLYLINE
  5
244
330
21D
100
AcDbEntity
  8
0
  6
Continuous
 62
     7
100
AcDbPolyline
 90
        2
 70
     0
 43
0.2
 10
516.878893
 20
18.378956
 10
517.100034
 20
18.378956
  0
LWPOLYLINE
  5
245
330
21D
100
AcDbEntity
  8
0
  6
Continuous
 62
     7
100
AcDbPolyline
 90
        2
 70
     0
 43
0.2
 10
517.100034
 20
18.378956
 10
517.100034
 20
19.530984
  0
LWPOLYLINE
  5
246
330
21D
100
AcDbEntity
  8
0
  6
Continuous
 62
     7
100
AcDbPolyline
 90
        2
 70
     1
 43
0.2
 10
516.837011
 20
20.060938
 42
1.0
 10
517.142178
 20
20.060938
 42
1.0
  0
SPLINE
  5
247
330
21D
100
AcDbEntity
  8
0
  6
Continuous
 62
     7
100
AcDbSpline
 70
     3
 71
     3
 72
    17
 73
    13
 74
     0
 42
0.000000001
 43
0.0000001
 40
0.0
 40
0.0
 40
0.0
 40
0.0
 40
1.0
 40
1.0
 40
1.0
 40
2.0
 40
2.0
 40
2.0
 40
3.0
 40
3.0
 40
3.0
 40
4.0
 40
4.0
 40
4.0
 40
4.0
 10
519.2303184126
 20
18.5365027576
 30
0.0
 10
518.996353567
 20
18.5365027576
 30
0.0
 10
518.8660241563
 20
18.7385395147
 30
0.0
 10
518.8660241563
 20
18.9547083766
 30
0.0
 10
518.8660241563
 20
19.1693070047
 30
0.0
 10
519.0018493855
 20
19.368203294
 30
0.0
 10
519.2303184126
 20
19.368203294
 30
0.0
 10
519.4697790768
 20
19.368203294
 30
0.0
 10
519.6053426004
 20
19.1792518191
 30
0.0
 10
519.6053426004
 20
18.9547083766
 30
0.0
 10
519.6053426004
 20
18.7285947003
 30
0.0
 10
519.4721344276
 20
18.5365027576
 30
0.0
 10
519.2303184126
 20
18.5365027576
 30
0.0
  0
SPLINE
  5
248
330
21D
100
AcDbEntity
  8
0
  6
Continuous
 62
     7
100
AcDbSpline
 70
     3
 71
     3
 72
    50
 73
    46
 74
     0
 42
0.000000001
 43
0.0000001
 40
0.0
 40
0.0
 40
0.0
 40
0.0
 40
1.0
 40
1.0
 40
1.0
 40
2.0
 40
2.0
 40
2.0
 40
3.0
 40
3.0
 40
3.0
 40
4.0
 40
4.0
 40
4.0
 40
5.0
 40
5.0
 40
5.0
 40
6.0
 40
6.0
 40
6.0
 40
7.0
 40
7.0
 40
7.0
 40
8.0
 40
8.0
 40
8.0
 40
9.0
 40
9.0
 40
9.0
 40
10.0
 40
10.0
 40
10.0
 40
11.0
 40
11.0
 40
11.0
 40
12.0
 40
12.0
 40
12.0
 40
13.0
 40
13.0
 40
13.0
 40
14.0
 40
14.0
 40
14.0
 40
15.0
 40
15.0
 40
15.0
 40
15.0
 10
519.8144454099
 20
19.5315076159
 30
0.0
 10
519.8144454099
 20
19.5315076159
 30
0.0
 10
519.5927807295
 20
19.5315076159
 30
0.0
 10
519.5927807295
 20
19.5315076159
 30
0.0
 10
519.5927807295
 20
19.5315076159
 30
0.0
 10
519.5927807295
 20
19.3341815603
 30
0.0
 10
519.5927807295
 20
19.3341815603
 30
0.0
 10
519.5927807295
 20
19.3341815603
 30
0.0
 10
519.5880700279
 20
19.3341815603
 30
0.0
 10
519.5880700279
 20
19.3341815603
 30
0.0
 10
519.4967347582
 20
19.4770728419
 30
0.0
 10
519.3588158838
 20
19.5655293496
 30
0.0
 10
519.1860901588
 20
19.5655293496
 30
0.0
 10
518.853723991
 20
19.5655293496
 30
0.0
 10
518.6446211815
 20
19.2776531412
 30
0.0
 10
518.6446211815
 20
18.9620361347
 30
0.0
 10
518.6446211815
 20
18.6322870233
 30
0.0
 10
518.8416855314
 20
18.3391767021
 30
0.0
 10
519.1965583846
 20
18.3391767021
 30
0.0
 10
519.3588158838
 20
18.3391767021
 30
0.0
 10
519.4988284033
 20
18.4276332097
 30
0.0
 10
519.5880700279
 20
18.5584860317
 30
0.0
 10
519.5880700279
 20
18.5584860317
 30
0.0
 10
519.5927807295
 20
18.5584860317
 30
0.0
 10
519.5927807295
 20
18.5584860317
 30
0.0
 10
519.5927807295
 20
18.5584860317
 30
0.0
 10
519.5927807295
 20
18.3391767021
 30
0.0
 10
519.5927807295
 20
18.3391767021
 30
0.0
 10
519.5927807295
 20
18.1025948
 30
0.0
 10
519.5362523104
 20
17.9157369702
 30
0.0
 10
519.2630316181
 20
17.9157369702
 30
0.0
 10
519.0607331554
 20
17.9157369702
 30
0.0
 10
518.9181035794
 20
18.0340279213
 30
0.0
 10
518.9181035794
 20
18.2402519687
 30
0.0
 10
518.9181035794
 20
18.2402519687
 30
0.0
 10
518.696438899
 20
18.2402519687
 30
0.0
 10
518.696438899
 20
18.2402519687
 30
0.0
 10
518.7014113062
 20
17.9157369702
 30
0.0
 10
518.9324973898
 20
17.718934326
 30
0.0
 10
519.252825098
 20
17.718934326
 30
0.0
 10
519.7008651604
 20
17.718934326
 30
0.0
 10
519.8144454099
 20
18.0041934779
 30
0.0
 10
519.8144454099
 20
18.4009392341
 30
0.0
 10
519.8144454099
 20
18.4009392341
 30
0.0
 10
519.8144454099
 20
19.5315076159
 30
0.0
 10
519.8144454099
 20
19.5315076159
 30
0.0
  0
SPLINE
  5
249
330
21D
100
AcDbEntity
  8
0
  6
Continuous
 62
     7
100
AcDbSpline
 70
     3
 71
     3
 72
    44
 73
    40
 74
     0
 42
0.000000001
 43
0.0000001
 40
0.0
 40
0.0
 40
0.0
 40
0.0
 40
1.0
 40
1.0
 40
1.0
 40
2.0
 40
2.0
 40
2.0
 40
3.0
 40
3.0
 40
3.0
 40
4.0
 40
4.0
 40
4.0
 40
5.0
 40
5.0
 40
5.0
 40
6.0
 40
6.0
 40
6.0
 40
7.0
 40
7.0
 40
7.0
 40
8.0
 40
8.0
 40
8.0
 40
9.0
 40
9.0
 40
9.0
 40
10.0
 40
10.0
 40
10.0
 40
11.0
 40
11.0
 40
11.0
 40
12.0
 40
12.0
 40
12.0
 40
13.0
 40
13.0
 40
13.0
 40
13.0
 10
521.3833707453
 20
20.5165676596
 30
0.0
 10
521.3833707453
 20
20.5165676596
 30
0.0
 10
521.3833707453
 20
18.3784325487
 30
0.0
 10
521.3833707453
 20
18.3784325487
 30
0.0
 10
521.3833707453
 20
18.3784325487
 30
0.0
 10
521.6047737201
 20
18.3784325487
 30
0.0
 10
521.6047737201
 20
18.3784325487
 30
0.0
 10
521.6047737201
 20
18.3784325487
 30
0.0
 10
521.6047737201
 20
18.908124772
 30
0.0
 10
521.6047737201
 20
18.908124772
 30
0.0
 10
521.6047737201
 20
19.1180126984
 30
0.0
 10
521.6047737201
 20
19.3687267053
 30
0.0
 10
521.890032872
 20
19.3687267053
 30
0.0
 10
522.1169316652
 20
19.3687267053
 30
0.0
 10
522.1438873466
 20
19.2357802382
 30
0.0
 10
522.1438873466
 20
19.0395010053
 30
0.0
 10
522.1438873466
 20
19.0395010053
 30
0.0
 10
522.1438873466
 20
18.3784325487
 30
0.0
 10
522.1438873466
 20
18.3784325487
 30
0.0
 10
522.1438873466
 20
18.3784325487
 30
0.0
 10
522.3658137326
 20
18.3784325487
 30
0.0
 10
522.3658137326
 20
18.3784325487
 30
0.0
 10
522.3658137326
 20
18.3784325487
 30
0.0
 10
522.3658137326
 20
19.0656715697
 30
0.0
 10
522.3658137326
 20
19.0656715697
 30
0.0
 10
522.3658137326
 20
19.34622002
 30
0.0
 10
522.2818062209
 20
19.5660527609
 30
0.0
 10
521.9567678112
 20
19.5660527609
 30
0.0
 10
521.8170169973
 20
19.5660527609
 30
0.0
 10
521.6788364173
 20
19.4995795273
 30
0.0
 10
521.6094844217
 20
19.3765778747
 30
0.0
 10
521.6094844217
 20
19.3765778747
 30
0.0
 10
521.6047737201
 20
19.3765778747
 30
0.0
 10
521.6047737201
 20
19.3765778747
 30
0.0
 10
521.6047737201
 20
19.3765778747
 30
0.0
 10
521.6047737201
 20
20.5165676596
 30
0.0
 10
521.6047737201
 20
20.5165676596
 30
0.0
 10
521.6047737201
 20
20.5165676596
 30
0.0
 10
521.3833707453
 20
20.5165676596
 30
0.0
 10
521.3833707453
 20
20.5165676596
 30
0.0
  0
LWPOLYLINE
  5
24A
330
21D
100
AcDbEntity
  8
0
  6
Continuous
 62
     7
100
AcDbPolyline
 90
        2
 70
     0
 43
0.2
 10
524.205604
 20
19.324237
 10
524.422035
 20
19.324237
  0
LWPOLYLINE
  5
24B
330
21D
100
AcDbEntity
  8
0
  6
Continuous
 62
     7
100
AcDbPolyline
 90
        2
 70
     0
 43
0.2
 10
524.422035
 20
19.324237
 10
524.422035
 20
19.530984
  0
LWPOLYLINE
  5
24C
330
21D
100
AcDbEntity
  8
0
  6
Continuous
 62
     7
100
AcDbPolyline
 90
        2
 70
     0
 43
0.2
 10
524.422035
 20
19.530984
 10
524.205604
 20
19.530984
  0
LWPOLYLINE
  5
24D
330
21D
100
AcDbEntity
  8
0
  6
Continuous
 62
     7
100
AcDbPolyline
 90
        2
 70
     0
 43
0.2
 10
524.205604
 20
19.530984
 10
524.205604
 20
19.971697
  0
LWPOLYLINE
  5
24E
330
21D
100
AcDbEntity
  8
0
  6
Continuous
 62
     7
100
AcDbPolyline
 90
        2
 70
     0
 43
0.2
 10
524.205604
 20
19.971697
 10
523.98394
 20
19.971697
  0
LWPOLYLINE
  5
24F
330
21D
100
AcDbEntity
  8
0
  6
Continuous
 62
     7
100
AcDbPolyline
 90
        2
 70
     0
 43
0.2
 10
523.98394
 20
19.971697
 10
523.98394
 20
19.530984
  0
LWPOLYLINE
  5
250
330
21D
100
AcDbEntity
  8
0
  6
Continuous
 62
     7
100
AcDbPolyline
 90
        2
 70
     0
 43
0.2
 10
523.98394
 20
19.530984
 10
523.863293
 20
19.530984
  0
LWPOLYLINE
  5
251
330
21D
100
AcDbEntity
  8
0
  6
Continuous
 62
     7
100
AcDbPolyline
 90
        2
 70
     0
 43
0.2
 10
523.863293
 20
19.530984
 10
523.863293
 20
19.324237
  0
LWPOLYLINE
  5
252
330
21D
100
AcDbEntity
  8
0
  6
Continuous
 62
     7
100
AcDbPolyline
 90
        2
 70
     0
 43
0.2
 10
523.863293
 20
19.324237
 10
523.98394
 20
19.324237
  0
LWPOLYLINE
  5
253
330
21D
100
AcDbEntity
  8
0
  6
Continuous
 62
     7
100
AcDbPolyline
 90
        2
 70
     0
 43
0.2
 10
523.98394
 20
19.324237
 10
523.98394
 20
18.378433
  0
LWPOLYLINE
  5
254
330
21D
100
AcDbEntity
  8
0
  6
Continuous
 62
     7
100
AcDbPolyline
 90
        2
 70
     0
 43
0.2
 10
523.98394
 20
18.378433
 10
524.205604
 20
18.378433
  0
LWPOLYLINE
  5
255
330
21D
100
AcDbEntity
  8
0
  6
Continuous
 62
     7
100
AcDbPolyline
 90
        2
 70
     0
 43
0.2
 10
524.205604
 20
18.378433
 10
524.205604
 20
19.324237
  0
SPLINE
  5
256
330
21D
100
AcDbEntity
  8
0
  6
Continuous
 62
     7
100
AcDbSpline
 70
     3
 71
     3
 72
    20
 73
    16
 74
     0
 42
0.000000001
 43
0.0000001
 40
0.0
 40
0.0
 40
0.0
 40
0.0
 40
1.0
 40
1.0
 40
1.0
 40
2.0
 40
2.0
 40
2.0
 40
3.0
 40
3.0
 40
3.0
 40
4.0
 40
4.0
 40
4.0
 40
5.0
 40
5.0
 40
5.0
 40
5.0
 10
511.9876147167
 20
28.7393589921
 30
0.0
 10
511.9876147167
 20
28.7393589921
 30
0.0
 10
514.3039713712
 20
25.9097975698
 30
0.0
 10
514.3039713712
 20
25.9097975698
 30
0.0
 10
513.6523243178
 20
25.2576271052
 30
0.0
 10
512.8754511138
 20
24.5217108344
 30
0.0
 10
511.9042614691
 20
24.5217108344
 30
0.0
 10
510.9057235847
 20
24.5217108344
 30
0.0
 10
509.9624055911
 20
25.4512892817
 30
0.0
 10
509.9624055911
 20
26.4504814302
 30
0.0
 10
509.9624055911
 20
27.4496735788
 30
0.0
 10
511.1412586643
 20
28.1562788174
 30
0.0
 10
511.8627811246
 20
28.6561365973
 30
0.0
 10
511.8627811246
 20
28.6561365973
 30
0.0
 10
511.9876147167
 20
28.7393589921
 30
0.0
 10
511.9876147167
 20
28.7393589921
 30
0.0
  0
SPLINE
  5
257
330
21D
100
AcDbEntity
  8
0
  6
Continuous
 62
     7
100
AcDbSpline
 70
     3
 71
     3
 72
    23
 73
    19
 74
     0
 42
0.000000001
 43
0.0000001
 40
0.0
 40
0.0
 40
0.0
 40
0.0
 40
1.0
 40
1.0
 40
1.0
 40
2.0
 40
2.0
 40
2.0
 40
3.0
 40
3.0
 40
3.0
 40
4.0
 40
4.0
 40
4.0
 40
5.0
 40
5.0
 40
5.0
 40
6.0
 40
6.0
 40
6.0
 40
6.0
 10
512.2650226993
 20
30.3771129118
 30
0.0
 10
512.2650226993
 20
30.3771129118
 30
0.0
 10
511.9185244267
 20
30.8204422726
 30
0.0
 10
511.9185244267
 20
30.8204422726
 30
0.0
 10
511.6127213818
 20
31.2085517426
 30
0.0
 10
511.2938330547
 20
31.597053771
 30
0.0
 10
511.2938330547
 20
32.1239980851
 30
0.0
 10
511.2938330547
 20
32.7901698017
 30
0.0
 10
511.8351711791
 20
33.233891721
 30
0.0
 10
512.4590774343
 20
33.233891721
 30
0.0
 10
513.1528590964
 20
33.233891721
 30
0.0
 10
513.6800651161
 20
32.8316501463
 30
0.0
 10
513.6800651161
 20
32.0966498453
 30
0.0
 10
513.6800651161
 20
31.3333853348
 30
0.0
 10
512.9588043614
 20
30.9032721089
 30
0.0
 10
512.4317291945
 20
30.4875526936
 30
0.0
 10
512.4317291945
 20
30.4875526936
 30
0.0
 10
512.2650226993
 20
30.3771129118
 30
0.0
 10
512.2650226993
 20
30.3771129118
 30
0.0
  0
SPLINE
  5
258
330
21D
100
AcDbEntity
  8
0
  6
Continuous
 62
     7
100
AcDbSpline
 70
     3
 71
     3
 72
    50
 73
    46
 74
     0
 42
0.000000001
 43
0.0000001
 40
0.0
 40
0.0
 40
0.0
 40
0.0
 40
1.0
 40
1.0
 40
1.0
 40
2.0
 40
2.0
 40
2.0
 40
3.0
 40
3.0
 40
3.0
 40
4.0
 40
4.0
 40
4.0
 40
5.0
 40
5.0
 40
5.0
 40
6.0
 40
6.0
 40
6.0
 40
7.0
 40
7.0
 40
7.0
 40
8.0
 40
8.0
 40
8.0
 40
9.0
 40
9.0
 40
9.0
 40
10.0
 40
10.0
 40
10.0
 40
11.0
 40
11.0
 40
11.0
 40
12.0
 40
12.0
 40
12.0
 40
13.0
 40
13.0
 40
13.0
 40
14.0
 40
14.0
 40
14.0
 40
15.0
 40
15.0
 40
15.0
 40
15.0
 10
516.2186098622
 20
23.5785236937
 30
0.0
 10
516.2186098622
 20
23.5785236937
 30
0.0
 10
517.8278378668
 20
23.5785236937
 30
0.0
 10
517.8278378668
 20
23.5785236937
 30
0.0
 10
517.8278378668
 20
23.5785236937
 30
0.0
 10
515.9548105731
 20
25.8956654651
 30
0.0
 10
515.9548105731
 20
25.8956654651
 30
0.0
 10
515.9548105731
 20
25.8956654651
 30
0.0
 10
517.2311489986
 20
27.3931451597
 30
0.0
 10
517.2311489986
 20
27.3931451597
 30
0.0
 10
517.2311489986
 20
27.3931451597
 30
0.0
 10
516.3989250509
 20
28.2541567282
 30
0.0
 10
516.3989250509
 20
28.2541567282
 30
0.0
 10
516.3989250509
 20
28.2541567282
 30
0.0
 10
515.1783299276
 20
26.8388526058
 30
0.0
 10
515.1783299276
 20
26.8388526058
 30
0.0
 10
515.1783299276
 20
26.8388526058
 30
0.0
 10
513.0004155588
 20
29.4742284402
 30
0.0
 10
513.0004155588
 20
29.4742284402
 30
0.0
 10
513.8739889982
 20
30.1122668002
 30
0.0
 10
514.9006602394
 20
30.9032721089
 30
0.0
 10
514.9006602394
 20
32.0821251821
 30
0.0
 10
514.9006602394
 20
33.4558181071
 30
0.0
 10
513.7627640995
 20
34.2603012565
 30
0.0
 10
512.4874724967
 20
34.2603012565
 30
0.0
 10
511.1140412773
 20
34.2603012565
 30
0.0
 10
510.0731070785
 20
33.4140760569
 30
0.0
 10
510.0731070785
 20
31.9714236947
 30
0.0
 10
510.0731070785
 20
31.0838490033
 30
0.0
 10
510.628446455
 20
30.3069757992
 30
0.0
 10
511.2246119118
 20
29.6825461328
 30
0.0
 10
511.2246119118
 20
29.6825461328
 30
0.0
 10
510.5727031528
 20
29.2109525624
 30
0.0
 10
510.5727031528
 20
29.2109525624
 30
0.0
 10
509.5741652684
 20
28.4896918078
 30
0.0
 10
508.7412870565
 20
27.7684310531
 30
0.0
 10
508.7412870565
 20
26.4368727367
 30
0.0
 10
508.7412870565
 20
24.6331974387
 30
0.0
 10
510.1983332292
 20
23.3565973076
 30
0.0
 10
511.9458726665
 20
23.3565973076
 30
0.0
 10
513.1807307474
 20
23.3565973076
 30
0.0
 10
514.2901009721
 20
24.0647727801
 30
0.0
 10
515.080975428
 20
24.9933044048
 30
0.0
 10
515.080975428
 20
24.9933044048
 30
0.0
 10
516.2186098622
 20
23.5785236937
 30
0.0
 10
516.2186098622
 20
23.5785236937
 30
0.0
  0
LINE
  5
259
330
21D
100
AcDbEntity
  8
0
  6
Continuous
 62
     7
100
AcDbLine
 10
502.021471
 20
21.552399
 30
0.0
 11
524.435382
 21
21.552399
 31
0.0
  0
LINE
  5
25A
330
21D
100
AcDbEntity
  8
0
  6
Continuous
 62
     7
100
AcDbLine
 10
524.435382
 20
21.552399
 30
0.0
 11
524.435382
 21
43.966309
 31
0.0
  0
LINE
  5
25B
330
21D
100
AcDbEntity
  8
0
  6
Continuous
 62
     7
100
AcDbLine
 10
524.435382
 20
43.966309
 30
0.0
 11
502.021471
 21
43.966309
 31
0.0
  0
LINE
  5
25C
330
21D
100
AcDbEntity
  8
0
  6
Continuous
 62
     7
100
AcDbLine
 10
502.021471
 20
43.966309
 30
0.0
 11
502.021471
 21
21.552399
 31
0.0
  0
ENDBLK
  5
25D
330
21D
100
AcDbEntity
  8
0
  6
ByBlock
 62
     0
100
AcDbBlockEnd
  0
BLOCK
  5
297
330
21E
100
AcDbEntity
  8
0
100
AcDbBlockBegin
  2
*T8
 70
     1
 10
0.0
 20
0.0
 30
0.0
  3
*T8
  1
*T8
  0
LINE
  5
298
330
21E
100
AcDbEntity
  8
0
  6
Continuous
 62
     2
100
AcDbLine
 10
0.0
 20
0.0
 30
0.0
 11
90.0
 21
0.0
 31
0.0
  0
LINE
  5
299
330
21E
100
AcDbEntity
  8
0
  6
Continuous
 62
     2
100
AcDbLine
 10
0.0
 20
0.0
 30
0.0
 11
0.0
 21
-40.0
 31
0.0
  0
LINE
  5
29A
330
21E
100
AcDbEntity
  8
0
  6
Continuous
 62
     2
100
AcDbLine
 10
30.0
 20
-6.0
 30
0.0
 11
90.0
 21
-6.0
 31
0.0
  0
LINE
  5
29B
330
21E
100
AcDbEntity
  8
0
  6
Continuous
 62
     2
100
AcDbLine
 10
30.0
 20
-12.0
 30
0.0
 11
90.0
 21
-12.0
 31
0.0
  0
LINE
  5
29C
330
21E
100
AcDbEntity
  8
0
  6
Continuous
 62
     2
100
AcDbLine
 10
30.0
 20
-22.0
 30
0.0
 11
90.0
 21
-22.0
 31
0.0
  0
LINE
  5
29D
330
21E
100
AcDbEntity
  8
0
  6
Continuous
 62
     2
100
AcDbLine
 10
0.0
 20
-27.0
 30
0.0
 11
90.0
 21
-27.0
 31
0.0
  0
LINE
  5
29E
330
21E
100
AcDbEntity
  8
0
  6
Continuous
 62
     2
100
AcDbLine
 10
0.0
 20
-40.0
 30
0.0
 11
90.0
 21
-40.0
 31
0.0
  0
LINE
  5
29F
330
21E
100
AcDbEntity
  8
0
  6
Continuous
 62
     2
100
AcDbLine
 10
30.0
 20
0.0
 30
0.0
 11
30.0
 21
-27.0
 31
0.0
  0
LINE
  5
2A0
330
21E
100
AcDbEntity
  8
0
  6
Continuous
 62
     2
100
AcDbLine
 10
70.0
 20
0.0
 30
0.0
 11
70.0
 21
-12.0
 31
0.0
  0
LINE
  5
2A1
330
21E
100
AcDbEntity
  8
0
  6
Continuous
 62
     2
100
AcDbLine
 10
90.0
 20
0.0
 30
0.0
 11
90.0
 21
-40.0
 31
0.0
  0
MTEXT
  5
2A2
330
21E
100
AcDbEntity
  8
9_SOLID
  6
Continuous
 62
     2
100
AcDbMText
 10
31.4875
 20
-1.5
 30
0.0
 40
3.0
 41
48.914498
 46
0.0
 71
     1
 72
     1
  1
A299_C_401
  7
TEXTSTYLE_2
 73
     1
 44
0.9
  0
MTEXT
  5
2A3
330
21E
100
AcDbEntity
  8
9_SOLID
  6
Continuous
 62
     2
100
AcDbMText
 10
71.4875
 20
-1.25
 30
0.0
 40
3.5
 41
30.966543
 46
0.0
 71
     1
 72
     1
  1
Rev:00
  7
TEXTSTYLE_2
 73
     1
 44
0.9
  0
MTEXT
  5
2A4
330
21E
100
AcDbEntity
  8
9_SOLID
  6
Continuous
 62
     2
100
AcDbMText
 10
31.4875
 20
-7.75
 30
0.0
 40
3.5
 41
40.724907
 46
0.0
 71
     1
 72
     1
  1
Scale:1:1
  7
TEXTSTYLE_2
 73
     1
 44
0.9
  0
MTEXT
  5
2A5
330
21E
100
AcDbEntity
  8
9_SOLID
  6
Continuous
 62
     2
100
AcDbMText
 10
71.4875
 20
-7.25
 30
0.0
 40
3.5
 41
11.944238
 46
0.0
 71
     1
 72
     1
  1
A2
  7
TEXTSTYLE_2
 73
     1
 44
0.9
  0
MTEXT
  5
2A6
330
21E
100
AcDbEntity
  8
9_SOLID
  6
Continuous
 62
     2
100
AcDbMText
 10
31.4875
 20
-15.5
 30
0.0
 40
3.0
 41
103.204461
 46
0.0
 71
     1
 72
     1
  1
GINKO 3.5 SAGOMATORE
  7
TEXTSTYLE_2
 73
     1
 44
0.9
  0
MTEXT
  5
2A7
330
21E
100
AcDbEntity
  8
9_SOLID
  6
Continuous
 62
     2
100
AcDbMText
 10
31.4875
 20
-23.25
 30
0.0
 40
2.5
 41
47.695167
 46
0.0
 71
     1
 72
     1
  1
DATE:24.11.23
  7
TEXTSTYLE_2
 73
     1
 44
0.9
  0
MTEXT
  5
2A8
330
21E
100
AcDbEntity
  8
9_SOLID
  6
Continuous
 62
     2
100
AcDbMText
 10
1.4875
 20
-27.3125
 30
0.0
 40
2.25
 41
148.98513
 46
0.0
 71
     1
 72
     1
  1
Any integral or partial reproductions are prohibited \Pwithout prior authorisation of L & L Luce & Light s.r.l., \Pin accordance with the law in force. \PAll rights reserved.
  7
TEXTSTYLE_3
 73
     1
 44
0.9
  0
ENDBLK
  5
2A9
330
21E
100
AcDbEntity
  8
0
  6
ByBlock
 62
     0
100
AcDbBlockEnd
  0
ENDSEC
  0
SECTION
  2
ENTITIES
  0
DIMENSION
  5
2AA
330
214
100
AcDbEntity
  8
0
  6
Continuous
 62
     2
100
AcDbDimension
280
     0
  2
*D1
 10
324.070546
 20
262.44818
 30
0.0
 11
324.070546
 21
299.962427
 31
0.0
 70
   160
 71
     2
 42
75.0
 73
     0
 74
     0
 75
     0
  3
DIMSTYLE_1
100
AcDbAlignedDimension
 13
344.497488
 23
337.44818
 33
0.0
 14
344.221022
 24
262.44818
 34
0.0
 50
270.0
100
AcDbRotatedDimension
  0
DIMENSION
  5
2AB
330
214
100
AcDbEntity
  8
0
  6
Continuous
 62
     2
100
AcDbDimension
280
     0
  2
*D2
 10
180.941918
 20
241.309954
 30
0.0
 11
138.928299
 21
241.309954
 31
0.0
 70
   160
 71
     2
 42
84.0
 73
     0
 74
     0
 75
     0
  3
DIMSTYLE_1
100
AcDbAlignedDimension
 13
96.941918
 23
252.603218
 33
0.0
 14
180.941918
 24
253.158546
 34
0.0
100
AcDbRotatedDimension
  0
DIMENSION
  5
2AC
330
214
100
AcDbEntity
  8
0
  6
Continuous
 62
     2
100
AcDbDimension
280
     0
  2
*D3
 10
221.989611
 20
262.44818
 30
0.0
 11
221.989611
 21
321.07707
 31
0.0
 70
   160
 71
     2
 42
117.0
 73
     0
 74
     0
 75
     0
  3
DIMSTYLE_1
100
AcDbAlignedDimension
 13
205.754867
 23
379.44818
 33
0.0
 14
205.468375
 24
262.44818
 34
0.0
 50
270.0
100
AcDbRotatedDimension
  0
DIMENSION
  5
2AD
330
214
100
AcDbEntity
  8
0
  6
Continuous
 62
     2
100
AcDbDimension
280
     0
  2
*D4
 10
387.211897
 20
399.452036
 30
0.0
 11
450.733791
 21
399.452036
 31
0.0
 70
   160
 71
     2
 42
126.8
 73
     0
 74
     0
 75
     0
  3
DIMSTYLE_2
100
AcDbAlignedDimension
 13
514.011897
 23
391.232126
 33
0.0
 14
387.211897
 24
390.913656
 34
0.0
 50
180.0
100
AcDbRotatedDimension
  0
DIMENSION
  5
2AE
330
214
100
AcDbEntity
  8
0
  6
Continuous
 62
     2
100
AcDbDimension
280
     0
  2
*D5
 10
386.211897
 20
245.723345
 30
0.0
 11
370.419455
 21
245.723345
 31
0.0
 70
   160
 71
     2
 42
31.0
 73
     0
 74
     0
 75
     0
  3
DIMSTYLE_1
100
AcDbAlignedDimension
 13
355.211897
 23
254.007188
 33
0.0
 14
386.211897
 24
254.451451
 34
0.0
100
AcDbRotatedDimension
  0
DIMENSION
  5
2AF
330
214
100
AcDbEntity
  8
0
  6
Continuous
 62
     2
100
AcDbDimension
280
     0
  2
*D6
 10
180.941918
 20
32.877606
 30
0.0
 11
138.941918
 21
32.877606
 31
0.0
 70
   160
  1
Ø<>
 71
     2
 42
84.0
 73
     0
 74
     0
 75
     0
  3
DIMSTYLE_1
100
AcDbAlignedDimension
 13
96.941918
 23
41.419923
 33
0.0
 14
180.941918
 24
41.656864
 34
0.0
100
AcDbRotatedDimension
  0
INSERT
  5
2B0
330
214
100
AcDbEntity
  8
0
  6
Continuous
 62
     2
100
AcDbBlockReference
  2
LOGO2_BL0
 10
513.228361
 20
30.842622
 30
0.0
  0
ACAD_TABLE
  5
2B1
102
{ACAD_XDICTIONARY
360
54B
102
}
330
214
100
AcDbEntity
  8
0
  6
Continuous
 62
     2
160
              3328
310
000D000017000000880000001D000000000000000000F03F000000000000000000000000000000003AEAF0E06F367F400000000000000000000000000000F03F00000000000000006CC83008DB2B464000000000000000000000000000000000000000000000F03F0000000000000000000000000000000000000000000000
310
000000000000000000000000000000F03F54000000200000000200000000000000000000000000000000000000000000000000000000000000008056400000000000000000000000000000000000000000000000000000000000000000000000000000F03F5400000020000000020000000000000000000000000000000000
310
00000000000000000000000000000000000000000000000044C0000000000000000000000000000000000000000000000000000000000000F03F5400000020000000020000000000000000003E4000000000000018C00000000000000000000000000080564000000000000018C00000000000000000000000000000000000
310
00000000000000000000000000F03F5400000020000000020000000000000000003E4000000000000028C00000000000000000000000000080564000000000000028C0000000000000000000000000000000000000000000000000000000000000F03F5400000020000000020000000000000000003E4000000000000036C0
310
0000000000000000000000000080564000000000000036C0000000000000000000000000000000000000000000000000000000000000F03F54000000200000000200000000000000000000000000000000003BC0000000000000000000000000008056400000000000003BC000000000000000000000000000000000000000
310
0000000000000000000000F03F540000002000000002000000000000000000000000000000000044C00000000000000000000000000080564000000000000044C0000000000000000000000000000000000000000000000000000000000000F03F5400000020000000020000000000000000003E4000000000000000000000
310
0000000000000000000000003E400000000000003BC0000000000000000000000000000000000000000000000000000000000000F03F540000002000000002000000000000000080514000000000000000000000000000000000000000000080514000000000000028C0000000000000000000000000000000000000000000
310
000000000000000000F03F540000002000000002000000000000000080564000000000000000000000000000000000000000000080564000000000000044C0000000000000000000000000000000000000000000000000000000000000F03F0C0000001000000014000000D000000026000000CDCCCCCCCC7C3F404E621058
310
393412C0000000000000000000000000000000000000000000000000000000000000F03F000000000000F03F0000000000000000000000000000000041003200390039005F0043005F003400300031000000000014000000010000000000000000000840000000000000F03F0000000000000000000000000000F03F000000
310
0000000000000000000000000000000000000000000000000000000000000000000000000061007200690061006C002E00740074006600000000000000C800000026000000C2F5285C8FC6514075931804560E13C0000000000000000000000000000000000000000000000000000000000000F03F000000000000F03F0000
310
00000000000000000000000000005200650076003A0030003000000000000C000000010000000000000000000C40000000000000F03F0000000000000000000000000000F03F0000000000000000000000000000000000000000000000000000000000000000000000000000000061007200690061006C002E007400740066
310
00000000000000CC00000026000000FA7E6ABC74433F405839B4C8769E26C0000000000000000000000000000000000000000000000000000000000000F03F000000000000F03F000000000000000000000000000000005300630061006C0065003A0031003A003100000012000000010000000000000000000C4000000000
310
0000F03F0000000000000000000000000000F03F0000000000000000000000000000000000000000000000000000000000000000000000000000000061007200690061006C002E00740074006600000000000000C0000000260000003333333333DF5140BA490C022B8725C000000000000000000000000000000000000000
310
0000000000000000000000F03F000000000000F03F00000000000000000000000000000000410032000000000004000000010000000000000000000C40000000000000F03F0000000000000000000000000000F03F000000000000000000000000000000000000000000000000000000000000000000000000000000006100
310
7200690061006C002E00740074006600000000000000E4000000260000008716D9CEF7433F40941804560E8D32C0000000000000000000000000000000000000000000000000000000000000F03F000000000000F03F00000000000000000000000000000000470049004E004B004F00200033002E00350020005300410047
310
004F004D00410054004F00520045000000000028000000010000000000000000000840000000000000F03F0000000000000000000000000000F03F0000000000000000000000000000000000000000000000000000000000000000000000000000000061007200690061006C002E00740074006600000000000000D4000000
310
2600000048E17A14AE373F40C3F5285C8FC239C0000000000000000000000000000000000000000000000000000000000000F03F000000000000F03F0000000000000000000000000000000044004100540045003A00320034002E00310031002E003200330000001A000000010000000000000000000440000000000000F0
310
3F0000000000000000000000000000F03F0000000000000000000000000000000000000000000000000000000000000000000000000000000061007200690061006C002E007400740066000000000000002401000026000000CDCCCCCCCCCCF73F0000000000903DC000000000000000000000000000000000000000000000
310
0000000000000000F03F000000000000F03F0000000000000000000000000000000041006E007900200069006E00740065006700720061006C0020006F00720020007000610072007400690061006C00200072006500700072006F00640075006300740069006F006E00730020006100720065002000700072006F00680069
310
00620069007400650064000000000068000000010000000000000000000240000000000000F03F0000000000000000000000000000F03F0000000000000000000000000000000000000000000000000000000000000000000000000000000061007200690061006C002E007400740066000000000000002C01000026000000
310
FED478E926B1F73F37894160E57C40C0000000000000000000000000000000000000000000000000000000000000F03F000000000000F03F0000000000000000000000000000000077006900740068006F007500740020007000720069006F007200200061007500740068006F007200690073006100740069006F006E0020
310
006F00660020004C002000260020004C0020004C007500630065002000260020004C006900670068007400200073002E0072002E006C002E002C00000072000000010000000000000000000240000000000000F03F0000000000000000000000000000F03F0000000000000000000000000000000000000000000000000000
310
000000000000000000000000000061007200690061006C002E007400740066000000000000000401000026000000C1CAA145B673F43F4F1E166A4D3142C0000000000000000000000000000000000000000000000000000000000000F03F000000000000F03F0000000000000000000000000000000069006E002000610063
310
0063006F007200640061006E006300650020007700690074006800200074006800650020006C0061007700200069006E00200066006F007200630065002E000000000048000000010000000000000000000240000000000000F03F0000000000000000000000000000F03F0000000000000000000000000000000000000000
310
000000000000000000000000000000000000000061007200690061006C002E00740074006600000000000000E400000026000000CDCCCCCCCCCCF73F302AA913D0E043C0000000000000000000000000000000000000000000000000000000000000F03F000000000000F03F0000000000000000000000000000000041006C
310
006C0020007200690067006800740073002000720065007300650072007600650064002E000000000028000000010000000000000000000240000000000000F03F0000000000000000000000000000F03F00000000000000000000000000000000000000000000000000000000000000000000000000000000610072006900
310
61006C002E00740074006600000000000000080000001F000000
100
AcDbBlockReference
  2
*T8
 10
499.402314
 20
44.342622
 30
0.0
100
AcDbTable
342
51D
343
21E
 11
1.0
 21
0.0
 31
0.0
 90
       22
 91
        5
 92
        5
 93
        0
 94
        0
 95
        0
 96
        0
141
6.0
141
6.0
141
10.0
141
5.0
141
13.0
142
10.0
142
10.0
142
10.0
142
40.0
142
20.0
171
     1
172
     0
173
     0
174
     0
175
     3
176
     4
 91
       32
178
     0
145
0.0
140
3.5
 92
        0
301
CELL_VALUE
 93
        2
 90
        4
  1
 
 94
        0
300

302
 
304
ACVALUE_END
171
     1
172
     0
173
     1
174
     0
175
     1
176
     1
 91
        0
178
     0
145
0.0
 92
        0
301
CELL_VALUE
 93
        3
 90
        0
 91
        0
 94
        0
300

302

304
ACVALUE_END
171
     1
172
     0
173
     1
174
     0
175
     1
176
     1
 91
        0
178
     0
145
0.0
 92
        0
301
CELL_VALUE
 93
        3
 90
        0
 91
        0
 94
        0
300

302

304
ACVALUE_END
171
     1
172
     0
173
     0
174
     0
175
     1
176
     1
 91
       49
178
     0
145
0.0
170
     4
  7
TEXTSTYLE_2
140
3.0
 92
        0
301
CELL_VALUE
 93
        2
 90
        4
  1
A299_C_401
 94
        0
300

302
A299_C_401
304
ACVALUE_END
171
     1
172
     0
173
     0
174
     0
175
     1
176
     1
 91
       49
178
     0
145
0.0
170
     4
  7
TEXTSTYLE_2
140
3.5
 92
        0
301
CELL_VALUE
 93
        2
 90
        4
  1
Rev:00
 94
        0
300

302
Rev:00
304
ACVALUE_END
171
     1
172
     0
173
     1
174
     0
175
     1
176
     1
 91
        0
178
     0
145
0.0
 92
        0
301
CELL_VALUE
 93
        3
 90
        0
 91
        0
 94
        0
300

302

304
ACVALUE_END
171
     1
172
     0
173
     1
174
     0
175
     1
176
     1
 91
        0
178
     0
145
0.0
 92
        0
301
CELL_VALUE
 93
        3
 90
        0
 91
        0
 94
        0
300

302

304
ACVALUE_END
171
     1
172
     0
173
     1
174
     0
175
     1
176
     1
 91
        0
178
     0
145
0.0
 92
        0
301
CELL_VALUE
 93
        3
 90
        0
 91
        0
 94
        0
300

302

304
ACVALUE_END
171
     1
172
     0
173
     0
174
     0
175
     1
176
     1
 91
       49
178
     0
145
0.0
170
     1
  7
TEXTSTYLE_2
140
3.5
 92
        0
301
CELL_VALUE
 93
        2
 90
        4
  1
Scale:1:1
 94
        0
300

302
Scale:1:1
304
ACVALUE_END
171
     1
172
     0
173
     0
174
     0
175
     1
176
     1
 91
       49
178
     0
145
0.0
170
     4
  7
TEXTSTYLE_2
140
3.5
 92
        0
301
CELL_VALUE
 93
        2
 90
        4
  1
A2
 94
        0
300

302
A2
304
ACVALUE_END
171
     1
172
     0
173
     1
174
     0
175
     1
176
     1
 91
        0
178
     0
145
0.0
 92
        0
301
CELL_VALUE
 93
        3
 90
        0
 91
        0
 94
        0
300

302

304
ACVALUE_END
171
     1
172
     0
173
     1
174
     0
175
     1
176
     1
 91
        0
178
     0
145
0.0
 92
        0
301
CELL_VALUE
 93
        3
 90
        0
 91
        0
 94
        0
300

302

304
ACVALUE_END
171
     1
172
     0
173
     1
174
     0
175
     1
176
     1
 91
        0
178
     0
145
0.0
 92
        0
301
CELL_VALUE
 93
        3
 90
        0
 91
        0
 94
        0
300

302

304
ACVALUE_END
171
     1
172
     0
173
     0
174
     0
175
     2
176
     1
 91
       49
178
     0
145
0.0
170
     4
  7
TEXTSTYLE_2
140
3.0
 92
        0
301
CELL_VALUE
 93
        2
 90
        4
  1
GINKO 3.5 SAGOMATORE
 94
        0
300

302
GINKO 3.5 SAGOMATORE
304
ACVALUE_END
171
     1
172
     0
173
     1
174
     0
175
     1
176
     1
 91
        0
178
     0
145
0.0
 92
        0
301
CELL_VALUE
 93
        3
 90
        0
 91
        0
 94
        0
300

302

304
ACVALUE_END
171
     1
172
     0
173
     1
174
     0
175
     1
176
     1
 91
        0
178
     0
145
0.0
 92
        0
301
CELL_VALUE
 93
        3
 90
        0
 91
        0
 94
        0
300

302

304
ACVALUE_END
171
     1
172
     0
173
     1
174
     0
175
     1
176
     1
 91
        0
178
     0
145
0.0
 92
        0
301
CELL_VALUE
 93
        3
 90
        0
 91
        0
 94
        0
300

302

304
ACVALUE_END
171
     1
172
     0
173
     1
174
     0
175
     1
176
     1
 91
        0
178
     0
145
0.0
 92
        0
301
CELL_VALUE
 93
        3
 90
        0
 91
        0
 94
        0
300

302

304
ACVALUE_END
171
     1
172
     0
173
     0
174
     0
175
     2
176
     1
 91
       49
178
     0
145
0.0
170
     4
  7
TEXTSTYLE_2
140
2.5
 92
        0
301
CELL_VALUE
 93
        2
 90
        4
  1
DATE:24.11.23
 94
        0
300

302
DATE:24.11.23
304
ACVALUE_END
171
     1
172
     0
173
     1
174
     0
175
     1
176
     1
 91
        0
178
     0
145
0.0
 92
        0
301
CELL_VALUE
 93
        3
 90
        0
 91
        0
 94
        0
300

302

304
ACVALUE_END
171
     1
172
     0
173
     0
174
     0
175
     5
176
     1
 91
       49
178
     0
145
0.0
170
     4
  7
TEXTSTYLE_3
140
2.25
 92
        0
301
CELL_VALUE
 93
        2
 90
        4
  1
Any integral or partial reproductions are prohibited \Pwithout prior authorisation of L & L Luce & Light s.r.l., \Pin accordance with the law in force. \PAll rights reserved.
 94
        0
300

302
Any integral or partial reproductions are prohibited \Pwithout prior authorisation of L & L Luce & Light s.r.l., \Pin accordance with the law in force. \PAll rights reserved.
304
ACVALUE_END
171
     1
172
     0
173
     1
174
     0
175
     1
176
     1
 91
        0
178
     0
145
0.0
 92
        0
301
CELL_VALUE
 93
        3
 90
        0
 91
        0
 94
        0
300

302

304
ACVALUE_END
171
     1
172
     0
173
     1
174
     0
175
     1
176
     1
 91
        0
178
     0
145
0.0
 92
        0
301
CELL_VALUE
 93
        3
 90
        0
 91
        0
 94
        0
300

302

304
ACVALUE_END
171
     1
172
     0
173
     1
174
     0
175
     1
176
     1
 91
        0
178
     0
145
0.0
 92
        0
301
CELL_VALUE
 93
        3
 90
        0
 91
        0
 94
        0
300

302

304
ACVALUE_END
171
     1
172
     0
173
     1
174
     0
175
     1
176
     1
 91
        0
178
     0
145
0.0
 92
        0
301
CELL_VALUE
 93
        3
 90
        0
 91
        0
 94
        0
300

302

304
ACVALUE_END
  0
LINE
  5
2B2
330
214
100
AcDbEntity
  8
0
  6
Continuous
 62
     7
100
AcDbLine
 10
0.0
 20
0.0
 30
0.0
 11
0.0
 21
420.0
 31
0.0
  0
LINE
  5
2B3
330
214
100
AcDbEntity
  8
0
  6
Continuous
 62
     7
100
AcDbLine
 10
0.0
 20
0.0
 30
0.0
 11
594.0
 21
0.0
 31
0.0
  0
LINE
  5
2B4
330
214
100
AcDbEntity
  8
0
  6
Continuous
 62
     7
100
AcDbLine
 10
0.0
 20
420.0
 30
0.0
 11
594.0
 21
420.0
 31
0.0
  0
LINE
  5
2B5
330
214
100
AcDbEntity
  8
0
  6
Continuous
 62
     7
100
AcDbLine
 10
594.0
 20
0.0
 30
0.0
 11
594.0
 21
420.0
 31
0.0
  0
LINE
  5
2B6
330
214
100
AcDbEntity
  8
7_ALL_FEATURES
  6
Continuous
 62
     7
100
AcDbLine
 10
355.211897
 20
267.744906
 30
0.0
 11
355.211897
 21
262.44818
 31
0.0
  0
LINE
  5
2B7
330
214
100
AcDbEntity
  8
7_ALL_FEATURES
  6
Continuous
 62
     7
100
AcDbLine
 10
387.211897
 20
378.94818
 30
0.0
 11
387.711897
 21
379.44818
 31
0.0
  0
LINE
  5
2B8
330
214
100
AcDbEntity
  8
7_ALL_FEATURES
  6
Continuous
 62
     7
100
AcDbLine
 10
355.211897
 20
262.44818
 30
0.0
 11
386.211897
 21
262.44818
 31
0.0
  0
LINE
  5
2B9
330
214
100
AcDbEntity
  8
7_ALL_FEATURES
  6
Continuous
 62
     7
100
AcDbLine
 10
386.211897
 20
268.92164
 30
0.0
 11
386.211897
 21
262.44818
 31
0.0
  0
LINE
  5
2BA
330
214
100
AcDbEntity
  8
7_ALL_FEATURES
  6
Continuous
 62
     7
100
AcDbLine
 10
387.211897
 20
336.723278
 30
0.0
 11
387.211897
 21
378.94818
 31
0.0
  0
LINE
  5
2BB
330
214
100
AcDbEntity
  8
7_ALL_FEATURES
  6
Continuous
 62
     7
100
AcDbLine
 10
387.711897
 20
353.036637
 30
0.0
 11
387.711897
 21
379.44818
 31
0.0
  0
LINE
  5
2BC
330
214
100
AcDbEntity
  8
7_ALL_FEATURES
  6
Continuous
 62
     7
100
AcDbLine
 10
390.679207
 20
343.687705
 30
0.0
 11
357.308054
 21
276.658513
 31
0.0
  0
LINE
  5
2BD
330
214
100
AcDbEntity
  8
7_ALL_FEATURES
  6
Continuous
 62
     7
100
AcDbLine
 10
393.277971
 20
345.522652
 30
0.0
 11
393.535086
 21
345.82907
 31
0.0
  0
LINE
  5
2BE
330
214
100
AcDbEntity
  8
7_ALL_FEATURES
  6
Continuous
 62
     7
100
AcDbLine
 10
424.011897
 20
379.14818
 30
0.0
 11
424.311897
 21
379.44818
 31
0.0
  0
LINE
  5
2BF
330
214
100
AcDbEntity
  8
7_ALL_FEATURES
  6
Continuous
 62
     7
100
AcDbLine
 10
394.831007
 20
347.124991
 30
0.0
 11
395.137424
 21
347.382106
 31
0.0
  0
LINE
  5
2C0
330
214
100
AcDbEntity
  8
7_ALL_FEATURES
  6
Continuous
 62
     9
100
AcDbLine
 10
355.284557
 20
269.44818
 30
0.0
 11
386.218829
 21
269.44818
 31
0.0
  0
LINE
  5
2C1
330
214
100
AcDbEntity
  8
7_ALL_FEATURES
  6
Continuous
 62
     7
100
AcDbLine
 10
405.631555
 20
350.018989
 30
0.0
 11
406.262478
 21
351.111779
 31
0.0
  0
LINE
  5
2C2
330
214
100
AcDbEntity
  8
7_ALL_FEATURES
  6
Continuous
 62
     7
100
AcDbLine
 10
407.777693
 20
349.407841
 30
0.0
 11
408.588792
 21
350.374471
 31
0.0
  0
LINE
  5
2C3
330
214
100
AcDbEntity
  8
7_ALL_FEATURES
  6
Continuous
 62
     7
100
AcDbLine
 10
396.638692
 20
348.433305
 30
0.0
 11
396.985102
 21
348.633305
 31
0.0
  0
LINE
  5
2C4
330
214
100
AcDbEntity
  8
7_ALL_FEATURES
  6
Continuous
 62
     7
100
AcDbLine
 10
398.646101
 20
349.407841
 30
0.0
 11
399.021978
 21
349.544649
 31
0.0
  0
LINE
  5
2C5
330
214
100
AcDbEntity
  8
7_ALL_FEATURES
  6
Continuous
 62
     7
100
AcDbLine
 10
399.021978
 20
349.544649
 30
0.0
 11
399.021978
 21
350.806495
 31
0.0
  0
LINE
  5
2C6
330
214
100
AcDbEntity
  8
0
  6
Continuous
 62
     2
100
AcDbLine
 10
399.861897
 20
295.44818
 30
0.0
 11
399.861897
 21
295.540946
 31
0.0
  0
LINE
  5
2C7
330
214
100
AcDbEntity
  8
7_ALL_FEATURES
  6
Continuous
 62
     7
100
AcDbLine
 10
401.711897
 20
338.314205
 30
0.0
 11
401.711897
 21
336.582154
 31
0.0
  0
LINE
  5
2C8
330
214
100
AcDbEntity
  8
7_ALL_FEATURES
  6
Continuous
 62
     7
100
AcDbLine
 10
401.186162
 20
350.088449
 30
0.0
 11
401.405279
 21
351.331124
 31
0.0
  0
LINE
  5
2C9
330
214
100
AcDbEntity
  8
7_ALL_FEATURES
  6
Continuous
 62
     7
100
AcDbLine
 10
403.461897
 20
349.24818
 30
0.0
 11
404.044742
 21
351.423385
 31
0.0
  0
LINE
  5
2CA
330
214
100
AcDbEntity
  8
7_ALL_FEATURES
  6
Continuous
 62
     7
100
AcDbLine
 10
409.785102
 20
348.433305
 30
0.0
 11
410.751732
 21
349.244403
 31
0.0
  0
LINE
  5
2CB
330
214
100
AcDbEntity
  8
7_ALL_FEATURES
  6
Continuous
 62
     7
100
AcDbLine
 10
411.592787
 20
347.124991
 30
0.0
 11
412.685577
 21
347.755914
 31
0.0
  0
LINE
  5
2CC
330
214
100
AcDbEntity
  8
7_ALL_FEATURES
  6
Continuous
 62
     7
100
AcDbLine
 10
396.985102
 20
348.633305
 30
0.0
 11
396.765985
 21
349.87598
 31
0.0
  0
LINE
  5
2CD
330
214
100
AcDbEntity
  8
7_ALL_FEATURES
  6
Continuous
 62
     7
100
AcDbLine
 10
404.711897
 20
336.582154
 30
0.0
 11
404.711897
 21
338.314205
 31
0.0
  0
LINE
  5
2CE
330
214
100
AcDbEntity
  8
7_ALL_FEATURES
  6
Continuous
 62
     7
100
AcDbLine
 10
407.401816
 20
350.806495
 30
0.0
 11
407.401816
 21
349.544649
 31
0.0
  0
LINE
  5
2CF
330
214
100
AcDbEntity
  8
7_ALL_FEATURES
  6
Continuous
 62
     7
100
AcDbLine
 10
409.657809
 20
349.87598
 30
0.0
 11
409.438692
 21
348.633305
 31
0.0
  0
LINE
  5
2D0
330
214
100
AcDbEntity
  8
7_ALL_FEATURES
  6
Continuous
 62
     7
100
AcDbLine
 10
411.717946
 20
348.567853
 30
0.0
 11
411.286369
 21
347.382106
 31
0.0
  0
LINE
  5
2D1
330
214
100
AcDbEntity
  8
7_ALL_FEATURES
  6
Continuous
 62
     7
100
AcDbLine
 10
387.418045
 20
275.762043
 30
0.0
 11
404.807585
 21
323.539413
 31
0.0
  0
LINE
  5
2D2
330
214
100
AcDbEntity
  8
7_ALL_FEATURES
  6
Continuous
 62
     7
100
AcDbLine
 10
413.519631
 20
346.92186
 30
0.0
 11
412.888708
 21
345.82907
 31
0.0
  0
LINE
  5
2D3
330
214
100
AcDbEntity
  8
7_ALL_FEATURES
  6
Continuous
 62
     7
100
AcDbLine
 10
415.008121
 20
344.988014
 30
0.0
 11
414.197022
 21
344.021385
 31
0.0
  0
LINE
  5
2D4
330
214
100
AcDbEntity
  8
7_ALL_FEATURES
  6
Continuous
 62
     7
100
AcDbLine
 10
416.138188
 20
342.825075
 30
0.0
 11
415.171558
 21
342.013976
 31
0.0
  0
LINE
  5
2D5
330
214
100
AcDbEntity
  8
7_ALL_FEATURES
  6
Continuous
 62
     7
100
AcDbLine
 10
403.211897
 20
339.18023
 30
0.0
 11
401.711897
 21
338.314205
 31
0.0
  0
LINE
  5
2D6
330
214
100
AcDbEntity
  8
7_ALL_FEATURES
  6
Continuous
 62
     7
100
AcDbLine
 10
403.211897
 20
335.716129
 30
0.0
 11
404.711897
 21
336.582154
 31
0.0
  0
LINE
  5
2D7
330
214
100
AcDbEntity
  8
7_ALL_FEATURES
  6
Continuous
 62
     7
100
AcDbLine
 10
416.875497
 20
340.498761
 30
0.0
 11
415.782707
 21
339.867838
 31
0.0
  0
LINE
  5
2D8
330
214
100
AcDbEntity
  8
7_ALL_FEATURES
  6
Continuous
 62
     7
100
AcDbLine
 10
413.145823
 20
345.522652
 30
0.0
 11
414.33157
 21
345.954229
 31
0.0
  0
LINE
  5
2D9
330
214
100
AcDbEntity
  8
3_ALL_AXES
  6
Continuous
 62
     7
100
AcDbLine
 10
394.583212
 20
295.44818
 30
0.0
 11
399.361897
 21
295.44818
 31
0.0
  0
LINE
  5
2DA
330
214
100
AcDbEntity
  8
0
  6
Continuous
 62
     7
100
AcDbLine
 10
399.861897
 20
295.44818
 30
0.0
 11
414.561897
 21
295.44818
 31
0.0
  0
LINE
  5
2DB
330
214
100
AcDbEntity
  8
7_ALL_FEATURES
  6
Continuous
 62
     7
100
AcDbLine
 10
399.961897
 20
295.44818
 30
0.0
 11
414.461897
 21
295.44818
 31
0.0
  0
LINE
  5
2DC
330
214
100
AcDbEntity
  8
3_ALL_AXES
  6
Continuous
 62
     7
100
AcDbLine
 10
415.061897
 20
295.44818
 30
0.0
 11
423.71189
 21
295.44818
 31
0.0
  0
LINE
  5
2DD
330
214
100
AcDbEntity
  8
3_ALL_AXES
  6
Continuous
 62
     7
100
AcDbLine
 10
424.311897
 20
295.44818
 30
0.0
 11
485.511897
 21
295.44818
 31
0.0
  0
LINE
  5
2DE
330
214
100
AcDbEntity
  8
3_ALL_AXES
  6
Continuous
 62
     7
100
AcDbLine
 10
501.511897
 20
295.44818
 30
0.0
 11
513.711897
 21
295.44818
 31
0.0
  0
LINE
  5
2DF
330
214
100
AcDbEntity
  8
3_ALL_AXES
  6
Continuous
 62
     7
100
AcDbLine
 10
501.511897
 20
295.499255
 30
0.0
 11
485.511897
 21
295.499255
 31
0.0
  0
LINE
  5
2E0
330
214
100
AcDbEntity
  8
7_ALL_FEATURES
  6
Continuous
 62
     7
100
AcDbLine
 10
415.061225
 20
295.448308
 30
0.0
 11
415.061897
 21
295.44818
 31
0.0
  0
LINE
  5
2E1
330
214
100
AcDbEntity
  8
7_ALL_FEATURES
  6
Continuous
 62
     7
100
AcDbLine
 10
395.137424
 20
347.382106
 30
0.0
 11
394.705848
 21
348.567853
 31
0.0
  0
LINE
  5
2E2
330
214
100
AcDbEntity
  8
0
  6
Continuous
 62
     2
100
AcDbLine
 10
414.561897
 20
295.44818
 30
0.0
 11
414.561897
 21
295.540946
 31
0.0
  0
LINE
  5
2E3
330
214
100
AcDbEntity
  8
7_ALL_FEATURES
  6
Continuous
 62
     7
100
AcDbLine
 10
415.011897
 20
337.69818
 30
0.0
 11
415.011897
 21
337.19818
 31
0.0
  0
LINE
  5
2E4
330
214
100
AcDbEntity
  8
7_ALL_FEATURES
  6
Continuous
 62
     7
100
AcDbLine
 10
415.852166
 20
335.422445
 30
0.0
 11
415.782707
 21
335.028521
 31
0.0
  0
LINE
  5
2E5
330
214
100
AcDbEntity
  8
7_ALL_FEATURES
  6
Continuous
 62
     7
100
AcDbLine
 10
415.308367
 20
333.25826
 30
0.0
 11
415.171558
 21
332.882383
 31
0.0
  0
LINE
  5
2E6
330
214
100
AcDbEntity
  8
7_ALL_FEATURES
  6
Continuous
 62
     7
100
AcDbLine
 10
414.397022
 20
331.221385
 30
0.0
 11
414.197022
 21
330.874975
 31
0.0
  0
LINE
  5
2E7
330
214
100
AcDbEntity
  8
7_ALL_FEATURES
  6
Continuous
 62
     7
100
AcDbLine
 10
413.145823
 20
329.373707
 30
0.0
 11
412.888708
 21
329.067289
 31
0.0
  0
LINE
  5
2E8
330
214
100
AcDbEntity
  8
7_ALL_FEATURES
  6
Continuous
 62
     7
100
AcDbLine
 10
411.592787
 20
327.771368
 30
0.0
 11
411.286369
 21
327.514253
 31
0.0
  0
LINE
  5
2E9
330
214
100
AcDbEntity
  8
7_ALL_FEATURES
  6
Continuous
 62
     9
100
AcDbLine
 10
402.644691
 20
295.94818
 30
0.0
 11
411.779103
 21
295.94818
 31
0.0
  0
LINE
  5
2EA
330
214
100
AcDbEntity
  8
3_ALL_AXES
  6
Continuous
 62
     7
100
AcDbLine
 10
485.511897
 20
296.392699
 30
0.0
 11
501.511897
 21
296.392699
 31
0.0
  0
LINE
  5
2EB
330
214
100
AcDbEntity
  8
3_ALL_AXES
  6
Continuous
 62
     7
100
AcDbLine
 10
485.511897
 20
297.464561
 30
0.0
 11
501.511897
 21
297.464561
 31
0.0
  0
LINE
  5
2EC
330
214
100
AcDbEntity
  8
3_ALL_AXES
  6
Continuous
 62
     7
100
AcDbLine
 10
485.511897
 20
300.084005
 30
0.0
 11
501.511897
 21
300.084005
 31
0.0
  0
LINE
  5
2ED
330
214
100
AcDbEntity
  8
7_ALL_FEATURES
  6
Continuous
 62
     7
100
AcDbLine
 10
424.011897
 20
295.74818
 30
0.0
 11
424.311897
 21
295.44818
 31
0.0
  0
LINE
  5
2EE
330
214
100
AcDbEntity
  8
7_ALL_FEATURES
  6
Continuous
 62
     7
100
AcDbLine
 10
393.535086
 20
345.82907
 30
0.0
 11
392.904163
 21
346.92186
 31
0.0
  0
LINE
  5
2EF
330
214
100
AcDbEntity
  8
7_ALL_FEATURES
  6
Continuous
 62
     7
100
AcDbLine
 10
411.286369
 20
327.514253
 30
0.0
 11
411.717946
 21
326.328507
 31
0.0
  0
LINE
  5
2F0
330
214
100
AcDbEntity
  8
7_ALL_FEATURES
  6
Continuous
 62
     7
100
AcDbLine
 10
402.379052
 20
351.423385
 30
0.0
 11
402.961897
 21
349.24818
 31
0.0
  0
LINE
  5
2F1
330
214
100
AcDbEntity
  8
7_ALL_FEATURES
  6
Continuous
 62
     7
100
AcDbLine
 10
405.018515
 20
351.331124
 30
0.0
 11
405.237632
 21
350.088449
 31
0.0
  0
LINE
  5
2F2
330
214
100
AcDbEntity
  8
7_ALL_FEATURES
  6
Continuous
 62
     7
100
AcDbLine
 10
418.211897
 20
321.859722
 30
0.0
 11
418.211897
 21
353.036637
 31
0.0
  0
LINE
  5
2F3
330
214
100
AcDbEntity
  8
3_ALL_AXES
  6
Continuous
 62
     7
100
AcDbLine
 10
485.511897
 20
302.154685
 30
0.0
 11
501.511897
 21
302.154685
 31
0.0
  0
LINE
  5
2F4
330
214
100
AcDbEntity
  8
3_ALL_AXES
  6
Continuous
 62
     7
100
AcDbLine
 10
485.511897
 20
306.321619
 30
0.0
 11
501.511897
 21
306.321619
 31
0.0
  0
LINE
  5
2F5
330
214
100
AcDbEntity
  8
7_ALL_FEATURES
  6
Continuous
 62
     7
100
AcDbLine
 10
400.161316
 20
351.111779
 30
0.0
 11
400.792239
 21
350.018989
 31
0.0
  0
LINE
  5
2F6
330
214
100
AcDbEntity
  8
7_ALL_FEATURES
  6
Continuous
 62
     7
100
AcDbLine
 10
412.888708
 20
329.067289
 30
0.0
 11
413.519631
 21
327.974499
 31
0.0
  0
LINE
  5
2F7
330
214
100
AcDbEntity
  8
7_ALL_FEATURES
  6
Continuous
 62
     7
100
AcDbLine
 10
415.782707
 20
339.867838
 30
0.0
 11
415.852166
 21
339.473915
 31
0.0
  0
LINE
  5
2F8
330
214
100
AcDbEntity
  8
7_ALL_FEATURES
  6
Continuous
 62
     7
100
AcDbLine
 10
423.71189
 20
295.44818
 30
0.0
 11
423.711897
 21
337.14882
 31
0.0
  0
LINE
  5
2F9
330
214
100
AcDbEntity
  8
7_ALL_FEATURES
  6
Continuous
 62
     7
100
AcDbLine
 10
423.711897
 20
337.74754
 30
0.0
 11
423.711891
 21
379.44818
 31
0.0
  0
LINE
  5
2FA
330
214
100
AcDbEntity
  8
7_ALL_FEATURES
  6
Continuous
 62
     7
100
AcDbLine
 10
424.011897
 20
295.748183
 30
0.0
 11
424.011897
 21
379.148177
 31
0.0
  0
LINE
  5
2FB
330
214
100
AcDbEntity
  8
7_ALL_FEATURES
  6
Continuous
 62
     7
100
AcDbLine
 10
424.311897
 20
295.44818
 30
0.0
 11
424.311897
 21
379.44818
 31
0.0
  0
LINE
  5
2FC
330
214
100
AcDbEntity
  8
3_ALL_AXES
  6
Continuous
 62
     7
100
AcDbLine
 10
485.511897
 20
309.250002
 30
0.0
 11
501.511897
 21
309.250002
 31
0.0
  0
LINE
  5
2FD
330
214
100
AcDbEntity
  8
3_ALL_AXES
  6
Continuous
 62
     7
100
AcDbLine
 10
485.511897
 20
314.680456
 30
0.0
 11
501.511897
 21
314.680456
 31
0.0
  0
LINE
  5
2FE
330
214
100
AcDbEntity
  8
7_ALL_FEATURES
  6
Continuous
 62
     7
100
AcDbLine
 10
397.835002
 20
350.374471
 30
0.0
 11
398.646101
 21
349.407841
 31
0.0
  0
LINE
  5
2FF
330
214
100
AcDbEntity
  8
7_ALL_FEATURES
  6
Continuous
 62
     7
100
AcDbLine
 10
414.197022
 20
330.874975
 30
0.0
 11
415.008121
 21
329.908345
 31
0.0
  0
LINE
  5
300
330
214
100
AcDbEntity
  8
7_ALL_FEATURES
  6
Continuous
 62
     7
100
AcDbLine
 10
414.197022
 20
344.021385
 30
0.0
 11
414.397022
 21
343.674975
 31
0.0
  0
LINE
  5
301
330
214
100
AcDbEntity
  8
7_ALL_FEATURES
  6
Continuous
 62
     7
100
AcDbLine
 10
415.171558
 20
342.013976
 30
0.0
 11
415.308367
 21
341.638099
 31
0.0
  0
LINE
  5
302
330
214
100
AcDbEntity
  8
3_ALL_AXES
  6
Continuous
 62
     7
100
AcDbLine
 10
485.511897
 20
318.266978
 30
0.0
 11
501.511897
 21
318.266978
 31
0.0
  0
LINE
  5
303
330
214
100
AcDbEntity
  8
7_ALL_FEATURES
  6
Continuous
 62
     7
100
AcDbLine
 10
414.33157
 20
328.942131
 30
0.0
 11
413.145823
 21
329.373707
 31
0.0
  0
LINE
  5
304
330
214
100
AcDbEntity
  8
7_ALL_FEATURES
  6
Continuous
 62
     7
100
AcDbLine
 10
412.685577
 20
327.140446
 30
0.0
 11
411.592787
 21
327.771368
 31
0.0
  0
LINE
  5
305
330
214
100
AcDbEntity
  8
7_ALL_FEATURES
  6
Continuous
 62
     7
100
AcDbLine
 10
401.711897
 20
336.582154
 30
0.0
 11
403.211897
 21
335.716129
 31
0.0
  0
LINE
  5
306
330
214
100
AcDbEntity
  8
7_ALL_FEATURES
  6
Continuous
 62
     7
100
AcDbLine
 10
404.711897
 20
338.314205
 30
0.0
 11
403.211897
 21
339.18023
 31
0.0
  0
LINE
  5
307
330
214
100
AcDbEntity
  8
7_ALL_FEATURES
  6
Continuous
 62
     7
100
AcDbLine
 10
395.672062
 20
349.244403
 30
0.0
 11
396.638692
 21
348.433305
 31
0.0
  0
LINE
  5
308
330
214
100
AcDbEntity
  8
7_ALL_FEATURES
  6
Continuous
 62
     7
100
AcDbLine
 10
415.171558
 20
332.882383
 30
0.0
 11
416.138188
 21
332.071285
 31
0.0
  0
LINE
  5
309
330
214
100
AcDbEntity
  8
7_ALL_FEATURES
  6
Continuous
 62
     7
100
AcDbLine
 10
412.888708
 20
345.82907
 30
0.0
 11
413.145823
 21
345.522652
 31
0.0
  0
LINE
  5
30A
330
214
100
AcDbEntity
  8
7_ALL_FEATURES
  6
Continuous
 62
     7
100
AcDbLine
 10
404.196228
 20
321.859722
 30
0.0
 11
418.211897
 21
321.859722
 31
0.0
  0
LINE
  5
30B
330
214
100
AcDbEntity
  8
3_ALL_AXES
  6
Continuous
 62
     7
100
AcDbLine
 10
485.511897
 20
324.590876
 30
0.0
 11
501.511897
 21
324.590876
 31
0.0
  0
LINE
  5
30C
330
214
100
AcDbEntity
  8
7_ALL_FEATURES
  6
Continuous
 62
     7
100
AcDbLine
 10
415.639697
 20
331.002268
 30
0.0
 11
414.397022
 21
331.221385
 31
0.0
  0
LINE
  5
30D
330
214
100
AcDbEntity
  8
7_ALL_FEATURES
  6
Continuous
 62
     7
100
AcDbLine
 10
393.738217
 20
347.755914
 30
0.0
 11
394.831007
 21
347.124991
 31
0.0
  0
LINE
  5
30E
330
214
100
AcDbEntity
  8
7_ALL_FEATURES
  6
Continuous
 62
     7
100
AcDbLine
 10
415.782707
 20
335.028521
 30
0.0
 11
416.875497
 21
334.397599
 31
0.0
  0
LINE
  5
30F
330
214
100
AcDbEntity
  8
7_ALL_FEATURES
  6
Continuous
 62
     7
100
AcDbLine
 10
411.286369
 20
347.382106
 30
0.0
 11
411.592787
 21
347.124991
 31
0.0
  0
LINE
  5
310
330
214
100
AcDbEntity
  8
7_ALL_FEATURES
  6
Continuous
 62
     7
100
AcDbLine
 10
424.011897
 20
295.748186
 30
0.0
 11
423.71189
 21
295.44818
 31
0.0
  0
LINE
  5
311
330
214
100
AcDbEntity
  8
3_ALL_AXES
  6
Continuous
 62
     7
100
AcDbLine
 10
485.511897
 20
328.591122
 30
0.0
 11
501.511897
 21
328.591122
 31
0.0
  0
LINE
  5
312
330
214
100
AcDbEntity
  8
7_ALL_FEATURES
  6
Continuous
 62
     7
100
AcDbLine
 10
416.570212
 20
333.25826
 30
0.0
 11
415.308367
 21
333.25826
 31
0.0
  0
LINE
  5
313
330
214
100
AcDbEntity
  8
7_ALL_FEATURES
  6
Continuous
 62
     7
100
AcDbLine
 10
415.011897
 20
337.19818
 30
0.0
 11
417.187103
 21
336.615335
 31
0.0
  0
LINE
  5
314
330
214
100
AcDbEntity
  8
7_ALL_FEATURES
  6
Continuous
 62
     7
100
AcDbLine
 10
392.092224
 20
345.954229
 30
0.0
 11
393.277971
 21
345.522652
 31
0.0
  0
LINE
  5
315
330
214
100
AcDbEntity
  8
7_ALL_FEATURES
  6
Continuous
 62
     7
100
AcDbLine
 10
409.438692
 20
348.633305
 30
0.0
 11
409.785102
 21
348.433305
 31
0.0
  0
LINE
  5
316
330
214
100
AcDbEntity
  8
7_ALL_FEATURES
  6
Continuous
 62
     7
100
AcDbLine
 10
417.094841
 20
335.641562
 30
0.0
 11
415.852166
 21
335.422445
 31
0.0
  0
LINE
  5
317
330
214
100
AcDbEntity
  8
3_ALL_AXES
  6
Continuous
 62
     7
100
AcDbLine
 10
485.511897
 20
335.3775
 30
0.0
 11
501.511897
 21
335.3775
 31
0.0
  0
LINE
  5
318
330
214
100
AcDbEntity
  8
7_ALL_FEATURES
  6
Continuous
 62
     7
100
AcDbLine
 10
418.211897
 20
337.14882
 30
0.0
 11
423.711897
 21
337.14882
 31
0.0
  0
LINE
  5
319
330
214
100
AcDbEntity
  8
7_ALL_FEATURES
  6
Continuous
 62
     7
100
AcDbLine
 10
418.211897
 20
337.44818
 30
0.0
 11
424.011897
 21
337.44818
 31
0.0
  0
LINE
  5
31A
330
214
100
AcDbEntity
  8
7_ALL_FEATURES
  6
Continuous
 62
     7
100
AcDbLine
 10
418.211897
 20
337.74754
 30
0.0
 11
423.711897
 21
337.74754
 31
0.0
  0
LINE
  5
31B
330
214
100
AcDbEntity
  8
3_ALL_AXES
  6
Continuous
 62
     7
100
AcDbLine
 10
501.511897
 20
339.518859
 30
0.0
 11
485.511897
 21
339.518859
 31
0.0
  0
LINE
  5
31C
330
214
100
AcDbEntity
  8
7_ALL_FEATURES
  6
Continuous
 62
     7
100
AcDbLine
 10
415.852166
 20
339.473915
 30
0.0
 11
417.094841
 21
339.254798
 31
0.0
  0
LINE
  5
31D
330
214
100
AcDbEntity
  8
7_ALL_FEATURES
  6
Continuous
 62
     7
100
AcDbLine
 10
407.401816
 20
349.544649
 30
0.0
 11
407.777693
 21
349.407841
 31
0.0
  0
LINE
  5
31E
330
214
100
AcDbEntity
  8
7_ALL_FEATURES
  6
Continuous
 62
     7
100
AcDbLine
 10
417.187103
 20
338.281024
 30
0.0
 11
415.011897
 21
337.69818
 31
0.0
  0
LINE
  5
31F
330
214
100
AcDbEntity
  8
7_ALL_FEATURES
  6
Continuous
 62
     7
100
AcDbLine
 10
414.397022
 20
343.674975
 30
0.0
 11
415.639697
 21
343.894092
 31
0.0
  0
LINE
  5
320
330
214
100
AcDbEntity
  8
7_ALL_FEATURES
  6
Continuous
 62
     7
100
AcDbLine
 10
415.308367
 20
341.638099
 30
0.0
 11
416.570212
 21
341.638099
 31
0.0
  0
LINE
  5
321
330
214
100
AcDbEntity
  8
3_ALL_AXES
  6
Continuous
 62
     7
100
AcDbLine
 10
485.511897
 20
346.305237
 30
0.0
 11
501.511897
 21
346.305237
 31
0.0
  0
LINE
  5
322
330
214
100
AcDbEntity
  8
7_ALL_FEATURES
  6
Continuous
 62
     7
100
AcDbLine
 10
405.237632
 20
350.088449
 30
0.0
 11
405.631555
 21
350.018989
 31
0.0
  0
LINE
  5
323
330
214
100
AcDbEntity
  8
7_ALL_FEATURES
  6
Continuous
 62
     7
100
AcDbLine
 10
402.961897
 20
349.24818
 30
0.0
 11
403.461897
 21
349.24818
 31
0.0
  0
LINE
  5
324
330
214
100
AcDbEntity
  8
3_ALL_AXES
  6
Continuous
 62
     7
100
AcDbLine
 10
501.511897
 20
350.305483
 30
0.0
 11
485.511897
 21
350.305483
 31
0.0
  0
LINE
  5
325
330
214
100
AcDbEntity
  8
7_ALL_FEATURES
  6
Continuous
 62
     7
100
AcDbLine
 10
387.711897
 20
353.036637
 30
0.0
 11
418.211897
 21
353.036637
 31
0.0
  0
LINE
  5
326
330
214
100
AcDbEntity
  8
7_ALL_FEATURES
  6
Continuous
 62
     7
100
AcDbLine
 10
424.011897
 20
379.148173
 30
0.0
 11
423.711891
 21
379.44818
 31
0.0
  0
LINE
  5
327
330
214
100
AcDbEntity
  8
7_ALL_FEATURES
  6
Continuous
 62
     7
100
AcDbLine
 10
400.792239
 20
350.018989
 30
0.0
 11
401.186162
 21
350.088449
 31
0.0
  0
LINE
  5
328
330
214
100
AcDbEntity
  8
3_ALL_AXES
  6
Continuous
 62
     7
100
AcDbLine
 10
485.511897
 20
356.629381
 30
0.0
 11
501.511897
 21
356.629381
 31
0.0
  0
LINE
  5
329
330
214
100
AcDbEntity
  8
3_ALL_AXES
  6
Continuous
 62
     7
100
AcDbLine
 10
501.511897
 20
360.215903
 30
0.0
 11
485.511897
 21
360.215903
 31
0.0
  0
LINE
  5
32A
330
214
100
AcDbEntity
  8
3_ALL_AXES
  6
Continuous
 62
     7
100
AcDbLine
 10
485.511897
 20
365.646357
 30
0.0
 11
501.511897
 21
365.646357
 31
0.0
  0
LINE
  5
32B
330
214
100
AcDbEntity
  8
3_ALL_AXES
  6
Continuous
 62
     7
100
AcDbLine
 10
485.511897
 20
379.448179
 30
0.0
 11
485.511897
 21
379.397104
 31
0.0
  0
LINE
  5
32C
330
214
100
AcDbEntity
  8
3_ALL_AXES
  6
Continuous
 62
     7
100
AcDbLine
 10
485.511897
 20
378.503661
 30
0.0
 11
485.511897
 21
377.431798
 31
0.0
  0
LINE
  5
32D
330
214
100
AcDbEntity
  8
3_ALL_AXES
  6
Continuous
 62
     7
100
AcDbLine
 10
485.511897
 20
374.812354
 30
0.0
 11
485.511897
 21
372.741674
 31
0.0
  0
LINE
  5
32E
330
214
100
AcDbEntity
  8
3_ALL_AXES
  6
Continuous
 62
     7
100
AcDbLine
 10
485.511897
 20
368.57474
 30
0.0
 11
485.511897
 21
365.646357
 31
0.0
  0
LINE
  5
32F
330
214
100
AcDbEntity
  8
3_ALL_AXES
  6
Continuous
 62
     7
100
AcDbLine
 10
485.511897
 20
360.215903
 30
0.0
 11
485.511897
 21
356.629381
 31
0.0
  0
LINE
  5
330
330
214
100
AcDbEntity
  8
3_ALL_AXES
  6
Continuous
 62
     7
100
AcDbLine
 10
485.511897
 20
350.305483
 30
0.0
 11
485.511897
 21
346.305237
 31
0.0
  0
LINE
  5
331
330
214
100
AcDbEntity
  8
3_ALL_AXES
  6
Continuous
 62
     7
100
AcDbLine
 10
485.511897
 20
339.518859
 30
0.0
 11
485.511897
 21
335.3775
 31
0.0
  0
LINE
  5
332
330
214
100
AcDbEntity
  8
3_ALL_AXES
  6
Continuous
 62
     7
100
AcDbLine
 10
485.511897
 20
328.591122
 30
0.0
 11
485.511897
 21
324.590876
 31
0.0
  0
LINE
  5
333
330
214
100
AcDbEntity
  8
3_ALL_AXES
  6
Continuous
 62
     7
100
AcDbLine
 10
485.511897
 20
318.266978
 30
0.0
 11
485.511897
 21
314.680456
 31
0.0
  0
LINE
  5
334
330
214
100
AcDbEntity
  8
3_ALL_AXES
  6
Continuous
 62
     7
100
AcDbLine
 10
485.511897
 20
309.250002
 30
0.0
 11
485.511897
 21
306.321619
 31
0.0
  0
LINE
  5
335
330
214
100
AcDbEntity
  8
3_ALL_AXES
  6
Continuous
 62
     7
100
AcDbLine
 10
485.511897
 20
302.154685
 30
0.0
 11
485.511897
 21
300.084005
 31
0.0
  0
LINE
  5
336
330
214
100
AcDbEntity
  8
3_ALL_AXES
  6
Continuous
 62
     7
100
AcDbLine
 10
485.511897
 20
297.464561
 30
0.0
 11
485.511897
 21
296.392699
 31
0.0
  0
LINE
  5
337
330
214
100
AcDbEntity
  8
3_ALL_AXES
  6
Continuous
 62
     7
100
AcDbLine
 10
485.511897
 20
295.499255
 30
0.0
 11
485.511897
 21
295.448181
 31
0.0
  0
LINE
  5
338
330
214
100
AcDbEntity
  8
3_ALL_AXES
  6
Continuous
 62
     7
100
AcDbLine
 10
501.511897
 20
368.57474
 30
0.0
 11
485.511897
 21
368.57474
 31
0.0
  0
LINE
  5
339
330
214
100
AcDbEntity
  8
3_ALL_AXES
  6
Continuous
 62
     7
100
AcDbLine
 10
485.511897
 20
372.741674
 30
0.0
 11
501.511897
 21
372.741674
 31
0.0
  0
LINE
  5
33A
330
214
100
AcDbEntity
  8
3_ALL_AXES
  6
Continuous
 62
     7
100
AcDbLine
 10
501.511897
 20
374.812354
 30
0.0
 11
485.511897
 21
374.812354
 31
0.0
  0
LINE
  5
33B
330
214
100
AcDbEntity
  8
3_ALL_AXES
  6
Continuous
 62
     7
100
AcDbLine
 10
485.511897
 20
377.431798
 30
0.0
 11
501.511897
 21
377.431798
 31
0.0
  0
LINE
  5
33C
330
214
100
AcDbEntity
  8
3_ALL_AXES
  6
Continuous
 62
     7
100
AcDbLine
 10
501.511897
 20
378.503661
 30
0.0
 11
485.511897
 21
378.503661
 31
0.0
  0
LINE
  5
33D
330
214
100
AcDbEntity
  8
3_ALL_AXES
  6
Continuous
 62
     7
100
AcDbLine
 10
485.511897
 20
379.397104
 30
0.0
 11
501.511897
 21
379.397104
 31
0.0
  0
LINE
  5
33E
330
214
100
AcDbEntity
  8
3_ALL_AXES
  6
Continuous
 62
     7
100
AcDbLine
 10
387.711897
 20
379.44818
 30
0.0
 11
423.711891
 21
379.44818
 31
0.0
  0
LINE
  5
33F
330
214
100
AcDbEntity
  8
3_ALL_AXES
  6
Continuous
 62
     7
100
AcDbLine
 10
424.311897
 20
379.44818
 30
0.0
 11
485.511897
 21
379.44818
 31
0.0
  0
LINE
  5
340
330
214
100
AcDbEntity
  8
3_ALL_AXES
  6
Continuous
 62
     7
100
AcDbLine
 10
501.511897
 20
379.44818
 30
0.0
 11
513.711897
 21
379.44818
 31
0.0
  0
LINE
  5
341
330
214
100
AcDbEntity
  8
3_ALL_AXES
  6
Continuous
 62
     7
100
AcDbLine
 10
501.511897
 20
379.448179
 30
0.0
 11
501.511897
 21
379.397104
 31
0.0
  0
LINE
  5
342
330
214
100
AcDbEntity
  8
3_ALL_AXES
  6
Continuous
 62
     7
100
AcDbLine
 10
501.511897
 20
378.503661
 30
0.0
 11
501.511897
 21
377.431798
 31
0.0
  0
LINE
  5
343
330
214
100
AcDbEntity
  8
3_ALL_AXES
  6
Continuous
 62
     7
100
AcDbLine
 10
501.511897
 20
374.812354
 30
0.0
 11
501.511897
 21
372.741674
 31
0.0
  0
LINE
  5
344
330
214
100
AcDbEntity
  8
3_ALL_AXES
  6
Continuous
 62
     7
100
AcDbLine
 10
501.511897
 20
368.57474
 30
0.0
 11
501.511897
 21
365.646357
 31
0.0
  0
LINE
  5
345
330
214
100
AcDbEntity
  8
3_ALL_AXES
  6
Continuous
 62
     7
100
AcDbLine
 10
501.511897
 20
360.215903
 30
0.0
 11
501.511897
 21
356.629381
 31
0.0
  0
LINE
  5
346
330
214
100
AcDbEntity
  8
3_ALL_AXES
  6
Continuous
 62
     7
100
AcDbLine
 10
501.511897
 20
350.305483
 30
0.0
 11
501.511897
 21
346.305237
 31
0.0
  0
LINE
  5
347
330
214
100
AcDbEntity
  8
3_ALL_AXES
  6
Continuous
 62
     7
100
AcDbLine
 10
501.511897
 20
339.518859
 30
0.0
 11
501.511897
 21
335.3775
 31
0.0
  0
LINE
  5
348
330
214
100
AcDbEntity
  8
3_ALL_AXES
  6
Continuous
 62
     7
100
AcDbLine
 10
501.511897
 20
328.591122
 30
0.0
 11
501.511897
 21
324.590876
 31
0.0
  0
LINE
  5
349
330
214
100
AcDbEntity
  8
3_ALL_AXES
  6
Continuous
 62
     7
100
AcDbLine
 10
501.511897
 20
318.266978
 30
0.0
 11
501.511897
 21
314.680456
 31
0.0
  0
LINE
  5
34A
330
214
100
AcDbEntity
  8
3_ALL_AXES
  6
Continuous
 62
     7
100
AcDbLine
 10
501.511897
 20
309.250002
 30
0.0
 11
501.511897
 21
306.321619
 31
0.0
  0
LINE
  5
34B
330
214
100
AcDbEntity
  8
3_ALL_AXES
  6
Continuous
 62
     7
100
AcDbLine
 10
501.511897
 20
302.154685
 30
0.0
 11
501.511897
 21
300.084005
 31
0.0
  0
LINE
  5
34C
330
214
100
AcDbEntity
  8
3_ALL_AXES
  6
Continuous
 62
     7
100
AcDbLine
 10
501.511897
 20
297.464561
 30
0.0
 11
501.511897
 21
296.392699
 31
0.0
  0
LINE
  5
34D
330
214
100
AcDbEntity
  8
3_ALL_AXES
  6
Continuous
 62
     7
100
AcDbLine
 10
501.511897
 20
295.499255
 30
0.0
 11
501.511897
 21
295.448181
 31
0.0
  0
LINE
  5
34E
330
214
100
AcDbEntity
  8
7_ALL_FEATURES
  6
Continuous
 62
     7
100
AcDbLine
 10
513.711897
 20
295.44818
 30
0.0
 11
513.711897
 21
379.44818
 31
0.0
  0
LINE
  5
34F
330
214
100
AcDbEntity
  8
7_ALL_FEATURES
  6
Continuous
 62
     7
100
AcDbLine
 10
514.011897
 20
295.748183
 30
0.0
 11
514.011897
 21
379.148177
 31
0.0
  0
LINE
  5
350
330
214
100
AcDbEntity
  8
7_ALL_FEATURES
  6
Continuous
 62
     7
100
AcDbLine
 10
514.011897
 20
295.74818
 30
0.0
 11
513.711897
 21
295.44818
 31
0.0
  0
LINE
  5
351
330
214
100
AcDbEntity
  8
7_ALL_FEATURES
  6
Continuous
 62
     7
100
AcDbLine
 10
514.011897
 20
379.14818
 30
0.0
 11
513.711897
 21
379.44818
 31
0.0
  0
LINE
  5
352
330
214
100
AcDbEntity
  8
7_ALL_FEATURES
  6
Continuous
 62
     7
100
AcDbLine
 10
103.941918
 20
262.44818
 30
0.0
 11
173.941918
 21
262.44818
 31
0.0
  0
LINE
  5
353
330
214
100
AcDbEntity
  8
7_ALL_FEATURES
  6
Continuous
 62
     3
100
AcDbLine
 10
103.941918
 20
264.44818
 30
0.0
 11
173.941918
 21
264.44818
 31
0.0
  0
LINE
  5
354
330
214
100
AcDbEntity
  8
7_ALL_FEATURES
  6
Continuous
 62
     7
100
AcDbLine
 10
93.577909
 20
340.79787
 30
0.0
 11
95.005965
 21
344.470014
 31
0.0
  0
LINE
  5
355
330
214
100
AcDbEntity
  8
7_ALL_FEATURES
  6
Continuous
 62
     9
100
AcDbLine
 10
180.922087
 20
268.92164
 30
0.0
 11
178.914117
 21
268.92164
 31
0.0
  0
LINE
  5
356
330
214
100
AcDbEntity
  8
7_ALL_FEATURES
  6
Continuous
 62
     9
100
AcDbLine
 10
96.96175
 20
268.92164
 30
0.0
 11
98.96972
 21
268.92164
 31
0.0
  0
LINE
  5
357
330
214
100
AcDbEntity
  8
7_ALL_FEATURES
  6
Continuous
 62
     7
100
AcDbLine
 10
93.441918
 20
340.072977
 30
0.0
 11
93.441918
 21
334.823382
 31
0.0
  0
LINE
  5
358
330
214
100
AcDbEntity
  8
7_ALL_FEATURES
  6
Continuous
 62
     9
100
AcDbLine
 10
93.577909
 20
334.098489
 30
0.0
 11
93.577909
 21
340.79787
 31
0.0
  0
LINE
  5
359
330
214
100
AcDbEntity
  8
7_ALL_FEATURES
  6
Continuous
 62
     9
100
AcDbLine
 10
95.005965
 20
344.470014
 30
0.0
 11
95.005965
 21
330.426345
 31
0.0
  0
LINE
  5
35A
330
214
100
AcDbEntity
  8
7_ALL_FEATURES
  6
Continuous
 62
     9
100
AcDbLine
 10
180.941918
 20
275.762043
 30
0.0
 11
178.941918
 21
275.762043
 31
0.0
  0
LINE
  5
35B
330
214
100
AcDbEntity
  8
7_ALL_FEATURES
  6
Continuous
 62
     9
100
AcDbLine
 10
96.941918
 20
275.762043
 30
0.0
 11
98.941918
 21
275.762043
 31
0.0
  0
LINE
  5
35C
330
214
100
AcDbEntity
  8
7_ALL_FEATURES
  6
Continuous
 62
     9
100
AcDbLine
 10
95.704969
 20
344.94818
 30
0.0
 11
95.704969
 21
329.94818
 31
0.0
  0
LINE
  5
35D
330
214
100
AcDbEntity
  8
7_ALL_FEATURES
  6
Continuous
 62
     9
100
AcDbLine
 10
96.341918
 20
344.94818
 30
0.0
 11
96.341918
 21
329.94818
 31
0.0
  0
LINE
  5
35E
330
214
100
AcDbEntity
  8
7_ALL_FEATURES
  6
Continuous
 62
     7
100
AcDbLine
 10
96.441918
 20
344.84818
 30
0.0
 11
96.441918
 21
330.04818
 31
0.0
  0
LINE
  5
35F
330
214
100
AcDbEntity
  8
7_ALL_FEATURES
  6
Continuous
 62
     7
100
AcDbLine
 10
96.941918
 20
269.44818
 30
0.0
 11
96.941918
 21
337.19818
 31
0.0
  0
LINE
  5
360
330
214
100
AcDbEntity
  8
7_ALL_FEATURES
  6
Continuous
 62
     7
100
AcDbLine
 10
96.941918
 20
337.69818
 30
0.0
 11
96.941918
 21
351.423385
 31
0.0
  0
LINE
  5
361
330
214
100
AcDbEntity
  8
7_ALL_FEATURES
  6
Continuous
 62
     3
100
AcDbLine
 10
98.941918
 20
269.44818
 30
0.0
 11
98.941918
 21
324.642795
 31
0.0
  0
LINE
  5
362
330
214
100
AcDbEntity
  8
7_ALL_FEATURES
  6
Continuous
 62
     3
100
AcDbLine
 10
98.941918
 20
350.253565
 30
0.0
 11
98.941918
 21
351.423385
 31
0.0
  0
LINE
  5
363
330
214
100
AcDbEntity
  8
7_ALL_FEATURES
  6
Continuous
 62
     9
100
AcDbLine
 10
103.941918
 20
262.44818
 30
0.0
 11
103.941918
 21
264.44818
 31
0.0
  0
LINE
  5
364
330
214
100
AcDbEntity
  8
7_ALL_FEATURES
  6
Continuous
 62
     7
100
AcDbLine
 10
93.577909
 20
334.098489
 30
0.0
 11
95.005965
 21
330.426345
 31
0.0
  0
LINE
  5
365
330
214
100
AcDbEntity
  8
0
  6
Continuous
 62
     7
100
AcDbLine
 10
131.591918
 20
295.44818
 30
0.0
 11
146.291918
 21
295.44818
 31
0.0
  0
LINE
  5
366
330
214
100
AcDbEntity
  8
7_ALL_FEATURES
  6
Continuous
 62
     7
100
AcDbLine
 10
131.691918
 20
295.44818
 30
0.0
 11
146.191918
 21
295.44818
 31
0.0
  0
LINE
  5
367
330
214
100
AcDbEntity
  8
7_ALL_FEATURES
  6
Continuous
 62
     9
100
AcDbLine
 10
131.191918
 20
295.94818
 30
0.0
 11
132.482642
 21
295.94818
 31
0.0
  0
LINE
  5
368
330
214
100
AcDbEntity
  8
7_ALL_FEATURES
  6
Continuous
 62
     9
100
AcDbLine
 10
145.401195
 20
295.94818
 30
0.0
 11
146.691918
 21
295.94818
 31
0.0
  0
LINE
  5
369
330
214
100
AcDbEntity
  8
7_ALL_FEATURES
  6
Continuous
 62
     7
100
AcDbLine
 10
131.191918
 20
295.94818
 30
0.0
 11
131.191918
 21
296.170088
 31
0.0
  0
LINE
  5
36A
330
214
100
AcDbEntity
  8
0
  6
Continuous
 62
     2
100
AcDbLine
 10
131.591918
 20
295.44818
 30
0.0
 11
131.591918
 21
296.096674
 31
0.0
  0
LINE
  5
36B
330
214
100
AcDbEntity
  8
7_ALL_FEATURES
  6
Continuous
 62
     7
100
AcDbLine
 10
180.941918
 20
323.539413
 30
0.0
 11
178.941918
 21
323.539413
 31
0.0
  0
LINE
  5
36C
330
214
100
AcDbEntity
  8
7_ALL_FEATURES
  6
Continuous
 62
     7
100
AcDbLine
 10
96.941918
 20
323.539413
 30
0.0
 11
98.941918
 21
323.539413
 31
0.0
  0
LINE
  5
36D
330
214
100
AcDbEntity
  8
7_ALL_FEATURES
  6
Continuous
 62
     7
100
AcDbLine
 10
98.441304
 20
326.328507
 30
0.0
 11
96.941918
 21
326.328507
 31
0.0
  0
LINE
  5
36E
330
214
100
AcDbEntity
  8
7_ALL_FEATURES
  6
Continuous
 62
     7
100
AcDbLine
 10
179.442533
 20
326.328507
 30
0.0
 11
180.941918
 21
326.328507
 31
0.0
  0
LINE
  5
36F
330
214
100
AcDbEntity
  8
0
  6
Continuous
 62
     2
100
AcDbLine
 10
146.291918
 20
295.44818
 30
0.0
 11
146.291918
 21
296.096674
 31
0.0
  0
LINE
  5
370
330
214
100
AcDbEntity
  8
7_ALL_FEATURES
  6
Continuous
 62
     7
100
AcDbLine
 10
146.691918
 20
295.94818
 30
0.0
 11
146.691918
 21
296.170088
 31
0.0
  0
LINE
  5
371
330
214
100
AcDbEntity
  8
7_ALL_FEATURES
  6
Continuous
 62
     7
100
AcDbLine
 10
98.227207
 20
327.140446
 30
0.0
 11
96.941918
 21
327.140446
 31
0.0
  0
LINE
  5
372
330
214
100
AcDbEntity
  8
7_ALL_FEATURES
  6
Continuous
 62
     7
100
AcDbLine
 10
179.656629
 20
327.140446
 30
0.0
 11
180.941918
 21
327.140446
 31
0.0
  0
LINE
  5
373
330
214
100
AcDbEntity
  8
7_ALL_FEATURES
  6
Continuous
 62
     7
100
AcDbLine
 10
98.0252
 20
327.974499
 30
0.0
 11
96.941918
 21
327.974499
 31
0.0
  0
LINE
  5
374
330
214
100
AcDbEntity
  8
7_ALL_FEATURES
  6
Continuous
 62
     7
100
AcDbLine
 10
179.858636
 20
327.974499
 30
0.0
 11
180.941918
 21
327.974499
 31
0.0
  0
LINE
  5
375
330
214
100
AcDbEntity
  8
7_ALL_FEATURES
  6
Continuous
 62
     7
100
AcDbLine
 10
97.813278
 20
328.942131
 30
0.0
 11
96.941918
 21
328.942131
 31
0.0
  0
LINE
  5
376
330
214
100
AcDbEntity
  8
7_ALL_FEATURES
  6
Continuous
 62
     7
100
AcDbLine
 10
180.070558
 20
328.942131
 30
0.0
 11
180.941918
 21
328.942131
 31
0.0
  0
LINE
  5
377
330
214
100
AcDbEntity
  8
7_ALL_FEATURES
  6
Continuous
 62
     7
100
AcDbLine
 10
97.624516
 20
329.908345
 30
0.0
 11
96.941918
 21
329.908345
 31
0.0
  0
LINE
  5
378
330
214
100
AcDbEntity
  8
7_ALL_FEATURES
  6
Continuous
 62
     7
100
AcDbLine
 10
180.25932
 20
329.908345
 30
0.0
 11
180.941918
 21
329.908345
 31
0.0
  0
LINE
  5
379
330
214
100
AcDbEntity
  8
3_ALL_AXES
  6
Continuous
 62
     7
100
AcDbLine
 10
96.341918
 20
329.94818
 30
0.0
 11
95.704969
 21
329.94818
 31
0.0
  0
LINE
  5
37A
330
214
100
AcDbEntity
  8
3_ALL_AXES
  6
Continuous
 62
     7
100
AcDbLine
 10
181.541918
 20
329.94818
 30
0.0
 11
182.178868
 21
329.94818
 31
0.0
  0
LINE
  5
37B
330
214
100
AcDbEntity
  8
7_ALL_FEATURES
  6
Continuous
 62
     7
100
AcDbLine
 10
97.460265
 20
330.874975
 30
0.0
 11
96.941918
 21
330.874975
 31
0.0
  0
LINE
  5
37C
330
214
100
AcDbEntity
  8
7_ALL_FEATURES
  6
Continuous
 62
     7
100
AcDbLine
 10
180.423572
 20
330.874975
 30
0.0
 11
180.941918
 21
330.874975
 31
0.0
  0
LINE
  5
37D
330
214
100
AcDbEntity
  8
7_ALL_FEATURES
  6
Continuous
 62
     7
100
AcDbLine
 10
97.439648
 20
331.002268
 30
0.0
 11
96.941918
 21
331.002268
 31
0.0
  0
LINE
  5
37E
330
214
100
AcDbEntity
  8
7_ALL_FEATURES
  6
Continuous
 62
     7
100
AcDbLine
 10
180.444189
 20
331.002268
 30
0.0
 11
180.941918
 21
331.002268
 31
0.0
  0
LINE
  5
37F
330
214
100
AcDbEntity
  8
3_ALL_AXES
  6
Continuous
 62
     7
100
AcDbLine
 10
96.941918
 20
331.44818
 30
0.0
 11
96.441918
 21
331.44818
 31
0.0
  0
LINE
  5
380
330
214
100
AcDbEntity
  8
3_ALL_AXES
  6
Continuous
 62
     7
100
AcDbLine
 10
180.941918
 20
331.44818
 30
0.0
 11
181.441918
 21
331.44818
 31
0.0
  0
LINE
  5
381
330
214
100
AcDbEntity
  8
7_ALL_FEATURES
  6
Continuous
 62
     9
100
AcDbLine
 10
180.941918
 20
331.531524
 30
0.0
 11
180.522636
 21
331.531524
 31
0.0
  0
LINE
  5
382
330
214
100
AcDbEntity
  8
7_ALL_FEATURES
  6
Continuous
 62
     9
100
AcDbLine
 10
96.941918
 20
331.531524
 30
0.0
 11
97.361201
 21
331.531524
 31
0.0
  0
LINE
  5
383
330
214
100
AcDbEntity
  8
7_ALL_FEATURES
  6
Continuous
 62
     7
100
AcDbLine
 10
97.288165
 20
332.071285
 30
0.0
 11
96.941918
 21
332.071285
 31
0.0
  0
LINE
  5
384
330
214
100
AcDbEntity
  8
7_ALL_FEATURES
  6
Continuous
 62
     7
100
AcDbLine
 10
180.595672
 20
332.071285
 30
0.0
 11
180.941918
 21
332.071285
 31
0.0
  0
LINE
  5
385
330
214
100
AcDbEntity
  8
7_ALL_FEATURES
  6
Continuous
 62
     7
100
AcDbLine
 10
97.191484
 20
332.882383
 30
0.0
 11
96.941918
 21
332.882383
 31
0.0
  0
LINE
  5
386
330
214
100
AcDbEntity
  8
7_ALL_FEATURES
  6
Continuous
 62
     7
100
AcDbLine
 10
180.692352
 20
332.882383
 30
0.0
 11
180.941918
 21
332.882383
 31
0.0
  0
LINE
  5
387
330
214
100
AcDbEntity
  8
7_ALL_FEATURES
  6
Continuous
 62
     7
100
AcDbLine
 10
97.151978
 20
333.25826
 30
0.0
 11
96.941918
 21
333.25826
 31
0.0
  0
LINE
  5
388
330
214
100
AcDbEntity
  8
7_ALL_FEATURES
  6
Continuous
 62
     7
100
AcDbLine
 10
180.731859
 20
333.25826
 30
0.0
 11
180.941918
 21
333.25826
 31
0.0
  0
LINE
  5
389
330
214
100
AcDbEntity
  8
7_ALL_FEATURES
  6
Continuous
 62
     7
100
AcDbLine
 10
97.053524
 20
334.397599
 30
0.0
 11
96.941918
 21
334.397599
 31
0.0
  0
LINE
  5
38A
330
214
100
AcDbEntity
  8
7_ALL_FEATURES
  6
Continuous
 62
     7
100
AcDbLine
 10
180.830313
 20
334.397599
 30
0.0
 11
180.941918
 21
334.397599
 31
0.0
  0
LINE
  5
38B
330
214
100
AcDbEntity
  8
7_ALL_FEATURES
  6
Continuous
 62
     7
100
AcDbLine
 10
97.012135
 20
335.028521
 30
0.0
 11
96.941918
 21
335.028521
 31
0.0
  0
LINE
  5
38C
330
214
100
AcDbEntity
  8
7_ALL_FEATURES
  6
Continuous
 62
     7
100
AcDbLine
 10
180.871702
 20
335.028521
 30
0.0
 11
180.941918
 21
335.028521
 31
0.0
  0
LINE
  5
38D
330
214
100
AcDbEntity
  8
7_ALL_FEATURES
  6
Continuous
 62
     7
100
AcDbLine
 10
96.991816
 20
335.422445
 30
0.0
 11
96.941918
 21
335.422445
 31
0.0
  0
LINE
  5
38E
330
214
100
AcDbEntity
  8
7_ALL_FEATURES
  6
Continuous
 62
     7
100
AcDbLine
 10
180.892021
 20
335.422445
 30
0.0
 11
180.941918
 21
335.422445
 31
0.0
  0
LINE
  5
38F
330
214
100
AcDbEntity
  8
7_ALL_FEATURES
  6
Continuous
 62
     7
100
AcDbLine
 10
96.981099
 20
335.641562
 30
0.0
 11
96.941918
 21
335.641562
 31
0.0
  0
LINE
  5
390
330
214
100
AcDbEntity
  8
7_ALL_FEATURES
  6
Continuous
 62
     7
100
AcDbLine
 10
180.902737
 20
335.641562
 30
0.0
 11
180.941918
 21
335.641562
 31
0.0
  0
LINE
  5
391
330
214
100
AcDbEntity
  8
7_ALL_FEATURES
  6
Continuous
 62
     7
100
AcDbLine
 10
96.951174
 20
336.615335
 30
0.0
 11
96.941918
 21
336.615335
 31
0.0
  0
LINE
  5
392
330
214
100
AcDbEntity
  8
7_ALL_FEATURES
  6
Continuous
 62
     7
100
AcDbLine
 10
180.932662
 20
336.615335
 30
0.0
 11
180.941918
 21
336.615335
 31
0.0
  0
LINE
  5
393
330
214
100
AcDbEntity
  8
7_ALL_FEATURES
  6
Continuous
 62
     7
100
AcDbLine
 10
96.951174
 20
338.281024
 30
0.0
 11
96.941918
 21
338.281024
 31
0.0
  0
LINE
  5
394
330
214
100
AcDbEntity
  8
7_ALL_FEATURES
  6
Continuous
 62
     7
100
AcDbLine
 10
180.932662
 20
338.281024
 30
0.0
 11
180.941918
 21
338.281024
 31
0.0
  0
LINE
  5
395
330
214
100
AcDbEntity
  8
7_ALL_FEATURES
  6
Continuous
 62
     7
100
AcDbLine
 10
96.981099
 20
339.254798
 30
0.0
 11
96.941918
 21
339.254798
 31
0.0
  0
LINE
  5
396
330
214
100
AcDbEntity
  8
7_ALL_FEATURES
  6
Continuous
 62
     7
100
AcDbLine
 10
180.902737
 20
339.254798
 30
0.0
 11
180.941918
 21
339.254798
 31
0.0
  0
LINE
  5
397
330
214
100
AcDbEntity
  8
7_ALL_FEATURES
  6
Continuous
 62
     7
100
AcDbLine
 10
96.991816
 20
339.473915
 30
0.0
 11
96.941918
 21
339.473915
 31
0.0
  0
LINE
  5
398
330
214
100
AcDbEntity
  8
7_ALL_FEATURES
  6
Continuous
 62
     7
100
AcDbLine
 10
180.892021
 20
339.473915
 30
0.0
 11
180.941918
 21
339.473915
 31
0.0
  0
LINE
  5
399
330
214
100
AcDbEntity
  8
7_ALL_FEATURES
  6
Continuous
 62
     7
100
AcDbLine
 10
97.012135
 20
339.867838
 30
0.0
 11
96.941918
 21
339.867838
 31
0.0
  0
LINE
  5
39A
330
214
100
AcDbEntity
  8
7_ALL_FEATURES
  6
Continuous
 62
     7
100
AcDbLine
 10
180.871702
 20
339.867838
 30
0.0
 11
180.941918
 21
339.867838
 31
0.0
  0
LINE
  5
39B
330
214
100
AcDbEntity
  8
7_ALL_FEATURES
  6
Continuous
 62
     7
100
AcDbLine
 10
97.053524
 20
340.498761
 30
0.0
 11
96.941918
 21
340.498761
 31
0.0
  0
LINE
  5
39C
330
214
100
AcDbEntity
  8
7_ALL_FEATURES
  6
Continuous
 62
     7
100
AcDbLine
 10
180.830313
 20
340.498761
 30
0.0
 11
180.941918
 21
340.498761
 31
0.0
  0
LINE
  5
39D
330
214
100
AcDbEntity
  8
7_ALL_FEATURES
  6
Continuous
 62
     7
100
AcDbLine
 10
97.151978
 20
341.638099
 30
0.0
 11
96.941918
 21
341.638099
 31
0.0
  0
LINE
  5
39E
330
214
100
AcDbEntity
  8
7_ALL_FEATURES
  6
Continuous
 62
     7
100
AcDbLine
 10
180.731859
 20
341.638099
 30
0.0
 11
180.941918
 21
341.638099
 31
0.0
  0
LINE
  5
39F
330
214
100
AcDbEntity
  8
7_ALL_FEATURES
  6
Continuous
 62
     7
100
AcDbLine
 10
97.191484
 20
342.013976
 30
0.0
 11
96.941918
 21
342.013976
 31
0.0
  0
LINE
  5
3A0
330
214
100
AcDbEntity
  8
7_ALL_FEATURES
  6
Continuous
 62
     7
100
AcDbLine
 10
180.692352
 20
342.013976
 30
0.0
 11
180.941918
 21
342.013976
 31
0.0
  0
LINE
  5
3A1
330
214
100
AcDbEntity
  8
7_ALL_FEATURES
  6
Continuous
 62
     7
100
AcDbLine
 10
97.288165
 20
342.825075
 30
0.0
 11
96.941918
 21
342.825075
 31
0.0
  0
LINE
  5
3A2
330
214
100
AcDbEntity
  8
7_ALL_FEATURES
  6
Continuous
 62
     7
100
AcDbLine
 10
180.595672
 20
342.825075
 30
0.0
 11
180.941918
 21
342.825075
 31
0.0
  0
LINE
  5
3A3
330
214
100
AcDbEntity
  8
3_ALL_AXES
  6
Continuous
 62
     7
100
AcDbLine
 10
96.941918
 20
343.44818
 30
0.0
 11
96.441918
 21
343.44818
 31
0.0
  0
LINE
  5
3A4
330
214
100
AcDbEntity
  8
3_ALL_AXES
  6
Continuous
 62
     7
100
AcDbLine
 10
180.941918
 20
343.44818
 30
0.0
 11
181.441918
 21
343.44818
 31
0.0
  0
LINE
  5
3A5
330
214
100
AcDbEntity
  8
7_ALL_FEATURES
  6
Continuous
 62
     7
100
AcDbLine
 10
97.439648
 20
343.894092
 30
0.0
 11
96.941918
 21
343.894092
 31
0.0
  0
LINE
  5
3A6
330
214
100
AcDbEntity
  8
7_ALL_FEATURES
  6
Continuous
 62
     7
100
AcDbLine
 10
180.444189
 20
343.894092
 30
0.0
 11
180.941918
 21
343.894092
 31
0.0
  0
LINE
  5
3A7
330
214
100
AcDbEntity
  8
7_ALL_FEATURES
  6
Continuous
 62
     7
100
AcDbLine
 10
97.460265
 20
344.021385
 30
0.0
 11
96.941918
 21
344.021385
 31
0.0
  0
LINE
  5
3A8
330
214
100
AcDbEntity
  8
7_ALL_FEATURES
  6
Continuous
 62
     7
100
AcDbLine
 10
180.423572
 20
344.021385
 30
0.0
 11
180.941918
 21
344.021385
 31
0.0
  0
LINE
  5
3A9
330
214
100
AcDbEntity
  8
3_ALL_AXES
  6
Continuous
 62
     7
100
AcDbLine
 10
96.341918
 20
344.94818
 30
0.0
 11
95.704969
 21
344.94818
 31
0.0
  0
LINE
  5
3AA
330
214
100
AcDbEntity
  8
3_ALL_AXES
  6
Continuous
 62
     7
100
AcDbLine
 10
181.541918
 20
344.94818
 30
0.0
 11
182.178868
 21
344.94818
 31
0.0
  0
LINE
  5
3AB
330
214
100
AcDbEntity
  8
7_ALL_FEATURES
  6
Continuous
 62
     7
100
AcDbLine
 10
97.624516
 20
344.988014
 30
0.0
 11
96.941918
 21
344.988014
 31
0.0
  0
LINE
  5
3AC
330
214
100
AcDbEntity
  8
7_ALL_FEATURES
  6
Continuous
 62
     7
100
AcDbLine
 10
180.25932
 20
344.988014
 30
0.0
 11
180.941918
 21
344.988014
 31
0.0
  0
LINE
  5
3AD
330
214
100
AcDbEntity
  8
7_ALL_FEATURES
  6
Continuous
 62
     7
100
AcDbLine
 10
97.813278
 20
345.954229
 30
0.0
 11
96.941918
 21
345.954229
 31
0.0
  0
LINE
  5
3AE
330
214
100
AcDbEntity
  8
7_ALL_FEATURES
  6
Continuous
 62
     7
100
AcDbLine
 10
180.070558
 20
345.954229
 30
0.0
 11
180.941918
 21
345.954229
 31
0.0
  0
LINE
  5
3AF
330
214
100
AcDbEntity
  8
7_ALL_FEATURES
  6
Continuous
 62
     7
100
AcDbLine
 10
98.0252
 20
346.92186
 30
0.0
 11
96.941918
 21
346.92186
 31
0.0
  0
LINE
  5
3B0
330
214
100
AcDbEntity
  8
7_ALL_FEATURES
  6
Continuous
 62
     7
100
AcDbLine
 10
179.858636
 20
346.92186
 30
0.0
 11
180.941918
 21
346.92186
 31
0.0
  0
LINE
  5
3B1
330
214
100
AcDbEntity
  8
7_ALL_FEATURES
  6
Continuous
 62
     7
100
AcDbLine
 10
98.227207
 20
347.755914
 30
0.0
 11
96.941918
 21
347.755914
 31
0.0
  0
LINE
  5
3B2
330
214
100
AcDbEntity
  8
7_ALL_FEATURES
  6
Continuous
 62
     7
100
AcDbLine
 10
179.656629
 20
347.755914
 30
0.0
 11
180.941918
 21
347.755914
 31
0.0
  0
LINE
  5
3B3
330
214
100
AcDbEntity
  8
7_ALL_FEATURES
  6
Continuous
 62
     7
100
AcDbLine
 10
98.441304
 20
348.567853
 30
0.0
 11
96.941918
 21
348.567853
 31
0.0
  0
LINE
  5
3B4
330
214
100
AcDbEntity
  8
7_ALL_FEATURES
  6
Continuous
 62
     7
100
AcDbLine
 10
179.442533
 20
348.567853
 30
0.0
 11
180.941918
 21
348.567853
 31
0.0
  0
LINE
  5
3B5
330
214
100
AcDbEntity
  8
7_ALL_FEATURES
  6
Continuous
 62
     7
100
AcDbLine
 10
98.633516
 20
349.244403
 30
0.0
 11
96.941918
 21
349.244403
 31
0.0
  0
LINE
  5
3B6
330
214
100
AcDbEntity
  8
7_ALL_FEATURES
  6
Continuous
 62
     7
100
AcDbLine
 10
179.25032
 20
349.244403
 30
0.0
 11
180.941918
 21
349.244403
 31
0.0
  0
LINE
  5
3B7
330
214
100
AcDbEntity
  8
7_ALL_FEATURES
  6
Continuous
 62
     7
100
AcDbLine
 10
98.823794
 20
349.87598
 30
0.0
 11
96.941918
 21
349.87598
 31
0.0
  0
LINE
  5
3B8
330
214
100
AcDbEntity
  8
7_ALL_FEATURES
  6
Continuous
 62
     7
100
AcDbLine
 10
179.060042
 20
349.87598
 30
0.0
 11
180.941918
 21
349.87598
 31
0.0
  0
LINE
  5
3B9
330
214
100
AcDbEntity
  8
7_ALL_FEATURES
  6
Continuous
 62
     7
100
AcDbLine
 10
98.941918
 20
350.374471
 30
0.0
 11
96.941918
 21
350.374471
 31
0.0
  0
LINE
  5
3BA
330
214
100
AcDbEntity
  8
7_ALL_FEATURES
  6
Continuous
 62
     7
100
AcDbLine
 10
178.941918
 20
350.374471
 30
0.0
 11
180.941918
 21
350.374471
 31
0.0
  0
LINE
  5
3BB
330
214
100
AcDbEntity
  8
7_ALL_FEATURES
  6
Continuous
 62
     7
100
AcDbLine
 10
98.941918
 20
350.806495
 30
0.0
 11
96.941918
 21
350.806495
 31
0.0
  0
LINE
  5
3BC
330
214
100
AcDbEntity
  8
7_ALL_FEATURES
  6
Continuous
 62
     7
100
AcDbLine
 10
178.941918
 20
350.806495
 30
0.0
 11
180.941918
 21
350.806495
 31
0.0
  0
LINE
  5
3BD
330
214
100
AcDbEntity
  8
7_ALL_FEATURES
  6
Continuous
 62
     7
100
AcDbLine
 10
98.941918
 20
351.111779
 30
0.0
 11
96.941918
 21
351.111779
 31
0.0
  0
LINE
  5
3BE
330
214
100
AcDbEntity
  8
7_ALL_FEATURES
  6
Continuous
 62
     7
100
AcDbLine
 10
178.941918
 20
351.111779
 30
0.0
 11
180.941918
 21
351.111779
 31
0.0
  0
LINE
  5
3BF
330
214
100
AcDbEntity
  8
7_ALL_FEATURES
  6
Continuous
 62
     9
100
AcDbLine
 10
173.941918
 20
262.44818
 30
0.0
 11
173.941918
 21
264.44818
 31
0.0
  0
LINE
  5
3C0
330
214
100
AcDbEntity
  8
7_ALL_FEATURES
  6
Continuous
 62
     7
100
AcDbLine
 10
98.941918
 20
351.331124
 30
0.0
 11
96.941918
 21
351.331124
 31
0.0
  0
LINE
  5
3C1
330
214
100
AcDbEntity
  8
7_ALL_FEATURES
  6
Continuous
 62
     7
100
AcDbLine
 10
178.941918
 20
351.331124
 30
0.0
 11
180.941918
 21
351.331124
 31
0.0
  0
LINE
  5
3C2
330
214
100
AcDbEntity
  8
7_ALL_FEATURES
  6
Continuous
 62
     7
100
AcDbLine
 10
98.941918
 20
351.423385
 30
0.0
 11
96.941918
 21
351.423385
 31
0.0
  0
LINE
  5
3C3
330
214
100
AcDbEntity
  8
7_ALL_FEATURES
  6
Continuous
 62
     7
100
AcDbLine
 10
178.941918
 20
351.423385
 30
0.0
 11
180.941918
 21
351.423385
 31
0.0
  0
LINE
  5
3C4
330
214
100
AcDbEntity
  8
7_ALL_FEATURES
  6
Continuous
 62
     3
100
AcDbLine
 10
178.941918
 20
351.423385
 30
0.0
 11
178.941918
 21
350.253565
 31
0.0
  0
LINE
  5
3C5
330
214
100
AcDbEntity
  8
7_ALL_FEATURES
  6
Continuous
 62
     3
100
AcDbLine
 10
178.941918
 20
269.44818
 30
0.0
 11
178.941918
 21
324.642795
 31
0.0
  0
LINE
  5
3C6
330
214
100
AcDbEntity
  8
7_ALL_FEATURES
  6
Continuous
 62
     7
100
AcDbLine
 10
184.305928
 20
334.098489
 30
0.0
 11
182.877871
 21
330.426345
 31
0.0
  0
LINE
  5
3C7
330
214
100
AcDbEntity
  8
7_ALL_FEATURES
  6
Continuous
 62
     7
100
AcDbLine
 10
180.941918
 20
351.423385
 30
0.0
 11
180.941918
 21
337.69818
 31
0.0
  0
LINE
  5
3C8
330
214
100
AcDbEntity
  8
7_ALL_FEATURES
  6
Continuous
 62
     7
100
AcDbLine
 10
180.941918
 20
337.19818
 30
0.0
 11
180.941918
 21
269.44818
 31
0.0
  0
LINE
  5
3C9
330
214
100
AcDbEntity
  8
7_ALL_FEATURES
  6
Continuous
 62
     7
100
AcDbLine
 10
181.441918
 20
330.048254
 30
0.0
 11
181.441918
 21
344.848105
 31
0.0
  0
LINE
  5
3CA
330
214
100
AcDbEntity
  8
7_ALL_FEATURES
  6
Continuous
 62
     9
100
AcDbLine
 10
181.541918
 20
329.94818
 30
0.0
 11
181.541918
 21
344.94818
 31
0.0
  0
LINE
  5
3CB
330
214
100
AcDbEntity
  8
7_ALL_FEATURES
  6
Continuous
 62
     9
100
AcDbLine
 10
182.178868
 20
329.94818
 30
0.0
 11
182.178868
 21
344.94818
 31
0.0
  0
LINE
  5
3CC
330
214
100
AcDbEntity
  8
7_ALL_FEATURES
  6
Continuous
 62
     9
100
AcDbLine
 10
182.877871
 20
330.426345
 30
0.0
 11
182.877871
 21
344.470014
 31
0.0
  0
LINE
  5
3CD
330
214
100
AcDbEntity
  8
7_ALL_FEATURES
  6
Continuous
 62
     9
100
AcDbLine
 10
184.305928
 20
340.79787
 30
0.0
 11
184.305928
 21
334.098489
 31
0.0
  0
LINE
  5
3CE
330
214
100
AcDbEntity
  8
7_ALL_FEATURES
  6
Continuous
 62
     7
100
AcDbLine
 10
184.441918
 20
340.072966
 30
0.0
 11
184.441918
 21
334.823393
 31
0.0
  0
LINE
  5
3CF
330
214
100
AcDbEntity
  8
7_ALL_FEATURES
  6
Continuous
 62
     7
100
AcDbLine
 10
184.305928
 20
340.79787
 30
0.0
 11
182.877871
 21
344.470014
 31
0.0
  0
LINE
  5
3D0
330
214
100
AcDbEntity
  8
7_ALL_FEATURES
  6
Continuous
 62
     7
100
AcDbLine
 10
96.941918
 20
55.873271
 30
0.0
 11
97.241918
 21
55.573271
 31
0.0
  0
LINE
  5
3D1
330
214
100
AcDbEntity
  8
7_ALL_FEATURES
  6
Continuous
 62
     7
100
AcDbLine
 10
97.241918
 20
55.573271
 30
0.0
 11
180.641918
 21
55.573271
 31
0.0
  0
LINE
  5
3D2
330
214
100
AcDbEntity
  8
7_ALL_FEATURES
  6
Continuous
 62
     7
100
AcDbLine
 10
96.941918
 20
55.873271
 30
0.0
 11
180.941918
 21
55.873271
 31
0.0
  0
LINE
  5
3D3
330
214
100
AcDbEntity
  8
3_ALL_AXES
  6
Continuous
 62
     7
100
AcDbLine
 10
180.941918
 20
68.073271
 30
0.0
 11
180.890843
 21
68.073271
 31
0.0
  0
LINE
  5
3D4
330
214
100
AcDbEntity
  8
3_ALL_AXES
  6
Continuous
 62
     7
100
AcDbLine
 10
179.997399
 20
68.073271
 30
0.0
 11
178.925537
 21
68.073271
 31
0.0
  0
LINE
  5
3D5
330
214
100
AcDbEntity
  8
3_ALL_AXES
  6
Continuous
 62
     7
100
AcDbLine
 10
176.306093
 20
68.073271
 30
0.0
 11
174.235413
 21
68.073271
 31
0.0
  0
LINE
  5
3D6
330
214
100
AcDbEntity
  8
3_ALL_AXES
  6
Continuous
 62
     7
100
AcDbLine
 10
170.068479
 20
68.073271
 30
0.0
 11
167.140096
 21
68.073271
 31
0.0
  0
LINE
  5
3D7
330
214
100
AcDbEntity
  8
3_ALL_AXES
  6
Continuous
 62
     7
100
AcDbLine
 10
161.709642
 20
68.073271
 30
0.0
 11
158.12312
 21
68.073271
 31
0.0
  0
LINE
  5
3D8
330
214
100
AcDbEntity
  8
3_ALL_AXES
  6
Continuous
 62
     7
100
AcDbLine
 10
151.799222
 20
68.073271
 30
0.0
 11
147.798976
 21
68.073271
 31
0.0
  0
LINE
  5
3D9
330
214
100
AcDbEntity
  8
3_ALL_AXES
  6
Continuous
 62
     7
100
AcDbLine
 10
141.012598
 20
68.073271
 30
0.0
 11
136.871239
 21
68.073271
 31
0.0
  0
LINE
  5
3DA
330
214
100
AcDbEntity
  8
3_ALL_AXES
  6
Continuous
 62
     7
100
AcDbLine
 10
130.084861
 20
68.073271
 30
0.0
 11
126.084615
 21
68.073271
 31
0.0
  0
LINE
  5
3DB
330
214
100
AcDbEntity
  8
3_ALL_AXES
  6
Continuous
 62
     7
100
AcDbLine
 10
119.760717
 20
68.073271
 30
0.0
 11
116.174195
 21
68.073271
 31
0.0
  0
LINE
  5
3DC
330
214
100
AcDbEntity
  8
3_ALL_AXES
  6
Continuous
 62
     7
100
AcDbLine
 10
110.743741
 20
68.073271
 30
0.0
 11
107.815358
 21
68.073271
 31
0.0
  0
LINE
  5
3DD
330
214
100
AcDbEntity
  8
3_ALL_AXES
  6
Continuous
 62
     7
100
AcDbLine
 10
103.648424
 20
68.073271
 30
0.0
 11
101.577744
 21
68.073271
 31
0.0
  0
LINE
  5
3DE
330
214
100
AcDbEntity
  8
3_ALL_AXES
  6
Continuous
 62
     7
100
AcDbLine
 10
98.9583
 20
68.073271
 30
0.0
 11
97.886437
 21
68.073271
 31
0.0
  0
LINE
  5
3DF
330
214
100
AcDbEntity
  8
3_ALL_AXES
  6
Continuous
 62
     7
100
AcDbLine
 10
96.992994
 20
68.073271
 30
0.0
 11
96.941918
 21
68.073271
 31
0.0
  0
LINE
  5
3E0
330
214
100
AcDbEntity
  8
7_ALL_FEATURES
  6
Continuous
 62
     7
100
AcDbLine
 10
95.005965
 20
173.395105
 30
0.0
 11
93.577909
 21
169.722961
 31
0.0
  0
LINE
  5
3E1
330
214
100
AcDbEntity
  8
3_ALL_AXES
  6
Continuous
 62
     7
100
AcDbLine
 10
180.941918
 20
84.073271
 30
0.0
 11
180.890843
 21
84.073271
 31
0.0
  0
LINE
  5
3E2
330
214
100
AcDbEntity
  8
3_ALL_AXES
  6
Continuous
 62
     7
100
AcDbLine
 10
179.997399
 20
84.073271
 30
0.0
 11
178.925537
 21
84.073271
 31
0.0
  0
LINE
  5
3E3
330
214
100
AcDbEntity
  8
3_ALL_AXES
  6
Continuous
 62
     7
100
AcDbLine
 10
176.306093
 20
84.073271
 30
0.0
 11
174.235413
 21
84.073271
 31
0.0
  0
LINE
  5
3E4
330
214
100
AcDbEntity
  8
3_ALL_AXES
  6
Continuous
 62
     7
100
AcDbLine
 10
170.068479
 20
84.073271
 30
0.0
 11
167.140096
 21
84.073271
 31
0.0
  0
LINE
  5
3E5
330
214
100
AcDbEntity
  8
3_ALL_AXES
  6
Continuous
 62
     7
100
AcDbLine
 10
161.709642
 20
84.073271
 30
0.0
 11
158.12312
 21
84.073271
 31
0.0
  0
LINE
  5
3E6
330
214
100
AcDbEntity
  8
3_ALL_AXES
  6
Continuous
 62
     7
100
AcDbLine
 10
151.799222
 20
84.073271
 30
0.0
 11
147.798976
 21
84.073271
 31
0.0
  0
LINE
  5
3E7
330
214
100
AcDbEntity
  8
3_ALL_AXES
  6
Continuous
 62
     7
100
AcDbLine
 10
141.012598
 20
84.073271
 30
0.0
 11
136.871239
 21
84.073271
 31
0.0
  0
LINE
  5
3E8
330
214
100
AcDbEntity
  8
3_ALL_AXES
  6
Continuous
 62
     7
100
AcDbLine
 10
130.084861
 20
84.073271
 30
0.0
 11
126.084615
 21
84.073271
 31
0.0
  0
LINE
  5
3E9
330
214
100
AcDbEntity
  8
3_ALL_AXES
  6
Continuous
 62
     7
100
AcDbLine
 10
119.760717
 20
84.073271
 30
0.0
 11
116.174195
 21
84.073271
 31
0.0
  0
LINE
  5
3EA
330
214
100
AcDbEntity
  8
3_ALL_AXES
  6
Continuous
 62
     7
100
AcDbLine
 10
110.743741
 20
84.073271
 30
0.0
 11
107.815358
 21
84.073271
 31
0.0
  0
LINE
  5
3EB
330
214
100
AcDbEntity
  8
3_ALL_AXES
  6
Continuous
 62
     7
100
AcDbLine
 10
103.648424
 20
84.073271
 30
0.0
 11
101.577744
 21
84.073271
 31
0.0
  0
LINE
  5
3EC
330
214
100
AcDbEntity
  8
3_ALL_AXES
  6
Continuous
 62
     7
100
AcDbLine
 10
98.9583
 20
84.073271
 30
0.0
 11
97.886437
 21
84.073271
 31
0.0
  0
LINE
  5
3ED
330
214
100
AcDbEntity
  8
3_ALL_AXES
  6
Continuous
 62
     7
100
AcDbLine
 10
96.992994
 20
84.073271
 30
0.0
 11
96.941918
 21
84.073271
 31
0.0
  0
LINE
  5
3EE
330
214
100
AcDbEntity
  8
7_ALL_FEATURES
  6
Continuous
 62
     7
100
AcDbLine
 10
93.441918
 20
163.748473
 30
0.0
 11
93.441918
 21
168.998068
 31
0.0
  0
LINE
  5
3EF
330
214
100
AcDbEntity
  8
7_ALL_FEATURES
  6
Continuous
 62
     9
100
AcDbLine
 10
93.577909
 20
163.02358
 30
0.0
 11
93.577909
 21
169.722961
 31
0.0
  0
LINE
  5
3F0
330
214
100
AcDbEntity
  8
7_ALL_FEATURES
  6
Continuous
 62
     9
100
AcDbLine
 10
95.005965
 20
173.395105
 30
0.0
 11
95.005965
 21
159.351436
 31
0.0
  0
LINE
  5
3F1
330
214
100
AcDbEntity
  8
7_ALL_FEATURES
  6
Continuous
 62
     9
100
AcDbLine
 10
95.704969
 20
173.873271
 30
0.0
 11
95.704969
 21
158.873271
 31
0.0
  0
LINE
  5
3F2
330
214
100
AcDbEntity
  8
7_ALL_FEATURES
  6
Continuous
 62
     9
100
AcDbLine
 10
96.341918
 20
173.873271
 30
0.0
 11
96.341918
 21
158.873271
 31
0.0
  0
LINE
  5
3F3
330
214
100
AcDbEntity
  8
7_ALL_FEATURES
  6
Continuous
 62
     7
100
AcDbLine
 10
96.441918
 20
173.773271
 30
0.0
 11
96.441918
 21
158.973271
 31
0.0
  0
LINE
  5
3F4
330
214
100
AcDbEntity
  8
3_ALL_AXES
  6
Continuous
 62
     7
100
AcDbLine
 10
96.941918
 20
55.873271
 30
0.0
 11
96.941918
 21
68.073271
 31
0.0
  0
LINE
  5
3F5
330
214
100
AcDbEntity
  8
3_ALL_AXES
  6
Continuous
 62
     7
100
AcDbLine
 10
96.941918
 20
84.073271
 30
0.0
 11
96.941918
 21
145.273271
 31
0.0
  0
LINE
  5
3F6
330
214
100
AcDbEntity
  8
7_ALL_FEATURES
  6
Continuous
 62
     7
100
AcDbLine
 10
96.941918
 20
152.398065
 30
0.0
 11
96.941918
 21
214.30061
 31
0.0
  0
LINE
  5
3F7
330
214
100
AcDbEntity
  8
7_ALL_FEATURES
  6
Continuous
 62
     7
100
AcDbLine
 10
96.942985
 20
151.373271
 30
0.0
 11
96.942985
 21
145.873271
 31
0.0
  0
LINE
  5
3F8
330
214
100
AcDbEntity
  8
3_ALL_AXES
  6
Continuous
 62
     7
100
AcDbLine
 10
96.992994
 20
68.073271
 30
0.0
 11
96.992994
 21
84.073271
 31
0.0
  0
LINE
  5
3F9
330
214
100
AcDbEntity
  8
3_ALL_AXES
  6
Continuous
 62
     7
100
AcDbLine
 10
97.886437
 20
84.073271
 30
0.0
 11
97.886437
 21
68.073271
 31
0.0
  0
LINE
  5
3FA
330
214
100
AcDbEntity
  8
7_ALL_FEATURES
  6
Continuous
 62
     3
100
AcDbLine
 10
98.941918
 20
152.398065
 30
0.0
 11
98.941918
 21
214.30061
 31
0.0
  0
LINE
  5
3FB
330
214
100
AcDbEntity
  8
3_ALL_AXES
  6
Continuous
 62
     7
100
AcDbLine
 10
98.9583
 20
68.073271
 30
0.0
 11
98.9583
 21
84.073271
 31
0.0
  0
LINE
  5
3FC
330
214
100
AcDbEntity
  8
7_ALL_FEATURES
  6
Continuous
 62
     7
100
AcDbLine
 10
99.941918
 20
151.373271
 30
0.0
 11
99.941918
 21
182.373271
 31
0.0
  0
LINE
  5
3FD
330
214
100
AcDbEntity
  8
3_ALL_AXES
  6
Continuous
 62
     7
100
AcDbLine
 10
101.577744
 20
84.073271
 30
0.0
 11
101.577744
 21
68.073271
 31
0.0
  0
LINE
  5
3FE
330
214
100
AcDbEntity
  8
7_ALL_FEATURES
  6
Continuous
 62
     7
100
AcDbLine
 10
97.241918
 20
145.573271
 30
0.0
 11
96.941918
 21
145.273271
 31
0.0
  0
LINE
  5
3FF
330
214
100
AcDbEntity
  8
3_ALL_AXES
  6
Continuous
 62
     7
100
AcDbLine
 10
103.648424
 20
68.073271
 30
0.0
 11
103.648424
 21
84.073271
 31
0.0
  0
LINE
  5
400
330
214
100
AcDbEntity
  8
7_ALL_FEATURES
  6
Continuous
 62
     9
100
AcDbLine
 10
103.941918
 20
214.373271
 30
0.0
 11
103.941918
 21
183.373271
 31
0.0
  0
LINE
  5
401
330
214
100
AcDbEntity
  8
3_ALL_AXES
  6
Continuous
 62
     7
100
AcDbLine
 10
107.815358
 20
84.073271
 30
0.0
 11
107.815358
 21
68.073271
 31
0.0
  0
LINE
  5
402
330
214
100
AcDbEntity
  8
7_ALL_FEATURES
  6
Continuous
 62
     7
100
AcDbLine
 10
95.005965
 20
159.351436
 30
0.0
 11
93.577909
 21
163.02358
 31
0.0
  0
LINE
  5
403
330
214
100
AcDbEntity
  8
3_ALL_AXES
  6
Continuous
 62
     7
100
AcDbLine
 10
110.743741
 20
68.073271
 30
0.0
 11
110.743741
 21
84.073271
 31
0.0
  0
LINE
  5
404
330
214
100
AcDbEntity
  8
3_ALL_AXES
  6
Continuous
 62
     7
100
AcDbLine
 10
116.174195
 20
84.073271
 30
0.0
 11
116.174195
 21
68.073271
 31
0.0
  0
LINE
  5
405
330
214
100
AcDbEntity
  8
3_ALL_AXES
  6
Continuous
 62
     7
100
AcDbLine
 10
119.760717
 20
68.073271
 30
0.0
 11
119.760717
 21
84.073271
 31
0.0
  0
LINE
  5
406
330
214
100
AcDbEntity
  8
7_ALL_FEATURES
  6
Continuous
 62
     7
100
AcDbLine
 10
97.242091
 20
145.573271
 30
0.0
 11
97.142612
 21
145.672957
 31
0.0
  0
LINE
  5
407
330
214
100
AcDbEntity
  8
7_ALL_FEATURES
  6
Continuous
 62
     7
100
AcDbLine
 10
97.19238
 20
145.623076
 30
0.0
 11
97.142612
 21
145.672958
 31
0.0
  0
LINE
  5
408
330
214
100
AcDbEntity
  8
3_ALL_AXES
  6
Continuous
 62
     7
100
AcDbLine
 10
126.084615
 20
84.073271
 30
0.0
 11
126.084615
 21
68.073271
 31
0.0
  0
LINE
  5
409
330
214
100
AcDbEntity
  8
3_ALL_AXES
  6
Continuous
 62
     7
100
AcDbLine
 10
130.084861
 20
68.073271
 30
0.0
 11
130.084861
 21
84.073271
 31
0.0
  0
LINE
  5
40A
330
214
100
AcDbEntity
  8
3_ALL_AXES
  6
Continuous
 62
     7
100
AcDbLine
 10
136.871239
 20
84.073271
 30
0.0
 11
136.871239
 21
68.073271
 31
0.0
  0
LINE
  5
40B
330
214
100
AcDbEntity
  8
3_ALL_AXES
  6
Continuous
 62
     7
100
AcDbLine
 10
141.012598
 20
68.073271
 30
0.0
 11
141.012598
 21
84.073271
 31
0.0
  0
LINE
  5
40C
330
214
100
AcDbEntity
  8
3_ALL_AXES
  6
Continuous
 62
     7
100
AcDbLine
 10
147.798976
 20
84.073271
 30
0.0
 11
147.798976
 21
68.073271
 31
0.0
  0
LINE
  5
40D
330
214
100
AcDbEntity
  8
3_ALL_AXES
  6
Continuous
 62
     7
100
AcDbLine
 10
151.799222
 20
68.073271
 30
0.0
 11
151.799222
 21
84.073271
 31
0.0
  0
LINE
  5
40E
330
214
100
AcDbEntity
  8
7_ALL_FEATURES
  6
Continuous
 62
     7
100
AcDbLine
 10
96.941918
 20
145.273271
 30
0.0
 11
180.941918
 21
145.273271
 31
0.0
  0
LINE
  5
40F
330
214
100
AcDbEntity
  8
7_ALL_FEATURES
  6
Continuous
 62
     7
100
AcDbLine
 10
97.241918
 20
145.573271
 30
0.0
 11
180.641918
 21
145.573271
 31
0.0
  0
LINE
  5
410
330
214
100
AcDbEntity
  8
7_ALL_FEATURES
  6
Continuous
 62
     7
100
AcDbLine
 10
96.942985
 20
145.873271
 30
0.0
 11
180.940851
 21
145.873271
 31
0.0
  0
LINE
  5
411
330
214
100
AcDbEntity
  8
7_ALL_FEATURES
  6
Continuous
 62
     7
100
AcDbLine
 10
180.940851
 20
151.373271
 30
0.0
 11
177.941918
 21
151.373271
 31
0.0
  0
LINE
  5
412
330
214
100
AcDbEntity
  8
7_ALL_FEATURES
  6
Continuous
 62
     7
100
AcDbLine
 10
96.942985
 20
151.373271
 30
0.0
 11
99.941918
 21
151.373271
 31
0.0
  0
LINE
  5
413
330
214
100
AcDbEntity
  8
7_ALL_FEATURES
  6
Continuous
 62
     7
100
AcDbLine
 10
98.941918
 20
152.398065
 30
0.0
 11
96.941918
 21
152.398065
 31
0.0
  0
LINE
  5
414
330
214
100
AcDbEntity
  8
7_ALL_FEATURES
  6
Continuous
 62
     7
100
AcDbLine
 10
178.941918
 20
152.398065
 30
0.0
 11
180.941918
 21
152.398065
 31
0.0
  0
LINE
  5
415
330
214
100
AcDbEntity
  8
7_ALL_FEATURES
  6
Continuous
 62
     7
100
AcDbLine
 10
98.941918
 20
152.490327
 30
0.0
 11
96.941918
 21
152.490327
 31
0.0
  0
LINE
  5
416
330
214
100
AcDbEntity
  8
7_ALL_FEATURES
  6
Continuous
 62
     7
100
AcDbLine
 10
178.941918
 20
152.490327
 30
0.0
 11
180.941918
 21
152.490327
 31
0.0
  0
LINE
  5
417
330
214
100
AcDbEntity
  8
7_ALL_FEATURES
  6
Continuous
 62
     7
100
AcDbLine
 10
98.941918
 20
152.709671
 30
0.0
 11
96.941918
 21
152.709671
 31
0.0
  0
LINE
  5
418
330
214
100
AcDbEntity
  8
7_ALL_FEATURES
  6
Continuous
 62
     7
100
AcDbLine
 10
178.941918
 20
152.709671
 30
0.0
 11
180.941918
 21
152.709671
 31
0.0
  0
LINE
  5
419
330
214
100
AcDbEntity
  8
7_ALL_FEATURES
  6
Continuous
 62
     7
100
AcDbLine
 10
98.941918
 20
153.014956
 30
0.0
 11
96.941918
 21
153.014956
 31
0.0
  0
LINE
  5
41A
330
214
100
AcDbEntity
  8
7_ALL_FEATURES
  6
Continuous
 62
     7
100
AcDbLine
 10
178.941918
 20
153.014956
 30
0.0
 11
180.941918
 21
153.014956
 31
0.0
  0
LINE
  5
41B
330
214
100
AcDbEntity
  8
7_ALL_FEATURES
  6
Continuous
 62
     7
100
AcDbLine
 10
98.941918
 20
153.44698
 30
0.0
 11
96.941918
 21
153.44698
 31
0.0
  0
LINE
  5
41C
330
214
100
AcDbEntity
  8
7_ALL_FEATURES
  6
Continuous
 62
     7
100
AcDbLine
 10
178.941918
 20
153.44698
 30
0.0
 11
180.941918
 21
153.44698
 31
0.0
  0
LINE
  5
41D
330
214
100
AcDbEntity
  8
7_ALL_FEATURES
  6
Continuous
 62
     7
100
AcDbLine
 10
98.941918
 20
153.94547
 30
0.0
 11
96.941918
 21
153.94547
 31
0.0
  0
LINE
  5
41E
330
214
100
AcDbEntity
  8
7_ALL_FEATURES
  6
Continuous
 62
     7
100
AcDbLine
 10
178.941918
 20
153.94547
 30
0.0
 11
180.941918
 21
153.94547
 31
0.0
  0
LINE
  5
41F
330
214
100
AcDbEntity
  8
3_ALL_AXES
  6
Continuous
 62
     7
100
AcDbLine
 10
158.12312
 20
84.073271
 30
0.0
 11
158.12312
 21
68.073271
 31
0.0
  0
LINE
  5
420
330
214
100
AcDbEntity
  8
3_ALL_AXES
  6
Continuous
 62
     7
100
AcDbLine
 10
161.709642
 20
68.073271
 30
0.0
 11
161.709642
 21
84.073271
 31
0.0
  0
LINE
  5
421
330
214
100
AcDbEntity
  8
7_ALL_FEATURES
  6
Continuous
 62
     7
100
AcDbLine
 10
98.941918
 20
154.577047
 30
0.0
 11
96.941918
 21
154.577047
 31
0.0
  0
LINE
  5
422
330
214
100
AcDbEntity
  8
7_ALL_FEATURES
  6
Continuous
 62
     7
100
AcDbLine
 10
178.941918
 20
154.577047
 30
0.0
 11
180.941918
 21
154.577047
 31
0.0
  0
LINE
  5
423
330
214
100
AcDbEntity
  8
7_ALL_FEATURES
  6
Continuous
 62
     7
100
AcDbLine
 10
98.941918
 20
155.253598
 30
0.0
 11
96.941918
 21
155.253598
 31
0.0
  0
LINE
  5
424
330
214
100
AcDbEntity
  8
7_ALL_FEATURES
  6
Continuous
 62
     7
100
AcDbLine
 10
178.941918
 20
155.253598
 30
0.0
 11
180.941918
 21
155.253598
 31
0.0
  0
LINE
  5
425
330
214
100
AcDbEntity
  8
3_ALL_AXES
  6
Continuous
 62
     7
100
AcDbLine
 10
99.941918
 20
156.023271
 30
0.0
 11
99.775253
 21
156.023271
 31
0.0
  0
LINE
  5
426
330
214
100
AcDbEntity
  8
7_ALL_FEATURES
  6
Continuous
 62
     7
100
AcDbLine
 10
98.941918
 20
156.065537
 30
0.0
 11
96.941918
 21
156.065537
 31
0.0
  0
LINE
  5
427
330
214
100
AcDbEntity
  8
7_ALL_FEATURES
  6
Continuous
 62
     7
100
AcDbLine
 10
178.941918
 20
156.065537
 30
0.0
 11
180.941918
 21
156.065537
 31
0.0
  0
LINE
  5
428
330
214
100
AcDbEntity
  8
3_ALL_AXES
  6
Continuous
 62
     7
100
AcDbLine
 10
99.775253
 20
156.723271
 30
0.0
 11
99.941918
 21
156.723271
 31
0.0
  0
LINE
  5
429
330
214
100
AcDbEntity
  8
7_ALL_FEATURES
  6
Continuous
 62
     7
100
AcDbLine
 10
98.941918
 20
156.89959
 30
0.0
 11
96.941918
 21
156.89959
 31
0.0
  0
LINE
  5
42A
330
214
100
AcDbEntity
  8
7_ALL_FEATURES
  6
Continuous
 62
     7
100
AcDbLine
 10
178.941918
 20
156.89959
 30
0.0
 11
180.941918
 21
156.89959
 31
0.0
  0
LINE
  5
42B
330
214
100
AcDbEntity
  8
7_ALL_FEATURES
  6
Continuous
 62
     7
100
AcDbLine
 10
98.941918
 20
157.867222
 30
0.0
 11
96.941918
 21
157.867222
 31
0.0
  0
LINE
  5
42C
330
214
100
AcDbEntity
  8
7_ALL_FEATURES
  6
Continuous
 62
     7
100
AcDbLine
 10
178.941918
 20
157.867222
 30
0.0
 11
180.941918
 21
157.867222
 31
0.0
  0
LINE
  5
42D
330
214
100
AcDbEntity
  8
7_ALL_FEATURES
  6
Continuous
 62
     7
100
AcDbLine
 10
98.941918
 20
158.833436
 30
0.0
 11
96.941918
 21
158.833436
 31
0.0
  0
LINE
  5
42E
330
214
100
AcDbEntity
  8
7_ALL_FEATURES
  6
Continuous
 62
     7
100
AcDbLine
 10
178.941918
 20
158.833436
 30
0.0
 11
180.941918
 21
158.833436
 31
0.0
  0
LINE
  5
42F
330
214
100
AcDbEntity
  8
7_ALL_FEATURES
  6
Continuous
 62
     7
100
AcDbLine
 10
95.704969
 20
158.873271
 30
0.0
 11
96.341918
 21
158.873271
 31
0.0
  0
LINE
  5
430
330
214
100
AcDbEntity
  8
3_ALL_AXES
  6
Continuous
 62
     7
100
AcDbLine
 10
181.541918
 20
158.873271
 30
0.0
 11
182.178868
 21
158.873271
 31
0.0
  0
LINE
  5
431
330
214
100
AcDbEntity
  8
7_ALL_FEATURES
  6
Continuous
 62
     7
100
AcDbLine
 10
98.941918
 20
159.800066
 30
0.0
 11
96.941918
 21
159.800066
 31
0.0
  0
LINE
  5
432
330
214
100
AcDbEntity
  8
7_ALL_FEATURES
  6
Continuous
 62
     7
100
AcDbLine
 10
178.941918
 20
159.800066
 30
0.0
 11
180.941918
 21
159.800066
 31
0.0
  0
LINE
  5
433
330
214
100
AcDbEntity
  8
7_ALL_FEATURES
  6
Continuous
 62
     7
100
AcDbLine
 10
98.941918
 20
159.927359
 30
0.0
 11
96.941918
 21
159.927359
 31
0.0
  0
LINE
  5
434
330
214
100
AcDbEntity
  8
7_ALL_FEATURES
  6
Continuous
 62
     7
100
AcDbLine
 10
178.941918
 20
159.927359
 30
0.0
 11
180.941918
 21
159.927359
 31
0.0
  0
LINE
  5
435
330
214
100
AcDbEntity
  8
3_ALL_AXES
  6
Continuous
 62
     7
100
AcDbLine
 10
167.140096
 20
84.073271
 30
0.0
 11
167.140096
 21
68.073271
 31
0.0
  0
LINE
  5
436
330
214
100
AcDbEntity
  8
3_ALL_AXES
  6
Continuous
 62
     7
100
AcDbLine
 10
170.068479
 20
68.073271
 30
0.0
 11
170.068479
 21
84.073271
 31
0.0
  0
LINE
  5
437
330
214
100
AcDbEntity
  8
3_ALL_AXES
  6
Continuous
 62
     7
100
AcDbLine
 10
99.941918
 20
160.373271
 30
0.0
 11
98.941918
 21
160.373271
 31
0.0
  0
LINE
  5
438
330
214
100
AcDbEntity
  8
3_ALL_AXES
  6
Continuous
 62
     7
100
AcDbLine
 10
96.941918
 20
160.373271
 30
0.0
 11
96.441918
 21
160.373271
 31
0.0
  0
LINE
  5
439
330
214
100
AcDbEntity
  8
3_ALL_AXES
  6
Continuous
 62
     7
100
AcDbLine
 10
177.941918
 20
160.373271
 30
0.0
 11
178.941918
 21
160.373271
 31
0.0
  0
LINE
  5
43A
330
214
100
AcDbEntity
  8
3_ALL_AXES
  6
Continuous
 62
     7
100
AcDbLine
 10
180.941918
 20
160.373271
 30
0.0
 11
181.441918
 21
160.373271
 31
0.0
  0
LINE
  5
43B
330
214
100
AcDbEntity
  8
7_ALL_FEATURES
  6
Continuous
 62
     7
100
AcDbLine
 10
98.941918
 20
160.996376
 30
0.0
 11
96.941918
 21
160.996376
 31
0.0
  0
LINE
  5
43C
330
214
100
AcDbEntity
  8
7_ALL_FEATURES
  6
Continuous
 62
     7
100
AcDbLine
 10
178.941918
 20
160.996376
 30
0.0
 11
180.941918
 21
160.996376
 31
0.0
  0
LINE
  5
43D
330
214
100
AcDbEntity
  8
7_ALL_FEATURES
  6
Continuous
 62
     7
100
AcDbLine
 10
98.941918
 20
161.807474
 30
0.0
 11
96.941918
 21
161.807474
 31
0.0
  0
LINE
  5
43E
330
214
100
AcDbEntity
  8
7_ALL_FEATURES
  6
Continuous
 62
     7
100
AcDbLine
 10
178.941918
 20
161.807474
 30
0.0
 11
180.941918
 21
161.807474
 31
0.0
  0
LINE
  5
43F
330
214
100
AcDbEntity
  8
7_ALL_FEATURES
  6
Continuous
 62
     7
100
AcDbLine
 10
98.941918
 20
162.183351
 30
0.0
 11
96.941918
 21
162.183351
 31
0.0
  0
LINE
  5
440
330
214
100
AcDbEntity
  8
7_ALL_FEATURES
  6
Continuous
 62
     7
100
AcDbLine
 10
178.941918
 20
162.183351
 30
0.0
 11
180.941918
 21
162.183351
 31
0.0
  0
LINE
  5
441
330
214
100
AcDbEntity
  8
7_ALL_FEATURES
  6
Continuous
 62
     7
100
AcDbLine
 10
98.941918
 20
163.32269
 30
0.0
 11
96.941918
 21
163.32269
 31
0.0
  0
LINE
  5
442
330
214
100
AcDbEntity
  8
7_ALL_FEATURES
  6
Continuous
 62
     7
100
AcDbLine
 10
178.941918
 20
163.32269
 30
0.0
 11
180.941918
 21
163.32269
 31
0.0
  0
LINE
  5
443
330
214
100
AcDbEntity
  8
7_ALL_FEATURES
  6
Continuous
 62
     7
100
AcDbLine
 10
98.941918
 20
163.953612
 30
0.0
 11
96.941918
 21
163.953612
 31
0.0
  0
LINE
  5
444
330
214
100
AcDbEntity
  8
7_ALL_FEATURES
  6
Continuous
 62
     7
100
AcDbLine
 10
178.941918
 20
163.953612
 30
0.0
 11
180.941918
 21
163.953612
 31
0.0
  0
LINE
  5
445
330
214
100
AcDbEntity
  8
7_ALL_FEATURES
  6
Continuous
 62
     7
100
AcDbLine
 10
98.941918
 20
164.347536
 30
0.0
 11
96.941918
 21
164.347536
 31
0.0
  0
LINE
  5
446
330
214
100
AcDbEntity
  8
7_ALL_FEATURES
  6
Continuous
 62
     7
100
AcDbLine
 10
178.941918
 20
164.347536
 30
0.0
 11
180.941918
 21
164.347536
 31
0.0
  0
LINE
  5
447
330
214
100
AcDbEntity
  8
7_ALL_FEATURES
  6
Continuous
 62
     7
100
AcDbLine
 10
98.941918
 20
164.566653
 30
0.0
 11
96.941918
 21
164.566653
 31
0.0
  0
LINE
  5
448
330
214
100
AcDbEntity
  8
7_ALL_FEATURES
  6
Continuous
 62
     7
100
AcDbLine
 10
178.941918
 20
164.566653
 30
0.0
 11
180.941918
 21
164.566653
 31
0.0
  0
LINE
  5
449
330
214
100
AcDbEntity
  8
7_ALL_FEATURES
  6
Continuous
 62
     7
100
AcDbLine
 10
98.941918
 20
165.540426
 30
0.0
 11
96.941918
 21
165.540426
 31
0.0
  0
LINE
  5
44A
330
214
100
AcDbEntity
  8
7_ALL_FEATURES
  6
Continuous
 62
     7
100
AcDbLine
 10
178.941918
 20
165.540426
 30
0.0
 11
180.941918
 21
165.540426
 31
0.0
  0
LINE
  5
44B
330
214
100
AcDbEntity
  8
7_ALL_FEATURES
  6
Continuous
 62
     7
100
AcDbLine
 10
98.941918
 20
166.123271
 30
0.0
 11
96.941918
 21
166.123271
 31
0.0
  0
LINE
  5
44C
330
214
100
AcDbEntity
  8
7_ALL_FEATURES
  6
Continuous
 62
     7
100
AcDbLine
 10
178.941918
 20
166.123271
 30
0.0
 11
180.941918
 21
166.123271
 31
0.0
  0
LINE
  5
44D
330
214
100
AcDbEntity
  8
7_ALL_FEATURES
  6
Continuous
 62
     9
100
AcDbLine
 10
173.941918
 20
183.373271
 30
0.0
 11
173.941918
 21
214.373271
 31
0.0
  0
LINE
  5
44E
330
214
100
AcDbEntity
  8
3_ALL_AXES
  6
Continuous
 62
     7
100
AcDbLine
 10
174.235413
 20
84.073271
 30
0.0
 11
174.235413
 21
68.073271
 31
0.0
  0
LINE
  5
44F
330
214
100
AcDbEntity
  8
3_ALL_AXES
  6
Continuous
 62
     7
100
AcDbLine
 10
176.306093
 20
68.073271
 30
0.0
 11
176.306093
 21
84.073271
 31
0.0
  0
LINE
  5
450
330
214
100
AcDbEntity
  8
7_ALL_FEATURES
  6
Continuous
 62
     7
100
AcDbLine
 10
184.305928
 20
163.02358
 30
0.0
 11
182.877871
 21
159.351436
 31
0.0
  0
LINE
  5
451
330
214
100
AcDbEntity
  8
7_ALL_FEATURES
  6
Continuous
 62
     7
100
AcDbLine
 10
98.941918
 20
166.623271
 30
0.0
 11
96.941918
 21
166.623271
 31
0.0
  0
LINE
  5
452
330
214
100
AcDbEntity
  8
7_ALL_FEATURES
  6
Continuous
 62
     7
100
AcDbLine
 10
178.941918
 20
166.623271
 30
0.0
 11
180.941918
 21
166.623271
 31
0.0
  0
LINE
  5
453
330
214
100
AcDbEntity
  8
7_ALL_FEATURES
  6
Continuous
 62
     7
100
AcDbLine
 10
98.941918
 20
167.206115
 30
0.0
 11
96.941918
 21
167.206115
 31
0.0
  0
LINE
  5
454
330
214
100
AcDbEntity
  8
7_ALL_FEATURES
  6
Continuous
 62
     7
100
AcDbLine
 10
178.941918
 20
167.206115
 30
0.0
 11
180.941918
 21
167.206115
 31
0.0
  0
LINE
  5
455
330
214
100
AcDbEntity
  8
7_ALL_FEATURES
  6
Continuous
 62
     7
100
AcDbLine
 10
98.941918
 20
168.179889
 30
0.0
 11
96.941918
 21
168.179889
 31
0.0
  0
LINE
  5
456
330
214
100
AcDbEntity
  8
7_ALL_FEATURES
  6
Continuous
 62
     7
100
AcDbLine
 10
178.941918
 20
168.179889
 30
0.0
 11
180.941918
 21
168.179889
 31
0.0
  0
LINE
  5
457
330
214
100
AcDbEntity
  8
7_ALL_FEATURES
  6
Continuous
 62
     7
100
AcDbLine
 10
98.941918
 20
168.399006
 30
0.0
 11
96.941918
 21
168.399006
 31
0.0
  0
LINE
  5
458
330
214
100
AcDbEntity
  8
7_ALL_FEATURES
  6
Continuous
 62
     7
100
AcDbLine
 10
178.941918
 20
168.399006
 30
0.0
 11
180.941918
 21
168.399006
 31
0.0
  0
LINE
  5
459
330
214
100
AcDbEntity
  8
7_ALL_FEATURES
  6
Continuous
 62
     7
100
AcDbLine
 10
98.941918
 20
168.792929
 30
0.0
 11
96.941918
 21
168.792929
 31
0.0
  0
LINE
  5
45A
330
214
100
AcDbEntity
  8
7_ALL_FEATURES
  6
Continuous
 62
     7
100
AcDbLine
 10
178.941918
 20
168.792929
 30
0.0
 11
180.941918
 21
168.792929
 31
0.0
  0
LINE
  5
45B
330
214
100
AcDbEntity
  8
7_ALL_FEATURES
  6
Continuous
 62
     7
100
AcDbLine
 10
98.941918
 20
169.423852
 30
0.0
 11
96.941918
 21
169.423852
 31
0.0
  0
LINE
  5
45C
330
214
100
AcDbEntity
  8
7_ALL_FEATURES
  6
Continuous
 62
     7
100
AcDbLine
 10
178.941918
 20
169.423852
 30
0.0
 11
180.941918
 21
169.423852
 31
0.0
  0
LINE
  5
45D
330
214
100
AcDbEntity
  8
7_ALL_FEATURES
  6
Continuous
 62
     7
100
AcDbLine
 10
98.941918
 20
170.56319
 30
0.0
 11
96.941918
 21
170.56319
 31
0.0
  0
LINE
  5
45E
330
214
100
AcDbEntity
  8
7_ALL_FEATURES
  6
Continuous
 62
     7
100
AcDbLine
 10
178.941918
 20
170.56319
 30
0.0
 11
180.941918
 21
170.56319
 31
0.0
  0
LINE
  5
45F
330
214
100
AcDbEntity
  8
7_ALL_FEATURES
  6
Continuous
 62
     7
100
AcDbLine
 10
98.941918
 20
170.939067
 30
0.0
 11
96.941918
 21
170.939067
 31
0.0
  0
LINE
  5
460
330
214
100
AcDbEntity
  8
7_ALL_FEATURES
  6
Continuous
 62
     7
100
AcDbLine
 10
178.941918
 20
170.939067
 30
0.0
 11
180.941918
 21
170.939067
 31
0.0
  0
LINE
  5
461
330
214
100
AcDbEntity
  8
7_ALL_FEATURES
  6
Continuous
 62
     7
100
AcDbLine
 10
98.941918
 20
171.750166
 30
0.0
 11
96.941918
 21
171.750166
 31
0.0
  0
LINE
  5
462
330
214
100
AcDbEntity
  8
7_ALL_FEATURES
  6
Continuous
 62
     7
100
AcDbLine
 10
178.941918
 20
171.750166
 30
0.0
 11
180.941918
 21
171.750166
 31
0.0
  0
LINE
  5
463
330
214
100
AcDbEntity
  8
3_ALL_AXES
  6
Continuous
 62
     7
100
AcDbLine
 10
99.941918
 20
172.373271
 30
0.0
 11
98.941918
 21
172.373271
 31
0.0
  0
LINE
  5
464
330
214
100
AcDbEntity
  8
3_ALL_AXES
  6
Continuous
 62
     7
100
AcDbLine
 10
96.941918
 20
172.373271
 30
0.0
 11
96.441918
 21
172.373271
 31
0.0
  0
LINE
  5
465
330
214
100
AcDbEntity
  8
3_ALL_AXES
  6
Continuous
 62
     7
100
AcDbLine
 10
177.941918
 20
172.373271
 30
0.0
 11
178.941918
 21
172.373271
 31
0.0
  0
LINE
  5
466
330
214
100
AcDbEntity
  8
3_ALL_AXES
  6
Continuous
 62
     7
100
AcDbLine
 10
180.941918
 20
172.373271
 30
0.0
 11
181.441918
 21
172.373271
 31
0.0
  0
LINE
  5
467
330
214
100
AcDbEntity
  8
7_ALL_FEATURES
  6
Continuous
 62
     7
100
AcDbLine
 10
180.641918
 20
145.573271
 30
0.0
 11
180.941918
 21
145.273271
 31
0.0
  0
LINE
  5
468
330
214
100
AcDbEntity
  8
7_ALL_FEATURES
  6
Continuous
 62
     7
100
AcDbLine
 10
177.941918
 20
182.373271
 30
0.0
 11
177.941918
 21
151.373271
 31
0.0
  0
LINE
  5
469
330
214
100
AcDbEntity
  8
3_ALL_AXES
  6
Continuous
 62
     7
100
AcDbLine
 10
178.925537
 20
84.073271
 30
0.0
 11
178.925537
 21
68.073271
 31
0.0
  0
LINE
  5
46A
330
214
100
AcDbEntity
  8
7_ALL_FEATURES
  6
Continuous
 62
     3
100
AcDbLine
 10
178.941918
 20
152.398065
 30
0.0
 11
178.941918
 21
214.30061
 31
0.0
  0
LINE
  5
46B
330
214
100
AcDbEntity
  8
3_ALL_AXES
  6
Continuous
 62
     7
100
AcDbLine
 10
179.997399
 20
68.073271
 30
0.0
 11
179.997399
 21
84.073271
 31
0.0
  0
LINE
  5
46C
330
214
100
AcDbEntity
  8
3_ALL_AXES
  6
Continuous
 62
     7
100
AcDbLine
 10
180.890843
 20
84.073271
 30
0.0
 11
180.890843
 21
68.073271
 31
0.0
  0
LINE
  5
46D
330
214
100
AcDbEntity
  8
7_ALL_FEATURES
  6
Continuous
 62
     7
100
AcDbLine
 10
180.940851
 20
151.373271
 30
0.0
 11
180.940851
 21
145.873271
 31
0.0
  0
LINE
  5
46E
330
214
100
AcDbEntity
  8
7_ALL_FEATURES
  6
Continuous
 62
     7
100
AcDbLine
 10
180.941918
 20
214.30061
 30
0.0
 11
180.941918
 21
152.398065
 31
0.0
  0
LINE
  5
46F
330
214
100
AcDbEntity
  8
3_ALL_AXES
  6
Continuous
 62
     7
100
AcDbLine
 10
180.941918
 20
55.873271
 30
0.0
 11
180.941918
 21
68.073271
 31
0.0
  0
LINE
  5
470
330
214
100
AcDbEntity
  8
3_ALL_AXES
  6
Continuous
 62
     7
100
AcDbLine
 10
180.941918
 20
84.073271
 30
0.0
 11
180.941918
 21
145.273271
 31
0.0
  0
LINE
  5
471
330
214
100
AcDbEntity
  8
7_ALL_FEATURES
  6
Continuous
 62
     7
100
AcDbLine
 10
181.441918
 20
158.973354
 30
0.0
 11
181.441918
 21
173.773188
 31
0.0
  0
LINE
  5
472
330
214
100
AcDbEntity
  8
7_ALL_FEATURES
  6
Continuous
 62
     9
100
AcDbLine
 10
181.541918
 20
158.873271
 30
0.0
 11
181.541918
 21
173.873271
 31
0.0
  0
LINE
  5
473
330
214
100
AcDbEntity
  8
7_ALL_FEATURES
  6
Continuous
 62
     9
100
AcDbLine
 10
182.178868
 20
158.873271
 30
0.0
 11
182.178868
 21
173.873271
 31
0.0
  0
LINE
  5
474
330
214
100
AcDbEntity
  8
7_ALL_FEATURES
  6
Continuous
 62
     7
100
AcDbLine
 10
98.941918
 20
172.819183
 30
0.0
 11
96.941918
 21
172.819183
 31
0.0
  0
LINE
  5
475
330
214
100
AcDbEntity
  8
7_ALL_FEATURES
  6
Continuous
 62
     7
100
AcDbLine
 10
178.941918
 20
172.819183
 30
0.0
 11
180.941918
 21
172.819183
 31
0.0
  0
LINE
  5
476
330
214
100
AcDbEntity
  8
7_ALL_FEATURES
  6
Continuous
 62
     7
100
AcDbLine
 10
98.941918
 20
172.946476
 30
0.0
 11
96.941918
 21
172.946476
 31
0.0
  0
LINE
  5
477
330
214
100
AcDbEntity
  8
7_ALL_FEATURES
  6
Continuous
 62
     7
100
AcDbLine
 10
178.941918
 20
172.946476
 30
0.0
 11
180.941918
 21
172.946476
 31
0.0
  0
LINE
  5
478
330
214
100
AcDbEntity
  8
7_ALL_FEATURES
  6
Continuous
 62
     7
100
AcDbLine
 10
95.704969
 20
173.873271
 30
0.0
 11
96.341918
 21
173.873271
 31
0.0
  0
LINE
  5
479
330
214
100
AcDbEntity
  8
3_ALL_AXES
  6
Continuous
 62
     7
100
AcDbLine
 10
181.541918
 20
173.873271
 30
0.0
 11
182.178868
 21
173.873271
 31
0.0
  0
LINE
  5
47A
330
214
100
AcDbEntity
  8
7_ALL_FEATURES
  6
Continuous
 62
     7
100
AcDbLine
 10
98.941918
 20
173.913105
 30
0.0
 11
96.941918
 21
173.913105
 31
0.0
  0
LINE
  5
47B
330
214
100
AcDbEntity
  8
7_ALL_FEATURES
  6
Continuous
 62
     7
100
AcDbLine
 10
178.941918
 20
173.913105
 30
0.0
 11
180.941918
 21
173.913105
 31
0.0
  0
LINE
  5
47C
330
214
100
AcDbEntity
  8
7_ALL_FEATURES
  6
Continuous
 62
     7
100
AcDbLine
 10
98.941918
 20
174.87932
 30
0.0
 11
96.941918
 21
174.87932
 31
0.0
  0
LINE
  5
47D
330
214
100
AcDbEntity
  8
7_ALL_FEATURES
  6
Continuous
 62
     7
100
AcDbLine
 10
178.941918
 20
174.87932
 30
0.0
 11
180.941918
 21
174.87932
 31
0.0
  0
LINE
  5
47E
330
214
100
AcDbEntity
  8
7_ALL_FEATURES
  6
Continuous
 62
     7
100
AcDbLine
 10
98.941918
 20
175.846951
 30
0.0
 11
96.941918
 21
175.846951
 31
0.0
  0
LINE
  5
47F
330
214
100
AcDbEntity
  8
7_ALL_FEATURES
  6
Continuous
 62
     7
100
AcDbLine
 10
178.941918
 20
175.846951
 30
0.0
 11
180.941918
 21
175.846951
 31
0.0
  0
LINE
  5
480
330
214
100
AcDbEntity
  8
7_ALL_FEATURES
  6
Continuous
 62
     7
100
AcDbLine
 10
98.941918
 20
176.681005
 30
0.0
 11
96.941918
 21
176.681005
 31
0.0
  0
LINE
  5
481
330
214
100
AcDbEntity
  8
7_ALL_FEATURES
  6
Continuous
 62
     7
100
AcDbLine
 10
178.941918
 20
176.681005
 30
0.0
 11
180.941918
 21
176.681005
 31
0.0
  0
LINE
  5
482
330
214
100
AcDbEntity
  8
7_ALL_FEATURES
  6
Continuous
 62
     7
100
AcDbLine
 10
98.941918
 20
177.492944
 30
0.0
 11
96.941918
 21
177.492944
 31
0.0
  0
LINE
  5
483
330
214
100
AcDbEntity
  8
7_ALL_FEATURES
  6
Continuous
 62
     7
100
AcDbLine
 10
178.941918
 20
177.492944
 30
0.0
 11
180.941918
 21
177.492944
 31
0.0
  0
LINE
  5
484
330
214
100
AcDbEntity
  8
7_ALL_FEATURES
  6
Continuous
 62
     9
100
AcDbLine
 10
182.877871
 20
159.351436
 30
0.0
 11
182.877871
 21
173.395105
 31
0.0
  0
LINE
  5
485
330
214
100
AcDbEntity
  8
7_ALL_FEATURES
  6
Continuous
 62
     9
100
AcDbLine
 10
184.305928
 20
169.722961
 30
0.0
 11
184.305928
 21
163.02358
 31
0.0
  0
LINE
  5
486
330
214
100
AcDbEntity
  8
7_ALL_FEATURES
  6
Continuous
 62
     7
100
AcDbLine
 10
184.441918
 20
168.998086
 30
0.0
 11
184.441918
 21
163.748455
 31
0.0
  0
LINE
  5
487
330
214
100
AcDbEntity
  8
7_ALL_FEATURES
  6
Continuous
 62
     9
100
AcDbLine
 10
180.941918
 20
178.905961
 30
0.0
 11
178.941918
 21
178.905961
 31
0.0
  0
LINE
  5
488
330
214
100
AcDbEntity
  8
7_ALL_FEATURES
  6
Continuous
 62
     9
100
AcDbLine
 10
96.941918
 20
178.905961
 30
0.0
 11
98.941918
 21
178.905961
 31
0.0
  0
LINE
  5
489
330
214
100
AcDbEntity
  8
7_ALL_FEATURES
  6
Continuous
 62
     7
100
AcDbLine
 10
99.941918
 20
181.873271
 30
0.0
 11
177.941918
 21
181.873271
 31
0.0
  0
LINE
  5
48A
330
214
100
AcDbEntity
  8
7_ALL_FEATURES
  6
Continuous
 62
     7
100
AcDbLine
 10
99.941918
 20
182.373271
 30
0.0
 11
177.941918
 21
182.373271
 31
0.0
  0
LINE
  5
48B
330
214
100
AcDbEntity
  8
7_ALL_FEATURES
  6
Continuous
 62
     3
100
AcDbLine
 10
98.96972
 20
183.373271
 30
0.0
 11
178.914117
 21
183.373271
 31
0.0
  0
LINE
  5
48C
330
214
100
AcDbEntity
  8
7_ALL_FEATURES
  6
Continuous
 62
     7
100
AcDbLine
 10
184.305928
 20
169.722961
 30
0.0
 11
182.877871
 21
173.395105
 31
0.0
  0
LINE
  5
48D
330
214
100
AcDbEntity
  8
7_ALL_FEATURES
  6
Continuous
 62
     9
100
AcDbLine
 10
98.941918
 20
212.277114
 30
0.0
 11
96.941918
 21
212.277114
 31
0.0
  0
LINE
  5
48E
330
214
100
AcDbEntity
  8
7_ALL_FEATURES
  6
Continuous
 62
     9
100
AcDbLine
 10
178.941918
 20
212.277114
 30
0.0
 11
180.941918
 21
212.277114
 31
0.0
  0
LINE
  5
48F
330
214
100
AcDbEntity
  8
7_ALL_FEATURES
  6
Continuous
 62
     7
100
AcDbLine
 10
99.240976
 20
214.373271
 30
0.0
 11
97.152304
 21
214.373271
 31
0.0
  0
LINE
  5
490
330
214
100
AcDbEntity
  8
7_ALL_FEATURES
  6
Continuous
 62
     3
100
AcDbLine
 10
99.240976
 20
214.373271
 30
0.0
 11
178.642861
 21
214.373271
 31
0.0
  0
LINE
  5
491
330
214
100
AcDbEntity
  8
7_ALL_FEATURES
  6
Continuous
 62
     7
100
AcDbLine
 10
178.642861
 20
214.373271
 30
0.0
 11
180.731532
 21
214.373271
 31
0.0
  0
LINE
  5
492
330
214
100
AcDbEntity
  8
7_ALL_FEATURES
  6
Continuous
 62
     7
100
AcDbLine
 10
180.941918
 20
55.873271
 30
0.0
 11
180.641918
 21
55.573271
 31
0.0
  0
ARC
  5
493
330
214
100
AcDbEntity
  8
7_ALL_FEATURES
  6
Continuous
 62
     7
100
AcDbCircle
 10
375.211897
 20
267.744906
 30
0.0
 40
20.0
100
AcDbArc
 50
153.533123
 51
180.0
  0
ARC
  5
494
330
214
100
AcDbEntity
  8
7_ALL_FEATURES
  6
Continuous
 62
     7
100
AcDbCircle
 10
406.211897
 20
268.92164
 30
0.0
 40
20.0
100
AcDbArc
 50
160.0
 51
180.0
  0
ARC
  5
495
330
214
100
AcDbEntity
  8
7_ALL_FEATURES
  6
Continuous
 62
     7
100
AcDbCircle
 10
399.961897
 20
295.94818
 30
0.0
 40
0.5
100
AcDbArc
 50
240.262498
 51
270.0
  0
ARC
  5
496
330
214
100
AcDbEntity
  8
7_ALL_FEATURES
  6
Continuous
 62
     7
100
AcDbCircle
 10
403.211897
 20
337.44818
 30
0.0
 40
14.0
100
AcDbArc
 50
93.410476
 51
97.41436
  0
ARC
  5
497
330
214
100
AcDbEntity
  8
7_ALL_FEATURES
  6
Continuous
 62
     7
100
AcDbCircle
 10
403.211897
 20
337.44818
 30
0.0
 40
14.0
100
AcDbArc
 50
102.58564
 51
107.41436
  0
ARC
  5
498
330
214
100
AcDbEntity
  8
7_ALL_FEATURES
  6
Continuous
 62
     7
100
AcDbCircle
 10
403.211897
 20
337.44818
 30
0.0
 40
14.0
100
AcDbArc
 50
112.58564
 51
117.41436
  0
ARC
  5
499
330
214
100
AcDbEntity
  8
7_ALL_FEATURES
  6
Continuous
 62
     7
100
AcDbCircle
 10
403.211897
 20
337.44818
 30
0.0
 40
14.0
100
AcDbArc
 50
122.58564
 51
127.41436
  0
ARC
  5
49A
330
214
100
AcDbEntity
  8
7_ALL_FEATURES
  6
Continuous
 62
     7
100
AcDbCircle
 10
403.211897
 20
337.44818
 30
0.0
 40
14.0
100
AcDbArc
 50
132.58564
 51
137.41436
  0
ARC
  5
49B
330
214
100
AcDbEntity
  8
7_ALL_FEATURES
  6
Continuous
 62
     7
100
AcDbCircle
 10
403.211897
 20
337.44818
 30
0.0
 40
14.0
100
AcDbArc
 50
142.58564
 51
153.533123
  0
ARC
  5
49C
330
214
100
AcDbEntity
  8
7_ALL_FEATURES
  6
Continuous
 62
     7
100
AcDbCircle
 10
403.211897
 20
337.44818
 30
0.0
 40
14.0
100
AcDbArc
 50
276.544666
 51
307.41436
  0
ARC
  5
49D
330
214
100
AcDbEntity
  8
7_ALL_FEATURES
  6
Continuous
 62
     7
100
AcDbCircle
 10
403.211897
 20
337.44818
 30
0.0
 40
14.0
100
AcDbArc
 50
312.58564
 51
317.41436
  0
ARC
  5
49E
330
214
100
AcDbEntity
  8
7_ALL_FEATURES
  6
Continuous
 62
     7
100
AcDbCircle
 10
403.211897
 20
337.44818
 30
0.0
 40
14.0
100
AcDbArc
 50
322.58564
 51
327.41436
  0
ARC
  5
49F
330
214
100
AcDbEntity
  8
7_ALL_FEATURES
  6
Continuous
 62
     7
100
AcDbCircle
 10
403.211897
 20
337.44818
 30
0.0
 40
14.0
100
AcDbArc
 50
332.58564
 51
337.41436
  0
ARC
  5
4A0
330
214
100
AcDbEntity
  8
7_ALL_FEATURES
  6
Continuous
 62
     7
100
AcDbCircle
 10
403.211897
 20
337.44818
 30
0.0
 40
14.0
100
AcDbArc
 50
342.58564
 51
347.41436
  0
ARC
  5
4A1
330
214
100
AcDbEntity
  8
7_ALL_FEATURES
  6
Continuous
 62
     7
100
AcDbCircle
 10
403.211897
 20
337.44818
 30
0.0
 40
14.0
100
AcDbArc
 50
352.58564
 51
356.589524
  0
ARC
  5
4A2
330
214
100
AcDbEntity
  8
7_ALL_FEATURES
  6
Continuous
 62
     7
100
AcDbCircle
 10
403.211897
 20
337.44818
 30
0.0
 40
14.0
100
AcDbArc
 50
3.410476
 51
7.41436
  0
ARC
  5
4A3
330
214
100
AcDbEntity
  8
7_ALL_FEATURES
  6
Continuous
 62
     7
100
AcDbCircle
 10
403.211897
 20
337.44818
 30
0.0
 40
14.0
100
AcDbArc
 50
12.58564
 51
17.41436
  0
ARC
  5
4A4
330
214
100
AcDbEntity
  8
7_ALL_FEATURES
  6
Continuous
 62
     7
100
AcDbCircle
 10
403.211897
 20
337.44818
 30
0.0
 40
14.0
100
AcDbArc
 50
22.58564
 51
27.41436
  0
ARC
  5
4A5
330
214
100
AcDbEntity
  8
7_ALL_FEATURES
  6
Continuous
 62
     7
100
AcDbCircle
 10
403.211897
 20
337.44818
 30
0.0
 40
14.0
100
AcDbArc
 50
32.58564
 51
37.41436
  0
ARC
  5
4A6
330
214
100
AcDbEntity
  8
7_ALL_FEATURES
  6
Continuous
 62
     7
100
AcDbCircle
 10
403.211897
 20
337.44818
 30
0.0
 40
14.0
100
AcDbArc
 50
42.58564
 51
47.41436
  0
ARC
  5
4A7
330
214
100
AcDbEntity
  8
7_ALL_FEATURES
  6
Continuous
 62
     7
100
AcDbCircle
 10
403.211897
 20
337.44818
 30
0.0
 40
14.0
100
AcDbArc
 50
52.58564
 51
57.41436
  0
ARC
  5
4A8
330
214
100
AcDbEntity
  8
7_ALL_FEATURES
  6
Continuous
 62
     7
100
AcDbCircle
 10
403.211897
 20
337.44818
 30
0.0
 40
14.0
100
AcDbArc
 50
62.58564
 51
67.41436
  0
ARC
  5
4A9
330
214
100
AcDbEntity
  8
7_ALL_FEATURES
  6
Continuous
 62
     7
100
AcDbCircle
 10
403.211897
 20
337.44818
 30
0.0
 40
14.0
100
AcDbArc
 50
72.58564
 51
77.41436
  0
ARC
  5
4AA
330
214
100
AcDbEntity
  8
7_ALL_FEATURES
  6
Continuous
 62
     7
100
AcDbCircle
 10
403.211897
 20
337.44818
 30
0.0
 40
14.0
100
AcDbArc
 50
82.58564
 51
86.589524
  0
CIRCLE
  5
4AB
330
214
100
AcDbEntity
  8
7_ALL_FEATURES
  6
Continuous
 62
     7
100
AcDbCircle
 10
403.211897
 20
337.44818
 30
0.0
 40
7.5
  0
CIRCLE
  5
4AC
330
214
100
AcDbEntity
  8
7_ALL_FEATURES
  6
Continuous
 62
     9
100
AcDbCircle
 10
403.211897
 20
337.44818
 30
0.0
 40
7.0218346959
  0
CIRCLE
  5
4AD
330
214
100
AcDbEntity
  8
7_ALL_FEATURES
  6
Continuous
 62
     9
100
AcDbCircle
 10
403.211897
 20
337.44818
 30
0.0
 40
3.3496902606
  0
CIRCLE
  5
4AE
330
214
100
AcDbEntity
  8
7_ALL_FEATURES
  6
Continuous
 62
     9
100
AcDbCircle
 10
403.211897
 20
337.44818
 30
0.0
 40
2.6247977383
  0
ARC
  5
4AF
330
214
100
AcDbEntity
  8
7_ALL_FEATURES
  6
Continuous
 62
     7
100
AcDbCircle
 10
414.461897
 20
295.94818
 30
0.0
 40
0.5
100
AcDbArc
 50
270.0
 51
299.737504
  0
ARC
  5
4B0
330
214
100
AcDbEntity
  8
7_ALL_FEATURES
  6
Continuous
 62
     7
100
AcDbCircle
 10
441.371915
 20
333.112118
 30
0.0
 40
57.2397061919
100
AcDbArc
 50
159.629519
 51
161.119695
  0
ARC
  5
4B1
330
214
100
AcDbEntity
  8
3_ALL_AXES
  6
Continuous
 62
     7
100
AcDbCircle
 10
413.211897
 20
337.44818
 30
0.0
 40
3.5
100
AcDbArc
 50
34.508045
 51
42.49325
  0
ARC
  5
4B2
330
214
100
AcDbEntity
  8
3_ALL_AXES
  6
Continuous
 62
     7
100
AcDbCircle
 10
413.211897
 20
337.44818
 30
0.0
 40
3.5
100
AcDbArc
 50
317.50675
 51
325.491955
  0
ARC
  5
4B3
330
214
100
AcDbEntity
  8
3_ALL_AXES
  6
Continuous
 62
     7
100
AcDbCircle
 10
413.211897
 20
337.44818
 30
0.0
 40
3.5
100
AcDbArc
 50
348.675962
 51
11.324038
  0
ARC
  5
4B4
330
214
100
AcDbEntity
  8
3_ALL_AXES
  6
Continuous
 62
     7
100
AcDbCircle
 10
413.211897
 20
337.44818
 30
0.0
 40
3.0
100
AcDbArc
 50
349.290363
 51
10.709637
  0
ARC
  5
4B5
330
214
100
AcDbEntity
  8
3_ALL_AXES
  6
Continuous
 62
     7
100
AcDbCircle
 10
413.211897
 20
337.44818
 30
0.0
 40
2.8
100
AcDbArc
 50
349.598025
 51
10.401975
  0
ARC
  5
4B6
330
214
100
AcDbEntity
  8
7_ALL_FEATURES
  6
Continuous
 62
     7
100
AcDbCircle
 10
103.941918
 20
269.44818
 30
0.0
 40
7.0
100
AcDbArc
 50
180.0
 51
270.0
  0
ARC
  5
4B7
330
214
100
AcDbEntity
  8
7_ALL_FEATURES
  6
Continuous
 62
     3
100
AcDbCircle
 10
103.941918
 20
269.44818
 30
0.0
 40
5.0
100
AcDbArc
 50
180.0
 51
270.0
  0
ARC
  5
4B8
330
214
100
AcDbEntity
  8
7_ALL_FEATURES
  6
Continuous
 62
     7
100
AcDbCircle
 10
131.691918
 20
295.94818
 30
0.0
 40
0.5
100
AcDbArc
 50
180.0
 51
270.0
  0
ARC
  5
4B9
330
214
100
AcDbEntity
  8
7_ALL_FEATURES
  6
Continuous
 62
     7
100
AcDbCircle
 10
95.441918
 20
334.823382
 30
0.0
 40
2.0
100
AcDbArc
 50
180.0
 51
201.250506
  0
ARC
  5
4BA
330
214
100
AcDbEntity
  8
7_ALL_FEATURES
  6
Continuous
 62
     7
100
AcDbCircle
 10
95.441918
 20
340.072977
 30
0.0
 40
2.0
100
AcDbArc
 50
158.749494
 51
180.0
  0
ARC
  5
4BB
330
214
100
AcDbEntity
  8
7_ALL_FEATURES
  6
Continuous
 62
     7
100
AcDbCircle
 10
95.704969
 20
330.69818
 30
0.0
 40
0.75
100
AcDbArc
 50
201.250506
 51
270.0
  0
ARC
  5
4BC
330
214
100
AcDbEntity
  8
7_ALL_FEATURES
  6
Continuous
 62
     7
100
AcDbCircle
 10
95.704969
 20
344.19818
 30
0.0
 40
0.75
100
AcDbArc
 50
90.0
 51
158.749494
  0
ARC
  5
4BD
330
214
100
AcDbEntity
  8
7_ALL_FEATURES
  6
Continuous
 62
     7
100
AcDbCircle
 10
96.341918
 20
330.04818
 30
0.0
 40
0.1
100
AcDbArc
 50
270.0
 51
360.0
  0
ARC
  5
4BE
330
214
100
AcDbEntity
  8
7_ALL_FEATURES
  6
Continuous
 62
     7
100
AcDbCircle
 10
96.341918
 20
344.84818
 30
0.0
 40
0.1
100
AcDbArc
 50
0.0
 51
90.0
  0
ARC
  5
4BF
330
214
100
AcDbEntity
  8
7_ALL_FEATURES
  6
Continuous
 62
     7
100
AcDbCircle
 10
173.941918
 20
269.44818
 30
0.0
 40
7.0
100
AcDbArc
 50
270.0
 51
360.0
  0
ARC
  5
4C0
330
214
100
AcDbEntity
  8
7_ALL_FEATURES
  6
Continuous
 62
     3
100
AcDbCircle
 10
173.941918
 20
269.44818
 30
0.0
 40
5.0
100
AcDbArc
 50
270.0
 51
360.0
  0
ARC
  5
4C1
330
214
100
AcDbEntity
  8
7_ALL_FEATURES
  6
Continuous
 62
     7
100
AcDbCircle
 10
146.191918
 20
295.94818
 30
0.0
 40
0.5
100
AcDbArc
 50
270.0
 51
360.0
  0
CIRCLE
  5
4C2
330
214
100
AcDbEntity
  8
7_ALL_FEATURES
  6
Continuous
 62
     7
100
AcDbCircle
 10
138.941918
 20
337.44818
 30
0.0
 40
42.0
  0
CIRCLE
  5
4C3
330
214
100
AcDbEntity
  8
7_ALL_FEATURES
  6
Continuous
 62
     7
100
AcDbCircle
 10
138.941918
 20
337.44818
 30
0.0
 40
41.7
  0
CIRCLE
  5
4C4
330
214
100
AcDbEntity
  8
7_ALL_FEATURES
  6
Continuous
 62
     7
100
AcDbCircle
 10
138.941918
 20
337.44818
 30
0.0
 40
40.8
  0
CIRCLE
  5
4C5
330
214
100
AcDbEntity
  8
7_ALL_FEATURES
  6
Continuous
 62
     7
100
AcDbCircle
 10
138.941918
 20
337.44818
 30
0.0
 40
40.5
  0
CIRCLE
  5
4C6
330
214
100
AcDbEntity
  8
7_ALL_FEATURES
  6
Continuous
 62
     7
100
AcDbCircle
 10
138.941918
 20
337.44818
 30
0.0
 40
40.0
  0
CIRCLE
  5
4C7
330
214
100
AcDbEntity
  8
7_ALL_FEATURES
  6
Continuous
 62
     7
100
AcDbCircle
 10
138.941918
 20
337.44818
 30
0.0
 40
39.5
  0
ARC
  5
4C8
330
214
100
AcDbEntity
  8
7_ALL_FEATURES
  6
Continuous
 62
     7
100
AcDbCircle
 10
182.441918
 20
334.823382
 30
0.0
 40
2.0
100
AcDbArc
 50
338.749494
 51
360.0
  0
ARC
  5
4C9
330
214
100
AcDbEntity
  8
7_ALL_FEATURES
  6
Continuous
 62
     7
100
AcDbCircle
 10
182.441918
 20
340.072977
 30
0.0
 40
2.0
100
AcDbArc
 50
0.0
 51
21.250506
  0
ARC
  5
4CA
330
214
100
AcDbEntity
  8
7_ALL_FEATURES
  6
Continuous
 62
     7
100
AcDbCircle
 10
182.178868
 20
330.69818
 30
0.0
 40
0.75
100
AcDbArc
 50
270.0
 51
338.749494
  0
ARC
  5
4CB
330
214
100
AcDbEntity
  8
7_ALL_FEATURES
  6
Continuous
 62
     7
100
AcDbCircle
 10
182.178868
 20
344.19818
 30
0.0
 40
0.75
100
AcDbArc
 50
21.250506
 51
90.0
  0
ARC
  5
4CC
330
214
100
AcDbEntity
  8
7_ALL_FEATURES
  6
Continuous
 62
     7
100
AcDbCircle
 10
181.541918
 20
330.04818
 30
0.0
 40
0.1
100
AcDbArc
 50
180.0
 51
270.0
  0
ARC
  5
4CD
330
214
100
AcDbEntity
  8
7_ALL_FEATURES
  6
Continuous
 62
     7
100
AcDbCircle
 10
181.541918
 20
344.84818
 30
0.0
 40
0.1
100
AcDbArc
 50
90.0
 51
180.0
  0
ARC
  5
4CE
330
214
100
AcDbEntity
  8
3_ALL_AXES
  6
Continuous
 62
     3
100
AcDbCircle
 10
138.941918
 20
198.873271
 30
0.0
 40
22.75
100
AcDbArc
 50
330.0
 51
30.0
  0
ARC
  5
4CF
330
214
100
AcDbEntity
  8
3_ALL_AXES
  6
Continuous
 62
     3
100
AcDbCircle
 10
138.941918
 20
198.873271
 30
0.0
 40
22.75
100
AcDbArc
 50
150.0
 51
210.0
  0
ARC
  5
4D0
330
214
100
AcDbEntity
  8
3_ALL_AXES
  6
Continuous
 62
     3
100
AcDbCircle
 10
138.941918
 20
198.873271
 30
0.0
 40
17.25
100
AcDbArc
 50
330.0
 51
30.0
  0
ARC
  5
4D1
330
214
100
AcDbEntity
  8
3_ALL_AXES
  6
Continuous
 62
     3
100
AcDbCircle
 10
138.941918
 20
198.873271
 30
0.0
 40
17.25
100
AcDbArc
 50
150.0
 51
210.0
  0
CIRCLE
  5
4D2
330
214
100
AcDbEntity
  8
3_ALL_AXES
  6
Continuous
 62
     3
100
AcDbCircle
 10
138.941918
 20
198.873271
 30
0.0
 40
8.6
  0
ARC
  5
4D3
330
214
100
AcDbEntity
  8
3_ALL_AXES
  6
Continuous
 62
     7
100
AcDbCircle
 10
104.241918
 20
156.373271
 30
0.0
 40
4.4863682417
100
AcDbArc
 50
185.371721
 51
196.572356
  0
ARC
  5
4D4
330
214
100
AcDbEntity
  8
3_ALL_AXES
  6
Continuous
 62
     7
100
AcDbCircle
 10
104.241918
 20
156.373271
 30
0.0
 40
4.4863682417
100
AcDbArc
 50
163.42789
 51
174.628279
  0
ARC
  5
4D5
330
214
100
AcDbEntity
  8
3_ALL_AXES
  6
Continuous
 62
     3
100
AcDbCircle
 10
156.262426
 20
188.873271
 30
0.0
 40
2.75
100
AcDbArc
 50
150.0
 51
330.0
  0
ARC
  5
4D6
330
214
100
AcDbEntity
  8
3_ALL_AXES
  6
Continuous
 62
     3
100
AcDbCircle
 10
156.262426
 20
208.873271
 30
0.0
 40
2.75
100
AcDbArc
 50
30.0
 51
210.0
  0
ARC
  5
4D7
330
214
100
AcDbEntity
  8
3_ALL_AXES
  6
Continuous
 62
     3
100
AcDbCircle
 10
121.62141
 20
188.873271
 30
0.0
 40
2.75
100
AcDbArc
 50
210.0
 51
30.0
  0
ARC
  5
4D8
330
214
100
AcDbEntity
  8
3_ALL_AXES
  6
Continuous
 62
     3
100
AcDbCircle
 10
121.62141
 20
208.873271
 30
0.0
 40
2.75
100
AcDbArc
 50
330.0
 51
150.0
  0
ARC
  5
4D9
330
214
100
AcDbEntity
  8
7_ALL_FEATURES
  6
Continuous
 62
     7
100
AcDbCircle
 10
182.441918
 20
168.998068
 30
0.0
 40
2.0
100
AcDbArc
 50
0.0
 51
21.250506
  0
ARC
  5
4DA
330
214
100
AcDbEntity
  8
7_ALL_FEATURES
  6
Continuous
 62
     7
100
AcDbCircle
 10
182.441918
 20
163.748473
 30
0.0
 40
2.0
100
AcDbArc
 50
338.749494
 51
360.0
  0
ARC
  5
4DB
330
214
100
AcDbEntity
  8
7_ALL_FEATURES
  6
Continuous
 62
     7
100
AcDbCircle
 10
95.441918
 20
168.998068
 30
0.0
 40
2.0
100
AcDbArc
 50
158.749494
 51
180.0
  0
ARC
  5
4DC
330
214
100
AcDbEntity
  8
7_ALL_FEATURES
  6
Continuous
 62
     7
100
AcDbCircle
 10
95.441918
 20
163.748473
 30
0.0
 40
2.0
100
AcDbArc
 50
180.0
 51
201.250506
  0
ARC
  5
4DD
330
214
100
AcDbEntity
  8
7_ALL_FEATURES
  6
Continuous
 62
     7
100
AcDbCircle
 10
182.178868
 20
173.123271
 30
0.0
 40
0.75
100
AcDbArc
 50
21.250506
 51
90.0
  0
ARC
  5
4DE
330
214
100
AcDbEntity
  8
7_ALL_FEATURES
  6
Continuous
 62
     7
100
AcDbCircle
 10
182.178868
 20
159.623271
 30
0.0
 40
0.75
100
AcDbArc
 50
270.0
 51
338.749494
  0
ARC
  5
4DF
330
214
100
AcDbEntity
  8
7_ALL_FEATURES
  6
Continuous
 62
     7
100
AcDbCircle
 10
95.704969
 20
159.623271
 30
0.0
 40
0.75
100
AcDbArc
 50
201.250506
 51
270.0
  0
ARC
  5
4E0
330
214
100
AcDbEntity
  8
7_ALL_FEATURES
  6
Continuous
 62
     7
100
AcDbCircle
 10
95.704969
 20
173.123271
 30
0.0
 40
0.75
100
AcDbArc
 50
90.0
 51
158.749494
  0
ARC
  5
4E1
330
214
100
AcDbEntity
  8
7_ALL_FEATURES
  6
Continuous
 62
     7
100
AcDbCircle
 10
181.541918
 20
173.773271
 30
0.0
 40
0.1
100
AcDbArc
 50
90.0
 51
180.0
  0
ARC
  5
4E2
330
214
100
AcDbEntity
  8
7_ALL_FEATURES
  6
Continuous
 62
     7
100
AcDbCircle
 10
181.541918
 20
158.973271
 30
0.0
 40
0.1
100
AcDbArc
 50
180.0
 51
270.0
  0
ARC
  5
4E3
330
214
100
AcDbEntity
  8
7_ALL_FEATURES
  6
Continuous
 62
     7
100
AcDbCircle
 10
96.341918
 20
158.973271
 30
0.0
 40
0.1
100
AcDbArc
 50
270.0
 51
360.0
  0
ARC
  5
4E4
330
214
100
AcDbEntity
  8
7_ALL_FEATURES
  6
Continuous
 62
     7
100
AcDbCircle
 10
96.341918
 20
173.773271
 30
0.0
 40
0.1
100
AcDbArc
 50
0.0
 51
90.0
  0
SPLINE
  5
4E5
330
214
100
AcDbEntity
  8
0
  6
Continuous
 62
     2
100
AcDbSpline
 70
     0
 71
     3
 72
    33
 73
    29
 74
     0
 42
0.000000001
 43
0.0000001
 40
0.0
 40
0.0
 40
0.0
 40
0.0
 40
0.0384613509
 40
0.0769228969
 40
0.1153844428
 40
0.1538459888
 40
0.1923075348
 40
0.2307690807
 40
0.2692306267
 40
0.3076921727
 40
0.3461537186
 40
0.3846152646
 40
0.4230768106
 40
0.4615383565
 40
0.4999999025
 40
0.5384614484
 40
0.5769229944
 40
0.6153845404
 40
0.6538460863
 40
0.6923076323
 40
0.7307691783
 40
0.7692307242
 40
0.8076922702
 40
0.8461538161
 40
0.8846153621
 40
0.9230769081
 40
0.961538454
 40
1.0
 40
1.0
 40
1.0
 40
1.0
 10
399.2118969793
 20
295.4481796664
 30
0.0
 10
399.2118968942
 20
295.4481796502
 30
0.0
 10
399.2214924664
 20
295.4500089522
 30
0.0
 10
399.2646108364
 20
295.4582006505
 30
0.0
 10
399.3364359808
 20
295.4717511706
 30
0.0
 10
399.4366944472
 20
295.4904676933
 30
0.0
 10
399.5653737
 20
295.5141504286
 30
0.0
 10
399.7218657167
 20
295.5424374868
 30
0.0
 10
399.9061715242
 20
295.5750256539
 30
0.0
 10
400.117261412
 20
295.6113829694
 30
0.0
 10
400.355098525
 20
295.6511061076
 30
0.0
 10
400.6181856892
 20
295.6935112776
 30
0.0
 10
400.90637963
 20
295.738105562
 30
0.0
 10
401.2177175753
 20
295.7840925243
 30
0.0
 10
401.5519041249
 20
295.8309153899
 30
0.0
 10
401.9065693222
 20
295.8777232206
 30
0.0
 10
402.2812638566
 20
295.9239361931
 30
0.0
 10
402.67332681
 20
295.9687179884
 30
0.0
 10
403.082190109
 20
296.0115130677
 30
0.0
 10
403.5050598675
 20
296.0515667771
 30
0.0
 10
403.9412900578
 20
296.0883898583
 30
0.0
 10
404.388129108
 20
296.1213618385
 30
0.0
 10
404.8448608322
 20
296.1500883507
 30
0.0
 10
405.308929215
 20
296.1741130009
 30
0.0
 10
405.7794943519
 20
296.1931524397
 30
0.0
 10
406.2543533238
 20
296.2069230379
 30
0.0
 10
406.7324386929
 20
296.2152662151
 30
0.0
 10
407.0521082908
 20
296.217117658
 30
0.0
 10
407.2118969793
 20
296.2171234102
 30
0.0
  0
SPLINE
  5
4E6
330
214
100
AcDbEntity
  8
0
  6
Continuous
 62
     2
100
AcDbSpline
 70
     0
 71
     3
 72
    33
 73
    29
 74
     0
 42
0.000000001
 43
0.0000001
 40
0.0
 40
0.0
 40
0.0
 40
0.0
 40
0.038461531
 40
0.0769230619
 40
0.1153845929
 40
0.1538461238
 40
0.1923076548
 40
0.2307691858
 40
0.2692307167
 40
0.3076922477
 40
0.3461537786
 40
0.3846153096
 40
0.4230768406
 40
0.4615383715
 40
0.4999999025
 40
0.5384614334
 40
0.5769229644
 40
0.6153844954
 40
0.6538460263
 40
0.6923075573
 40
0.7307690882
 40
0.7692306192
 40
0.8076921502
 40
0.8461536811
 40
0.8846152121
 40
0.923076743
 40
0.961538274
 40
1.0
 40
1.0
 40
1.0
 40
1.0
 10
407.2118969793
 20
296.2171234102
 30
0.0
 10
407.3716856418
 20
296.2171176543
 30
0.0
 10
407.6913551399
 20
296.2152662081
 30
0.0
 10
408.1694377032
 20
296.2069231076
 30
0.0
 10
408.6442988157
 20
296.1931524612
 30
0.0
 10
409.1148598824
 20
296.1741132253
 30
0.0
 10
409.5789317928
 20
296.1500884252
 30
0.0
 10
410.0356591177
 20
296.1213622288
 30
0.0
 10
410.4825019697
 20
296.0883900116
 30
0.0
 10
410.9187281927
 20
296.051567303
 30
0.0
 10
411.3416014136
 20
296.0115133128
 30
0.0
 10
411.7504616125
 20
295.9687185917
 30
0.0
 10
412.1425272575
 20
295.9239365337
 30
0.0
 10
412.5172197836
 20
295.8777238377
 30
0.0
 10
412.8718866886
 20
295.8309158205
 30
0.0
 10
413.2060724012
 20
295.7840930955
 30
0.0
 10
413.5174109962
 20
295.7381060681
 30
0.0
 10
413.8056052388
 20
295.6935117551
 30
0.0
 10
414.0686920513
 20
295.6511066641
 30
0.0
 10
414.30653046
 20
295.6113833229
 30
0.0
 10
414.51761919
 20
295.5750262207
 30
0.0
 10
414.7019270033
 20
295.5424377085
 30
0.0
 10
414.858417422
 20
295.5141509459
 30
0.0
 10
414.9870989355
 20
295.4904678008
 30
0.0
 10
415.0873559248
 20
295.4717515554
 30
0.0
 10
415.1591829539
 20
295.4582006831
 30
0.0
 10
415.2023008354
 20
295.450009077
 30
0.0
 10
415.2118968942
 20
295.4481796825
 30
0.0
 10
415.2118969793
 20
295.4481796664
 30
0.0
  0
SPLINE
  5
4E7
330
214
100
AcDbEntity
  8
7_ALL_FEATURES
  6
Continuous
 62
     7
100
AcDbSpline
 70
     0
 71
     3
 72
    10
 73
     6
 74
     0
 42
0.000000001
 43
0.0000001
 40
0.0
 40
0.0
 40
0.0
 40
0.0
 40
0.3742443212
 40
0.6991747748
 40
1.0
 40
1.0
 40
1.0
 40
1.0
 10
407.2118969791
 20
296.2064095841
 30
0.0
 10
408.197000017
 20
296.2064414856
 30
0.0
 10
410.0381681798
 20
296.138610861
 30
0.0
 10
412.6575219613
 20
295.863960658
 30
0.0
 10
414.2839055459
 20
295.5971894046
 30
0.0
 10
415.0616151097
 20
295.4482336573
 30
0.0
  0
SPLINE
  5
4E8
330
214
100
AcDbEntity
  8
7_ALL_FEATURES
  6
Continuous
 62
     7
100
AcDbSpline
 70
     0
 71
     3
 72
    22
 73
    18
 74
     0
 42
0.000000001
 43
0.0000001
 40
0.0
 40
0.0
 40
0.0
 40
0.0
 40
0.0012190682
 40
0.0048727185
 40
0.010951319
 40
0.0194471079
 40
0.0303486977
 40
0.043631363
 40
0.0772191331
 40
0.1199148704
 40
0.1713033602
 40
0.2308197113
 40
0.2978023704
 40
0.4509824162
 40
0.6238198719
 40
0.8091637337
 40
1.0
 40
1.0
 40
1.0
 40
1.0
 10
399.3618969886
 20
295.4481796683
 30
0.0
 10
399.3650316502
 20
295.448868446
 30
0.0
 10
399.3776741873
 20
295.4510715556
 30
0.0
 10
399.4059532381
 20
295.4566777128
 30
0.0
 10
399.4531222934
 20
295.4655210093
 30
0.0
 10
399.5190199668
 20
295.4780054265
 30
0.0
 10
399.6035965686
 20
295.4937914376
 30
0.0
 10
399.7531622159
 20
295.5214216415
 30
0.0
 10
399.9852211424
 20
295.5632727349
 30
0.0
 10
400.3164071966
 20
295.6206841733
 30
0.0
 10
400.7154265299
 20
295.6863724514
 30
0.0
 10
401.1782844173
 20
295.7577849396
 30
0.0
 10
401.9072555701
 20
295.8615980341
 30
0.0
 10
402.9344918648
 20
295.9865186471
 30
0.0
 10
404.2755397891
 20
296.1076634766
 30
0.0
 10
405.7190118054
 20
296.1878466933
 30
0.0
 10
406.7094821558
 20
296.2064267921
 30
0.0
 10
407.2118969794
 20
296.2064093334
 30
0.0
  0
LINE
  5
4E9
330
214
100
AcDbEntity
  8
7_ALL_FEATURES
  6
Continuous
 62
     7
100
AcDbLine
 10
424.011897
 20
337.568076
 30
0.0
 11
423.711897
 21
337.74754
 31
0.0
  0
LINE
  5
4EA
330
214
100
AcDbEntity
  8
7_ALL_FEATURES
  6
Continuous
 62
     7
100
AcDbLine
 10
423.711897
 20
337.14882
 30
0.0
 11
424.011897
 21
337.328283
 31
0.0
  0
SPLINE
  5
4EB
330
214
100
AcDbEntity
  8
3_ALL_AXES
  6
Continuous
 62
     7
100
AcDbSpline
 70
     0
 71
     3
 72
    14
 73
    10
 74
     0
 42
0.000000001
 43
0.0000001
 40
0.0
 40
0.0
 40
0.0
 40
0.0
 40
0.0250522634
 40
0.0826614775
 40
0.1745543994
 40
0.29798062
 40
0.4484197279
 40
0.6200504974
 40
1.0
 40
1.0
 40
1.0
 40
1.0
 10
99.775252884
 20
156.023270683
 30
0.0
 10
99.7746630404
 20
156.023270683
 30
0.0
 10
99.7736042767
 20
156.0209745225
 30
0.0
 10
99.7731281571
 20
156.0173040324
 30
0.0
 10
99.7725718483
 20
156.0106815978
 30
0.0
 10
99.7724844906
 20
156.0021548784
 30
0.0
 10
99.7726694621
 20
155.9916352249
 30
0.0
 10
99.7734207896
 20
155.975135218
 30
0.0
 10
99.7744154123
 20
155.9621771254
 30
0.0
 10
99.775252884
 20
155.953270683
 30
0.0
  0
SPLINE
  5
4EC
330
214
100
AcDbEntity
  8
3_ALL_AXES
  6
Continuous
 62
     7
100
AcDbSpline
 70
     0
 71
     3
 72
    14
 73
    10
 74
     0
 42
0.000000001
 43
0.0000001
 40
0.0
 40
0.0
 40
0.0
 40
0.0
 40
0.3799509066
 40
0.5515831282
 40
0.7020272295
 40
0.8254484769
 40
0.9173381866
 40
0.9749483193
 40
1.0
 40
1.0
 40
1.0
 40
1.0
 10
99.775252884
 20
156.793270683
 30
0.0
 10
99.7744154091
 20
156.7843642068
 30
0.0
 10
99.7734207651
 20
156.7714060471
 30
0.0
 10
99.7726694592
 20
156.7549058507
 30
0.0
 10
99.7724844997
 20
156.7443861645
 30
0.0
 10
99.7725718257
 20
156.7358595057
 30
0.0
 10
99.7731282154
 20
156.7292372753
 30
0.0
 10
99.7736042383
 20
156.7255668094
 30
0.0
 10
99.7746630541
 20
156.723270683
 30
0.0
 10
99.775252884
 20
156.723270683
 30
0.0
  0
SPLINE
  5
4ED
330
214
100
AcDbEntity
  8
7_ALL_FEATURES
  6
Continuous
 62
     7
100
AcDbSpline
 70
     0
 71
     3
 72
    14
 73
    10
 74
     0
 42
0.000000001
 43
0.0000001
 40
0.0
 40
0.0
 40
0.0
 40
0.0
 40
0.3824561161
 40
0.5346891655
 40
0.6621903078
 40
0.7670345453
 40
0.8530801342
 40
0.9272666321
 40
1.0
 40
1.0
 40
1.0
 40
1.0
 10
180.7315323544
 20
214.373270683
 30
0.0
 10
180.7621917631
 20
214.373270683
 30
0.0
 10
180.8051647558
 20
214.3719185683
 30
0.0
 10
180.8577467929
 20
214.364217599
 30
0.0
 10
180.8877056335
 20
214.3566197019
 30
0.0
 10
180.9113592924
 20
214.3466892696
 30
0.0
 10
180.9288504288
 20
214.334140517
 30
0.0
 10
180.9397661333
 20
214.3184104423
 30
0.0
 10
180.9419183069
 20
214.3064408022
 30
0.0
 10
180.9419183069
 20
214.3006101671
 30
0.0
  0
SPLINE
  5
4EE
330
214
100
AcDbEntity
  8
7_ALL_FEATURES
  6
Continuous
 62
     7
100
AcDbSpline
 70
     0
 71
     3
 72
    14
 73
    10
 74
     0
 42
0.000000001
 43
0.0000001
 40
0.0
 40
0.0
 40
0.0
 40
0.0
 40
0.0727333678
 40
0.1469198656
 40
0.2329654546
 40
0.3378096922
 40
0.4653108344
 40
0.6175438834
 40
1.0
 40
1.0
 40
1.0
 40
1.0
 10
96.9419183069
 20
214.3006101671
 30
0.0
 10
96.9419183069
 20
214.3064408022
 30
0.0
 10
96.9440704804
 20
214.3184104423
 30
0.0
 10
96.954986185
 20
214.334140517
 30
0.0
 10
96.9724773214
 20
214.3466892695
 30
0.0
 10
96.9961309803
 20
214.3566197019
 30
0.0
 10
97.0260898208
 20
214.3642175989
 30
0.0
 10
97.078671858
 20
214.3719185683
 30
0.0
 10
97.1216448506
 20
214.373270683
 30
0.0
 10
97.1523042594
 20
214.373270683
 30
0.0
  0
LINE
  5
4EF
330
214
100
AcDbEntity
  8
7_ALL_FEATURES
  6
Continuous
 62
     7
100
AcDbLine
 10
97.142612
 20
145.672958
 30
0.0
 11
96.942985
 21
145.873271
 31
0.0
  0
LINE
  5
4F0
330
214
100
AcDbEntity
  8
7_ALL_FEATURES
  6
Continuous
 62
     7
100
AcDbLine
 10
180.641746
 20
145.573271
 30
0.0
 11
180.940851
 21
145.873271
 31
0.0
  0
SPLINE
  5
4F1
330
214
100
AcDbEntity
  8
7_ALL_FEATURES
  6
Continuous
 62
     3
100
AcDbSpline
 70
     0
 71
     3
 72
    10
 73
     6
 74
     0
 42
0.000000001
 43
0.0000001
 40
0.0
 40
0.0
 40
0.0
 40
0.0
 40
0.4104643342
 40
0.7069345268
 40
1.0
 40
1.0
 40
1.0
 40
1.0
 10
178.914116617
 20
183.373270683
 30
0.0
 10
178.9181716187
 20
183.373270683
 30
0.0
 10
178.9254200766
 20
183.372984833
 30
0.0
 10
178.9343520396
 20
183.3721637694
 30
0.0
 10
178.9419183069
 20
183.3692335938
 30
0.0
 10
178.9419183069
 20
183.3663383825
 30
0.0
  0
SPLINE
  5
4F2
330
214
100
AcDbEntity
  8
7_ALL_FEATURES
  6
Continuous
 62
     3
100
AcDbSpline
 70
     0
 71
     3
 72
    10
 73
     6
 74
     0
 42
0.000000001
 43
0.0000001
 40
0.0
 40
0.0
 40
0.0
 40
0.0
 40
0.2930654741
 40
0.5895356658
 40
1.0
 40
1.0
 40
1.0
 40
1.0
 10
98.9419183069
 20
183.3663383825
 30
0.0
 10
98.9419183069
 20
183.3692335938
 30
0.0
 10
98.9494845742
 20
183.3721637694
 30
0.0
 10
98.9584165372
 20
183.3729848331
 30
0.0
 10
98.9656649951
 20
183.373270683
 30
0.0
 10
98.9697199968
 20
183.373270683
 30
0.0
  0
SPLINE
  5
4F3
330
214
100
AcDbEntity
  8
7_ALL_FEATURES
  6
Continuous
 62
     3
100
AcDbSpline
 70
     0
 71
     3
 72
    15
 73
    11
 74
     0
 42
0.000000001
 43
0.0000001
 40
0.0
 40
0.0
 40
0.0
 40
0.0
 40
0.0553532263
 40
0.1187022212
 40
0.2008258479
 40
0.3068704175
 40
0.4390987882
 40
0.5985000374
 40
0.7854617126
 40
1.0
 40
1.0
 40
1.0
 40
1.0
 10
178.9419183069
 20
214.3006101671
 30
0.0
 10
178.9419183069
 20
214.3065987936
 30
0.0
 10
178.938254984
 20
214.3196937633
 30
0.0
 10
178.9220677195
 20
214.3351461279
 30
0.0
 10
178.897499063
 20
214.3472606728
 30
0.0
 10
178.8641102687
 20
214.356993863
 30
0.0
 10
178.8216855758
 20
214.3644433271
 30
0.0
 10
178.7701394605
 20
214.3696718302
 30
0.0
 10
178.7095142837
 20
214.3727074973
 30
0.0
 10
178.6660713959
 20
214.373270683
 30
0.0
 10
178.64286065
 20
214.373270683
 30
0.0
  0
SPLINE
  5
4F4
330
214
100
AcDbEntity
  8
7_ALL_FEATURES
  6
Continuous
 62
     3
100
AcDbSpline
 70
     0
 71
     3
 72
    15
 73
    11
 74
     0
 42
0.000000001
 43
0.0000001
 40
0.0
 40
0.0
 40
0.0
 40
0.0
 40
0.2145382876
 40
0.4014999629
 40
0.5609012119
 40
0.6931295823
 40
0.7991741521
 40
0.8812977787
 40
0.9446467736
 40
1.0
 40
1.0
 40
1.0
 40
1.0
 10
99.2409759638
 20
214.373270683
 30
0.0
 10
99.2177652179
 20
214.373270683
 30
0.0
 10
99.17432233
 20
214.3727074973
 30
0.0
 10
99.1136971532
 20
214.3696718302
 30
0.0
 10
99.0621510379
 20
214.3644433271
 30
0.0
 10
99.0197263451
 20
214.356993863
 30
0.0
 10
98.9863375508
 20
214.3472606728
 30
0.0
 10
98.9617688943
 20
214.3351461279
 30
0.0
 10
98.9455816298
 20
214.3196937633
 30
0.0
 10
98.9419183069
 20
214.3065987936
 30
0.0
 10
98.9419183069
 20
214.3006101671
 30
0.0
  0
ENDSEC
  0
SECTION
  2
OBJECTS
  0
DICTIONARY
  5
C
330
0
100
AcDbDictionary
281
     1
  3
ACAD_DETAILVIEWSTYLE
350
554
  3
ACAD_GROUP
350
D
  3
ACAD_IMAGE_DICT
350
544
  3
ACAD_LAYOUT
350
1A
  3
ACAD_MATERIAL
350
538
  3
ACAD_MLEADERSTYLE
350
553
  3
ACAD_MLINESTYLE
350
17
  3
ACAD_PLOTSETTINGS
350
19
  3
ACAD_PLOTSTYLENAME
350
E
  3
ACAD_SCALELIST
350
4FA
  3
ACAD_SECTIONVIEWSTYLE
350
555
  3
ACAD_TABLESTYLE
350
51C
  3
ACAD_VISUALSTYLE
350
51F
  3
ACDB_RECOMPOSE_DATA
350
551
  3
AcDbVariableDictionary
350
54D
  3
HOST_DOC_SETTINGS
350
542
  3
MCS_STREAM_DICT
350
53E
  0
SUN
  5
541
330
1F4
100
AcDbSun
 90
        1
290
     0
 63
     7
421
 16777215
 40
1.0
291
     1
 91
  2455826
 92
 54000000
292
     0
 70
     2
 71
   256
280
     1
  0
DICTIONARY
  5
54B
330
2B1
100
AcDbDictionary
280
     1
281
     1
  3
ACAD_XREC_ROUNDTRIP
360
54C
  0
DICTIONARY
  5
554
102
{ACAD_REACTORS
330
C
102
}
330
C
100
AcDbDictionary
281
     1
  0
DICTIONARY
  5
D
102
{ACAD_REACTORS
330
C
102
}
330
C
100
AcDbDictionary
281
     1
  0
DICTIONARY
  5
544
102
{ACAD_REACTORS
330
C
102
}
330
C
100
AcDbDictionary
281
     1
  0
DICTIONARY
  5
1A
102
{ACAD_REACTORS
330
C
102
}
330
C
100
AcDbDictionary
281
     1
  3
Layout1
350
4F7
  3
Model
350
4F6
  0
DICTIONARY
  5
538
102
{ACAD_REACTORS
330
C
102
}
330
C
100
AcDbDictionary
281
     1
  3
ByBlock
350
53A
  3
ByLayer
350
539
  3
Global
350
53B
  0
DICTIONARY
  5
553
102
{ACAD_REACTORS
330
C
102
}
330
C
100
AcDbDictionary
281
     1
  0
DICTIONARY
  5
17
102
{ACAD_REACTORS
330
C
102
}
330
C
100
AcDbDictionary
281
     1
  3
Standard
350
18
  0
DICTIONARY
  5
19
102
{ACAD_REACTORS
330
C
102
}
330
C
100
AcDbDictionary
281
     1
  0
ACDBDICTIONARYWDFLT
  5
E
102
{ACAD_REACTORS
330
C
102
}
330
C
100
AcDbDictionary
281
     1
  3
Normal
350
F
100
AcDbDictionaryWithDefault
340
F
  0
DICTIONARY
  5
4FA
102
{ACAD_REACTORS
330
C
102
}
330
C
100
AcDbDictionary
281
     1
  3
A0
350
4FB
  3
A1
350
4FC
  3
A2
350
4FD
  3
A3
350
4FE
  3
A4
350
4FF
  3
A5
350
500
  3
A6
350
501
  3
A7
350
502
  3
A8
350
503
  3
A9
350
504
  3
B0
350
505
  3
B1
350
506
  3
B2
350
507
  3
B3
350
508
  3
B4
350
509
  3
B5
350
50A
  3
B6
350
50B
  3
B7
350
50C
  3
B8
350
50D
  3
B9
350
50E
  3
C0
350
50F
  3
C1
350
510
  3
C2
350
511
  3
C3
350
512
  3
C4
350
513
  3
C5
350
514
  3
C6
350
515
  3
C7
350
516
  3
C8
350
517
  3
C9
350
518
  3
D0
350
519
  3
D1
350
51A
  3
D2
350
51B
  0
DICTIONARY
  5
555
102
{ACAD_REACTORS
330
C
102
}
330
C
100
AcDbDictionary
281
     1
  0
DICTIONARY
  5
51C
102
{ACAD_REACTORS
330
C
102
}
330
C
100
AcDbDictionary
281
     1
  3
Standard
350
51D
  0
DICTIONARY
  5
51F
102
{ACAD_REACTORS
330
C
102
}
330
C
100
AcDbDictionary
281
     1
  3
2dWireframe
350
524
  3
Basic
350
527
  3
Brighten
350
52B
  3
ColorChange
350
52F
  3
Conceptual
350
529
  3
Dim
350
52A
  3
EdgeColorOff
350
532
  3
Facepattern
350
52E
  3
Flat
350
520
  3
FlatWithEdges
350
521
  3
Gouraud
350
522
  3
GouraudWithEdges
350
523
  3
Hidden
350
526
  3
JitterOff
350
530
  3
Linepattern
350
52D
  3
OverhangOff
350
531
  3
Realistic
350
528
  3
Shaded
350
537
  3
Shaded with edges
350
536
  3
Shades of Gray
350
533
  3
Sketchy
350
534
  3
Thicken
350
52C
  3
Wireframe
350
525
  3
X-Ray
350
535
  0
XRECORD
  5
551
102
{ACAD_REACTORS
330
C
102
}
330
C
100
AcDbXrecord
280
     1
 90
        1
330
2B1
330
51D
  0
DICTIONARY
  5
54D
102
{ACAD_REACTORS
330
C
102
}
330
C
100
AcDbDictionary
281
     1
  3
CANNOSCALE
350
54E
  3
CTABLESTYLE
350
552
  0
DICTIONARY
  5
542
102
{ACAD_REACTORS
330
C
102
}
330
C
100
AcDbDictionary
281
     1
  3
NCDocParameters
350
543
  0
DICTIONARY
  5
53E
102
{ACAD_REACTORS
330
C
102
}
330
C
100
AcDbDictionary
281
     1
  3
MC_VERSION_DATA
350
547
  3
MCS_DOCUMENT_ID
350
53F
  3
MCS_PARAMS_DATA
350
545
  0
XRECORD
  5
54C
102
{ACAD_REACTORS
330
54B
102
}
330
54B
100
AcDbXrecord
280
     1
102
ACAD_ROUNDTRIP_2008_TABLE_ENTITY
360
549
 70
     2
 90
        1
 10
0.0
 20
0.0
 30
0.0
 90
        0
 90
        4
361
54A
  0
LAYOUT
  5
4F7
102
{ACAD_REACTORS
330
1A
102
}
330
1A
100
AcDbPlotSettings
  1

  2
none_device
  4
ISO_A2_(594.00_x_420.00_MM)
  6

 40
0.0
 41
0.0
 42
0.0
 43
0.0
 44
594.0
 45
420.0
 46
0.0
 47
0.0
 48
0.0
 49
0.0
140
0.0
141
0.0
142
1.0
143
1.0
 70
     0
 72
     1
 73
     0
 74
     0
  7

 75
     0
 76
     0
 77
     2
 78
   300
147
1.0
148
0.0
149
0.0
100
AcDbLayout
  1
Layout1
 70
     0
 71
     1
 10
0.0
 20
0.0
 11
594.0
 21
420.0
 12
0.0
 22
0.0
 32
0.0
 14
0.0
 24
0.0
 34
0.0
 15
0.0
 25
0.0
 35
0.0
146
0.0
 13
0.0
 23
0.0
 33
0.0
 16
1.0
 26
0.0
 36
0.0
 17
0.0
 27
1.0
 37
0.0
 76
     0
330
215
  0
LAYOUT
  5
4F6
102
{ACAD_REACTORS
330
1A
102
}
330
1A
100
AcDbPlotSettings
  1

  2
none_device
  4
ISO_A2_(594.00_x_420.00_MM)
  6

 40
0.0
 41
0.0
 42
0.0
 43
0.0
 44
594.0
 45
420.0
 46
0.0
 47
0.0
 48
0.0
 49
0.0
140
0.0
141
0.0
142
1.0
143
1.0
 70
  1024
 72
     1
 73
     0
 74
     0
  7

 75
     0
 76
     0
 77
     2
 78
   300
147
1.0
148
0.0
149
0.0
100
AcDbLayout
  1
Model
 70
     0
 71
     0
 10
0.0
 20
0.0
 11
594.0
 21
420.0
 12
0.0
 22
0.0
 32
0.0
 14
0.0
 24
0.0
 34
0.0
 15
0.0
 25
0.0
 35
0.0
146
0.0
 13
0.0
 23
0.0
 33
0.0
 16
1.0
 26
0.0
 36
0.0
 17
0.0
 27
1.0
 37
0.0
 76
     0
330
214
331
1F4
  0
MATERIAL
  5
53A
102
{ACAD_REACTORS
330
538
102
}
330
538
100
AcDbMaterial
  1
ByBlock
 72
     1
 94
      127
  0
MATERIAL
  5
539
102
{ACAD_REACTORS
330
538
102
}
330
538
100
AcDbMaterial
  1
ByLayer
 72
     1
 94
      127
  0
MATERIAL
  5
53B
102
{ACAD_REACTORS
330
538
102
}
330
538
100
AcDbMaterial
  1
Global
 72
     1
 94
      127
  0
MLINESTYLE
  5
18
102
{ACAD_REACTORS
330
17
102
}
330
17
100
AcDbMlineStyle
  2
STANDARD
 70
     0
  3

 62
   256
 51
90.0
 52
90.0
 71
     2
 49
0.5
 62
   256
  6
BYLAYER
 49
-0.5
 62
   256
  6
BYLAYER
  0
ACDBPLACEHOLDER
  5
F
102
{ACAD_REACTORS
330
E
102
}
330
E
  0
SCALE
  5
4FB
102
{ACAD_REACTORS
330
4FA
102
}
330
4FA
100
AcDbScale
 70
     0
300
1:1
140
1.0
141
1.0
290
     1
  0
SCALE
  5
4FC
102
{ACAD_REACTORS
330
4FA
102
}
330
4FA
100
AcDbScale
 70
     0
300
1:2
140
1.0
141
2.0
290
     0
  0
SCALE
  5
4FD
102
{ACAD_REACTORS
330
4FA
102
}
330
4FA
100
AcDbScale
 70
     0
300
1:4
140
1.0
141
4.0
290
     0
  0
SCALE
  5
4FE
102
{ACAD_REACTORS
330
4FA
102
}
330
4FA
100
AcDbScale
 70
     0
300
1:5
140
1.0
141
5.0
290
     0
  0
SCALE
  5
4FF
102
{ACAD_REACTORS
330
4FA
102
}
330
4FA
100
AcDbScale
 70
     0
300
1:8
140
1.0
141
8.0
290
     0
  0
SCALE
  5
500
102
{ACAD_REACTORS
330
4FA
102
}
330
4FA
100
AcDbScale
 70
     0
300
1:10
140
1.0
141
10.0
290
     0
  0
SCALE
  5
501
102
{ACAD_REACTORS
330
4FA
102
}
330
4FA
100
AcDbScale
 70
     0
300
1:16
140
1.0
141
16.0
290
     0
  0
SCALE
  5
502
102
{ACAD_REACTORS
330
4FA
102
}
330
4FA
100
AcDbScale
 70
     0
300
1:20
140
1.0
141
20.0
290
     0
  0
SCALE
  5
503
102
{ACAD_REACTORS
330
4FA
102
}
330
4FA
100
AcDbScale
 70
     0
300
1:30
140
1.0
141
30.0
290
     0
  0
SCALE
  5
504
102
{ACAD_REACTORS
330
4FA
102
}
330
4FA
100
AcDbScale
 70
     0
300
1:40
140
1.0
141
40.0
290
     0
  0
SCALE
  5
505
102
{ACAD_REACTORS
330
4FA
102
}
330
4FA
100
AcDbScale
 70
     0
300
1:50
140
1.0
141
50.0
290
     0
  0
SCALE
  5
506
102
{ACAD_REACTORS
330
4FA
102
}
330
4FA
100
AcDbScale
 70
     0
300
1:100
140
1.0
141
100.0
290
     0
  0
SCALE
  5
507
102
{ACAD_REACTORS
330
4FA
102
}
330
4FA
100
AcDbScale
 70
     0
300
2:1
140
2.0
141
1.0
290
     0
  0
SCALE
  5
508
102
{ACAD_REACTORS
330
4FA
102
}
330
4FA
100
AcDbScale
 70
     0
300
4:1
140
4.0
141
1.0
290
     0
  0
SCALE
  5
509
102
{ACAD_REACTORS
330
4FA
102
}
330
4FA
100
AcDbScale
 70
     0
300
8:1
140
8.0
141
1.0
290
     0
  0
SCALE
  5
50A
102
{ACAD_REACTORS
330
4FA
102
}
330
4FA
100
AcDbScale
 70
     0
300
10:1
140
10.0
141
1.0
290
     0
  0
SCALE
  5
50B
102
{ACAD_REACTORS
330
4FA
102
}
330
4FA
100
AcDbScale
 70
     0
300
100:1
140
100.0
141
1.0
290
     0
  0
SCALE
  5
50C
102
{ACAD_REACTORS
330
4FA
102
}
330
4FA
100
AcDbScale
 70
     0
300
1/128" = 1'-0"
140
0.007812
141
12.0
290
     0
  0
SCALE
  5
50D
102
{ACAD_REACTORS
330
4FA
102
}
330
4FA
100
AcDbScale
 70
     0
300
1/64" = 1'-0"
140
0.015625
141
12.0
290
     0
  0
SCALE
  5
50E
102
{ACAD_REACTORS
330
4FA
102
}
330
4FA
100
AcDbScale
 70
     0
300
1/32" = 1'-0"
140
0.03125
141
12.0
290
     0
  0
SCALE
  5
50F
102
{ACAD_REACTORS
330
4FA
102
}
330
4FA
100
AcDbScale
 70
     0
300
1/16" = 1'-0"
140
0.0625
141
12.0
290
     0
  0
SCALE
  5
510
102
{ACAD_REACTORS
330
4FA
102
}
330
4FA
100
AcDbScale
 70
     0
300
3/32" = 1'-0"
140
0.09375
141
12.0
290
     0
  0
SCALE
  5
511
102
{ACAD_REACTORS
330
4FA
102
}
330
4FA
100
AcDbScale
 70
     0
300
1/8" = 1'-0"
140
0.125
141
12.0
290
     0
  0
SCALE
  5
512
102
{ACAD_REACTORS
330
4FA
102
}
330
4FA
100
AcDbScale
 70
     0
300
3/16" = 1'-0"
140
0.1875
141
12.0
290
     0
  0
SCALE
  5
513
102
{ACAD_REACTORS
330
4FA
102
}
330
4FA
100
AcDbScale
 70
     0
300
1/4" = 1'-0"
140
0.25
141
12.0
290
     0
  0
SCALE
  5
514
102
{ACAD_REACTORS
330
4FA
102
}
330
4FA
100
AcDbScale
 70
     0
300
3/8" = 1'-0"
140
0.375
141
12.0
290
     0
  0
SCALE
  5
515
102
{ACAD_REACTORS
330
4FA
102
}
330
4FA
100
AcDbScale
 70
     0
300
1/2" = 1'-0"
140
0.5
141
12.0
290
     0
  0
SCALE
  5
516
102
{ACAD_REACTORS
330
4FA
102
}
330
4FA
100
AcDbScale
 70
     0
300
3/4" = 1'-0"
140
0.75
141
12.0
290
     0
  0
SCALE
  5
517
102
{ACAD_REACTORS
330
4FA
102
}
330
4FA
100
AcDbScale
 70
     0
300
1" = 1'-0"
140
1.0
141
12.0
290
     0
  0
SCALE
  5
518
102
{ACAD_REACTORS
330
4FA
102
}
330
4FA
100
AcDbScale
 70
     0
300
1-1/2" = 1'-0"
140
1.5
141
12.0
290
     0
  0
SCALE
  5
519
102
{ACAD_REACTORS
330
4FA
102
}
330
4FA
100
AcDbScale
 70
     0
300
3" = 1'-0"
140
3.0
141
12.0
290
     0
  0
SCALE
  5
51A
102
{ACAD_REACTORS
330
4FA
102
}
330
4FA
100
AcDbScale
 70
     0
300
6" = 1'-0"
140
6.0
141
12.0
290
     0
  0
SCALE
  5
51B
102
{ACAD_REACTORS
330
4FA
102
}
330
4FA
100
AcDbScale
 70
     0
300
1'-0" = 1'-0"
140
12.0
141
12.0
290
     0
  0
TABLESTYLE
  5
51D
102
{ACAD_REACTORS
330
51C
102
}
102
{ACAD_XDICTIONARY
360
54F
102
}
330
51C
100
AcDbTableStyle
  3
Standard
 70
     0
 71
     0
 40
0.06
 41
0.06
280
     0
281
     0
  7
STANDARD
140
4.5
170
     2
 62
     0
 63
   257
283
     0
 90
        4
 91
        0
  1

274
    -2
284
     1
 64
     0
275
    -2
285
     1
 65
     0
276
    -2
286
     1
 66
     0
277
    -2
287
     1
 67
     0
278
    -2
288
     1
 68
     0
279
    -2
289
     1
 69
     0
  7
STANDARD
140
6.0
170
     5
 62
     0
 63
   257
283
     0
 90
        4
 91
        0
  1

274
    -2
284
     1
 64
     0
275
    -2
285
     1
 65
     0
276
    -2
286
     1
 66
     0
277
    -2
287
     1
 67
     0
278
    -2
288
     1
 68
     0
279
    -2
289
     1
 69
     0
  7
STANDARD
140
4.5
170
     5
 62
     0
 63
   257
283
     0
 90
        4
 91
        0
  1

274
    -2
284
     1
 64
     0
275
    -2
285
     1
 65
     0
276
    -2
286
     1
 66
     0
277
    -2
287
     1
 67
     0
278
    -2
288
     1
 68
     0
279
    -2
289
     1
 69
     0
  0
VISUALSTYLE
  5
524
102
{ACAD_REACTORS
330
51F
102
}
330
51F
100
AcDbVisualStyle
  2
2dWireframe
 70
     4
177
     3
291
     0
 70
    58
 90
        0
176
     1
 90
        2
176
     1
 90
        0
176
     1
 90
        0
176
     1
 40
0.6
176
     1
 40
30.0
176
     1
 62
     7
420
 16777215
176
     1
 90
        1
176
     1
 90
        4
176
     1
 62
     7
176
     1
 62
   257
176
     1
 90
        1
176
     1
 90
        1
176
     1
 40
1.0
176
     1
 90
        0
176
     1
 62
   257
176
     1
 40
1.0
176
     1
 90
        1
176
     1
 90
        6
176
     1
 90
        2
176
     1
 62
     7
176
     1
 90
        5
176
     1
 90
        0
176
     1
 90
        0
176
     1
290
     0
176
     1
 90
        1
176
     1
 40
0.0
176
     1
 90
        0
176
     1
290
     1
176
     1
290
     1
176
     1
290
     0
176
     1
290
     0
176
     1
290
     0
176
     1
290
     0
176
     1
290
     0
176
     1
290
     0
176
     1
290
     0
176
     1
 90
       50
176
     1
 40
0.0
176
     1
 40
1.0
176
     1
 90
        0
176
     1
 62
    18
420
        0
176
     1
 90
       50
176
     1
 90
        3
176
     1
 62
     5
420
      255
176
     1
290
     0
176
     1
 90
       50
176
     1
 90
       50
176
     1
 90
       50
176
     1
290
     0
176
     1
 90
       50
176
     1
 62
   256
176
     0
 40
1.0
176
     0
 90
        2
176
     1
  1
strokes_ogs.tif
176
     1
290
     0
176
     1
 40
1.0
176
     1
 40
1.0
176
     1
  0
VISUALSTYLE
  5
527
102
{ACAD_REACTORS
330
51F
102
}
330
51F
100
AcDbVisualStyle
  2
Basic
 70
     7
177
     3
291
     1
 70
    58
 90
        1
176
     1
 90
        0
176
     1
 90
        1
176
     1
 90
        0
176
     1
 40
0.6
176
     1
 40
30.0
176
     1
 62
     7
420
 16777215
176
     1
 90
        0
176
     1
 90
        4
176
     1
 62
     7
176
     1
 62
   257
176
     1
 90
        1
176
     1
 90
        1
176
     1
 40
1.0
176
     1
 90
        8
176
     1
 62
     7
176
     1
 40
1.0
176
     1
 90
        1
176
     1
 90
        6
176
     1
 90
        2
176
     1
 62
     7
176
     1
 90
        5
176
     1
 90
        0
176
     1
 90
        0
176
     1
290
     0
176
     1
 90
        1
176
     1
 40
0.0
176
     1
 90
        0
176
     1
290
     0
176
     1
290
     1
176
     1
290
     1
176
     1
290
     0
176
     1
290
     0
176
     1
290
     0
176
     1
290
     0
176
     1
290
     0
176
     1
290
     0
176
     1
 90
       50
176
     1
 40
0.0
176
     1
 40
1.0
176
     1
 90
        0
176
     1
 62
    18
420
        0
176
     1
 90
       50
176
     1
 90
        3
176
     1
 62
     5
420
      255
176
     1
290
     0
176
     1
 90
       50
176
     1
 90
       50
176
     1
 90
       50
176
     1
290
     0
176
     1
 90
       50
176
     1
 62
   256
176
     0
 40
1.0
176
     0
 90
        2
176
     1
  1
strokes_ogs.tif
176
     1
290
     0
176
     1
 40
1.0
176
     1
 40
1.0
176
     1
  0
VISUALSTYLE
  5
52B
102
{ACAD_REACTORS
330
51F
102
}
330
51F
100
AcDbVisualStyle
  2
Brighten
 70
    12
177
     3
291
     1
 70
    58
 90
        2
176
     1
 90
        2
176
     1
 90
        0
176
     1
 90
        0
176
     1
 40
0.6
176
     1
 40
30.0
176
     1
 62
     7
420
 16777215
176
     1
 90
        1
176
     1
 90
        4
176
     1
 62
     7
176
     1
 62
   257
176
     1
 90
        1
176
     1
 90
        1
176
     1
 40
1.0
176
     1
 90
        8
176
     1
 62
     7
176
     1
 40
1.0
176
     1
 90
        1
176
     1
 90
        6
176
     1
 90
        2
176
     1
 62
     7
176
     1
 90
        5
176
     1
 90
        0
176
     1
 90
        0
176
     1
290
     0
176
     1
 90
        1
176
     1
 40
50.0
176
     1
 90
        0
176
     1
290
     0
176
     1
290
     1
176
     1
290
     1
176
     1
290
     0
176
     1
290
     0
176
     1
290
     0
176
     1
290
     0
176
     1
290
     0
176
     1
290
     0
176
     1
 90
       50
176
     1
 40
0.0
176
     1
 40
1.0
176
     1
 90
        0
176
     1
 62
    18
420
        0
176
     1
 90
       50
176
     1
 90
        3
176
     1
 62
     5
420
      255
176
     1
290
     0
176
     1
 90
       50
176
     1
 90
       50
176
     1
 90
       50
176
     1
290
     0
176
     1
 90
       50
176
     1
 62
   256
176
     0
 40
1.0
176
     0
 90
        2
176
     1
  1
strokes_ogs.tif
176
     1
290
     0
176
     1
 40
1.0
176
     1
 40
1.0
176
     1
  0
VISUALSTYLE
  5
52F
102
{ACAD_REACTORS
330
51F
102
}
330
51F
100
AcDbVisualStyle
  2
ColorChange
 70
    16
177
     3
291
     1
 70
    58
 90
        2
176
     1
 90
        2
176
     1
 90
        3
176
     1
 90
        0
176
     1
 40
0.6
176
     1
 40
30.0
176
     1
 62
     8
420
  8421504
176
     1
 90
        1
176
     1
 90
        4
176
     1
 62
     7
176
     1
 62
   257
176
     1
 90
        1
176
     1
 90
        1
176
     1
 40
1.0
176
     1
 90
        8
176
     1
 62
     8
420
  8421504
176
     1
 40
1.0
176
     1
 90
        1
176
     1
 90
        6
176
     1
 90
        2
176
     1
 62
     7
176
     1
 90
        5
176
     1
 90
        0
176
     1
 90
        0
176
     1
290
     0
176
     1
 90
        1
176
     1
 40
0.0
176
     1
 90
        0
176
     1
290
     0
176
     1
290
     1
176
     1
290
     1
176
     1
290
     0
176
     1
290
     0
176
     1
290
     0
176
     1
290
     0
176
     1
290
     0
176
     1
290
     0
176
     1
 90
       50
176
     1
 40
0.0
176
     1
 40
1.0
176
     1
 90
        0
176
     1
 62
    18
420
        0
176
     1
 90
       50
176
     1
 90
        3
176
     1
 62
     5
420
      255
176
     1
290
     0
176
     1
 90
       50
176
     1
 90
       50
176
     1
 90
       50
176
     1
290
     0
176
     1
 90
       50
176
     1
 62
   256
176
     0
 40
1.0
176
     0
 90
        2
176
     1
  1
strokes_ogs.tif
176
     1
290
     0
176
     1
 40
1.0
176
     1
 40
1.0
176
     1
  0
VISUALSTYLE
  5
529
102
{ACAD_REACTORS
330
51F
102
}
330
51F
100
AcDbVisualStyle
  2
Conceptual
 70
     9
177
     3
291
     0
 70
    58
 90
        3
176
     1
 90
        2
176
     1
 90
        0
176
     1
 90
        0
176
     1
 40
0.6
176
     1
 40
30.0
176
     1
 62
     7
420
 16777215
176
     1
 90
        2
176
     1
 90
        2
176
     1
 62
     7
176
     1
 62
   257
176
     1
 90
        1
176
     1
 90
        1
176
     1
 40
179.0
176
     1
 90
        8
176
     1
 62
     7
176
     1
 40
1.0
176
     1
 90
        1
176
     1
 90
        6
176
     1
 90
        2
176
     1
 62
     7
176
     1
 90
        3
176
     1
 90
        0
176
     1
 90
        0
176
     1
290
     0
176
     1
 90
        1
176
     1
 40
0.0
176
     1
 90
        0
176
     1
290
     0
176
     1
290
     1
176
     1
290
     1
176
     1
290
     0
176
     1
290
     0
176
     1
290
     0
176
     1
290
     0
176
     1
290
     0
176
     1
290
     0
176
     1
 90
       50
176
     1
 40
0.0
176
     1
 40
1.0
176
     1
 90
        0
176
     1
 62
    18
420
        0
176
     1
 90
       50
176
     1
 90
        3
176
     1
 62
     5
420
      255
176
     1
290
     0
176
     1
 90
       50
176
     1
 90
       50
176
     1
 90
       50
176
     1
290
     0
176
     1
 90
       50
176
     1
 62
   256
176
     0
 40
1.0
176
     0
 90
        2
176
     1
  1
strokes_ogs.tif
176
     1
290
     0
176
     1
 40
1.0
176
     1
 40
1.0
176
     1
  0
VISUALSTYLE
  5
52A
102
{ACAD_REACTORS
330
51F
102
}
330
51F
100
AcDbVisualStyle
  2
Dim
 70
    11
177
     3
291
     1
 70
    58
 90
        2
176
     1
 90
        2
176
     1
 90
        0
176
     1
 90
        0
176
     1
 40
0.6
176
     1
 40
30.0
176
     1
 62
     7
420
 16777215
176
     1
 90
        1
176
     1
 90
        4
176
     1
 62
     7
176
     1
 62
   257
176
     1
 90
        1
176
     1
 90
        1
176
     1
 40
1.0
176
     1
 90
        8
176
     1
 62
     7
176
     1
 40
1.0
176
     1
 90
        1
176
     1
 90
        6
176
     1
 90
        2
176
     1
 62
     7
176
     1
 90
        5
176
     1
 90
        0
176
     1
 90
        0
176
     1
290
     0
176
     1
 90
        1
176
     1
 40
-50.0
176
     1
 90
        0
176
     1
290
     0
176
     1
290
     1
176
     1
290
     1
176
     1
290
     0
176
     1
290
     0
176
     1
290
     0
176
     1
290
     0
176
     1
290
     0
176
     1
290
     0
176
     1
 90
       50
176
     1
 40
0.0
176
     1
 40
1.0
176
     1
 90
        0
176
     1
 62
    18
420
        0
176
     1
 90
       50
176
     1
 90
        3
176
     1
 62
     5
420
      255
176
     1
290
     0
176
     1
 90
       50
176
     1
 90
       50
176
     1
 90
       50
176
     1
290
     0
176
     1
 90
       50
176
     1
 62
   256
176
     0
 40
1.0
176
     0
 90
        2
176
     1
  1
strokes_ogs.tif
176
     1
290
     0
176
     1
 40
1.0
176
     1
 40
1.0
176
     1
  0
VISUALSTYLE
  5
532
102
{ACAD_REACTORS
330
51F
102
}
330
51F
100
AcDbVisualStyle
  2
EdgeColorOff
 70
    22
177
     3
291
     1
 70
    58
 90
        2
176
     0
 90
        2
176
     0
 90
        0
176
     0
 90
        0
176
     0
 40
0.6
176
     0
 40
30.0
176
     0
 62
     7
420
 16777215
176
     0
 90
        1
176
     0
 90
        4
176
     0
 62
     7
176
     0
 62
   257
176
     0
 90
        1
176
     0
 90
        1
176
     0
 40
1.0
176
     0
 90
        8
176
     2
 62
     7
176
     0
 40
1.0
176
     0
 90
        1
176
     0
 90
        6
176
     0
 90
        2
176
     0
 62
     7
176
     0
 90
        5
176
     0
 90
        0
176
     0
 90
        0
176
     0
290
     0
176
     0
 90
        1
176
     0
 40
0.0
176
     0
 90
        0
176
     0
290
     0
176
     0
290
     1
176
     0
290
     1
176
     0
290
     0
176
     0
290
     0
176
     0
290
     0
176
     0
290
     0
176
     0
290
     0
176
     0
290
     0
176
     0
 90
       50
176
     0
 40
0.0
176
     0
 40
1.0
176
     0
 90
        0
176
     0
 62
    18
420
        0
176
     0
 90
       50
176
     0
 90
        3
176
     0
 62
     5
420
      255
176
     0
290
     0
176
     0
 90
       50
176
     0
 90
       50
176
     0
 90
       50
176
     0
290
     0
176
     0
 90
       50
176
     0
 62
   256
176
     0
 40
1.0
176
     0
 90
        2
176
     0
  1
strokes_ogs.tif
176
     0
290
     0
176
     0
 40
1.0
176
     0
 40
1.0
176
     0
  0
VISUALSTYLE
  5
52E
102
{ACAD_REACTORS
330
51F
102
}
330
51F
100
AcDbVisualStyle
  2
Facepattern
 70
    15
177
     3
291
     1
 70
    58
 90
        2
176
     1
 90
        2
176
     1
 90
        0
176
     1
 90
        0
176
     1
 40
0.6
176
     1
 40
30.0
176
     1
 62
     7
420
 16777215
176
     1
 90
        1
176
     1
 90
        4
176
     1
 62
     7
176
     1
 62
   257
176
     1
 90
        1
176
     1
 90
        1
176
     1
 40
1.0
176
     1
 90
        8
176
     1
 62
     7
176
     1
 40
1.0
176
     1
 90
        1
176
     1
 90
        6
176
     1
 90
        2
176
     1
 62
     7
176
     1
 90
        5
176
     1
 90
        0
176
     1
 90
        0
176
     1
290
     0
176
     1
 90
        1
176
     1
 40
0.0
176
     1
 90
        0
176
     1
290
     0
176
     1
290
     1
176
     1
290
     1
176
     1
290
     0
176
     1
290
     0
176
     1
290
     0
176
     1
290
     0
176
     1
290
     0
176
     1
290
     0
176
     1
 90
       50
176
     1
 40
0.0
176
     1
 40
1.0
176
     1
 90
        0
176
     1
 62
    18
420
        0
176
     1
 90
       50
176
     1
 90
        3
176
     1
 62
     5
420
      255
176
     1
290
     0
176
     1
 90
       50
176
     1
 90
       50
176
     1
 90
       50
176
     1
290
     0
176
     1
 90
       50
176
     1
 62
   256
176
     0
 40
1.0
176
     0
 90
        2
176
     1
  1
strokes_ogs.tif
176
     1
290
     0
176
     1
 40
1.0
176
     1
 40
1.0
176
     1
  0
VISUALSTYLE
  5
520
102
{ACAD_REACTORS
330
51F
102
}
330
51F
100
AcDbVisualStyle
  2
Flat
 70
     0
177
     3
291
     1
 70
    58
 90
        2
176
     1
 90
        1
176
     1
 90
        1
176
     1
 90
        2
176
     1
 40
0.6
176
     1
 40
30.0
176
     1
 62
     7
420
 16777215
176
     1
 90
        0
176
     1
 90
        0
176
     1
 62
     7
176
     1
 62
   257
176
     1
 90
        1
176
     1
 90
        1
176
     1
 40
1.0
176
     1
 90
        8
176
     1
 62
     7
176
     1
 40
1.0
176
     1
 90
        1
176
     1
 90
        6
176
     1
 90
        2
176
     1
 62
     7
176
     1
 90
        5
176
     1
 90
        0
176
     1
 90
        0
176
     1
290
     0
176
     1
 90
       13
176
     1
 40
0.0
176
     1
 90
        0
176
     1
290
     0
176
     1
290
     1
176
     1
290
     1
176
     1
290
     0
176
     1
290
     0
176
     1
290
     0
176
     1
290
     0
176
     1
290
     0
176
     1
290
     0
176
     1
 90
       50
176
     1
 40
0.0
176
     1
 40
1.0
176
     1
 90
        0
176
     1
 62
    18
420
        0
176
     1
 90
       50
176
     1
 90
        3
176
     1
 62
     5
420
      255
176
     1
290
     0
176
     1
 90
       50
176
     1
 90
       50
176
     1
 90
       50
176
     1
290
     0
176
     1
 90
       50
176
     1
 62
   256
176
     0
 40
1.0
176
     0
 90
        2
176
     1
  1
strokes_ogs.tif
176
     1
290
     0
176
     1
 40
1.0
176
     1
 40
1.0
176
     1
  0
VISUALSTYLE
  5
521
102
{ACAD_REACTORS
330
51F
102
}
330
51F
100
AcDbVisualStyle
  2
FlatWithEdges
 70
     1
177
     3
291
     1
 70
    58
 90
        2
176
     1
 90
        1
176
     1
 90
        1
176
     1
 90
        2
176
     1
 40
0.6
176
     1
 40
30.0
176
     1
 62
     7
420
 16777215
176
     1
 90
        1
176
     1
 90
        0
176
     1
 62
     7
176
     1
 62
   257
176
     1
 90
        1
176
     1
 90
        1
176
     1
 40
1.0
176
     1
 90
        0
176
     1
 62
   257
176
     1
 40
1.0
176
     1
 90
        1
176
     1
 90
        6
176
     1
 90
        2
176
     1
 62
     7
176
     1
 90
        5
176
     1
 90
        0
176
     1
 90
        0
176
     1
290
     0
176
     1
 90
       13
176
     1
 40
0.0
176
     1
 90
        0
176
     1
290
     0
176
     1
290
     1
176
     1
290
     1
176
     1
290
     0
176
     1
290
     0
176
     1
290
     0
176
     1
290
     0
176
     1
290
     0
176
     1
290
     0
176
     1
 90
       50
176
     1
 40
0.0
176
     1
 40
1.0
176
     1
 90
        0
176
     1
 62
    18
420
        0
176
     1
 90
       50
176
     1
 90
        3
176
     1
 62
     5
420
      255
176
     1
290
     0
176
     1
 90
       50
176
     1
 90
       50
176
     1
 90
       50
176
     1
290
     0
176
     1
 90
       50
176
     1
 62
   256
176
     0
 40
1.0
176
     0
 90
        2
176
     1
  1
strokes_ogs.tif
176
     1
290
     0
176
     1
 40
1.0
176
     1
 40
1.0
176
     1
  0
VISUALSTYLE
  5
522
102
{ACAD_REACTORS
330
51F
102
}
330
51F
100
AcDbVisualStyle
  2
Gouraud
 70
     2
177
     3
291
     1
 70
    58
 90
        2
176
     1
 90
        2
176
     1
 90
        1
176
     1
 90
        2
176
     1
 40
0.6
176
     1
 40
30.0
176
     1
 62
     7
420
 16777215
176
     1
 90
        0
176
     1
 90
        0
176
     1
 62
     7
176
     1
 62
   257
176
     1
 90
        1
176
     1
 90
        1
176
     1
 40
1.0
176
     1
 90
        0
176
     1
 62
     7
176
     1
 40
1.0
176
     1
 90
        1
176
     1
 90
        6
176
     1
 90
        2
176
     1
 62
     7
176
     1
 90
        5
176
     1
 90
        0
176
     1
 90
        0
176
     1
290
     0
176
     1
 90
       13
176
     1
 40
0.0
176
     1
 90
        0
176
     1
290
     0
176
     1
290
     1
176
     1
290
     1
176
     1
290
     0
176
     1
290
     0
176
     1
290
     0
176
     1
290
     0
176
     1
290
     0
176
     1
290
     0
176
     1
 90
       50
176
     1
 40
0.0
176
     1
 40
1.0
176
     1
 90
        0
176
     1
 62
    18
420
        0
176
     1
 90
       50
176
     1
 90
        3
176
     1
 62
     5
420
      255
176
     1
290
     0
176
     1
 90
       50
176
     1
 90
       50
176
     1
 90
       50
176
     1
290
     0
176
     1
 90
       50
176
     1
 62
   256
176
     0
 40
1.0
176
     0
 90
        2
176
     1
  1
strokes_ogs.tif
176
     1
290
     0
176
     1
 40
1.0
176
     1
 40
1.0
176
     1
  0
VISUALSTYLE
  5
523
102
{ACAD_REACTORS
330
51F
102
}
330
51F
100
AcDbVisualStyle
  2
GouraudWithEdges
 70
     3
177
     3
291
     1
 70
    58
 90
        2
176
     1
 90
        2
176
     1
 90
        1
176
     1
 90
        2
176
     1
 40
0.6
176
     1
 40
30.0
176
     1
 62
     7
420
 16777215
176
     1
 90
        1
176
     1
 90
        0
176
     1
 62
     7
176
     1
 62
   257
176
     1
 90
        1
176
     1
 90
        1
176
     1
 40
1.0
176
     1
 90
        0
176
     1
 62
   257
176
     1
 40
1.0
176
     1
 90
        1
176
     1
 90
        6
176
     1
 90
        2
176
     1
 62
     7
176
     1
 90
        5
176
     1
 90
        0
176
     1
 90
        0
176
     1
290
     0
176
     1
 90
       13
176
     1
 40
0.0
176
     1
 90
        0
176
     1
290
     0
176
     1
290
     1
176
     1
290
     1
176
     1
290
     0
176
     1
290
     0
176
     1
290
     0
176
     1
290
     0
176
     1
290
     0
176
     1
290
     0
176
     1
 90
       50
176
     1
 40
0.0
176
     1
 40
1.0
176
     1
 90
        0
176
     1
 62
    18
420
        0
176
     1
 90
       50
176
     1
 90
        3
176
     1
 62
     5
420
      255
176
     1
290
     0
176
     1
 90
       50
176
     1
 90
       50
176
     1
 90
       50
176
     1
290
     0
176
     1
 90
       50
176
     1
 62
   256
176
     0
 40
1.0
176
     0
 90
        2
176
     1
  1
strokes_ogs.tif
176
     1
290
     0
176
     1
 40
1.0
176
     1
 40
1.0
176
     1
  0
VISUALSTYLE
  5
526
102
{ACAD_REACTORS
330
51F
102
}
330
51F
100
AcDbVisualStyle
  2
Hidden
 70
     6
177
     3
291
     0
 70
    58
 90
        1
176
     1
 90
        2
176
     1
 90
        2
176
     1
 90
        0
176
     1
 40
0.6
176
     1
 40
30.0
176
     1
 62
     7
420
 16777215
176
     1
 90
        2
176
     1
 90
        2
176
     1
 62
     7
176
     1
 62
   257
176
     1
 90
        2
176
     1
 90
        1
176
     1
 40
40.0
176
     1
 90
        0
176
     1
 62
   257
176
     1
 40
1.0
176
     1
 90
        1
176
     1
 90
        6
176
     1
 90
        2
176
     1
 62
     7
176
     1
 90
        3
176
     1
 90
        0
176
     1
 90
        0
176
     1
290
     0
176
     1
 90
        1
176
     1
 40
0.0
176
     1
 90
        0
176
     1
290
     0
176
     1
290
     1
176
     1
290
     1
176
     1
290
     0
176
     1
290
     0
176
     1
290
     0
176
     1
290
     0
176
     1
290
     0
176
     1
290
     0
176
     1
 90
       50
176
     1
 40
0.0
176
     1
 40
1.0
176
     1
 90
        0
176
     1
 62
    18
420
        0
176
     1
 90
       50
176
     1
 90
        3
176
     1
 62
     5
420
      255
176
     1
290
     0
176
     1
 90
       50
176
     1
 90
       50
176
     1
 90
       50
176
     1
290
     0
176
     1
 90
       50
176
     1
 62
   256
176
     0
 40
1.0
176
     0
 90
        2
176
     1
  1
strokes_ogs.tif
176
     1
290
     0
176
     1
 40
1.0
176
     1
 40
1.0
176
     1
  0
VISUALSTYLE
  5
530
102
{ACAD_REACTORS
330
51F
102
}
330
51F
100
AcDbVisualStyle
  2
JitterOff
 70
    20
177
     3
291
     1
 70
    58
 90
        2
176
     0
 90
        2
176
     0
 90
        0
176
     0
 90
        0
176
     0
 40
0.6
176
     0
 40
30.0
176
     0
 62
     7
420
 16777215
176
     0
 90
        1
176
     0
 90
        4
176
     0
 62
     7
176
     0
 62
   257
176
     0
 90
        1
176
     0
 90
        1
176
     0
 40
1.0
176
     0
 90
       10
176
     2
 62
     7
176
     0
 40
1.0
176
     0
 90
        1
176
     0
 90
        6
176
     0
 90
        2
176
     0
 62
     7
176
     0
 90
        5
176
     0
 90
        0
176
     0
 90
        0
176
     0
290
     0
176
     0
 90
        1
176
     0
 40
0.0
176
     0
 90
        0
176
     0
290
     0
176
     0
290
     1
176
     0
290
     1
176
     0
290
     0
176
     0
290
     0
176
     0
290
     0
176
     0
290
     0
176
     0
290
     0
176
     0
290
     0
176
     0
 90
       50
176
     0
 40
0.0
176
     0
 40
1.0
176
     0
 90
        0
176
     0
 62
    18
420
        0
176
     0
 90
       50
176
     0
 90
        3
176
     0
 62
     5
420
      255
176
     0
290
     0
176
     0
 90
       50
176
     0
 90
       50
176
     0
 90
       50
176
     0
290
     0
176
     0
 90
       50
176
     0
 62
   256
176
     0
 40
1.0
176
     0
 90
        2
176
     0
  1
strokes_ogs.tif
176
     0
290
     0
176
     0
 40
1.0
176
     0
 40
1.0
176
     0
  0
VISUALSTYLE
  5
52D
102
{ACAD_REACTORS
330
51F
102
}
330
51F
100
AcDbVisualStyle
  2
Linepattern
 70
    14
177
     3
291
     1
 70
    58
 90
        2
176
     1
 90
        2
176
     1
 90
        0
176
     1
 90
        0
176
     1
 40
0.6
176
     1
 40
30.0
176
     1
 62
     7
420
 16777215
176
     1
 90
        1
176
     1
 90
        4
176
     1
 62
     7
176
     1
 62
   257
176
     1
 90
        7
176
     1
 90
        7
176
     1
 40
1.0
176
     1
 90
        8
176
     1
 62
     7
176
     1
 40
1.0
176
     1
 90
        1
176
     1
 90
        6
176
     1
 90
        2
176
     1
 62
     7
176
     1
 90
        5
176
     1
 90
        0
176
     1
 90
        0
176
     1
290
     0
176
     1
 90
        1
176
     1
 40
0.0
176
     1
 90
        0
176
     1
290
     0
176
     1
290
     1
176
     1
290
     1
176
     1
290
     0
176
     1
290
     0
176
     1
290
     0
176
     1
290
     0
176
     1
290
     0
176
     1
290
     0
176
     1
 90
       50
176
     1
 40
0.0
176
     1
 40
1.0
176
     1
 90
        0
176
     1
 62
    18
420
        0
176
     1
 90
       50
176
     1
 90
        3
176
     1
 62
     5
420
      255
176
     1
290
     0
176
     1
 90
       50
176
     1
 90
       50
176
     1
 90
       50
176
     1
290
     0
176
     1
 90
       50
176
     1
 62
   256
176
     0
 40
1.0
176
     0
 90
        2
176
     1
  1
strokes_ogs.tif
176
     1
290
     0
176
     1
 40
1.0
176
     1
 40
1.0
176
     1
  0
VISUALSTYLE
  5
531
102
{ACAD_REACTORS
330
51F
102
}
330
51F
100
AcDbVisualStyle
  2
OverhangOff
 70
    21
177
     3
291
     1
 70
    58
 90
        2
176
     0
 90
        2
176
     0
 90
        0
176
     0
 90
        0
176
     0
 40
0.6
176
     0
 40
30.0
176
     0
 62
     7
420
 16777215
176
     0
 90
        1
176
     0
 90
        4
176
     0
 62
     7
176
     0
 62
   257
176
     0
 90
        1
176
     0
 90
        1
176
     0
 40
1.0
176
     0
 90
        9
176
     2
 62
     7
176
     0
 40
1.0
176
     0
 90
        1
176
     0
 90
        6
176
     0
 90
        2
176
     0
 62
     7
176
     0
 90
        5
176
     0
 90
        0
176
     0
 90
        0
176
     0
290
     0
176
     0
 90
        1
176
     0
 40
0.0
176
     0
 90
        0
176
     0
290
     0
176
     0
290
     1
176
     0
290
     1
176
     0
290
     0
176
     0
290
     0
176
     0
290
     0
176
     0
290
     0
176
     0
290
     0
176
     0
290
     0
176
     0
 90
       50
176
     0
 40
0.0
176
     0
 40
1.0
176
     0
 90
        0
176
     0
 62
    18
420
        0
176
     0
 90
       50
176
     0
 90
        3
176
     0
 62
     5
420
      255
176
     0
290
     0
176
     0
 90
       50
176
     0
 90
       50
176
     0
 90
       50
176
     0
290
     0
176
     0
 90
       50
176
     0
 62
   256
176
     0
 40
1.0
176
     0
 90
        2
176
     0
  1
strokes_ogs.tif
176
     0
290
     0
176
     0
 40
1.0
176
     0
 40
1.0
176
     0
  0
VISUALSTYLE
  5
528
102
{ACAD_REACTORS
330
51F
102
}
330
51F
100
AcDbVisualStyle
  2
Realistic
 70
     8
177
     3
291
     0
 70
    58
 90
        2
176
     1
 90
        3
176
     1
 90
        0
176
     1
 90
        2
176
     1
 40
0.6
176
     1
 40
30.0
176
     1
 62
     7
420
 16777215
176
     1
 90
        0
176
     1
 90
        0
176
     1
 62
     7
176
     1
 62
   257
176
     1
 90
        1
176
     1
 90
        1
176
     1
 40
1.0
176
     1
 90
        8
176
     1
 62
   257
176
     1
 40
1.0
176
     1
 90
        1
176
     1
 90
        6
176
     1
 90
        2
176
     1
 62
     7
176
     1
 90
        3
176
     1
 90
        0
176
     1
 90
        0
176
     1
290
     0
176
     1
 90
       13
176
     1
 40
0.0
176
     1
 90
        0
176
     1
290
     0
176
     1
290
     1
176
     1
290
     1
176
     1
290
     0
176
     1
290
     0
176
     1
290
     0
176
     1
290
     0
176
     1
290
     0
176
     1
290
     0
176
     1
 90
       50
176
     1
 40
0.0
176
     1
 40
1.0
176
     1
 90
        0
176
     1
 62
    18
420
        0
176
     1
 90
       50
176
     1
 90
        3
176
     1
 62
     5
420
      255
176
     1
290
     0
176
     1
 90
       50
176
     1
 90
       50
176
     1
 90
       50
176
     1
290
     0
176
     1
 90
       50
176
     1
 62
   256
176
     0
 40
1.0
176
     0
 90
        2
176
     1
  1
strokes_ogs.tif
176
     1
290
     0
176
     1
 40
1.0
176
     1
 40
1.0
176
     1
  0
VISUALSTYLE
  5
537
102
{ACAD_REACTORS
330
51F
102
}
330
51F
100
AcDbVisualStyle
  2
Shaded
 70
    27
177
     3
291
     0
 70
    58
 90
        2
176
     1
 90
        2
176
     1
 90
        1
176
     1
 90
        2
176
     1
 40
0.6
176
     1
 40
30.0
176
     1
 62
     7
420
 16777215
176
     1
 90
        0
176
     1
 90
        4
176
     1
 62
     7
176
     1
 62
   257
176
     1
 90
        1
176
     1
 90
        1
176
     1
 40
1.0
176
     1
 90
        8
176
     1
 62
   257
176
     1
 40
1.0
176
     1
 90
        1
176
     1
 90
        6
176
     1
 90
        2
176
     1
 62
     8
420
  7895160
176
     1
 90
        3
176
     1
 90
        0
176
     1
 90
        0
176
     1
290
     0
176
     1
 90
        5
176
     1
 40
0.0
176
     1
 90
        0
176
     1
290
     0
176
     1
290
     1
176
     1
290
     1
176
     1
290
     0
176
     1
290
     0
176
     1
290
     0
176
     1
290
     0
176
     1
290
     0
176
     1
290
     0
176
     1
 90
       50
176
     1
 40
0.0
176
     1
 40
1.0
176
     1
 90
        0
176
     1
 62
    18
420
        0
176
     1
 90
       50
176
     1
 90
        3
176
     1
 62
     5
420
      255
176
     1
290
     0
176
     1
 90
       50
176
     1
 90
       50
176
     1
 90
       50
176
     1
290
     0
176
     1
 90
       50
176
     1
 62
   256
176
     0
 40
1.0
176
     0
 90
        2
176
     1
  1
strokes_ogs.tif
176
     1
290
     0
176
     1
 40
1.0
176
     1
 40
1.0
176
     1
  0
VISUALSTYLE
  5
536
102
{ACAD_REACTORS
330
51F
102
}
330
51F
100
AcDbVisualStyle
  2
Shaded with edges
 70
    26
177
     3
291
     0
 70
    58
 90
        2
176
     1
 90
        2
176
     1
 90
        1
176
     1
 90
        2
176
     1
 40
0.6
176
     1
 40
30.0
176
     1
 62
     7
420
 16777215
176
     1
 90
        1
176
     1
 90
       10
176
     1
 62
     7
176
     1
 62
   257
176
     1
 90
        2
176
     1
 90
        1
176
     1
 40
1.0
176
     1
 90
        8
176
     1
 62
   257
176
     1
 40
1.0
176
     1
 90
        1
176
     1
 90
        6
176
     1
 90
        2
176
     1
 62
     7
176
     1
 90
        3
176
     1
 90
        0
176
     1
 90
        0
176
     1
290
     0
176
     1
 90
        5
176
     1
 40
0.0
176
     1
 90
        0
176
     1
290
     0
176
     1
290
     1
176
     1
290
     1
176
     1
290
     0
176
     1
290
     0
176
     1
290
     0
176
     1
290
     0
176
     1
290
     0
176
     1
290
     0
176
     1
 90
       50
176
     1
 40
0.0
176
     1
 40
1.0
176
     1
 90
        0
176
     1
 62
    18
420
        0
176
     1
 90
       50
176
     1
 90
        3
176
     1
 62
     5
420
      255
176
     1
290
     0
176
     1
 90
       50
176
     1
 90
       50
176
     1
 90
       50
176
     1
290
     0
176
     1
 90
       50
176
     1
 62
   256
176
     0
 40
1.0
176
     0
 90
        2
176
     1
  1
strokes_ogs.tif
176
     1
290
     0
176
     1
 40
1.0
176
     1
 40
1.0
176
     1
  0
VISUALSTYLE
  5
533
102
{ACAD_REACTORS
330
51F
102
}
330
51F
100
AcDbVisualStyle
  2
Shades of Gray
 70
    23
177
     3
291
     0
 70
    58
 90
        2
176
     1
 90
        2
176
     1
 90
        3
176
     1
 90
        0
176
     1
 40
0.6
176
     1
 40
30.0
176
     1
 62
     7
420
 16777215
176
     1
 90
        2
176
     1
 90
        2
176
     1
 62
     7
176
     1
 62
     7
176
     1
 90
        1
176
     1
 90
        1
176
     1
 40
40.0
176
     1
 90
        8
176
     1
 62
     7
176
     1
 40
1.0
176
     1
 90
        1
176
     1
 90
        6
176
     1
 90
        2
176
     1
 62
     7
176
     1
 90
        3
176
     1
 90
        0
176
     1
 90
        0
176
     1
290
     0
176
     1
 90
        1
176
     1
 40
0.0
176
     1
 90
        0
176
     1
290
     0
176
     1
290
     1
176
     1
290
     1
176
     1
290
     0
176
     1
290
     0
176
     1
290
     0
176
     1
290
     0
176
     1
290
     0
176
     1
290
     0
176
     1
 90
       50
176
     1
 40
0.0
176
     1
 40
1.0
176
     1
 90
        0
176
     1
 62
    18
420
        0
176
     1
 90
       50
176
     1
 90
        3
176
     1
 62
     5
420
      255
176
     1
290
     0
176
     1
 90
       50
176
     1
 90
       50
176
     1
 90
       50
176
     1
290
     0
176
     1
 90
       50
176
     1
 62
   256
176
     0
 40
1.0
176
     0
 90
        2
176
     1
  1
strokes_ogs.tif
176
     1
290
     0
176
     1
 40
1.0
176
     1
 40
1.0
176
     1
  0
VISUALSTYLE
  5
534
102
{ACAD_REACTORS
330
51F
102
}
330
51F
100
AcDbVisualStyle
  2
Sketchy
 70
    24
177
     3
291
     0
 70
    58
 90
        1
176
     1
 90
        2
176
     1
 90
        2
176
     1
 90
        0
176
     1
 40
0.6
176
     1
 40
30.0
176
     1
 62
     7
420
 16777215
176
     1
 90
        2
176
     1
 90
        2
176
     1
 62
     7
176
     1
 62
     7
176
     1
 90
        1
176
     1
 90
        1
176
     1
 40
40.0
176
     1
 90
       11
176
     1
 62
     7
176
     1
 40
1.0
176
     1
 90
        1
176
     1
 90
        6
176
     1
 90
        2
176
     1
 62
     7
176
     1
 90
        6
176
     1
 90
        0
176
     1
 90
        0
176
     1
290
     0
176
     1
 90
        1
176
     1
 40
0.0
176
     1
 90
        0
176
     1
290
     0
176
     1
290
     1
176
     1
290
     1
176
     1
290
     0
176
     1
290
     0
176
     1
290
     0
176
     1
290
     0
176
     1
290
     0
176
     1
290
     0
176
     1
 90
       50
176
     1
 40
0.0
176
     1
 40
1.0
176
     1
 90
        0
176
     1
 62
    18
420
        0
176
     1
 90
       50
176
     1
 90
        3
176
     1
 62
     5
420
      255
176
     1
290
     0
176
     1
 90
       50
176
     1
 90
       50
176
     1
 90
       50
176
     1
290
     0
176
     1
 90
       50
176
     1
 62
   256
176
     0
 40
1.0
176
     0
 90
        2
176
     1
  1
strokes_ogs.tif
176
     1
290
     0
176
     1
 40
1.0
176
     1
 40
1.0
176
     1
  0
VISUALSTYLE
  5
52C
102
{ACAD_REACTORS
330
51F
102
}
330
51F
100
AcDbVisualStyle
  2
Thicken
 70
    13
177
     3
291
     1
 70
    58
 90
        2
176
     1
 90
        2
176
     1
 90
        0
176
     1
 90
        0
176
     1
 40
0.6
176
     1
 40
30.0
176
     1
 62
     7
420
 16777215
176
     1
 90
        1
176
     1
 90
        4
176
     1
 62
     7
176
     1
 62
   257
176
     1
 90
        1
176
     1
 90
        1
176
     1
 40
1.0
176
     1
 90
       12
176
     1
 62
     7
176
     1
 40
1.0
176
     1
 90
        1
176
     1
 90
        6
176
     1
 90
        2
176
     1
 62
     7
176
     1
 90
        5
176
     1
 90
        0
176
     1
 90
        0
176
     1
290
     0
176
     1
 90
        1
176
     1
 40
0.0
176
     1
 90
        0
176
     1
290
     0
176
     1
290
     1
176
     1
290
     1
176
     1
290
     0
176
     1
290
     0
176
     1
290
     0
176
     1
290
     0
176
     1
290
     0
176
     1
290
     0
176
     1
 90
       50
176
     1
 40
0.0
176
     1
 40
1.0
176
     1
 90
        0
176
     1
 62
    18
420
        0
176
     1
 90
       50
176
     1
 90
        3
176
     1
 62
     5
420
      255
176
     1
290
     0
176
     1
 90
       50
176
     1
 90
       50
176
     1
 90
       50
176
     1
290
     0
176
     1
 90
       50
176
     1
 62
   256
176
     0
 40
1.0
176
     0
 90
        2
176
     1
  1
strokes_ogs.tif
176
     1
290
     0
176
     1
 40
1.0
176
     1
 40
1.0
176
     1
  0
VISUALSTYLE
  5
525
102
{ACAD_REACTORS
330
51F
102
}
330
51F
100
AcDbVisualStyle
  2
Wireframe
 70
     5
177
     3
291
     0
 70
    58
 90
        0
176
     1
 90
        2
176
     1
 90
        0
176
     1
 90
        0
176
     1
 40
0.6
176
     1
 40
30.0
176
     1
 62
     7
420
 16777215
176
     1
 90
        1
176
     1
 90
        4
176
     1
 62
     7
176
     1
 62
   257
176
     1
 90
        1
176
     1
 90
        1
176
     1
 40
1.0
176
     1
 90
        0
176
     1
 62
   257
176
     1
 40
1.0
176
     1
 90
        1
176
     1
 90
        6
176
     1
 90
        2
176
     1
 62
     7
176
     1
 90
        3
176
     1
 90
        0
176
     1
 90
        0
176
     1
290
     0
176
     1
 90
        1
176
     1
 40
0.0
176
     1
 90
        0
176
     1
290
     0
176
     1
290
     1
176
     1
290
     1
176
     1
290
     0
176
     1
290
     0
176
     1
290
     0
176
     1
290
     0
176
     1
290
     0
176
     1
290
     0
176
     1
 90
       50
176
     1
 40
0.0
176
     1
 40
1.0
176
     1
 90
        0
176
     1
 62
    18
420
        0
176
     1
 90
       50
176
     1
 90
        3
176
     1
 62
     5
420
      255
176
     1
290
     0
176
     1
 90
       50
176
     1
 90
       50
176
     1
 90
       50
176
     1
290
     0
176
     1
 90
       50
176
     1
 62
   256
176
     0
 40
1.0
176
     0
 90
        2
176
     1
  1
strokes_ogs.tif
176
     1
290
     0
176
     1
 40
1.0
176
     1
 40
1.0
176
     1
  0
VISUALSTYLE
  5
535
102
{ACAD_REACTORS
330
51F
102
}
330
51F
100
AcDbVisualStyle
  2
X-Ray
 70
    25
177
     3
291
     0
 70
    58
 90
        2
176
     1
 90
        2
176
     1
 90
        1
176
     1
 90
        1
176
     1
 40
0.5
176
     1
 40
30.0
176
     1
 62
     7
420
 16777215
176
     1
 90
        1
176
     1
 90
        0
176
     1
 62
     7
176
     1
 62
   257
176
     1
 90
        1
176
     1
 90
        1
176
     1
 40
1.0
176
     1
 90
        8
176
     1
 62
     7
176
     1
 40
1.0
176
     1
 90
        1
176
     1
 90
        6
176
     1
 90
        2
176
     1
 62
     7
176
     1
 90
        3
176
     1
 90
        0
176
     1
 90
        0
176
     1
290
     0
176
     1
 90
       13
176
     1
 40
0.0
176
     1
 90
        0
176
     1
290
     0
176
     1
290
     1
176
     1
290
     1
176
     1
290
     0
176
     1
290
     0
176
     1
290
     0
176
     1
290
     0
176
     1
290
     0
176
     1
290
     0
176
     1
 90
       50
176
     1
 40
0.0
176
     1
 40
1.0
176
     1
 90
        0
176
     1
 62
    18
420
        0
176
     1
 90
       50
176
     1
 90
        3
176
     1
 62
     5
420
      255
176
     1
290
     0
176
     1
 90
       50
176
     1
 90
       50
176
     1
 90
       50
176
     1
290
     0
176
     1
 90
       50
176
     1
 62
   256
176
     0
 40
1.0
176
     0
 90
        2
176
     1
  1
strokes_ogs.tif
176
     1
290
     0
176
     1
 40
1.0
176
     1
 40
1.0
176
     1
  0
DICTIONARYVAR
  5
54E
102
{ACAD_REACTORS
330
54D
102
}
330
54D
100
DictionaryVariables
280
     0
  1
1:1
  0
DICTIONARYVAR
  5
552
102
{ACAD_REACTORS
330
54D
102
}
330
54D
100
DictionaryVariables
280
     0
  1
Standard
  0
CSACDOCUMENTOPTIONS
  5
543
102
{ACAD_REACTORS
330
542
102
}
330
542
  0
XRECORD
  5
547
102
{ACAD_REACTORS
330
53E
102
}
330
53E
100
AcDbXrecord
280
     1
300
MC_VERSION_DATA
 90
       95
310
0600000002000000570000001C000000E404000000000000000000007801936764E5D8CF7A8393818115C460606066E0646662626666706006F214793899F8DE3171E725E6E53B3BBA2878E6951050AF75FEFFFFFF520032DE0F3057000000
  0
XRECORD
  5
53F
102
{ACAD_REACTORS
330
53E
102
}
330
53E
100
AcDbXrecord
280
     1
300
MCS_DOCUMENT_ID
 90
       60
310
0600000002000000150000001C000000E404000000000000000000007801E335BFCEBEF8E5732FBFD99F0AB4CE5E1238F91F080076C00CC915000000
  0
XRECORD
  5
545
102
{ACAD_REACTORS
330
53E
102
}
330
53E
100
AcDbXrecord
280
     1
300
MCS_PARAMS_DATA
 90
     3313
310
0600000002000000F64B00001C000000E404000000000000000000007801C55C5B905C45199EE99EBDCCE67E5DA218172C303B91307B4B8C459531245054850D55591F78B236BB49B9BAC9E6B22A082A9655BE5865596569A965F9209288CF16503EC8834088C10B092404211702988430422E9084CDAEFFD7A7FBF4DFA7CF
310
D9D99D9D39930798FF3F7DCEF7DFFAFBBBFBCC6CDBFC46297252EECB48F9CDF5ED5234493921A5206D76815820B252E4F3225F128D7D5F59BF69E3162948D9A2D485B3131313747328BF06593E960915079422437734AA3BDAA5CCD053F5ED4FD2557D257BAB94DF007A03479F859BB2B22193C9108EC1CDCADC0464C27506
310
28605703E48886E0B986E10F03BF91E33707F8E3140E7A9091C8268236920C1C662240B94888A1C8E07600AE99C32D5131CA8B3925D172EFE62D7D6D9DABBA8ADDD6F17CE16D13F0457AE8AC9268DE32DABF73B07FCFA013F9BF8491D7C17E2550D8E8FFCA8DFE4E98B3929B331718B291824FFF72EB941D9E8E2211D5A93C
310
784A44C557923911258BD0C8640531AEEC61A924855B11378280384364A422680C0A928DB9C10CD89D581114199665B722B26E4590C82B0222AB08FAA8A60626C028E0044F81BA246F5360E167F2D27C56A10E05C058C13C59DEC6207679103AFC5DEADF992F2B284F67B31C8EE359B64A9665A62453228F64269D98455E3B
310
A4B35817F7EC92C86FB8EFFE8DBD5BEEDBDCAB0CD3B5FC8E99065A7E55D536E39DE7826237F1C8BBBCB3CFADFC93302087C80397EE69C2FF69CA32234F0763E41851010DA578E8294D435524988818E84710A7B2643B4F7C034F6CE5C9368F203BE8094C6268541D70D35EE4B585DAE170F4942EB8D2D422560A9917F34B62
310
CE86919D9F1F6DDBB36DD770FFC0B6BC682E898607BEB5737424F8D83B323AF07529CFC0B69BB96D9FD3CFF9B410ED79B1A42416161FEA29AEEDEEEC5ADF532C76DEF3C5AEEEB5CAECF97A60330D2C1C3579EAD0DA7621F20269BD6768746FDBF0D0DE51F3B0EE356B3ABBD6F474F7740D76770EACED08FCFC92BEAF13F701
310
B5AF7FEBF0B6B691ED6D7D23C3DBF6F4EF840FDA9AD583C58E81E240FFEAADDD5BD70EAC0E669D2A25F27FB610851F9335859F059541B9E5971EC7A5A7E83F2CE53DB9A4040555A2661A4DDBF2C560B2E54E7D5483931EF871F7C88E5DFDA3435B878687461F6EDB313248FE3596847C70DBDEBC682809D13B22E56A5856E4
310
E9998738519B6E2A89DCE6EDDBDB542AF4E4380F8F61A4965F57116093E5A052A06AF588670205D9A715FB49B140D81A90855F902680EBB8B3A3187EEA96F2B224E392BAF898328CB1AD47DA34C1601A1B421AD816D190715CC3F276A5DE067C546F03AED6DB808FEB6DC0B57A1BB00853B49EB3E0937A47E07ABD0D188301
310
71CB797197D3603B1D06BFCB6DB024827C0C834324E60945463B3712E196397079076E990B47228783C8E09631B8F129C211385B3E540C97413DC70673C524DEAD70BD23917B079179B782793791AE77D944EFDCDC5529988B13E1069D6092C472A7F777A6F648E4C184C88239C8822913E16AE29D48176E29E0727C316496
310
EF2A967C95165E504B0C2B218EEE82DD5C63513CD614C5091F6D6FA7551865CC5C5030A1E0A3E84BEC86CFD04EC5DD01AA74CBDB05AB8C403295A124BB2908C4B032B4682A032283FB103E391B4E03172C7199C4E0F88E871E8855ADA1482D3238FA1846E0B807A77785BFF935FE1D74369F5647D0D171CA5F4F09337C2559
310
105132935A503D6DBC7A94B54D2B6DF1E0339960F436A97441791E5EC104D40283580888C4FDED577B1FD8B4B9AF6FE30605D8AAD7F1F34A62F6DD5BBEC62E92057A31FEA25A9DB3F5FBD3C1729D9CD723B0BF0DE8402BB05A67160DDE4416E59079C0D9EAA575B7321F67115FC018C76AB5B3A33D06B68CBD9BFBDC93C073
310
800CC384FD360C544F539B6F02B1820953BE9D01DE01C0D85A6C50369A5AC4065C7760793B965800321749E4B50891C0C2AB0CAE9808178444974C70F875952A9381563C01BE9D08EAFA481283ABD8C7EF7870DAABE068E68833DFAC8EA0A3E3F87C0B07AA507B2311F0889285BDC333294C4E2DB27C67BA70ABD2857B688A
310
70552AA7873DB8489E55063D5D2DCBE9BB9E49F1E554A5083C922EDCA3E9C27D2F5DB8EF7B705EE9D87E1E920E88313AAE6AECF4FBD668D3D30DB4E51ADA9BEDB0D7AFCEB4DDED85F7C4ECF6551B3BCE2AFF6E835E49458EC94883D6E73C45753FAE614C3C0A0362777435D915EC025C33F7578776011DE6F3D066954C59D6
310
D76F86AC9CD58A53F4122CF0552BAE070AEA3B5AF15752304F1F47569D50AB71F41A31FA5A51C904CD43C6B0F51D2ACEFC112ACC4CC1B0FF086CE7AD5A4D096A005126387AAD451EE384D9C035A925859E39C1AA865EE9A9B8DA21CEE289167F7CF1D4C4BC7A125EC5AED5D8BB0B5A9D9144D134CFA71BF85A8D44BE568348
310
F6AA55A2F3CAEA4F6982FD21118CC249D3CBF852A586F244BA70FBD285DB9F085793EDE56E143F0AD06C6B4CB2242BDD3DD1419166C2865E81F9CE1648F3CBD84597B22E28992A3DDCE24C77F3F311A01C8A722828EC3CF15F7D987933F818F8E59BC138E5CD4CE8AC24C94E68BA32F5C3CBAB808B6B06B9936E642F9F804C
310
903AF2F3709D37832318A078E4B37AEBDCFAA66859945B9EBB25776BAE2DD3995995E9CA1433DDFA4DAC7ECE6FE93696E96BB06712968ED2661884A9EE40230F60D0D73DE8C858453B9E8E4212D5A9B0784A762662599FEDD18C9299F4094C728A91F536658E91CDA6DFC8E89F363B15B4CB31404FD2581CF722BBF229B517
310
430944E56AB2E2A8E3461950730F2B7ECA7BC570E389706E8BA9D241C744225C40C29385944F707279EA277D998065D9EAD604B1263E66D38513E9C2490F4EE7CC6E8AA89C3D9DA588701CA708AB6414C194931EE3FC0D4515D71A4FBFE712F8CB4A26532A6E8DCF01CA61A3745BE3F3C09F6E6B442F0CD7BAD36A8D2F002E
310
AE359E3BE646F6B8926D6BBC0CD9926FBEF08C5220B9BAE91D0E14769FF44B52301E3C00E8FA74C117BD24F396E22C7F1005F2DA2902EB76053DE720B0D3EE397F2F036AE8B24A3DE750225C4DF8F8A544B81AF69C7F2482D6C4C77F067093EF36FE359541FF8E0E8A50399BA22F63681CEF0EBDEBB2C3834A9E09EF1E0654
310
1D79F708F0A7CBBB956F495E015C1CEFEE3EEC46B65FC996771F856C09285F58A7148C77872F6104D6DC9A8897D30896D457015D1FDE3DEA25B91CEFF2EBD6EB0A68F718A0D3A6DDD7CA805699768F27C2D584925E4F84AB9476A39B03E744D09CD6610FF59F44E89A78FA46BA70DDDE0ADC144A4DBCEBF1E0221D416DC23D
310
1D715254A766A8A7AC60C1FF26021ED7783E889CD89C52F24C1ACF0940D5B1F19C047E7A8DE714E0E21ACFD5436EE339AB64DB78E44B91C6730003ECCB897CE1D28548E3798246B0C6731AD0536D3CB3E90740046E0B5FD5161351555C247A084506FA9607AAEBD39C44F1E2B63A5BDCA18E17B755B2E2664A322602C34C3A
310
0393625B51C09BC60D77315EF1E1C8DB80730A9C37D5B8CD0EBF3EA3A6FB4EA2A7C18B1B2746D53A5F7BB70C687C78291FE10E3A386EE3054657F9CB297E9CF703B0E71DFC4DA3397B4068C3CF33A1A81F02C2C920DB8E7ABF712005813923946BAE06DE453454B45CC32AF6311810C751E3F85A979E7874424F9299B34AB2
310
210DC430A45A3473162283FB2F3218C7FE178FBB1CF59692CDAD957C0DECAC3739580882F7E26636C4FC0874E66F42CE013F2EB274A4C323CBB88082C5B980AE4CFD4DC879C0C5B1FFF5E7DDC89E57324556799F2F34BC006EC70CD18A8318C0D9FF0AB6807CDBB19F46B0A4BE07E8B4D9FF8207EA504E3D7E65FA3E4C7226
310
B329B0E8D703AAFEBAA304E869379E693123CD68457958A4FF2F11AE86ECFF4119D078F6E7138AD87FF2370F86D6E1E38789702D76FED2134932CCA824CB8C811832A3160D33426421BD980847AF6F0C11D33DEECB1CFE9B7175D1F926045DE5BD8DBFBDBE94081764D0049324E6DDB40A8607F372225C4D16463974B5B836
310
F393232E193EA2E499B49986C93A780A6DA631A981D7A6CD34012EAECDFCFC5937B23F52B26D33BF83CCDBCC56A5C0ECD07DE7A7A7226D661D8D6033A419D0536D33E07F56B8C4CA7C0D48229F9610695A461A0883CE7B494E8DD95B004DF38E8247AB09FE45AC1A52EDAC32A0861DD8DA85D8A76276989D08579353913989
310
700119397510D9BB4CAB9DF096393711B4263ECE4B176E7EBA700B3C389DB3F0B5335AA6A7234288EA142D784A9083AFB414616018456CF24C3293C4CD2F49D3E5A5F0410CEE7E0F2E6A6FEA11580893E29AEE529C2FC11C4DF48D4AA628982DB44A422820F8563073C8F989CF2240392BED74F7768B819FDEDE6E09E0E29A
310
EE72FA030B3CB273954C91D5916E87CC9BEEFB4FAB1E6B73B10CFB6CBEB73B4423589D2D05F4CC9AAE2E4C768646F0614DBB4BD40606DDEA2539B5A67B13A0D36EBACBCA809A9055A7E9E24B8E0D79912B896C91FE0C1655C17843E129FA335B3277F4E8510807513CB9CC44868E210AF7FE19028691B0917E39482B125CF8
310
D4FF01F0B312DAF64B0000
  0
TABLECONTENT
  5
549
330
54C
100
AcDbLinkedData
  1

300

100
AcDbLinkedTableData
 90
        5
300
COLUMN
  1
LINKEDTABLEDATACOLUMN_BEGIN
300

 91
        0
301
CUSTOMDATA
  1
DATAMAP_BEGIN
 90
        0
309
DATAMAP_END
309
LINKEDTABLEDATACOLUMN_END
  1
FORMATTEDTABLEDATACOLUMN_BEGIN
300
COLUMNTABLEFORMAT
  1
TABLEFORMAT_BEGIN
 90
        3
170
     0
309
TABLEFORMAT_END
309
FORMATTEDTABLEDATACOLUMN_END
  1
TABLECOLUMN_BEGIN
 90
        0
 40
10.0
309
TABLECOLUMN_END
300
COLUMN
  1
LINKEDTABLEDATACOLUMN_BEGIN
300

 91
        0
301
CUSTOMDATA
  1
DATAMAP_BEGIN
 90
        0
309
DATAMAP_END
309
LINKEDTABLEDATACOLUMN_END
  1
FORMATTEDTABLEDATACOLUMN_BEGIN
300
COLUMNTABLEFORMAT
  1
TABLEFORMAT_BEGIN
 90
        3
170
     0
309
TABLEFORMAT_END
309
FORMATTEDTABLEDATACOLUMN_END
  1
TABLECOLUMN_BEGIN
 90
        0
 40
10.0
309
TABLECOLUMN_END
300
COLUMN
  1
LINKEDTABLEDATACOLUMN_BEGIN
300

 91
        0
301
CUSTOMDATA
  1
DATAMAP_BEGIN
 90
        0
309
DATAMAP_END
309
LINKEDTABLEDATACOLUMN_END
  1
FORMATTEDTABLEDATACOLUMN_BEGIN
300
COLUMNTABLEFORMAT
  1
TABLEFORMAT_BEGIN
 90
        3
170
     0
309
TABLEFORMAT_END
309
FORMATTEDTABLEDATACOLUMN_END
  1
TABLECOLUMN_BEGIN
 90
        0
 40
10.0
309
TABLECOLUMN_END
300
COLUMN
  1
LINKEDTABLEDATACOLUMN_BEGIN
300

 91
        0
301
CUSTOMDATA
  1
DATAMAP_BEGIN
 90
        0
309
DATAMAP_END
309
LINKEDTABLEDATACOLUMN_END
  1
FORMATTEDTABLEDATACOLUMN_BEGIN
300
COLUMNTABLEFORMAT
  1
TABLEFORMAT_BEGIN
 90
        3
170
     0
309
TABLEFORMAT_END
309
FORMATTEDTABLEDATACOLUMN_END
  1
TABLECOLUMN_BEGIN
 90
        0
 40
40.0
309
TABLECOLUMN_END
300
COLUMN
  1
LINKEDTABLEDATACOLUMN_BEGIN
300

 91
        0
301
CUSTOMDATA
  1
DATAMAP_BEGIN
 90
        0
309
DATAMAP_END
309
LINKEDTABLEDATACOLUMN_END
  1
FORMATTEDTABLEDATACOLUMN_BEGIN
300
COLUMNTABLEFORMAT
  1
TABLEFORMAT_BEGIN
 90
        3
170
     0
309
TABLEFORMAT_END
309
FORMATTEDTABLEDATACOLUMN_END
  1
TABLECOLUMN_BEGIN
 90
        0
 40
20.0
309
TABLECOLUMN_END
 91
        5
301
ROW
  1
LINKEDTABLEDATAROW_BEGIN
 90
        5
300
CELL
  1
LINKEDTABLEDATACELL_BEGIN
 90
        0
300

 91
        0
301
CUSTOMDATA
  1
DATAMAP_BEGIN
 90
        1
300
ACAD_ROUNDTRIP_2008_CELL_CHECKSUM
301
DATAMAP_VALUE
 93
        2
 90
        2
140
32.0
 94
        0
300

302

304
ACVALUE_END
309
DATAMAP_END
 92
        0
 95
        1
302
CONTENT
  1
CELLCONTENT_BEGIN
 90
        1
300
VALUE
 93
        2
 90
        4
  1
 
 94
        0
300

302
 
304
ACVALUE_END
 91
        0
309
CELLCONTENT_END
  1
FORMATTEDCELLCONTENT_BEGIN
170
     1
300
CONTENTFORMAT
  1
CONTENTFORMAT_BEGIN
 90
      132
 91
        0
 92
      512
 93
        0
300

 40
0.0
140
1.0
 94
        1
 62
     0
340
0
144
3.5
309
CONTENTFORMAT_END
309
FORMATTEDCELLCONTENT_END
309
LINKEDTABLEDATACELL_END
  1
FORMATTEDTABLEDATACELL_BEGIN
300
CELLTABLEFORMAT
  1
TABLEFORMAT_BEGIN
 90
        1
170
     1
 91
        0
 92
        0
 62
   257
 93
        1
300
CONTENTFORMAT
  1
CONTENTFORMAT_BEGIN
 90
        0
 91
        0
 92
      512
 93
        0
300

 40
0.0
140
1.0
 94
        1
 62
     0
340
0
144
0.18
309
CONTENTFORMAT_END
171
     0
 94
        0
309
TABLEFORMAT_END
309
FORMATTEDTABLEDATACELL_END
  1
TABLECELL_BEGIN
 90
        0
 91
        0
309
TABLECELL_END
300
CELL
  1
LINKEDTABLEDATACELL_BEGIN
 90
        0
300

 91
        0
301
CUSTOMDATA
  1
DATAMAP_BEGIN
 90
        0
309
DATAMAP_END
 92
        0
 95
        0
309
LINKEDTABLEDATACELL_END
  1
FORMATTEDTABLEDATACELL_BEGIN
300
CELLTABLEFORMAT
  1
TABLEFORMAT_BEGIN
 90
        1
170
     1
 91
        0
 92
        0
 62
   257
 93
        1
300
CONTENTFORMAT
  1
CONTENTFORMAT_BEGIN
 90
        0
 91
        0
 92
      512
 93
        0
300

 40
0.0
140
1.0
 94
        1
 62
     0
340
0
144
0.18
309
CONTENTFORMAT_END
171
     0
 94
        0
309
TABLEFORMAT_END
309
FORMATTEDTABLEDATACELL_END
  1
TABLECELL_BEGIN
 90
        0
 91
        0
309
TABLECELL_END
300
CELL
  1
LINKEDTABLEDATACELL_BEGIN
 90
        0
300

 91
        0
301
CUSTOMDATA
  1
DATAMAP_BEGIN
 90
        0
309
DATAMAP_END
 92
        0
 95
        0
309
LINKEDTABLEDATACELL_END
  1
FORMATTEDTABLEDATACELL_BEGIN
300
CELLTABLEFORMAT
  1
TABLEFORMAT_BEGIN
 90
        1
170
     1
 91
        0
 92
        0
 62
   257
 93
        1
300
CONTENTFORMAT
  1
CONTENTFORMAT_BEGIN
 90
        0
 91
        0
 92
      512
 93
        0
300

 40
0.0
140
1.0
 94
        1
 62
     0
340
0
144
0.18
309
CONTENTFORMAT_END
171
     0
 94
        0
309
TABLEFORMAT_END
309
FORMATTEDTABLEDATACELL_END
  1
TABLECELL_BEGIN
 90
        0
 91
        0
309
TABLECELL_END
300
CELL
  1
LINKEDTABLEDATACELL_BEGIN
 90
        0
300

 91
        0
301
CUSTOMDATA
  1
DATAMAP_BEGIN
 90
        1
300
ACAD_ROUNDTRIP_2008_CELL_CHECKSUM
301
DATAMAP_VALUE
 93
        2
 90
        2
140
3444.0
 94
        0
300

302

304
ACVALUE_END
309
DATAMAP_END
 92
        0
 95
        1
302
CONTENT
  1
CELLCONTENT_BEGIN
 90
        1
300
VALUE
 93
        2
 90
        4
  1
A299_C_401
 94
        0
300

302
A299_C_401
304
ACVALUE_END
 91
        0
309
CELLCONTENT_END
  1
FORMATTEDCELLCONTENT_BEGIN
170
     1
300
CONTENTFORMAT
  1
CONTENTFORMAT_BEGIN
 90
      196
 91
        0
 92
      512
 93
        0
300

 40
0.0
140
1.0
 94
        1
 62
     0
340
211
144
3.0
309
CONTENTFORMAT_END
309
FORMATTEDCELLCONTENT_END
309
LINKEDTABLEDATACELL_END
  1
FORMATTEDTABLEDATACELL_BEGIN
300
CELLTABLEFORMAT
  1
TABLEFORMAT_BEGIN
 90
        1
170
     1
 91
       16
 92
        0
 62
   257
 93
        1
300
CONTENTFORMAT
  1
CONTENTFORMAT_BEGIN
 90
       16
 91
        0
 92
      512
 93
        0
300

 40
0.0
140
1.0
 94
        4
 62
     0
340
0
144
0.18
309
CONTENTFORMAT_END
171
     0
 94
        4
 95
        1
302
GRIDFORMAT
  1
GRIDFORMAT_BEGIN
 90
       26
 91
        1
 62
     0
 92
       -2
340
0
 93
        0
 40
0.045
309
GRIDFORMAT_END
 95
        4
302
GRIDFORMAT
  1
GRIDFORMAT_BEGIN
 90
       26
 91
        1
 62
     0
 92
       -2
340
0
 93
        0
 40
0.045
309
GRIDFORMAT_END
 95
        8
302
GRIDFORMAT
  1
GRIDFORMAT_BEGIN
 90
       26
 91
        1
 62
     0
 92
       -2
340
0
 93
        0
 40
0.045
309
GRIDFORMAT_END
 95
       32
302
GRIDFORMAT
  1
GRIDFORMAT_BEGIN
 90
       26
 91
        1
 62
     0
 92
       -2
340
0
 93
        0
 40
0.045
309
GRIDFORMAT_END
309
TABLEFORMAT_END
309
FORMATTEDTABLEDATACELL_END
  1
TABLECELL_BEGIN
 90
        0
 91
        0
309
TABLECELL_END
300
CELL
  1
LINKEDTABLEDATACELL_BEGIN
 90
        0
300

 91
        0
301
CUSTOMDATA
  1
DATAMAP_BEGIN
 90
        1
300
ACAD_ROUNDTRIP_2008_CELL_CHECKSUM
301
DATAMAP_VALUE
 93
        2
 90
        2
140
1398.0
 94
        0
300

302

304
ACVALUE_END
309
DATAMAP_END
 92
        0
 95
        1
302
CONTENT
  1
CELLCONTENT_BEGIN
 90
        1
300
VALUE
 93
        2
 90
        4
  1
Rev:00
 94
        0
300

302
Rev:00
304
ACVALUE_END
 91
        0
309
CELLCONTENT_END
  1
FORMATTEDCELLCONTENT_BEGIN
170
     1
300
CONTENTFORMAT
  1
CONTENTFORMAT_BEGIN
 90
      196
 91
        0
 92
      512
 93
        0
300

 40
0.0
140
1.0
 94
        1
 62
     0
340
211
144
3.5
309
CONTENTFORMAT_END
309
FORMATTEDCELLCONTENT_END
309
LINKEDTABLEDATACELL_END
  1
FORMATTEDTABLEDATACELL_BEGIN
300
CELLTABLEFORMAT
  1
TABLEFORMAT_BEGIN
 90
        1
170
     1
 91
       16
 92
        0
 62
   257
 93
        1
300
CONTENTFORMAT
  1
CONTENTFORMAT_BEGIN
 90
       16
 91
        0
 92
      512
 93
        0
300

 40
0.0
140
1.0
 94
        4
 62
     0
340
0
144
0.18
309
CONTENTFORMAT_END
171
     0
 94
        4
 95
        1
302
GRIDFORMAT
  1
GRIDFORMAT_BEGIN
 90
       26
 91
        1
 62
     0
 92
       -2
340
0
 93
        0
 40
0.045
309
GRIDFORMAT_END
 95
        4
302
GRIDFORMAT
  1
GRIDFORMAT_BEGIN
 90
       26
 91
        1
 62
     0
 92
       -2
340
0
 93
        0
 40
0.045
309
GRIDFORMAT_END
 95
        8
302
GRIDFORMAT
  1
GRIDFORMAT_BEGIN
 90
       26
 91
        1
 62
     0
 92
       -2
340
0
 93
        0
 40
0.045
309
GRIDFORMAT_END
 95
       32
302
GRIDFORMAT
  1
GRIDFORMAT_BEGIN
 90
       26
 91
        1
 62
     0
 92
       -2
340
0
 93
        0
 40
0.045
309
GRIDFORMAT_END
309
TABLEFORMAT_END
309
FORMATTEDTABLEDATACELL_END
  1
TABLECELL_BEGIN
 90
        0
 91
        0
309
TABLECELL_END
 91
        0
301
CUSTOMDATA
  1
DATAMAP_BEGIN
 90
        0
309
DATAMAP_END
309
LINKEDTABLEDATAROW_END
  1
FORMATTEDTABLEDATAROW_BEGIN
300
ROWTABLEFORMAT
  1
TABLEFORMAT_BEGIN
 90
        2
170
     0
309
TABLEFORMAT_END
309
FORMATTEDTABLEDATAROW_END
  1
TABLEROW_BEGIN
 90
        1
 40
6.0
309
TABLEROW_END
301
ROW
  1
LINKEDTABLEDATAROW_BEGIN
 90
        5
300
CELL
  1
LINKEDTABLEDATACELL_BEGIN
 90
        0
300

 91
        0
301
CUSTOMDATA
  1
DATAMAP_BEGIN
 90
        0
309
DATAMAP_END
 92
        0
 95
        0
309
LINKEDTABLEDATACELL_END
  1
FORMATTEDTABLEDATACELL_BEGIN
300
CELLTABLEFORMAT
  1
TABLEFORMAT_BEGIN
 90
        1
170
     1
 91
        0
 92
        0
 62
   257
 93
        1
300
CONTENTFORMAT
  1
CONTENTFORMAT_BEGIN
 90
        0
 91
        0
 92
      512
 93
        0
300

 40
0.0
140
1.0
 94
        1
 62
     0
340
0
144
0.18
309
CONTENTFORMAT_END
171
     0
 94
        0
309
TABLEFORMAT_END
309
FORMATTEDTABLEDATACELL_END
  1
TABLECELL_BEGIN
 90
        0
 91
        0
309
TABLECELL_END
300
CELL
  1
LINKEDTABLEDATACELL_BEGIN
 90
        0
300

 91
        0
301
CUSTOMDATA
  1
DATAMAP_BEGIN
 90
        0
309
DATAMAP_END
 92
        0
 95
        0
309
LINKEDTABLEDATACELL_END
  1
FORMATTEDTABLEDATACELL_BEGIN
300
CELLTABLEFORMAT
  1
TABLEFORMAT_BEGIN
 90
        1
170
     1
 91
        0
 92
        0
 62
   257
 93
        1
300
CONTENTFORMAT
  1
CONTENTFORMAT_BEGIN
 90
        0
 91
        0
 92
      512
 93
        0
300

 40
0.0
140
1.0
 94
        1
 62
     0
340
0
144
0.18
309
CONTENTFORMAT_END
171
     0
 94
        0
309
TABLEFORMAT_END
309
FORMATTEDTABLEDATACELL_END
  1
TABLECELL_BEGIN
 90
        0
 91
        0
309
TABLECELL_END
300
CELL
  1
LINKEDTABLEDATACELL_BEGIN
 90
        0
300

 91
        0
301
CUSTOMDATA
  1
DATAMAP_BEGIN
 90
        0
309
DATAMAP_END
 92
        0
 95
        0
309
LINKEDTABLEDATACELL_END
  1
FORMATTEDTABLEDATACELL_BEGIN
300
CELLTABLEFORMAT
  1
TABLEFORMAT_BEGIN
 90
        1
170
     1
 91
        0
 92
        0
 62
   257
 93
        1
300
CONTENTFORMAT
  1
CONTENTFORMAT_BEGIN
 90
        0
 91
        0
 92
      512
 93
        0
300

 40
0.0
140
1.0
 94
        1
 62
     0
340
0
144
0.18
309
CONTENTFORMAT_END
171
     0
 94
        0
309
TABLEFORMAT_END
309
FORMATTEDTABLEDATACELL_END
  1
TABLECELL_BEGIN
 90
        0
 91
        0
309
TABLECELL_END
300
CELL
  1
LINKEDTABLEDATACELL_BEGIN
 90
        0
300

 91
        0
301
CUSTOMDATA
  1
DATAMAP_BEGIN
 90
        1
300
ACAD_ROUNDTRIP_2008_CELL_CHECKSUM
301
DATAMAP_VALUE
 93
        2
 90
        2
140
3105.0
 94
        0
300

302

304
ACVALUE_END
309
DATAMAP_END
 92
        0
 95
        1
302
CONTENT
  1
CELLCONTENT_BEGIN
 90
        1
300
VALUE
 93
        2
 90
        4
  1
Scale:1:1
 94
        0
300

302
Scale:1:1
304
ACVALUE_END
 91
        0
309
CELLCONTENT_END
  1
FORMATTEDCELLCONTENT_BEGIN
170
     1
300
CONTENTFORMAT
  1
CONTENTFORMAT_BEGIN
 90
      196
 91
        0
 92
      512
 93
        0
300

 40
0.0
140
1.0
 94
        1
 62
     0
340
211
144
3.5
309
CONTENTFORMAT_END
309
FORMATTEDCELLCONTENT_END
309
LINKEDTABLEDATACELL_END
  1
FORMATTEDTABLEDATACELL_BEGIN
300
CELLTABLEFORMAT
  1
TABLEFORMAT_BEGIN
 90
        1
170
     1
 91
       16
 92
        0
 62
   257
 93
        1
300
CONTENTFORMAT
  1
CONTENTFORMAT_BEGIN
 90
       16
 91
        0
 92
      512
 93
        0
300

 40
0.0
140
1.0
 94
        1
 62
     0
340
0
144
0.18
309
CONTENTFORMAT_END
171
     0
 94
        4
 95
        1
302
GRIDFORMAT
  1
GRIDFORMAT_BEGIN
 90
       26
 91
        1
 62
     0
 92
       -2
340
0
 93
        0
 40
0.045
309
GRIDFORMAT_END
 95
        4
302
GRIDFORMAT
  1
GRIDFORMAT_BEGIN
 90
       26
 91
        1
 62
     0
 92
       -2
340
0
 93
        0
 40
0.045
309
GRIDFORMAT_END
 95
        8
302
GRIDFORMAT
  1
GRIDFORMAT_BEGIN
 90
       26
 91
        1
 62
     0
 92
       -2
340
0
 93
        0
 40
0.045
309
GRIDFORMAT_END
 95
       32
302
GRIDFORMAT
  1
GRIDFORMAT_BEGIN
 90
       26
 91
        1
 62
     0
 92
       -2
340
0
 93
        0
 40
0.045
309
GRIDFORMAT_END
309
TABLEFORMAT_END
309
FORMATTEDTABLEDATACELL_END
  1
TABLECELL_BEGIN
 90
        0
 91
        0
309
TABLECELL_END
300
CELL
  1
LINKEDTABLEDATACELL_BEGIN
 90
        0
300

 91
        0
301
CUSTOMDATA
  1
DATAMAP_BEGIN
 90
        1
300
ACAD_ROUNDTRIP_2008_CELL_CHECKSUM
301
DATAMAP_VALUE
 93
        2
 90
        2
140
165.0
 94
        0
300

302

304
ACVALUE_END
309
DATAMAP_END
 92
        0
 95
        1
302
CONTENT
  1
CELLCONTENT_BEGIN
 90
        1
300
VALUE
 93
        2
 90
        4
  1
A2
 94
        0
300

302
A2
304
ACVALUE_END
 91
        0
309
CELLCONTENT_END
  1
FORMATTEDCELLCONTENT_BEGIN
170
     1
300
CONTENTFORMAT
  1
CONTENTFORMAT_BEGIN
 90
      196
 91
        0
 92
      512
 93
        0
300

 40
0.0
140
1.0
 94
        1
 62
     0
340
211
144
3.5
309
CONTENTFORMAT_END
309
FORMATTEDCELLCONTENT_END
309
LINKEDTABLEDATACELL_END
  1
FORMATTEDTABLEDATACELL_BEGIN
300
CELLTABLEFORMAT
  1
TABLEFORMAT_BEGIN
 90
        1
170
     1
 91
       16
 92
        0
 62
   257
 93
        1
300
CONTENTFORMAT
  1
CONTENTFORMAT_BEGIN
 90
       16
 91
        0
 92
      512
 93
        0
300

 40
0.0
140
1.0
 94
        4
 62
     0
340
0
144
0.18
309
CONTENTFORMAT_END
171
     0
 94
        4
 95
        1
302
GRIDFORMAT
  1
GRIDFORMAT_BEGIN
 90
       26
 91
        1
 62
     0
 92
       -2
340
0
 93
        0
 40
0.045
309
GRIDFORMAT_END
 95
        4
302
GRIDFORMAT
  1
GRIDFORMAT_BEGIN
 90
       26
 91
        1
 62
     0
 92
       -2
340
0
 93
        0
 40
0.045
309
GRIDFORMAT_END
 95
        8
302
GRIDFORMAT
  1
GRIDFORMAT_BEGIN
 90
       26
 91
        1
 62
     0
 92
       -2
340
0
 93
        0
 40
0.045
309
GRIDFORMAT_END
 95
       32
302
GRIDFORMAT
  1
GRIDFORMAT_BEGIN
 90
       26
 91
        1
 62
     0
 92
       -2
340
0
 93
        0
 40
0.045
309
GRIDFORMAT_END
309
TABLEFORMAT_END
309
FORMATTEDTABLEDATACELL_END
  1
TABLECELL_BEGIN
 90
        0
 91
        0
309
TABLECELL_END
 91
        0
301
CUSTOMDATA
  1
DATAMAP_BEGIN
 90
        0
309
DATAMAP_END
309
LINKEDTABLEDATAROW_END
  1
FORMATTEDTABLEDATAROW_BEGIN
300
ROWTABLEFORMAT
  1
TABLEFORMAT_BEGIN
 90
        2
170
     0
309
TABLEFORMAT_END
309
FORMATTEDTABLEDATAROW_END
  1
TABLEROW_BEGIN
 90
        2
 40
6.0
309
TABLEROW_END
301
ROW
  1
LINKEDTABLEDATAROW_BEGIN
 90
        5
300
CELL
  1
LINKEDTABLEDATACELL_BEGIN
 90
        0
300

 91
        0
301
CUSTOMDATA
  1
DATAMAP_BEGIN
 90
        0
309
DATAMAP_END
 92
        0
 95
        0
309
LINKEDTABLEDATACELL_END
  1
FORMATTEDTABLEDATACELL_BEGIN
300
CELLTABLEFORMAT
  1
TABLEFORMAT_BEGIN
 90
        1
170
     1
 91
        0
 92
        0
 62
   257
 93
        1
300
CONTENTFORMAT
  1
CONTENTFORMAT_BEGIN
 90
        0
 91
        0
 92
      512
 93
        0
300

 40
0.0
140
1.0
 94
        1
 62
     0
340
0
144
0.18
309
CONTENTFORMAT_END
171
     0
 94
        0
309
TABLEFORMAT_END
309
FORMATTEDTABLEDATACELL_END
  1
TABLECELL_BEGIN
 90
        0
 91
        0
309
TABLECELL_END
300
CELL
  1
LINKEDTABLEDATACELL_BEGIN
 90
        0
300

 91
        0
301
CUSTOMDATA
  1
DATAMAP_BEGIN
 90
        0
309
DATAMAP_END
 92
        0
 95
        0
309
LINKEDTABLEDATACELL_END
  1
FORMATTEDTABLEDATACELL_BEGIN
300
CELLTABLEFORMAT
  1
TABLEFORMAT_BEGIN
 90
        1
170
     1
 91
        0
 92
        0
 62
   257
 93
        1
300
CONTENTFORMAT
  1
CONTENTFORMAT_BEGIN
 90
        0
 91
        0
 92
      512
 93
        0
300

 40
0.0
140
1.0
 94
        1
 62
     0
340
0
144
0.18
309
CONTENTFORMAT_END
171
     0
 94
        0
309
TABLEFORMAT_END
309
FORMATTEDTABLEDATACELL_END
  1
TABLECELL_BEGIN
 90
        0
 91
        0
309
TABLECELL_END
300
CELL
  1
LINKEDTABLEDATACELL_BEGIN
 90
        0
300

 91
        0
301
CUSTOMDATA
  1
DATAMAP_BEGIN
 90
        0
309
DATAMAP_END
 92
        0
 95
        0
309
LINKEDTABLEDATACELL_END
  1
FORMATTEDTABLEDATACELL_BEGIN
300
CELLTABLEFORMAT
  1
TABLEFORMAT_BEGIN
 90
        1
170
     1
 91
        0
 92
        0
 62
   257
 93
        1
300
CONTENTFORMAT
  1
CONTENTFORMAT_BEGIN
 90
        0
 91
        0
 92
      512
 93
        0
300

 40
0.0
140
1.0
 94
        1
 62
     0
340
0
144
0.18
309
CONTENTFORMAT_END
171
     0
 94
        0
309
TABLEFORMAT_END
309
FORMATTEDTABLEDATACELL_END
  1
TABLECELL_BEGIN
 90
        0
 91
        0
309
TABLECELL_END
300
CELL
  1
LINKEDTABLEDATACELL_BEGIN
 90
        0
300

 91
        0
301
CUSTOMDATA
  1
DATAMAP_BEGIN
 90
        1
300
ACAD_ROUNDTRIP_2008_CELL_CHECKSUM
301
DATAMAP_VALUE
 93
        2
 90
        2
140
14565.0
 94
        0
300

302

304
ACVALUE_END
309
DATAMAP_END
 92
        0
 95
        1
302
CONTENT
  1
CELLCONTENT_BEGIN
 90
        1
300
VALUE
 93
        2
 90
        4
  1
GINKO 3.5 SAGOMATORE
 94
        0
300

302
GINKO 3.5 SAGOMATORE
304
ACVALUE_END
 91
        0
309
CELLCONTENT_END
  1
FORMATTEDCELLCONTENT_BEGIN
170
     1
300
CONTENTFORMAT
  1
CONTENTFORMAT_BEGIN
 90
      196
 91
        0
 92
      512
 93
        0
300

 40
0.0
140
1.0
 94
        1
 62
     0
340
211
144
3.0
309
CONTENTFORMAT_END
309
FORMATTEDCELLCONTENT_END
309
LINKEDTABLEDATACELL_END
  1
FORMATTEDTABLEDATACELL_BEGIN
300
CELLTABLEFORMAT
  1
TABLEFORMAT_BEGIN
 90
        1
170
     1
 91
       16
 92
        0
 62
   257
 93
        1
300
CONTENTFORMAT
  1
CONTENTFORMAT_BEGIN
 90
       16
 91
        0
 92
      512
 93
        0
300

 40
0.0
140
1.0
 94
        4
 62
     0
340
0
144
0.18
309
CONTENTFORMAT_END
171
     0
 94
        4
 95
        1
302
GRIDFORMAT
  1
GRIDFORMAT_BEGIN
 90
       26
 91
        1
 62
     0
 92
       -2
340
0
 93
        0
 40
0.045
309
GRIDFORMAT_END
 95
        4
302
GRIDFORMAT
  1
GRIDFORMAT_BEGIN
 90
       26
 91
        1
 62
     0
 92
       -2
340
0
 93
        0
 40
0.045
309
GRIDFORMAT_END
 95
        8
302
GRIDFORMAT
  1
GRIDFORMAT_BEGIN
 90
       26
 91
        1
 62
     0
 92
       -2
340
0
 93
        0
 40
0.045
309
GRIDFORMAT_END
 95
       32
302
GRIDFORMAT
  1
GRIDFORMAT_BEGIN
 90
       26
 91
        1
 62
     0
 92
       -2
340
0
 93
        0
 40
0.045
309
GRIDFORMAT_END
309
TABLEFORMAT_END
309
FORMATTEDTABLEDATACELL_END
  1
TABLECELL_BEGIN
 90
        0
 91
        0
309
TABLECELL_END
300
CELL
  1
LINKEDTABLEDATACELL_BEGIN
 90
        0
300

 91
        0
301
CUSTOMDATA
  1
DATAMAP_BEGIN
 90
        0
309
DATAMAP_END
 92
        0
 95
        0
309
LINKEDTABLEDATACELL_END
  1
FORMATTEDTABLEDATACELL_BEGIN
300
CELLTABLEFORMAT
  1
TABLEFORMAT_BEGIN
 90
        1
170
     1
 91
        0
 92
        0
 62
   257
 93
        1
300
CONTENTFORMAT
  1
CONTENTFORMAT_BEGIN
 90
        0
 91
        0
 92
      512
 93
        0
300

 40
0.0
140
1.0
 94
        1
 62
     0
340
0
144
0.18
309
CONTENTFORMAT_END
171
     0
 94
        0
309
TABLEFORMAT_END
309
FORMATTEDTABLEDATACELL_END
  1
TABLECELL_BEGIN
 90
        0
 91
        0
309
TABLECELL_END
 91
        0
301
CUSTOMDATA
  1
DATAMAP_BEGIN
 90
        0
309
DATAMAP_END
309
LINKEDTABLEDATAROW_END
  1
FORMATTEDTABLEDATAROW_BEGIN
300
ROWTABLEFORMAT
  1
TABLEFORMAT_BEGIN
 90
        2
170
     0
309
TABLEFORMAT_END
309
FORMATTEDTABLEDATAROW_END
  1
TABLEROW_BEGIN
 90
        3
 40
10.0
309
TABLEROW_END
301
ROW
  1
LINKEDTABLEDATAROW_BEGIN
 90
        5
300
CELL
  1
LINKEDTABLEDATACELL_BEGIN
 90
        0
300

 91
        0
301
CUSTOMDATA
  1
DATAMAP_BEGIN
 90
        0
309
DATAMAP_END
 92
        0
 95
        0
309
LINKEDTABLEDATACELL_END
  1
FORMATTEDTABLEDATACELL_BEGIN
300
CELLTABLEFORMAT
  1
TABLEFORMAT_BEGIN
 90
        1
170
     1
 91
        0
 92
        0
 62
   257
 93
        1
300
CONTENTFORMAT
  1
CONTENTFORMAT_BEGIN
 90
        0
 91
        0
 92
      512
 93
        0
300

 40
0.0
140
1.0
 94
        1
 62
     0
340
0
144
0.18
309
CONTENTFORMAT_END
171
     0
 94
        0
309
TABLEFORMAT_END
309
FORMATTEDTABLEDATACELL_END
  1
TABLECELL_BEGIN
 90
        0
 91
        0
309
TABLECELL_END
300
CELL
  1
LINKEDTABLEDATACELL_BEGIN
 90
        0
300

 91
        0
301
CUSTOMDATA
  1
DATAMAP_BEGIN
 90
        0
309
DATAMAP_END
 92
        0
 95
        0
309
LINKEDTABLEDATACELL_END
  1
FORMATTEDTABLEDATACELL_BEGIN
300
CELLTABLEFORMAT
  1
TABLEFORMAT_BEGIN
 90
        1
170
     1
 91
        0
 92
        0
 62
   257
 93
        1
300
CONTENTFORMAT
  1
CONTENTFORMAT_BEGIN
 90
        0
 91
        0
 92
      512
 93
        0
300

 40
0.0
140
1.0
 94
        1
 62
     0
340
0
144
0.18
309
CONTENTFORMAT_END
171
     0
 94
        0
309
TABLEFORMAT_END
309
FORMATTEDTABLEDATACELL_END
  1
TABLECELL_BEGIN
 90
        0
 91
        0
309
TABLECELL_END
300
CELL
  1
LINKEDTABLEDATACELL_BEGIN
 90
        0
300

 91
        0
301
CUSTOMDATA
  1
DATAMAP_BEGIN
 90
        0
309
DATAMAP_END
 92
        0
 95
        0
309
LINKEDTABLEDATACELL_END
  1
FORMATTEDTABLEDATACELL_BEGIN
300
CELLTABLEFORMAT
  1
TABLEFORMAT_BEGIN
 90
        1
170
     1
 91
        0
 92
        0
 62
   257
 93
        1
300
CONTENTFORMAT
  1
CONTENTFORMAT_BEGIN
 90
        0
 91
        0
 92
      512
 93
        0
300

 40
0.0
140
1.0
 94
        1
 62
     0
340
0
144
0.18
309
CONTENTFORMAT_END
171
     0
 94
        0
309
TABLEFORMAT_END
309
FORMATTEDTABLEDATACELL_END
  1
TABLECELL_BEGIN
 90
        0
 91
        0
309
TABLECELL_END
300
CELL
  1
LINKEDTABLEDATACELL_BEGIN
 90
        0
300

 91
        0
301
CUSTOMDATA
  1
DATAMAP_BEGIN
 90
        1
300
ACAD_ROUNDTRIP_2008_CELL_CHECKSUM
301
DATAMAP_VALUE
 93
        2
 90
        2
140
4748.0
 94
        0
300

302

304
ACVALUE_END
309
DATAMAP_END
 92
        0
 95
        1
302
CONTENT
  1
CELLCONTENT_BEGIN
 90
        1
300
VALUE
 93
        2
 90
        4
  1
DATE:24.11.23
 94
        0
300

302
DATE:24.11.23
304
ACVALUE_END
 91
        0
309
CELLCONTENT_END
  1
FORMATTEDCELLCONTENT_BEGIN
170
     1
300
CONTENTFORMAT
  1
CONTENTFORMAT_BEGIN
 90
      196
 91
        0
 92
      512
 93
        0
300

 40
0.0
140
1.0
 94
        1
 62
     0
340
211
144
2.5
309
CONTENTFORMAT_END
309
FORMATTEDCELLCONTENT_END
309
LINKEDTABLEDATACELL_END
  1
FORMATTEDTABLEDATACELL_BEGIN
300
CELLTABLEFORMAT
  1
TABLEFORMAT_BEGIN
 90
        1
170
     1
 91
       16
 92
        0
 62
   257
 93
        1
300
CONTENTFORMAT
  1
CONTENTFORMAT_BEGIN
 90
       16
 91
        0
 92
      512
 93
        0
300

 40
0.0
140
1.0
 94
        4
 62
     0
340
0
144
0.18
309
CONTENTFORMAT_END
171
     0
 94
        4
 95
        1
302
GRIDFORMAT
  1
GRIDFORMAT_BEGIN
 90
       26
 91
        1
 62
     0
 92
       -2
340
0
 93
        0
 40
0.045
309
GRIDFORMAT_END
 95
        4
302
GRIDFORMAT
  1
GRIDFORMAT_BEGIN
 90
       26
 91
        1
 62
     0
 92
       -2
340
0
 93
        0
 40
0.045
309
GRIDFORMAT_END
 95
        8
302
GRIDFORMAT
  1
GRIDFORMAT_BEGIN
 90
       26
 91
        1
 62
     0
 92
       -2
340
0
 93
        0
 40
0.045
309
GRIDFORMAT_END
 95
       32
302
GRIDFORMAT
  1
GRIDFORMAT_BEGIN
 90
       26
 91
        1
 62
     0
 92
       -2
340
0
 93
        0
 40
0.045
309
GRIDFORMAT_END
309
TABLEFORMAT_END
309
FORMATTEDTABLEDATACELL_END
  1
TABLECELL_BEGIN
 90
        0
 91
        0
309
TABLECELL_END
300
CELL
  1
LINKEDTABLEDATACELL_BEGIN
 90
        0
300

 91
        0
301
CUSTOMDATA
  1
DATAMAP_BEGIN
 90
        0
309
DATAMAP_END
 92
        0
 95
        0
309
LINKEDTABLEDATACELL_END
  1
FORMATTEDTABLEDATACELL_BEGIN
300
CELLTABLEFORMAT
  1
TABLEFORMAT_BEGIN
 90
        1
170
     1
 91
        0
 92
        0
 62
   257
 93
        1
300
CONTENTFORMAT
  1
CONTENTFORMAT_BEGIN
 90
        0
 91
        0
 92
      512
 93
        0
300

 40
0.0
140
1.0
 94
        1
 62
     0
340
0
144
0.18
309
CONTENTFORMAT_END
171
     0
 94
        0
309
TABLEFORMAT_END
309
FORMATTEDTABLEDATACELL_END
  1
TABLECELL_BEGIN
 90
        0
 91
        0
309
TABLECELL_END
 91
        0
301
CUSTOMDATA
  1
DATAMAP_BEGIN
 90
        0
309
DATAMAP_END
309
LINKEDTABLEDATAROW_END
  1
FORMATTEDTABLEDATAROW_BEGIN
300
ROWTABLEFORMAT
  1
TABLEFORMAT_BEGIN
 90
        2
170
     0
309
TABLEFORMAT_END
309
FORMATTEDTABLEDATAROW_END
  1
TABLEROW_BEGIN
 90
        3
 40
5.0
309
TABLEROW_END
301
ROW
  1
LINKEDTABLEDATAROW_BEGIN
 90
        5
300
CELL
  1
LINKEDTABLEDATACELL_BEGIN
 90
        0
300

 91
        0
301
CUSTOMDATA
  1
DATAMAP_BEGIN
 90
        1
300
ACAD_ROUNDTRIP_2008_CELL_CHECKSUM
301
DATAMAP_VALUE
 93
        2
 90
        2
140
1361482.0
 94
        0
300

302

304
ACVALUE_END
309
DATAMAP_END
 92
        0
 95
        1
302
CONTENT
  1
CELLCONTENT_BEGIN
 90
        1
300
VALUE
 93
        2
 90
        4
  1
Any integral or partial reproductions are prohibited \Pwithout prior authorisation of L & L Luce & Light s.r.l., \Pin accordance with the law in force. \PAll rights reserved.
 94
        0
300

302
Any integral or partial reproductions are prohibited \Pwithout prior authorisation of L & L Luce & Light s.r.l., \Pin accordance with the law in force. \PAll rights reserved.
304
ACVALUE_END
 91
        0
309
CELLCONTENT_END
  1
FORMATTEDCELLCONTENT_BEGIN
170
     1
300
CONTENTFORMAT
  1
CONTENTFORMAT_BEGIN
 90
      196
 91
        0
 92
      512
 93
        0
300

 40
0.0
140
1.0
 94
        1
 62
     0
340
212
144
2.25
309
CONTENTFORMAT_END
309
FORMATTEDCELLCONTENT_END
309
LINKEDTABLEDATACELL_END
  1
FORMATTEDTABLEDATACELL_BEGIN
300
CELLTABLEFORMAT
  1
TABLEFORMAT_BEGIN
 90
        1
170
     1
 91
       16
 92
        0
 62
   257
 93
        1
300
CONTENTFORMAT
  1
CONTENTFORMAT_BEGIN
 90
       16
 91
        0
 92
      512
 93
        0
300

 40
0.0
140
1.0
 94
        4
 62
     0
340
0
144
0.18
309
CONTENTFORMAT_END
171
     0
 94
        4
 95
        1
302
GRIDFORMAT
  1
GRIDFORMAT_BEGIN
 90
       26
 91
        1
 62
     0
 92
       -2
340
0
 93
        0
 40
0.045
309
GRIDFORMAT_END
 95
        4
302
GRIDFORMAT
  1
GRIDFORMAT_BEGIN
 90
       26
 91
        1
 62
     0
 92
       -2
340
0
 93
        0
 40
0.045
309
GRIDFORMAT_END
 95
        8
302
GRIDFORMAT
  1
GRIDFORMAT_BEGIN
 90
       26
 91
        1
 62
     0
 92
       -2
340
0
 93
        0
 40
0.045
309
GRIDFORMAT_END
 95
       32
302
GRIDFORMAT
  1
GRIDFORMAT_BEGIN
 90
       26
 91
        1
 62
     0
 92
       -2
340
0
 93
        0
 40
0.045
309
GRIDFORMAT_END
309
TABLEFORMAT_END
309
FORMATTEDTABLEDATACELL_END
  1
TABLECELL_BEGIN
 90
        0
 91
        0
309
TABLECELL_END
300
CELL
  1
LINKEDTABLEDATACELL_BEGIN
 90
        0
300

 91
        0
301
CUSTOMDATA
  1
DATAMAP_BEGIN
 90
        0
309
DATAMAP_END
 92
        0
 95
        0
309
LINKEDTABLEDATACELL_END
  1
FORMATTEDTABLEDATACELL_BEGIN
300
CELLTABLEFORMAT
  1
TABLEFORMAT_BEGIN
 90
        1
170
     1
 91
        0
 92
        0
 62
   257
 93
        1
300
CONTENTFORMAT
  1
CONTENTFORMAT_BEGIN
 90
        0
 91
        0
 92
      512
 93
        0
300

 40
0.0
140
1.0
 94
        1
 62
     0
340
0
144
0.18
309
CONTENTFORMAT_END
171
     0
 94
        0
309
TABLEFORMAT_END
309
FORMATTEDTABLEDATACELL_END
  1
TABLECELL_BEGIN
 90
        0
 91
        0
309
TABLECELL_END
300
CELL
  1
LINKEDTABLEDATACELL_BEGIN
 90
        0
300

 91
        0
301
CUSTOMDATA
  1
DATAMAP_BEGIN
 90
        0
309
DATAMAP_END
 92
        0
 95
        0
309
LINKEDTABLEDATACELL_END
  1
FORMATTEDTABLEDATACELL_BEGIN
300
CELLTABLEFORMAT
  1
TABLEFORMAT_BEGIN
 90
        1
170
     1
 91
        0
 92
        0
 62
   257
 93
        1
300
CONTENTFORMAT
  1
CONTENTFORMAT_BEGIN
 90
        0
 91
        0
 92
      512
 93
        0
300

 40
0.0
140
1.0
 94
        1
 62
     0
340
0
144
0.18
309
CONTENTFORMAT_END
171
     0
 94
        0
309
TABLEFORMAT_END
309
FORMATTEDTABLEDATACELL_END
  1
TABLECELL_BEGIN
 90
        0
 91
        0
309
TABLECELL_END
300
CELL
  1
LINKEDTABLEDATACELL_BEGIN
 90
        0
300

 91
        0
301
CUSTOMDATA
  1
DATAMAP_BEGIN
 90
        0
309
DATAMAP_END
 92
        0
 95
        0
309
LINKEDTABLEDATACELL_END
  1
FORMATTEDTABLEDATACELL_BEGIN
300
CELLTABLEFORMAT
  1
TABLEFORMAT_BEGIN
 90
        1
170
     1
 91
        0
 92
        0
 62
   257
 93
        1
300
CONTENTFORMAT
  1
CONTENTFORMAT_BEGIN
 90
        0
 91
        0
 92
      512
 93
        0
300

 40
0.0
140
1.0
 94
        1
 62
     0
340
0
144
0.18
309
CONTENTFORMAT_END
171
     0
 94
        0
309
TABLEFORMAT_END
309
FORMATTEDTABLEDATACELL_END
  1
TABLECELL_BEGIN
 90
        0
 91
        0
309
TABLECELL_END
300
CELL
  1
LINKEDTABLEDATACELL_BEGIN
 90
        0
300

 91
        0
301
CUSTOMDATA
  1
DATAMAP_BEGIN
 90
        0
309
DATAMAP_END
 92
        0
 95
        0
309
LINKEDTABLEDATACELL_END
  1
FORMATTEDTABLEDATACELL_BEGIN
300
CELLTABLEFORMAT
  1
TABLEFORMAT_BEGIN
 90
        1
170
     1
 91
        0
 92
        0
 62
   257
 93
        1
300
CONTENTFORMAT
  1
CONTENTFORMAT_BEGIN
 90
        0
 91
        0
 92
      512
 93
        0
300

 40
0.0
140
1.0
 94
        1
 62
     0
340
0
144
0.18
309
CONTENTFORMAT_END
171
     0
 94
        0
309
TABLEFORMAT_END
309
FORMATTEDTABLEDATACELL_END
  1
TABLECELL_BEGIN
 90
        0
 91
        0
309
TABLECELL_END
 91
        0
301
CUSTOMDATA
  1
DATAMAP_BEGIN
 90
        0
309
DATAMAP_END
309
LINKEDTABLEDATAROW_END
  1
FORMATTEDTABLEDATAROW_BEGIN
300
ROWTABLEFORMAT
  1
TABLEFORMAT_BEGIN
 90
        2
170
     0
309
TABLEFORMAT_END
309
FORMATTEDTABLEDATAROW_END
  1
TABLEROW_BEGIN
 90
        3
 40
13.0
309
TABLEROW_END
100
AcDbFormattedTableData
300
TABLEFORMAT
  1
TABLEFORMAT_BEGIN
 90
        4
170
     1
 91
    15360
 92
        0
 62
   257
 93
        1
300
CONTENTFORMAT
  1
CONTENTFORMAT_BEGIN
 90
        0
 91
        0
 92
      512
 93
        0
300

 40
0.0
140
1.0
 94
        1
 62
     0
340
0
144
0.18
309
CONTENTFORMAT_END
171
     1
301
MARGIN
  1
CELLMARGIN_BEGIN
 40
0.06
 40
0.06
 40
0.06
 40
0.06
 40
0.06
 40
0.06
309
CELLMARGIN_END
 94
        0
309
TABLEFORMAT_END
 90
        4
 91
        0
 92
        0
 93
        3
 94
        2
 91
        2
 92
        3
 93
        2
 94
        4
 91
        3
 92
        3
 93
        3
 94
        4
 91
        4
 92
        0
 93
        4
 94
        4
100
AcDbTableContent
340
51D
  0
TABLEGEOMETRY
  5
54A
330
54C
100
AcDbTableGeometry
 90
        5
 91
        5
 92
       25
 93
        0
 40
0.0
 41
0.0
330
0
 94
        0
 93
        0
 40
0.0
 41
0.0
330
0
 94
        0
 93
        0
 40
0.0
 41
0.0
330
0
 94
        0
 93
        0
 40
0.0
 41
0.0
330
0
 94
        0
 93
        0
 40
0.0
 41
0.0
330
0
 94
        0
 93
        0
 40
0.0
 41
0.0
330
0
 94
        0
 93
        0
 40
0.0
 41
0.0
330
0
 94
        0
 93
        0
 40
0.0
 41
0.0
330
0
 94
        0
 93
        0
 40
0.0
 41
0.0
330
0
 94
        0
 93
        0
 40
0.0
 41
0.0
330
0
 94
        0
 93
        0
 40
0.0
 41
0.0
330
0
 94
        0
 93
        0
 40
0.0
 41
0.0
330
0
 94
        0
 93
        0
 40
0.0
 41
0.0
330
0
 94
        0
 93
        0
 40
0.0
 41
0.0
330
0
 94
        0
 93
        0
 40
0.0
 41
0.0
330
0
 94
        0
 93
        0
 40
0.0
 41
0.0
330
0
 94
        0
 93
        0
 40
0.0
 41
0.0
330
0
 94
        0
 93
        0
 40
0.0
 41
0.0
330
0
 94
        0
 93
        0
 40
0.0
 41
0.0
330
0
 94
        0
 93
        0
 40
0.0
 41
0.0
330
0
 94
        0
 93
        0
 40
0.0
 41
0.0
330
0
 94
        0
 93
        0
 40
0.0
 41
0.0
330
0
 94
        0
 93
        0
 40
0.0
 41
0.0
330
0
 94
        0
 93
        0
 40
0.0
 41
0.0
330
0
 94
        0
 93
        0
 40
0.0
 41
0.0
330
0
 94
        0
  0
DICTIONARY
  5
54F
330
51D
100
AcDbDictionary
280
     1
281
     1
  3
ACAD_ROUNDTRIP_2008_TABLESTYLE_CELLSTYLEMAP
360
550
  0
CELLSTYLEMAP
  5
550
102
{ACAD_REACTORS
330
54F
102
}
330
54F
100
AcDbCellStyleMap
 90
        3
300
CELLSTYLE
  1
TABLEFORMAT_BEGIN
 90
        5
170
     1
 91
        0
 92
        0
 62
   257
 93
        1
300
CONTENTFORMAT
  1
CONTENTFORMAT_BEGIN
 90
        0
 91
        0
 92
        4
 93
        0
300

 40
0.0
140
1.0
 94
        5
 62
     0
340
11
144
6.0
309
CONTENTFORMAT_END
171
     1
301
MARGIN
  1
CELLMARGIN_BEGIN
 40
1.5
 40
1.5
 40
1.5
 40
1.5
 40
1.5
 40
1.5
309
CELLMARGIN_END
 94
        6
 95
        1
302
GRIDFORMAT
  1
GRIDFORMAT_BEGIN
 90
        0
 91
        1
 62
     0
 92
       -2
340
14
 93
        0
 40
0.045
309
GRIDFORMAT_END
 95
        2
302
GRIDFORMAT
  1
GRIDFORMAT_BEGIN
 90
        0
 91
        1
 62
     0
 92
       -2
340
14
 93
        0
 40
0.045
309
GRIDFORMAT_END
 95
        4
302
GRIDFORMAT
  1
GRIDFORMAT_BEGIN
 90
        0
 91
        1
 62
     0
 92
       -2
340
14
 93
        0
 40
0.045
309
GRIDFORMAT_END
 95
        8
302
GRIDFORMAT
  1
GRIDFORMAT_BEGIN
 90
        0
 91
        1
 62
     0
 92
       -2
340
14
 93
        0
 40
0.045
309
GRIDFORMAT_END
 95
       16
302
GRIDFORMAT
  1
GRIDFORMAT_BEGIN
 90
        0
 91
        1
 62
     0
 92
       -2
340
14
 93
        0
 40
0.045
309
GRIDFORMAT_END
 95
       32
302
GRIDFORMAT
  1
GRIDFORMAT_BEGIN
 90
        0
 91
        1
 62
     0
 92
       -2
340
14
 93
        0
 40
0.045
309
GRIDFORMAT_END
309
TABLEFORMAT_END
  1
CELLSTYLE_BEGIN
 90
        1
 91
        1
300
_TITLE
309
CELLSTYLE_END
300
CELLSTYLE
  1
TABLEFORMAT_BEGIN
 90
        5
170
     1
 91
        0
 92
        0
 62
   257
 93
        1
300
CONTENTFORMAT
  1
CONTENTFORMAT_BEGIN
 90
        0
 91
        0
 92
        4
 93
        0
300

 40
0.0
140
1.0
 94
        5
 62
     0
340
11
144
4.5
309
CONTENTFORMAT_END
171
     1
301
MARGIN
  1
CELLMARGIN_BEGIN
 40
1.5
 40
1.5
 40
1.5
 40
1.5
 40
1.5
 40
1.5
309
CELLMARGIN_END
 94
        6
 95
        1
302
GRIDFORMAT
  1
GRIDFORMAT_BEGIN
 90
        0
 91
        1
 62
     0
 92
       -2
340
14
 93
        0
 40
0.045
309
GRIDFORMAT_END
 95
        2
302
GRIDFORMAT
  1
GRIDFORMAT_BEGIN
 90
        0
 91
        1
 62
     0
 92
       -2
340
14
 93
        0
 40
0.045
309
GRIDFORMAT_END
 95
        4
302
GRIDFORMAT
  1
GRIDFORMAT_BEGIN
 90
        0
 91
        1
 62
     0
 92
       -2
340
14
 93
        0
 40
0.045
309
GRIDFORMAT_END
 95
        8
302
GRIDFORMAT
  1
GRIDFORMAT_BEGIN
 90
        0
 91
        1
 62
     0
 92
       -2
340
14
 93
        0
 40
0.045
309
GRIDFORMAT_END
 95
       16
302
GRIDFORMAT
  1
GRIDFORMAT_BEGIN
 90
        0
 91
        1
 62
     0
 92
       -2
340
14
 93
        0
 40
0.045
309
GRIDFORMAT_END
 95
       32
302
GRIDFORMAT
  1
GRIDFORMAT_BEGIN
 90
        0
 91
        1
 62
     0
 92
       -2
340
14
 93
        0
 40
0.045
309
GRIDFORMAT_END
309
TABLEFORMAT_END
  1
CELLSTYLE_BEGIN
 90
        2
 91
        1
300
_HEADER
309
CELLSTYLE_END
300
CELLSTYLE
  1
TABLEFORMAT_BEGIN
 90
        5
170
     1
 91
        0
 92
        0
 62
   257
 93
        1
300
CONTENTFORMAT
  1
CONTENTFORMAT_BEGIN
 90
        0
 91
        0
 92
        4
 93
        0
300

 40
0.0
140
1.0
 94
        2
 62
     0
340
11
144
4.5
309
CONTENTFORMAT_END
171
     1
301
MARGIN
  1
CELLMARGIN_BEGIN
 40
1.5
 40
1.5
 40
1.5
 40
1.5
 40
1.5
 40
1.5
309
CELLMARGIN_END
 94
        6
 95
        1
302
GRIDFORMAT
  1
GRIDFORMAT_BEGIN
 90
        0
 91
        1
 62
     0
 92
       -2
340
14
 93
        0
 40
0.045
309
GRIDFORMAT_END
 95
        2
302
GRIDFORMAT
  1
GRIDFORMAT_BEGIN
 90
        0
 91
        1
 62
     0
 92
       -2
340
14
 93
        0
 40
0.045
309
GRIDFORMAT_END
 95
        4
302
GRIDFORMAT
  1
GRIDFORMAT_BEGIN
 90
        0
 91
        1
 62
     0
 92
       -2
340
14
 93
        0
 40
0.045
309
GRIDFORMAT_END
 95
        8
302
GRIDFORMAT
  1
GRIDFORMAT_BEGIN
 90
        0
 91
        1
 62
     0
 92
       -2
340
14
 93
        0
 40
0.045
309
GRIDFORMAT_END
 95
       16
302
GRIDFORMAT
  1
GRIDFORMAT_BEGIN
 90
        0
 91
        1
 62
     0
 92
       -2
340
14
 93
        0
 40
0.045
309
GRIDFORMAT_END
 95
       32
302
GRIDFORMAT
  1
GRIDFORMAT_BEGIN
 90
        0
 91
        1
 62
     0
 92
       -2
340
14
 93
        0
 40
0.045
309
GRIDFORMAT_END
309
TABLEFORMAT_END
  1
CELLSTYLE_BEGIN
 90
        3
 91
        2
300
_DATA
309
CELLSTYLE_END
  0
ENDSEC
  0
EOF
