999
DXF file: 593_c_001.dxf
999
Pro/ENGINEER 2011490 by Parametric Technology Corporation
  0
SECTION
  2
HEADER
  9
$ACADVER
  1
AC1021
  9
$DWGCODEPAGE
  3
ANSI_1252
  9
$EXTMAX
 10
420.0
 20
297.0
 30
0.0
  9
$EXTMIN
 10
0.0
 20
0.0
 30
0.0
  9
$LIMMIN
 10
0.0
 20
0.0
  9
$LIMMAX
 10
420.0
 20
297.0
  9
$VIEWCTR
 10
210.0
 20
148.5
  9
$VIEWSIZE
 40
297.0
  9
$CLAYER
  8
0
  9
$LTSCALE
 40
23.1
  9
$CELTYPE
  6
BYLAYER
  9
$DIMSCALE
 40
1.0
  9
$DIMASZ
 40
2.5
  9
$DIMEXO
 40
2.625
  9
$DIMDLI
 40
15.96
  9
$DIMEXE
 40
7.56
  9
$DIMCEN
 40
3.78
  9
$DIMLFAC
 40
1.0
  9
$DIMBLK
  1
_CLOSED
  9
$DIMTXT
 40
3.0
  9
$DIMTOL
 70
1
  9
$DIMLIM
 70
0
  9
$DIMTFAC
 40
1.0
  9
$DIMTP
 40
0.01
  9
$DIMTM
 40
0.01
  9
$PDMODE
 70
3
  9
$PDSIZE
 40
0.3125
  9
$HANDSEED
  5
41C
  9
$TILEMODE
 70
1
  9
$MEASUREMENT
 70
1
  9
$INSUNITS
 70
4
  0
ENDSEC
  0
SECTION
  2
CLASSES
  0
CLASS
  1
ACDBDICTIONARYWDFLT
  2
AcDbDictionaryWithDefault
  3
AutoCAD 2000
 90
0
 91
1
280
0
281
0
  0
CLASS
  1
ACDBPLACEHOLDER
  2
AcDbPlaceHolder
  3
AutoCAD 2000
 90
0
 91
1
280
0
281
0
  0
CLASS
  1
LAYOUT
  2
AcDbLayout
  3
AutoCAD 2000
 90
0
 91
0
280
0
281
0
  0
CLASS
  1
TABLESTYLE
  2
AcDbTableStyle
  3
ObjectDBX Classes
 90
2047
 91
1
280
0
281
0
  0
CLASS
  1
ACAD_TABLE
  2
AcDbTable
  3
ObjectDBX Classes
 90
1025
 91
1
280
0
281
1
  0
ENDSEC
  0
SECTION
  2
TABLES
  0
TABLE
  2
VPORT
  5
8
100
AcDbSymbolTable
 70
2
  0
VPORT
  5
1F4
100
AcDbSymbolTableRecord
100
AcDbViewportTableRecord
  2
*ACTIVE
 70
0
 10
0.0
 20
0.0
 11
1.0
 21
1.0
 12
210.0
 22
148.5
 13
0.0
 23
0.0
 14
1.0
 24
1.0
 15
0.0
 25
0.0
 16
0.0
 26
0.0
 36
1.0
 17
0.0
 27
0.0
 37
0.0
 40
297.0
 41
1.4141414141
 42
50.0
 43
0.0
 44
0.0
 50
0.0
 51
0.0
 71
0
 72
100
 73
1
 74
1
 75
0
 76
0
 77
0
 78
0
  0
ENDTAB
  0
TABLE
  2
LTYPE
  5
5
100
AcDbSymbolTable
 70
6
  0
LTYPE
  5
14
100
AcDbSymbolTableRecord
100
AcDbLinetypeTableRecord
  2
BYBLOCK
 70
0
  3

 72
65
 73
0
 40
0.0
  0
LTYPE
  5
15
100
AcDbSymbolTableRecord
100
AcDbLinetypeTableRecord
  2
BYLAYER
 70
0
  3

 72
65
 73
0
 40
0.0
  0
LTYPE
  5
16
100
AcDbSymbolTableRecord
100
AcDbLinetypeTableRecord
  2
CONTINUOUS
 70
64
  3
Solid line
 72
65
 73
0
 40
0.0
  0
LTYPE
  5
1F5
100
AcDbSymbolTableRecord
100
AcDbLinetypeTableRecord
  2
CENTER
 70
64
  3
____ _ ____ _ ____ _ ____ _ ____ _ ____ _ ____
 72
65
 73
4
 40
0.6
 49
0.375
 74
0
 49
-0.075
 74
0
 49
0.075
 74
0
 49
-0.075
 74
0
  0
LTYPE
  5
1F6
100
AcDbSymbolTableRecord
100
AcDbLinetypeTableRecord
  2
HIDDEN
 70
64
  3
- - - - - - - - - - - - - - - - - - - -
 72
65
 73
2
 40
0.2
 49
0.1
 74
0
 49
-0.1
 74
0
  0
LTYPE
  5
1F7
100
AcDbSymbolTableRecord
100
AcDbLinetypeTableRecord
  2
PHANTOM
 70
64
  3
_____ _ _ _____ _ _ _____ _ _ _____
 72
65
 73
6
 40
0.8
 49
0.45
 74
0
 49
-0.05
 74
0
 49
0.1
 74
0
 49
-0.05
 74
0
 49
0.1
 74
0
 49
-0.05
 74
0
  0
LTYPE
  5
1F8
100
AcDbSymbolTableRecord
100
AcDbLinetypeTableRecord
  2
DOT
 70
64
  3
. . . . . . . . . . . . . . . . . . . .
 72
65
 73
2
 40
0.2
 49
0.1
 74
0
 49
-0.1
 74
0
  0
LTYPE
  5
1F9
100
AcDbSymbolTableRecord
100
AcDbLinetypeTableRecord
  2
DASHED
 70
64
  3
- - - - - - - - - - - - - - - - - - - -
 72
65
 73
2
 40
0.2
 49
0.1
 74
0
 49
-0.1
 74
0
  0
ENDTAB
  0
TABLE
  2
LAYER
  5
2
100
AcDbSymbolTable
 70
36
  0
LAYER
  5
10
100
AcDbSymbolTableRecord
100
AcDbLayerTableRecord
  2
0
 70
0
 62
7
  6
CONTINUOUS
370
-3
390
F
  0
LAYER
  5
1FA
100
AcDbSymbolTableRecord
100
AcDbLayerTableRecord
  2
DEFAULT_1
 70
0
 62
7
  6
CENTER
370
-3
390
F
  0
LAYER
  5
1FB
100
AcDbSymbolTableRecord
100
AcDbLayerTableRecord
  2
DEFAULT_2
 70
0
 62
8
  6
HIDDEN
370
-3
390
F
  0
LAYER
  5
1FC
100
AcDbSymbolTableRecord
100
AcDbLayerTableRecord
  2
DEFAULT_3
 70
0
 62
7
  6
PHANTOM
370
-3
390
F
  0
LAYER
  5
1FD
100
AcDbSymbolTableRecord
100
AcDbLayerTableRecord
  2
01_ALL_DTM_PLN
 70
0
 62
7
  6
CONTINUOUS
370
-3
390
F
  0
LAYER
  5
1FE
100
AcDbSymbolTableRecord
100
AcDbLayerTableRecord
  2
01__ASM_ALL_DTM_PLN
 70
0
 62
7
  6
CONTINUOUS
370
-3
390
F
  0
LAYER
  5
1FF
100
AcDbSymbolTableRecord
100
AcDbLayerTableRecord
  2
01__ASM_DEF_DTM_PLN
 70
0
 62
7
  6
CONTINUOUS
370
-3
390
F
  0
LAYER
  5
200
100
AcDbSymbolTableRecord
100
AcDbLayerTableRecord
  2
01___PRT_ALL_DTM_PLN
 70
0
 62
7
  6
CONTINUOUS
370
-3
390
F
  0
LAYER
  5
201
100
AcDbSymbolTableRecord
100
AcDbLayerTableRecord
  2
01___PRT_DEF_DTM_PLN
 70
0
 62
7
  6
CONTINUOUS
370
-3
390
F
  0
LAYER
  5
202
100
AcDbSymbolTableRecord
100
AcDbLayerTableRecord
  2
02_ALL_AXES
 70
0
 62
7
  6
CONTINUOUS
370
-3
390
F
  0
LAYER
  5
203
100
AcDbSymbolTableRecord
100
AcDbLayerTableRecord
  2
02__ASM_ALL_AXES
 70
0
 62
7
  6
CONTINUOUS
370
-3
390
F
  0
LAYER
  5
204
100
AcDbSymbolTableRecord
100
AcDbLayerTableRecord
  2
02___PRT_ALL_AXES
 70
0
 62
7
  6
CONTINUOUS
370
-3
390
F
  0
LAYER
  5
205
100
AcDbSymbolTableRecord
100
AcDbLayerTableRecord
  2
03_ALL_CURVES
 70
0
 62
7
  6
CONTINUOUS
370
-3
390
F
  0
LAYER
  5
206
100
AcDbSymbolTableRecord
100
AcDbLayerTableRecord
  2
03__ASM_ALL_CURVES
 70
0
 62
7
  6
CONTINUOUS
370
-3
390
F
  0
LAYER
  5
207
100
AcDbSymbolTableRecord
100
AcDbLayerTableRecord
  2
03___PRT_ALL_CURVES
 70
0
 62
7
  6
CONTINUOUS
370
-3
390
F
  0
LAYER
  5
208
100
AcDbSymbolTableRecord
100
AcDbLayerTableRecord
  2
04_ALL_DTM_PNT
 70
0
 62
7
  6
CONTINUOUS
370
-3
390
F
  0
LAYER
  5
209
100
AcDbSymbolTableRecord
100
AcDbLayerTableRecord
  2
04__ASM_ALL_DTM_PNT
 70
0
 62
7
  6
CONTINUOUS
370
-3
390
F
  0
LAYER
  5
20A
100
AcDbSymbolTableRecord
100
AcDbLayerTableRecord
  2
04___PRT_ALL_DTM_PNT
 70
0
 62
7
  6
CONTINUOUS
370
-3
390
F
  0
LAYER
  5
20B
100
AcDbSymbolTableRecord
100
AcDbLayerTableRecord
  2
05_ALL_DTM_CSYS
 70
0
 62
7
  6
CONTINUOUS
370
-3
390
F
  0
LAYER
  5
20C
100
AcDbSymbolTableRecord
100
AcDbLayerTableRecord
  2
05__ASM_ALL_DTM_CSYS
 70
0
 62
7
  6
CONTINUOUS
370
-3
390
F
  0
LAYER
  5
20D
100
AcDbSymbolTableRecord
100
AcDbLayerTableRecord
  2
05__ASM_DEF_DTM_CSYS
 70
0
 62
7
  6
CONTINUOUS
370
-3
390
F
  0
LAYER
  5
20E
100
AcDbSymbolTableRecord
100
AcDbLayerTableRecord
  2
05___PRT_ALL_DTM_CSYS
 70
0
 62
7
  6
CONTINUOUS
370
-3
390
F
  0
LAYER
  5
20F
100
AcDbSymbolTableRecord
100
AcDbLayerTableRecord
  2
05___PRT_DEF_DTM_CSYS
 70
0
 62
7
  6
CONTINUOUS
370
-3
390
F
  0
LAYER
  5
210
100
AcDbSymbolTableRecord
100
AcDbLayerTableRecord
  2
06_ALL_SURFS
 70
0
 62
7
  6
CONTINUOUS
370
-3
390
F
  0
LAYER
  5
211
100
AcDbSymbolTableRecord
100
AcDbLayerTableRecord
  2
06__ASM_ALL_SURFS
 70
0
 62
7
  6
CONTINUOUS
370
-3
390
F
  0
LAYER
  5
212
100
AcDbSymbolTableRecord
100
AcDbLayerTableRecord
  2
06___PRT_ALL_SURFS
 70
0
 62
7
  6
CONTINUOUS
370
-3
390
F
  0
LAYER
  5
213
100
AcDbSymbolTableRecord
100
AcDbLayerTableRecord
  2
07__ASM_ALL_SKELETONS
 70
0
 62
7
  6
CONTINUOUS
370
-3
390
F
  0
LAYER
  5
214
100
AcDbSymbolTableRecord
100
AcDbLayerTableRecord
  2
1_ALL_PLANES
 70
0
 62
7
  6
CONTINUOUS
370
-3
390
F
  0
LAYER
  5
215
100
AcDbSymbolTableRecord
100
AcDbLayerTableRecord
  2
2_ALL_CSYS
 70
0
 62
7
  6
CONTINUOUS
370
-3
390
F
  0
LAYER
  5
216
100
AcDbSymbolTableRecord
100
AcDbLayerTableRecord
  2
3_ALL_AXES
 70
0
 62
7
  6
CONTINUOUS
370
-3
390
F
  0
LAYER
  5
217
100
AcDbSymbolTableRecord
100
AcDbLayerTableRecord
  2
5_ALL_CURVES
 70
0
 62
7
  6
CONTINUOUS
370
-3
390
F
  0
LAYER
  5
218
100
AcDbSymbolTableRecord
100
AcDbLayerTableRecord
  2
6_ALL_SURFS
 70
0
 62
7
  6
CONTINUOUS
370
-3
390
F
  0
LAYER
  5
219
100
AcDbSymbolTableRecord
100
AcDbLayerTableRecord
  2
7_ALL_FEATURES
 70
0
 62
7
  6
CONTINUOUS
370
-3
390
F
  0
LAYER
  5
21A
100
AcDbSymbolTableRecord
100
AcDbLayerTableRecord
  2
8_ALL_NOTES_BALLOONS_SYMBOLS_GT
 70
0
 62
7
  6
CONTINUOUS
370
-3
390
F
  0
LAYER
  5
21B
100
AcDbSymbolTableRecord
100
AcDbLayerTableRecord
  2
COLOR10
 70
0
 62
7
  6
CONTINUOUS
370
-3
390
F
  0
LAYER
  5
21C
100
AcDbSymbolTableRecord
100
AcDbLayerTableRecord
  2
LED_CREE_XP
 70
0
 62
7
  6
CONTINUOUS
370
-3
390
F
  0
LAYER
  5
21D
100
AcDbSymbolTableRecord
100
AcDbLayerTableRecord
  2
LED_CREE_XP_1
 70
0
 62
7
  6
CONTINUOUS
370
-3
390
F
  0
LAYER
  5
21E
100
AcDbSymbolTableRecord
100
AcDbLayerTableRecord
  2
LED_CREE_XP_2
 70
0
 62
7
  6
CONTINUOUS
370
-3
390
F
  0
LAYER
  5
21F
100
AcDbSymbolTableRecord
100
AcDbLayerTableRecord
  2
STAR_CREE_XP
 70
0
 62
7
  6
CONTINUOUS
370
-3
390
F
  0
LAYER
  5
220
100
AcDbSymbolTableRecord
100
AcDbLayerTableRecord
  2
XSEC_DATUMS
 70
0
 62
7
  6
CONTINUOUS
370
-3
390
F
  0
ENDTAB
  0
TABLE
  2
STYLE
  5
3
100
AcDbSymbolTable
 70
1
  0
STYLE
  5
11
100
AcDbSymbolTableRecord
100
AcDbTextStyleTableRecord
  2
STANDARD
 70
0
 40
0.0
 41
0.85
 50
0.0
 71
0
 42
0.2
  3
txt
  4

  0
STYLE
  5
221
100
AcDbSymbolTableRecord
100
AcDbTextStyleTableRecord
  2
TEXTSTYLE_1
 70
0
 40
0.0
 41
0.8
 50
0.0
 71
0
 42
0.2
  3
gdt
  4

  0
STYLE
  5
222
100
AcDbSymbolTableRecord
100
AcDbTextStyleTableRecord
  2
TEXTSTYLE_2
 70
0
 40
0.0
 41
0.9
 50
0.0
 71
0
 42
0.2
  3
txt
  4

  0
STYLE
  5
223
100
AcDbSymbolTableRecord
100
AcDbTextStyleTableRecord
  2
TEXTSTYLE_3
 70
0
 40
0.0
 41
0.9
 50
0.0
 71
0
 42
0.2
  3
txt
  4

  0
STYLE
  5
224
100
AcDbSymbolTableRecord
100
AcDbTextStyleTableRecord
  2
TEXTSTYLE_4
 70
0
 40
0.0
 41
0.85
 50
0.0
 71
0
 42
0.2
  3
txt
  4

  0
ENDTAB
  0
TABLE
  2
VIEW
  5
6
100
AcDbSymbolTable
 70
0
  0
ENDTAB
  0
TABLE
  2
UCS
  5
7
100
AcDbSymbolTable
 70
0
  0
ENDTAB
  0
TABLE
  2
APPID
  5
9
100
AcDbSymbolTable
 70
1
  0
APPID
  5
225
100
AcDbSymbolTableRecord
100
AcDbRegAppTableRecord
  2
ACAD
 70
0
  0
ENDTAB
  0
TABLE
  2
BLOCK_RECORD
  5
1
100
AcDbSymbolTable
 70
0
  0
BLOCK_RECORD
  5
226
100
AcDbSymbolTableRecord
100
AcDbBlockTableRecord
  2
*Model_Space
  0
BLOCK_RECORD
  5
227
100
AcDbSymbolTableRecord
100
AcDbBlockTableRecord
  2
*Paper_Space
  0
BLOCK_RECORD
  5
228
100
AcDbSymbolTableRecord
100
AcDbBlockTableRecord
  2
_CLOSED
  0
BLOCK_RECORD
  5
229
100
AcDbSymbolTableRecord
100
AcDbBlockTableRecord
  2
*D0
  0
BLOCK_RECORD
  5
22A
100
AcDbSymbolTableRecord
100
AcDbBlockTableRecord
  2
*D1
  0
BLOCK_RECORD
  5
22B
100
AcDbSymbolTableRecord
100
AcDbBlockTableRecord
  2
*D2
  0
BLOCK_RECORD
  5
22C
100
AcDbSymbolTableRecord
100
AcDbBlockTableRecord
  2
LOGO2_BL0
  0
BLOCK_RECORD
  5
22D
100
AcDbSymbolTableRecord
100
AcDbBlockTableRecord
  2
*T1
  0
ENDTAB
  0
TABLE
  2
DIMSTYLE
  5
A
100
AcDbSymbolTable
 70
1
100
AcDbDimStyleTable
 71
0
  0
DIMSTYLE
105
22E
100
AcDbSymbolTableRecord
100
AcDbDimStyleTableRecord
  2
STANDARD
 70
0
  3

  4

 40
1.0
 41
2.5
 42
0.0625
 43
0.38
 44
0.18
 45
0.0
 46
0.0
 47
0.01
 48
0.01
140
3.0
141
0.09
142
0.0
143
25.4
144
1.0
145
0.0
146
1.0
147
0.09
 71
1.0
 72
0.0
 73
0
 74
0
 75
0
 76
0
 77
1
 78
8
170
0
171
2
172
0
173
0
174
0
175
0
176
0
177
0
178
0
270
2
271
2
272
2
273
2
274
2
275
0
280
0
281
0
282
0
283
1
284
8
285
0
286
0
287
3
288
0
340
11
341
228
342
228
343
228
344
228
  0
DIMSTYLE
105
22F
100
AcDbSymbolTableRecord
100
AcDbDimStyleTableRecord
  2
DIMSTYLE_1
 70
0
  3

  4

 40
1.0
 41
2.5
 42
0.0625
 43
0.38
 44
0.18
 45
0.0
 46
0.0
 47
0.3
 48
0.3
140
3.0
141
0.09
142
0.0
143
25.4
144
1.0
145
0.0
146
1.0
147
0.09
 71
0.0
 72
0.0
 73
0
 74
0
 75
0
 76
0
 77
1
 78
8
170
0
171
2
172
0
173
0
174
0
175
0
176
0
177
0
178
0
270
2
271
2
272
2
273
2
274
2
275
0
280
0
281
0
282
0
283
1
284
8
285
0
286
0
287
3
288
0
340
11
341
228
342
228
343
228
344
228
  0
ENDTAB
  0
ENDSEC
  0
SECTION
  2
BLOCKS
  0
BLOCK
  5
20
100
AcDbEntity
  8
0
100
AcDbBlockBegin
  2
*Model_Space
 70
0
 10
0.0
 20
0.0
 30
0.0
  3
*Model_Space
  1

  0
ENDBLK
  5
21
100
AcDbEntity
  8
0
100
AcDbBlockEnd
  0
BLOCK
  5
1C
100
AcDbEntity
  8
0
100
AcDbBlockBegin
  2
*Paper_Space
 70
0
 10
0.0
 20
0.0
 30
0.0
  3
*Paper_Space
  1

  0
ENDBLK
  5
1D
100
AcDbEntity
  8
0
100
AcDbBlockEnd
  0
BLOCK
  5
230
100
AcDbEntity
  8
0
100
AcDbBlockBegin
 62
2
  6
CONTINUOUS
  2
LOGO2_BL0
 70
64
 10
333.1473869546
 20
37.5239270671
  3
LOGO2_BL0
  1

  0
LINE
  5
231
100
AcDbEntity
  8
0
100
AcDbLine
 62
7
  6
CONTINUOUS
 10
324.8903121828
 20
40.7194184059
 11
323.5859712535
 21
40.7194184059
  0
LINE
  5
232
100
AcDbEntity
  8
0
100
AcDbLine
 62
7
  6
CONTINUOUS
 10
323.5859712535
 20
40.7194184059
 11
323.5859712535
 21
30.260352346
  0
LINE
  5
233
100
AcDbEntity
  8
0
100
AcDbLine
 62
7
  6
CONTINUOUS
 10
323.5859712535
 20
30.260352346
 11
328.0670261417
 21
30.260352346
  0
LINE
  5
234
100
AcDbEntity
  8
0
100
AcDbLine
 62
7
  6
CONTINUOUS
 10
328.0670261417
 20
30.260352346
 11
328.0670261417
 21
31.4532066711
  0
LINE
  5
235
100
AcDbEntity
  8
0
100
AcDbLine
 62
7
  6
CONTINUOUS
 10
328.0670261417
 20
31.4532066711
 11
324.8903121828
 21
31.4532066711
  0
LINE
  5
236
100
AcDbEntity
  8
0
100
AcDbLine
 62
7
  6
CONTINUOUS
 10
324.8903121828
 20
31.4532066711
 11
324.8903121828
 21
40.7194184059
  0
LINE
  5
237
100
AcDbEntity
  8
0
100
AcDbLine
 62
7
  6
CONTINUOUS
 10
339.8266383991
 20
40.7194184059
 11
338.522820881
 21
40.7194184059
  0
LINE
  5
238
100
AcDbEntity
  8
0
100
AcDbLine
 62
7
  6
CONTINUOUS
 10
338.522820881
 20
40.7194184059
 11
338.522820881
 21
30.260352346
  0
LINE
  5
239
100
AcDbEntity
  8
0
100
AcDbLine
 62
7
  6
CONTINUOUS
 10
338.522820881
 20
30.260352346
 11
343.0040066221
 21
30.260352346
  0
LINE
  5
23A
100
AcDbEntity
  8
0
100
AcDbLine
 62
7
  6
CONTINUOUS
 10
343.0040066221
 20
30.260352346
 11
343.0040066221
 21
31.4532066711
  0
LINE
  5
23B
100
AcDbEntity
  8
0
100
AcDbLine
 62
7
  6
CONTINUOUS
 10
343.0040066221
 20
31.4532066711
 11
339.8266383991
 21
31.4532066711
  0
LINE
  5
23C
100
AcDbEntity
  8
0
100
AcDbLine
 62
7
  6
CONTINUOUS
 10
339.8266383991
 20
31.4532066711
 11
339.8266383991
 21
40.7194184059
  0
LWPOLYLINE
  5
23D
100
AcDbEntity
  8
0
100
AcDbPolyline
 62
7
  6
CONTINUOUS
 90
2
 70
0
 43
0.2
 10
321.9403661644
 20
26.9168010391
 10
321.9403661644
 20
25.0597377898
  0
LWPOLYLINE
  5
23E
100
AcDbEntity
  8
0
100
AcDbPolyline
 62
7
  6
CONTINUOUS
 90
2
 70
0
 43
0.2
 10
321.9403661644
 20
25.0597377898
 10
322.7360821748
 20
25.0597377898
  0
LWPOLYLINE
  5
23F
100
AcDbEntity
  8
0
100
AcDbPolyline
 62
7
  6
CONTINUOUS
 90
2
 70
0
 43
0.2
 10
322.7360821748
 20
25.0597377898
 10
322.7360821748
 20
25.2717193614
  0
LWPOLYLINE
  5
240
100
AcDbEntity
  8
0
100
AcDbPolyline
 62
7
  6
CONTINUOUS
 90
2
 70
0
 43
0.2
 10
322.7360821748
 20
25.2717193614
 10
322.1719756593
 20
25.2717193614
  0
LWPOLYLINE
  5
241
100
AcDbEntity
  8
0
100
AcDbPolyline
 62
7
  6
CONTINUOUS
 90
2
 70
0
 43
0.2
 10
322.1719756593
 20
25.2717193614
 10
322.1719756593
 20
26.9168010391
  0
LWPOLYLINE
  5
242
100
AcDbEntity
  8
0
100
AcDbPolyline
 62
7
  6
CONTINUOUS
 90
2
 70
0
 43
0.2
 10
322.1719756593
 20
26.9168010391
 10
321.9403661644
 20
26.9168010391
  0
SPLINE
  5
243
100
AcDbEntity
  8
0
100
AcDbSpline
 62
7
  6
CONTINUOUS
 70
2
 71
3
 72
35
 73
31
 74
0
 42
0.0000001
 43
0.0000001
 44
0.0000000001
 40
0.0
 40
0.0
 40
0.0
 40
0.0
 40
1.0
 40
1.0
 40
1.0
 40
2.0
 40
2.0
 40
2.0
 40
3.0
 40
3.0
 40
3.0
 40
4.0
 40
4.0
 40
4.0
 40
5.0
 40
5.0
 40
5.0
 40
6.0
 40
6.0
 40
6.0
 40
7.0
 40
7.0
 40
7.0
 40
8.0
 40
8.0
 40
8.0
 40
9.0
 40
9.0
 40
9.0
 40
10.0
 40
10.0
 40
10.0
 40
10.0
 10
324.1343754303
 20
26.2122894457
 30
0.0
 10
324.1343754303
 20
26.2122894457
 30
0.0
 10
324.1343754303
 20
25.5501741665
 30
0.0
 10
324.1343754303
 20
25.5501741665
 30
0.0
 10
324.1343754303
 20
25.2350805712
 30
0.0
 10
324.2822391191
 20
25.0204819432
 30
0.0
 10
324.6223256034
 20
25.0204819432
 30
0.0
 10
324.9618886764
 20
25.0204819432
 30
0.0
 10
325.1100140709
 20
25.2350805712
 30
0.0
 10
325.1100140709
 20
25.5501741665
 30
0.0
 10
325.1100140709
 20
25.5501741665
 30
0.0
 10
325.1100140709
 20
26.2122894457
 30
0.0
 10
325.1100140709
 20
26.2122894457
 30
0.0
 10
325.1100140709
 20
26.2122894457
 30
0.0
 10
324.887956832
 20
26.2122894457
 30
0.0
 10
324.887956832
 20
26.2122894457
 30
0.0
 10
324.887956832
 20
26.2122894457
 30
0.0
 10
324.887956832
 20
25.5752979083
 30
0.0
 10
324.887956832
 20
25.5752979083
 30
0.0
 10
324.887956832
 20
25.3894869011
 30
0.0
 10
324.8412423746
 20
25.2267059906
 30
0.0
 10
324.6223256034
 20
25.2267059906
 30
0.0
 10
324.402885421
 20
25.2267059906
 30
0.0
 10
324.3561709636
 20
25.3894869011
 30
0.0
 10
324.3561709636
 20
25.5752979083
 30
0.0
 10
324.3561709636
 20
25.5752979083
 30
0.0
 10
324.3561709636
 20
26.2122894457
 30
0.0
 10
324.3561709636
 20
26.2122894457
 30
0.0
 10
324.3561709636
 20
26.2122894457
 30
0.0
 10
324.1343754303
 20
26.2122894457
 30
0.0
 10
324.1343754303
 20
26.2122894457
 30
0.0
  0
SPLINE
  5
244
100
AcDbEntity
  8
0
100
AcDbSpline
 62
7
  6
CONTINUOUS
 70
2
 71
3
 72
35
 73
31
 74
0
 42
0.0000001
 43
0.0000001
 44
0.0000000001
 40
0.0
 40
0.0
 40
0.0
 40
0.0
 40
1.0
 40
1.0
 40
1.0
 40
2.0
 40
2.0
 40
2.0
 40
3.0
 40
3.0
 40
3.0
 40
4.0
 40
4.0
 40
4.0
 40
5.0
 40
5.0
 40
5.0
 40
6.0
 40
6.0
 40
6.0
 40
7.0
 40
7.0
 40
7.0
 40
8.0
 40
8.0
 40
8.0
 40
9.0
 40
9.0
 40
9.0
 40
10.0
 40
10.0
 40
10.0
 40
10.0
 10
327.5331466281
 20
26.1709399539
 30
0.0
 10
327.4446901205
 20
26.2222342601
 30
0.0
 10
327.3312407238
 20
26.2473580019
 30
0.0
 10
327.2276052888
 20
26.2473580019
 30
0.0
 10
326.8727324356
 20
26.2473580019
 30
0.0
 10
326.5972872454
 20
25.9835587129
 30
0.0
 10
326.5972872454
 20
25.6260688032
 30
0.0
 10
326.5972872454
 20
25.2811407645
 30
0.0
 10
326.8757420505
 20
25.0210053545
 30
0.0
 10
327.2153051235
 20
25.0210053545
 30
0.0
 10
327.3312407238
 20
25.0210053545
 30
0.0
 10
327.4319973967
 20
25.0429886286
 30
0.0
 10
327.5331466281
 20
25.0968999912
 30
0.0
 10
327.5331466281
 20
25.0968999912
 30
0.0
 10
327.5331466281
 20
25.3795420867
 30
0.0
 10
327.5331466281
 20
25.3795420867
 30
0.0
 10
327.4492699692
 20
25.2863748774
 30
0.0
 10
327.345765387
 20
25.2272294019
 30
0.0
 10
327.2176604743
 20
25.2272294019
 30
0.0
 10
326.9839573343
 20
25.2272294019
 30
0.0
 10
326.8186902202
 20
25.3994317156
 30
0.0
 10
326.8186902202
 20
25.6360136177
 30
0.0
 10
326.8186902202
 20
25.8479951893
 30
0.0
 10
326.9864435379
 20
26.040087132
 30
0.0
 10
327.2032666639
 20
26.040087132
 30
0.0
 10
327.3360822782
 20
26.040087132
 30
0.0
 10
327.4446901205
 20
25.9861757693
 30
0.0
 10
327.5331466281
 20
25.8851573907
 30
0.0
 10
327.5331466281
 20
25.8851573907
 30
0.0
 10
327.5331466281
 20
26.1709399539
 30
0.0
 10
327.5331466281
 20
26.1709399539
 30
0.0
  0
SPLINE
  5
245
100
AcDbEntity
  8
0
100
AcDbSpline
 62
7
  6
CONTINUOUS
 70
2
 71
3
 72
32
 73
28
 74
0
 42
0.0000001
 43
0.0000001
 44
0.0000000001
 40
0.0
 40
0.0
 40
0.0
 40
0.0
 40
1.0
 40
1.0
 40
1.0
 40
2.0
 40
2.0
 40
2.0
 40
3.0
 40
3.0
 40
3.0
 40
4.0
 40
4.0
 40
4.0
 40
5.0
 40
5.0
 40
5.0
 40
6.0
 40
6.0
 40
6.0
 40
7.0
 40
7.0
 40
7.0
 40
8.0
 40
8.0
 40
8.0
 40
9.0
 40
9.0
 40
9.0
 40
9.0
 10
330.0650178804
 20
25.5993748276
 30
0.0
 10
330.0650178804
 20
25.5993748276
 30
0.0
 10
330.0650178804
 20
25.6333965613
 30
0.0
 10
330.0650178804
 20
25.6333965613
 30
0.0
 10
330.0650178804
 20
25.9757075435
 30
0.0
 10
329.8921613025
 20
26.2473580019
 30
0.0
 10
329.5255116954
 20
26.2473580019
 30
0.0
 10
329.153889681
 20
26.2473580019
 30
0.0
 10
328.9641530891
 20
25.9809416564
 30
0.0
 10
328.9641530891
 20
25.6260688032
 30
0.0
 10
328.9641530891
 20
25.2863748774
 30
0.0
 10
329.1782283059
 20
25.0204819432
 30
0.0
 10
329.5303532498
 20
25.0204819432
 30
0.0
 10
329.754373281
 20
25.0204819432
 30
0.0
 10
329.9565408909
 20
25.1361558378
 30
0.0
 10
330.0650178804
 20
25.3355755385
 30
0.0
 10
330.0650178804
 20
25.3355755385
 30
0.0
 10
329.8773749337
 20
25.4423514412
 30
0.0
 10
329.8773749337
 20
25.4423514412
 30
0.0
 10
329.7938908332
 20
25.3036474499
 30
0.0
 10
329.7026864163
 20
25.2178079987
 30
0.0
 10
329.5331011591
 20
25.2178079987
 30
0.0
 10
329.3211195875
 20
25.2178079987
 30
0.0
 10
329.1881731204
 20
25.4025721833
 30
0.0
 10
329.1858177696
 20
25.5993748276
 30
0.0
 10
329.1858177696
 20
25.5993748276
 30
0.0
 10
330.0650178804
 20
25.5993748276
 30
0.0
 10
330.0650178804
 20
25.5993748276
 30
0.0
  0
SPLINE
  5
246
100
AcDbEntity
  8
0
100
AcDbSpline
 62
7
  6
CONTINUOUS
 70
2
 71
3
 72
14
 73
10
 74
0
 42
0.0000001
 43
0.0000001
 44
0.0000000001
 40
0.0
 40
0.0
 40
0.0
 40
0.0
 40
1.0
 40
1.0
 40
1.0
 40
2.0
 40
2.0
 40
2.0
 40
3.0
 40
3.0
 40
3.0
 40
3.0
 10
329.1978562292
 20
25.7668664397
 30
0.0
 10
329.2254661746
 20
25.9317409954
 30
0.0
 10
329.3533093817
 20
26.054742648
 30
0.0
 10
329.5255116954
 20
26.054742648
 30
0.0
 10
329.7026864163
 20
26.054742648
 30
0.0
 10
329.816135813
 20
25.9390687534
 30
0.0
 10
329.8433531999
 20
25.7668664397
 30
0.0
 10
329.8433531999
 20
25.7668664397
 30
0.0
 10
329.1978562292
 20
25.7668664397
 30
0.0
 10
329.1978562292
 20
25.7668664397
 30
0.0
  0
SPLINE
  5
247
100
AcDbEntity
  8
0
100
AcDbSpline
 62
7
  6
CONTINUOUS
 70
2
 71
3
 72
20
 73
16
 74
0
 42
0.0000001
 43
0.0000001
 44
0.0000000001
 40
0.0
 40
0.0
 40
0.0
 40
0.0
 40
1.0
 40
1.0
 40
1.0
 40
2.0
 40
2.0
 40
2.0
 40
3.0
 40
3.0
 40
3.0
 40
4.0
 40
4.0
 40
4.0
 40
5.0
 40
5.0
 40
5.0
 40
5.0
 10
332.0890493306
 20
25.9762309548
 30
0.0
 10
332.0890493306
 20
25.9762309548
 30
0.0
 10
332.5001888972
 20
25.4737561185
 30
0.0
 10
332.5001888972
 20
25.4737561185
 30
0.0
 10
332.3841224441
 20
25.3580822239
 30
0.0
 10
332.2463344226
 20
25.2277528132
 30
0.0
 10
332.0743938145
 20
25.2277528132
 30
0.0
 10
331.8969573879
 20
25.2277528132
 30
0.0
 10
331.7294657758
 20
25.3921039576
 30
0.0
 10
331.7294657758
 20
25.5690169729
 30
0.0
 10
331.7294657758
 20
25.7469768107
 30
0.0
 10
331.9392228494
 20
25.8731189311
 30
0.0
 10
332.0668043508
 20
25.9610520275
 30
0.0
 10
332.0668043508
 20
25.9610520275
 30
0.0
 10
332.0890493306
 20
25.9762309548
 30
0.0
 10
332.0890493306
 20
25.9762309548
 30
0.0
  0
SPLINE
  5
248
100
AcDbEntity
  8
0
100
AcDbSpline
 62
7
  6
CONTINUOUS
 70
2
 71
3
 72
23
 73
19
 74
0
 42
0.0000001
 43
0.0000001
 44
0.0000000001
 40
0.0
 40
0.0
 40
0.0
 40
0.0
 40
1.0
 40
1.0
 40
1.0
 40
2.0
 40
2.0
 40
2.0
 40
3.0
 40
3.0
 40
3.0
 40
4.0
 40
4.0
 40
4.0
 40
5.0
 40
5.0
 40
5.0
 40
6.0
 40
6.0
 40
6.0
 40
6.0
 10
332.1383808444
 20
26.2672476309
 30
0.0
 10
332.1383808444
 20
26.2672476309
 30
0.0
 10
332.0767491653
 20
26.3457593241
 30
0.0
 10
332.0767491653
 20
26.3457593241
 30
0.0
 10
332.0228378026
 20
26.4143262028
 30
0.0
 10
331.9660476779
 20
26.4834164928
 30
0.0
 10
331.9660476779
 20
26.5771071133
 30
0.0
 10
331.9660476779
 20
26.6959214757
 30
0.0
 10
332.0619627964
 20
26.7733863463
 30
0.0
 10
332.1729259894
 20
26.7733863463
 30
0.0
 10
332.2961893477
 20
26.7733863463
 30
0.0
 10
332.3894874098
 20
26.7022024111
 30
0.0
 10
332.3894874098
 20
26.5718730004
 30
0.0
 10
332.3894874098
 20
26.4368328882
 30
0.0
 10
332.2613824971
 20
26.3604148401
 30
0.0
 10
332.1678227294
 20
26.2866138485
 30
0.0
 10
332.1678227294
 20
26.2866138485
 30
0.0
 10
332.1383808444
 20
26.2672476309
 30
0.0
 10
332.1383808444
 20
26.2672476309
 30
0.0
  0
SPLINE
  5
249
100
AcDbEntity
  8
0
100
AcDbSpline
 62
7
  6
CONTINUOUS
 70
2
 71
3
 72
50
 73
46
 74
0
 42
0.0000001
 43
0.0000001
 44
0.0000000001
 40
0.0
 40
0.0
 40
0.0
 40
0.0
 40
1.0
 40
1.0
 40
1.0
 40
2.0
 40
2.0
 40
2.0
 40
3.0
 40
3.0
 40
3.0
 40
4.0
 40
4.0
 40
4.0
 40
5.0
 40
5.0
 40
5.0
 40
6.0
 40
6.0
 40
6.0
 40
7.0
 40
7.0
 40
7.0
 40
8.0
 40
8.0
 40
8.0
 40
9.0
 40
9.0
 40
9.0
 40
10.0
 40
10.0
 40
10.0
 40
11.0
 40
11.0
 40
11.0
 40
12.0
 40
12.0
 40
12.0
 40
13.0
 40
13.0
 40
13.0
 40
14.0
 40
14.0
 40
14.0
 40
15.0
 40
15.0
 40
15.0
 40
15.0
 10
332.8405370871
 20
25.0602612011
 30
0.0
 10
332.8405370871
 20
25.0602612011
 30
0.0
 10
333.1259270918
 20
25.0602612011
 30
0.0
 10
333.1259270918
 20
25.0602612011
 30
0.0
 10
333.1259270918
 20
25.0602612011
 30
0.0
 10
332.793560924
 20
25.471139062
 30
0.0
 10
332.793560924
 20
25.471139062
 30
0.0
 10
332.793560924
 20
25.471139062
 30
0.0
 10
333.0200671588
 20
25.7370319963
 30
0.0
 10
333.0200671588
 20
25.7370319963
 30
0.0
 10
333.0200671588
 20
25.7370319963
 30
0.0
 10
332.8718109116
 20
25.8898680923
 30
0.0
 10
332.8718109116
 20
25.8898680923
 30
0.0
 10
332.8718109116
 20
25.8898680923
 30
0.0
 10
332.6559037553
 20
25.6386306742
 30
0.0
 10
332.6559037553
 20
25.6386306742
 30
0.0
 10
332.6559037553
 20
25.6386306742
 30
0.0
 10
332.2688411079
 20
26.1065603655
 30
0.0
 10
332.2688411079
 20
26.1065603655
 30
0.0
 10
332.4242942604
 20
26.2206640263
 30
0.0
 10
332.6065722414
 20
26.3604148401
 30
0.0
 10
332.6065722414
 20
26.5697793553
 30
0.0
 10
332.6065722414
 20
26.8136890154
 30
0.0
 10
332.4045354843
 20
26.9571037083
 30
0.0
 10
332.1780292495
 20
26.9571037083
 30
0.0
 10
331.9338578837
 20
26.9571037083
 30
0.0
 10
331.7494862575
 20
26.8063612574
 30
0.0
 10
331.7494862575
 20
26.5498897263
 30
0.0
 10
331.7494862575
 20
26.3923429287
 30
0.0
 10
331.8481492853
 20
26.25468576
 30
0.0
 10
331.953485807
 20
26.1437225669
 30
0.0
 10
331.953485807
 20
26.1437225669
 30
0.0
 10
331.8379427652
 20
26.0599767609
 30
0.0
 10
331.8379427652
 20
26.0599767609
 30
0.0
 10
331.660244633
 20
25.9317409954
 30
0.0
 10
331.5129043554
 20
25.8040286411
 30
0.0
 10
331.5129043554
 20
25.5669233277
 30
0.0
 10
331.5129043554
 20
25.2465956195
 30
0.0
 10
331.7714695316
 20
25.0204819432
 30
0.0
 10
332.0818524253
 20
25.0204819432
 30
0.0
 10
332.3007691965
 20
25.0204819432
 30
0.0
 10
332.4979643992
 20
25.145577241
 30
0.0
 10
332.6382386243
 20
25.3114986192
 30
0.0
 10
332.6382386243
 20
25.3114986192
 30
0.0
 10
332.8405370871
 20
25.0602612011
 30
0.0
 10
332.8405370871
 20
25.0602612011
 30
0.0
  0
LWPOLYLINE
  5
24A
100
AcDbEntity
  8
0
100
AcDbPolyline
 62
7
  6
CONTINUOUS
 90
2
 70
0
 43
0.2
 10
334.7759811768
 20
26.9168010391
 10
334.5446333876
 20
26.9168010391
  0
LWPOLYLINE
  5
24B
100
AcDbEntity
  8
0
100
AcDbPolyline
 62
7
  6
CONTINUOUS
 90
2
 70
0
 43
0.2
 10
334.5446333876
 20
26.9168010391
 10
334.5446333876
 20
25.0597377898
  0
LWPOLYLINE
  5
24C
100
AcDbEntity
  8
0
100
AcDbPolyline
 62
7
  6
CONTINUOUS
 90
2
 70
0
 43
0.2
 10
334.5446333876
 20
25.0597377898
 10
335.3399568395
 20
25.0597377898
  0
LWPOLYLINE
  5
24D
100
AcDbEntity
  8
0
100
AcDbPolyline
 62
7
  6
CONTINUOUS
 90
2
 70
0
 43
0.2
 10
335.3399568395
 20
25.0597377898
 10
335.3399568395
 20
25.2717193614
  0
LWPOLYLINE
  5
24E
100
AcDbEntity
  8
0
100
AcDbPolyline
 62
7
  6
CONTINUOUS
 90
2
 70
0
 43
0.2
 10
335.3399568395
 20
25.2717193614
 10
334.7759811768
 20
25.2717193614
  0
LWPOLYLINE
  5
24F
100
AcDbEntity
  8
0
100
AcDbPolyline
 62
7
  6
CONTINUOUS
 90
2
 70
0
 43
0.2
 10
334.7759811768
 20
25.2717193614
 10
334.7759811768
 20
26.9168010391
  0
LWPOLYLINE
  5
250
100
AcDbEntity
  8
0
100
AcDbPolyline
 62
7
  6
CONTINUOUS
 90
2
 70
0
 43
0.2
 10
337.019060251
 20
26.2122894457
 10
336.7979189819
 20
26.2122894457
  0
LWPOLYLINE
  5
251
100
AcDbEntity
  8
0
100
AcDbPolyline
 62
7
  6
CONTINUOUS
 90
2
 70
0
 43
0.2
 10
336.7979189819
 20
26.2122894457
 10
336.7979189819
 20
25.0602612011
  0
LWPOLYLINE
  5
252
100
AcDbEntity
  8
0
100
AcDbPolyline
 62
7
  6
CONTINUOUS
 90
2
 70
0
 43
0.2
 10
336.7979189819
 20
25.0602612011
 10
337.019060251
 20
25.0602612011
  0
LWPOLYLINE
  5
253
100
AcDbEntity
  8
0
100
AcDbPolyline
 62
7
  6
CONTINUOUS
 90
2
 70
0
 43
0.2
 10
337.019060251
 20
25.0602612011
 10
337.019060251
 20
26.2122894457
  0
SPLINE
  5
254
100
AcDbEntity
  8
0
100
AcDbSpline
 62
7
  6
CONTINUOUS
 70
2
 71
3
 72
17
 73
13
 74
0
 42
0.0000001
 43
0.0000001
 44
0.0000000001
 40
0.0
 40
0.0
 40
0.0
 40
0.0
 40
1.0
 40
1.0
 40
1.0
 40
2.0
 40
2.0
 40
2.0
 40
3.0
 40
3.0
 40
3.0
 40
4.0
 40
4.0
 40
4.0
 40
4.0
 10
336.9086204693
 20
26.894817765
 30
0.0
 10
336.8246129576
 20
26.894817765
 30
0.0
 10
336.7560460788
 20
26.825727475
 30
0.0
 10
336.7560460788
 20
26.7398880238
 30
0.0
 10
336.7560460788
 20
26.6556188065
 30
0.0
 10
336.8246129576
 20
26.5896689842
 30
0.0
 10
336.9086204693
 20
26.5896689842
 30
0.0
 10
336.9923662753
 20
26.5896689842
 30
0.0
 10
337.0611948597
 20
26.6556188065
 30
0.0
 10
337.0611948597
 20
26.7398880238
 30
0.0
 10
337.0611948597
 20
26.825727475
 30
0.0
 10
336.9923662753
 20
26.894817765
 30
0.0
 10
336.9086204693
 20
26.894817765
 30
0.0
  0
SPLINE
  5
255
100
AcDbEntity
  8
0
100
AcDbSpline
 62
7
  6
CONTINUOUS
 70
2
 71
3
 72
17
 73
13
 74
0
 42
0.0000001
 43
0.0000001
 44
0.0000000001
 40
0.0
 40
0.0
 40
0.0
 40
0.0
 40
1.0
 40
1.0
 40
1.0
 40
2.0
 40
2.0
 40
2.0
 40
3.0
 40
3.0
 40
3.0
 40
4.0
 40
4.0
 40
4.0
 40
4.0
 10
339.1493441926
 20
25.2178079987
 30
0.0
 10
338.915379347
 20
25.2178079987
 30
0.0
 10
338.7850499363
 20
25.4198447558
 30
0.0
 10
338.7850499363
 20
25.6360136177
 30
0.0
 10
338.7850499363
 20
25.8506122457
 30
0.0
 10
338.9208751655
 20
26.0495085351
 30
0.0
 10
339.1493441926
 20
26.0495085351
 30
0.0
 10
339.3888048568
 20
26.0495085351
 30
0.0
 10
339.5243683804
 20
25.8605570602
 30
0.0
 10
339.5243683804
 20
25.6360136177
 30
0.0
 10
339.5243683804
 20
25.4098999414
 30
0.0
 10
339.3911602076
 20
25.2178079987
 30
0.0
 10
339.1493441926
 20
25.2178079987
 30
0.0
  0
SPLINE
  5
256
100
AcDbEntity
  8
0
100
AcDbSpline
 62
7
  6
CONTINUOUS
 70
2
 71
3
 72
50
 73
46
 74
0
 42
0.0000001
 43
0.0000001
 44
0.0000000001
 40
0.0
 40
0.0
 40
0.0
 40
0.0
 40
1.0
 40
1.0
 40
1.0
 40
2.0
 40
2.0
 40
2.0
 40
3.0
 40
3.0
 40
3.0
 40
4.0
 40
4.0
 40
4.0
 40
5.0
 40
5.0
 40
5.0
 40
6.0
 40
6.0
 40
6.0
 40
7.0
 40
7.0
 40
7.0
 40
8.0
 40
8.0
 40
8.0
 40
9.0
 40
9.0
 40
9.0
 40
10.0
 40
10.0
 40
10.0
 40
11.0
 40
11.0
 40
11.0
 40
12.0
 40
12.0
 40
12.0
 40
13.0
 40
13.0
 40
13.0
 40
14.0
 40
14.0
 40
14.0
 40
15.0
 40
15.0
 40
15.0
 40
15.0
 10
339.7334711899
 20
26.2128128569
 30
0.0
 10
339.7334711899
 20
26.2128128569
 30
0.0
 10
339.5118065095
 20
26.2128128569
 30
0.0
 10
339.5118065095
 20
26.2128128569
 30
0.0
 10
339.5118065095
 20
26.2128128569
 30
0.0
 10
339.5118065095
 20
26.0154868014
 30
0.0
 10
339.5118065095
 20
26.0154868014
 30
0.0
 10
339.5118065095
 20
26.0154868014
 30
0.0
 10
339.5070958079
 20
26.0154868014
 30
0.0
 10
339.5070958079
 20
26.0154868014
 30
0.0
 10
339.4157605382
 20
26.158378083
 30
0.0
 10
339.2778416638
 20
26.2468345907
 30
0.0
 10
339.1051159388
 20
26.2468345907
 30
0.0
 10
338.772749771
 20
26.2468345907
 30
0.0
 10
338.5636469615
 20
25.9589583823
 30
0.0
 10
338.5636469615
 20
25.6433413757
 30
0.0
 10
338.5636469615
 20
25.3135922644
 30
0.0
 10
338.7607113114
 20
25.0204819432
 30
0.0
 10
339.1155841646
 20
25.0204819432
 30
0.0
 10
339.2778416638
 20
25.0204819432
 30
0.0
 10
339.4178541833
 20
25.1089384508
 30
0.0
 10
339.5070958079
 20
25.2397912728
 30
0.0
 10
339.5070958079
 20
25.2397912728
 30
0.0
 10
339.5118065095
 20
25.2397912728
 30
0.0
 10
339.5118065095
 20
25.2397912728
 30
0.0
 10
339.5118065095
 20
25.2397912728
 30
0.0
 10
339.5118065095
 20
25.0204819432
 30
0.0
 10
339.5118065095
 20
25.0204819432
 30
0.0
 10
339.5118065095
 20
24.7839000411
 30
0.0
 10
339.4552780904
 20
24.5970422113
 30
0.0
 10
339.1820573981
 20
24.5970422113
 30
0.0
 10
338.9797589354
 20
24.5970422113
 30
0.0
 10
338.8371293594
 20
24.7153331624
 30
0.0
 10
338.8371293594
 20
24.9215572098
 30
0.0
 10
338.8371293594
 20
24.9215572098
 30
0.0
 10
338.615464679
 20
24.9215572098
 30
0.0
 10
338.615464679
 20
24.9215572098
 30
0.0
 10
338.6204370862
 20
24.5970422113
 30
0.0
 10
338.8515231698
 20
24.4002395671
 30
0.0
 10
339.171850878
 20
24.4002395671
 30
0.0
 10
339.6198909404
 20
24.4002395671
 30
0.0
 10
339.7334711899
 20
24.6854987189
 30
0.0
 10
339.7334711899
 20
25.0822444751
 30
0.0
 10
339.7334711899
 20
25.0822444751
 30
0.0
 10
339.7334711899
 20
26.2128128569
 30
0.0
 10
339.7334711899
 20
26.2128128569
 30
0.0
  0
SPLINE
  5
257
100
AcDbEntity
  8
0
100
AcDbSpline
 62
7
  6
CONTINUOUS
 70
2
 71
3
 72
44
 73
40
 74
0
 42
0.0000001
 43
0.0000001
 44
0.0000000001
 40
0.0
 40
0.0
 40
0.0
 40
0.0
 40
1.0
 40
1.0
 40
1.0
 40
2.0
 40
2.0
 40
2.0
 40
3.0
 40
3.0
 40
3.0
 40
4.0
 40
4.0
 40
4.0
 40
5.0
 40
5.0
 40
5.0
 40
6.0
 40
6.0
 40
6.0
 40
7.0
 40
7.0
 40
7.0
 40
8.0
 40
8.0
 40
8.0
 40
9.0
 40
9.0
 40
9.0
 40
10.0
 40
10.0
 40
10.0
 40
11.0
 40
11.0
 40
11.0
 40
12.0
 40
12.0
 40
12.0
 40
13.0
 40
13.0
 40
13.0
 40
13.0
 10
341.3023965253
 20
27.1978729007
 30
0.0
 10
341.3023965253
 20
27.1978729007
 30
0.0
 10
341.3023965253
 20
25.0597377898
 30
0.0
 10
341.3023965253
 20
25.0597377898
 30
0.0
 10
341.3023965253
 20
25.0597377898
 30
0.0
 10
341.5237995001
 20
25.0597377898
 30
0.0
 10
341.5237995001
 20
25.0597377898
 30
0.0
 10
341.5237995001
 20
25.0597377898
 30
0.0
 10
341.5237995001
 20
25.5894300131
 30
0.0
 10
341.5237995001
 20
25.5894300131
 30
0.0
 10
341.5237995001
 20
25.7993179395
 30
0.0
 10
341.5237995001
 20
26.0500319464
 30
0.0
 10
341.8090586519
 20
26.0500319464
 30
0.0
 10
342.0359574452
 20
26.0500319464
 30
0.0
 10
342.0629131266
 20
25.9170854793
 30
0.0
 10
342.0629131266
 20
25.7208062464
 30
0.0
 10
342.0629131266
 20
25.7208062464
 30
0.0
 10
342.0629131266
 20
25.0597377898
 30
0.0
 10
342.0629131266
 20
25.0597377898
 30
0.0
 10
342.0629131266
 20
25.0597377898
 30
0.0
 10
342.2848395126
 20
25.0597377898
 30
0.0
 10
342.2848395126
 20
25.0597377898
 30
0.0
 10
342.2848395126
 20
25.0597377898
 30
0.0
 10
342.2848395126
 20
25.7469768107
 30
0.0
 10
342.2848395126
 20
25.7469768107
 30
0.0
 10
342.2848395126
 20
26.027525261
 30
0.0
 10
342.2008320009
 20
26.2473580019
 30
0.0
 10
341.8757935911
 20
26.2473580019
 30
0.0
 10
341.7360427773
 20
26.2473580019
 30
0.0
 10
341.5978621973
 20
26.1808847684
 30
0.0
 10
341.5285102016
 20
26.0578831157
 30
0.0
 10
341.5285102016
 20
26.0578831157
 30
0.0
 10
341.5237995001
 20
26.0578831157
 30
0.0
 10
341.5237995001
 20
26.0578831157
 30
0.0
 10
341.5237995001
 20
26.0578831157
 30
0.0
 10
341.5237995001
 20
27.1978729007
 30
0.0
 10
341.5237995001
 20
27.1978729007
 30
0.0
 10
341.5237995001
 20
27.1978729007
 30
0.0
 10
341.3023965253
 20
27.1978729007
 30
0.0
 10
341.3023965253
 20
27.1978729007
 30
0.0
  0
LWPOLYLINE
  5
258
100
AcDbEntity
  8
0
100
AcDbPolyline
 62
7
  6
CONTINUOUS
 90
2
 70
0
 43
0.2
 10
344.1246301895
 20
26.005541987
 10
344.341060757
 20
26.005541987
  0
LWPOLYLINE
  5
259
100
AcDbEntity
  8
0
100
AcDbPolyline
 62
7
  6
CONTINUOUS
 90
2
 70
0
 43
0.2
 10
344.341060757
 20
26.005541987
 10
344.341060757
 20
26.2122894457
  0
LWPOLYLINE
  5
25A
100
AcDbEntity
  8
0
100
AcDbPolyline
 62
7
  6
CONTINUOUS
 90
2
 70
0
 43
0.2
 10
344.341060757
 20
26.2122894457
 10
344.1246301895
 20
26.2122894457
  0
LWPOLYLINE
  5
25B
100
AcDbEntity
  8
0
100
AcDbPolyline
 62
7
  6
CONTINUOUS
 90
2
 70
0
 43
0.2
 10
344.1246301895
 20
26.2122894457
 10
344.1246301895
 20
26.65300175
  0
LWPOLYLINE
  5
25C
100
AcDbEntity
  8
0
100
AcDbPolyline
 62
7
  6
CONTINUOUS
 90
2
 70
0
 43
0.2
 10
344.1246301895
 20
26.65300175
 10
343.9029655091
 20
26.65300175
  0
LWPOLYLINE
  5
25D
100
AcDbEntity
  8
0
100
AcDbPolyline
 62
7
  6
CONTINUOUS
 90
2
 70
0
 43
0.2
 10
343.9029655091
 20
26.65300175
 10
343.9029655091
 20
26.2122894457
  0
LWPOLYLINE
  5
25E
100
AcDbEntity
  8
0
100
AcDbPolyline
 62
7
  6
CONTINUOUS
 90
2
 70
0
 43
0.2
 10
343.9029655091
 20
26.2122894457
 10
343.7823192072
 20
26.2122894457
  0
LWPOLYLINE
  5
25F
100
AcDbEntity
  8
0
100
AcDbPolyline
 62
7
  6
CONTINUOUS
 90
2
 70
0
 43
0.2
 10
343.7823192072
 20
26.2122894457
 10
343.7823192072
 20
26.005541987
  0
LWPOLYLINE
  5
260
100
AcDbEntity
  8
0
100
AcDbPolyline
 62
7
  6
CONTINUOUS
 90
2
 70
0
 43
0.2
 10
343.7823192072
 20
26.005541987
 10
343.9029655091
 20
26.005541987
  0
LWPOLYLINE
  5
261
100
AcDbEntity
  8
0
100
AcDbPolyline
 62
7
  6
CONTINUOUS
 90
2
 70
0
 43
0.2
 10
343.9029655091
 20
26.005541987
 10
343.9029655091
 20
25.0597377898
  0
LWPOLYLINE
  5
262
100
AcDbEntity
  8
0
100
AcDbPolyline
 62
7
  6
CONTINUOUS
 90
2
 70
0
 43
0.2
 10
343.9029655091
 20
25.0597377898
 10
344.1246301895
 20
25.0597377898
  0
LWPOLYLINE
  5
263
100
AcDbEntity
  8
0
100
AcDbPolyline
 62
7
  6
CONTINUOUS
 90
2
 70
0
 43
0.2
 10
344.1246301895
 20
25.0597377898
 10
344.1246301895
 20
26.005541987
  0
SPLINE
  5
264
100
AcDbEntity
  8
0
100
AcDbSpline
 62
7
  6
CONTINUOUS
 70
2
 71
3
 72
20
 73
16
 74
0
 42
0.0000001
 43
0.0000001
 44
0.0000000001
 40
0.0
 40
0.0
 40
0.0
 40
0.0
 40
1.0
 40
1.0
 40
1.0
 40
2.0
 40
2.0
 40
2.0
 40
3.0
 40
3.0
 40
3.0
 40
4.0
 40
4.0
 40
4.0
 40
5.0
 40
5.0
 40
5.0
 40
5.0
 10
331.9066404967
 20
35.4206642332
 30
0.0
 10
331.9066404967
 20
35.4206642332
 30
0.0
 10
334.2229971512
 20
32.5911028109
 30
0.0
 10
334.2229971512
 20
32.5911028109
 30
0.0
 10
333.5713500978
 20
31.9389323462
 30
0.0
 10
332.7944768938
 20
31.2030160755
 30
0.0
 10
331.8232872491
 20
31.2030160755
 30
0.0
 10
330.8247493647
 20
31.2030160755
 30
0.0
 10
329.8814313711
 20
32.1325945228
 30
0.0
 10
329.8814313711
 20
33.1317866713
 30
0.0
 10
329.8814313711
 20
34.1309788198
 30
0.0
 10
331.0602844442
 20
34.8375840585
 30
0.0
 10
331.7818069046
 20
35.3374418384
 30
0.0
 10
331.7818069046
 20
35.3374418384
 30
0.0
 10
331.9066404967
 20
35.4206642332
 30
0.0
 10
331.9066404967
 20
35.4206642332
 30
0.0
  0
SPLINE
  5
265
100
AcDbEntity
  8
0
100
AcDbSpline
 62
7
  6
CONTINUOUS
 70
2
 71
3
 72
23
 73
19
 74
0
 42
0.0000001
 43
0.0000001
 44
0.0000000001
 40
0.0
 40
0.0
 40
0.0
 40
0.0
 40
1.0
 40
1.0
 40
1.0
 40
2.0
 40
2.0
 40
2.0
 40
3.0
 40
3.0
 40
3.0
 40
4.0
 40
4.0
 40
4.0
 40
5.0
 40
5.0
 40
5.0
 40
6.0
 40
6.0
 40
6.0
 40
6.0
 10
332.1840484793
 20
37.0584181529
 30
0.0
 10
332.1840484793
 20
37.0584181529
 30
0.0
 10
331.8375502067
 20
37.5017475137
 30
0.0
 10
331.8375502067
 20
37.5017475137
 30
0.0
 10
331.5317471618
 20
37.8898569837
 30
0.0
 10
331.2128588347
 20
38.2783590121
 30
0.0
 10
331.2128588347
 20
38.8053033262
 30
0.0
 10
331.2128588347
 20
39.4714750428
 30
0.0
 10
331.7541969591
 20
39.9151969621
 30
0.0
 10
332.3781032143
 20
39.9151969621
 30
0.0
 10
333.0718848763
 20
39.9151969621
 30
0.0
 10
333.5990908961
 20
39.5129553874
 30
0.0
 10
333.5990908961
 20
38.7779550864
 30
0.0
 10
333.5990908961
 20
38.0146905758
 30
0.0
 10
332.8778301414
 20
37.58457735
 30
0.0
 10
332.3507549745
 20
37.1688579346
 30
0.0
 10
332.3507549745
 20
37.1688579346
 30
0.0
 10
332.1840484793
 20
37.0584181529
 30
0.0
 10
332.1840484793
 20
37.0584181529
 30
0.0
  0
SPLINE
  5
266
100
AcDbEntity
  8
0
100
AcDbSpline
 62
7
  6
CONTINUOUS
 70
2
 71
3
 72
50
 73
46
 74
0
 42
0.0000001
 43
0.0000001
 44
0.0000000001
 40
0.0
 40
0.0
 40
0.0
 40
0.0
 40
1.0
 40
1.0
 40
1.0
 40
2.0
 40
2.0
 40
2.0
 40
3.0
 40
3.0
 40
3.0
 40
4.0
 40
4.0
 40
4.0
 40
5.0
 40
5.0
 40
5.0
 40
6.0
 40
6.0
 40
6.0
 40
7.0
 40
7.0
 40
7.0
 40
8.0
 40
8.0
 40
8.0
 40
9.0
 40
9.0
 40
9.0
 40
10.0
 40
10.0
 40
10.0
 40
11.0
 40
11.0
 40
11.0
 40
12.0
 40
12.0
 40
12.0
 40
13.0
 40
13.0
 40
13.0
 40
14.0
 40
14.0
 40
14.0
 40
15.0
 40
15.0
 40
15.0
 40
15.0
 10
336.1376356422
 20
30.2598289348
 30
0.0
 10
336.1376356422
 20
30.2598289348
 30
0.0
 10
337.7468636468
 20
30.2598289348
 30
0.0
 10
337.7468636468
 20
30.2598289348
 30
0.0
 10
337.7468636468
 20
30.2598289348
 30
0.0
 10
335.8738363531
 20
32.5769707062
 30
0.0
 10
335.8738363531
 20
32.5769707062
 30
0.0
 10
335.8738363531
 20
32.5769707062
 30
0.0
 10
337.1501747786
 20
34.0744504008
 30
0.0
 10
337.1501747786
 20
34.0744504008
 30
0.0
 10
337.1501747786
 20
34.0744504008
 30
0.0
 10
336.3179508309
 20
34.9354619693
 30
0.0
 10
336.3179508309
 20
34.9354619693
 30
0.0
 10
336.3179508309
 20
34.9354619693
 30
0.0
 10
335.0973557076
 20
33.5201578469
 30
0.0
 10
335.0973557076
 20
33.5201578469
 30
0.0
 10
335.0973557076
 20
33.5201578469
 30
0.0
 10
332.9194413388
 20
36.1555336813
 30
0.0
 10
332.9194413388
 20
36.1555336813
 30
0.0
 10
333.7930147782
 20
36.7935720412
 30
0.0
 10
334.8196860194
 20
37.58457735
 30
0.0
 10
334.8196860194
 20
38.7634304231
 30
0.0
 10
334.8196860194
 20
40.1371233482
 30
0.0
 10
333.6817898795
 20
40.9416064976
 30
0.0
 10
332.4064982766
 20
40.9416064976
 30
0.0
 10
331.0330670573
 20
40.9416064976
 30
0.0
 10
329.9921328585
 20
40.0953812979
 30
0.0
 10
329.9921328585
 20
38.6527289358
 30
0.0
 10
329.9921328585
 20
37.7651542444
 30
0.0
 10
330.547472235
 20
36.9882810403
 30
0.0
 10
331.1436376918
 20
36.3638513739
 30
0.0
 10
331.1436376918
 20
36.3638513739
 30
0.0
 10
330.4917289328
 20
35.8922578035
 30
0.0
 10
330.4917289328
 20
35.8922578035
 30
0.0
 10
329.4931910484
 20
35.1709970488
 30
0.0
 10
328.6603128365
 20
34.4497362942
 30
0.0
 10
328.6603128365
 20
33.1181779778
 30
0.0
 10
328.6603128365
 20
31.3145026798
 30
0.0
 10
330.1173590091
 20
30.0379025487
 30
0.0
 10
331.8648984465
 20
30.0379025487
 30
0.0
 10
333.0997565274
 20
30.0379025487
 30
0.0
 10
334.2091267521
 20
30.7460780212
 30
0.0
 10
335.000001208
 20
31.6746096459
 30
0.0
 10
335.000001208
 20
31.6746096459
 30
0.0
 10
336.1376356422
 20
30.2598289348
 30
0.0
 10
336.1376356422
 20
30.2598289348
 30
0.0
  0
LINE
  5
267
100
AcDbEntity
  8
0
100
AcDbLine
 62
7
  6
CONTINUOUS
 10
321.9404970172
 20
28.2337038394
 11
344.3544077449
 21
28.2337038394
  0
LINE
  5
268
100
AcDbEntity
  8
0
100
AcDbLine
 62
7
  6
CONTINUOUS
 10
344.3544077449
 20
28.2337038394
 11
344.3544077449
 21
50.6476145671
  0
LINE
  5
269
100
AcDbEntity
  8
0
100
AcDbLine
 62
7
  6
CONTINUOUS
 10
344.3544077449
 20
50.6476145671
 11
321.9404970172
 21
50.6476145671
  0
LINE
  5
26A
100
AcDbEntity
  8
0
100
AcDbLine
 62
7
  6
CONTINUOUS
 10
321.9404970172
 20
50.6476145671
 11
321.9404970172
 21
28.2337038394
  0
ENDBLK
  5
26B
100
AcDbEntity
  8
0
  6
BYBLOCK
 62
0
100
AcDbBlockEnd
  0
BLOCK
  5
26C
100
AcDbEntity
  8
0
100
AcDbBlockBegin
  2
_CLOSED
 70
64
 10
0.0
 20
0.0
  3
_CLOSED
  1

  0
LINE
  5
26D
100
AcDbEntity
  8
0
  6
BYBLOCK
 62
0
100
AcDbLine
 10
0.0
 20
0.0
 11
-1.0
 21
0.2
  0
LINE
  5
26E
100
AcDbEntity
  8
0
  6
BYBLOCK
 62
0
100
AcDbLine
 10
-1.0
 20
0.2
 11
-1.0
 21
-0.2
  0
LINE
  5
26F
100
AcDbEntity
  8
0
  6
BYBLOCK
 62
0
100
AcDbLine
 10
-1.0
 20
-0.2
 11
0.0
 21
0.0
  0
LINE
  5
270
100
AcDbEntity
  8
0
  6
BYBLOCK
 62
0
100
AcDbLine
 10
-1.0
 20
0.0
 11
0.0
 21
0.0
  0
ENDBLK
  5
271
100
AcDbEntity
  8
0
  6
BYBLOCK
 62
0
100
AcDbBlockEnd
  0
BLOCK
  5
272
100
AcDbEntity
  8
0
100
AcDbBlockBegin
 62
2
  6
CONTINUOUS
  2
*D0
 70
65
 10
0.0
 20
0.0
  3
*D0
  1

  0
LINE
  5
273
100
AcDbEntity
  8
0
100
AcDbLine
 62
2
  6
CONTINUOUS
 10
70.9770754938
 20
119.573419498
 11
70.9770754938
 21
133.3709550093
  0
LINE
  5
274
100
AcDbEntity
  8
0
100
AcDbLine
 62
2
  6
CONTINUOUS
 10
125.9770754938
 20
119.573419498
 11
125.9770754938
 21
133.3709550093
  0
LINE
  5
275
100
AcDbEntity
  8
0
100
AcDbLine
 62
2
  6
CONTINUOUS
 10
70.9770754938
 20
132.6209550093
 11
98.4770754938
 21
132.6209550093
  0
LINE
  5
276
100
AcDbEntity
  8
0
100
AcDbLine
 62
2
  6
CONTINUOUS
 10
125.9770754938
 20
132.6209550093
 11
98.4770754938
 21
132.6209550093
  0
INSERT
  5
277
100
AcDbEntity
  8
0
100
AcDbBlockReference
 62
2
  6
CONTINUOUS
  2
_CLOSED
 10
70.9770754938
 20
132.6209550093
 41
2.5
 42
2.5
 43
2.5
 50
180.0
  0
INSERT
  5
278
100
AcDbEntity
  8
0
100
AcDbBlockReference
 62
2
  6
CONTINUOUS
  2
_CLOSED
 10
125.9770754938
 20
132.6209550093
 41
2.5
 42
2.5
 43
2.5
  0
ENDBLK
  5
279
100
AcDbEntity
  8
0
  6
BYBLOCK
 62
0
100
AcDbBlockEnd
  0
BLOCK
  5
27A
100
AcDbEntity
  8
0
100
AcDbBlockBegin
 62
2
  6
CONTINUOUS
  2
*D1
 70
65
 10
0.0
 20
0.0
  3
*D1
  1

  0
LINE
  5
27B
100
AcDbEntity
  8
0
100
AcDbLine
 62
2
  6
CONTINUOUS
 10
126.7270754938
 20
118.823419498
 11
141.8144458774
 21
118.823419498
  0
LINE
  5
27C
100
AcDbEntity
  8
0
100
AcDbLine
 62
2
  6
CONTINUOUS
 10
126.7270754938
 20
63.823419498
 11
141.8144458774
 21
63.823419498
  0
LINE
  5
27D
100
AcDbEntity
  8
0
100
AcDbLine
 62
2
  6
CONTINUOUS
 10
141.0644458774
 20
118.823419498
 11
141.0644458774
 21
91.323419498
  0
LINE
  5
27E
100
AcDbEntity
  8
0
100
AcDbLine
 62
2
  6
CONTINUOUS
 10
141.0644458774
 20
63.823419498
 11
141.0644458774
 21
91.323419498
  0
INSERT
  5
27F
100
AcDbEntity
  8
0
100
AcDbBlockReference
 62
2
  6
CONTINUOUS
  2
_CLOSED
 10
141.0644458774
 20
118.823419498
 41
2.5
 42
2.5
 43
2.5
 50
90.0
  0
INSERT
  5
280
100
AcDbEntity
  8
0
100
AcDbBlockReference
 62
2
  6
CONTINUOUS
  2
_CLOSED
 10
141.0644458774
 20
63.823419498
 41
2.5
 42
2.5
 43
2.5
 50
270.0
  0
ENDBLK
  5
281
100
AcDbEntity
  8
0
  6
BYBLOCK
 62
0
100
AcDbBlockEnd
  0
BLOCK
  5
282
100
AcDbEntity
  8
0
100
AcDbBlockBegin
 62
2
  6
CONTINUOUS
  2
*D2
 70
65
 10
0.0
 20
0.0
  3
*D2
  1

  0
LINE
  5
283
100
AcDbEntity
  8
0
100
AcDbLine
 62
2
  6
CONTINUOUS
 10
235.791351062
 20
237.7154652095
 11
252.959332241
 21
237.7154652095
  0
LINE
  5
284
100
AcDbEntity
  8
0
100
AcDbLine
 62
2
  6
CONTINUOUS
 10
235.791351062
 20
182.7154652095
 11
252.959332241
 21
182.7154652095
  0
LINE
  5
285
100
AcDbEntity
  8
0
100
AcDbLine
 62
2
  6
CONTINUOUS
 10
252.209332241
 20
237.7154652095
 11
252.209332241
 21
210.2154652095
  0
LINE
  5
286
100
AcDbEntity
  8
0
100
AcDbLine
 62
2
  6
CONTINUOUS
 10
252.209332241
 20
182.7154652095
 11
252.209332241
 21
210.2154652095
  0
INSERT
  5
287
100
AcDbEntity
  8
0
100
AcDbBlockReference
 62
2
  6
CONTINUOUS
  2
_CLOSED
 10
252.209332241
 20
237.7154652095
 41
2.5
 42
2.5
 43
2.5
 50
90.0
  0
INSERT
  5
288
100
AcDbEntity
  8
0
100
AcDbBlockReference
 62
2
  6
CONTINUOUS
  2
_CLOSED
 10
252.209332241
 20
182.7154652095
 41
2.5
 42
2.5
 43
2.5
 50
270.0
  0
ENDBLK
  5
289
100
AcDbEntity
  8
0
  6
BYBLOCK
 62
0
100
AcDbBlockEnd
  0
BLOCK
  5
28A
100
AcDbEntity
  8
0
100
AcDbBlockBegin
  2
*T1
 70
1
 10
0.0
 20
0.0
  3
*T1
  1

  0
LINE
  5
28B
100
AcDbEntity
  8
0
100
AcDbLine
 62
2
  6
CONTINUOUS
 10
0.0
 20
0.0
 11
90.0
 21
0.0
  0
LINE
  5
28C
100
AcDbEntity
  8
0
100
AcDbLine
 62
2
  6
CONTINUOUS
 10
0.0
 20
0.0
 11
0.0
 21
-40.0
  0
LINE
  5
28D
100
AcDbEntity
  8
0
100
AcDbLine
 62
2
  6
CONTINUOUS
 10
30.0
 20
-6.0
 11
90.0
 21
-6.0
  0
LINE
  5
28E
100
AcDbEntity
  8
0
100
AcDbLine
 62
2
  6
CONTINUOUS
 10
30.0
 20
-12.0
 11
90.0
 21
-12.0
  0
LINE
  5
28F
100
AcDbEntity
  8
0
100
AcDbLine
 62
2
  6
CONTINUOUS
 10
30.0
 20
-22.0
 11
90.0
 21
-22.0
  0
LINE
  5
290
100
AcDbEntity
  8
0
100
AcDbLine
 62
2
  6
CONTINUOUS
 10
0.0
 20
-27.0
 11
90.0
 21
-27.0
  0
LINE
  5
291
100
AcDbEntity
  8
0
100
AcDbLine
 62
2
  6
CONTINUOUS
 10
0.0
 20
-40.0
 11
90.0
 21
-40.0
  0
LINE
  5
292
100
AcDbEntity
  8
0
100
AcDbLine
 62
2
  6
CONTINUOUS
 10
30.0
 20
0.0
 11
30.0
 21
-27.0
  0
LINE
  5
293
100
AcDbEntity
  8
0
100
AcDbLine
 62
2
  6
CONTINUOUS
 10
70.0
 20
0.0
 11
70.0
 21
-12.0
  0
LINE
  5
294
100
AcDbEntity
  8
0
100
AcDbLine
 62
2
  6
CONTINUOUS
 10
90.0
 20
0.0
 11
90.0
 21
-40.0
  0
ENDBLK
  5
295
100
AcDbEntity
  8
0
100
AcDbBlockEnd
  0
ENDSEC
  0
SECTION
  2
ENTITIES
  0
DIMENSION
  5
296
100
AcDbEntity
  8
0
100
AcDbDimension
 62
2
  6
CONTINUOUS
  2
*D0
 10
125.9770754938
 20
132.6209550093
 11
96.334218351
 21
133.3709550093
 70
160
 71
2
 42
55.0
  3
DIMSTYLE_1
100
AcDbAlignedDimension
 13
70.9770754938
 23
119.573419498
 14
125.9770754938
 24
119.573419498
100
AcDbRotatedDimension
  0
DIMENSION
  5
297
100
AcDbEntity
  8
0
100
AcDbDimension
 62
2
  6
CONTINUOUS
  2
*D1
 10
141.0644458774
 20
63.823419498
 11
140.3144458774
 21
89.1805623551
 70
160
 71
2
 42
55.0
  3
DIMSTYLE_1
100
AcDbAlignedDimension
 13
126.7270754938
 23
118.823419498
 14
126.7270754938
 24
63.823419498
 50
270.0
100
AcDbRotatedDimension
  0
DIMENSION
  5
298
100
AcDbEntity
  8
0
100
AcDbDimension
 62
2
  6
CONTINUOUS
  2
*D2
 10
252.209332241
 20
182.7154652095
 11
251.459332241
 21
208.0726080666
 70
160
 71
2
 42
55.0
  3
DIMSTYLE_1
100
AcDbAlignedDimension
 13
235.791351062
 23
237.7154652095
 14
235.791351062
 24
182.7154652095
 50
270.0
100
AcDbRotatedDimension
  0
INSERT
  5
299
100
AcDbEntity
  8
0
100
AcDbBlockReference
 62
2
  6
CONTINUOUS
  2
LOGO2_BL0
 10
333.1473869546
 20
37.5239270671
  0
LWPOLYLINE
  5
29A
100
AcDbEntity
  8
0
100
AcDbPolyline
 62
2
  6
CONTINUOUS
 90
8
 70
0
 10
350.8088452148
 20
46.5239282227
 10
351.665994873
 20
46.5239282227
 10
352.0945568848
 20
46.9524966431
 10
352.0945568848
 20
47.8096398926
 10
351.665994873
 20
48.2382147217
 10
350.8088452148
 20
48.2382147217
 10
350.8088452148
 20
49.5239263916
 10
352.0945568848
 20
49.5239263916
  0
LWPOLYLINE
  5
29B
100
AcDbEntity
  8
0
100
AcDbPolyline
 62
2
  6
CONTINUOUS
 90
10
 70
0
 10
353.3802685547
 20
46.5239282227
 10
354.2374182129
 20
47.3810714722
 10
354.4516992187
 20
48.2382147217
 10
354.4516992187
 20
49.0953579712
 10
354.023137207
 20
49.5239263916
 10
353.3802685547
 20
49.5239263916
 10
352.951706543
 20
49.0953579712
 10
352.951706543
 20
48.2382147217
 10
353.3802685547
 20
47.8096398926
 10
354.3088366699
 20
47.8096398926
  0
LWPOLYLINE
  5
29C
100
AcDbEntity
  8
0
100
AcDbPolyline
 62
2
  6
CONTINUOUS
 90
6
 70
0
 10
355.308848877
 20
46.5239282227
 10
356.380279541
 20
46.5239282227
 10
356.5945605469
 20
46.7382156372
 10
356.5945605469
 20
47.8096398926
 10
356.1659729004
 20
48.2382147217
 10
355.7374108887
 20
48.2382147217
  0
LWPOLYLINE
  5
29D
100
AcDbEntity
  8
0
100
AcDbPolyline
 62
2
  6
CONTINUOUS
 90
5
 70
0
 10
356.1659729004
 20
48.2382147217
 10
356.5231164551
 20
48.4524957275
 10
356.5231164551
 20
49.0953579712
 10
356.1659729004
 20
49.5239263916
 10
355.308848877
 20
49.5239263916
  0
LINE
  5
29E
100
AcDbEntity
  8
0
100
AcDbLine
 62
2
  6
CONTINUOUS
 10
357.4516845703
 20
46.5239282227
 11
359.1659838867
 21
46.5239282227
  0
LWPOLYLINE
  5
29F
100
AcDbEntity
  8
0
100
AcDbPolyline
 62
2
  6
CONTINUOUS
 90
6
 70
0
 10
361.094564209
 20
46.5239282227
 10
360.2374145508
 20
46.5239282227
 10
359.8088525391
 20
46.9524966431
 10
359.8088525391
 20
49.0953579712
 10
360.2374145508
 20
49.5239263916
 10
361.094564209
 20
49.5239263916
  0
LINE
  5
2A0
100
AcDbEntity
  8
0
100
AcDbLine
 62
2
  6
CONTINUOUS
 10
362.3088317871
 20
46.5239282227
 11
364.0231311035
 21
46.5239282227
  0
LWPOLYLINE
  5
2A1
100
AcDbEntity
  8
0
100
AcDbPolyline
 62
2
  6
CONTINUOUS
 90
13
 70
0
 10
364.6659741211
 20
47.3810714722
 10
364.6659741211
 20
48.6667831421
 10
364.8802807617
 20
49.0953579712
 10
365.3088427734
 20
49.5239263916
 10
365.5231237793
 20
49.5239263916
 10
365.951685791
 20
49.0953579712
 10
366.1659924316
 20
48.6667831421
 10
366.1659924316
 20
47.3810714722
 10
365.951685791
 20
46.9524966431
 10
365.5231237793
 20
46.5239282227
 10
365.3088427734
 20
46.5239282227
 10
364.8802807617
 20
46.9524966431
 10
364.6659741211
 20
47.3810714722
  0
LWPOLYLINE
  5
2A2
100
AcDbEntity
  8
0
100
AcDbPolyline
 62
2
  6
CONTINUOUS
 90
13
 70
0
 10
367.0231164551
 20
47.3810714722
 10
367.0231164551
 20
48.6667831421
 10
367.2374230957
 20
49.0953579712
 10
367.6659851074
 20
49.5239263916
 10
367.8802661133
 20
49.5239263916
 10
368.308828125
 20
49.0953579712
 10
368.5231347656
 20
48.6667831421
 10
368.5231347656
 20
47.3810714722
 10
368.308828125
 20
46.9524966431
 10
367.8802661133
 20
46.5239282227
 10
367.6659851074
 20
46.5239282227
 10
367.2374230957
 20
46.9524966431
 10
367.0231164551
 20
47.3810714722
  0
LWPOLYLINE
  5
2A3
100
AcDbEntity
  8
0
100
AcDbPolyline
 62
2
  6
CONTINUOUS
 90
3
 70
0
 10
369.3802587891
 20
48.6667831421
 10
370.2374084473
 20
49.5239263916
 10
370.2374084473
 20
46.5239282227
  0
LWPOLYLINE
  5
2A4
100
AcDbEntity
  8
0
100
AcDbPolyline
 62
2
  6
CONTINUOUS
 90
9
 70
0
 10
391.5525878906
 20
45.7739254761
 10
391.5525878906
 20
49.2739297485
 10
392.4822839355
 20
49.2739297485
 10
392.8541418457
 20
48.9822573853
 10
393.0400964355
 20
48.6905914307
 10
393.0400964355
 20
48.1072595215
 10
392.8541418457
 20
47.8155935669
 10
392.4822839355
 20
47.5239276123
 10
391.5525878906
 20
47.5239276123
  0
LINE
  5
2A5
100
AcDbEntity
  8
0
100
AcDbLine
 62
2
  6
CONTINUOUS
 10
392.4822839355
 20
47.5239276123
 11
393.0400964355
 21
45.7739254761
  0
LWPOLYLINE
  5
2A6
100
AcDbEntity
  8
0
100
AcDbPolyline
 62
2
  6
CONTINUOUS
 90
11
 70
0
 10
395.8291589355
 20
46.3572573853
 10
395.6432043457
 20
46.0655914307
 10
395.2713464355
 20
45.7739254761
 10
394.8994628906
 20
46.0655914307
 10
394.5275793457
 20
46.6489297485
 10
394.5275793457
 20
47.2322616577
 10
394.8994628906
 20
47.8155935669
 10
395.2713464355
 20
48.1072595215
 10
395.6432043457
 20
47.8155935669
 10
395.8291589355
 20
47.2322616577
 10
394.5275793457
 20
47.2322616577
  0
LWPOLYLINE
  5
2A7
100
AcDbEntity
  8
0
100
AcDbPolyline
 62
2
  6
CONTINUOUS
 90
3
 70
0
 10
397.6885253906
 20
48.1072595215
 10
398.2463378906
 20
45.7739254761
 10
398.8041503906
 20
48.1072595215
  0
LWPOLYLINE
  5
2A8
100
AcDbEntity
  8
0
100
AcDbPolyline
 62
2
  6
CONTINUOUS
 90
4
 70
0
 10
401.2213293457
 20
45.7739254761
 10
401.0354003906
 20
45.7739254761
 10
401.0354003906
 20
46.0655914307
 10
401.2213293457
 20
45.7739254761
  0
LWPOLYLINE
  5
2A9
100
AcDbEntity
  8
0
100
AcDbPolyline
 62
2
  6
CONTINUOUS
 90
4
 70
0
 10
401.2213293457
 20
48.1072595215
 10
401.2213293457
 20
47.8155935669
 10
401.0354003906
 20
48.1072595215
 10
401.2213293457
 20
48.1072595215
  0
LWPOLYLINE
  5
2AA
100
AcDbEntity
  8
0
100
AcDbPolyline
 62
2
  6
CONTINUOUS
 90
15
 70
0
 10
404.1963464355
 20
45.7739254761
 10
403.8244628906
 20
46.0655914307
 10
403.6385339355
 20
46.3572573853
 10
403.4525793457
 20
46.9405957031
 10
403.4525793457
 20
48.1072595215
 10
403.6385339355
 20
48.6905914307
 10
403.8244628906
 20
48.9822573853
 10
404.1963464355
 20
49.2739297485
 10
404.5682043457
 20
48.9822573853
 10
404.7541589355
 20
48.6905914307
 10
404.9400878906
 20
48.1072595215
 10
404.9400878906
 20
46.9405957031
 10
404.7541589355
 20
46.3572573853
 10
404.5682043457
 20
46.0655914307
 10
404.1963464355
 20
45.7739254761
  0
LWPOLYLINE
  5
2AB
100
AcDbEntity
  8
0
100
AcDbPolyline
 62
2
  6
CONTINUOUS
 90
15
 70
0
 10
407.1713378906
 20
45.7739254761
 10
406.7994543457
 20
46.0655914307
 10
406.6135253906
 20
46.3572573853
 10
406.4275964355
 20
46.9405957031
 10
406.4275964355
 20
48.1072595215
 10
406.6135253906
 20
48.6905914307
 10
406.7994543457
 20
48.9822573853
 10
407.1713378906
 20
49.2739297485
 10
407.5432214355
 20
48.9822573853
 10
407.7291503906
 20
48.6905914307
 10
407.9150793457
 20
48.1072595215
 10
407.9150793457
 20
46.9405957031
 10
407.7291503906
 20
46.3572573853
 10
407.5432214355
 20
46.0655914307
 10
407.1713378906
 20
45.7739254761
  0
LWPOLYLINE
  5
2AC
100
AcDbEntity
  8
0
100
AcDbPolyline
 62
2
  6
CONTINUOUS
 90
10
 70
0
 10
350.8088452148
 20
40.0239257812
 10
351.0588354492
 20
39.7739291382
 10
352.0588476563
 20
39.7739291382
 10
352.558828125
 20
40.273928833
 10
352.558828125
 20
40.7739285278
 10
350.8088452148
 20
42.2739276123
 10
350.8088452148
 20
42.7739273071
 10
351.3088513184
 20
43.273927002
 10
352.3088378906
 20
43.273927002
 10
352.558828125
 20
43.0239239502
  0
LWPOLYLINE
  5
2AD
100
AcDbEntity
  8
0
100
AcDbPolyline
 62
2
  6
CONTINUOUS
 90
6
 70
0
 10
354.8088427734
 20
39.7739291382
 10
353.8088305664
 20
39.7739291382
 10
353.558840332
 20
40.0239257812
 10
353.558840332
 20
42.0239245605
 10
353.8088305664
 20
42.2739276123
 10
354.8088427734
 20
42.2739276123
  0
LWPOLYLINE
  5
2AE
100
AcDbEntity
  8
0
100
AcDbPolyline
 62
2
  6
CONTINUOUS
 90
4
 70
0
 10
357.3088476563
 20
39.7739291382
 10
357.3088476563
 20
41.7739279175
 10
357.0588317871
 20
42.2739276123
 10
355.8088293457
 20
42.2739276123
  0
LWPOLYLINE
  5
2AF
100
AcDbEntity
  8
0
100
AcDbPolyline
 62
2
  6
CONTINUOUS
 90
6
 70
0
 10
357.3088476563
 20
39.7739291382
 10
356.3088354492
 20
39.7739291382
 10
355.8088293457
 20
40.0239257812
 10
355.8088293457
 20
40.7739285278
 10
356.3088354492
 20
41.0239251709
 10
357.3088476563
 20
41.0239251709
  0
LWPOLYLINE
  5
2B0
100
AcDbEntity
  8
0
100
AcDbPolyline
 62
2
  6
CONTINUOUS
 90
4
 70
0
 10
359.0588305664
 20
39.7739291382
 10
358.5588500977
 20
39.7739291382
 10
358.3088342285
 20
40.0239257812
 10
358.3088342285
 20
43.273927002
  0
LWPOLYLINE
  5
2B1
100
AcDbEntity
  8
0
100
AcDbPolyline
 62
2
  6
CONTINUOUS
 90
9
 70
0
 10
361.5588354492
 20
39.7739291382
 10
360.558848877
 20
39.7739291382
 10
360.0588427734
 20
40.273928833
 10
360.0588427734
 20
41.7739279175
 10
360.558848877
 20
42.2739276123
 10
361.0588293457
 20
42.2739276123
 10
361.5588354492
 20
41.7739279175
 10
361.5588354492
 20
41.0239251709
 10
360.0588427734
 20
41.0239251709
  0
LWPOLYLINE
  5
2B2
100
AcDbEntity
  8
0
100
AcDbPolyline
 62
2
  6
CONTINUOUS
 90
4
 70
0
 10
362.5588476563
 20
39.7739291382
 10
362.5588476563
 20
40.0239257812
 10
362.7254992676
 20
40.0239257812
 10
362.5588476563
 20
39.7739291382
  0
LWPOLYLINE
  5
2B3
100
AcDbEntity
  8
0
100
AcDbPolyline
 62
2
  6
CONTINUOUS
 90
4
 70
0
 10
362.5588476563
 20
41.2739282227
 10
362.5588476563
 20
41.5239248657
 10
362.7254992676
 20
41.5239248657
 10
362.5588476563
 20
41.2739282227
  0
LWPOLYLINE
  5
2B4
100
AcDbEntity
  8
0
100
AcDbPolyline
 62
2
  6
CONTINUOUS
 90
3
 70
0
 10
363.8088500977
 20
42.2739276123
 10
364.8088366699
 20
43.273927002
 10
364.8088366699
 20
39.7739291382
  0
LWPOLYLINE
  5
2B5
100
AcDbEntity
  8
0
100
AcDbPolyline
 62
2
  6
CONTINUOUS
 90
4
 70
0
 10
365.808848877
 20
39.7739291382
 10
365.808848877
 20
40.0239257812
 10
365.9755004883
 20
40.0239257812
 10
365.808848877
 20
39.7739291382
  0
LWPOLYLINE
  5
2B6
100
AcDbEntity
  8
0
100
AcDbPolyline
 62
2
  6
CONTINUOUS
 90
4
 70
0
 10
365.808848877
 20
41.2739282227
 10
365.808848877
 20
41.5239248657
 10
365.9755004883
 20
41.5239248657
 10
365.808848877
 20
41.2739282227
  0
LWPOLYLINE
  5
2B7
100
AcDbEntity
  8
0
100
AcDbPolyline
 62
2
  6
CONTINUOUS
 90
3
 70
0
 10
367.0588513184
 20
42.2739276123
 10
368.0588378906
 20
43.273927002
 10
368.0588378906
 20
39.7739291382
  0
LWPOLYLINE
  5
2B8
100
AcDbEntity
  8
0
100
AcDbPolyline
 62
2
  6
CONTINUOUS
 90
3
 70
0
 10
390.8088464355
 20
40.273928833
 10
391.8088330078
 20
43.7739266968
 10
392.8088452148
 20
40.273928833
  0
LINE
  5
2B9
100
AcDbEntity
  8
0
100
AcDbLine
 62
2
  6
CONTINUOUS
 10
391.142175293
 20
41.2739282227
 11
392.4755163574
 21
41.2739282227
  0
LWPOLYLINE
  5
2BA
100
AcDbEntity
  8
0
100
AcDbPolyline
 62
2
  6
CONTINUOUS
 90
6
 70
0
 10
393.8088317871
 20
40.273928833
 10
395.0588342285
 20
40.273928833
 10
395.3088500977
 20
40.5239254761
 10
395.3088500977
 20
41.7739279175
 10
394.8088439941
 20
42.2739276123
 10
394.3088378906
 20
42.2739276123
  0
LWPOLYLINE
  5
2BB
100
AcDbEntity
  8
0
100
AcDbPolyline
 62
2
  6
CONTINUOUS
 90
5
 70
0
 10
394.8088439941
 20
42.2739276123
 10
395.2255114746
 20
42.5239242554
 10
395.2255114746
 20
43.273927002
 10
394.8088439941
 20
43.7739266968
 10
393.8088317871
 20
43.7739266968
  0
LWPOLYLINE
  5
2BC
100
AcDbEntity
  8
0
100
AcDbPolyline
 62
2
  6
CONTINUOUS
 90
6
 70
0
 10
352.3088378906
 20
32.2739273071
 10
351.3088513184
 20
32.2739273071
 10
350.8088452148
 20
32.773927002
 10
350.8088452148
 20
35.2739254761
 10
351.3088513184
 20
35.7739251709
 10
352.3088378906
 20
35.7739251709
  0
LWPOLYLINE
  5
2BD
100
AcDbEntity
  8
0
100
AcDbPolyline
 62
2
  6
CONTINUOUS
 90
6
 70
0
 10
353.7255175781
 20
35.7739251709
 10
353.7255175781
 20
32.773927002
 10
354.2254980469
 20
32.2739273071
 10
354.9754943848
 20
32.2739273071
 10
355.4755004883
 20
32.773927002
 10
355.4755004883
 20
35.7739251709
  0
LWPOLYLINE
  5
2BE
100
AcDbEntity
  8
0
100
AcDbPolyline
 62
2
  6
CONTINUOUS
 90
8
 70
0
 10
356.4755126953
 20
32.2739273071
 10
356.4755126953
 20
35.7739251709
 10
357.2255090332
 20
35.7739251709
 10
357.4754992676
 20
35.6905929565
 10
357.9755053711
 20
35.2739254761
 10
357.9755053711
 20
34.5239291382
 10
357.4754992676
 20
34.0239294434
 10
356.4755126953
 20
34.0239294434
  0
LWPOLYLINE
  5
2BF
100
AcDbEntity
  8
0
100
AcDbPolyline
 62
2
  6
CONTINUOUS
 90
6
 70
0
 10
357.4754992676
 20
34.0239294434
 10
357.7255151367
 20
34.0239294434
 10
358.2254956055
 20
33.5239297485
 10
358.2254956055
 20
32.773927002
 10
357.7255151367
 20
32.2739273071
 10
356.4755126953
 20
32.2739273071
  0
LWPOLYLINE
  5
2C0
100
AcDbEntity
  8
0
100
AcDbPolyline
 62
2
  6
CONTINUOUS
 90
3
 70
0
 10
359.2255078125
 20
32.2739273071
 10
359.2255078125
 20
35.7739251709
 10
360.7255004883
 20
35.7739251709
  0
LINE
  5
2C1
100
AcDbEntity
  8
0
100
AcDbLine
 62
2
  6
CONTINUOUS
 10
360.2254943848
 20
34.2739260864
 11
359.2255078125
 21
34.2739260864
  0
LINE
  5
2C2
100
AcDbEntity
  8
0
100
AcDbLine
 62
2
  6
CONTINUOUS
 10
359.2255078125
 20
32.2739273071
 11
360.7255004883
 21
32.2739273071
  0
LWPOLYLINE
  5
2C3
100
AcDbEntity
  8
0
100
AcDbPolyline
 62
2
  6
CONTINUOUS
 90
5
 70
0
 10
364.4755078125
 20
35.7739251709
 10
365.2255041504
 20
32.2739273071
 10
365.9755004883
 20
34.7739257812
 10
366.7254968262
 20
32.2739273071
 10
367.4755187988
 20
35.7739251709
  0
LWPOLYLINE
  5
2C4
100
AcDbEntity
  8
0
100
AcDbPolyline
 62
2
  6
CONTINUOUS
 90
3
 70
0
 10
371.9754968262
 20
34.7739257812
 10
372.9755090332
 20
35.7739251709
 10
372.9755090332
 20
32.2739273071
  0
LWPOLYLINE
  5
2C5
100
AcDbEntity
  8
0
100
AcDbPolyline
 62
2
  6
CONTINUOUS
 90
9
 70
0
 10
374.7255175781
 20
32.8572592163
 10
374.8088305664
 20
32.6905947876
 10
374.8088305664
 20
32.6072625732
 10
374.7255175781
 20
32.4405917358
 10
374.558840332
 20
32.4405917358
 10
374.475501709
 20
32.6072625732
 10
374.475501709
 20
32.6905947876
 10
374.558840332
 20
32.8572592163
 10
374.7255175781
 20
32.8572592163
  0
LWPOLYLINE
  5
2C6
100
AcDbEntity
  8
0
100
AcDbPolyline
 62
2
  6
CONTINUOUS
 90
3
 70
0
 10
375.9754943848
 20
34.7739257812
 10
376.9755065918
 20
35.7739251709
 10
376.9755065918
 20
32.2739273071
  0
LWPOLYLINE
  5
2C7
100
AcDbEntity
  8
0
100
AcDbPolyline
 62
2
  6
CONTINUOUS
 90
7
 70
0
 10
351.2850366211
 20
25.2739251709
 10
351.2850366211
 20
27.7739300537
 10
352.1778955078
 20
27.7739300537
 10
352.5350390625
 20
27.416786499
 10
352.5350390625
 20
25.6310687256
 10
352.1778955078
 20
25.2739251709
 10
351.2850366211
 20
25.2739251709
  0
LWPOLYLINE
  5
2C8
100
AcDbEntity
  8
0
100
AcDbPolyline
 62
2
  6
CONTINUOUS
 90
3
 70
0
 10
353.5469458008
 20
25.2739251709
 10
354.2612329102
 20
27.7739300537
 10
354.9754943848
 20
25.2739251709
  0
LINE
  5
2C9
100
AcDbEntity
  8
0
100
AcDbLine
 62
2
  6
CONTINUOUS
 10
353.7850415039
 20
25.9882122803
 11
354.7373986816
 21
25.9882122803
  0
LINE
  5
2CA
100
AcDbEntity
  8
0
100
AcDbLine
 62
2
  6
CONTINUOUS
 10
356.4040686035
 20
25.2739251709
 11
356.4040686035
 21
27.7739300537
  0
LINE
  5
2CB
100
AcDbEntity
  8
0
100
AcDbLine
 62
2
  6
CONTINUOUS
 10
355.6897814941
 20
27.7739300537
 11
357.1183557129
 21
27.7739300537
  0
LWPOLYLINE
  5
2CC
100
AcDbEntity
  8
0
100
AcDbPolyline
 62
2
  6
CONTINUOUS
 90
3
 70
0
 10
357.8326428223
 20
25.2739251709
 10
357.8326428223
 20
27.7739300537
 10
358.9040734863
 20
27.7739300537
  0
LINE
  5
2CD
100
AcDbEntity
  8
0
100
AcDbLine
 62
2
  6
CONTINUOUS
 10
358.5469299316
 20
26.7024993896
 11
357.8326428223
 21
26.7024993896
  0
LINE
  5
2CE
100
AcDbEntity
  8
0
100
AcDbLine
 62
2
  6
CONTINUOUS
 10
357.8326428223
 20
25.2739251709
 11
358.9040734863
 21
25.2739251709
  0
LWPOLYLINE
  5
2CF
100
AcDbEntity
  8
0
100
AcDbPolyline
 62
2
  6
CONTINUOUS
 90
4
 70
0
 10
359.6183605957
 20
25.2739251709
 10
359.6183605957
 20
25.4524969482
 10
359.7374084473
 20
25.4524969482
 10
359.6183605957
 20
25.2739251709
  0
LWPOLYLINE
  5
2D0
100
AcDbEntity
  8
0
100
AcDbPolyline
 62
2
  6
CONTINUOUS
 90
4
 70
0
 10
359.6183605957
 20
26.345355835
 10
359.6183605957
 20
26.5239276123
 10
359.7374084473
 20
26.5239276123
 10
359.6183605957
 20
26.345355835
  0
LWPOLYLINE
  5
2D1
100
AcDbEntity
  8
0
100
AcDbPolyline
 62
2
  6
CONTINUOUS
 90
7
 70
0
 10
361.7612219238
 20
25.2739251709
 10
360.5112194824
 20
25.2739251709
 10
361.7612219238
 20
27.0596429443
 10
361.7612219238
 20
27.416786499
 10
361.4040783691
 20
27.7739300537
 10
360.8683630371
 20
27.7739300537
 10
360.5112194824
 20
27.2382147217
  0
LWPOLYLINE
  5
2D2
100
AcDbEntity
  8
0
100
AcDbPolyline
 62
2
  6
CONTINUOUS
 90
7
 70
0
 10
363.7255114746
 20
25.2739251709
 10
362.4755090332
 20
25.2739251709
 10
363.7255114746
 20
27.0596429443
 10
363.7255114746
 20
27.416786499
 10
363.3683679199
 20
27.7739300537
 10
362.8326525879
 20
27.7739300537
 10
362.4755090332
 20
27.2382147217
  0
LINE
  5
2D3
100
AcDbEntity
  8
0
100
AcDbLine
 62
2
  6
CONTINUOUS
 10
365.8683728027
 20
27.5358343506
 11
364.439798584
 21
25.3334490967
  0
LWPOLYLINE
  5
2D4
100
AcDbEntity
  8
0
100
AcDbPolyline
 62
2
  6
CONTINUOUS
 90
13
 70
0
 10
366.344564209
 20
25.9882122803
 10
366.344564209
 20
27.0596429443
 10
366.5231359863
 20
27.416786499
 10
366.880279541
 20
27.7739300537
 10
367.0588513184
 20
27.7739300537
 10
367.415994873
 20
27.416786499
 10
367.5945666504
 20
27.0596429443
 10
367.5945666504
 20
25.9882122803
 10
367.415994873
 20
25.6310687256
 10
367.0588513184
 20
25.2739251709
 10
366.880279541
 20
25.2739251709
 10
366.5231359863
 20
25.6310687256
 10
366.344564209
 20
25.9882122803
  0
LWPOLYLINE
  5
2D5
100
AcDbEntity
  8
0
100
AcDbPolyline
 62
2
  6
CONTINUOUS
 90
4
 70
0
 10
368.308828125
 20
27.2382147217
 10
368.308828125
 20
27.7739300537
 10
369.5588305664
 20
27.7739300537
 10
368.844543457
 20
25.2739251709
  0
LINE
  5
2D6
100
AcDbEntity
  8
0
100
AcDbLine
 62
2
  6
CONTINUOUS
 10
371.7016918945
 20
27.5358343506
 11
370.2731176758
 21
25.3334490967
  0
LWPOLYLINE
  5
2D7
100
AcDbEntity
  8
0
100
AcDbPolyline
 62
2
  6
CONTINUOUS
 90
7
 70
0
 10
373.4278857422
 20
25.2739251709
 10
372.1778833008
 20
25.2739251709
 10
373.4278857422
 20
27.0596429443
 10
373.4278857422
 20
27.416786499
 10
373.0707421875
 20
27.7739300537
 10
372.5350268555
 20
27.7739300537
 10
372.1778833008
 20
27.2382147217
  0
LWPOLYLINE
  5
2D8
100
AcDbEntity
  8
0
100
AcDbPolyline
 62
2
  6
CONTINUOUS
 90
13
 70
0
 10
374.1421728516
 20
25.9882122803
 10
374.1421728516
 20
27.0596429443
 10
374.3207446289
 20
27.416786499
 10
374.6778881836
 20
27.7739300537
 10
374.8564599609
 20
27.7739300537
 10
375.2136035156
 20
27.416786499
 10
375.392175293
 20
27.0596429443
 10
375.392175293
 20
25.9882122803
 10
375.2136035156
 20
25.6310687256
 10
374.8564599609
 20
25.2739251709
 10
374.6778881836
 20
25.2739251709
 10
374.3207446289
 20
25.6310687256
 10
374.1421728516
 20
25.9882122803
  0
LWPOLYLINE
  5
2D9
100
AcDbEntity
  8
0
100
AcDbPolyline
 62
2
  6
CONTINUOUS
 90
3
 70
0
 10
376.1064624023
 20
27.0596429443
 10
376.8207495117
 20
27.7739300537
 10
376.8207495117
 20
25.2739251709
  0
LWPOLYLINE
  5
2DA
100
AcDbEntity
  8
0
100
AcDbPolyline
 62
2
  6
CONTINUOUS
 90
8
 70
0
 10
377.5350366211
 20
25.2739251709
 10
378.2493237305
 20
25.2739251709
 10
378.6064672852
 20
25.6310687256
 10
378.6064672852
 20
26.345355835
 10
378.2493237305
 20
26.7024993896
 10
377.5350366211
 20
26.7024993896
 10
377.5350366211
 20
27.7739300537
 10
378.6064672852
 20
27.7739300537
  0
LWPOLYLINE
  5
2DB
100
AcDbEntity
  8
0
100
AcDbPolyline
 62
2
  6
CONTINUOUS
 90
3
 70
0
 10
321.1036889648
 20
20.4239268494
 10
321.5950817871
 20
22.273927002
 10
322.0865002441
 20
20.4239268494
  0
LINE
  5
2DC
100
AcDbEntity
  8
0
100
AcDbLine
 62
2
  6
CONTINUOUS
 10
321.3002563477
 20
21.0405935669
 11
321.8899328613
 21
21.0405935669
  0
LINE
  5
2DD
100
AcDbEntity
  8
0
100
AcDbLine
 62
2
  6
CONTINUOUS
 10
322.8727441406
 20
20.4239268494
 11
322.8727441406
 21
21.6572602844
  0
LWPOLYLINE
  5
2DE
100
AcDbEntity
  8
0
100
AcDbPolyline
 62
2
  6
CONTINUOUS
 90
5
 70
0
 10
322.8727441406
 20
21.3489285278
 10
323.0693115234
 20
21.6572602844
 10
323.2658789063
 20
21.6572602844
 10
323.4624462891
 20
21.3489285278
 10
323.4624462891
 20
20.4239268494
  0
LWPOLYLINE
  5
2DF
100
AcDbEntity
  8
0
100
AcDbPolyline
 62
2
  6
CONTINUOUS
 90
5
 70
0
 10
324.346973877
 20
21.6572602844
 10
324.7400830078
 20
20.5780943298
 10
324.6417993164
 20
20.1155950928
 10
324.4452575684
 20
19.8072601318
 10
324.2486901855
 20
19.8072601318
  0
LINE
  5
2E0
100
AcDbEntity
  8
0
100
AcDbLine
 62
2
  6
CONTINUOUS
 10
324.7400830078
 20
20.5780943298
 11
325.1332177734
 21
21.6572602844
  0
LINE
  5
2E1
100
AcDbEntity
  8
0
100
AcDbLine
 62
2
  6
CONTINUOUS
 10
327.8850842285
 20
22.273927002
 11
327.8850842285
 21
22.1197595215
  0
LINE
  5
2E2
100
AcDbEntity
  8
0
100
AcDbLine
 62
2
  6
CONTINUOUS
 10
327.8850842285
 20
21.6572602844
 11
327.8850842285
 21
20.4239268494
  0
LINE
  5
2E3
100
AcDbEntity
  8
0
100
AcDbLine
 62
2
  6
CONTINUOUS
 10
329.162746582
 20
20.4239268494
 11
329.162746582
 21
21.6572602844
  0
LWPOLYLINE
  5
2E4
100
AcDbEntity
  8
0
100
AcDbPolyline
 62
2
  6
CONTINUOUS
 90
5
 70
0
 10
329.162746582
 20
21.3489285278
 10
329.3593139648
 20
21.6572602844
 10
329.5558813477
 20
21.6572602844
 10
329.7524230957
 20
21.3489285278
 10
329.7524230957
 20
20.4239268494
  0
LINE
  5
2E5
100
AcDbEntity
  8
0
100
AcDbLine
 62
2
  6
CONTINUOUS
 10
331.0300854492
 20
20.4239268494
 11
331.0300854492
 21
22.273927002
  0
LINE
  5
2E6
100
AcDbEntity
  8
0
100
AcDbLine
 62
2
  6
CONTINUOUS
 10
330.735234375
 20
21.503092804
 11
331.3249365234
 21
21.503092804
  0
LWPOLYLINE
  5
2E7
100
AcDbEntity
  8
0
100
AcDbPolyline
 62
2
  6
CONTINUOUS
 90
11
 70
0
 10
332.8974243164
 20
20.7322618103
 10
332.799140625
 20
20.5780943298
 10
332.602598877
 20
20.4239268494
 10
332.4060314941
 20
20.5780943298
 10
332.2094641113
 20
20.8864260864
 10
332.2094641113
 20
21.1947610474
 10
332.4060314941
 20
21.503092804
 10
332.602598877
 20
21.6572602844
 10
332.799140625
 20
21.503092804
 10
332.8974243164
 20
21.1947610474
 10
332.2094641113
 20
21.1947610474
  0
LWPOLYLINE
  5
2E8
100
AcDbEntity
  8
0
100
AcDbPolyline
 62
2
  6
CONTINUOUS
 90
10
 70
0
 10
334.5682214355
 20
20.8864260864
 10
334.3716540527
 20
20.5780943298
 10
334.1750866699
 20
20.4239268494
 10
333.9785192871
 20
20.5780943298
 10
333.7819775391
 20
20.8864260864
 10
333.7819775391
 20
21.1947610474
 10
333.9785192871
 20
21.503092804
 10
334.1750866699
 20
21.6572602844
 10
334.3716540527
 20
21.503092804
 10
334.5682214355
 20
21.1947610474
  0
LWPOLYLINE
  5
2E9
100
AcDbEntity
  8
0
100
AcDbPolyline
 62
2
  6
CONTINUOUS
 90
6
 70
0
 10
334.5682214355
 20
21.6572602844
 10
334.5682214355
 20
20.2697593689
 10
334.4699377441
 20
19.9614276123
 10
334.3716540527
 20
19.8072601318
 10
333.9785192871
 20
19.8072601318
 10
333.8802355957
 20
19.9614276123
  0
LINE
  5
2EA
100
AcDbEntity
  8
0
100
AcDbLine
 62
2
  6
CONTINUOUS
 10
335.4527490234
 20
20.4239268494
 11
335.4527490234
 21
21.6572602844
  0
LWPOLYLINE
  5
2EB
100
AcDbEntity
  8
0
100
AcDbPolyline
 62
2
  6
CONTINUOUS
 90
4
 70
0
 10
335.4527490234
 20
21.3489285278
 10
335.6493164062
 20
21.6572602844
 10
335.8458837891
 20
21.6572602844
 10
335.9441418457
 20
21.503092804
  0
LWPOLYLINE
  5
2EC
100
AcDbEntity
  8
0
100
AcDbPolyline
 62
2
  6
CONTINUOUS
 90
10
 70
0
 10
337.7132226562
 20
20.8864260864
 10
337.5166552734
 20
20.5780943298
 10
337.3200878906
 20
20.4239268494
 10
337.1235205078
 20
20.5780943298
 10
336.926953125
 20
20.8864260864
 10
336.926953125
 20
21.1947610474
 10
337.1235205078
 20
21.503092804
 10
337.3200878906
 20
21.6572602844
 10
337.5166552734
 20
21.503092804
 10
337.7132226562
 20
21.1947610474
  0
LINE
  5
2ED
100
AcDbEntity
  8
0
100
AcDbLine
 62
2
  6
CONTINUOUS
 10
337.7132226562
 20
21.6572602844
 11
337.7132226562
 21
20.4239268494
  0
LINE
  5
2EE
100
AcDbEntity
  8
0
100
AcDbLine
 62
2
  6
CONTINUOUS
 10
338.8926013184
 20
20.4239268494
 11
338.8926013184
 21
22.273927002
  0
LWPOLYLINE
  5
2EF
100
AcDbEntity
  8
0
100
AcDbPolyline
 62
2
  6
CONTINUOUS
 90
11
 70
0
 10
342.4307116699
 20
20.8864260864
 10
342.2341442871
 20
20.5780943298
 10
342.0376025391
 20
20.4239268494
 10
341.8410351562
 20
20.5780943298
 10
341.6444677734
 20
20.8864260864
 10
341.6444677734
 20
21.1947610474
 10
341.8410351562
 20
21.503092804
 10
342.0376025391
 20
21.6572602844
 10
342.2341442871
 20
21.503092804
 10
342.4307116699
 20
21.1947610474
 10
342.4307116699
 20
20.8864260864
  0
LINE
  5
2F0
100
AcDbEntity
  8
0
100
AcDbLine
 62
2
  6
CONTINUOUS
 10
343.3152392578
 20
20.4239268494
 11
343.3152392578
 21
21.6572602844
  0
LWPOLYLINE
  5
2F1
100
AcDbEntity
  8
0
100
AcDbPolyline
 62
2
  6
CONTINUOUS
 90
4
 70
0
 10
343.3152392578
 20
21.3489285278
 10
343.5118066406
 20
21.6572602844
 10
343.7083740234
 20
21.6572602844
 10
343.8066577148
 20
21.503092804
  0
LWPOLYLINE
  5
2F2
100
AcDbEntity
  8
0
100
AcDbPolyline
 62
2
  6
CONTINUOUS
 90
10
 70
0
 10
346.3619567871
 20
21.1947610474
 10
346.5585241699
 20
21.503092804
 10
346.7550915527
 20
21.6572602844
 10
346.9516589355
 20
21.503092804
 10
347.1482263184
 20
21.1947610474
 10
347.1482263184
 20
20.8864260864
 10
346.9516589355
 20
20.5780943298
 10
346.7550915527
 20
20.4239268494
 10
346.5585241699
 20
20.4239268494
 10
346.3619567871
 20
20.8864260864
  0
LINE
  5
2F3
100
AcDbEntity
  8
0
100
AcDbLine
 62
2
  6
CONTINUOUS
 10
346.3619567871
 20
21.6572602844
 11
346.3619567871
 21
19.8072601318
  0
LWPOLYLINE
  5
2F4
100
AcDbEntity
  8
0
100
AcDbPolyline
 62
2
  6
CONTINUOUS
 90
10
 70
0
 10
348.7207141113
 20
20.8864260864
 10
348.5241467285
 20
20.5780943298
 10
348.3275793457
 20
20.4239268494
 10
348.1310375977
 20
20.5780943298
 10
347.9344702148
 20
20.8864260864
 10
347.9344702148
 20
21.1947610474
 10
348.1310375977
 20
21.503092804
 10
348.3275793457
 20
21.6572602844
 10
348.5241467285
 20
21.503092804
 10
348.7207141113
 20
21.1947610474
  0
LINE
  5
2F5
100
AcDbEntity
  8
0
100
AcDbLine
 62
2
  6
CONTINUOUS
 10
348.7207141113
 20
21.6572602844
 11
348.7207141113
 21
20.4239268494
  0
LINE
  5
2F6
100
AcDbEntity
  8
0
100
AcDbLine
 62
2
  6
CONTINUOUS
 10
349.6052416992
 20
20.4239268494
 11
349.6052416992
 21
21.6572602844
  0
LWPOLYLINE
  5
2F7
100
AcDbEntity
  8
0
100
AcDbPolyline
 62
2
  6
CONTINUOUS
 90
4
 70
0
 10
349.6052416992
 20
21.3489285278
 10
349.801809082
 20
21.6572602844
 10
349.9983764648
 20
21.6572602844
 10
350.0966601562
 20
21.503092804
  0
LINE
  5
2F8
100
AcDbEntity
  8
0
100
AcDbLine
 62
2
  6
CONTINUOUS
 10
351.4725805664
 20
20.4239268494
 11
351.4725805664
 21
22.273927002
  0
LINE
  5
2F9
100
AcDbEntity
  8
0
100
AcDbLine
 62
2
  6
CONTINUOUS
 10
351.177755127
 20
21.503092804
 11
351.7674316406
 21
21.503092804
  0
LINE
  5
2FA
100
AcDbEntity
  8
0
100
AcDbLine
 62
2
  6
CONTINUOUS
 10
353.0450939941
 20
22.273927002
 11
353.0450939941
 21
22.1197595215
  0
LINE
  5
2FB
100
AcDbEntity
  8
0
100
AcDbLine
 62
2
  6
CONTINUOUS
 10
353.0450939941
 20
21.6572602844
 11
353.0450939941
 21
20.4239268494
  0
LWPOLYLINE
  5
2FC
100
AcDbEntity
  8
0
100
AcDbPolyline
 62
2
  6
CONTINUOUS
 90
10
 70
0
 10
355.0107165527
 20
20.8864260864
 10
354.8141491699
 20
20.5780943298
 10
354.6175817871
 20
20.4239268494
 10
354.4210400391
 20
20.5780943298
 10
354.2244726562
 20
20.8864260864
 10
354.2244726562
 20
21.1947610474
 10
354.4210400391
 20
21.503092804
 10
354.6175817871
 20
21.6572602844
 10
354.8141491699
 20
21.503092804
 10
355.0107165527
 20
21.1947610474
  0
LINE
  5
2FD
100
AcDbEntity
  8
0
100
AcDbLine
 62
2
  6
CONTINUOUS
 10
355.0107165527
 20
21.6572602844
 11
355.0107165527
 21
20.4239268494
  0
LINE
  5
2FE
100
AcDbEntity
  8
0
100
AcDbLine
 62
2
  6
CONTINUOUS
 10
356.1900952148
 20
20.4239268494
 11
356.1900952148
 21
22.273927002
  0
LINE
  5
2FF
100
AcDbEntity
  8
0
100
AcDbLine
 62
2
  6
CONTINUOUS
 10
359.0402453613
 20
20.4239268494
 11
359.0402453613
 21
21.6572602844
  0
LWPOLYLINE
  5
300
100
AcDbEntity
  8
0
100
AcDbPolyline
 62
2
  6
CONTINUOUS
 90
4
 70
0
 10
359.0402453613
 20
21.3489285278
 10
359.2368127441
 20
21.6572602844
 10
359.433380127
 20
21.6572602844
 10
359.5316638184
 20
21.503092804
  0
LWPOLYLINE
  5
301
100
AcDbEntity
  8
0
100
AcDbPolyline
 62
2
  6
CONTINUOUS
 90
11
 70
0
 10
361.2024353027
 20
20.7322618103
 10
361.1041516113
 20
20.5780943298
 10
360.9075842285
 20
20.4239268494
 10
360.7110168457
 20
20.5780943298
 10
360.5144750977
 20
20.8864260864
 10
360.5144750977
 20
21.1947610474
 10
360.7110168457
 20
21.503092804
 10
360.9075842285
 20
21.6572602844
 10
361.1041516113
 20
21.503092804
 10
361.2024353027
 20
21.1947610474
 10
360.5144750977
 20
21.1947610474
  0
LWPOLYLINE
  5
302
100
AcDbEntity
  8
0
100
AcDbPolyline
 62
2
  6
CONTINUOUS
 90
10
 70
0
 10
362.0869628906
 20
21.1947610474
 10
362.2835302734
 20
21.503092804
 10
362.4800976562
 20
21.6572602844
 10
362.6766650391
 20
21.503092804
 10
362.8732067871
 20
21.1947610474
 10
362.8732067871
 20
20.8864260864
 10
362.6766650391
 20
20.5780943298
 10
362.4800976562
 20
20.4239268494
 10
362.2835302734
 20
20.4239268494
 10
362.0869628906
 20
20.8864260864
  0
LINE
  5
303
100
AcDbEntity
  8
0
100
AcDbLine
 62
2
  6
CONTINUOUS
 10
362.0869628906
 20
21.6572602844
 11
362.0869628906
 21
19.8072601318
  0
LINE
  5
304
100
AcDbEntity
  8
0
100
AcDbLine
 62
2
  6
CONTINUOUS
 10
363.757734375
 20
20.4239268494
 11
363.757734375
 21
21.6572602844
  0
LWPOLYLINE
  5
305
100
AcDbEntity
  8
0
100
AcDbPolyline
 62
2
  6
CONTINUOUS
 90
4
 70
0
 10
363.757734375
 20
21.3489285278
 10
363.9543017578
 20
21.6572602844
 10
364.1508691406
 20
21.6572602844
 10
364.249152832
 20
21.503092804
  0
LWPOLYLINE
  5
306
100
AcDbEntity
  8
0
100
AcDbPolyline
 62
2
  6
CONTINUOUS
 90
11
 70
0
 10
366.0182080078
 20
20.8864260864
 10
365.821640625
 20
20.5780943298
 10
365.625098877
 20
20.4239268494
 10
365.4285314941
 20
20.5780943298
 10
365.2319641113
 20
20.8864260864
 10
365.2319641113
 20
21.1947610474
 10
365.4285314941
 20
21.503092804
 10
365.625098877
 20
21.6572602844
 10
365.821640625
 20
21.503092804
 10
366.0182080078
 20
21.1947610474
 10
366.0182080078
 20
20.8864260864
  0
LWPOLYLINE
  5
307
100
AcDbEntity
  8
0
100
AcDbPolyline
 62
2
  6
CONTINUOUS
 90
10
 70
0
 10
367.5907214355
 20
20.8864260864
 10
367.3941540527
 20
20.5780943298
 10
367.1975866699
 20
20.4239268494
 10
367.0010192871
 20
20.5780943298
 10
366.8044775391
 20
20.8864260864
 10
366.8044775391
 20
21.1947610474
 10
367.0010192871
 20
21.503092804
 10
367.1975866699
 20
21.6572602844
 10
367.3941540527
 20
21.503092804
 10
367.5907214355
 20
21.1947610474
  0
LINE
  5
308
100
AcDbEntity
  8
0
100
AcDbLine
 62
2
  6
CONTINUOUS
 10
367.5907214355
 20
22.273927002
 11
367.5907214355
 21
20.4239268494
  0
LWPOLYLINE
  5
309
100
AcDbEntity
  8
0
100
AcDbPolyline
 62
2
  6
CONTINUOUS
 90
5
 70
0
 10
368.4752490234
 20
21.6572602844
 10
368.4752490234
 20
20.7322618103
 10
368.6718164063
 20
20.4239268494
 10
368.8683837891
 20
20.4239268494
 10
369.0649255371
 20
20.7322618103
  0
LINE
  5
30A
100
AcDbEntity
  8
0
100
AcDbLine
 62
2
  6
CONTINUOUS
 10
369.0649255371
 20
21.6572602844
 11
369.0649255371
 21
20.4239268494
  0
LWPOLYLINE
  5
30B
100
AcDbEntity
  8
0
100
AcDbPolyline
 62
2
  6
CONTINUOUS
 90
8
 70
0
 10
370.5391552734
 20
20.5780943298
 10
370.3425878906
 20
20.4239268494
 10
370.1460205078
 20
20.5780943298
 10
369.949453125
 20
20.8864260864
 10
369.949453125
 20
21.1947610474
 10
370.1460205078
 20
21.503092804
 10
370.3425878906
 20
21.6572602844
 10
370.5391552734
 20
21.503092804
  0
LINE
  5
30C
100
AcDbEntity
  8
0
100
AcDbLine
 62
2
  6
CONTINUOUS
 10
371.9151013184
 20
20.4239268494
 11
371.9151013184
 21
22.273927002
  0
LINE
  5
30D
100
AcDbEntity
  8
0
100
AcDbLine
 62
2
  6
CONTINUOUS
 10
371.6202502441
 20
21.503092804
 11
372.2099267578
 21
21.503092804
  0
LINE
  5
30E
100
AcDbEntity
  8
0
100
AcDbLine
 62
2
  6
CONTINUOUS
 10
373.4875891113
 20
22.273927002
 11
373.4875891113
 21
22.1197595215
  0
LINE
  5
30F
100
AcDbEntity
  8
0
100
AcDbLine
 62
2
  6
CONTINUOUS
 10
373.4875891113
 20
21.6572602844
 11
373.4875891113
 21
20.4239268494
  0
LWPOLYLINE
  5
310
100
AcDbEntity
  8
0
100
AcDbPolyline
 62
2
  6
CONTINUOUS
 90
11
 70
0
 10
375.4532116699
 20
20.8864260864
 10
375.2566442871
 20
20.5780943298
 10
375.0601025391
 20
20.4239268494
 10
374.8635351563
 20
20.5780943298
 10
374.6669677734
 20
20.8864260864
 10
374.6669677734
 20
21.1947610474
 10
374.8635351563
 20
21.503092804
 10
375.0601025391
 20
21.6572602844
 10
375.2566442871
 20
21.503092804
 10
375.4532116699
 20
21.1947610474
 10
375.4532116699
 20
20.8864260864
  0
LINE
  5
311
100
AcDbEntity
  8
0
100
AcDbLine
 62
2
  6
CONTINUOUS
 10
376.3377392578
 20
20.4239268494
 11
376.3377392578
 21
21.6572602844
  0
LWPOLYLINE
  5
312
100
AcDbEntity
  8
0
100
AcDbPolyline
 62
2
  6
CONTINUOUS
 90
5
 70
0
 10
376.3377392578
 20
21.3489285278
 10
376.5343066406
 20
21.6572602844
 10
376.7308740234
 20
21.6572602844
 10
376.9274414063
 20
21.3489285278
 10
376.9274414063
 20
20.4239268494
  0
LWPOLYLINE
  5
313
100
AcDbEntity
  8
0
100
AcDbPolyline
 62
2
  6
CONTINUOUS
 90
14
 70
0
 10
378.4016455078
 20
21.503092804
 10
378.3033618164
 20
21.6572602844
 10
378.1068200684
 20
21.6572602844
 10
378.008536377
 20
21.503092804
 10
378.008536377
 20
21.3489285278
 10
378.205078125
 20
21.1947610474
 10
378.4016455078
 20
21.0405935669
 10
378.4999291992
 20
20.8864260864
 10
378.4999291992
 20
20.7322618103
 10
378.4016455078
 20
20.5780943298
 10
378.3033618164
 20
20.4239268494
 10
378.1068200684
 20
20.4239268494
 10
378.008536377
 20
20.5780943298
 10
377.9102526855
 20
20.7322618103
  0
LWPOLYLINE
  5
314
100
AcDbEntity
  8
0
100
AcDbPolyline
 62
2
  6
CONTINUOUS
 90
10
 70
0
 10
381.7432141113
 20
20.8864260864
 10
381.5466467285
 20
20.5780943298
 10
381.3500793457
 20
20.4239268494
 10
381.1535375977
 20
20.5780943298
 10
380.9569702148
 20
20.8864260864
 10
380.9569702148
 20
21.1947610474
 10
381.1535375977
 20
21.503092804
 10
381.3500793457
 20
21.6572602844
 10
381.5466467285
 20
21.503092804
 10
381.7432141113
 20
21.1947610474
  0
LINE
  5
315
100
AcDbEntity
  8
0
100
AcDbLine
 62
2
  6
CONTINUOUS
 10
381.7432141113
 20
21.6572602844
 11
381.7432141113
 21
20.4239268494
  0
LINE
  5
316
100
AcDbEntity
  8
0
100
AcDbLine
 62
2
  6
CONTINUOUS
 10
382.6277416992
 20
20.4239268494
 11
382.6277416992
 21
21.6572602844
  0
LWPOLYLINE
  5
317
100
AcDbEntity
  8
0
100
AcDbPolyline
 62
2
  6
CONTINUOUS
 90
4
 70
0
 10
382.6277416992
 20
21.3489285278
 10
382.824309082
 20
21.6572602844
 10
383.0208764648
 20
21.6572602844
 10
383.1191601562
 20
21.503092804
  0
LWPOLYLINE
  5
318
100
AcDbEntity
  8
0
100
AcDbPolyline
 62
2
  6
CONTINUOUS
 90
11
 70
0
 10
384.7899316406
 20
20.7322618103
 10
384.6916479492
 20
20.5780943298
 10
384.4950805664
 20
20.4239268494
 10
384.2985388184
 20
20.5780943298
 10
384.1019714355
 20
20.8864260864
 10
384.1019714355
 20
21.1947610474
 10
384.2985388184
 20
21.503092804
 10
384.4950805664
 20
21.6572602844
 10
384.6916479492
 20
21.503092804
 10
384.7899316406
 20
21.1947610474
 10
384.1019714355
 20
21.1947610474
  0
LWPOLYLINE
  5
319
100
AcDbEntity
  8
0
100
AcDbPolyline
 62
2
  6
CONTINUOUS
 90
10
 70
0
 10
387.2469726562
 20
21.1947610474
 10
387.4435400391
 20
21.503092804
 10
387.6400817871
 20
21.6572602844
 10
387.8366491699
 20
21.503092804
 10
388.0332165527
 20
21.1947610474
 10
388.0332165527
 20
20.8864260864
 10
387.8366491699
 20
20.5780943298
 10
387.6400817871
 20
20.4239268494
 10
387.4435400391
 20
20.4239268494
 10
387.2469726562
 20
20.8864260864
  0
LINE
  5
31A
100
AcDbEntity
  8
0
100
AcDbLine
 62
2
  6
CONTINUOUS
 10
387.2469726562
 20
21.6572602844
 11
387.2469726562
 21
19.8072601318
  0
LINE
  5
31B
100
AcDbEntity
  8
0
100
AcDbLine
 62
2
  6
CONTINUOUS
 10
388.9177441406
 20
20.4239268494
 11
388.9177441406
 21
21.6572602844
  0
LWPOLYLINE
  5
31C
100
AcDbEntity
  8
0
100
AcDbPolyline
 62
2
  6
CONTINUOUS
 90
4
 70
0
 10
388.9177441406
 20
21.3489285278
 10
389.1143115234
 20
21.6572602844
 10
389.3108789062
 20
21.6572602844
 10
389.4091625977
 20
21.503092804
  0
LWPOLYLINE
  5
31D
100
AcDbEntity
  8
0
100
AcDbPolyline
 62
2
  6
CONTINUOUS
 90
11
 70
0
 10
391.1782177734
 20
20.8864260864
 10
390.9816503906
 20
20.5780943298
 10
390.7850830078
 20
20.4239268494
 10
390.588515625
 20
20.5780943298
 10
390.391973877
 20
20.8864260864
 10
390.391973877
 20
21.1947610474
 10
390.588515625
 20
21.503092804
 10
390.7850830078
 20
21.6572602844
 10
390.9816503906
 20
21.503092804
 10
391.1782177734
 20
21.1947610474
 10
391.1782177734
 20
20.8864260864
  0
LINE
  5
31E
100
AcDbEntity
  8
0
100
AcDbLine
 62
2
  6
CONTINUOUS
 10
392.0627453613
 20
20.4239268494
 11
392.0627453613
 21
22.273927002
  0
LWPOLYLINE
  5
31F
100
AcDbEntity
  8
0
100
AcDbPolyline
 62
2
  6
CONTINUOUS
 90
7
 70
0
 10
392.0627453613
 20
21.3489285278
 10
392.0627453613
 20
21.503092804
 10
392.2593127441
 20
21.6572602844
 10
392.3575964355
 20
21.6572602844
 10
392.455880127
 20
21.6572602844
 10
392.652421875
 20
21.3489285278
 10
392.652421875
 20
20.4239268494
  0
LINE
  5
320
100
AcDbEntity
  8
0
100
AcDbLine
 62
2
  6
CONTINUOUS
 10
393.9300842285
 20
22.273927002
 11
393.9300842285
 21
22.1197595215
  0
LINE
  5
321
100
AcDbEntity
  8
0
100
AcDbLine
 62
2
  6
CONTINUOUS
 10
393.9300842285
 20
21.6572602844
 11
393.9300842285
 21
20.4239268494
  0
LWPOLYLINE
  5
322
100
AcDbEntity
  8
0
100
AcDbPolyline
 62
2
  6
CONTINUOUS
 90
10
 70
0
 10
395.1094628906
 20
21.1947610474
 10
395.3060302734
 20
21.503092804
 10
395.5025976562
 20
21.6572602844
 10
395.6991650391
 20
21.503092804
 10
395.8957067871
 20
21.1947610474
 10
395.8957067871
 20
20.8864260864
 10
395.6991650391
 20
20.5780943298
 10
395.5025976562
 20
20.4239268494
 10
395.3060302734
 20
20.5780943298
 10
395.1094628906
 20
20.8864260864
  0
LINE
  5
323
100
AcDbEntity
  8
0
100
AcDbLine
 62
2
  6
CONTINUOUS
 10
395.1094628906
 20
22.273927002
 11
395.1094628906
 21
20.4239268494
  0
LINE
  5
324
100
AcDbEntity
  8
0
100
AcDbLine
 62
2
  6
CONTINUOUS
 10
397.0750854492
 20
22.273927002
 11
397.0750854492
 21
22.1197595215
  0
LINE
  5
325
100
AcDbEntity
  8
0
100
AcDbLine
 62
2
  6
CONTINUOUS
 10
397.0750854492
 20
21.6572602844
 11
397.0750854492
 21
20.4239268494
  0
LINE
  5
326
100
AcDbEntity
  8
0
100
AcDbLine
 62
2
  6
CONTINUOUS
 10
398.647598877
 20
20.4239268494
 11
398.647598877
 21
22.273927002
  0
LINE
  5
327
100
AcDbEntity
  8
0
100
AcDbLine
 62
2
  6
CONTINUOUS
 10
398.3527478027
 20
21.503092804
 11
398.9424243164
 21
21.503092804
  0
LWPOLYLINE
  5
328
100
AcDbEntity
  8
0
100
AcDbPolyline
 62
2
  6
CONTINUOUS
 90
11
 70
0
 10
400.5149377441
 20
20.7322618103
 10
400.4166540527
 20
20.5780943298
 10
400.2200866699
 20
20.4239268494
 10
400.0235192871
 20
20.5780943298
 10
399.8269775391
 20
20.8864260864
 10
399.8269775391
 20
21.1947610474
 10
400.0235192871
 20
21.503092804
 10
400.2200866699
 20
21.6572602844
 10
400.4166540527
 20
21.503092804
 10
400.5149377441
 20
21.1947610474
 10
399.8269775391
 20
21.1947610474
  0
LWPOLYLINE
  5
329
100
AcDbEntity
  8
0
100
AcDbPolyline
 62
2
  6
CONTINUOUS
 90
10
 70
0
 10
402.1857092285
 20
20.8864260864
 10
401.9891418457
 20
20.5780943298
 10
401.7926000977
 20
20.4239268494
 10
401.5960327148
 20
20.5780943298
 10
401.399465332
 20
20.8864260864
 10
401.399465332
 20
21.1947610474
 10
401.5960327148
 20
21.503092804
 10
401.7926000977
 20
21.6572602844
 10
401.9891418457
 20
21.503092804
 10
402.1857092285
 20
21.1947610474
  0
LINE
  5
32A
100
AcDbEntity
  8
0
100
AcDbLine
 62
2
  6
CONTINUOUS
 10
402.1857092285
 20
22.273927002
 11
402.1857092285
 21
20.4239268494
  0
LWPOLYLINE
  5
32B
100
AcDbEntity
  8
0
100
AcDbPolyline
 62
2
  6
CONTINUOUS
 90
5
 70
0
 10
321.1036889648
 20
18.8822616577
 10
321.3002563477
 20
17.6489282227
 10
321.5950817871
 20
18.8822616577
 10
321.7916491699
 20
17.6489282227
 10
322.0865002441
 20
18.8822616577
  0
LINE
  5
32C
100
AcDbEntity
  8
0
100
AcDbLine
 62
2
  6
CONTINUOUS
 10
323.1675952148
 20
19.4989283752
 11
323.1675952148
 21
19.3447608948
  0
LINE
  5
32D
100
AcDbEntity
  8
0
100
AcDbLine
 62
2
  6
CONTINUOUS
 10
323.1675952148
 20
18.8822616577
 11
323.1675952148
 21
17.6489282227
  0
LINE
  5
32E
100
AcDbEntity
  8
0
100
AcDbLine
 62
2
  6
CONTINUOUS
 10
324.7400830078
 20
17.6489282227
 11
324.7400830078
 21
19.4989283752
  0
LINE
  5
32F
100
AcDbEntity
  8
0
100
AcDbLine
 62
2
  6
CONTINUOUS
 10
324.4452575684
 20
18.7280941772
 11
325.034934082
 21
18.7280941772
  0
LINE
  5
330
100
AcDbEntity
  8
0
100
AcDbLine
 62
2
  6
CONTINUOUS
 10
326.0177453613
 20
17.6489282227
 11
326.0177453613
 21
19.4989283752
  0
LWPOLYLINE
  5
331
100
AcDbEntity
  8
0
100
AcDbPolyline
 62
2
  6
CONTINUOUS
 90
7
 70
0
 10
326.0177453613
 20
18.5739266968
 10
326.0177453613
 20
18.7280941772
 10
326.2143127441
 20
18.8822616577
 10
326.3125964355
 20
18.8822616577
 10
326.410880127
 20
18.8822616577
 10
326.607421875
 20
18.5739266968
 10
326.607421875
 20
17.6489282227
  0
LWPOLYLINE
  5
332
100
AcDbEntity
  8
0
100
AcDbPolyline
 62
2
  6
CONTINUOUS
 90
11
 70
0
 10
328.2782189941
 20
18.1114274597
 10
328.0816516113
 20
17.8030924988
 10
327.8850842285
 20
17.6489282227
 10
327.6885168457
 20
17.8030924988
 10
327.4919750977
 20
18.1114274597
 10
327.4919750977
 20
18.4197592163
 10
327.6885168457
 20
18.7280941772
 10
327.8850842285
 20
18.8822616577
 10
328.0816516113
 20
18.7280941772
 10
328.2782189941
 20
18.4197592163
 10
328.2782189941
 20
18.1114274597
  0
LWPOLYLINE
  5
333
100
AcDbEntity
  8
0
100
AcDbPolyline
 62
2
  6
CONTINUOUS
 90
5
 70
0
 10
329.162746582
 20
18.8822616577
 10
329.162746582
 20
17.9572599792
 10
329.3593139648
 20
17.6489282227
 10
329.5558813477
 20
17.6489282227
 10
329.7524230957
 20
17.9572599792
  0
LINE
  5
334
100
AcDbEntity
  8
0
100
AcDbLine
 62
2
  6
CONTINUOUS
 10
329.7524230957
 20
18.8822616577
 11
329.7524230957
 21
17.6489282227
  0
LINE
  5
335
100
AcDbEntity
  8
0
100
AcDbLine
 62
2
  6
CONTINUOUS
 10
331.0300854492
 20
17.6489282227
 11
331.0300854492
 21
19.4989283752
  0
LINE
  5
336
100
AcDbEntity
  8
0
100
AcDbLine
 62
2
  6
CONTINUOUS
 10
330.735234375
 20
18.7280941772
 11
331.3249365234
 21
18.7280941772
  0
LWPOLYLINE
  5
337
100
AcDbEntity
  8
0
100
AcDbPolyline
 62
2
  6
CONTINUOUS
 90
10
 70
0
 10
333.7819775391
 20
18.4197592163
 10
333.9785192871
 20
18.7280941772
 10
334.1750866699
 20
18.8822616577
 10
334.3716540527
 20
18.7280941772
 10
334.5682214355
 20
18.4197592163
 10
334.5682214355
 20
18.1114274597
 10
334.3716540527
 20
17.8030924988
 10
334.1750866699
 20
17.6489282227
 10
333.9785192871
 20
17.6489282227
 10
333.7819775391
 20
18.1114274597
  0
LINE
  5
338
100
AcDbEntity
  8
0
100
AcDbLine
 62
2
  6
CONTINUOUS
 10
333.7819775391
 20
18.8822616577
 11
333.7819775391
 21
17.0322615051
  0
LINE
  5
339
100
AcDbEntity
  8
0
100
AcDbLine
 62
2
  6
CONTINUOUS
 10
335.4527490234
 20
17.6489282227
 11
335.4527490234
 21
18.8822616577
  0
LWPOLYLINE
  5
33A
100
AcDbEntity
  8
0
100
AcDbPolyline
 62
2
  6
CONTINUOUS
 90
4
 70
0
 10
335.4527490234
 20
18.5739266968
 10
335.6493164062
 20
18.8822616577
 10
335.8458837891
 20
18.8822616577
 10
335.9441418457
 20
18.7280941772
  0
LINE
  5
33B
100
AcDbEntity
  8
0
100
AcDbLine
 62
2
  6
CONTINUOUS
 10
337.3200878906
 20
19.4989283752
 11
337.3200878906
 21
19.3447608948
  0
LINE
  5
33C
100
AcDbEntity
  8
0
100
AcDbLine
 62
2
  6
CONTINUOUS
 10
337.3200878906
 20
18.8822616577
 11
337.3200878906
 21
17.6489282227
  0
LWPOLYLINE
  5
33D
100
AcDbEntity
  8
0
100
AcDbPolyline
 62
2
  6
CONTINUOUS
 90
11
 70
0
 10
339.2857104492
 20
18.1114274597
 10
339.0891430664
 20
17.8030924988
 10
338.8926013184
 20
17.6489282227
 10
338.6960339355
 20
17.8030924988
 10
338.4994665527
 20
18.1114274597
 10
338.4994665527
 20
18.4197592163
 10
338.6960339355
 20
18.7280941772
 10
338.8926013184
 20
18.8822616577
 10
339.0891430664
 20
18.7280941772
 10
339.2857104492
 20
18.4197592163
 10
339.2857104492
 20
18.1114274597
  0
LINE
  5
33E
100
AcDbEntity
  8
0
100
AcDbLine
 62
2
  6
CONTINUOUS
 10
340.1702380371
 20
17.6489282227
 11
340.1702380371
 21
18.8822616577
  0
LWPOLYLINE
  5
33F
100
AcDbEntity
  8
0
100
AcDbPolyline
 62
2
  6
CONTINUOUS
 90
4
 70
0
 10
340.1702380371
 20
18.5739266968
 10
340.3668054199
 20
18.8822616577
 10
340.5633728027
 20
18.8822616577
 10
340.6616564941
 20
18.7280941772
  0
LWPOLYLINE
  5
340
100
AcDbEntity
  8
0
100
AcDbPolyline
 62
2
  6
CONTINUOUS
 90
10
 70
0
 10
344.0032250977
 20
18.1114274597
 10
343.8066577148
 20
17.8030924988
 10
343.610090332
 20
17.6489282227
 10
343.4135229492
 20
17.8030924988
 10
343.2169555664
 20
18.1114274597
 10
343.2169555664
 20
18.4197592163
 10
343.4135229492
 20
18.7280941772
 10
343.610090332
 20
18.8822616577
 10
343.8066577148
 20
18.7280941772
 10
344.0032250977
 20
18.4197592163
  0
LINE
  5
341
100
AcDbEntity
  8
0
100
AcDbLine
 62
2
  6
CONTINUOUS
 10
344.0032250977
 20
18.8822616577
 11
344.0032250977
 21
17.6489282227
  0
LWPOLYLINE
  5
342
100
AcDbEntity
  8
0
100
AcDbPolyline
 62
2
  6
CONTINUOUS
 90
5
 70
0
 10
344.8877526855
 20
18.8822616577
 10
344.8877526855
 20
17.9572599792
 10
345.0843200684
 20
17.6489282227
 10
345.2808618164
 20
17.6489282227
 10
345.4774291992
 20
17.9572599792
  0
LINE
  5
343
100
AcDbEntity
  8
0
100
AcDbLine
 62
2
  6
CONTINUOUS
 10
345.4774291992
 20
18.8822616577
 11
345.4774291992
 21
17.6489282227
  0
LINE
  5
344
100
AcDbEntity
  8
0
100
AcDbLine
 62
2
  6
CONTINUOUS
 10
346.7550915527
 20
17.6489282227
 11
346.7550915527
 21
19.4989283752
  0
LINE
  5
345
100
AcDbEntity
  8
0
100
AcDbLine
 62
2
  6
CONTINUOUS
 10
346.4602404785
 20
18.7280941772
 11
347.049942627
 21
18.7280941772
  0
LINE
  5
346
100
AcDbEntity
  8
0
100
AcDbLine
 62
2
  6
CONTINUOUS
 10
348.0327539062
 20
17.6489282227
 11
348.0327539062
 21
19.4989283752
  0
LWPOLYLINE
  5
347
100
AcDbEntity
  8
0
100
AcDbPolyline
 62
2
  6
CONTINUOUS
 90
7
 70
0
 10
348.0327539062
 20
18.5739266968
 10
348.0327539062
 20
18.7280941772
 10
348.2293212891
 20
18.8822616577
 10
348.3275793457
 20
18.8822616577
 10
348.4258630371
 20
18.8822616577
 10
348.6224304199
 20
18.5739266968
 10
348.6224304199
 20
17.6489282227
  0
LWPOLYLINE
  5
348
100
AcDbEntity
  8
0
100
AcDbPolyline
 62
2
  6
CONTINUOUS
 90
11
 70
0
 10
350.2932275391
 20
18.1114274597
 10
350.0966601562
 20
17.8030924988
 10
349.9000927734
 20
17.6489282227
 10
349.7035253906
 20
17.8030924988
 10
349.5069580078
 20
18.1114274597
 10
349.5069580078
 20
18.4197592163
 10
349.7035253906
 20
18.7280941772
 10
349.9000927734
 20
18.8822616577
 10
350.0966601562
 20
18.7280941772
 10
350.2932275391
 20
18.4197592163
 10
350.2932275391
 20
18.1114274597
  0
LINE
  5
349
100
AcDbEntity
  8
0
100
AcDbLine
 62
2
  6
CONTINUOUS
 10
351.177755127
 20
17.6489282227
 11
351.177755127
 21
18.8822616577
  0
LWPOLYLINE
  5
34A
100
AcDbEntity
  8
0
100
AcDbPolyline
 62
2
  6
CONTINUOUS
 90
4
 70
0
 10
351.177755127
 20
18.5739266968
 10
351.374296875
 20
18.8822616577
 10
351.5708642578
 20
18.8822616577
 10
351.6691479492
 20
18.7280941772
  0
LINE
  5
34B
100
AcDbEntity
  8
0
100
AcDbLine
 62
2
  6
CONTINUOUS
 10
353.0450939941
 20
19.4989283752
 11
353.0450939941
 21
19.3447608948
  0
LINE
  5
34C
100
AcDbEntity
  8
0
100
AcDbLine
 62
2
  6
CONTINUOUS
 10
353.0450939941
 20
18.8822616577
 11
353.0450939941
 21
17.6489282227
  0
LWPOLYLINE
  5
34D
100
AcDbEntity
  8
0
100
AcDbPolyline
 62
2
  6
CONTINUOUS
 90
14
 70
0
 10
354.8141491699
 20
18.7280941772
 10
354.7158654785
 20
18.8822616577
 10
354.5192980957
 20
18.8822616577
 10
354.4210400391
 20
18.7280941772
 10
354.4210400391
 20
18.5739266968
 10
354.6175817871
 20
18.4197592163
 10
354.8141491699
 20
18.2655949402
 10
354.9124328613
 20
18.1114274597
 10
354.9124328613
 20
17.9572599792
 10
354.8141491699
 20
17.8030924988
 10
354.7158654785
 20
17.6489282227
 10
354.5192980957
 20
17.6489282227
 10
354.4210400391
 20
17.8030924988
 10
354.3227563477
 20
17.9572599792
  0
LWPOLYLINE
  5
34E
100
AcDbEntity
  8
0
100
AcDbPolyline
 62
2
  6
CONTINUOUS
 90
10
 70
0
 10
356.5832043457
 20
18.1114274597
 10
356.3866625977
 20
17.8030924988
 10
356.1900952148
 20
17.6489282227
 10
355.993527832
 20
17.8030924988
 10
355.7969604492
 20
18.1114274597
 10
355.7969604492
 20
18.4197592163
 10
355.993527832
 20
18.7280941772
 10
356.1900952148
 20
18.8822616577
 10
356.3866625977
 20
18.7280941772
 10
356.5832043457
 20
18.4197592163
  0
LINE
  5
34F
100
AcDbEntity
  8
0
100
AcDbLine
 62
2
  6
CONTINUOUS
 10
356.5832043457
 20
18.8822616577
 11
356.5832043457
 21
17.6489282227
  0
LINE
  5
350
100
AcDbEntity
  8
0
100
AcDbLine
 62
2
  6
CONTINUOUS
 10
357.7625830078
 20
17.6489282227
 11
357.7625830078
 21
19.4989283752
  0
LINE
  5
351
100
AcDbEntity
  8
0
100
AcDbLine
 62
2
  6
CONTINUOUS
 10
357.4677575684
 20
18.7280941772
 11
358.057434082
 21
18.7280941772
  0
LINE
  5
352
100
AcDbEntity
  8
0
100
AcDbLine
 62
2
  6
CONTINUOUS
 10
359.3350964355
 20
19.4989283752
 11
359.3350964355
 21
19.3447608948
  0
LINE
  5
353
100
AcDbEntity
  8
0
100
AcDbLine
 62
2
  6
CONTINUOUS
 10
359.3350964355
 20
18.8822616577
 11
359.3350964355
 21
17.6489282227
  0
LWPOLYLINE
  5
354
100
AcDbEntity
  8
0
100
AcDbPolyline
 62
2
  6
CONTINUOUS
 90
11
 70
0
 10
361.3007189941
 20
18.1114274597
 10
361.1041516113
 20
17.8030924988
 10
360.9075842285
 20
17.6489282227
 10
360.7110168457
 20
17.8030924988
 10
360.5144750977
 20
18.1114274597
 10
360.5144750977
 20
18.4197592163
 10
360.7110168457
 20
18.7280941772
 10
360.9075842285
 20
18.8822616577
 10
361.1041516113
 20
18.7280941772
 10
361.3007189941
 20
18.4197592163
 10
361.3007189941
 20
18.1114274597
  0
LINE
  5
355
100
AcDbEntity
  8
0
100
AcDbLine
 62
2
  6
CONTINUOUS
 10
362.185246582
 20
17.6489282227
 11
362.185246582
 21
18.8822616577
  0
LWPOLYLINE
  5
356
100
AcDbEntity
  8
0
100
AcDbPolyline
 62
2
  6
CONTINUOUS
 90
5
 70
0
 10
362.185246582
 20
18.5739266968
 10
362.3818139648
 20
18.8822616577
 10
362.5783813477
 20
18.8822616577
 10
362.7749230957
 20
18.5739266968
 10
362.7749230957
 20
17.6489282227
  0
LWPOLYLINE
  5
357
100
AcDbEntity
  8
0
100
AcDbPolyline
 62
2
  6
CONTINUOUS
 90
11
 70
0
 10
366.0182080078
 20
18.1114274597
 10
365.821640625
 20
17.8030924988
 10
365.625098877
 20
17.6489282227
 10
365.4285314941
 20
17.8030924988
 10
365.2319641113
 20
18.1114274597
 10
365.2319641113
 20
18.4197592163
 10
365.4285314941
 20
18.7280941772
 10
365.625098877
 20
18.8822616577
 10
365.821640625
 20
18.7280941772
 10
366.0182080078
 20
18.4197592163
 10
366.0182080078
 20
18.1114274597
  0
LWPOLYLINE
  5
358
100
AcDbEntity
  8
0
100
AcDbPolyline
 62
2
  6
CONTINUOUS
 90
5
 70
0
 10
367.1975866699
 20
17.6489282227
 10
367.1975866699
 20
19.1905934143
 10
367.3941540527
 20
19.4989283752
 10
367.4924377441
 20
19.4989283752
 10
367.5907214355
 20
19.3447608948
  0
LINE
  5
359
100
AcDbEntity
  8
0
100
AcDbLine
 62
2
  6
CONTINUOUS
 10
367.0010192871
 20
18.7280941772
 11
367.3941540527
 21
18.7280941772
  0
LWPOLYLINE
  5
35A
100
AcDbEntity
  8
0
100
AcDbPolyline
 62
2
  6
CONTINUOUS
 90
3
 70
0
 10
369.949453125
 20
19.4989283752
 10
369.949453125
 20
17.6489282227
 10
370.7357226563
 20
17.6489282227
  0
LWPOLYLINE
  5
35B
100
AcDbEntity
  8
0
100
AcDbPolyline
 62
2
  6
CONTINUOUS
 90
19
 70
0
 10
373.9790075684
 20
18.1114274597
 10
373.880723877
 20
17.9572599792
 10
373.7824401855
 20
17.8030924988
 10
373.5858728027
 20
17.6489282227
 10
373.3893054199
 20
17.6489282227
 10
373.1927380371
 20
17.8030924988
 10
373.0944543457
 20
17.9572599792
 10
373.0944543457
 20
18.2655949402
 10
373.4875891113
 20
18.7280941772
 10
373.6841564941
 20
19.0364259338
 10
373.6841564941
 20
19.3447608948
 10
373.5858728027
 20
19.4989283752
 10
373.3893054199
 20
19.4989283752
 10
373.2910217285
 20
19.3447608948
 10
373.2910217285
 20
19.0364259338
 10
373.4875891113
 20
18.7280941772
 10
373.880723877
 20
17.9572599792
 10
373.9790075684
 20
17.8030924988
 10
374.077265625
 20
17.8030924988
  0
LWPOLYLINE
  5
35C
100
AcDbEntity
  8
0
100
AcDbPolyline
 62
2
  6
CONTINUOUS
 90
3
 70
0
 10
376.2394555664
 20
19.4989283752
 10
376.2394555664
 20
17.6489282227
 10
377.0257250977
 20
17.6489282227
  0
LWPOLYLINE
  5
35D
100
AcDbEntity
  8
0
100
AcDbPolyline
 62
2
  6
CONTINUOUS
 90
3
 70
0
 10
379.3844567871
 20
19.4989283752
 10
379.3844567871
 20
17.6489282227
 10
380.1707263184
 20
17.6489282227
  0
LWPOLYLINE
  5
35E
100
AcDbEntity
  8
0
100
AcDbPolyline
 62
2
  6
CONTINUOUS
 90
5
 70
0
 10
381.0552539062
 20
18.8822616577
 10
381.0552539062
 20
17.9572599792
 10
381.2518212891
 20
17.6489282227
 10
381.4483630371
 20
17.6489282227
 10
381.6449304199
 20
17.9572599792
  0
LINE
  5
35F
100
AcDbEntity
  8
0
100
AcDbLine
 62
2
  6
CONTINUOUS
 10
381.6449304199
 20
18.8822616577
 11
381.6449304199
 21
17.6489282227
  0
LWPOLYLINE
  5
360
100
AcDbEntity
  8
0
100
AcDbPolyline
 62
2
  6
CONTINUOUS
 90
8
 70
0
 10
383.1191601562
 20
17.8030924988
 10
382.9225927734
 20
17.6489282227
 10
382.7260253906
 20
17.8030924988
 10
382.5294580078
 20
18.1114274597
 10
382.5294580078
 20
18.4197592163
 10
382.7260253906
 20
18.7280941772
 10
382.9225927734
 20
18.8822616577
 10
383.1191601562
 20
18.7280941772
  0
LWPOLYLINE
  5
361
100
AcDbEntity
  8
0
100
AcDbPolyline
 62
2
  6
CONTINUOUS
 90
11
 70
0
 10
384.7899316406
 20
17.9572599792
 10
384.6916479492
 20
17.8030924988
 10
384.4950805664
 20
17.6489282227
 10
384.2985388184
 20
17.8030924988
 10
384.1019714355
 20
18.1114274597
 10
384.1019714355
 20
18.4197592163
 10
384.2985388184
 20
18.7280941772
 10
384.4950805664
 20
18.8822616577
 10
384.6916479492
 20
18.7280941772
 10
384.7899316406
 20
18.4197592163
 10
384.1019714355
 20
18.4197592163
  0
LWPOLYLINE
  5
362
100
AcDbEntity
  8
0
100
AcDbPolyline
 62
2
  6
CONTINUOUS
 90
19
 70
0
 10
388.1315002441
 20
18.1114274597
 10
388.0332165527
 20
17.9572599792
 10
387.9349328613
 20
17.8030924988
 10
387.7383654785
 20
17.6489282227
 10
387.5417980957
 20
17.6489282227
 10
387.3452563477
 20
17.8030924988
 10
387.2469726562
 20
17.9572599792
 10
387.2469726562
 20
18.2655949402
 10
387.6400817871
 20
18.7280941772
 10
387.8366491699
 20
19.0364259338
 10
387.8366491699
 20
19.3447608948
 10
387.7383654785
 20
19.4989283752
 10
387.5417980957
 20
19.4989283752
 10
387.4435400391
 20
19.3447608948
 10
387.4435400391
 20
19.0364259338
 10
387.6400817871
 20
18.7280941772
 10
388.0332165527
 20
17.9572599792
 10
388.1315002441
 20
17.8030924988
 10
388.2297839355
 20
17.8030924988
  0
LWPOLYLINE
  5
363
100
AcDbEntity
  8
0
100
AcDbPolyline
 62
2
  6
CONTINUOUS
 90
3
 70
0
 10
390.391973877
 20
19.4989283752
 10
390.391973877
 20
17.6489282227
 10
391.1782177734
 20
17.6489282227
  0
LINE
  5
364
100
AcDbEntity
  8
0
100
AcDbLine
 62
2
  6
CONTINUOUS
 10
392.3575964355
 20
19.4989283752
 11
392.3575964355
 21
19.3447608948
  0
LINE
  5
365
100
AcDbEntity
  8
0
100
AcDbLine
 62
2
  6
CONTINUOUS
 10
392.3575964355
 20
18.8822616577
 11
392.3575964355
 21
17.6489282227
  0
LWPOLYLINE
  5
366
100
AcDbEntity
  8
0
100
AcDbPolyline
 62
2
  6
CONTINUOUS
 90
10
 70
0
 10
394.3232189941
 20
18.1114274597
 10
394.1266516113
 20
17.8030924988
 10
393.9300842285
 20
17.6489282227
 10
393.7335168457
 20
17.8030924988
 10
393.5369750977
 20
18.1114274597
 10
393.5369750977
 20
18.4197592163
 10
393.7335168457
 20
18.7280941772
 10
393.9300842285
 20
18.8822616577
 10
394.1266516113
 20
18.7280941772
 10
394.3232189941
 20
18.4197592163
  0
LWPOLYLINE
  5
367
100
AcDbEntity
  8
0
100
AcDbPolyline
 62
2
  6
CONTINUOUS
 90
6
 70
0
 10
394.3232189941
 20
18.8822616577
 10
394.3232189941
 20
17.4947607422
 10
394.2249353027
 20
17.1864257812
 10
394.1266516113
 20
17.0322615051
 10
393.7335168457
 20
17.0322615051
 10
393.6352587891
 20
17.1864257812
  0
LINE
  5
368
100
AcDbEntity
  8
0
100
AcDbLine
 62
2
  6
CONTINUOUS
 10
395.207746582
 20
17.6489282227
 11
395.207746582
 21
19.4989283752
  0
LWPOLYLINE
  5
369
100
AcDbEntity
  8
0
100
AcDbPolyline
 62
2
  6
CONTINUOUS
 90
7
 70
0
 10
395.207746582
 20
18.5739266968
 10
395.207746582
 20
18.7280941772
 10
395.4043139648
 20
18.8822616577
 10
395.5025976562
 20
18.8822616577
 10
395.6008813477
 20
18.8822616577
 10
395.7974230957
 20
18.5739266968
 10
395.7974230957
 20
17.6489282227
  0
LINE
  5
36A
100
AcDbEntity
  8
0
100
AcDbLine
 62
2
  6
CONTINUOUS
 10
397.0750854492
 20
17.6489282227
 11
397.0750854492
 21
19.4989283752
  0
LINE
  5
36B
100
AcDbEntity
  8
0
100
AcDbLine
 62
2
  6
CONTINUOUS
 10
396.780234375
 20
18.7280941772
 11
397.3699365234
 21
18.7280941772
  0
LWPOLYLINE
  5
36C
100
AcDbEntity
  8
0
100
AcDbPolyline
 62
2
  6
CONTINUOUS
 90
14
 70
0
 10
400.4166540527
 20
18.7280941772
 10
400.3183703613
 20
18.8822616577
 10
400.1218029785
 20
18.8822616577
 10
400.0235192871
 20
18.7280941772
 10
400.0235192871
 20
18.5739266968
 10
400.2200866699
 20
18.4197592163
 10
400.4166540527
 20
18.2655949402
 10
400.5149377441
 20
18.1114274597
 10
400.5149377441
 20
17.9572599792
 10
400.4166540527
 20
17.8030924988
 10
400.3183703613
 20
17.6489282227
 10
400.1218029785
 20
17.6489282227
 10
400.0235192871
 20
17.8030924988
 10
399.9252355957
 20
17.9572599792
  0
LWPOLYLINE
  5
36D
100
AcDbEntity
  8
0
100
AcDbPolyline
 62
2
  6
CONTINUOUS
 90
4
 70
0
 10
401.7926000977
 20
17.6489282227
 10
401.6943164062
 20
17.6489282227
 10
401.6943164062
 20
17.8030924988
 10
401.7926000977
 20
17.6489282227
  0
LINE
  5
36E
100
AcDbEntity
  8
0
100
AcDbLine
 62
2
  6
CONTINUOUS
 10
403.0702368164
 20
17.6489282227
 11
403.0702368164
 21
18.8822616577
  0
LWPOLYLINE
  5
36F
100
AcDbEntity
  8
0
100
AcDbPolyline
 62
2
  6
CONTINUOUS
 90
4
 70
0
 10
403.0702368164
 20
18.5739266968
 10
403.2668041992
 20
18.8822616577
 10
403.463371582
 20
18.8822616577
 10
403.5616552734
 20
18.7280941772
  0
LWPOLYLINE
  5
370
100
AcDbEntity
  8
0
100
AcDbPolyline
 62
2
  6
CONTINUOUS
 90
4
 70
0
 10
404.9376013184
 20
17.6489282227
 10
404.839317627
 20
17.6489282227
 10
404.839317627
 20
17.8030924988
 10
404.9376013184
 20
17.6489282227
  0
LINE
  5
371
100
AcDbEntity
  8
0
100
AcDbLine
 62
2
  6
CONTINUOUS
 10
406.5100891113
 20
17.6489282227
 11
406.5100891113
 21
19.4989283752
  0
LWPOLYLINE
  5
372
100
AcDbEntity
  8
0
100
AcDbPolyline
 62
2
  6
CONTINUOUS
 90
4
 70
0
 10
408.0826025391
 20
17.6489282227
 10
407.9843188477
 20
17.6489282227
 10
407.9843188477
 20
17.8030924988
 10
408.0826025391
 20
17.6489282227
  0
LWPOLYLINE
  5
373
100
AcDbEntity
  8
0
100
AcDbPolyline
 62
2
  6
CONTINUOUS
 90
5
 70
0
 10
409.655090332
 20
17.6489282227
 10
409.5568066406
 20
17.8030924988
 10
409.655090332
 20
17.8030924988
 10
409.655090332
 20
17.6489282227
 10
409.4585229492
 20
17.3405932617
  0
LINE
  5
374
100
AcDbEntity
  8
0
100
AcDbLine
 62
2
  6
CONTINUOUS
 10
321.5950817871
 20
16.7239265442
 11
321.5950817871
 21
16.5697590637
  0
LINE
  5
375
100
AcDbEntity
  8
0
100
AcDbLine
 62
2
  6
CONTINUOUS
 10
321.5950817871
 20
16.1072598267
 11
321.5950817871
 21
14.8739263916
  0
LINE
  5
376
100
AcDbEntity
  8
0
100
AcDbLine
 62
2
  6
CONTINUOUS
 10
322.8727441406
 20
14.8739263916
 11
322.8727441406
 21
16.1072598267
  0
LWPOLYLINE
  5
377
100
AcDbEntity
  8
0
100
AcDbPolyline
 62
2
  6
CONTINUOUS
 90
5
 70
0
 10
322.8727441406
 20
15.7989280701
 10
323.0693115234
 20
16.1072598267
 10
323.2658789063
 20
16.1072598267
 10
323.4624462891
 20
15.7989280701
 10
323.4624462891
 20
14.8739263916
  0
LWPOLYLINE
  5
378
100
AcDbEntity
  8
0
100
AcDbPolyline
 62
2
  6
CONTINUOUS
 90
10
 70
0
 10
326.7057055664
 20
15.3364256287
 10
326.5091638184
 20
15.0280938721
 10
326.3125964355
 20
14.8739263916
 10
326.1160290527
 20
15.0280938721
 10
325.9194616699
 20
15.3364256287
 10
325.9194616699
 20
15.6447605896
 10
326.1160290527
 20
15.9530923462
 10
326.3125964355
 20
16.1072598267
 10
326.5091638184
 20
15.9530923462
 10
326.7057055664
 20
15.6447605896
  0
LINE
  5
379
100
AcDbEntity
  8
0
100
AcDbLine
 62
2
  6
CONTINUOUS
 10
326.7057055664
 20
16.1072598267
 11
326.7057055664
 21
14.8739263916
  0
LWPOLYLINE
  5
37A
100
AcDbEntity
  8
0
100
AcDbPolyline
 62
2
  6
CONTINUOUS
 90
8
 70
0
 10
328.0816516113
 20
15.0280938721
 10
327.8850842285
 20
14.8739263916
 10
327.6885168457
 20
15.0280938721
 10
327.4919750977
 20
15.3364256287
 10
327.4919750977
 20
15.6447605896
 10
327.6885168457
 20
15.9530923462
 10
327.8850842285
 20
16.1072598267
 10
328.0816516113
 20
15.9530923462
  0
LWPOLYLINE
  5
37B
100
AcDbEntity
  8
0
100
AcDbPolyline
 62
2
  6
CONTINUOUS
 90
8
 70
0
 10
329.6541650391
 20
15.0280938721
 10
329.4575976563
 20
14.8739263916
 10
329.2610302734
 20
15.0280938721
 10
329.0644628906
 20
15.3364256287
 10
329.0644628906
 20
15.6447605896
 10
329.2610302734
 20
15.9530923462
 10
329.4575976563
 20
16.1072598267
 10
329.6541650391
 20
15.9530923462
  0
LWPOLYLINE
  5
37C
100
AcDbEntity
  8
0
100
AcDbPolyline
 62
2
  6
CONTINUOUS
 90
11
 70
0
 10
331.4232202148
 20
15.3364256287
 10
331.226652832
 20
15.0280938721
 10
331.0300854492
 20
14.8739263916
 10
330.8335180664
 20
15.0280938721
 10
330.6369763184
 20
15.3364256287
 10
330.6369763184
 20
15.6447605896
 10
330.8335180664
 20
15.9530923462
 10
331.0300854492
 20
16.1072598267
 10
331.226652832
 20
15.9530923462
 10
331.4232202148
 20
15.6447605896
 10
331.4232202148
 20
15.3364256287
  0
LINE
  5
37D
100
AcDbEntity
  8
0
100
AcDbLine
 62
2
  6
CONTINUOUS
 10
332.3077478027
 20
14.8739263916
 11
332.3077478027
 21
16.1072598267
  0
LWPOLYLINE
  5
37E
100
AcDbEntity
  8
0
100
AcDbPolyline
 62
2
  6
CONTINUOUS
 90
4
 70
0
 10
332.3077478027
 20
15.7989280701
 10
332.5043151855
 20
16.1072598267
 10
332.7008825684
 20
16.1072598267
 10
332.799140625
 20
15.9530923462
  0
LWPOLYLINE
  5
37F
100
AcDbEntity
  8
0
100
AcDbPolyline
 62
2
  6
CONTINUOUS
 90
10
 70
0
 10
334.5682214355
 20
15.3364256287
 10
334.3716540527
 20
15.0280938721
 10
334.1750866699
 20
14.8739263916
 10
333.9785192871
 20
15.0280938721
 10
333.7819775391
 20
15.3364256287
 10
333.7819775391
 20
15.6447605896
 10
333.9785192871
 20
15.9530923462
 10
334.1750866699
 20
16.1072598267
 10
334.3716540527
 20
15.9530923462
 10
334.5682214355
 20
15.6447605896
  0
LINE
  5
380
100
AcDbEntity
  8
0
100
AcDbLine
 62
2
  6
CONTINUOUS
 10
334.5682214355
 20
16.7239265442
 11
334.5682214355
 21
14.8739263916
  0
LWPOLYLINE
  5
381
100
AcDbEntity
  8
0
100
AcDbPolyline
 62
2
  6
CONTINUOUS
 90
10
 70
0
 10
336.1407092285
 20
15.3364256287
 10
335.9441418457
 20
15.0280938721
 10
335.7476000977
 20
14.8739263916
 10
335.5510327148
 20
15.0280938721
 10
335.354465332
 20
15.3364256287
 10
335.354465332
 20
15.6447605896
 10
335.5510327148
 20
15.9530923462
 10
335.7476000977
 20
16.1072598267
 10
335.9441418457
 20
15.9530923462
 10
336.1407092285
 20
15.6447605896
  0
LINE
  5
382
100
AcDbEntity
  8
0
100
AcDbLine
 62
2
  6
CONTINUOUS
 10
336.1407092285
 20
16.1072598267
 11
336.1407092285
 21
14.8739263916
  0
LINE
  5
383
100
AcDbEntity
  8
0
100
AcDbLine
 62
2
  6
CONTINUOUS
 10
337.0252368164
 20
14.8739263916
 11
337.0252368164
 21
16.1072598267
  0
LWPOLYLINE
  5
384
100
AcDbEntity
  8
0
100
AcDbPolyline
 62
2
  6
CONTINUOUS
 90
5
 70
0
 10
337.0252368164
 20
15.7989280701
 10
337.2218041992
 20
16.1072598267
 10
337.418371582
 20
16.1072598267
 10
337.6149389648
 20
15.7989280701
 10
337.6149389648
 20
14.8739263916
  0
LWPOLYLINE
  5
385
100
AcDbEntity
  8
0
100
AcDbPolyline
 62
2
  6
CONTINUOUS
 90
8
 70
0
 10
339.0891430664
 20
15.0280938721
 10
338.8926013184
 20
14.8739263916
 10
338.6960339355
 20
15.0280938721
 10
338.4994665527
 20
15.3364256287
 10
338.4994665527
 20
15.6447605896
 10
338.6960339355
 20
15.9530923462
 10
338.8926013184
 20
16.1072598267
 10
339.0891430664
 20
15.9530923462
  0
LWPOLYLINE
  5
386
100
AcDbEntity
  8
0
100
AcDbPolyline
 62
2
  6
CONTINUOUS
 90
11
 70
0
 10
340.7599401855
 20
15.1822613525
 10
340.6616564941
 20
15.0280938721
 10
340.4650891113
 20
14.8739263916
 10
340.2685217285
 20
15.0280938721
 10
340.0719543457
 20
15.3364256287
 10
340.0719543457
 20
15.6447605896
 10
340.2685217285
 20
15.9530923462
 10
340.4650891113
 20
16.1072598267
 10
340.6616564941
 20
15.9530923462
 10
340.7599401855
 20
15.6447605896
 10
340.0719543457
 20
15.6447605896
  0
LWPOLYLINE
  5
387
100
AcDbEntity
  8
0
100
AcDbPolyline
 62
2
  6
CONTINUOUS
 90
5
 70
0
 10
343.118671875
 20
16.1072598267
 10
343.3152392578
 20
14.8739263916
 10
343.610090332
 20
16.1072598267
 10
343.8066577148
 20
14.8739263916
 10
344.1015087891
 20
16.1072598267
  0
LINE
  5
388
100
AcDbEntity
  8
0
100
AcDbLine
 62
2
  6
CONTINUOUS
 10
345.182578125
 20
16.7239265442
 11
345.182578125
 21
16.5697590637
  0
LINE
  5
389
100
AcDbEntity
  8
0
100
AcDbLine
 62
2
  6
CONTINUOUS
 10
345.182578125
 20
16.1072598267
 11
345.182578125
 21
14.8739263916
  0
LINE
  5
38A
100
AcDbEntity
  8
0
100
AcDbLine
 62
2
  6
CONTINUOUS
 10
346.7550915527
 20
14.8739263916
 11
346.7550915527
 21
16.7239265442
  0
LINE
  5
38B
100
AcDbEntity
  8
0
100
AcDbLine
 62
2
  6
CONTINUOUS
 10
346.4602404785
 20
15.9530923462
 11
347.049942627
 21
15.9530923462
  0
LINE
  5
38C
100
AcDbEntity
  8
0
100
AcDbLine
 62
2
  6
CONTINUOUS
 10
348.0327539062
 20
14.8739263916
 11
348.0327539062
 21
16.7239265442
  0
LWPOLYLINE
  5
38D
100
AcDbEntity
  8
0
100
AcDbPolyline
 62
2
  6
CONTINUOUS
 90
7
 70
0
 10
348.0327539062
 20
15.7989280701
 10
348.0327539062
 20
15.9530923462
 10
348.2293212891
 20
16.1072598267
 10
348.3275793457
 20
16.1072598267
 10
348.4258630371
 20
16.1072598267
 10
348.6224304199
 20
15.7989280701
 10
348.6224304199
 20
14.8739263916
  0
LINE
  5
38E
100
AcDbEntity
  8
0
100
AcDbLine
 62
2
  6
CONTINUOUS
 10
351.4725805664
 20
14.8739263916
 11
351.4725805664
 21
16.7239265442
  0
LINE
  5
38F
100
AcDbEntity
  8
0
100
AcDbLine
 62
2
  6
CONTINUOUS
 10
351.177755127
 20
15.9530923462
 11
351.7674316406
 21
15.9530923462
  0
LINE
  5
390
100
AcDbEntity
  8
0
100
AcDbLine
 62
2
  6
CONTINUOUS
 10
352.7502429199
 20
14.8739263916
 11
352.7502429199
 21
16.7239265442
  0
LWPOLYLINE
  5
391
100
AcDbEntity
  8
0
100
AcDbPolyline
 62
2
  6
CONTINUOUS
 90
7
 70
0
 10
352.7502429199
 20
15.7989280701
 10
352.7502429199
 20
15.9530923462
 10
352.9468103027
 20
16.1072598267
 10
353.0450939941
 20
16.1072598267
 10
353.1433776855
 20
16.1072598267
 10
353.3399450684
 20
15.7989280701
 10
353.3399450684
 20
14.8739263916
  0
LWPOLYLINE
  5
392
100
AcDbEntity
  8
0
100
AcDbPolyline
 62
2
  6
CONTINUOUS
 90
11
 70
0
 10
354.9124328613
 20
15.1822613525
 10
354.8141491699
 20
15.0280938721
 10
354.6175817871
 20
14.8739263916
 10
354.4210400391
 20
15.0280938721
 10
354.2244726562
 20
15.3364256287
 10
354.2244726562
 20
15.6447605896
 10
354.4210400391
 20
15.9530923462
 10
354.6175817871
 20
16.1072598267
 10
354.8141491699
 20
15.9530923462
 10
354.9124328613
 20
15.6447605896
 10
354.2244726562
 20
15.6447605896
  0
LINE
  5
393
100
AcDbEntity
  8
0
100
AcDbLine
 62
2
  6
CONTINUOUS
 10
357.7625830078
 20
14.8739263916
 11
357.7625830078
 21
16.7239265442
  0
LWPOLYLINE
  5
394
100
AcDbEntity
  8
0
100
AcDbPolyline
 62
2
  6
CONTINUOUS
 90
10
 70
0
 10
359.7282055664
 20
15.3364256287
 10
359.5316638184
 20
15.0280938721
 10
359.3350964355
 20
14.8739263916
 10
359.1385290527
 20
15.0280938721
 10
358.9419616699
 20
15.3364256287
 10
358.9419616699
 20
15.6447605896
 10
359.1385290527
 20
15.9530923462
 10
359.3350964355
 20
16.1072598267
 10
359.5316638184
 20
15.9530923462
 10
359.7282055664
 20
15.6447605896
  0
LINE
  5
395
100
AcDbEntity
  8
0
100
AcDbLine
 62
2
  6
CONTINUOUS
 10
359.7282055664
 20
16.1072598267
 11
359.7282055664
 21
14.8739263916
  0
LWPOLYLINE
  5
396
100
AcDbEntity
  8
0
100
AcDbPolyline
 62
2
  6
CONTINUOUS
 90
5
 70
0
 10
360.4161914062
 20
16.1072598267
 10
360.6127587891
 20
14.8739263916
 10
360.9075842285
 20
16.1072598267
 10
361.1041516113
 20
14.8739263916
 10
361.3990026855
 20
16.1072598267
  0
LINE
  5
397
100
AcDbEntity
  8
0
100
AcDbLine
 62
2
  6
CONTINUOUS
 10
364.0525854492
 20
16.7239265442
 11
364.0525854492
 21
16.5697590637
  0
LINE
  5
398
100
AcDbEntity
  8
0
100
AcDbLine
 62
2
  6
CONTINUOUS
 10
364.0525854492
 20
16.1072598267
 11
364.0525854492
 21
14.8739263916
  0
LINE
  5
399
100
AcDbEntity
  8
0
100
AcDbLine
 62
2
  6
CONTINUOUS
 10
365.3302478027
 20
14.8739263916
 11
365.3302478027
 21
16.1072598267
  0
LWPOLYLINE
  5
39A
100
AcDbEntity
  8
0
100
AcDbPolyline
 62
2
  6
CONTINUOUS
 90
5
 70
0
 10
365.3302478027
 20
15.7989280701
 10
365.5268151855
 20
16.1072598267
 10
365.7233825684
 20
16.1072598267
 10
365.9199243164
 20
15.7989280701
 10
365.9199243164
 20
14.8739263916
  0
LWPOLYLINE
  5
39B
100
AcDbEntity
  8
0
100
AcDbPolyline
 62
2
  6
CONTINUOUS
 90
5
 70
0
 10
368.7701000977
 20
14.8739263916
 10
368.7701000977
 20
16.4155947876
 10
368.9666418457
 20
16.7239265442
 10
369.0649255371
 20
16.7239265442
 10
369.1632092285
 20
16.5697590637
  0
LINE
  5
39C
100
AcDbEntity
  8
0
100
AcDbLine
 62
2
  6
CONTINUOUS
 10
368.5735327148
 20
15.9530923462
 11
368.9666418457
 21
15.9530923462
  0
LWPOLYLINE
  5
39D
100
AcDbEntity
  8
0
100
AcDbPolyline
 62
2
  6
CONTINUOUS
 90
11
 70
0
 10
370.7357226563
 20
15.3364256287
 10
370.5391552734
 20
15.0280938721
 10
370.3425878906
 20
14.8739263916
 10
370.1460205078
 20
15.0280938721
 10
369.949453125
 20
15.3364256287
 10
369.949453125
 20
15.6447605896
 10
370.1460205078
 20
15.9530923462
 10
370.3425878906
 20
16.1072598267
 10
370.5391552734
 20
15.9530923462
 10
370.7357226563
 20
15.6447605896
 10
370.7357226563
 20
15.3364256287
  0
LINE
  5
39E
100
AcDbEntity
  8
0
100
AcDbLine
 62
2
  6
CONTINUOUS
 10
371.6202502441
 20
14.8739263916
 11
371.6202502441
 21
16.1072598267
  0
LWPOLYLINE
  5
39F
100
AcDbEntity
  8
0
100
AcDbPolyline
 62
2
  6
CONTINUOUS
 90
4
 70
0
 10
371.6202502441
 20
15.7989280701
 10
371.816817627
 20
16.1072598267
 10
372.013359375
 20
16.1072598267
 10
372.1116430664
 20
15.9530923462
  0
LWPOLYLINE
  5
3A0
100
AcDbEntity
  8
0
100
AcDbPolyline
 62
2
  6
CONTINUOUS
 90
8
 70
0
 10
373.6841564941
 20
15.0280938721
 10
373.4875891113
 20
14.8739263916
 10
373.2910217285
 20
15.0280938721
 10
373.0944543457
 20
15.3364256287
 10
373.0944543457
 20
15.6447605896
 10
373.2910217285
 20
15.9530923462
 10
373.4875891113
 20
16.1072598267
 10
373.6841564941
 20
15.9530923462
  0
LWPOLYLINE
  5
3A1
100
AcDbEntity
  8
0
100
AcDbPolyline
 62
2
  6
CONTINUOUS
 90
11
 70
0
 10
375.3549279785
 20
15.1822613525
 10
375.2566442871
 20
15.0280938721
 10
375.0601025391
 20
14.8739263916
 10
374.8635351563
 20
15.0280938721
 10
374.6669677734
 20
15.3364256287
 10
374.6669677734
 20
15.6447605896
 10
374.8635351563
 20
15.9530923462
 10
375.0601025391
 20
16.1072598267
 10
375.2566442871
 20
15.9530923462
 10
375.3549279785
 20
15.6447605896
 10
374.6669677734
 20
15.6447605896
  0
LWPOLYLINE
  5
3A2
100
AcDbEntity
  8
0
100
AcDbPolyline
 62
2
  6
CONTINUOUS
 90
4
 70
0
 10
376.632590332
 20
14.8739263916
 10
376.5343066406
 20
14.8739263916
 10
376.5343066406
 20
15.0280938721
 10
376.632590332
 20
14.8739263916
  0
LWPOLYLINE
  5
3A3
100
AcDbEntity
  8
0
100
AcDbPolyline
 62
2
  6
CONTINUOUS
 90
3
 70
0
 10
321.1036889648
 20
12.0989277649
 10
321.5950817871
 20
13.9489279175
 10
322.0865002441
 20
12.0989277649
  0
LINE
  5
3A4
100
AcDbEntity
  8
0
100
AcDbLine
 62
2
  6
CONTINUOUS
 10
321.3002563477
 20
12.7155944824
 11
321.8899328613
 21
12.7155944824
  0
LINE
  5
3A5
100
AcDbEntity
  8
0
100
AcDbLine
 62
2
  6
CONTINUOUS
 10
323.1675952148
 20
12.0989277649
 11
323.1675952148
 21
13.9489279175
  0
LINE
  5
3A6
100
AcDbEntity
  8
0
100
AcDbLine
 62
2
  6
CONTINUOUS
 10
324.7400830078
 20
12.0989277649
 11
324.7400830078
 21
13.9489279175
  0
LINE
  5
3A7
100
AcDbEntity
  8
0
100
AcDbLine
 62
2
  6
CONTINUOUS
 10
327.5902587891
 20
12.0989277649
 11
327.5902587891
 21
13.3322612
  0
LWPOLYLINE
  5
3A8
100
AcDbEntity
  8
0
100
AcDbPolyline
 62
2
  6
CONTINUOUS
 90
4
 70
0
 10
327.5902587891
 20
13.023926239
 10
327.7868005371
 20
13.3322612
 10
327.9833679199
 20
13.3322612
 10
328.0816516113
 20
13.1780937195
  0
LINE
  5
3A9
100
AcDbEntity
  8
0
100
AcDbLine
 62
2
  6
CONTINUOUS
 10
329.4575976563
 20
13.9489279175
 11
329.4575976563
 21
13.794760437
  0
LINE
  5
3AA
100
AcDbEntity
  8
0
100
AcDbLine
 62
2
  6
CONTINUOUS
 10
329.4575976563
 20
13.3322612
 11
329.4575976563
 21
12.0989277649
  0
LWPOLYLINE
  5
3AB
100
AcDbEntity
  8
0
100
AcDbPolyline
 62
2
  6
CONTINUOUS
 90
10
 70
0
 10
331.4232202148
 20
12.561427002
 10
331.226652832
 20
12.2530952454
 10
331.0300854492
 20
12.0989277649
 10
330.8335180664
 20
12.2530952454
 10
330.6369763184
 20
12.561427002
 10
330.6369763184
 20
12.8697619629
 10
330.8335180664
 20
13.1780937195
 10
331.0300854492
 20
13.3322612
 10
331.226652832
 20
13.1780937195
 10
331.4232202148
 20
12.8697619629
  0
LWPOLYLINE
  5
3AC
100
AcDbEntity
  8
0
100
AcDbPolyline
 62
2
  6
CONTINUOUS
 90
6
 70
0
 10
331.4232202148
 20
13.3322612
 10
331.4232202148
 20
11.9447602844
 10
331.3249365234
 20
11.6364285278
 10
331.226652832
 20
11.4822610474
 10
330.8335180664
 20
11.4822610474
 10
330.735234375
 20
11.6364285278
  0
LINE
  5
3AD
100
AcDbEntity
  8
0
100
AcDbLine
 62
2
  6
CONTINUOUS
 10
332.3077478027
 20
12.0989277649
 11
332.3077478027
 21
13.9489279175
  0
LWPOLYLINE
  5
3AE
100
AcDbEntity
  8
0
100
AcDbPolyline
 62
2
  6
CONTINUOUS
 90
7
 70
0
 10
332.3077478027
 20
13.023926239
 10
332.3077478027
 20
13.1780937195
 10
332.5043151855
 20
13.3322612
 10
332.602598877
 20
13.3322612
 10
332.7008825684
 20
13.3322612
 10
332.8974243164
 20
13.023926239
 10
332.8974243164
 20
12.0989277649
  0
LINE
  5
3AF
100
AcDbEntity
  8
0
100
AcDbLine
 62
2
  6
CONTINUOUS
 10
334.1750866699
 20
12.0989277649
 11
334.1750866699
 21
13.9489279175
  0
LINE
  5
3B0
100
AcDbEntity
  8
0
100
AcDbLine
 62
2
  6
CONTINUOUS
 10
333.8802355957
 20
13.1780937195
 11
334.4699377441
 21
13.1780937195
  0
LWPOLYLINE
  5
3B1
100
AcDbEntity
  8
0
100
AcDbPolyline
 62
2
  6
CONTINUOUS
 90
14
 70
0
 10
335.9441418457
 20
13.1780937195
 10
335.8458837891
 20
13.3322612
 10
335.6493164062
 20
13.3322612
 10
335.5510327148
 20
13.1780937195
 10
335.5510327148
 20
13.023926239
 10
335.7476000977
 20
12.8697619629
 10
335.9441418457
 20
12.7155944824
 10
336.0424255371
 20
12.561427002
 10
336.0424255371
 20
12.4072595215
 10
335.9441418457
 20
12.2530952454
 10
335.8458837891
 20
12.0989277649
 10
335.6493164062
 20
12.0989277649
 10
335.5510327148
 20
12.2530952454
 10
335.4527490234
 20
12.4072595215
  0
LINE
  5
3B2
100
AcDbEntity
  8
0
100
AcDbLine
 62
2
  6
CONTINUOUS
 10
338.5977502441
 20
12.0989277649
 11
338.5977502441
 21
13.3322612
  0
LWPOLYLINE
  5
3B3
100
AcDbEntity
  8
0
100
AcDbPolyline
 62
2
  6
CONTINUOUS
 90
4
 70
0
 10
338.5977502441
 20
13.023926239
 10
338.794317627
 20
13.3322612
 10
338.990859375
 20
13.3322612
 10
339.0891430664
 20
13.1780937195
  0
LWPOLYLINE
  5
3B4
100
AcDbEntity
  8
0
100
AcDbPolyline
 62
2
  6
CONTINUOUS
 90
11
 70
0
 10
340.7599401855
 20
12.4072595215
 10
340.6616564941
 20
12.2530952454
 10
340.4650891113
 20
12.0989277649
 10
340.2685217285
 20
12.2530952454
 10
340.0719543457
 20
12.561427002
 10
340.0719543457
 20
12.8697619629
 10
340.2685217285
 20
13.1780937195
 10
340.4650891113
 20
13.3322612
 10
340.6616564941
 20
13.1780937195
 10
340.7599401855
 20
12.8697619629
 10
340.0719543457
 20
12.8697619629
  0
LWPOLYLINE
  5
3B5
100
AcDbEntity
  8
0
100
AcDbPolyline
 62
2
  6
CONTINUOUS
 90
14
 70
0
 10
342.2341442871
 20
13.1780937195
 10
342.1358605957
 20
13.3322612
 10
341.9393188477
 20
13.3322612
 10
341.8410351562
 20
13.1780937195
 10
341.8410351562
 20
13.023926239
 10
342.0376025391
 20
12.8697619629
 10
342.2341442871
 20
12.7155944824
 10
342.3324279785
 20
12.561427002
 10
342.3324279785
 20
12.4072595215
 10
342.2341442871
 20
12.2530952454
 10
342.1358605957
 20
12.0989277649
 10
341.9393188477
 20
12.0989277649
 10
341.8410351562
 20
12.2530952454
 10
341.7427514648
 20
12.4072595215
  0
LWPOLYLINE
  5
3B6
100
AcDbEntity
  8
0
100
AcDbPolyline
 62
2
  6
CONTINUOUS
 90
11
 70
0
 10
343.9049414062
 20
12.4072595215
 10
343.8066577148
 20
12.2530952454
 10
343.610090332
 20
12.0989277649
 10
343.4135229492
 20
12.2530952454
 10
343.2169555664
 20
12.561427002
 10
343.2169555664
 20
12.8697619629
 10
343.4135229492
 20
13.1780937195
 10
343.610090332
 20
13.3322612
 10
343.8066577148
 20
13.1780937195
 10
343.9049414062
 20
12.8697619629
 10
343.2169555664
 20
12.8697619629
  0
LINE
  5
3B7
100
AcDbEntity
  8
0
100
AcDbLine
 62
2
  6
CONTINUOUS
 10
344.8877526855
 20
12.0989277649
 11
344.8877526855
 21
13.3322612
  0
LWPOLYLINE
  5
3B8
100
AcDbEntity
  8
0
100
AcDbPolyline
 62
2
  6
CONTINUOUS
 90
4
 70
0
 10
344.8877526855
 20
13.023926239
 10
345.0843200684
 20
13.3322612
 10
345.2808618164
 20
13.3322612
 10
345.3791455078
 20
13.1780937195
  0
LWPOLYLINE
  5
3B9
100
AcDbEntity
  8
0
100
AcDbPolyline
 62
2
  6
CONTINUOUS
 90
3
 70
0
 10
346.4602404785
 20
13.3322612
 10
346.7550915527
 20
12.0989277649
 10
347.049942627
 20
13.3322612
  0
LWPOLYLINE
  5
3BA
100
AcDbEntity
  8
0
100
AcDbPolyline
 62
2
  6
CONTINUOUS
 90
11
 70
0
 10
348.6224304199
 20
12.4072595215
 10
348.5241467285
 20
12.2530952454
 10
348.3275793457
 20
12.0989277649
 10
348.1310375977
 20
12.2530952454
 10
347.9344702148
 20
12.561427002
 10
347.9344702148
 20
12.8697619629
 10
348.1310375977
 20
13.1780937195
 10
348.3275793457
 20
13.3322612
 10
348.5241467285
 20
13.1780937195
 10
348.6224304199
 20
12.8697619629
 10
347.9344702148
 20
12.8697619629
  0
LWPOLYLINE
  5
3BB
100
AcDbEntity
  8
0
100
AcDbPolyline
 62
2
  6
CONTINUOUS
 90
10
 70
0
 10
350.2932275391
 20
12.561427002
 10
350.0966601562
 20
12.2530952454
 10
349.9000927734
 20
12.0989277649
 10
349.7035253906
 20
12.2530952454
 10
349.5069580078
 20
12.561427002
 10
349.5069580078
 20
12.8697619629
 10
349.7035253906
 20
13.1780937195
 10
349.9000927734
 20
13.3322612
 10
350.0966601562
 20
13.1780937195
 10
350.2932275391
 20
12.8697619629
  0
LINE
  5
3BC
100
AcDbEntity
  8
0
100
AcDbLine
 62
2
  6
CONTINUOUS
 10
350.2932275391
 20
13.9489279175
 11
350.2932275391
 21
12.0989277649
  0
LWPOLYLINE
  5
3BD
100
AcDbEntity
  8
0
100
AcDbPolyline
 62
2
  6
CONTINUOUS
 90
4
 70
0
 10
351.4725805664
 20
12.0989277649
 10
351.374296875
 20
12.0989277649
 10
351.374296875
 20
12.2530952454
 10
351.4725805664
 20
12.0989277649
  0
ACAD_TABLE
  5
3BE
100
AcDbEntity
  8
0
 62
2
  6
CONTINUOUS
100
AcDbBlockReference
  2
*T1
 10
319.3213399098
 20
51.0239270671
 30
0.0
100
AcDbTable
342
       41A
343
22D
 11
1.0
 21
0.0
 31
0.0
 90
22
 91
5
 92
5
 93
0
 94
0
 95
0
 96
0
141
6.0
141
6.0
141
10.0
141
5.0
141
13.0
142
10.0
142
10.0
142
10.0
142
40.0
142
20.0
171
1
172
0
173
0
174
0
175
3
176
4
 91
1
178
0
145
0.0
170
5
171
1
172
0
173
1
174
0
175
1
176
1
 91
1
178
0
145
0.0
170
1
171
1
172
0
173
1
174
0
175
1
176
1
 91
1
178
0
145
0.0
170
1
171
1
172
0
173
0
174
0
175
1
176
1
 91
33
178
0
145
0.0
301
CELL_VALUE
 90
4
  1
{\Ftxt.shx;\W6.761905;\H3.000000; }
304
ACVALUE_END
170
4
140
3.0
171
1
172
0
173
0
174
0
175
1
176
1
 91
33
178
0
145
0.0
301
CELL_VALUE
 90
4
  1
{\Ftxt.shx;\W5.100000;\H3.500000; }
304
ACVALUE_END
170
1
140
3.5
171
1
172
0
173
1
174
0
175
1
176
1
 91
1
178
0
145
0.0
170
1
171
1
172
0
173
1
174
0
175
1
176
1
 91
1
178
0
145
0.0
170
1
171
1
172
0
173
1
174
0
175
1
176
1
 91
1
178
0
145
0.0
170
1
171
1
172
0
173
0
174
0
175
1
176
1
 91
33
178
0
145
0.0
301
CELL_VALUE
 90
4
  1
{\Ftxt.shx;\W3.714286;\H3.500000; }{\Ftxt.shx;\W1.500000;\H3.500000; }
304
ACVALUE_END
170
1
140
3.5
171
1
172
0
173
0
174
0
175
1
176
1
 91
33
178
0
145
0.0
301
CELL_VALUE
 90
4
  1
{\Ftxt.shx;\W1.571429;\H3.500000; }
304
ACVALUE_END
170
4
140
3.5
171
1
172
0
173
1
174
0
175
1
176
1
 91
1
178
0
145
0.0
170
1
171
1
172
0
173
1
174
0
175
1
176
1
 91
1
178
0
145
0.0
170
1
171
1
172
0
173
1
174
0
175
1
176
1
 91
1
178
0
145
0.0
170
1
171
1
172
0
173
0
174
0
175
2
176
1
 91
33
178
0
145
0.0
301
CELL_VALUE
 90
4
  1
{\Ftxt.shx;\W7.761905;\H3.500000; }{\Ftxt.shx;\W0.785714;\H3.500000; }
304
ACVALUE_END
170
4
140
3.5
171
1
172
0
173
1
174
0
175
1
176
1
 91
1
178
0
145
0.0
170
1
171
1
172
0
173
1
174
0
175
1
176
1
 91
1
178
0
145
0.0
170
1
171
1
172
0
173
1
174
0
175
1
176
1
 91
1
178
0
145
0.0
170
1
171
1
172
0
173
1
174
0
175
1
176
1
 91
1
178
0
145
0.0
170
1
171
1
172
0
173
0
174
0
175
2
176
1
 91
33
178
0
145
0.0
301
CELL_VALUE
 90
4
  1
{\Ftxt.shx;\W11.404762;\H2.500000; }
304
ACVALUE_END
170
4
140
2.5
171
1
172
0
173
1
174
0
175
1
176
1
 91
1
178
0
145
0.0
170
1
171
1
172
0
173
0
174
0
175
5
176
1
 91
33
178
0
145
0.0
301
CELL_VALUE
 90
4
  1
{\Ftxt.shx;\W45.050000;\H1.850000; }\P{\Ftxt.shx;\W28.050000;\H1.850000; }{\Ftxt.shx;\W7.650000;\H1.850000; }{\Ftxt.shx;\W13.600000;\H1.850000; }\P{\Ftxt.shx;\W31.450000;\H1.850000; }\P{\Ftxt.shx;\W17.000000;\H1.850000; }
304
ACVALUE_END
170
1
140
1.85
171
1
172
0
173
1
174
0
175
1
176
1
 91
1
178
0
145
0.0
170
1
171
1
172
0
173
1
174
0
175
1
176
1
 91
1
178
0
145
0.0
170
1
171
1
172
0
173
1
174
0
175
1
176
1
 91
1
178
0
145
0.0
170
1
171
1
172
0
173
1
174
0
175
1
176
1
 91
1
178
0
145
0.0
170
1
  0
LINE
  5
3BF
100
AcDbEntity
  8
0
100
AcDbLine
 62
7
  6
CONTINUOUS
 10
0.0
 20
0.0
 11
0.0
 21
297.0
  0
LWPOLYLINE
  5
3C0
100
AcDbEntity
  8
0
100
AcDbPolyline
 62
7
  6
CONTINUOUS
 90
2
 70
0
 43
0.1000000003
 10
7.0536312849
 20
0.0
 10
7.0536312849
 20
297.0
  0
LWPOLYLINE
  5
3C1
100
AcDbEntity
  8
0
100
AcDbPolyline
 62
7
  6
CONTINUOUS
 90
2
 70
0
 43
0.4999999952
 10
10.0536312849
 20
10.0318435754
 10
10.0536312849
 20
287.0
  0
LWPOLYLINE
  5
3C2
100
AcDbEntity
  8
0
100
AcDbPolyline
 62
2
  6
CONTINUOUS
 90
5
 70
0
 10
2.7895792007
 20
251.8807543945
 10
3.2657698059
 20
252.1664538574
 10
3.2657698059
 20
253.0236035156
 10
2.7895792007
 20
253.5950280762
 10
1.6467220688
 20
253.5950280762
  0
LINE
  5
3C3
100
AcDbEntity
  8
0
100
AcDbLine
 62
7
  6
CONTINUOUS
 10
0.0
 20
0.0
 11
420.0
 21
0.0
  0
LINE
  5
3C4
100
AcDbEntity
  8
0
100
AcDbLine
 62
2
  6
CONTINUOUS
 10
363.2799023437
 20
2.6920935059
 11
364.6298803711
 21
2.6920935059
  0
LINE
  5
3C5
100
AcDbEntity
  8
0
100
AcDbLine
 62
2
  6
CONTINUOUS
 10
262.8298937988
 20
3.6920928955
 11
264.4048937988
 21
3.6920928955
  0
LWPOLYLINE
  5
3C6
100
AcDbEntity
  8
0
100
AcDbPolyline
 62
2
  6
CONTINUOUS
 90
12
 70
0
 10
56.6978659058
 20
5.535344696
 10
57.5978704834
 20
5.535344696
 10
58.0478695679
 20
5.2020094299
 10
58.2728659058
 20
4.8686773682
 10
58.4978686523
 20
4.5353453064
 10
58.7228713989
 20
3.5353427124
 10
58.4978686523
 20
2.5353433228
 10
58.2728659058
 20
2.202011261
 10
58.0478695679
 20
1.8686759949
 10
57.5978704834
 20
1.5353439331
 10
56.6978659058
 20
1.5353439331
 10
56.6978659058
 20
5.535344696
  0
LWPOLYLINE
  5
3C7
100
AcDbEntity
  8
0
100
AcDbPolyline
 62
7
  6
CONTINUOUS
 90
2
 70
0
 43
0.1000000003
 10
0.0
 20
7.0318435754
 10
420.0
 20
7.0318435754
  0
LWPOLYLINE
  5
3C8
100
AcDbEntity
  8
0
100
AcDbPolyline
 62
7
  6
CONTINUOUS
 90
2
 70
0
 43
0.4999999952
 10
10.0536312849
 20
10.0318435754
 10
410.0
 20
10.0318435754
  0
LWPOLYLINE
  5
3C9
100
AcDbEntity
  8
0
100
AcDbPolyline
 62
2
  6
CONTINUOUS
 90
15
 70
0
 10
164.8548962402
 20
292.0254382324
 10
164.629887085
 20
291.6920837402
 10
164.1798944092
 20
291.3587548828
 10
163.729888916
 20
291.3587548828
 10
163.2798962402
 20
291.6920837402
 10
163.054887085
 20
292.0254382324
 10
162.8298907471
 20
292.3587670898
 10
162.6048944092
 20
293.3587536621
 10
162.8298907471
 20
294.3587658691
 10
163.054887085
 20
294.6920947266
 10
163.2798962402
 20
295.025423584
 10
163.729888916
 20
295.3587524414
 10
164.1798944092
 20
295.3587524414
 10
164.629887085
 20
295.025423584
 10
164.8548962402
 20
294.6920947266
  0
LINE
  5
3CA
100
AcDbEntity
  8
0
100
AcDbLine
 62
7
  6
CONTINUOUS
 10
113.0
 20
297.0
 11
113.0
 21
290.0
  0
LINE
  5
3CB
100
AcDbEntity
  8
0
100
AcDbLine
 62
7
  6
CONTINUOUS
 10
113.0
 20
7.0
 11
113.0
 21
0.0
  0
LWPOLYLINE
  5
3CC
100
AcDbEntity
  8
0
100
AcDbPolyline
 62
7
  6
CONTINUOUS
 90
2
 70
0
 43
0.1000000003
 10
123.0
 20
10.0
 10
123.0
 20
0.0
  0
LWPOLYLINE
  5
3CD
100
AcDbEntity
  8
0
100
AcDbPolyline
 62
7
  6
CONTINUOUS
 90
2
 70
0
 43
0.1000000003
 10
123.0
 20
287.0
 10
123.0
 20
297.0
  0
LWPOLYLINE
  5
3CE
100
AcDbEntity
  8
0
100
AcDbPolyline
 62
2
  6
CONTINUOUS
 90
3
 70
0
 10
1.6467220688
 20
52.4521728516
 10
2.7895792007
 20
53.5950283813
 10
2.7895792007
 20
49.5950244141
  0
LINE
  5
3CF
100
AcDbEntity
  8
0
100
AcDbLine
 62
7
  6
CONTINUOUS
 10
-0.0
 20
99.9681564246
 11
7.0
 21
99.9681564246
  0
LWPOLYLINE
  5
3D0
100
AcDbEntity
  8
0
100
AcDbPolyline
 62
2
  6
CONTINUOUS
 90
9
 70
0
 10
56.2378820801
 20
295.2461645508
 10
56.6878811646
 20
294.5794812012
 10
56.9128839111
 20
293.5794946289
 10
56.6878811646
 20
292.5794824219
 10
56.4628848267
 20
292.2461535645
 10
56.2378820801
 20
291.912824707
 10
55.7878829956
 20
291.5794958496
 10
54.8878848267
 20
291.5794958496
 10
54.8878848267
 20
295.5794934082
  0
LINE
  5
3D1
100
AcDbEntity
  8
0
100
AcDbLine
 62
7
  6
CONTINUOUS
 10
413.0
 20
107.0
 11
420.0
 21
107.0
  0
LWPOLYLINE
  5
3D2
100
AcDbEntity
  8
0
100
AcDbPolyline
 62
7
  6
CONTINUOUS
 90
2
 70
0
 43
0.1000000003
 10
210.0
 20
10.0
 10
210.0
 20
0.0
  0
LWPOLYLINE
  5
3D3
100
AcDbEntity
  8
0
100
AcDbPolyline
 62
7
  6
CONTINUOUS
 90
2
 70
0
 43
0.1000000003
 10
210.0
 20
287.0
 10
210.0
 20
297.0
  0
LWPOLYLINE
  5
3D4
100
AcDbEntity
  8
0
100
AcDbPolyline
 62
7
  6
CONTINUOUS
 90
2
 70
0
 43
0.1000000003
 10
10.0
 20
148.5
 10
0.0
 20
148.5
  0
LWPOLYLINE
  5
3D5
100
AcDbEntity
  8
0
100
AcDbPolyline
 62
7
  6
CONTINUOUS
 90
2
 70
0
 43
0.1000000003
 10
410.0
 20
148.5
 10
420.0
 20
148.5
  0
LWPOLYLINE
  5
3D6
100
AcDbEntity
  8
0
100
AcDbPolyline
 62
2
  6
CONTINUOUS
 90
7
 70
0
 10
3.6467220497
 20
149.5950274658
 10
1.6467220688
 20
149.5950274658
 10
3.6467220497
 20
152.4521759033
 10
3.6467220497
 20
153.0236004639
 10
3.0752934837
 20
153.5950250244
 10
2.2181506348
 20
153.5950250244
 10
1.6467220688
 20
152.7378881836
  0
LWPOLYLINE
  5
3D7
100
AcDbEntity
  8
0
100
AcDbPolyline
 62
2
  6
CONTINUOUS
 90
5
 70
0
 10
415.7895666504
 20
258.9125756836
 10
416.2657580566
 20
259.1983007812
 10
416.2657580566
 20
260.0554504395
 10
415.7895666504
 20
260.626875
 10
414.6467175293
 20
260.626875
  0
LWPOLYLINE
  5
3D8
100
AcDbEntity
  8
0
100
AcDbPolyline
 62
2
  6
CONTINUOUS
 90
7
 70
0
 10
416.6467163086
 20
156.6268743896
 10
414.6467175293
 20
156.6268743896
 10
416.6467163086
 20
159.4840100098
 10
416.6467163086
 20
160.0554473877
 10
416.075291748
 20
160.6268719482
 10
415.2181420898
 20
160.6268719482
 10
414.6467175293
 20
159.76972229
  0
LWPOLYLINE
  5
3D9
100
AcDbEntity
  8
0
100
AcDbPolyline
 62
2
  6
CONTINUOUS
 90
15
 70
0
 10
164.8548962402
 20
2.025426178
 10
164.629887085
 20
1.6920941162
 10
164.1798944092
 20
1.3587588501
 10
163.729888916
 20
1.3587588501
 10
163.2798962402
 20
1.6920941162
 10
163.054887085
 20
2.025426178
 10
162.8298907471
 20
2.3587614441
 10
162.6048944092
 20
3.3587608337
 10
162.8298907471
 20
4.3587602234
 10
163.054887085
 20
4.6920922852
 10
163.2798962402
 20
5.0254275513
 10
163.729888916
 20
5.358759613
 10
164.1798944092
 20
5.358759613
 10
164.629887085
 20
5.0254275513
 10
164.8548962402
 20
4.6920922852
  0
LWPOLYLINE
  5
3DA
100
AcDbEntity
  8
0
100
AcDbPolyline
 62
2
  6
CONTINUOUS
 90
6
 70
0
 10
262.8298937988
 20
295.3587524414
 10
262.8298937988
 20
291.3587548828
 10
264.4048937988
 20
291.3587548828
 10
264.6298901367
 20
291.6920837402
 10
264.8548864746
 20
292.0254382324
 10
264.8548864746
 20
293.0254248047
  0
LWPOLYLINE
  5
3DB
100
AcDbEntity
  8
0
100
AcDbPolyline
 62
2
  6
CONTINUOUS
 90
12
 70
0
 10
262.8298937988
 20
5.358759613
 10
262.8298937988
 20
1.3587588501
 10
264.4048937988
 20
1.3587588501
 10
264.6298901367
 20
1.6920941162
 10
264.8548864746
 20
2.025426178
 10
264.8548864746
 20
3.0254255676
 10
264.6298901367
 20
3.3587608337
 10
264.4048937988
 20
3.6920928955
 10
264.6298901367
 20
4.0254281616
 10
264.6298901367
 20
5.0254275513
 10
264.4048937988
 20
5.358759613
 10
262.8298937988
 20
5.358759613
  0
LINE
  5
3DC
100
AcDbEntity
  8
0
100
AcDbLine
 62
7
  6
CONTINUOUS
 10
-0.0
 20
199.9681564246
 11
7.0
 21
199.9681564246
  0
LWPOLYLINE
  5
3DD
100
AcDbEntity
  8
0
100
AcDbPolyline
 62
7
  6
CONTINUOUS
 90
2
 70
0
 43
0.1000000003
 10
10.0
 20
202.9681564246
 10
0.0
 20
202.9681564246
  0
LWPOLYLINE
  5
3DE
100
AcDbEntity
  8
0
100
AcDbPolyline
 62
7
  6
CONTINUOUS
 90
2
 70
0
 43
0.1000000003
 10
410.0
 20
210.0
 10
420.0
 20
210.0
  0
LINE
  5
3DF
100
AcDbEntity
  8
0
100
AcDbLine
 62
7
  6
CONTINUOUS
 10
313.0
 20
297.0
 11
313.0
 21
290.0
  0
LINE
  5
3E0
100
AcDbEntity
  8
0
100
AcDbLine
 62
7
  6
CONTINUOUS
 10
313.0
 20
7.0
 11
313.0
 21
0.0
  0
LWPOLYLINE
  5
3E1
100
AcDbEntity
  8
0
100
AcDbPolyline
 62
2
  6
CONTINUOUS
 90
6
 70
0
 10
1.6467220688
 20
249.5950305176
 10
3.0752934837
 20
249.5950305176
 10
3.3610077667
 20
249.8807299805
 10
3.3610077667
 20
251.3093041992
 10
2.7895792007
 20
251.8807543945
 10
2.2181506348
 20
251.8807543945
  0
LWPOLYLINE
  5
3E2
100
AcDbEntity
  8
0
100
AcDbPolyline
 62
2
  6
CONTINUOUS
 90
3
 70
0
 10
362.8298840332
 20
291.3587548828
 10
363.9548913574
 20
295.3587524414
 10
365.0798986816
 20
291.3587548828
  0
LWPOLYLINE
  5
3E3
100
AcDbEntity
  8
0
100
AcDbPolyline
 62
2
  6
CONTINUOUS
 90
6
 70
0
 10
414.6467175293
 20
256.6268774414
 10
416.075291748
 20
256.6268774414
 10
416.3610168457
 20
256.9125769043
 10
416.3610168457
 20
258.341151123
 10
415.7895666504
 20
258.9125756836
 10
415.2181420898
 20
258.9125756836
  0
LWPOLYLINE
  5
3E4
100
AcDbEntity
  8
0
100
AcDbPolyline
 62
2
  6
CONTINUOUS
 90
6
 70
0
 10
264.8548864746
 20
293.0254248047
 10
264.4048937988
 20
293.6920825195
 10
264.6298901367
 20
294.0254370117
 10
264.6298901367
 20
295.025423584
 10
264.4048937988
 20
295.3587524414
 10
262.8298937988
 20
295.3587524414
  0
LWPOLYLINE
  5
3E5
100
AcDbEntity
  8
0
100
AcDbPolyline
 62
7
  6
CONTINUOUS
 90
2
 70
0
 43
0.4999999952
 10
10.0536312849
 20
287.0
 10
410.0
 20
287.0
  0
LWPOLYLINE
  5
3E6
100
AcDbEntity
  8
0
100
AcDbPolyline
 62
7
  6
CONTINUOUS
 90
2
 70
0
 43
0.1000000003
 10
0.0
 20
290.0
 10
420.0
 20
290.0
  0
LINE
  5
3E7
100
AcDbEntity
  8
0
100
AcDbLine
 62
2
  6
CONTINUOUS
 10
363.2799023437
 20
292.6920959473
 11
364.6298803711
 21
292.6920959473
  0
LINE
  5
3E8
100
AcDbEntity
  8
0
100
AcDbLine
 62
2
  6
CONTINUOUS
 10
262.8298937988
 20
293.6920825195
 11
264.4048937988
 21
293.6920825195
  0
LWPOLYLINE
  5
3E9
100
AcDbEntity
  8
0
100
AcDbPolyline
 62
2
  6
CONTINUOUS
 90
3
 70
0
 10
54.8878848267
 20
295.5794934082
 10
55.7878829956
 20
295.5794934082
 10
56.2378820801
 20
295.2461645508
  0
LINE
  5
3EA
100
AcDbEntity
  8
0
100
AcDbLine
 62
7
  6
CONTINUOUS
 10
0.0
 20
297.0
 11
420.0
 21
297.0
  0
LWPOLYLINE
  5
3EB
100
AcDbEntity
  8
0
100
AcDbPolyline
 62
2
  6
CONTINUOUS
 90
3
 70
0
 10
362.8298840332
 20
1.3587588501
 10
363.9548913574
 20
5.358759613
 10
365.0798986816
 20
1.3587588501
  0
LWPOLYLINE
  5
3EC
100
AcDbEntity
  8
0
100
AcDbPolyline
 62
7
  6
CONTINUOUS
 90
2
 70
0
 43
0.4999999952
 10
410.0
 20
10.0318435754
 10
410.0
 20
287.0
  0
LWPOLYLINE
  5
3ED
100
AcDbEntity
  8
0
100
AcDbPolyline
 62
7
  6
CONTINUOUS
 90
2
 70
0
 43
0.1000000003
 10
413.0
 20
0.0
 10
413.0
 20
297.0
  0
LINE
  5
3EE
100
AcDbEntity
  8
0
100
AcDbLine
 62
7
  6
CONTINUOUS
 10
420.0
 20
0.0
 11
420.0
 21
297.0
  0
LWPOLYLINE
  5
3EF
100
AcDbEntity
  8
0
100
AcDbPolyline
 62
2
  6
CONTINUOUS
 90
3
 70
0
 10
414.6467175293
 20
59.4840133667
 10
415.7895666504
 20
60.6268688965
 10
415.7895666504
 20
56.6268713379
  0
LINE
  5
3F0
100
AcDbEntity
  8
7_ALL_FEATURES
100
AcDbLine
 62
7
  6
CONTINUOUS
 10
70.9770754938
 20
118.823419498
 11
70.9770754938
 21
63.823419498
  0
LINE
  5
3F1
100
AcDbEntity
  8
7_ALL_FEATURES
100
AcDbLine
 62
7
  6
CONTINUOUS
 10
70.9770754938
 20
63.823419498
 11
125.9770754938
 21
63.823419498
  0
LINE
  5
3F2
100
AcDbEntity
  8
7_ALL_FEATURES
100
AcDbLine
 62
7
  6
CONTINUOUS
 10
125.9770754938
 20
63.823419498
 11
125.9770754938
 21
118.823419498
  0
LINE
  5
3F3
100
AcDbEntity
  8
7_ALL_FEATURES
100
AcDbLine
 62
7
  6
CONTINUOUS
 10
125.9770754938
 20
118.823419498
 11
70.9770754938
 21
118.823419498
  0
LWPOLYLINE
  5
3F4
100
AcDbEntity
  8
0
100
AcDbPolyline
 62
2
  6
CONTINUOUS
 90
8
 70
0
 43
0.1500000036
 10
140.3144403076
 20
89.1805627441
 10
140.3144403076
 20
90.037699585
 10
139.8858782959
 20
90.4662744141
 10
139.0287286377
 20
90.4662744141
 10
138.6001538086
 20
90.037699585
 10
138.6001538086
 20
89.1805627441
 10
137.3144421387
 20
89.1805627441
 10
137.3144421387
 20
90.4662744141
  0
LWPOLYLINE
  5
3F5
100
AcDbEntity
  8
0
100
AcDbPolyline
 62
2
  6
CONTINUOUS
 90
8
 70
0
 43
0.1500000036
 10
140.3144403076
 20
91.3234240723
 10
140.3144403076
 20
92.1805609131
 10
139.8858782959
 20
92.6091357422
 10
139.0287286377
 20
92.6091357422
 10
138.6001538086
 20
92.1805609131
 10
138.6001538086
 20
91.3234240723
 10
137.3144421387
 20
91.3234240723
 10
137.3144421387
 20
92.6091357422
  0
LWPOLYLINE
  5
3F6
100
AcDbEntity
  8
0
100
AcDbPolyline
 62
2
  6
CONTINUOUS
 90
8
 70
0
 43
0.1500000036
 10
96.33421875
 20
133.3709509277
 10
97.1913619995
 20
133.3709509277
 10
97.6199304199
 20
133.7995257568
 10
97.6199304199
 20
134.656675415
 10
97.1913619995
 20
135.0852374268
 10
96.33421875
 20
135.0852374268
 10
96.33421875
 20
136.3709490967
 10
97.6199304199
 20
136.3709490967
  0
LWPOLYLINE
  5
3F7
100
AcDbEntity
  8
0
100
AcDbPolyline
 62
2
  6
CONTINUOUS
 90
8
 70
0
 43
0.1500000036
 10
98.4770736694
 20
133.3709509277
 10
99.3342169189
 20
133.3709509277
 10
99.762791748
 20
133.7995257568
 10
99.762791748
 20
134.656675415
 10
99.3342169189
 20
135.0852374268
 10
98.4770736694
 20
135.0852374268
 10
98.4770736694
 20
136.3709490967
 10
99.762791748
 20
136.3709490967
  0
LINE
  5
3F8
100
AcDbEntity
  8
7_ALL_FEATURES
100
AcDbLine
 62
7
  6
CONTINUOUS
 10
70.9770754938
 20
182.7154652095
 11
70.9770754938
 21
237.7154652095
  0
LINE
  5
3F9
100
AcDbEntity
  8
7_ALL_FEATURES
100
AcDbLine
 62
7
  6
CONTINUOUS
 10
70.9770754938
 20
182.7154652095
 11
125.9770754938
 21
182.7154652095
  0
LINE
  5
3FA
100
AcDbEntity
  8
7_ALL_FEATURES
100
AcDbLine
 62
7
  6
CONTINUOUS
 10
125.9770754938
 20
182.7154652095
 11
125.9770754938
 21
237.7154652095
  0
LINE
  5
3FB
100
AcDbEntity
  8
7_ALL_FEATURES
100
AcDbLine
 62
7
  6
CONTINUOUS
 10
70.9770754938
 20
237.7154652095
 11
125.9770754938
 21
237.7154652095
  0
LINE
  5
3FC
100
AcDbEntity
  8
7_ALL_FEATURES
100
AcDbLine
 62
7
  6
CONTINUOUS
 10
180.041351062
 20
182.7154652095
 11
180.041351062
 21
237.7154652095
  0
LINE
  5
3FD
100
AcDbEntity
  8
7_ALL_FEATURES
100
AcDbLine
 62
7
  6
CONTINUOUS
 10
180.041351062
 20
182.7154652095
 11
235.041351062
 21
182.7154652095
  0
LINE
  5
3FE
100
AcDbEntity
  8
7_ALL_FEATURES
100
AcDbLine
 62
7
  6
CONTINUOUS
 10
235.041351062
 20
182.7154652095
 11
235.041351062
 21
237.7154652095
  0
LINE
  5
3FF
100
AcDbEntity
  8
7_ALL_FEATURES
100
AcDbLine
 62
7
  6
CONTINUOUS
 10
180.041351062
 20
237.7154652095
 11
235.041351062
 21
237.7154652095
  0
LWPOLYLINE
  5
400
100
AcDbEntity
  8
0
100
AcDbPolyline
 62
2
  6
CONTINUOUS
 90
8
 70
0
 43
0.1500000036
 10
251.4593371582
 20
208.0726062012
 10
251.4593371582
 20
208.9297558594
 10
251.0307495117
 20
209.3583178711
 10
250.1736254883
 20
209.3583178711
 10
249.7450378418
 20
208.9297558594
 10
249.7450378418
 20
208.0726062012
 10
248.4593261719
 20
208.0726062012
 10
248.4593261719
 20
209.3583178711
  0
LWPOLYLINE
  5
401
100
AcDbEntity
  8
0
100
AcDbPolyline
 62
2
  6
CONTINUOUS
 90
8
 70
0
 43
0.1500000036
 10
251.4593371582
 20
210.2154675293
 10
251.4593371582
 20
211.0726171875
 10
251.0307495117
 20
211.5011791992
 10
250.1736254883
 20
211.5011791992
 10
249.7450378418
 20
211.0726171875
 10
249.7450378418
 20
210.2154675293
 10
248.4593261719
 20
210.2154675293
 10
248.4593261719
 20
211.5011791992
  0
LINE
  5
402
100
AcDbEntity
  8
7_ALL_FEATURES
100
AcDbLine
 62
7
  6
CONTINUOUS
 10
292.479367229
 20
151.2364841765
 11
292.713917925
 21
99.8790281533
  0
LINE
  5
403
100
AcDbEntity
  8
7_ALL_FEATURES
100
AcDbLine
 62
7
  6
CONTINUOUS
 10
323.4691497808
 20
167.6197376355
 11
292.479367229
 21
151.2364841765
  0
LINE
  5
404
100
AcDbEntity
  8
7_ALL_FEATURES
100
AcDbLine
 62
7
  6
CONTINUOUS
 10
292.713917925
 20
99.8790281533
 11
338.1515495023
 21
88.9702831786
  0
LINE
  5
405
100
AcDbEntity
  8
3_ALL_AXES
100
AcDbLine
 62
7
  6
CONTINUOUS
 10
305.419854607
 20
104.2594639288
 11
305.425758642
 21
102.9667104808
  0
LINE
  5
406
100
AcDbEntity
  8
7_ALL_FEATURES
100
AcDbLine
 62
7
  6
CONTINUOUS
 10
369.1413320542
 20
105.3535366376
 11
323.7037004768
 21
116.2622816123
  0
LINE
  5
407
100
AcDbEntity
  8
7_ALL_FEATURES
100
AcDbLine
 62
7
  6
CONTINUOUS
 10
323.4691497808
 20
167.6197376355
 11
323.7037004768
 21
116.2622816123
  0
LINE
  5
408
100
AcDbEntity
  8
7_ALL_FEATURES
100
AcDbLine
 62
7
  6
CONTINUOUS
 10
323.7037004768
 20
116.2622816123
 11
292.713917925
 21
99.8790281533
  0
LINE
  5
409
100
AcDbEntity
  8
3_ALL_AXES
100
AcDbLine
 62
7
  6
CONTINUOUS
 10
356.4196394531
 20
104.4230327276
 11
356.425226779
 21
103.1996262378
  0
LINE
  5
40A
100
AcDbEntity
  8
7_ALL_FEATURES
100
AcDbLine
 62
7
  6
CONTINUOUS
 10
368.9067813582
 20
156.7109926608
 11
323.4691497808
 21
167.6197376355
  0
LINE
  5
40B
100
AcDbEntity
  8
7_ALL_FEATURES
100
AcDbLine
 62
7
  6
CONTINUOUS
 10
368.9067813582
 20
156.7109926608
 11
369.1413320542
 21
105.3535366376
  0
LINE
  5
40C
100
AcDbEntity
  8
7_ALL_FEATURES
100
AcDbLine
 62
7
  6
CONTINUOUS
 10
338.1515495023
 20
88.9702831786
 11
369.1413320542
 21
105.3535366376
  0
CIRCLE
  5
40D
100
AcDbEntity
  8
02___PRT_ALL_AXES
100
AcDbCircle
 62
7
  6
CONTINUOUS
 10
98.4770754938
 20
91.323419498
 40
26.0
  0
CIRCLE
  5
40E
100
AcDbEntity
  8
3_ALL_AXES
100
AcDbCircle
 62
7
  6
CONTINUOUS
 10
98.4770754938
 20
91.323419498
 40
25.5
  0
SPLINE
  5
40F
100
AcDbEntity
  8
3_ALL_AXES
100
AcDbSpline
 62
7
  6
CONTINUOUS
 70
0
 71
3
 72
17
 73
13
 74
0
 42
0.0000001
 43
0.0000001
 44
0.0000000001
 40
0.0
 40
0.0
 40
0.0
 40
0.0
 40
0.0390900128
 40
0.0791375854
 40
0.1652861797
 40
0.2129308635
 40
0.2641880693
 40
0.3785632221
 40
0.5097484468
 40
0.6577073629
 40
0.8216185294
 40
1.0
 40
1.0
 40
1.0
 40
1.0
 10
305.4257683828
 20
102.9671365493
 30
0.0
 10
305.4266016216
 20
102.7820672978
 30
0.0
 10
305.4605215502
 20
102.4067724443
 30
0.0
 10
305.6600556461
 20
101.6469851784
 30
0.0
 10
306.0575601175
 20
100.9117388761
 30
0.0
 10
306.6040577161
 20
100.2259879308
 30
0.0
 10
307.3137757692
 20
99.5051229477
 30
0.0
 10
308.4345858788
 20
98.6467560522
 30
0.0
 10
310.0545944911
 20
97.7189258011
 30
0.0
 10
311.9755982824
 20
96.8687435636
 30
0.0
 10
314.1707573695
 20
96.1082248167
 30
0.0
 10
315.7362933904
 20
95.6844536291
 30
0.0
 10
316.5575026183
 20
95.487296301
 30
0.0
  0
SPLINE
  5
410
100
AcDbEntity
  8
3_ALL_AXES
100
AcDbSpline
 62
7
  6
CONTINUOUS
 70
0
 71
3
 72
25
 73
21
 74
0
 42
0.0000001
 43
0.0000001
 44
0.0000000001
 40
0.0
 40
0.0
 40
0.0
 40
0.0
 40
0.0703937386
 40
0.1449553179
 40
0.2225432552
 40
0.3019412075
 40
0.3818812276
 40
0.4610833362
 40
0.5382858197
 40
0.6122796199
 40
0.6819434337
 40
0.7462835209
 40
0.8044822697
 40
0.8559649706
 40
0.9005035186
 40
0.9383920051
 40
0.9551859217
 40
0.9708252895
 40
0.985631997
 40
1.0
 40
1.0
 40
1.0
 40
1.0
 10
316.5575026183
 20
95.487296301
 30
0.0
 10
317.5442244617
 20
95.2504024186
 30
0.0
 10
319.5933105567
 20
94.8326493091
 30
0.0
 10
322.7701785254
 20
94.3756111428
 30
0.0
 10
326.0960529679
 20
94.0757605726
 30
0.0
 10
329.5100594339
 20
93.9387298027
 30
0.0
 10
332.9499532998
 20
93.9671234825
 30
0.0
 10
336.3528640093
 20
94.160401857
 30
0.0
 10
339.6566780037
 20
94.5149461853
 30
0.0
 10
342.8012034573
 20
95.0241022294
 30
0.0
 10
345.7293809346
 20
95.6783154927
 30
0.0
 10
348.3885568737
 20
96.4654307458
 30
0.0
 10
350.7315435432
 20
97.370868801
 30
0.0
 10
352.7185603491
 20
98.3791807822
 30
0.0
 10
354.3164649761
 20
99.473498478
 30
0.0
 10
355.3432644257
 20
100.4875385072
 30
0.0
 10
355.9138509535
 20
101.3291743722
 30
0.0
 10
356.2094921793
 20
101.9458967188
 30
0.0
 10
356.3874111654
 20
102.5703117645
 30
0.0
 10
356.4261495551
 20
102.992080427
 30
0.0
 10
356.4252170382
 20
103.1992001693
 30
0.0
  0
SPLINE
  5
411
100
AcDbEntity
  8
3_ALL_AXES
100
AcDbSpline
 62
7
  6
CONTINUOUS
 70
0
 71
3
 72
12
 73
8
 74
0
 42
0.0000001
 43
0.0000001
 44
0.0000000001
 40
0.0
 40
0.0
 40
0.0
 40
0.0
 40
0.2925571807
 40
0.5508767733
 40
0.7825909364
 40
0.8922611588
 40
1.0
 40
1.0
 40
1.0
 40
1.0
 10
307.5576039246
 20
106.6426165615
 30
0.0
 10
307.22738965
 20
106.370750175
 30
0.0
 10
306.6366015804
 20
105.8179034032
 30
0.0
 10
305.9453595532
 20
104.8974926171
 30
0.0
 10
305.5847845087
 20
104.0870111145
 30
0.0
 10
305.4468651644
 20
103.4430939428
 30
0.0
 10
305.4250591939
 20
103.1246532714
 30
0.0
 10
305.4257683828
 20
102.9671365493
 30
0.0
  0
SPLINE
  5
412
100
AcDbEntity
  8
3_ALL_AXES
100
AcDbSpline
 62
7
  6
CONTINUOUS
 70
0
 71
3
 72
11
 73
7
 74
0
 42
0.0000001
 43
0.0000001
 44
0.0000000001
 40
0.0
 40
0.0
 40
0.0
 40
0.0
 40
0.2216531736
 40
0.4558419295
 40
0.7128896588
 40
1.0
 40
1.0
 40
1.0
 40
1.0
 10
356.4252170382
 20
103.1992001693
 30
0.0
 10
356.4239282578
 20
103.4854490029
 30
0.0
 10
356.3418377449
 20
104.076300753
 30
0.0
 10
355.989074747
 20
104.9352590124
 30
0.0
 10
355.4169125227
 20
105.7689981973
 30
0.0
 10
354.9244738229
 20
106.2746730542
 30
0.0
 10
354.6494344366
 20
106.5233402851
 30
0.0
  0
SPLINE
  5
413
100
AcDbEntity
  8
02___PRT_ALL_AXES
100
AcDbSpline
 62
7
  6
CONTINUOUS
 70
0
 71
3
 72
25
 73
21
 74
0
 42
0.0000001
 43
0.0000001
 44
0.0000000001
 40
0.0
 40
0.0
 40
0.0
 40
0.0
 40
0.0703937386
 40
0.1449553179
 40
0.2225432552
 40
0.3019412075
 40
0.3818812276
 40
0.4610833362
 40
0.5382858197
 40
0.6122796199
 40
0.6819434337
 40
0.7462835209
 40
0.8044822697
 40
0.8559649706
 40
0.9005035186
 40
0.9383920051
 40
0.9551859217
 40
0.9708252895
 40
0.985631997
 40
1.0
 40
1.0
 40
1.0
 40
1.0
 10
345.5773403777
 20
110.3610931215
 30
0.0
 10
344.5712710472
 20
110.602631982
 30
0.0
 10
342.4820067935
 20
111.028576329
 30
0.0
 10
339.2428472959
 20
111.494576028
 30
0.0
 10
335.8517596291
 20
111.8003060212
 30
0.0
 10
332.3708118599
 20
111.9400236688
 30
0.0
 10
328.8634690946
 20
111.9110732502
 30
0.0
 10
325.3938346457
 20
111.7140051037
 30
0.0
 10
322.0252399847
 20
111.3525089259
 30
0.0
 10
318.8190571693
 20
110.8333694298
 30
0.0
 10
315.8334644473
 20
110.1663284555
 30
0.0
 10
313.1221478036
 20
109.36377957
 30
0.0
 10
310.733220219
 20
108.4405878274
 30
0.0
 10
308.7072422993
 20
107.412505023
 30
0.0
 10
307.078006209
 20
106.2967301175
 30
0.0
 10
306.0310734368
 20
105.2628069505
 30
0.0
 10
305.4492989379
 20
104.4046684216
 30
0.0
 10
305.1478608252
 20
103.7758534799
 30
0.0
 10
304.9664532316
 20
103.1391950019
 30
0.0
 10
304.9269552656
 20
102.7091563657
 30
0.0
 10
304.9279060672
 20
102.4979754519
 30
0.0
  0
SPLINE
  5
414
100
AcDbEntity
  8
02___PRT_ALL_AXES
100
AcDbSpline
 62
7
  6
CONTINUOUS
 70
0
 71
3
 72
16
 73
12
 74
0
 42
0.0000001
 43
0.0000001
 44
0.0000000001
 40
0.0
 40
0.0
 40
0.0
 40
0.0
 40
0.0390953858
 40
0.079148463
 40
0.1653088986
 40
0.2640869303
 40
0.3784778042
 40
0.5096810606
 40
0.657660314
 40
0.8215940105
 40
1.0
 40
1.0
 40
1.0
 40
1.0
 10
356.927343912
 20
102.734589339
 30
0.0
 10
356.9264943351
 20
102.9232873993
 30
0.0
 10
356.8919125538
 20
103.3059229454
 30
0.0
 10
356.6884453666
 20
104.0807228185
 30
0.0
 10
356.1641423942
 20
105.0498420479
 30
0.0
 10
355.1843302724
 20
106.124549347
 30
0.0
 10
353.8598252657
 20
107.1396357494
 30
0.0
 10
352.2076612292
 20
108.0857214849
 30
0.0
 10
350.2491160664
 20
108.9525538241
 30
0.0
 10
348.0108747333
 20
109.7279911142
 30
0.0
 10
346.4146517473
 20
110.1600699635
 30
0.0
 10
345.5773403777
 20
110.3610931215
 30
0.0
  0
SPLINE
  5
415
100
AcDbEntity
  8
02___PRT_ALL_AXES
100
AcDbSpline
 62
7
  6
CONTINUOUS
 70
0
 71
3
 72
16
 73
12
 74
0
 42
0.0000001
 43
0.0000001
 44
0.0000000001
 40
0.0
 40
0.0
 40
0.0
 40
0.0
 40
0.0390953858
 40
0.079148463
 40
0.1653088986
 40
0.2640869303
 40
0.3784778042
 40
0.5096810606
 40
0.657660314
 40
0.8215940105
 40
1.0
 40
1.0
 40
1.0
 40
1.0
 10
304.9279060672
 20
102.4979754519
 30
0.0
 10
304.928755644
 20
102.3092773916
 30
0.0
 10
304.9633374253
 20
101.9266418456
 30
0.0
 10
305.1668046125
 20
101.1518419724
 30
0.0
 10
305.6911075849
 20
100.182722743
 30
0.0
 10
306.6709197067
 20
99.1080154439
 30
0.0
 10
307.9954247134
 20
98.0929290415
 30
0.0
 10
309.6475887499
 20
97.146843306
 30
0.0
 10
311.6061339127
 20
96.2800109668
 30
0.0
 10
313.8443752458
 20
95.5045736767
 30
0.0
 10
315.4405982318
 20
95.0724948275
 30
0.0
 10
316.2779096014
 20
94.8714716694
 30
0.0
  0
SPLINE
  5
416
100
AcDbEntity
  8
02___PRT_ALL_AXES
100
AcDbSpline
 62
7
  6
CONTINUOUS
 70
0
 71
3
 72
25
 73
21
 74
0
 42
0.0000001
 43
0.0000001
 44
0.0000000001
 40
0.0
 40
0.0
 40
0.0
 40
0.0
 40
0.0703937386
 40
0.1449553179
 40
0.2225432552
 40
0.3019412075
 40
0.3818812276
 40
0.4610833362
 40
0.5382858197
 40
0.6122796199
 40
0.6819434337
 40
0.7462835209
 40
0.8044822697
 40
0.8559649706
 40
0.9005035186
 40
0.9383920051
 40
0.9551859217
 40
0.9708252895
 40
0.985631997
 40
1.0
 40
1.0
 40
1.0
 40
1.0
 10
316.2779096014
 20
94.8714716694
 30
0.0
 10
317.2839789319
 20
94.6299328089
 30
0.0
 10
319.3732431856
 20
94.2039884619
 30
0.0
 10
322.6124026832
 20
93.7379887629
 30
0.0
 10
326.00349035
 20
93.4322587697
 30
0.0
 10
329.4844381192
 20
93.2925411221
 30
0.0
 10
332.9917808845
 20
93.3214915407
 30
0.0
 10
336.4614153334
 20
93.5185596872
 30
0.0
 10
339.8300099944
 20
93.8800558651
 30
0.0
 10
343.0361928098
 20
94.3991953611
 30
0.0
 10
346.0217855318
 20
95.0662363354
 30
0.0
 10
348.7331021756
 20
95.8687852209
 30
0.0
 10
351.1220297602
 20
96.7919769635
 30
0.0
 10
353.1480076798
 20
97.8200597679
 30
0.0
 10
354.7772437701
 20
98.9358346734
 30
0.0
 10
355.8241765423
 20
99.9697578404
 30
0.0
 10
356.4059510412
 20
100.8278963694
 30
0.0
 10
356.7073891539
 20
101.456711311
 30
0.0
 10
356.8887967475
 20
102.093369789
 30
0.0
 10
356.9282947135
 20
102.5234084253
 30
0.0
 10
356.927343912
 20
102.734589339
 30
0.0
  0
ENDSEC
  0
SECTION
  2
OBJECTS
  0
DICTIONARY
  5
C
100
AcDbDictionary
280
0
281
1
  3
ACAD_GROUP
350
D
  3
ACAD_MLINESTYLE
350
17
  3
ACAD_LAYOUT
350
1A
  3
ACAD_PLOTSETTINGS
350
19
  3
ACAD_PLOTSTYLENAME
350
E
  3
ACAD_TABLESTYLE
350
       417
  0
DICTIONARY
  5
D
102
{ACAD_REACTORS
330
C
102
}
100
AcDbDictionary
280
0
281
1
  0
ACDBDICTIONARYWDFLT
  5
E
102
{ACAD_REACTORS
330
C
102
}
100
AcDbDictionary
281
1
  3
Normal
350
F
100
AcDbDictionaryWithDefault
340
F
  0
DICTIONARY
  5
17
102
{ACAD_REACTORS
330
C
102
}
100
AcDbDictionary
280
0
281
1
  3
Standard
350
18
  0
DICTIONARY
  5
417
330
C
100
AcDbDictionary
281
1
  3
Standard
350
       41A
  3
Standard1
350
       41B
  0
DICTIONARY
  5
19
102
{ACAD_REACTORS
330
C
102
}
100
AcDbDictionary
281
1
  0
DICTIONARY
  5
1A
102
{ACAD_REACTORS
330
C
102
}
100
AcDbDictionary
281
1
  3
Model
350
418
  3
Layout1
350
419
  0
ACDBPLACEHOLDER
  5
F
102
{ACAD_REACTORS
330
E
102
}
  0
MLINESTYLE
  5
18
102
{ACAD_REACTORS
330
17
102
}
100
AcDbMlineStyle
  2
STANDARD
 70
0
  3

 62
256
 51
90.0
 52
90.0
 71
2
 49
0.5
 62
256
  6
BYLAYER
 49
-0.5
 62
256
  6
BYLAYER
  0
LAYOUT
  5
418
102
{ACAD_REACTORS
330
1A
102
}
100
AcDbPlotSettings
  1

  2
none_device
  4
ISO_A3_(420.00_x_297.00_MM)
  6

 40
0.0
 41
0.0
 42
0.0
 43
0.0
 44
420.0
 45
297.0
 46
0.0
 47
0.0
 48
0.0
 49
0.0
140
0.0
141
0.0
142
1.0
143
1.0
 70
1024
 72
1
 73
0
 74
0
  7

 75
0
147
1.0
148
0.0
149
0.0
100
AcDbLayout
  1
Model
 70
0
 71
0
 10
0.0
 20
0.0
 11
420.0
 21
297.0
 12
0.0
 22
0.0
 32
0.0
 14
0.0
 24
0.0
 34
0.0
 15
0.0
 25
0.0
 35
0.0
146
0.0
 13
0.0
 23
0.0
 33
0.0
 16
1.0
 26
0.0
 36
0.0
 17
0.0
 27
1.0
 37
0.0
 76
0
330
226
345
0
346
0
  0
LAYOUT
  5
419
102
{ACAD_REACTORS
330
1A
102
}
100
AcDbPlotSettings
  1

  2
none_device
  4
ISO_A3_(420.00_x_297.00_MM)
  6

 40
0.0
 41
0.0
 42
0.0
 43
0.0
 44
420.0
 45
297.0
 46
0.0
 47
0.0
 48
0.0
 49
0.0
140
0.0
141
0.0
142
1.0
143
1.0
 70
0
 72
1
 73
0
 74
0
  7

 75
0
147
1.0
148
0.0
149
0.0
100
AcDbLayout
  1
Layout1
 70
0
 71
1
 10
0.0
 20
0.0
 11
420.0
 21
297.0
 12
0.0
 22
0.0
 32
0.0
 14
0.0
 24
0.0
 34
0.0
 15
0.0
 25
0.0
 35
0.0
146
0.0
 13
0.0
 23
0.0
 33
0.0
 16
1.0
 26
0.0
 36
0.0
 17
0.0
 27
1.0
 37
0.0
 76
0
330
227
345
0
346
0
  0
TABLESTYLE
  5
41A
102
{ACAD_REACTORS
330
417
330
3BE
102
}
330
417
100
AcDbTableStyle
  3
Standard
 70
0
 71
0
 40
0.06
 41
0.06
280
1
281
1
  7
Standard
140
0.18
170
1
 62
0
 63
7
283
0
  7
Standard
140
0.18
170
1
 62
0
 63
7
283
0
  7
Standard
140
0.18
170
1
 62
0
 63
7
283
0
  0
TABLESTYLE
  5
41B
102
{ACAD_REACTORS
330
417
102
}
330
417
100
AcDbTableStyle
  3
Standard1
 70
1
 71
0
 40
0.06
 41
0.06
280
1
281
1
  7
Standard
140
0.18
170
1
 62
0
 63
7
283
0
  7
Standard
140
0.18
170
1
 62
0
 63
7
283
0
  7
Standard
140
0.18
170
1
 62
0
 63
7
283
0
  0
ENDSEC
  0
EOF
