999
DXF file: 1h5_c_001.dxf
999
Pro/ENGINEER 2016360 by Parametric Technology Corporation
  0
SECTION
  2
HEADER
  9
$ACADVER
  1
AC1014
  9
$DWGCODEPAGE
  3
ANSI_1252
  9
$EXTMAX
 10
297.0
 20
210.0
 30
0.0
  9
$EXTMIN
 10
0.0
 20
0.0
 30
0.0
  9
$LIMMIN
 10
0.0
 20
0.0
  9
$LIMMAX
 10
297.0
 20
210.0
  9
$VIEWCTR
 10
148.5
 20
105.0
  9
$VIEWSIZE
 40
210.0
  9
$CLAYER
  8
0
  9
$LTSCALE
 40
16.335
  9
$CELTYPE
  6
BYLAYER
  9
$DIMSCALE
 40
1.0
  9
$DIMASZ
 40
2.5
  9
$DIMEXO
 40
0.75
  9
$DIMDLI
 40
11.286
  9
$DIMEXE
 40
0.75
  9
$DIMCEN
 40
2.673
  9
$DIMLFAC
 40
1.0
  9
$DIMBLK
  1
_CLOSED
  9
$DIMALT
 70
0
  9
$DIMALTF
 40
25.4
  9
$DIMTXT
 40
3.0
  9
$DIMTOL
 70
1
  9
$DIMLIM
 70
0
  9
$DIMTFAC
 40
1.0
  9
$DIMTP
 40
0.01
  9
$DIMTM
 40
0.01
  9
$DIMGAP
 40
0.625
  9
$AUNITS
 70
0
  9
$PDMODE
 70
3
  9
$PDSIZE
 40
0.3125
  9
$HANDSEED
  5
42F
  9
$TILEMODE
 70
1
  9
$MEASUREMENT
 70
1
  0
ENDSEC
  0
SECTION
  2
CLASSES
  0
ENDSEC
  0
SECTION
  2
TABLES
  0
TABLE
  2
VPORT
  5
8
100
AcDbSymbolTable
 70
2
  0
VPORT
  5
1F4
100
AcDbSymbolTableRecord
100
AcDbViewportTableRecord
  2
*ACTIVE
 70
0
 10
0.0
 20
0.0
 11
1.0
 21
1.0
 12
148.5
 22
105.0
 13
0.0
 23
0.0
 14
1.0
 24
1.0
 15
0.0
 25
0.0
 16
0.0
 26
0.0
 36
1.0
 17
0.0
 27
0.0
 37
0.0
 40
210.0
 41
1.4142857143
 42
50.0
 43
0.0
 44
0.0
 50
0.0
 51
0.0
 71
0
 72
100
 73
1
 74
1
 75
0
 76
0
 77
0
 78
0
  0
ENDTAB
  0
TABLE
  2
LTYPE
  5
5
100
AcDbSymbolTable
 70
6
  0
LTYPE
  5
14
100
AcDbSymbolTableRecord
100
AcDbLinetypeTableRecord
  2
BYBLOCK
 70
0
  3

 72
65
 73
0
 40
0.0
  0
LTYPE
  5
15
100
AcDbSymbolTableRecord
100
AcDbLinetypeTableRecord
  2
BYLAYER
 70
0
  3

 72
65
 73
0
 40
0.0
  0
LTYPE
  5
16
100
AcDbSymbolTableRecord
100
AcDbLinetypeTableRecord
  2
CONTINUOUS
 70
64
  3
Solid line
 72
65
 73
0
 40
0.0
  0
LTYPE
  5
1F5
100
AcDbSymbolTableRecord
100
AcDbLinetypeTableRecord
  2
CENTER
 70
64
  3
____ _ ____ _ ____ _ ____ _ ____ _ ____ _ ____
 72
65
 73
4
 40
0.6
 49
0.375
 74
0
 49
-0.075
 74
0
 49
0.075
 74
0
 49
-0.075
 74
0
  0
LTYPE
  5
1F6
100
AcDbSymbolTableRecord
100
AcDbLinetypeTableRecord
  2
HIDDEN
 70
64
  3
- - - - - - - - - - - - - - - - - - - -
 72
65
 73
2
 40
0.2
 49
0.1
 74
0
 49
-0.1
 74
0
  0
LTYPE
  5
1F7
100
AcDbSymbolTableRecord
100
AcDbLinetypeTableRecord
  2
PHANTOM
 70
64
  3
_____ _ _ _____ _ _ _____ _ _ _____
 72
65
 73
6
 40
0.8
 49
0.45
 74
0
 49
-0.05
 74
0
 49
0.1
 74
0
 49
-0.05
 74
0
 49
0.1
 74
0
 49
-0.05
 74
0
  0
LTYPE
  5
1F8
100
AcDbSymbolTableRecord
100
AcDbLinetypeTableRecord
  2
DOT
 70
64
  3
. . . . . . . . . . . . . . . . . . . .
 72
65
 73
2
 40
0.2
 49
0.1
 74
0
 49
-0.1
 74
0
  0
LTYPE
  5
1F9
100
AcDbSymbolTableRecord
100
AcDbLinetypeTableRecord
  2
DASHED
 70
64
  3
- - - - - - - - - - - - - - - - - - - -
 72
65
 73
2
 40
0.2
 49
0.1
 74
0
 49
-0.1
 74
0
  0
ENDTAB
  0
TABLE
  2
LAYER
  5
2
100
AcDbSymbolTable
 70
36
  0
LAYER
  5
10
100
AcDbSymbolTableRecord
100
AcDbLayerTableRecord
  2
0
 70
0
 62
7
  6
CONTINUOUS
  0
LAYER
  5
1FA
100
AcDbSymbolTableRecord
100
AcDbLayerTableRecord
  2
DEFAULT_1
 70
0
 62
7
  6
CENTER
  0
LAYER
  5
1FB
100
AcDbSymbolTableRecord
100
AcDbLayerTableRecord
  2
DEFAULT_2
 70
0
 62
8
  6
HIDDEN
  0
LAYER
  5
1FC
100
AcDbSymbolTableRecord
100
AcDbLayerTableRecord
  2
DEFAULT_3
 70
0
 62
7
  6
PHANTOM
  0
LAYER
  5
1FD
100
AcDbSymbolTableRecord
100
AcDbLayerTableRecord
  2
01_ALL_DTM_PLN
 70
0
 62
7
  6
CONTINUOUS
  0
LAYER
  5
1FE
100
AcDbSymbolTableRecord
100
AcDbLayerTableRecord
  2
01__ASM_ALL_DTM_PLN
 70
0
 62
7
  6
CONTINUOUS
  0
LAYER
  5
1FF
100
AcDbSymbolTableRecord
100
AcDbLayerTableRecord
  2
01__ASM_DEF_DTM_PLN
 70
0
 62
7
  6
CONTINUOUS
  0
LAYER
  5
200
100
AcDbSymbolTableRecord
100
AcDbLayerTableRecord
  2
01___PRT_ALL_DTM_PLN
 70
0
 62
7
  6
CONTINUOUS
  0
LAYER
  5
201
100
AcDbSymbolTableRecord
100
AcDbLayerTableRecord
  2
01___PRT_DEF_DTM_PLN
 70
0
 62
7
  6
CONTINUOUS
  0
LAYER
  5
202
100
AcDbSymbolTableRecord
100
AcDbLayerTableRecord
  2
02_ALL_AXES
 70
0
 62
7
  6
CONTINUOUS
  0
LAYER
  5
203
100
AcDbSymbolTableRecord
100
AcDbLayerTableRecord
  2
02__ASM_ALL_AXES
 70
0
 62
7
  6
CONTINUOUS
  0
LAYER
  5
204
100
AcDbSymbolTableRecord
100
AcDbLayerTableRecord
  2
02___PRT_ALL_AXES
 70
0
 62
7
  6
CONTINUOUS
  0
LAYER
  5
205
100
AcDbSymbolTableRecord
100
AcDbLayerTableRecord
  2
03_ALL_CURVES
 70
0
 62
7
  6
CONTINUOUS
  0
LAYER
  5
206
100
AcDbSymbolTableRecord
100
AcDbLayerTableRecord
  2
03__ASM_ALL_CURVES
 70
0
 62
7
  6
CONTINUOUS
  0
LAYER
  5
207
100
AcDbSymbolTableRecord
100
AcDbLayerTableRecord
  2
03___PRT_ALL_CURVES
 70
0
 62
7
  6
CONTINUOUS
  0
LAYER
  5
208
100
AcDbSymbolTableRecord
100
AcDbLayerTableRecord
  2
04_ALL_DTM_PNT
 70
0
 62
7
  6
CONTINUOUS
  0
LAYER
  5
209
100
AcDbSymbolTableRecord
100
AcDbLayerTableRecord
  2
04__ASM_ALL_DTM_PNT
 70
0
 62
7
  6
CONTINUOUS
  0
LAYER
  5
20A
100
AcDbSymbolTableRecord
100
AcDbLayerTableRecord
  2
04___PRT_ALL_DTM_PNT
 70
0
 62
7
  6
CONTINUOUS
  0
LAYER
  5
20B
100
AcDbSymbolTableRecord
100
AcDbLayerTableRecord
  2
05_ALL_DTM_CSYS
 70
0
 62
7
  6
CONTINUOUS
  0
LAYER
  5
20C
100
AcDbSymbolTableRecord
100
AcDbLayerTableRecord
  2
05__ASM_ALL_DTM_CSYS
 70
0
 62
7
  6
CONTINUOUS
  0
LAYER
  5
20D
100
AcDbSymbolTableRecord
100
AcDbLayerTableRecord
  2
05__ASM_DEF_DTM_CSYS
 70
0
 62
7
  6
CONTINUOUS
  0
LAYER
  5
20E
100
AcDbSymbolTableRecord
100
AcDbLayerTableRecord
  2
05___PRT_ALL_DTM_CSYS
 70
0
 62
7
  6
CONTINUOUS
  0
LAYER
  5
20F
100
AcDbSymbolTableRecord
100
AcDbLayerTableRecord
  2
05___PRT_DEF_DTM_CSYS
 70
0
 62
7
  6
CONTINUOUS
  0
LAYER
  5
210
100
AcDbSymbolTableRecord
100
AcDbLayerTableRecord
  2
06_ALL_SURFS
 70
0
 62
7
  6
CONTINUOUS
  0
LAYER
  5
211
100
AcDbSymbolTableRecord
100
AcDbLayerTableRecord
  2
06__ASM_ALL_SURFS
 70
0
 62
7
  6
CONTINUOUS
  0
LAYER
  5
212
100
AcDbSymbolTableRecord
100
AcDbLayerTableRecord
  2
06___PRT_ALL_SURFS
 70
0
 62
7
  6
CONTINUOUS
  0
LAYER
  5
213
100
AcDbSymbolTableRecord
100
AcDbLayerTableRecord
  2
07__ASM_ALL_SKELETONS
 70
0
 62
7
  6
CONTINUOUS
  0
LAYER
  5
214
100
AcDbSymbolTableRecord
100
AcDbLayerTableRecord
  2
1_ALL_PLANES
 70
0
 62
7
  6
CONTINUOUS
  0
LAYER
  5
215
100
AcDbSymbolTableRecord
100
AcDbLayerTableRecord
  2
1__APPOGGIO
 70
0
 62
7
  6
CONTINUOUS
  0
LAYER
  5
216
100
AcDbSymbolTableRecord
100
AcDbLayerTableRecord
  2
2_ALL_CSYS
 70
0
 62
7
  6
CONTINUOUS
  0
LAYER
  5
217
100
AcDbSymbolTableRecord
100
AcDbLayerTableRecord
  2
3_ALL_AXES
 70
0
 62
7
  6
CONTINUOUS
  0
LAYER
  5
218
100
AcDbSymbolTableRecord
100
AcDbLayerTableRecord
  2
4_ALL_POINTS
 70
0
 62
7
  6
CONTINUOUS
  0
LAYER
  5
219
100
AcDbSymbolTableRecord
100
AcDbLayerTableRecord
  2
5_ALL_CURVES
 70
0
 62
7
  6
CONTINUOUS
  0
LAYER
  5
21A
100
AcDbSymbolTableRecord
100
AcDbLayerTableRecord
  2
5__COSTRUZIONE
 70
0
 62
7
  6
CONTINUOUS
  0
LAYER
  5
21B
100
AcDbSymbolTableRecord
100
AcDbLayerTableRecord
  2
6_ALL_SURFS
 70
0
 62
7
  6
CONTINUOUS
  0
LAYER
  5
21C
100
AcDbSymbolTableRecord
100
AcDbLayerTableRecord
  2
7_ALL_FEATURES
 70
0
 62
7
  6
CONTINUOUS
  0
LAYER
  5
21D
100
AcDbSymbolTableRecord
100
AcDbLayerTableRecord
  2
9_SOLID
 70
0
 62
7
  6
CONTINUOUS
  0
LAYER
  5
21E
100
AcDbSymbolTableRecord
100
AcDbLayerTableRecord
  2
CLOSED_SHELL
 70
0
 62
7
  6
CONTINUOUS
  0
LAYER
  5
21F
100
AcDbSymbolTableRecord
100
AcDbLayerTableRecord
  2
INTFCLR_2
 70
0
 62
7
  6
CONTINUOUS
  0
LAYER
  5
220
100
AcDbSymbolTableRecord
100
AcDbLayerTableRecord
  2
XSEC_DATUMS
 70
0
 62
7
  6
CONTINUOUS
  0
LAYER
  5
221
100
AcDbSymbolTableRecord
100
AcDbLayerTableRecord
  2
XXX_SOLIDO
 70
0
 62
7
  6
CONTINUOUS
  0
ENDTAB
  0
TABLE
  2
STYLE
  5
3
100
AcDbSymbolTable
 70
1
  0
STYLE
  5
11
100
AcDbSymbolTableRecord
100
AcDbTextStyleTableRecord
  2
STANDARD
 70
0
 40
0.0
 41
1.0
 50
0.0
 71
0
 42
0.2
  3
arial.ttf
  4

  0
STYLE
  5
222
100
AcDbSymbolTableRecord
100
AcDbTextStyleTableRecord
  2
TEXTSTYLE_1
 70
0
 40
0.0
 41
0.8
 50
0.0
 71
0
 42
0.2
  3
gdt
  4

  0
STYLE
  5
223
100
AcDbSymbolTableRecord
100
AcDbTextStyleTableRecord
  2
TEXTSTYLE_2
 70
0
 40
0.0
 41
0.85
 50
0.0
 71
0
 42
0.2
  3
gdt
  4

  0
STYLE
  5
224
100
AcDbSymbolTableRecord
100
AcDbTextStyleTableRecord
  2
TEXTSTYLE_3
 70
0
 40
0.0
 41
0.85
 50
0.0
 71
0
 42
0.2
  3
txt
  4

  0
ENDTAB
  0
TABLE
  2
VIEW
  5
6
100
AcDbSymbolTable
 70
0
  0
ENDTAB
  0
TABLE
  2
UCS
  5
7
100
AcDbSymbolTable
 70
0
  0
ENDTAB
  0
TABLE
  2
APPID
  5
9
100
AcDbSymbolTable
 70
1
  0
APPID
  5
225
100
AcDbSymbolTableRecord
100
AcDbRegAppTableRecord
  2
ACAD
 70
0
  0
ENDTAB
  0
TABLE
  2
BLOCK_RECORD
  5
1
100
AcDbSymbolTable
 70
0
  0
BLOCK_RECORD
  5
1F
100
AcDbSymbolTableRecord
100
AcDbBlockTableRecord
  2
*MODEL_SPACE
  0
BLOCK_RECORD
  5
1B
100
AcDbSymbolTableRecord
100
AcDbBlockTableRecord
  2
*PAPER_SPACE
  0
BLOCK_RECORD
  5
226
100
AcDbSymbolTableRecord
100
AcDbBlockTableRecord
  2
_CLOSED
  0
BLOCK_RECORD
  5
227
100
AcDbSymbolTableRecord
100
AcDbBlockTableRecord
  2
*D0
  0
BLOCK_RECORD
  5
228
100
AcDbSymbolTableRecord
100
AcDbBlockTableRecord
  2
*D1
  0
BLOCK_RECORD
  5
229
100
AcDbSymbolTableRecord
100
AcDbBlockTableRecord
  2
*D2
  0
BLOCK_RECORD
  5
22A
100
AcDbSymbolTableRecord
100
AcDbBlockTableRecord
  2
*D3
  0
BLOCK_RECORD
  5
22B
100
AcDbSymbolTableRecord
100
AcDbBlockTableRecord
  2
*D4
  0
BLOCK_RECORD
  5
22C
100
AcDbSymbolTableRecord
100
AcDbBlockTableRecord
  2
*D5
  0
BLOCK_RECORD
  5
22D
100
AcDbSymbolTableRecord
100
AcDbBlockTableRecord
  2
*D6
  0
BLOCK_RECORD
  5
22E
100
AcDbSymbolTableRecord
100
AcDbBlockTableRecord
  2
*D7
  0
BLOCK_RECORD
  5
22F
100
AcDbSymbolTableRecord
100
AcDbBlockTableRecord
  2
LOGO2_BL0
  0
ENDTAB
  0
TABLE
  2
DIMSTYLE
  5
A
100
AcDbSymbolTable
 70
1
  0
DIMSTYLE
105
230
100
AcDbSymbolTableRecord
100
AcDbDimStyleTableRecord
  2
STANDARD
 70
0
  3

  4

  5
_CLOSED
  6
_CLOSED
  7
_CLOSED
 40
1.0
 41
2.5
 42
0.75
 43
0.38
 44
0.75
 45
0.0
 46
0.0
 47
0.01
 48
0.01
140
3.0
141
0.09
142
0.0
143
25.4
144
1.0
145
0.0
146
1.0
147
0.625
 71
1.0
 72
0.0
 73
0
 74
0
 75
0
 76
0
 77
1
 78
8
 79
2
170
0
171
1
172
0
173
0
174
0
175
0
176
0
177
0
178
0
270
2
179
2
271
2
272
2
273
2
274
2
275
0
280
0
281
0
282
0
283
1
284
8
285
0
286
0
287
3
288
0
340
11
  0
DIMSTYLE
105
231
100
AcDbSymbolTableRecord
100
AcDbDimStyleTableRecord
  2
DIMSTYLE_1
 70
0
  3
<>
  4

  5
_CLOSED
  6
_CLOSED
  7
_CLOSED
 40
1.0
 41
2.5
 42
0.75
 43
0.38
 44
0.75
 45
0.0
 46
0.0
 47
0.3
 48
0.3
140
3.0
141
0.09
142
0.0
143
25.4
144
1.0
145
0.0
146
1.0
147
0.625
 71
0.0
 72
0.0
 73
0
 74
0
 75
0
 76
0
 77
1
 78
8
 79
2
170
0
171
1
172
1
173
0
174
0
175
0
176
0
177
0
178
0
270
2
179
2
271
2
272
2
273
2
274
2
275
0
280
0
281
0
282
0
283
1
284
8
285
0
286
0
287
3
288
1
340
11
  0
DIMSTYLE
105
232
100
AcDbSymbolTableRecord
100
AcDbDimStyleTableRecord
  2
DIMSTYLE_2
 70
0
  3

  4

  5
_CLOSED
  6
_CLOSED
  7
_CLOSED
 40
1.0
 41
2.5
 42
0.75
 43
0.38
 44
0.75
 45
0.0
 46
0.0
 47
0.3
 48
0.3
140
3.0
141
0.09
142
0.0
143
25.4
144
1.0
145
0.0
146
1.0
147
0.75
 71
0.0
 72
0.0
 73
0
 74
0
 75
0
 76
0
 77
1
 78
8
 79
2
170
0
171
1
172
0
173
0
174
0
175
0
176
0
177
0
178
0
270
2
179
0
271
0
272
0
273
2
274
2
275
0
280
0
281
0
282
0
283
1
284
8
285
0
286
0
287
3
288
0
340
11
  0
DIMSTYLE
105
233
100
AcDbSymbolTableRecord
100
AcDbDimStyleTableRecord
  2
DIMSTYLE_3
 70
0
  3

  4

  5
_CLOSED
  6
_CLOSED
  7
_CLOSED
 40
1.0
 41
2.5
 42
0.75
 43
0.38
 44
0.75
 45
0.0
 46
0.0
 47
0.1
 48
0.1
140
3.0
141
0.09
142
0.0
143
25.4
144
1.0
145
0.0
146
1.0
147
0.75
 71
0.0
 72
0.0
 73
0
 74
0
 75
0
 76
0
 77
1
 78
8
 79
2
170
0
171
1
172
0
173
0
174
0
175
0
176
0
177
0
178
0
270
2
179
2
271
2
272
2
273
2
274
2
275
0
280
0
281
0
282
0
283
1
284
8
285
0
286
0
287
3
288
0
340
11
  0
DIMSTYLE
105
234
100
AcDbSymbolTableRecord
100
AcDbDimStyleTableRecord
  2
DIMSTYLE_4
 70
0
  3

  4

  5
_CLOSED
  6
_CLOSED
  7
_CLOSED
 40
1.0
 41
2.5
 42
0.75
 43
0.38
 44
0.75
 45
0.0
 46
0.0
 47
0.2
 48
0.2
140
3.0
141
0.09
142
0.0
143
25.4
144
1.0
145
0.0
146
1.0
147
0.75
 71
0.0
 72
0.0
 73
0
 74
0
 75
0
 76
0
 77
1
 78
8
 79
2
170
0
171
1
172
0
173
0
174
0
175
0
176
0
177
0
178
0
270
2
179
2
271
2
272
2
273
2
274
2
275
0
280
0
281
0
282
0
283
1
284
8
285
0
286
0
287
3
288
0
340
11
  0
DIMSTYLE
105
235
100
AcDbSymbolTableRecord
100
AcDbDimStyleTableRecord
  2
DIMSTYLE_5
 70
0
  3

  4

  5
_CLOSED
  6
_CLOSED
  7
_CLOSED
 40
1.0
 41
2.5
 42
0.75
 43
0.38
 44
0.75
 45
0.0
 46
0.0
 47
0.3
 48
0.3
140
3.0
141
0.09
142
0.0
143
25.4
144
1.0
145
0.0
146
1.0
147
0.75
 71
0.0
 72
0.0
 73
0
 74
0
 75
0
 76
0
 77
1
 78
8
 79
2
170
0
171
1
172
0
173
0
174
0
175
0
176
0
177
0
178
0
270
2
179
2
271
2
272
2
273
2
274
2
275
0
280
0
281
0
282
0
283
1
284
8
285
0
286
0
287
3
288
0
340
11
  0
ENDTAB
  0
ENDSEC
  0
SECTION
  2
BLOCKS
  0
BLOCK
  5
20
100
AcDbEntity
  8
0
100
AcDbBlockBegin
  2
*MODEL_SPACE
 70
0
 10
0.0
 20
0.0
 30
0.0
  3
*MODEL_SPACE
  1

  0
ENDBLK
  5
21
100
AcDbEntity
  8
0
100
AcDbBlockEnd
  0
BLOCK
  5
1C
100
AcDbEntity
  8
0
100
AcDbBlockBegin
  2
*PAPER_SPACE
 70
0
 10
0.0
 20
0.0
 30
0.0
  3
*PAPER_SPACE
  1

  0
ENDBLK
  5
1D
100
AcDbEntity
  8
0
100
AcDbBlockEnd
  0
BLOCK
  5
236
100
AcDbEntity
  8
0
100
AcDbBlockBegin
 62
2
  6
CONTINUOUS
  2
LOGO2_BL0
 70
64
 10
207.6164605391
 20
39.6725198453
  3
LOGO2_BL0
  1

  0
LINE
  5
237
100
AcDbEntity
  8
0
100
AcDbLine
 62
7
  6
CONTINUOUS
 10
199.3593857673
 20
42.8680111841
 11
198.055044838
 21
42.8680111841
  0
LINE
  5
238
100
AcDbEntity
  8
0
100
AcDbLine
 62
7
  6
CONTINUOUS
 10
198.055044838
 20
42.8680111841
 11
198.055044838
 21
32.4089451242
  0
LINE
  5
239
100
AcDbEntity
  8
0
100
AcDbLine
 62
7
  6
CONTINUOUS
 10
198.055044838
 20
32.4089451242
 11
202.5360997262
 21
32.4089451242
  0
LINE
  5
23A
100
AcDbEntity
  8
0
100
AcDbLine
 62
7
  6
CONTINUOUS
 10
202.5360997262
 20
32.4089451242
 11
202.5360997262
 21
33.6017994493
  0
LINE
  5
23B
100
AcDbEntity
  8
0
100
AcDbLine
 62
7
  6
CONTINUOUS
 10
202.5360997262
 20
33.6017994493
 11
199.3593857673
 21
33.6017994493
  0
LINE
  5
23C
100
AcDbEntity
  8
0
100
AcDbLine
 62
7
  6
CONTINUOUS
 10
199.3593857673
 20
33.6017994493
 11
199.3593857673
 21
42.8680111841
  0
LINE
  5
23D
100
AcDbEntity
  8
0
100
AcDbLine
 62
7
  6
CONTINUOUS
 10
214.2957119836
 20
42.8680111841
 11
212.9918944656
 21
42.8680111841
  0
LINE
  5
23E
100
AcDbEntity
  8
0
100
AcDbLine
 62
7
  6
CONTINUOUS
 10
212.9918944656
 20
42.8680111841
 11
212.9918944656
 21
32.4089451242
  0
LINE
  5
23F
100
AcDbEntity
  8
0
100
AcDbLine
 62
7
  6
CONTINUOUS
 10
212.9918944656
 20
32.4089451242
 11
217.4730802067
 21
32.4089451242
  0
LINE
  5
240
100
AcDbEntity
  8
0
100
AcDbLine
 62
7
  6
CONTINUOUS
 10
217.4730802067
 20
32.4089451242
 11
217.4730802067
 21
33.6017994493
  0
LINE
  5
241
100
AcDbEntity
  8
0
100
AcDbLine
 62
7
  6
CONTINUOUS
 10
217.4730802067
 20
33.6017994493
 11
214.2957119836
 21
33.6017994493
  0
LINE
  5
242
100
AcDbEntity
  8
0
100
AcDbLine
 62
7
  6
CONTINUOUS
 10
214.2957119836
 20
33.6017994493
 11
214.2957119836
 21
42.8680111841
  0
LWPOLYLINE
  5
243
100
AcDbEntity
  8
0
100
AcDbPolyline
 62
7
  6
CONTINUOUS
 90
2
 70
0
 43
0.2
 10
196.4094397489
 20
29.0653938173
 10
196.4094397489
 20
27.208330568
  0
LWPOLYLINE
  5
244
100
AcDbEntity
  8
0
100
AcDbPolyline
 62
7
  6
CONTINUOUS
 90
2
 70
0
 43
0.2
 10
196.4094397489
 20
27.208330568
 10
197.2051557593
 20
27.208330568
  0
LWPOLYLINE
  5
245
100
AcDbEntity
  8
0
100
AcDbPolyline
 62
7
  6
CONTINUOUS
 90
2
 70
0
 43
0.2
 10
197.2051557593
 20
27.208330568
 10
197.2051557593
 20
27.4203121396
  0
LWPOLYLINE
  5
246
100
AcDbEntity
  8
0
100
AcDbPolyline
 62
7
  6
CONTINUOUS
 90
2
 70
0
 43
0.2
 10
197.2051557593
 20
27.4203121396
 10
196.6410492438
 20
27.4203121396
  0
LWPOLYLINE
  5
247
100
AcDbEntity
  8
0
100
AcDbPolyline
 62
7
  6
CONTINUOUS
 90
2
 70
0
 43
0.2
 10
196.6410492438
 20
27.4203121396
 10
196.6410492438
 20
29.0653938173
  0
LWPOLYLINE
  5
248
100
AcDbEntity
  8
0
100
AcDbPolyline
 62
7
  6
CONTINUOUS
 90
2
 70
0
 43
0.2
 10
196.6410492438
 20
29.0653938173
 10
196.4094397489
 20
29.0653938173
  0
SPLINE
  5
249
100
AcDbEntity
  8
0
100
AcDbSpline
 62
7
  6
CONTINUOUS
 70
2
 71
3
 72
35
 73
31
 74
0
 42
0.0000001
 43
0.0000001
 44
0.0000000001
 40
0.0
 40
0.0
 40
0.0
 40
0.0
 40
1.0
 40
1.0
 40
1.0
 40
2.0
 40
2.0
 40
2.0
 40
3.0
 40
3.0
 40
3.0
 40
4.0
 40
4.0
 40
4.0
 40
5.0
 40
5.0
 40
5.0
 40
6.0
 40
6.0
 40
6.0
 40
7.0
 40
7.0
 40
7.0
 40
8.0
 40
8.0
 40
8.0
 40
9.0
 40
9.0
 40
9.0
 40
10.0
 40
10.0
 40
10.0
 40
10.0
 10
198.6034490148
 20
28.3608822239
 30
0.0
 10
198.6034490148
 20
28.3608822239
 30
0.0
 10
198.6034490148
 20
27.6987669447
 30
0.0
 10
198.6034490148
 20
27.6987669447
 30
0.0
 10
198.6034490148
 20
27.3836733494
 30
0.0
 10
198.7513127037
 20
27.1690747214
 30
0.0
 10
199.0913991879
 20
27.1690747214
 30
0.0
 10
199.430962261
 20
27.1690747214
 30
0.0
 10
199.5790876554
 20
27.3836733494
 30
0.0
 10
199.5790876554
 20
27.6987669447
 30
0.0
 10
199.5790876554
 20
27.6987669447
 30
0.0
 10
199.5790876554
 20
28.3608822239
 30
0.0
 10
199.5790876554
 20
28.3608822239
 30
0.0
 10
199.5790876554
 20
28.3608822239
 30
0.0
 10
199.3570304165
 20
28.3608822239
 30
0.0
 10
199.3570304165
 20
28.3608822239
 30
0.0
 10
199.3570304165
 20
28.3608822239
 30
0.0
 10
199.3570304165
 20
27.7238906865
 30
0.0
 10
199.3570304165
 20
27.7238906865
 30
0.0
 10
199.3570304165
 20
27.5380796793
 30
0.0
 10
199.3103159591
 20
27.3752987688
 30
0.0
 10
199.0913991879
 20
27.3752987688
 30
0.0
 10
198.8719590055
 20
27.3752987688
 30
0.0
 10
198.8252445481
 20
27.5380796793
 30
0.0
 10
198.8252445481
 20
27.7238906865
 30
0.0
 10
198.8252445481
 20
27.7238906865
 30
0.0
 10
198.8252445481
 20
28.3608822239
 30
0.0
 10
198.8252445481
 20
28.3608822239
 30
0.0
 10
198.8252445481
 20
28.3608822239
 30
0.0
 10
198.6034490148
 20
28.3608822239
 30
0.0
 10
198.6034490148
 20
28.3608822239
 30
0.0
  0
SPLINE
  5
24A
100
AcDbEntity
  8
0
100
AcDbSpline
 62
7
  6
CONTINUOUS
 70
2
 71
3
 72
35
 73
31
 74
0
 42
0.0000001
 43
0.0000001
 44
0.0000000001
 40
0.0
 40
0.0
 40
0.0
 40
0.0
 40
1.0
 40
1.0
 40
1.0
 40
2.0
 40
2.0
 40
2.0
 40
3.0
 40
3.0
 40
3.0
 40
4.0
 40
4.0
 40
4.0
 40
5.0
 40
5.0
 40
5.0
 40
6.0
 40
6.0
 40
6.0
 40
7.0
 40
7.0
 40
7.0
 40
8.0
 40
8.0
 40
8.0
 40
9.0
 40
9.0
 40
9.0
 40
10.0
 40
10.0
 40
10.0
 40
10.0
 10
202.0022202126
 20
28.3195327321
 30
0.0
 10
201.913763705
 20
28.3708270383
 30
0.0
 10
201.8003143083
 20
28.3959507801
 30
0.0
 10
201.6966788733
 20
28.3959507801
 30
0.0
 10
201.3418060201
 20
28.3959507801
 30
0.0
 10
201.0663608299
 20
28.1321514911
 30
0.0
 10
201.0663608299
 20
27.7746615814
 30
0.0
 10
201.0663608299
 20
27.4297335427
 30
0.0
 10
201.344815635
 20
27.1695981327
 30
0.0
 10
201.6843787081
 20
27.1695981327
 30
0.0
 10
201.8003143083
 20
27.1695981327
 30
0.0
 10
201.9010709812
 20
27.1915814068
 30
0.0
 10
202.0022202126
 20
27.2454927694
 30
0.0
 10
202.0022202126
 20
27.2454927694
 30
0.0
 10
202.0022202126
 20
27.5281348649
 30
0.0
 10
202.0022202126
 20
27.5281348649
 30
0.0
 10
201.9183435537
 20
27.4349676556
 30
0.0
 10
201.8148389716
 20
27.3758221801
 30
0.0
 10
201.6867340588
 20
27.3758221801
 30
0.0
 10
201.4530309188
 20
27.3758221801
 30
0.0
 10
201.2877638047
 20
27.5480244938
 30
0.0
 10
201.2877638047
 20
27.7846063959
 30
0.0
 10
201.2877638047
 20
27.9965879675
 30
0.0
 10
201.4555171224
 20
28.1886799102
 30
0.0
 10
201.6723402484
 20
28.1886799102
 30
0.0
 10
201.8051558627
 20
28.1886799102
 30
0.0
 10
201.913763705
 20
28.1347685475
 30
0.0
 10
202.0022202126
 20
28.0337501689
 30
0.0
 10
202.0022202126
 20
28.0337501689
 30
0.0
 10
202.0022202126
 20
28.3195327321
 30
0.0
 10
202.0022202126
 20
28.3195327321
 30
0.0
  0
SPLINE
  5
24B
100
AcDbEntity
  8
0
100
AcDbSpline
 62
7
  6
CONTINUOUS
 70
2
 71
3
 72
32
 73
28
 74
0
 42
0.0000001
 43
0.0000001
 44
0.0000000001
 40
0.0
 40
0.0
 40
0.0
 40
0.0
 40
1.0
 40
1.0
 40
1.0
 40
2.0
 40
2.0
 40
2.0
 40
3.0
 40
3.0
 40
3.0
 40
4.0
 40
4.0
 40
4.0
 40
5.0
 40
5.0
 40
5.0
 40
6.0
 40
6.0
 40
6.0
 40
7.0
 40
7.0
 40
7.0
 40
8.0
 40
8.0
 40
8.0
 40
9.0
 40
9.0
 40
9.0
 40
9.0
 10
204.5340914649
 20
27.7479676058
 30
0.0
 10
204.5340914649
 20
27.7479676058
 30
0.0
 10
204.5340914649
 20
27.7819893395
 30
0.0
 10
204.5340914649
 20
27.7819893395
 30
0.0
 10
204.5340914649
 20
28.1243003217
 30
0.0
 10
204.361234887
 20
28.3959507801
 30
0.0
 10
203.9945852799
 20
28.3959507801
 30
0.0
 10
203.6229632655
 20
28.3959507801
 30
0.0
 10
203.4332266736
 20
28.1295344346
 30
0.0
 10
203.4332266736
 20
27.7746615814
 30
0.0
 10
203.4332266736
 20
27.4349676556
 30
0.0
 10
203.6473018904
 20
27.1690747214
 30
0.0
 10
203.9994268343
 20
27.1690747214
 30
0.0
 10
204.2234468655
 20
27.1690747214
 30
0.0
 10
204.4256144755
 20
27.284748616
 30
0.0
 10
204.5340914649
 20
27.4841683167
 30
0.0
 10
204.5340914649
 20
27.4841683167
 30
0.0
 10
204.3464485182
 20
27.5909442194
 30
0.0
 10
204.3464485182
 20
27.5909442194
 30
0.0
 10
204.2629644177
 20
27.4522402281
 30
0.0
 10
204.1717600008
 20
27.3664007769
 30
0.0
 10
204.0021747436
 20
27.3664007769
 30
0.0
 10
203.790193172
 20
27.3664007769
 30
0.0
 10
203.6572467049
 20
27.5511649615
 30
0.0
 10
203.6548913541
 20
27.7479676058
 30
0.0
 10
203.6548913541
 20
27.7479676058
 30
0.0
 10
204.5340914649
 20
27.7479676058
 30
0.0
 10
204.5340914649
 20
27.7479676058
 30
0.0
  0
SPLINE
  5
24C
100
AcDbEntity
  8
0
100
AcDbSpline
 62
7
  6
CONTINUOUS
 70
2
 71
3
 72
14
 73
10
 74
0
 42
0.0000001
 43
0.0000001
 44
0.0000000001
 40
0.0
 40
0.0
 40
0.0
 40
0.0
 40
1.0
 40
1.0
 40
1.0
 40
2.0
 40
2.0
 40
2.0
 40
3.0
 40
3.0
 40
3.0
 40
3.0
 10
203.6669298137
 20
27.9154592179
 30
0.0
 10
203.6945397591
 20
28.0803337736
 30
0.0
 10
203.8223829662
 20
28.2033354262
 30
0.0
 10
203.9945852799
 20
28.2033354262
 30
0.0
 10
204.1717600008
 20
28.2033354262
 30
0.0
 10
204.2852093975
 20
28.0876615316
 30
0.0
 10
204.3124267844
 20
27.9154592179
 30
0.0
 10
204.3124267844
 20
27.9154592179
 30
0.0
 10
203.6669298137
 20
27.9154592179
 30
0.0
 10
203.6669298137
 20
27.9154592179
 30
0.0
  0
SPLINE
  5
24D
100
AcDbEntity
  8
0
100
AcDbSpline
 62
7
  6
CONTINUOUS
 70
2
 71
3
 72
20
 73
16
 74
0
 42
0.0000001
 43
0.0000001
 44
0.0000000001
 40
0.0
 40
0.0
 40
0.0
 40
0.0
 40
1.0
 40
1.0
 40
1.0
 40
2.0
 40
2.0
 40
2.0
 40
3.0
 40
3.0
 40
3.0
 40
4.0
 40
4.0
 40
4.0
 40
5.0
 40
5.0
 40
5.0
 40
5.0
 10
206.5581229151
 20
28.124823733
 30
0.0
 10
206.5581229151
 20
28.124823733
 30
0.0
 10
206.9692624817
 20
27.6223488967
 30
0.0
 10
206.9692624817
 20
27.6223488967
 30
0.0
 10
206.8531960286
 20
27.5066750021
 30
0.0
 10
206.7154080071
 20
27.3763455914
 30
0.0
 10
206.543467399
 20
27.3763455914
 30
0.0
 10
206.3660309724
 20
27.3763455914
 30
0.0
 10
206.1985393603
 20
27.5406967358
 30
0.0
 10
206.1985393603
 20
27.7176097511
 30
0.0
 10
206.1985393603
 20
27.8955695889
 30
0.0
 10
206.4082964339
 20
28.0217117093
 30
0.0
 10
206.5358779353
 20
28.1096448057
 30
0.0
 10
206.5358779353
 20
28.1096448057
 30
0.0
 10
206.5581229151
 20
28.124823733
 30
0.0
 10
206.5581229151
 20
28.124823733
 30
0.0
  0
SPLINE
  5
24E
100
AcDbEntity
  8
0
100
AcDbSpline
 62
7
  6
CONTINUOUS
 70
2
 71
3
 72
23
 73
19
 74
0
 42
0.0000001
 43
0.0000001
 44
0.0000000001
 40
0.0
 40
0.0
 40
0.0
 40
0.0
 40
1.0
 40
1.0
 40
1.0
 40
2.0
 40
2.0
 40
2.0
 40
3.0
 40
3.0
 40
3.0
 40
4.0
 40
4.0
 40
4.0
 40
5.0
 40
5.0
 40
5.0
 40
6.0
 40
6.0
 40
6.0
 40
6.0
 10
206.6074544289
 20
28.4158404091
 30
0.0
 10
206.6074544289
 20
28.4158404091
 30
0.0
 10
206.5458227498
 20
28.4943521023
 30
0.0
 10
206.5458227498
 20
28.4943521023
 30
0.0
 10
206.4919113871
 20
28.562918981
 30
0.0
 10
206.4351212624
 20
28.632009271
 30
0.0
 10
206.4351212624
 20
28.7256998915
 30
0.0
 10
206.4351212624
 20
28.8445142539
 30
0.0
 10
206.5310363809
 20
28.9219791245
 30
0.0
 10
206.6419995739
 20
28.9219791245
 30
0.0
 10
206.7652629322
 20
28.9219791245
 30
0.0
 10
206.8585609943
 20
28.8507951893
 30
0.0
 10
206.8585609943
 20
28.7204657786
 30
0.0
 10
206.8585609943
 20
28.5854256664
 30
0.0
 10
206.7304560816
 20
28.5090076183
 30
0.0
 10
206.6368963139
 20
28.4352066267
 30
0.0
 10
206.6368963139
 20
28.4352066267
 30
0.0
 10
206.6074544289
 20
28.4158404091
 30
0.0
 10
206.6074544289
 20
28.4158404091
 30
0.0
  0
SPLINE
  5
24F
100
AcDbEntity
  8
0
100
AcDbSpline
 62
7
  6
CONTINUOUS
 70
2
 71
3
 72
50
 73
46
 74
0
 42
0.0000001
 43
0.0000001
 44
0.0000000001
 40
0.0
 40
0.0
 40
0.0
 40
0.0
 40
1.0
 40
1.0
 40
1.0
 40
2.0
 40
2.0
 40
2.0
 40
3.0
 40
3.0
 40
3.0
 40
4.0
 40
4.0
 40
4.0
 40
5.0
 40
5.0
 40
5.0
 40
6.0
 40
6.0
 40
6.0
 40
7.0
 40
7.0
 40
7.0
 40
8.0
 40
8.0
 40
8.0
 40
9.0
 40
9.0
 40
9.0
 40
10.0
 40
10.0
 40
10.0
 40
11.0
 40
11.0
 40
11.0
 40
12.0
 40
12.0
 40
12.0
 40
13.0
 40
13.0
 40
13.0
 40
14.0
 40
14.0
 40
14.0
 40
15.0
 40
15.0
 40
15.0
 40
15.0
 10
207.3096106716
 20
27.2088539793
 30
0.0
 10
207.3096106716
 20
27.2088539793
 30
0.0
 10
207.5950006763
 20
27.2088539793
 30
0.0
 10
207.5950006763
 20
27.2088539793
 30
0.0
 10
207.5950006763
 20
27.2088539793
 30
0.0
 10
207.2626345085
 20
27.6197318402
 30
0.0
 10
207.2626345085
 20
27.6197318402
 30
0.0
 10
207.2626345085
 20
27.6197318402
 30
0.0
 10
207.4891407434
 20
27.8856247745
 30
0.0
 10
207.4891407434
 20
27.8856247745
 30
0.0
 10
207.4891407434
 20
27.8856247745
 30
0.0
 10
207.3408844961
 20
28.0384608705
 30
0.0
 10
207.3408844961
 20
28.0384608705
 30
0.0
 10
207.3408844961
 20
28.0384608705
 30
0.0
 10
207.1249773398
 20
27.7872234524
 30
0.0
 10
207.1249773398
 20
27.7872234524
 30
0.0
 10
207.1249773398
 20
27.7872234524
 30
0.0
 10
206.7379146924
 20
28.2551531437
 30
0.0
 10
206.7379146924
 20
28.2551531437
 30
0.0
 10
206.8933678449
 20
28.3692568045
 30
0.0
 10
207.0756458259
 20
28.5090076183
 30
0.0
 10
207.0756458259
 20
28.7183721335
 30
0.0
 10
207.0756458259
 20
28.9622817936
 30
0.0
 10
206.8736090688
 20
29.1056964865
 30
0.0
 10
206.647102834
 20
29.1056964865
 30
0.0
 10
206.4029314682
 20
29.1056964865
 30
0.0
 10
206.2185598421
 20
28.9549540356
 30
0.0
 10
206.2185598421
 20
28.6984825045
 30
0.0
 10
206.2185598421
 20
28.5409357069
 30
0.0
 10
206.3172228698
 20
28.4032785382
 30
0.0
 10
206.4225593915
 20
28.2923153452
 30
0.0
 10
206.4225593915
 20
28.2923153452
 30
0.0
 10
206.3070163497
 20
28.2085695391
 30
0.0
 10
206.3070163497
 20
28.2085695391
 30
0.0
 10
206.1293182175
 20
28.0803337736
 30
0.0
 10
205.9819779399
 20
27.9526214193
 30
0.0
 10
205.9819779399
 20
27.7155161059
 30
0.0
 10
205.9819779399
 20
27.3951883977
 30
0.0
 10
206.2405431161
 20
27.1690747214
 30
0.0
 10
206.5509260098
 20
27.1690747214
 30
0.0
 10
206.769842781
 20
27.1690747214
 30
0.0
 10
206.9670379837
 20
27.2941700192
 30
0.0
 10
207.1073122089
 20
27.4600913974
 30
0.0
 10
207.1073122089
 20
27.4600913974
 30
0.0
 10
207.3096106716
 20
27.2088539793
 30
0.0
 10
207.3096106716
 20
27.2088539793
 30
0.0
  0
LWPOLYLINE
  5
250
100
AcDbEntity
  8
0
100
AcDbPolyline
 62
7
  6
CONTINUOUS
 90
2
 70
0
 43
0.2
 10
209.2450547613
 20
29.0653938173
 10
209.0137069721
 20
29.0653938173
  0
LWPOLYLINE
  5
251
100
AcDbEntity
  8
0
100
AcDbPolyline
 62
7
  6
CONTINUOUS
 90
2
 70
0
 43
0.2
 10
209.0137069721
 20
29.0653938173
 10
209.0137069721
 20
27.208330568
  0
LWPOLYLINE
  5
252
100
AcDbEntity
  8
0
100
AcDbPolyline
 62
7
  6
CONTINUOUS
 90
2
 70
0
 43
0.2
 10
209.0137069721
 20
27.208330568
 10
209.809030424
 20
27.208330568
  0
LWPOLYLINE
  5
253
100
AcDbEntity
  8
0
100
AcDbPolyline
 62
7
  6
CONTINUOUS
 90
2
 70
0
 43
0.2
 10
209.809030424
 20
27.208330568
 10
209.809030424
 20
27.4203121396
  0
LWPOLYLINE
  5
254
100
AcDbEntity
  8
0
100
AcDbPolyline
 62
7
  6
CONTINUOUS
 90
2
 70
0
 43
0.2
 10
209.809030424
 20
27.4203121396
 10
209.2450547613
 20
27.4203121396
  0
LWPOLYLINE
  5
255
100
AcDbEntity
  8
0
100
AcDbPolyline
 62
7
  6
CONTINUOUS
 90
2
 70
0
 43
0.2
 10
209.2450547613
 20
27.4203121396
 10
209.2450547613
 20
29.0653938173
  0
LWPOLYLINE
  5
256
100
AcDbEntity
  8
0
100
AcDbPolyline
 62
7
  6
CONTINUOUS
 90
2
 70
0
 43
0.2
 10
211.4881338355
 20
28.3608822239
 10
211.2669925664
 20
28.3608822239
  0
LWPOLYLINE
  5
257
100
AcDbEntity
  8
0
100
AcDbPolyline
 62
7
  6
CONTINUOUS
 90
2
 70
0
 43
0.2
 10
211.2669925664
 20
28.3608822239
 10
211.2669925664
 20
27.2088539793
  0
LWPOLYLINE
  5
258
100
AcDbEntity
  8
0
100
AcDbPolyline
 62
7
  6
CONTINUOUS
 90
2
 70
0
 43
0.2
 10
211.2669925664
 20
27.2088539793
 10
211.4881338355
 20
27.2088539793
  0
LWPOLYLINE
  5
259
100
AcDbEntity
  8
0
100
AcDbPolyline
 62
7
  6
CONTINUOUS
 90
2
 70
0
 43
0.2
 10
211.4881338355
 20
27.2088539793
 10
211.4881338355
 20
28.3608822239
  0
SPLINE
  5
25A
100
AcDbEntity
  8
0
100
AcDbSpline
 62
7
  6
CONTINUOUS
 70
2
 71
3
 72
17
 73
13
 74
0
 42
0.0000001
 43
0.0000001
 44
0.0000000001
 40
0.0
 40
0.0
 40
0.0
 40
0.0
 40
1.0
 40
1.0
 40
1.0
 40
2.0
 40
2.0
 40
2.0
 40
3.0
 40
3.0
 40
3.0
 40
4.0
 40
4.0
 40
4.0
 40
4.0
 10
211.3776940538
 20
29.0434105432
 30
0.0
 10
211.2936865421
 20
29.0434105432
 30
0.0
 10
211.2251196633
 20
28.9743202532
 30
0.0
 10
211.2251196633
 20
28.888480802
 30
0.0
 10
211.2251196633
 20
28.8042115847
 30
0.0
 10
211.2936865421
 20
28.7382617624
 30
0.0
 10
211.3776940538
 20
28.7382617624
 30
0.0
 10
211.4614398598
 20
28.7382617624
 30
0.0
 10
211.5302684442
 20
28.8042115847
 30
0.0
 10
211.5302684442
 20
28.888480802
 30
0.0
 10
211.5302684442
 20
28.9743202532
 30
0.0
 10
211.4614398598
 20
29.0434105432
 30
0.0
 10
211.3776940538
 20
29.0434105432
 30
0.0
  0
SPLINE
  5
25B
100
AcDbEntity
  8
0
100
AcDbSpline
 62
7
  6
CONTINUOUS
 70
2
 71
3
 72
17
 73
13
 74
0
 42
0.0000001
 43
0.0000001
 44
0.0000000001
 40
0.0
 40
0.0
 40
0.0
 40
0.0
 40
1.0
 40
1.0
 40
1.0
 40
2.0
 40
2.0
 40
2.0
 40
3.0
 40
3.0
 40
3.0
 40
4.0
 40
4.0
 40
4.0
 40
4.0
 10
213.6184177771
 20
27.3664007769
 30
0.0
 10
213.3844529315
 20
27.3664007769
 30
0.0
 10
213.2541235208
 20
27.568437534
 30
0.0
 10
213.2541235208
 20
27.7846063959
 30
0.0
 10
213.2541235208
 20
27.9992050239
 30
0.0
 10
213.38994875
 20
28.1981013133
 30
0.0
 10
213.6184177771
 20
28.1981013133
 30
0.0
 10
213.8578784413
 20
28.1981013133
 30
0.0
 10
213.9934419649
 20
28.0091498384
 30
0.0
 10
213.9934419649
 20
27.7846063959
 30
0.0
 10
213.9934419649
 20
27.5584927196
 30
0.0
 10
213.8602337921
 20
27.3664007769
 30
0.0
 10
213.6184177771
 20
27.3664007769
 30
0.0
  0
SPLINE
  5
25C
100
AcDbEntity
  8
0
100
AcDbSpline
 62
7
  6
CONTINUOUS
 70
2
 71
3
 72
50
 73
46
 74
0
 42
0.0000001
 43
0.0000001
 44
0.0000000001
 40
0.0
 40
0.0
 40
0.0
 40
0.0
 40
1.0
 40
1.0
 40
1.0
 40
2.0
 40
2.0
 40
2.0
 40
3.0
 40
3.0
 40
3.0
 40
4.0
 40
4.0
 40
4.0
 40
5.0
 40
5.0
 40
5.0
 40
6.0
 40
6.0
 40
6.0
 40
7.0
 40
7.0
 40
7.0
 40
8.0
 40
8.0
 40
8.0
 40
9.0
 40
9.0
 40
9.0
 40
10.0
 40
10.0
 40
10.0
 40
11.0
 40
11.0
 40
11.0
 40
12.0
 40
12.0
 40
12.0
 40
13.0
 40
13.0
 40
13.0
 40
14.0
 40
14.0
 40
14.0
 40
15.0
 40
15.0
 40
15.0
 40
15.0
 10
214.2025447744
 20
28.3614056352
 30
0.0
 10
214.2025447744
 20
28.3614056352
 30
0.0
 10
213.980880094
 20
28.3614056352
 30
0.0
 10
213.980880094
 20
28.3614056352
 30
0.0
 10
213.980880094
 20
28.3614056352
 30
0.0
 10
213.980880094
 20
28.1640795796
 30
0.0
 10
213.980880094
 20
28.1640795796
 30
0.0
 10
213.980880094
 20
28.1640795796
 30
0.0
 10
213.9761693924
 20
28.1640795796
 30
0.0
 10
213.9761693924
 20
28.1640795796
 30
0.0
 10
213.8848341227
 20
28.3069708612
 30
0.0
 10
213.7469152483
 20
28.3954273689
 30
0.0
 10
213.5741895233
 20
28.3954273689
 30
0.0
 10
213.2418233555
 20
28.3954273689
 30
0.0
 10
213.032720546
 20
28.1075511605
 30
0.0
 10
213.032720546
 20
27.7919341539
 30
0.0
 10
213.032720546
 20
27.4621850426
 30
0.0
 10
213.2297848959
 20
27.1690747214
 30
0.0
 10
213.5846577491
 20
27.1690747214
 30
0.0
 10
213.7469152483
 20
27.1690747214
 30
0.0
 10
213.8869277678
 20
27.257531229
 30
0.0
 10
213.9761693924
 20
27.388384051
 30
0.0
 10
213.9761693924
 20
27.388384051
 30
0.0
 10
213.980880094
 20
27.388384051
 30
0.0
 10
213.980880094
 20
27.388384051
 30
0.0
 10
213.980880094
 20
27.388384051
 30
0.0
 10
213.980880094
 20
27.1690747214
 30
0.0
 10
213.980880094
 20
27.1690747214
 30
0.0
 10
213.980880094
 20
26.9324928193
 30
0.0
 10
213.9243516749
 20
26.7456349895
 30
0.0
 10
213.6511309826
 20
26.7456349895
 30
0.0
 10
213.4488325199
 20
26.7456349895
 30
0.0
 10
213.3062029439
 20
26.8639259406
 30
0.0
 10
213.3062029439
 20
27.070149988
 30
0.0
 10
213.3062029439
 20
27.070149988
 30
0.0
 10
213.0845382635
 20
27.070149988
 30
0.0
 10
213.0845382635
 20
27.070149988
 30
0.0
 10
213.0895106707
 20
26.7456349895
 30
0.0
 10
213.3205967543
 20
26.5488323453
 30
0.0
 10
213.6409244625
 20
26.5488323453
 30
0.0
 10
214.0889645249
 20
26.5488323453
 30
0.0
 10
214.2025447744
 20
26.8340914971
 30
0.0
 10
214.2025447744
 20
27.2308372534
 30
0.0
 10
214.2025447744
 20
27.2308372534
 30
0.0
 10
214.2025447744
 20
28.3614056352
 30
0.0
 10
214.2025447744
 20
28.3614056352
 30
0.0
  0
SPLINE
  5
25D
100
AcDbEntity
  8
0
100
AcDbSpline
 62
7
  6
CONTINUOUS
 70
2
 71
3
 72
44
 73
40
 74
0
 42
0.0000001
 43
0.0000001
 44
0.0000000001
 40
0.0
 40
0.0
 40
0.0
 40
0.0
 40
1.0
 40
1.0
 40
1.0
 40
2.0
 40
2.0
 40
2.0
 40
3.0
 40
3.0
 40
3.0
 40
4.0
 40
4.0
 40
4.0
 40
5.0
 40
5.0
 40
5.0
 40
6.0
 40
6.0
 40
6.0
 40
7.0
 40
7.0
 40
7.0
 40
8.0
 40
8.0
 40
8.0
 40
9.0
 40
9.0
 40
9.0
 40
10.0
 40
10.0
 40
10.0
 40
11.0
 40
11.0
 40
11.0
 40
12.0
 40
12.0
 40
12.0
 40
13.0
 40
13.0
 40
13.0
 40
13.0
 10
215.7714701098
 20
29.3464656789
 30
0.0
 10
215.7714701098
 20
29.3464656789
 30
0.0
 10
215.7714701098
 20
27.208330568
 30
0.0
 10
215.7714701098
 20
27.208330568
 30
0.0
 10
215.7714701098
 20
27.208330568
 30
0.0
 10
215.9928730846
 20
27.208330568
 30
0.0
 10
215.9928730846
 20
27.208330568
 30
0.0
 10
215.9928730846
 20
27.208330568
 30
0.0
 10
215.9928730846
 20
27.7380227913
 30
0.0
 10
215.9928730846
 20
27.7380227913
 30
0.0
 10
215.9928730846
 20
27.9479107177
 30
0.0
 10
215.9928730846
 20
28.1986247246
 30
0.0
 10
216.2781322364
 20
28.1986247246
 30
0.0
 10
216.5050310297
 20
28.1986247246
 30
0.0
 10
216.5319867111
 20
28.0656782575
 30
0.0
 10
216.5319867111
 20
27.8693990246
 30
0.0
 10
216.5319867111
 20
27.8693990246
 30
0.0
 10
216.5319867111
 20
27.208330568
 30
0.0
 10
216.5319867111
 20
27.208330568
 30
0.0
 10
216.5319867111
 20
27.208330568
 30
0.0
 10
216.7539130971
 20
27.208330568
 30
0.0
 10
216.7539130971
 20
27.208330568
 30
0.0
 10
216.7539130971
 20
27.208330568
 30
0.0
 10
216.7539130971
 20
27.8955695889
 30
0.0
 10
216.7539130971
 20
27.8955695889
 30
0.0
 10
216.7539130971
 20
28.1761180392
 30
0.0
 10
216.6699055854
 20
28.3959507801
 30
0.0
 10
216.3448671757
 20
28.3959507801
 30
0.0
 10
216.2051163618
 20
28.3959507801
 30
0.0
 10
216.0669357818
 20
28.3294775466
 30
0.0
 10
215.9975837861
 20
28.2064758939
 30
0.0
 10
215.9975837861
 20
28.2064758939
 30
0.0
 10
215.9928730846
 20
28.2064758939
 30
0.0
 10
215.9928730846
 20
28.2064758939
 30
0.0
 10
215.9928730846
 20
28.2064758939
 30
0.0
 10
215.9928730846
 20
29.3464656789
 30
0.0
 10
215.9928730846
 20
29.3464656789
 30
0.0
 10
215.9928730846
 20
29.3464656789
 30
0.0
 10
215.7714701098
 20
29.3464656789
 30
0.0
 10
215.7714701098
 20
29.3464656789
 30
0.0
  0
LWPOLYLINE
  5
25E
100
AcDbEntity
  8
0
100
AcDbPolyline
 62
7
  6
CONTINUOUS
 90
2
 70
0
 43
0.2
 10
218.593703774
 20
28.1541347652
 10
218.8101343415
 20
28.1541347652
  0
LWPOLYLINE
  5
25F
100
AcDbEntity
  8
0
100
AcDbPolyline
 62
7
  6
CONTINUOUS
 90
2
 70
0
 43
0.2
 10
218.8101343415
 20
28.1541347652
 10
218.8101343415
 20
28.3608822239
  0
LWPOLYLINE
  5
260
100
AcDbEntity
  8
0
100
AcDbPolyline
 62
7
  6
CONTINUOUS
 90
2
 70
0
 43
0.2
 10
218.8101343415
 20
28.3608822239
 10
218.593703774
 20
28.3608822239
  0
LWPOLYLINE
  5
261
100
AcDbEntity
  8
0
100
AcDbPolyline
 62
7
  6
CONTINUOUS
 90
2
 70
0
 43
0.2
 10
218.593703774
 20
28.3608822239
 10
218.593703774
 20
28.8015945282
  0
LWPOLYLINE
  5
262
100
AcDbEntity
  8
0
100
AcDbPolyline
 62
7
  6
CONTINUOUS
 90
2
 70
0
 43
0.2
 10
218.593703774
 20
28.8015945282
 10
218.3720390936
 20
28.8015945282
  0
LWPOLYLINE
  5
263
100
AcDbEntity
  8
0
100
AcDbPolyline
 62
7
  6
CONTINUOUS
 90
2
 70
0
 43
0.2
 10
218.3720390936
 20
28.8015945282
 10
218.3720390936
 20
28.3608822239
  0
LWPOLYLINE
  5
264
100
AcDbEntity
  8
0
100
AcDbPolyline
 62
7
  6
CONTINUOUS
 90
2
 70
0
 43
0.2
 10
218.3720390936
 20
28.3608822239
 10
218.2513927917
 20
28.3608822239
  0
LWPOLYLINE
  5
265
100
AcDbEntity
  8
0
100
AcDbPolyline
 62
7
  6
CONTINUOUS
 90
2
 70
0
 43
0.2
 10
218.2513927917
 20
28.3608822239
 10
218.2513927917
 20
28.1541347652
  0
LWPOLYLINE
  5
266
100
AcDbEntity
  8
0
100
AcDbPolyline
 62
7
  6
CONTINUOUS
 90
2
 70
0
 43
0.2
 10
218.2513927917
 20
28.1541347652
 10
218.3720390936
 20
28.1541347652
  0
LWPOLYLINE
  5
267
100
AcDbEntity
  8
0
100
AcDbPolyline
 62
7
  6
CONTINUOUS
 90
2
 70
0
 43
0.2
 10
218.3720390936
 20
28.1541347652
 10
218.3720390936
 20
27.208330568
  0
LWPOLYLINE
  5
268
100
AcDbEntity
  8
0
100
AcDbPolyline
 62
7
  6
CONTINUOUS
 90
2
 70
0
 43
0.2
 10
218.3720390936
 20
27.208330568
 10
218.593703774
 20
27.208330568
  0
LWPOLYLINE
  5
269
100
AcDbEntity
  8
0
100
AcDbPolyline
 62
7
  6
CONTINUOUS
 90
2
 70
0
 43
0.2
 10
218.593703774
 20
27.208330568
 10
218.593703774
 20
28.1541347652
  0
SPLINE
  5
26A
100
AcDbEntity
  8
0
100
AcDbSpline
 62
7
  6
CONTINUOUS
 70
2
 71
3
 72
20
 73
16
 74
0
 42
0.0000001
 43
0.0000001
 44
0.0000000001
 40
0.0
 40
0.0
 40
0.0
 40
0.0
 40
1.0
 40
1.0
 40
1.0
 40
2.0
 40
2.0
 40
2.0
 40
3.0
 40
3.0
 40
3.0
 40
4.0
 40
4.0
 40
4.0
 40
5.0
 40
5.0
 40
5.0
 40
5.0
 10
206.3757140812
 20
37.5692570114
 30
0.0
 10
206.3757140812
 20
37.5692570114
 30
0.0
 10
208.6920707357
 20
34.7396955891
 30
0.0
 10
208.6920707357
 20
34.7396955891
 30
0.0
 10
208.0404236823
 20
34.0875251244
 30
0.0
 10
207.2635504783
 20
33.3516088537
 30
0.0
 10
206.2923608336
 20
33.3516088537
 30
0.0
 10
205.2938229492
 20
33.3516088537
 30
0.0
 10
204.3505049556
 20
34.281187301
 30
0.0
 10
204.3505049556
 20
35.2803794495
 30
0.0
 10
204.3505049556
 20
36.279571598
 30
0.0
 10
205.5293580287
 20
36.9861768367
 30
0.0
 10
206.2508804891
 20
37.4860346166
 30
0.0
 10
206.2508804891
 20
37.4860346166
 30
0.0
 10
206.3757140812
 20
37.5692570114
 30
0.0
 10
206.3757140812
 20
37.5692570114
 30
0.0
  0
SPLINE
  5
26B
100
AcDbEntity
  8
0
100
AcDbSpline
 62
7
  6
CONTINUOUS
 70
2
 71
3
 72
23
 73
19
 74
0
 42
0.0000001
 43
0.0000001
 44
0.0000000001
 40
0.0
 40
0.0
 40
0.0
 40
0.0
 40
1.0
 40
1.0
 40
1.0
 40
2.0
 40
2.0
 40
2.0
 40
3.0
 40
3.0
 40
3.0
 40
4.0
 40
4.0
 40
4.0
 40
5.0
 40
5.0
 40
5.0
 40
6.0
 40
6.0
 40
6.0
 40
6.0
 10
206.6531220638
 20
39.2070109311
 30
0.0
 10
206.6531220638
 20
39.2070109311
 30
0.0
 10
206.3066237912
 20
39.6503402919
 30
0.0
 10
206.3066237912
 20
39.6503402919
 30
0.0
 10
206.0008207463
 20
40.0384497619
 30
0.0
 10
205.6819324192
 20
40.4269517903
 30
0.0
 10
205.6819324192
 20
40.9538961044
 30
0.0
 10
205.6819324192
 20
41.620067821
 30
0.0
 10
206.2232705436
 20
42.0637897403
 30
0.0
 10
206.8471767988
 20
42.0637897403
 30
0.0
 10
207.5409584609
 20
42.0637897403
 30
0.0
 10
208.0681644806
 20
41.6615481656
 30
0.0
 10
208.0681644806
 20
40.9265478646
 30
0.0
 10
208.0681644806
 20
40.163283354
 30
0.0
 10
207.3469037259
 20
39.7331701282
 30
0.0
 10
206.819828559
 20
39.3174507128
 30
0.0
 10
206.819828559
 20
39.3174507128
 30
0.0
 10
206.6531220638
 20
39.2070109311
 30
0.0
 10
206.6531220638
 20
39.2070109311
 30
0.0
  0
SPLINE
  5
26C
100
AcDbEntity
  8
0
100
AcDbSpline
 62
7
  6
CONTINUOUS
 70
2
 71
3
 72
50
 73
46
 74
0
 42
0.0000001
 43
0.0000001
 44
0.0000000001
 40
0.0
 40
0.0
 40
0.0
 40
0.0
 40
1.0
 40
1.0
 40
1.0
 40
2.0
 40
2.0
 40
2.0
 40
3.0
 40
3.0
 40
3.0
 40
4.0
 40
4.0
 40
4.0
 40
5.0
 40
5.0
 40
5.0
 40
6.0
 40
6.0
 40
6.0
 40
7.0
 40
7.0
 40
7.0
 40
8.0
 40
8.0
 40
8.0
 40
9.0
 40
9.0
 40
9.0
 40
10.0
 40
10.0
 40
10.0
 40
11.0
 40
11.0
 40
11.0
 40
12.0
 40
12.0
 40
12.0
 40
13.0
 40
13.0
 40
13.0
 40
14.0
 40
14.0
 40
14.0
 40
15.0
 40
15.0
 40
15.0
 40
15.0
 10
210.6067092267
 20
32.408421713
 30
0.0
 10
210.6067092267
 20
32.408421713
 30
0.0
 10
212.2159372313
 20
32.408421713
 30
0.0
 10
212.2159372313
 20
32.408421713
 30
0.0
 10
212.2159372313
 20
32.408421713
 30
0.0
 10
210.3429099376
 20
34.7255634844
 30
0.0
 10
210.3429099376
 20
34.7255634844
 30
0.0
 10
210.3429099376
 20
34.7255634844
 30
0.0
 10
211.6192483631
 20
36.223043179
 30
0.0
 10
211.6192483631
 20
36.223043179
 30
0.0
 10
211.6192483631
 20
36.223043179
 30
0.0
 10
210.7870244154
 20
37.0840547475
 30
0.0
 10
210.7870244154
 20
37.0840547475
 30
0.0
 10
210.7870244154
 20
37.0840547475
 30
0.0
 10
209.5664292921
 20
35.6687506251
 30
0.0
 10
209.5664292921
 20
35.6687506251
 30
0.0
 10
209.5664292921
 20
35.6687506251
 30
0.0
 10
207.3885149233
 20
38.3041264595
 30
0.0
 10
207.3885149233
 20
38.3041264595
 30
0.0
 10
208.2620883627
 20
38.9421648194
 30
0.0
 10
209.2887596039
 20
39.7331701282
 30
0.0
 10
209.2887596039
 20
40.9120232013
 30
0.0
 10
209.2887596039
 20
42.2857161264
 30
0.0
 10
208.150863464
 20
43.0901992758
 30
0.0
 10
206.8755718611
 20
43.0901992758
 30
0.0
 10
205.5021406418
 20
43.0901992758
 30
0.0
 10
204.461206443
 20
42.2439740762
 30
0.0
 10
204.461206443
 20
40.801321714
 30
0.0
 10
204.461206443
 20
39.9137470226
 30
0.0
 10
205.0165458195
 20
39.1368738185
 30
0.0
 10
205.6127112763
 20
38.5124441521
 30
0.0
 10
205.6127112763
 20
38.5124441521
 30
0.0
 10
204.9608025173
 20
38.0408505817
 30
0.0
 10
204.9608025173
 20
38.0408505817
 30
0.0
 10
203.9622646329
 20
37.319589827
 30
0.0
 10
203.129386421
 20
36.5983290724
 30
0.0
 10
203.129386421
 20
35.266770756
 30
0.0
 10
203.129386421
 20
33.463095458
 30
0.0
 10
204.5864325936
 20
32.1864953269
 30
0.0
 10
206.333972031
 20
32.1864953269
 30
0.0
 10
207.5688301119
 20
32.1864953269
 30
0.0
 10
208.6782003366
 20
32.8946707994
 30
0.0
 10
209.4690747925
 20
33.8232024241
 30
0.0
 10
209.4690747925
 20
33.8232024241
 30
0.0
 10
210.6067092267
 20
32.408421713
 30
0.0
 10
210.6067092267
 20
32.408421713
 30
0.0
  0
LINE
  5
26D
100
AcDbEntity
  8
0
100
AcDbLine
 62
7
  6
CONTINUOUS
 10
196.4095706017
 20
30.3822966176
 11
218.8234813294
 21
30.3822966176
  0
LINE
  5
26E
100
AcDbEntity
  8
0
100
AcDbLine
 62
7
  6
CONTINUOUS
 10
218.8234813294
 20
30.3822966176
 11
218.8234813294
 21
52.7962073453
  0
LINE
  5
26F
100
AcDbEntity
  8
0
100
AcDbLine
 62
7
  6
CONTINUOUS
 10
218.8234813294
 20
52.7962073453
 11
196.4095706017
 21
52.7962073453
  0
LINE
  5
270
100
AcDbEntity
  8
0
100
AcDbLine
 62
7
  6
CONTINUOUS
 10
196.4095706017
 20
52.7962073453
 11
196.4095706017
 21
30.3822966176
  0
ENDBLK
  5
271
100
AcDbEntity
  8
0
  6
BYBLOCK
 62
0
100
AcDbBlockEnd
  0
BLOCK
  5
272
100
AcDbEntity
  8
0
100
AcDbBlockBegin
  2
_CLOSED
 70
64
 10
0.0
 20
0.0
  3
_CLOSED
  1

  0
LINE
  5
273
100
AcDbEntity
  8
0
  6
BYBLOCK
 62
0
100
AcDbLine
 10
0.0
 20
0.0
 11
-1.0
 21
0.2
  0
LINE
  5
274
100
AcDbEntity
  8
0
  6
BYBLOCK
 62
0
100
AcDbLine
 10
-1.0
 20
0.2
 11
-1.0
 21
-0.2
  0
LINE
  5
275
100
AcDbEntity
  8
0
  6
BYBLOCK
 62
0
100
AcDbLine
 10
-1.0
 20
-0.2
 11
0.0
 21
0.0
  0
LINE
  5
276
100
AcDbEntity
  8
0
  6
BYBLOCK
 62
0
100
AcDbLine
 10
-1.0
 20
0.0
 11
0.0
 21
0.0
  0
ENDBLK
  5
277
100
AcDbEntity
  8
0
  6
BYBLOCK
 62
0
100
AcDbBlockEnd
  0
BLOCK
  5
278
100
AcDbEntity
  8
0
100
AcDbBlockBegin
 62
2
  6
CONTINUOUS
  2
*D0
 70
65
 10
0.0
 20
0.0
  3
*D0
  1

  0
MTEXT
  5
279
100
AcDbEntity
  8
0
100
AcDbMText
 62
2
  6
CONTINUOUS
  7
TEXTSTYLE_2
 71
1
 72
1
 10
87.9576557341
 20
169.9315097216
 30
0.0
 11
0.698427078
 21
0.7156812257
 31
0.0
  1
{\Fgdt;n}\Farial.ttf;69,6
 40
3.0
 41
12.1524163569
  0
LINE
  5
27A
100
AcDbEntity
  8
0
100
AcDbLine
 62
2
  6
CONTINUOUS
 10
85.4876959196
 20
162.0313236584
 11
99.1290369766
 21
176.0096644124
  0
INSERT
  5
27B
100
AcDbEntity
  8
0
100
AcDbBlockReference
 62
2
  6
CONTINUOUS
  2
_CLOSED
 10
85.4876959196
 20
162.0313236584
 41
2.5
 42
2.5
 43
2.5
 50
225.6990559255
  0
ENDBLK
  5
27C
100
AcDbEntity
  8
0
  6
BYBLOCK
 62
0
100
AcDbBlockEnd
  0
BLOCK
  5
27D
100
AcDbEntity
  8
0
100
AcDbBlockBegin
 62
2
  6
CONTINUOUS
  2
*D1
 70
65
 10
0.0
 20
0.0
  3
*D1
  1

  0
MTEXT
  5
27E
100
AcDbEntity
  8
0
100
AcDbMText
 62
2
  6
CONTINUOUS
  7
TEXTSTYLE_2
 71
2
 72
1
 10
61.5002083943
 20
31.4733389148
 30
0.0
 11
1.0
 21
0.0
 31
0.0
  1
{\Fgdt;n}\Farial.ttf;32
 40
3.0
 41
8.6617100372
  0
LINE
  5
27F
100
AcDbEntity
  8
0
100
AcDbLine
 62
2
  6
CONTINUOUS
 10
45.7002083943
 20
38.0145387236
 11
45.7002083943
 21
26.9733389148
  0
LINE
  5
280
100
AcDbEntity
  8
0
100
AcDbLine
 62
2
  6
CONTINUOUS
 10
77.3002083943
 20
38.0145387236
 11
77.3002083943
 21
26.9733389148
  0
LINE
  5
281
100
AcDbEntity
  8
0
100
AcDbLine
 62
2
  6
CONTINUOUS
 10
45.7002083943
 20
27.7233389148
 11
61.5002083943
 21
27.7233389148
  0
LINE
  5
282
100
AcDbEntity
  8
0
100
AcDbLine
 62
2
  6
CONTINUOUS
 10
77.3002083943
 20
27.7233389148
 11
61.5002083943
 21
27.7233389148
  0
INSERT
  5
283
100
AcDbEntity
  8
0
100
AcDbBlockReference
 62
2
  6
CONTINUOUS
  2
_CLOSED
 10
45.7002083943
 20
27.7233389148
 41
2.5
 42
2.5
 43
2.5
 50
180.0
  0
INSERT
  5
284
100
AcDbEntity
  8
0
100
AcDbBlockReference
 62
2
  6
CONTINUOUS
  2
_CLOSED
 10
77.3002083943
 20
27.7233389148
 41
2.5
 42
2.5
 43
2.5
  0
ENDBLK
  5
285
100
AcDbEntity
  8
0
  6
BYBLOCK
 62
0
100
AcDbBlockEnd
  0
BLOCK
  5
286
100
AcDbEntity
  8
0
100
AcDbBlockBegin
 62
2
  6
CONTINUOUS
  2
*D2
 70
65
 10
0.0
 20
0.0
  3
*D2
  1

  0
MTEXT
  5
287
100
AcDbEntity
  8
0
100
AcDbMText
 62
2
  6
CONTINUOUS
  7
STANDARD
 71
2
 72
1
 10
105.6354435231
 20
47.2645387236
 30
0.0
 11
0.0
 21
1.0
 31
0.0
  1
3
 40
3.0
 41
2.3308550186
  0
LINE
  5
288
100
AcDbEntity
  8
0
100
AcDbLine
 62
2
  6
CONTINUOUS
 10
90.1456904381
 20
45.7645387236
 11
110.1354435231
 21
45.7645387236
  0
LINE
  5
289
100
AcDbEntity
  8
0
100
AcDbLine
 62
2
  6
CONTINUOUS
 10
96.7324336068
 20
48.7645387236
 11
110.1354435231
 21
48.7645387236
  0
LINE
  5
28A
100
AcDbEntity
  8
0
100
AcDbLine
 62
2
  6
CONTINUOUS
 10
109.3854435231
 20
45.7645387236
 11
109.3854435231
 21
44.7645387236
  0
LINE
  5
28B
100
AcDbEntity
  8
0
100
AcDbLine
 62
2
  6
CONTINUOUS
 10
109.3854435231
 20
44.7645387236
 11
109.3854435231
 21
47.2645387236
  0
LINE
  5
28C
100
AcDbEntity
  8
0
100
AcDbLine
 62
2
  6
CONTINUOUS
 10
109.3854435231
 20
48.7645387236
 11
109.3854435231
 21
49.7645387236
  0
LINE
  5
28D
100
AcDbEntity
  8
0
100
AcDbLine
 62
2
  6
CONTINUOUS
 10
109.3854435231
 20
49.7645387236
 11
109.3854435231
 21
47.2645387236
  0
INSERT
  5
28E
100
AcDbEntity
  8
0
100
AcDbBlockReference
 62
2
  6
CONTINUOUS
  2
_CLOSED
 10
109.3854435231
 20
45.7645387236
 41
2.5
 42
2.5
 43
2.5
 50
90.0
  0
INSERT
  5
28F
100
AcDbEntity
  8
0
100
AcDbBlockReference
 62
2
  6
CONTINUOUS
  2
_CLOSED
 10
109.3854435231
 20
48.7645387236
 41
2.5
 42
2.5
 43
2.5
 50
270.0
  0
ENDBLK
  5
290
100
AcDbEntity
  8
0
  6
BYBLOCK
 62
0
100
AcDbBlockEnd
  0
BLOCK
  5
291
100
AcDbEntity
  8
0
100
AcDbBlockBegin
 62
2
  6
CONTINUOUS
  2
*D3
 70
65
 10
0.0
 20
0.0
  3
*D3
  1

  0
MTEXT
  5
292
100
AcDbEntity
  8
0
100
AcDbMText
 62
2
  6
CONTINUOUS
  7
STANDARD
 71
2
 72
1
 10
105.6354435231
 20
62.2645387236
 30
0.0
 11
0.0
 21
1.0
 31
0.0
  1
27
 40
3.0
 41
4.6617100372
  0
LINE
  5
293
100
AcDbEntity
  8
0
100
AcDbLine
 62
2
  6
CONTINUOUS
 10
96.7324336068
 20
48.7645387236
 11
110.1354435231
 21
48.7645387236
  0
LINE
  5
294
100
AcDbEntity
  8
0
100
AcDbLine
 62
2
  6
CONTINUOUS
 10
90.6824336068
 20
75.7645387236
 11
110.1354435231
 21
75.7645387236
  0
LINE
  5
295
100
AcDbEntity
  8
0
100
AcDbLine
 62
2
  6
CONTINUOUS
 10
109.3854435231
 20
48.7645387236
 11
109.3854435231
 21
62.2645387236
  0
LINE
  5
296
100
AcDbEntity
  8
0
100
AcDbLine
 62
2
  6
CONTINUOUS
 10
109.3854435231
 20
75.7645387236
 11
109.3854435231
 21
62.2645387236
  0
INSERT
  5
297
100
AcDbEntity
  8
0
100
AcDbBlockReference
 62
2
  6
CONTINUOUS
  2
_CLOSED
 10
109.3854435231
 20
48.7645387236
 41
2.5
 42
2.5
 43
2.5
 50
270.0
  0
INSERT
  5
298
100
AcDbEntity
  8
0
100
AcDbBlockReference
 62
2
  6
CONTINUOUS
  2
_CLOSED
 10
109.3854435231
 20
75.7645387236
 41
2.5
 42
2.5
 43
2.5
 50
90.0
  0
ENDBLK
  5
299
100
AcDbEntity
  8
0
  6
BYBLOCK
 62
0
100
AcDbBlockEnd
  0
BLOCK
  5
29A
100
AcDbEntity
  8
0
100
AcDbBlockBegin
 62
2
  6
CONTINUOUS
  2
*D4
 70
65
 10
0.0
 20
0.0
  3
*D4
  1

  0
MTEXT
  5
29B
100
AcDbEntity
  8
0
100
AcDbMText
 62
2
  6
CONTINUOUS
  7
STANDARD
 71
2
 72
1
 10
113.5326207413
 20
60.7645387236
 30
0.0
 11
0.0
 21
1.0
 31
0.0
  1
30
 40
3.0
 41
4.6617100372
  0
LINE
  5
29C
100
AcDbEntity
  8
0
100
AcDbLine
 62
2
  6
CONTINUOUS
 10
90.1456904381
 20
45.7645387236
 11
118.0326207413
 21
45.7645387236
  0
LINE
  5
29D
100
AcDbEntity
  8
0
100
AcDbLine
 62
2
  6
CONTINUOUS
 10
90.6824336068
 20
75.7645387236
 11
118.0326207413
 21
75.7645387236
  0
LINE
  5
29E
100
AcDbEntity
  8
0
100
AcDbLine
 62
2
  6
CONTINUOUS
 10
117.2826207413
 20
45.7645387236
 11
117.2826207413
 21
60.7645387236
  0
LINE
  5
29F
100
AcDbEntity
  8
0
100
AcDbLine
 62
2
  6
CONTINUOUS
 10
117.2826207413
 20
75.7645387236
 11
117.2826207413
 21
60.7645387236
  0
INSERT
  5
2A0
100
AcDbEntity
  8
0
100
AcDbBlockReference
 62
2
  6
CONTINUOUS
  2
_CLOSED
 10
117.2826207413
 20
45.7645387236
 41
2.5
 42
2.5
 43
2.5
 50
270.0
  0
INSERT
  5
2A1
100
AcDbEntity
  8
0
100
AcDbBlockReference
 62
2
  6
CONTINUOUS
  2
_CLOSED
 10
117.2826207413
 20
75.7645387236
 41
2.5
 42
2.5
 43
2.5
 50
90.0
  0
ENDBLK
  5
2A2
100
AcDbEntity
  8
0
  6
BYBLOCK
 62
0
100
AcDbBlockEnd
  0
BLOCK
  5
2A3
100
AcDbEntity
  8
0
100
AcDbBlockBegin
 62
2
  6
CONTINUOUS
  2
*D5
 70
65
 10
0.0
 20
0.0
  3
*D5
  1

  0
MTEXT
  5
2A4
100
AcDbEntity
  8
0
100
AcDbMText
 62
2
  6
CONTINUOUS
  7
STANDARD
 71
2
 72
1
 10
165.0853748088
 20
183.1244949703
 30
0.0
 11
1.0
 21
0.0
 31
0.0
  1
7
 40
3.0
 41
2.3308550186
  0
LINE
  5
2A5
100
AcDbEntity
  8
0
100
AcDbLine
 62
2
  6
CONTINUOUS
 10
168.5853748088
 20
174.7751313098
 11
168.5853748088
 21
180.1244949703
  0
LINE
  5
2A6
100
AcDbEntity
  8
0
100
AcDbLine
 62
2
  6
CONTINUOUS
 10
161.5853748088
 20
174.8575031578
 11
161.5853748088
 21
180.1244949703
  0
LINE
  5
2A7
100
AcDbEntity
  8
0
100
AcDbLine
 62
2
  6
CONTINUOUS
 10
168.5853748088
 20
179.3744949703
 11
169.5853748088
 21
179.3744949703
  0
LINE
  5
2A8
100
AcDbEntity
  8
0
100
AcDbLine
 62
2
  6
CONTINUOUS
 10
169.5853748088
 20
179.3744949703
 11
165.0853748088
 21
179.3744949703
  0
LINE
  5
2A9
100
AcDbEntity
  8
0
100
AcDbLine
 62
2
  6
CONTINUOUS
 10
161.5853748088
 20
179.3744949703
 11
160.5853748088
 21
179.3744949703
  0
LINE
  5
2AA
100
AcDbEntity
  8
0
100
AcDbLine
 62
2
  6
CONTINUOUS
 10
160.5853748088
 20
179.3744949703
 11
165.0853748088
 21
179.3744949703
  0
INSERT
  5
2AB
100
AcDbEntity
  8
0
100
AcDbBlockReference
 62
2
  6
CONTINUOUS
  2
_CLOSED
 10
168.5853748088
 20
179.3744949703
 41
2.5
 42
2.5
 43
2.5
 50
180.0
  0
INSERT
  5
2AC
100
AcDbEntity
  8
0
100
AcDbBlockReference
 62
2
  6
CONTINUOUS
  2
_CLOSED
 10
161.5853748088
 20
179.3744949703
 41
2.5
 42
2.5
 43
2.5
  0
ENDBLK
  5
2AD
100
AcDbEntity
  8
0
  6
BYBLOCK
 62
0
100
AcDbBlockEnd
  0
BLOCK
  5
2AE
100
AcDbEntity
  8
0
100
AcDbBlockBegin
 62
2
  6
CONTINUOUS
  2
*D6
 70
65
 10
0.0
 20
0.0
  3
*D6
  1

  0
MTEXT
  5
2AF
100
AcDbEntity
  8
0
100
AcDbMText
 62
2
  6
CONTINUOUS
  7
STANDARD
 71
2
 72
1
 10
146.5853748088
 20
183.1244949703
 30
0.0
 11
1.0
 21
0.0
 31
0.0
  1
30
 40
3.0
 41
4.6617100372
  0
LINE
  5
2B0
100
AcDbEntity
  8
0
100
AcDbLine
 62
2
  6
CONTINUOUS
 10
131.5853748088
 20
174.5721873276
 11
131.5853748088
 21
180.1244949703
  0
LINE
  5
2B1
100
AcDbEntity
  8
0
100
AcDbLine
 62
2
  6
CONTINUOUS
 10
161.5853748088
 20
174.8575031578
 11
161.5853748088
 21
180.1244949703
  0
LINE
  5
2B2
100
AcDbEntity
  8
0
100
AcDbLine
 62
2
  6
CONTINUOUS
 10
131.5853748088
 20
179.3744949703
 11
146.5853748088
 21
179.3744949703
  0
LINE
  5
2B3
100
AcDbEntity
  8
0
100
AcDbLine
 62
2
  6
CONTINUOUS
 10
161.5853748088
 20
179.3744949703
 11
146.5853748088
 21
179.3744949703
  0
INSERT
  5
2B4
100
AcDbEntity
  8
0
100
AcDbBlockReference
 62
2
  6
CONTINUOUS
  2
_CLOSED
 10
131.5853748088
 20
179.3744949703
 41
2.5
 42
2.5
 43
2.5
 50
180.0
  0
INSERT
  5
2B5
100
AcDbEntity
  8
0
100
AcDbBlockReference
 62
2
  6
CONTINUOUS
  2
_CLOSED
 10
161.5853748088
 20
179.3744949703
 41
2.5
 42
2.5
 43
2.5
  0
ENDBLK
  5
2B6
100
AcDbEntity
  8
0
  6
BYBLOCK
 62
0
100
AcDbBlockEnd
  0
BLOCK
  5
2B7
100
AcDbEntity
  8
0
100
AcDbBlockBegin
 62
2
  6
CONTINUOUS
  2
*D7
 70
65
 10
0.0
 20
0.0
  3
*D7
  1

  0
MTEXT
  5
2B8
100
AcDbEntity
  8
0
100
AcDbMText
 62
2
  6
CONTINUOUS
  7
STANDARD
 71
2
 72
1
 10
150.0853748088
 20
189.8154106539
 30
0.0
 11
1.0
 21
0.0
 31
0.0
  1
37
 40
3.0
 41
4.6617100372
  0
LINE
  5
2B9
100
AcDbEntity
  8
0
100
AcDbLine
 62
2
  6
CONTINUOUS
 10
168.5853748088
 20
174.683791421
 11
168.5853748088
 21
186.8154106539
  0
LINE
  5
2BA
100
AcDbEntity
  8
0
100
AcDbLine
 62
2
  6
CONTINUOUS
 10
131.5853748088
 20
174.6635272164
 11
131.5853748088
 21
186.8154106539
  0
LINE
  5
2BB
100
AcDbEntity
  8
0
100
AcDbLine
 62
2
  6
CONTINUOUS
 10
168.5853748088
 20
186.0654106539
 11
150.0853748088
 21
186.0654106539
  0
LINE
  5
2BC
100
AcDbEntity
  8
0
100
AcDbLine
 62
2
  6
CONTINUOUS
 10
131.5853748088
 20
186.0654106539
 11
150.0853748088
 21
186.0654106539
  0
INSERT
  5
2BD
100
AcDbEntity
  8
0
100
AcDbBlockReference
 62
2
  6
CONTINUOUS
  2
_CLOSED
 10
168.5853748088
 20
186.0654106539
 41
2.5
 42
2.5
 43
2.5
  0
INSERT
  5
2BE
100
AcDbEntity
  8
0
100
AcDbBlockReference
 62
2
  6
CONTINUOUS
  2
_CLOSED
 10
131.5853748088
 20
186.0654106539
 41
2.5
 42
2.5
 43
2.5
 50
180.0
  0
ENDBLK
  5
2BF
100
AcDbEntity
  8
0
  6
BYBLOCK
 62
0
100
AcDbBlockEnd
  0
ENDSEC
  0
SECTION
  2
ENTITIES
  0
DIMENSION
  5
2C0
100
AcDbEntity
  8
0
100
AcDbDimension
 62
2
  6
CONTINUOUS
  2
*D0
 10
85.4876959196
 20
162.0313236584
 11
93.2749658957
 21
173.2324972212
 70
163
  1
%%c<>
  3
DIMSTYLE_1
100
AcDbDiametricDimension
 15
36.877171294
 25
112.2199103516
  0
DIMENSION
  5
2C1
100
AcDbEntity
  8
0
100
AcDbDimension
 62
2
  6
CONTINUOUS
  2
*D1
 10
77.3002083943
 20
27.7233389148
 11
61.5002083943
 21
27.7233389148
 70
160
  1
%%c<>
  3
DIMSTYLE_2
100
AcDbAlignedDimension
 13
45.7002083943
 23
38.7645387236
 14
77.3002083943
 24
38.7645387236
100
AcDbRotatedDimension
  0
DIMENSION
  5
2C2
100
AcDbEntity
  8
0
100
AcDbDimension
 62
2
  6
CONTINUOUS
  2
*D2
 10
109.3854435231
 20
48.7645387236
 11
109.3854435231
 21
47.2645350618
 70
160
  3
DIMSTYLE_3
100
AcDbAlignedDimension
 13
89.3956904381
 23
45.7645387236
 14
95.9824336068
 24
48.7645387236
 50
90.0
100
AcDbRotatedDimension
  0
DIMENSION
  5
2C3
100
AcDbEntity
  8
0
100
AcDbDimension
 62
2
  6
CONTINUOUS
  2
*D3
 10
109.3854435231
 20
75.7645387236
 11
109.3854435231
 21
62.2286148309
 70
160
  3
DIMSTYLE_4
100
AcDbAlignedDimension
 13
95.9824336068
 23
48.7645387236
 14
89.9324336068
 24
75.7645387236
 50
90.0
100
AcDbRotatedDimension
  0
DIMENSION
  5
2C4
100
AcDbEntity
  8
0
100
AcDbDimension
 62
2
  6
CONTINUOUS
  2
*D4
 10
117.2826207413
 20
75.7645387236
 11
117.2826207413
 21
60.7620708678
 70
160
  3
DIMSTYLE_4
100
AcDbAlignedDimension
 13
89.3956904381
 23
45.7645387236
 14
89.9324336068
 24
75.7645387236
 50
90.0
100
AcDbRotatedDimension
  0
DIMENSION
  5
2C5
100
AcDbEntity
  8
0
100
AcDbDimension
 62
2
  6
CONTINUOUS
  2
*D5
 10
161.5853748088
 20
179.3744949703
 11
165.0909504089
 21
179.3744949703
 70
160
  3
DIMSTYLE_4
100
AcDbAlignedDimension
 13
168.5853748088
 23
174.0251313098
 14
161.5853748088
 24
174.1075031578
 50
180.0
100
AcDbRotatedDimension
  0
DIMENSION
  5
2C6
100
AcDbEntity
  8
0
100
AcDbDimension
 62
2
  6
CONTINUOUS
  2
*D6
 10
161.5853748088
 20
179.3744949703
 11
146.5829052429
 21
179.3744949703
 70
160
  3
DIMSTYLE_4
100
AcDbAlignedDimension
 13
131.5853748088
 23
173.8221873276
 14
161.5853748088
 24
174.1075031578
100
AcDbRotatedDimension
  0
DIMENSION
  5
2C7
100
AcDbEntity
  8
0
100
AcDbDimension
 62
2
  6
CONTINUOUS
  2
*D7
 10
131.5853748088
 20
186.0654106539
 11
150.0829017792
 21
186.0654106539
 70
160
  3
DIMSTYLE_5
100
AcDbAlignedDimension
 13
168.5853748088
 23
173.933791421
 14
131.5853748088
 24
173.9135272164
 50
180.0
100
AcDbRotatedDimension
  0
LINE
  5
2C8
100
AcDbEntity
  8
0
100
AcDbLine
 62
2
  6
CONTINUOUS
 10
193.7904134944
 20
53.1725198453
 11
283.7904134944
 21
53.1725198453
  0
LINE
  5
2C9
100
AcDbEntity
  8
0
100
AcDbLine
 62
2
  6
CONTINUOUS
 10
193.7904134944
 20
53.1725198453
 11
193.7904134944
 21
13.1725198453
  0
LINE
  5
2CA
100
AcDbEntity
  8
0
100
AcDbLine
 62
2
  6
CONTINUOUS
 10
223.7904134944
 20
47.1725198453
 11
283.7904134944
 21
47.1725198453
  0
LINE
  5
2CB
100
AcDbEntity
  8
0
100
AcDbLine
 62
2
  6
CONTINUOUS
 10
223.7904134944
 20
41.1725198453
 11
283.7904134944
 21
41.1725198453
  0
LINE
  5
2CC
100
AcDbEntity
  8
0
100
AcDbLine
 62
2
  6
CONTINUOUS
 10
223.7904134944
 20
31.1725198453
 11
283.7904134944
 21
31.1725198453
  0
LINE
  5
2CD
100
AcDbEntity
  8
0
100
AcDbLine
 62
2
  6
CONTINUOUS
 10
193.7904134944
 20
26.1725198453
 11
283.7904134944
 21
26.1725198453
  0
LINE
  5
2CE
100
AcDbEntity
  8
0
100
AcDbLine
 62
2
  6
CONTINUOUS
 10
193.7904134944
 20
13.1725198453
 11
283.7904134944
 21
13.1725198453
  0
LINE
  5
2CF
100
AcDbEntity
  8
0
100
AcDbLine
 62
2
  6
CONTINUOUS
 10
223.7904134944
 20
53.1725198453
 11
223.7904134944
 21
26.1725198453
  0
LINE
  5
2D0
100
AcDbEntity
  8
0
100
AcDbLine
 62
2
  6
CONTINUOUS
 10
263.7904134944
 20
53.1725198453
 11
263.7904134944
 21
41.1725198453
  0
LINE
  5
2D1
100
AcDbEntity
  8
0
100
AcDbLine
 62
2
  6
CONTINUOUS
 10
283.7904134944
 20
53.1725198453
 11
283.7904134944
 21
13.1725198453
  0
INSERT
  5
2D2
100
AcDbEntity
  8
0
100
AcDbBlockReference
 62
2
  6
CONTINUOUS
  2
LOGO2_BL0
 10
207.6164605391
 20
39.6725198453
  0
MTEXT
  5
2D3
100
AcDbEntity
  8
9_SOLID
100
AcDbMText
 62
2
  6
CONTINUOUS
  7
TEXTSTYLE_3
 71
1
 72
1
 10
225.2779134944
 20
51.6725198453
 30
0.0
 11
1.0
 21
0.0
 31
0.0
  1
1H5_C_001
 40
3.0
 41
30.6428571429
  0
MTEXT
  5
2D4
100
AcDbEntity
  8
0
100
AcDbMText
 62
2
  6
CONTINUOUS
  7
TEXTSTYLE_3
 71
1
 72
1
 10
265.2779134944
 20
51.9225198453
 30
0.0
 11
1.0
 21
0.0
 31
0.0
  1
Rev:01
 40
3.5
 41
21.625
  0
MTEXT
  5
2D5
100
AcDbEntity
  8
9_SOLID
100
AcDbMText
 62
2
  6
CONTINUOUS
  7
TEXTSTYLE_3
 71
1
 72
1
 10
225.2779134944
 20
45.4225198453
 30
0.0
 11
1.0
 21
0.0
 31
0.0
  1
Scale:1:1
 40
3.5
 41
28.375
  0
MTEXT
  5
2D6
100
AcDbEntity
  8
9_SOLID
100
AcDbMText
 62
2
  6
CONTINUOUS
  7
TEXTSTYLE_3
 71
1
 72
1
 10
265.2779134944
 20
45.9225198453
 30
0.0
 11
1.0
 21
0.0
 31
0.0
  1
A4
 40
3.5
 41
9.625
  0
MTEXT
  5
2D7
100
AcDbEntity
  8
0
100
AcDbMText
 62
2
  6
CONTINUOUS
  7
TEXTSTYLE_3
 71
1
 72
1
 10
225.2779134944
 20
37.9225198453
 30
0.0
 11
1.0
 21
0.0
 31
0.0
  1
CIAK 2.6
 40
3.5
 41
32.75
  0
MTEXT
  5
2D8
100
AcDbEntity
  8
0
100
AcDbMText
 62
2
  6
CONTINUOUS
  7
TEXTSTYLE_3
 71
1
 72
1
 10
225.2779134944
 20
29.9225198453
 30
0.0
 11
1.0
 21
0.0
 31
0.0
  1
DATE:27/04/2018
 40
2.5
 41
43.0357142857
  0
MTEXT
  5
2D9
100
AcDbEntity
  8
9_SOLID
100
AcDbMText
 62
2
  6
CONTINUOUS
  7
TEXTSTYLE_3
 71
1
 72
1
 10
195.2779134944
 20
25.8600198453
 30
0.0
 11
1.0
 21
0.0
 31
0.0
  1
Any integral or partial reproductions are prohibited \Pwithout prior authorisation of L {\Ftxt.shx;\W0.190476;\H2.250000; }& L Luce & Light s.r.l., \Pin accordance with the law in force. \PAll rights reserved.
 40
2.25
 41
134.5982142857
  0
LWPOLYLINE
  5
2DA
100
AcDbEntity
  8
0
100
AcDbPolyline
 62
7
  6
CONTINUOUS
 90
2
 70
0
 43
0.100000004
 10
10.0
 20
10.0
 10
10.0
 20
200.0
  0
LWPOLYLINE
  5
2DB
100
AcDbEntity
  8
0
100
AcDbPolyline
 62
7
  6
CONTINUOUS
 90
2
 70
0
 43
0.100000004
 10
10.0
 20
10.0
 10
287.0
 20
10.0
  0
LWPOLYLINE
  5
2DC
100
AcDbEntity
  8
0
100
AcDbPolyline
 62
7
  6
CONTINUOUS
 90
2
 70
0
 43
0.100000004
 10
10.0
 20
200.0
 10
287.0
 20
200.0
  0
LWPOLYLINE
  5
2DD
100
AcDbEntity
  8
0
100
AcDbPolyline
 62
7
  6
CONTINUOUS
 90
2
 70
0
 43
0.100000004
 10
287.0
 20
10.0
 10
287.0
 20
200.0
  0
LINE
  5
2DE
100
AcDbEntity
  8
7_ALL_FEATURES
100
AcDbLine
 62
7
  6
CONTINUOUS
 10
22.1824336068
 20
167.375617005
 11
22.1824336068
 21
167.675617005
  0
LINE
  5
2DF
100
AcDbEntity
  8
7_ALL_FEATURES
100
AcDbLine
 62
9
  6
CONTINUOUS
 10
23.3371970833
 20
167.675617005
 11
23.3371970833
 21
167.375617005
  0
LINE
  5
2E0
100
AcDbEntity
  8
7_ALL_FEATURES
100
AcDbLine
 62
3
  6
CONTINUOUS
 10
100.1824325429
 20
106.575617005
 11
77.8470033308
 21
106.575617005
  0
LINE
  5
2E1
100
AcDbEntity
  8
7_ALL_FEATURES
100
AcDbLine
 62
7
  6
CONTINUOUS
 10
100.1824325429
 20
106.875617005
 11
78.3856148959
 21
106.875617005
  0
LINE
  5
2E2
100
AcDbEntity
  8
7_ALL_FEATURES
100
AcDbLine
 62
7
  6
CONTINUOUS
 10
62.1824336068
 20
164.575617005
 11
62.2127566323
 21
164.6059400305
  0
LINE
  5
2E3
100
AcDbEntity
  8
7_ALL_FEATURES
100
AcDbLine
 62
7
  6
CONTINUOUS
 10
82.9701874238
 20
132.325617005
 11
77.3002083943
 21
132.325617005
  0
LINE
  5
2E4
100
AcDbEntity
  8
7_ALL_FEATURES
100
AcDbLine
 62
7
  6
CONTINUOUS
 10
83.1750786361
 20
132.625617005
 11
77.3002083943
 21
132.625617005
  0
LINE
  5
2E5
100
AcDbEntity
  8
7_ALL_FEATURES
100
AcDbLine
 62
7
  6
CONTINUOUS
 10
84.2095914861
 20
132.725617005
 11
77.7324336068
 21
132.725617005
  0
LINE
  5
2E6
100
AcDbEntity
  8
7_ALL_FEATURES
100
AcDbLine
 62
7
  6
CONTINUOUS
 10
59.6824336068
 20
109.6668487003
 11
59.6824336068
 21
109.8170945706
  0
LINE
  5
2E7
100
AcDbEntity
  8
7_ALL_FEATURES
100
AcDbLine
 62
9
  6
CONTINUOUS
 10
77.7324336068
 20
135.125617005
 11
77.3002083943
 21
135.125617005
  0
LINE
  5
2E8
100
AcDbEntity
  8
7_ALL_FEATURES
100
AcDbLine
 62
7
  6
CONTINUOUS
 10
83.3553483889
 20
132.2753244116
 11
83.322590043
 21
132.2795739868
  0
LINE
  5
2E9
100
AcDbEntity
  8
7_ALL_FEATURES
100
AcDbLine
 62
7
  6
CONTINUOUS
 10
83.322590043
 20
132.2795739868
 11
83.2864219772
 21
132.2842718669
  0
LINE
  5
2EA
100
AcDbEntity
  8
7_ALL_FEATURES
100
AcDbLine
 62
7
  6
CONTINUOUS
 10
83.2864219772
 20
132.2842718669
 11
83.2471887592
 21
132.2893749913
  0
LINE
  5
2EB
100
AcDbEntity
  8
7_ALL_FEATURES
100
AcDbLine
 62
7
  6
CONTINUOUS
 10
83.467982288
 20
132.2607521401
 11
82.9701874334
 21
132.325616995
  0
LINE
  5
2EC
100
AcDbEntity
  8
7_ALL_FEATURES
100
AcDbLine
 62
7
  6
CONTINUOUS
 10
83.2471887592
 20
132.2893749913
 11
83.2052660302
 21
132.2948361389
  0
LINE
  5
2ED
100
AcDbEntity
  8
7_ALL_FEATURES
100
AcDbLine
 62
7
  6
CONTINUOUS
 10
83.2052660302
 20
132.2948361389
 11
83.1305259218
 21
132.3045928448
  0
LINE
  5
2EE
100
AcDbEntity
  8
7_ALL_FEATURES
100
AcDbLine
 62
7
  6
CONTINUOUS
 10
83.1305259218
 20
132.3045928448
 11
83.0675143542
 21
132.3128405806
  0
LWPOLYLINE
  5
2EF
100
AcDbEntity
  8
7_ALL_FEATURES
100
AcDbPolyline
 62
7
  6
CONTINUOUS
 90
3
 70
0
 10
83.0675143542
 20
132.3128405806
 10
83.0028186134
 20
132.3213300555
 10
82.9701874348
 20
132.325617005
  0
LINE
  5
2F0
100
AcDbEntity
  8
7_ALL_FEATURES
100
AcDbLine
 62
7
  6
CONTINUOUS
 10
62.6824336068
 20
109.6668487003
 11
62.6824336068
 21
109.8170945706
  0
LINE
  5
2F1
100
AcDbEntity
  8
7_ALL_FEATURES
100
AcDbLine
 62
7
  6
CONTINUOUS
 10
82.9701874348
 20
141.925617005
 11
83.0028186134
 21
141.9299039546
  0
LWPOLYLINE
  5
2F2
100
AcDbEntity
  8
7_ALL_FEATURES
100
AcDbPolyline
 62
7
  6
CONTINUOUS
 90
3
 70
0
 10
83.0028186134
 20
141.9299039546
 10
83.0993000761
 20
141.942555616
 10
83.114991457
 20
141.9446092382
  0
LWPOLYLINE
  5
2F3
100
AcDbEntity
  8
7_ALL_FEATURES
100
AcDbPolyline
 62
7
  6
CONTINUOUS
 90
3
 70
0
 10
83.114991457
 20
141.9446092382
 10
83.1458871711
 20
141.9486477881
 10
83.1610577535
 20
141.9506297913
  0
LWPOLYLINE
  5
2F4
100
AcDbEntity
  8
7_ALL_FEATURES
100
AcDbPolyline
 62
7
  6
CONTINUOUS
 90
3
 70
0
 10
83.1610577535
 20
141.9506297913
 10
83.190763337
 20
141.9545062533
 10
83.2052660302
 20
141.9563978711
  0
LINE
  5
2F5
100
AcDbEntity
  8
7_ALL_FEATURES
100
AcDbLine
 62
7
  6
CONTINUOUS
 10
82.9701874334
 20
141.925617015
 11
83.4679833184
 21
141.9904819954
  0
LINE
  5
2F6
100
AcDbEntity
  8
7_ALL_FEATURES
100
AcDbLine
 62
7
  6
CONTINUOUS
 10
83.2052660302
 20
141.9563978711
 11
83.260584365
 21
141.963602698
  0
LINE
  5
2F7
100
AcDbEntity
  8
7_ALL_FEATURES
100
AcDbLine
 62
7
  6
CONTINUOUS
 10
83.260584365
 20
141.963602698
 11
83.322590043
 21
141.9716600232
  0
LWPOLYLINE
  5
2F8
100
AcDbEntity
  8
7_ALL_FEATURES
100
AcDbPolyline
 62
7
  6
CONTINUOUS
 90
4
 70
0
 10
83.322590043
 20
141.9716600232
 10
83.3339043121
 20
141.9731287448
 10
83.3448277341
 20
141.9745451006
 10
83.3553483889
 20
141.9759095984
  0
LWPOLYLINE
  5
2F9
100
AcDbEntity
  8
7_ALL_FEATURES
100
AcDbPolyline
 62
7
  6
CONTINUOUS
 90
3
 70
0
 10
83.3553483889
 20
141.9759095984
 10
83.3751382812
 20
141.9784741288
 10
83.3843866483
 20
141.9796722905
  0
LWPOLYLINE
  5
2FA
100
AcDbEntity
  8
7_ALL_FEATURES
100
AcDbPolyline
 62
7
  6
CONTINUOUS
 90
3
 70
0
 10
83.3843866483
 20
141.9796722905
 10
83.4015420143
 20
141.9818931591
 10
83.4094311287
 20
141.9829142435
  0
LINE
  5
2FB
100
AcDbEntity
  8
7_ALL_FEATURES
100
AcDbLine
 62
7
  6
CONTINUOUS
 10
83.4094311287
 20
141.9829142435
 11
83.4362120062
 21
141.9863778998
  0
LINE
  5
2FC
100
AcDbEntity
  8
7_ALL_FEATURES
100
AcDbLine
 62
7
  6
CONTINUOUS
 10
83.4362120062
 20
141.9863778998
 11
83.4416787115
 21
141.9870841415
  0
LINE
  5
2FD
100
AcDbEntity
  8
7_ALL_FEATURES
100
AcDbLine
 62
9
  6
CONTINUOUS
 10
77.7324336068
 20
139.125617005
 11
77.3002083943
 21
139.125617005
  0
LINE
  5
2FE
100
AcDbEntity
  8
7_ALL_FEATURES
100
AcDbLine
 62
7
  6
CONTINUOUS
 10
77.7324336068
 20
141.525617005
 11
84.2095914861
 21
141.525617005
  0
LINE
  5
2FF
100
AcDbEntity
  8
7_ALL_FEATURES
100
AcDbLine
 62
7
  6
CONTINUOUS
 10
77.3002083943
 20
141.625617005
 11
83.1750786361
 21
141.625617005
  0
LINE
  5
300
100
AcDbEntity
  8
7_ALL_FEATURES
100
AcDbLine
 62
7
  6
CONTINUOUS
 10
77.3002083943
 20
141.925617005
 11
82.9701874238
 21
141.925617005
  0
LINE
  5
301
100
AcDbEntity
  8
7_ALL_FEATURES
100
AcDbLine
 62
7
  6
CONTINUOUS
 10
83.467982288
 20
141.9904818699
 11
83.1750786361
 21
141.625617005
  0
LINE
  5
302
100
AcDbEntity
  8
7_ALL_FEATURES
100
AcDbLine
 62
7
  6
CONTINUOUS
 10
83.467982288
 20
132.2607521401
 11
83.1750786361
 21
132.625617005
  0
LINE
  5
303
100
AcDbEntity
  8
02___PRT_ALL_AXES
100
AcDbLine
 62
7
  6
CONTINUOUS
 10
77.3002083943
 20
132.325617005
 11
77.3002083943
 21
141.925617005
  0
LINE
  5
304
100
AcDbEntity
  8
7_ALL_FEATURES
100
AcDbLine
 62
7
  6
CONTINUOUS
 10
77.7324336068
 20
132.725617005
 11
77.7324336068
 21
141.525617005
  0
LINE
  5
305
100
AcDbEntity
  8
7_ALL_FEATURES
100
AcDbLine
 62
7
  6
CONTINUOUS
 10
78.2824336068
 20
132.625617005
 11
78.2824336068
 21
132.725617005
  0
LINE
  5
306
100
AcDbEntity
  8
3_ALL_AXES
100
AcDbLine
 62
7
  6
CONTINUOUS
 10
78.2824336068
 20
141.525617005
 11
78.2824336068
 21
141.625617005
  0
LINE
  5
307
100
AcDbEntity
  8
7_ALL_FEATURES
100
AcDbLine
 62
7
  6
CONTINUOUS
 10
80.7824336068
 20
132.625617005
 11
80.7824336068
 21
132.725617005
  0
LINE
  5
308
100
AcDbEntity
  8
3_ALL_AXES
100
AcDbLine
 62
7
  6
CONTINUOUS
 10
80.7824336068
 20
141.525617005
 11
80.7824336068
 21
141.625617005
  0
LINE
  5
309
100
AcDbEntity
  8
7_ALL_FEATURES
100
AcDbLine
 62
9
  6
CONTINUOUS
 10
81.7324336068
 20
132.725617005
 11
81.7324336068
 21
141.525617005
  0
LINE
  5
30A
100
AcDbEntity
  8
7_ALL_FEATURES
100
AcDbLine
 62
7
  6
CONTINUOUS
 10
60.1824336068
 20
164.575617005
 11
60.1521105813
 21
164.6059400305
  0
LINE
  5
30B
100
AcDbEntity
  8
7_ALL_FEATURES
100
AcDbLine
 62
7
  6
CONTINUOUS
 10
82.9701874348
 20
141.925617005
 11
82.9701874348
 21
141.625617005
  0
LINE
  5
30C
100
AcDbEntity
  8
7_ALL_FEATURES
100
AcDbLine
 62
7
  6
CONTINUOUS
 10
82.9701874348
 20
132.325617005
 11
82.9701874348
 21
132.625617005
  0
LINE
  5
30D
100
AcDbEntity
  8
7_ALL_FEATURES
100
AcDbLine
 62
7
  6
CONTINUOUS
 10
83.1995767622
 20
132.725617005
 11
83.1919142443
 21
132.6940597429
  0
LINE
  5
30E
100
AcDbEntity
  8
7_ALL_FEATURES
100
AcDbLine
 62
7
  6
CONTINUOUS
 10
83.1995510964
 20
132.7255042642
 11
83.1750782489
 21
132.6256161341
  0
LINE
  5
30F
100
AcDbEntity
  8
7_ALL_FEATURES
100
AcDbLine
 62
7
  6
CONTINUOUS
 10
83.1919142443
 20
132.6940597429
 11
83.1819103751
 21
132.6532534932
  0
LINE
  5
310
100
AcDbEntity
  8
7_ALL_FEATURES
100
AcDbLine
 62
7
  6
CONTINUOUS
 10
83.1819103751
 20
132.6532534932
 11
83.1773062937
 21
132.6346042559
  0
LINE
  5
311
100
AcDbEntity
  8
7_ALL_FEATURES
100
AcDbLine
 62
7
  6
CONTINUOUS
 10
83.1750786361
 20
141.625617005
 11
83.1839958227
 21
141.5895114029
  0
LINE
  5
312
100
AcDbEntity
  8
7_ALL_FEATURES
100
AcDbLine
 62
7
  6
CONTINUOUS
 10
83.1839958227
 20
141.5895114029
 11
83.1919019648
 21
141.5572246658
  0
LINE
  5
313
100
AcDbEntity
  8
7_ALL_FEATURES
100
AcDbLine
 62
7
  6
CONTINUOUS
 10
83.1919019648
 20
141.5572246658
 11
83.1985003426
 21
141.5300655375
  0
LINE
  5
314
100
AcDbEntity
  8
7_ALL_FEATURES
100
AcDbLine
 62
7
  6
CONTINUOUS
 10
83.1750781123
 20
141.6256182042
 11
83.1995767437
 21
141.525617005
  0
LINE
  5
315
100
AcDbEntity
  8
7_ALL_FEATURES
100
AcDbLine
 62
7
  6
CONTINUOUS
 10
60.1824336068
 20
164.575617005
 11
62.1824336068
 21
164.575617005
  0
LINE
  5
316
100
AcDbEntity
  8
7_ALL_FEATURES
100
AcDbLine
 62
7
  6
CONTINUOUS
 10
22.1824346706
 20
167.375617005
 11
43.9792523177
 21
167.375617005
  0
LINE
  5
317
100
AcDbEntity
  8
7_ALL_FEATURES
100
AcDbLine
 62
3
  6
CONTINUOUS
 10
22.1824346706
 20
167.675617005
 11
44.5178638828
 21
167.675617005
  0
LINE
  5
318
100
AcDbEntity
  8
7_ALL_FEATURES
100
AcDbLine
 62
9
  6
CONTINUOUS
 10
99.0276701303
 20
106.575617005
 11
99.0276701303
 21
106.875617005
  0
LINE
  5
319
100
AcDbEntity
  8
7_ALL_FEATURES
100
AcDbLine
 62
7
  6
CONTINUOUS
 10
100.1824336068
 20
106.875617005
 11
100.1824336068
 21
106.575617005
  0
LINE
  5
31A
100
AcDbEntity
  8
02___PRT_ALL_AXES
100
AcDbLine
 62
7
  6
CONTINUOUS
 10
26.3824336068
 20
48.2645387236
 11
26.3824336068
 21
48.7645387236
  0
LINE
  5
31B
100
AcDbEntity
  8
7_ALL_FEATURES
100
AcDbLine
 62
7
  6
CONTINUOUS
 10
32.4324336068
 20
75.7645387236
 11
30.9324336068
 21
74.2645387236
  0
LINE
  5
31C
100
AcDbEntity
  8
7_ALL_FEATURES
100
AcDbLine
 62
7
  6
CONTINUOUS
 10
30.9324336068
 20
48.7645387236
 11
30.9324336068
 21
60.0724994338
  0
LINE
  5
31D
100
AcDbEntity
  8
7_ALL_FEATURES
100
AcDbLine
 62
7
  6
CONTINUOUS
 10
30.9324336068
 20
68.5193892074
 11
30.9324336068
 21
74.2645387236
  0
LINE
  5
31E
100
AcDbEntity
  8
7_ALL_FEATURES
100
AcDbLine
 62
7
  6
CONTINUOUS
 10
32.415908495
 20
45.8703026568
 11
26.3824336068
 21
48.2645387236
  0
LINE
  5
31F
100
AcDbEntity
  8
02___PRT_ALL_AXES
100
AcDbLine
 62
7
  6
CONTINUOUS
 10
77.3002083943
 20
38.7645387236
 11
45.7002083943
 21
38.7645387236
  0
LINE
  5
320
100
AcDbEntity
  8
02___PRT_ALL_AXES
100
AcDbLine
 62
7
  6
CONTINUOUS
 10
45.7002083943
 20
45.7645387236
 11
45.7002083943
 21
38.7645387236
  0
LINE
  5
321
100
AcDbEntity
  8
7_ALL_FEATURES
100
AcDbLine
 62
7
  6
CONTINUOUS
 10
32.9691767755
 20
45.7645387236
 11
89.3956904381
 21
45.7645387236
  0
LINE
  5
322
100
AcDbEntity
  8
7_ALL_FEATURES
100
AcDbLine
 62
9
  6
CONTINUOUS
 10
32.415908495
 20
45.8703026568
 11
89.9489587186
 21
45.8703026568
  0
LINE
  5
323
100
AcDbEntity
  8
02___PRT_ALL_AXES
100
AcDbLine
 62
7
  6
CONTINUOUS
 10
26.3824336068
 20
48.2645387236
 11
95.9824336068
 21
48.2645387236
  0
LINE
  5
324
100
AcDbEntity
  8
02___PRT_ALL_AXES
100
AcDbLine
 62
7
  6
CONTINUOUS
 10
26.3824336068
 20
48.7645387236
 11
95.9824336068
 21
48.7645387236
  0
LINE
  5
325
100
AcDbEntity
  8
7_ALL_FEATURES
100
AcDbLine
 62
3
  6
CONTINUOUS
 10
23.3371970833
 20
63.6142163902
 11
53.1731976158
 21
49.7014608532
  0
LINE
  5
326
100
AcDbEntity
  8
7_ALL_FEATURES
100
AcDbLine
 62
7
  6
CONTINUOUS
 10
60.6050833376
 20
53.7145387236
 11
61.759783876
 21
53.7145387236
  0
LINE
  5
327
100
AcDbEntity
  8
7_ALL_FEATURES
100
AcDbLine
 62
7
  6
CONTINUOUS
 10
60.6050833376
 20
55.7145387236
 11
60.0277330684
 21
54.7145387236
  0
LINE
  5
328
100
AcDbEntity
  8
7_ALL_FEATURES
100
AcDbLine
 62
7
  6
CONTINUOUS
 10
61.759783876
 20
55.7145387236
 11
60.6050833376
 21
55.7145387236
  0
LINE
  5
329
100
AcDbEntity
  8
7_ALL_FEATURES
100
AcDbLine
 62
7
  6
CONTINUOUS
 10
60.0277330684
 20
54.7145387236
 11
60.6050833376
 21
53.7145387236
  0
LINE
  5
32A
100
AcDbEntity
  8
7_ALL_FEATURES
100
AcDbLine
 62
7
  6
CONTINUOUS
 10
62.3371341452
 20
54.7145387236
 11
61.759783876
 21
55.7145387236
  0
LINE
  5
32B
100
AcDbEntity
  8
7_ALL_FEATURES
100
AcDbLine
 62
7
  6
CONTINUOUS
 10
61.759783876
 20
53.7145387236
 11
62.3371341452
 21
54.7145387236
  0
LINE
  5
32C
100
AcDbEntity
  8
7_ALL_FEATURES
100
AcDbLine
 62
3
  6
CONTINUOUS
 10
67.1824336068
 20
50.7645387236
 11
67.1824336068
 21
63.3922606697
  0
LINE
  5
32D
100
AcDbEntity
  8
7_ALL_FEATURES
100
AcDbLine
 62
7
  6
CONTINUOUS
 10
99.0276701303
 20
63.6142163902
 11
91.4324336068
 21
60.0724994338
  0
LINE
  5
32E
100
AcDbEntity
  8
02___PRT_ALL_AXES
100
AcDbLine
 62
7
  6
CONTINUOUS
 10
77.3002083943
 20
45.7645387236
 11
77.3002083943
 21
38.7645387236
  0
LINE
  5
32F
100
AcDbEntity
  8
7_ALL_FEATURES
100
AcDbLine
 62
7
  6
CONTINUOUS
 10
30.9324336068
 20
74.2645387236
 11
91.4324336068
 21
74.2645387236
  0
LINE
  5
330
100
AcDbEntity
  8
7_ALL_FEATURES
100
AcDbLine
 62
7
  6
CONTINUOUS
 10
32.4324336068
 20
75.7645387236
 11
89.9324336068
 21
75.7645387236
  0
LINE
  5
331
100
AcDbEntity
  8
7_ALL_FEATURES
100
AcDbLine
 62
7
  6
CONTINUOUS
 10
89.9489587186
 20
45.8703026568
 11
95.9824336068
 21
48.2645387236
  0
LINE
  5
332
100
AcDbEntity
  8
7_ALL_FEATURES
100
AcDbLine
 62
7
  6
CONTINUOUS
 10
91.4324336068
 20
48.7645387236
 11
91.4324336068
 21
74.2645387236
  0
LINE
  5
333
100
AcDbEntity
  8
02___PRT_ALL_AXES
100
AcDbLine
 62
7
  6
CONTINUOUS
 10
95.9824336068
 20
48.2645387236
 11
95.9824336068
 21
48.7645387236
  0
LINE
  5
334
100
AcDbEntity
  8
7_ALL_FEATURES
100
AcDbLine
 62
7
  6
CONTINUOUS
 10
89.9324336068
 20
75.7645387236
 11
91.4324336068
 21
74.2645387236
  0
LINE
  5
335
100
AcDbEntity
  8
02___PRT_ALL_AXES
100
AcDbLine
 62
7
  6
CONTINUOUS
 10
159.0853748088
 20
102.325617005
 11
158.5853748088
 21
102.325617005
  0
LINE
  5
336
100
AcDbEntity
  8
7_ALL_FEATURES
100
AcDbLine
 62
7
  6
CONTINUOUS
 10
131.5853748088
 20
165.875617005
 11
133.0853748088
 21
167.375617005
  0
LINE
  5
337
100
AcDbEntity
  8
3_ALL_AXES
100
AcDbLine
 62
7
  6
CONTINUOUS
 10
149.6353923194
 20
105.675617005
 11
155.6353572982
 21
105.675617005
  0
LINE
  5
338
100
AcDbEntity
  8
3_ALL_AXES
100
AcDbLine
 62
7
  6
CONTINUOUS
 10
149.6353748088
 20
105.875617005
 11
155.6353748088
 21
105.875617005
  0
LINE
  5
339
100
AcDbEntity
  8
7_ALL_FEATURES
100
AcDbLine
 62
7
  6
CONTINUOUS
 10
131.5853748088
 20
108.375617005
 11
133.0853748088
 21
106.875617005
  0
LINE
  5
33A
100
AcDbEntity
  8
7_ALL_FEATURES
100
AcDbLine
 62
3
  6
CONTINUOUS
 10
158.5853748088
 20
106.575617005
 11
135.9576533496
 21
106.575617005
  0
LINE
  5
33B
100
AcDbEntity
  8
02___PRT_ALL_AXES
100
AcDbLine
 62
7
  6
CONTINUOUS
 10
136.2140586392
 20
106.875617005
 11
133.0853748088
 21
106.875617005
  0
LINE
  5
33C
100
AcDbEntity
  8
7_ALL_FEATURES
100
AcDbLine
 62
7
  6
CONTINUOUS
 10
136.2140586392
 20
106.875617005
 11
158.5853748088
 21
106.875617005
  0
LINE
  5
33D
100
AcDbEntity
  8
7_ALL_FEATURES
100
AcDbLine
 62
7
  6
CONTINUOUS
 10
131.5853748088
 20
108.3756190792
 11
131.5853748088
 21
165.8756149308
  0
LINE
  5
33E
100
AcDbEntity
  8
3_ALL_AXES
100
AcDbLine
 62
7
  6
CONTINUOUS
 10
154.6151850741
 20
167.3554272703
 11
154.6353748088
 21
167.375617005
  0
LINE
  5
33F
100
AcDbEntity
  8
3_ALL_AXES
100
AcDbLine
 62
7
  6
CONTINUOUS
 10
154.9353748088
 20
167.675617005
 11
155.6353748088
 21
168.375617005
  0
LINE
  5
340
100
AcDbEntity
  8
3_ALL_AXES
100
AcDbLine
 62
7
  6
CONTINUOUS
 10
154.6151853315
 20
106.8958064823
 11
154.6353748088
 21
106.875617005
  0
LINE
  5
341
100
AcDbEntity
  8
3_ALL_AXES
100
AcDbLine
 62
7
  6
CONTINUOUS
 10
154.9353748088
 20
106.575617005
 11
155.6353748088
 21
105.875617005
  0
LINE
  5
342
100
AcDbEntity
  8
7_ALL_FEATURES
100
AcDbLine
 62
7
  6
CONTINUOUS
 10
133.0853748088
 20
106.875617005
 11
133.0853748088
 21
167.375617005
  0
LINE
  5
343
100
AcDbEntity
  8
02___PRT_ALL_AXES
100
AcDbLine
 62
7
  6
CONTINUOUS
 10
161.5853748088
 20
121.325617005
 11
168.5853748088
 21
121.325617005
  0
LINE
  5
344
100
AcDbEntity
  8
7_ALL_FEATURES
100
AcDbLine
 62
7
  6
CONTINUOUS
 10
135.9576528627
 20
106.875617005
 11
135.9576528627
 21
106.575617005
  0
LINE
  5
345
100
AcDbEntity
  8
7_ALL_FEATURES
100
AcDbLine
 62
7
  6
CONTINUOUS
 10
135.9576528627
 20
167.375617005
 11
135.9576528627
 21
167.675617005
  0
LINE
  5
346
100
AcDbEntity
  8
7_ALL_FEATURES
100
AcDbLine
 62
9
  6
CONTINUOUS
 10
135.9714792878
 20
167.375617005
 11
135.9714792878
 21
167.675617005
  0
LINE
  5
347
100
AcDbEntity
  8
7_ALL_FEATURES
100
AcDbLine
 62
9
  6
CONTINUOUS
 10
139.9514127586
 20
167.675617005
 11
139.9514127586
 21
167.375617005
  0
LINE
  5
348
100
AcDbEntity
  8
7_ALL_FEATURES
100
AcDbLine
 62
9
  6
CONTINUOUS
 10
143.7356971422
 20
167.675617005
 11
143.7356971422
 21
167.375617005
  0
LINE
  5
349
100
AcDbEntity
  8
7_ALL_FEATURES
100
AcDbLine
 62
9
  6
CONTINUOUS
 10
143.9576528627
 20
106.875617005
 11
143.9576528627
 21
106.575617005
  0
LINE
  5
34A
100
AcDbEntity
  8
3_ALL_AXES
100
AcDbLine
 62
7
  6
CONTINUOUS
 10
149.6353748088
 20
105.875617005
 11
149.6353748088
 21
105.675617005
  0
LINE
  5
34B
100
AcDbEntity
  8
3_ALL_AXES
100
AcDbLine
 62
7
  6
CONTINUOUS
 10
149.6353748088
 20
168.375617005
 11
149.6353748088
 21
168.575617005
  0
LINE
  5
34C
100
AcDbEntity
  8
3_ALL_AXES
100
AcDbLine
 62
7
  6
CONTINUOUS
 10
155.6353748088
 20
105.875617005
 11
155.6353748088
 21
105.675617005
  0
LINE
  5
34D
100
AcDbEntity
  8
3_ALL_AXES
100
AcDbLine
 62
7
  6
CONTINUOUS
 10
155.6353748088
 20
168.375617005
 11
155.6353748088
 21
168.575617005
  0
LINE
  5
34E
100
AcDbEntity
  8
7_ALL_FEATURES
100
AcDbLine
 62
9
  6
CONTINUOUS
 10
156.5853748088
 20
106.875617005
 11
156.5853748088
 21
106.575617005
  0
LINE
  5
34F
100
AcDbEntity
  8
7_ALL_FEATURES
100
AcDbLine
 62
9
  6
CONTINUOUS
 10
157.6484526792
 20
167.375617005
 11
157.6484526792
 21
167.675617005
  0
LINE
  5
350
100
AcDbEntity
  8
02___PRT_ALL_AXES
100
AcDbLine
 62
7
  6
CONTINUOUS
 10
158.5853748088
 20
102.325617005
 11
158.5853748088
 21
171.925617005
  0
LINE
  5
351
100
AcDbEntity
  8
02___PRT_ALL_AXES
100
AcDbLine
 62
7
  6
CONTINUOUS
 10
159.0853748088
 20
102.325617005
 11
159.0853748088
 21
171.925617005
  0
LINE
  5
352
100
AcDbEntity
  8
7_ALL_FEATURES
100
AcDbLine
 62
9
  6
CONTINUOUS
 10
161.4796108756
 20
108.3590918932
 11
161.4796108756
 21
165.8921421168
  0
LINE
  5
353
100
AcDbEntity
  8
7_ALL_FEATURES
100
AcDbLine
 62
7
  6
CONTINUOUS
 10
161.5853748088
 20
108.9123622092
 11
161.5853748088
 21
165.3388718008
  0
LINE
  5
354
100
AcDbEntity
  8
02___PRT_ALL_AXES
100
AcDbLine
 62
7
  6
CONTINUOUS
 10
161.5853748088
 20
152.925617005
 11
168.5853748088
 21
152.925617005
  0
LINE
  5
355
100
AcDbEntity
  8
02___PRT_ALL_AXES
100
AcDbLine
 62
7
  6
CONTINUOUS
 10
168.5853748088
 20
121.3256184243
 11
168.5853748088
 21
152.9256155857
  0
LINE
  5
356
100
AcDbEntity
  8
02___PRT_ALL_AXES
100
AcDbLine
 62
7
  6
CONTINUOUS
 10
161.4796108756
 20
108.3590918932
 11
159.0853748088
 21
102.325617005
  0
LINE
  5
357
100
AcDbEntity
  8
02___PRT_ALL_AXES
100
AcDbLine
 62
7
  6
CONTINUOUS
 10
161.4796108756
 20
165.8921421168
 11
159.0853748088
 21
171.925617005
  0
LINE
  5
358
100
AcDbEntity
  8
3_ALL_AXES
100
AcDbLine
 62
7
  6
CONTINUOUS
 10
150.6555645607
 20
106.8958067569
 11
150.6353748088
 21
106.875617005
  0
LINE
  5
359
100
AcDbEntity
  8
3_ALL_AXES
100
AcDbLine
 62
7
  6
CONTINUOUS
 10
150.3353748088
 20
106.575617005
 11
149.6353748088
 21
105.875617005
  0
LINE
  5
35A
100
AcDbEntity
  8
3_ALL_AXES
100
AcDbLine
 62
7
  6
CONTINUOUS
 10
150.6555642989
 20
167.3554275149
 11
150.6353748088
 21
167.375617005
  0
LINE
  5
35B
100
AcDbEntity
  8
3_ALL_AXES
100
AcDbLine
 62
7
  6
CONTINUOUS
 10
150.3353748088
 20
167.675617005
 11
149.6353748088
 21
168.375617005
  0
LINE
  5
35C
100
AcDbEntity
  8
02___PRT_ALL_AXES
100
AcDbLine
 62
7
  6
CONTINUOUS
 10
135.9576528627
 20
167.375617005
 11
133.0853748088
 21
167.375617005
  0
LINE
  5
35D
100
AcDbEntity
  8
7_ALL_FEATURES
100
AcDbLine
 62
7
  6
CONTINUOUS
 10
135.9576533496
 20
167.375617005
 11
158.5853748088
 21
167.375617005
  0
LINE
  5
35E
100
AcDbEntity
  8
7_ALL_FEATURES
100
AcDbLine
 62
3
  6
CONTINUOUS
 10
135.9576533496
 20
167.675617005
 11
158.5853748088
 21
167.675617005
  0
LINE
  5
35F
100
AcDbEntity
  8
3_ALL_AXES
100
AcDbLine
 62
7
  6
CONTINUOUS
 10
149.6353748088
 20
168.375617005
 11
155.6353748088
 21
168.375617005
  0
LINE
  5
360
100
AcDbEntity
  8
3_ALL_AXES
100
AcDbLine
 62
7
  6
CONTINUOUS
 10
149.635387682
 20
168.575617005
 11
155.6353619356
 21
168.575617005
  0
LINE
  5
361
100
AcDbEntity
  8
02___PRT_ALL_AXES
100
AcDbLine
 62
7
  6
CONTINUOUS
 10
159.0853748088
 20
171.925617005
 11
158.5853748088
 21
171.925617005
  0
LINE
  5
362
100
AcDbEntity
  8
7_ALL_FEATURES
100
AcDbLine
 62
7
  6
CONTINUOUS
 10
203.2840050697
 20
125.3117520179
 11
202.0592601983
 21
124.4457266141
  0
LINE
  5
363
100
AcDbEntity
  8
02___PRT_ALL_AXES
100
AcDbLine
 62
7
  6
CONTINUOUS
 10
191.9582817714
 20
93.1966432942
 11
191.9582817714
 21
93.6296559961
  0
LINE
  5
364
100
AcDbEntity
  8
02___PRT_ALL_AXES
100
AcDbLine
 62
7
  6
CONTINUOUS
 10
237.9199875917
 20
61.300368919
 11
227.1556865966
 21
60.7166281717
  0
LINE
  5
365
100
AcDbEntity
  8
02___PRT_ALL_AXES
100
AcDbLine
 62
7
  6
CONTINUOUS
 10
226.7570087819
 20
60.695008144
 11
225.9596531527
 21
60.6517680886
  0
LINE
  5
366
100
AcDbEntity
  8
02___PRT_ALL_AXES
100
AcDbLine
 62
7
  6
CONTINUOUS
 10
196.5082817714
 20
102.2312464707
 11
196.5082817714
 21
103.3976833181
  0
LINE
  5
367
100
AcDbEntity
  8
02___PRT_ALL_AXES
100
AcDbLine
 62
7
  6
CONTINUOUS
 10
237.8894157228
 20
68.0085555398
 11
243.2051199179
 21
68.2968225756
  0
LINE
  5
368
100
AcDbEntity
  8
02___PRT_ALL_AXES
100
AcDbLine
 62
7
  6
CONTINUOUS
 10
213.8524320841
 20
66.4605359297
 11
212.7672076574
 21
67.7397245985
  0
LINE
  5
369
100
AcDbEntity
  8
02___PRT_ALL_AXES
100
AcDbLine
 62
7
  6
CONTINUOUS
 10
199.4082817714
 20
91.0315797847
 11
199.4082817714
 21
92.4645410974
  0
LINE
  5
36A
100
AcDbEntity
  8
7_ALL_FEATURES
100
AcDbLine
 62
7
  6
CONTINUOUS
 10
204.2529465689
 20
110.4929518632
 11
203.8446982784
 21
109.4228023142
  0
LINE
  5
36B
100
AcDbEntity
  8
7_ALL_FEATURES
100
AcDbLine
 62
7
  6
CONTINUOUS
 10
205.3136067406
 20
109.9626217773
 11
204.9971101597
 21
109.1329828511
  0
LINE
  5
36C
100
AcDbEntity
  8
7_ALL_FEATURES
100
AcDbLine
 62
7
  6
CONTINUOUS
 10
205.0694431498
 20
109.1691493461
 11
205.4776914403
 21
110.2392988951
  0
LINE
  5
36D
100
AcDbEntity
  8
7_ALL_FEATURES
100
AcDbLine
 62
7
  6
CONTINUOUS
 10
205.0694431498
 20
110.9012001537
 11
204.2529465689
 21
110.4929518632
  0
LINE
  5
36E
100
AcDbEntity
  8
7_ALL_FEATURES
100
AcDbLine
 62
7
  6
CONTINUOUS
 10
205.3859397307
 20
109.9987882724
 11
205.3136067406
 21
109.9626217773
  0
LINE
  5
36F
100
AcDbEntity
  8
7_ALL_FEATURES
100
AcDbLine
 62
7
  6
CONTINUOUS
 10
204.2529465689
 20
108.7609010556
 11
205.0694431498
 21
109.1691493461
  0
LINE
  5
370
100
AcDbEntity
  8
7_ALL_FEATURES
100
AcDbLine
 62
3
  6
CONTINUOUS
 10
209.3988102933
 20
109.1501086336
 11
209.3988102933
 21
120.0860366309
  0
LINE
  5
371
100
AcDbEntity
  8
7_ALL_FEATURES
100
AcDbLine
 62
7
  6
CONTINUOUS
 10
209.6109423276
 20
109.0440426165
 11
209.6109423276
 21
119.9799706138
  0
LINE
  5
372
100
AcDbEntity
  8
02___PRT_ALL_AXES
100
AcDbLine
 62
7
  6
CONTINUOUS
 10
213.6329824786
 20
100.4662332248
 11
213.6329824786
 21
102.7429774428
  0
LINE
  5
373
100
AcDbEntity
  8
02___PRT_ALL_AXES
100
AcDbLine
 62
7
  6
CONTINUOUS
 10
212.114858226
 20
98.5017598696
 11
211.1743302404
 21
97.1127160205
  0
LINE
  5
374
100
AcDbEntity
  8
7_ALL_FEATURES
100
AcDbLine
 62
7
  6
CONTINUOUS
 10
178.3109235456
 20
104.7503108632
 11
178.0987915113
 21
104.8563768803
  0
LINE
  5
375
100
AcDbEntity
  8
7_ALL_FEATURES
100
AcDbLine
 62
9
  6
CONTINUOUS
 10
178.3955462248
 20
104.7766238892
 11
178.6076782592
 21
104.670557872
  0
LINE
  5
376
100
AcDbEntity
  8
7_ALL_FEATURES
100
AcDbLine
 62
7
  6
CONTINUOUS
 10
203.8446982784
 20
109.4228023142
 11
204.2529465689
 21
108.7609010556
  0
LINE
  5
377
100
AcDbEntity
  8
7_ALL_FEATURES
100
AcDbLine
 62
7
  6
CONTINUOUS
 10
205.4776914403
 20
110.2392988951
 11
205.0694431498
 21
110.9012001537
  0
LINE
  5
378
100
AcDbEntity
  8
3_ALL_AXES
100
AcDbLine
 62
7
  6
CONTINUOUS
 10
203.4609754291
 20
107.0770583535
 11
203.3195540728
 21
107.1477690317
  0
LINE
  5
379
100
AcDbEntity
  8
7_ALL_FEATURES
100
AcDbLine
 62
7
  6
CONTINUOUS
 10
238.1780562876
 20
100.7187622838
 11
239.9296714221
 21
101.5945698511
  0
LINE
  5
37A
100
AcDbEntity
  8
02___PRT_ALL_AXES
100
AcDbLine
 62
7
  6
CONTINUOUS
 10
236.1782833584
 20
99.5621928267
 11
241.4939875535
 21
99.8504598625
  0
LINE
  5
37B
100
AcDbEntity
  8
3_ALL_AXES
100
AcDbLine
 62
7
  6
CONTINUOUS
 10
203.4613314951
 20
107.0885862868
 11
203.464227221
 21
107.0877015633
  0
LINE
  5
37C
100
AcDbEntity
  8
3_ALL_AXES
100
AcDbLine
 62
7
  6
CONTINUOUS
 10
203.4613278816
 20
107.0885780275
 11
203.46418727
 21
107.0876099975
  0
LINE
  5
37D
100
AcDbEntity
  8
7_ALL_FEATURES
100
AcDbLine
 62
7
  6
CONTINUOUS
 10
203.8446982784
 20
109.4228023142
 11
204.7107236822
 21
108.9897896123
  0
LINE
  5
37E
100
AcDbEntity
  8
7_ALL_FEATURES
100
AcDbLine
 62
7
  6
CONTINUOUS
 10
204.2529465689
 20
110.4929518632
 11
205.3136067406
 21
109.9626217773
  0
LINE
  5
37F
100
AcDbEntity
  8
7_ALL_FEATURES
100
AcDbLine
 62
9
  6
CONTINUOUS
 10
209.6109423276
 20
109.0440426165
 11
209.3988102933
 21
109.1501086336
  0
LINE
  5
380
100
AcDbEntity
  8
7_ALL_FEATURES
100
AcDbLine
 62
7
  6
CONTINUOUS
 10
178.6076782592
 20
104.670557872
 11
197.8329096477
 21
103.3034917945
  0
LINE
  5
381
100
AcDbEntity
  8
7_ALL_FEATURES
100
AcDbLine
 62
3
  6
CONTINUOUS
 10
178.3955462248
 20
104.7766238892
 11
197.9444046408
 21
103.3865453693
  0
LINE
  5
382
100
AcDbEntity
  8
3_ALL_AXES
100
AcDbLine
 62
7
  6
CONTINUOUS
 10
206.1442570021
 20
112.4436214995
 11
206.0028356458
 21
112.5143321777
  0
LINE
  5
383
100
AcDbEntity
  8
02___PRT_ALL_AXES
100
AcDbLine
 62
7
  6
CONTINUOUS
 10
238.5782196473
 20
99.6923397451
 11
237.4608842408
 21
100.2510074484
  0
LINE
  5
384
100
AcDbEntity
  8
7_ALL_FEATURES
100
AcDbLine
 62
7
  6
CONTINUOUS
 10
237.4608842408
 20
100.2510074484
 11
238.2168168285
 21
103.172655815
  0
LINE
  5
385
100
AcDbEntity
  8
7_ALL_FEATURES
100
AcDbLine
 62
7
  6
CONTINUOUS
 10
237.4989879081
 20
100.2319556147
 11
238.2573347647
 21
103.1629350315
  0
LINE
  5
386
100
AcDbEntity
  8
7_ALL_FEATURES
100
AcDbLine
 62
9
  6
CONTINUOUS
 10
240.0691924734
 20
99.7731941909
 11
238.1780562876
 21
100.7187622838
  0
LINE
  5
387
100
AcDbEntity
  8
7_ALL_FEATURES
100
AcDbLine
 62
9
  6
CONTINUOUS
 10
239.9296714221
 20
101.5945698511
 11
239.9296714221
 21
102.7299334022
  0
LINE
  5
388
100
AcDbEntity
  8
7_ALL_FEATURES
100
AcDbLine
 62
9
  6
CONTINUOUS
 10
209.6109423276
 20
119.9799706138
 11
209.3988102933
 21
120.0860366309
  0
LINE
  5
389
100
AcDbEntity
  8
7_ALL_FEATURES
100
AcDbLine
 62
7
  6
CONTINUOUS
 10
207.5317968421
 20
124.306961017
 11
207.3196648078
 21
124.4130270342
  0
LINE
  5
38A
100
AcDbEntity
  8
02___PRT_ALL_AXES
100
AcDbLine
 62
7
  6
CONTINUOUS
 10
254.1082817714
 20
91.0315797847
 11
254.1082817714
 21
92.4645410974
  0
LINE
  5
38B
100
AcDbEntity
  8
7_ALL_FEATURES
100
AcDbLine
 62
7
  6
CONTINUOUS
 10
274.9088852837
 20
110.0412011225
 11
261.3519713669
 21
95.5202833529
  0
LINE
  5
38C
100
AcDbEntity
  8
7_ALL_FEATURES
100
AcDbLine
 62
3
  6
CONTINUOUS
 10
275.121017318
 20
109.9351351053
 11
261.407412763
 21
95.2463847532
  0
LINE
  5
38D
100
AcDbEntity
  8
02___PRT_ALL_AXES
100
AcDbLine
 62
7
  6
CONTINUOUS
 10
257.0082817714
 20
102.2312464707
 11
257.0082817714
 21
115.7133037926
  0
LINE
  5
38E
100
AcDbEntity
  8
02___PRT_ALL_AXES
100
AcDbLine
 62
7
  6
CONTINUOUS
 10
261.5582817714
 20
93.1966432942
 11
261.5582817714
 21
93.6296559961
  0
LINE
  5
38F
100
AcDbEntity
  8
7_ALL_FEATURES
100
AcDbLine
 62
9
  6
CONTINUOUS
 10
275.121017318
 20
109.9351351053
 11
274.9088852837
 21
110.0412011225
  0
LINE
  5
390
100
AcDbEntity
  8
7_ALL_FEATURES
100
AcDbLine
 62
7
  6
CONTINUOUS
 10
275.2056399972
 20
113.1009904002
 11
275.4177720316
 21
112.994924383
  0
LINE
  5
391
100
AcDbEntity
  8
7_ALL_FEATURES
100
AcDbLine
 62
7
  6
CONTINUOUS
 10
250.2325584731
 20
125.3117520179
 11
251.4573033445
 21
124.4457266141
  0
CIRCLE
  5
392
100
AcDbEntity
  8
02___PRT_ALL_AXES
100
AcDbCircle
 62
7
  6
CONTINUOUS
 10
61.1824336068
 20
137.125617005
 40
34.8
  0
CIRCLE
  5
393
100
AcDbEntity
  8
7_ALL_FEATURES
100
AcDbCircle
 62
9
  6
CONTINUOUS
 10
61.1824336068
 20
137.125617005
 40
28.7665251118
  0
CIRCLE
  5
394
100
AcDbEntity
  8
7_ALL_FEATURES
100
AcDbCircle
 62
9
  6
CONTINUOUS
 10
61.1824336068
 20
137.125617005
 40
28.2132568313
  0
CIRCLE
  5
395
100
AcDbEntity
  8
02___PRT_ALL_AXES
100
AcDbCircle
 62
7
  6
CONTINUOUS
 10
61.1824336068
 20
137.125617005
 40
27.5
  0
CIRCLE
  5
396
100
AcDbEntity
  8
02___PRT_ALL_AXES
100
AcDbCircle
 62
7
  6
CONTINUOUS
 10
61.1824336068
 20
137.125617005
 40
27.35
  0
CIRCLE
  5
397
100
AcDbEntity
  8
7_ALL_FEATURES
100
AcDbCircle
 62
7
  6
CONTINUOUS
 10
61.1824336068
 20
137.125617005
 40
26.85
  0
ARC
  5
398
100
AcDbEntity
  8
7_ALL_FEATURES
100
AcDbCircle
 62
7
  6
CONTINUOUS
 10
61.1824336068
 20
137.125617005
 40
25.9
100
AcDbArc
 50
15.5323508366
 51
344.4676491634
  0
ARC
  5
399
100
AcDbEntity
  8
7_ALL_FEATURES
100
AcDbCircle
 62
7
  6
CONTINUOUS
 10
61.1824336068
 20
137.125617005
 40
25.6582464074
100
AcDbArc
 50
346.6731950829
 51
13.3268049171
  0
ARC
  5
39A
100
AcDbEntity
  8
7_ALL_FEATURES
100
AcDbCircle
 62
7
  6
CONTINUOUS
 10
61.5002083943
 20
137.125617005
 40
22.5
100
AcDbArc
 50
46.3444673438
 51
313.655534727
  0
ARC
  5
39B
100
AcDbEntity
  8
7_ALL_FEATURES
100
AcDbCircle
 62
7
  6
CONTINUOUS
 10
61.5002083943
 20
137.125617005
 40
22.5
100
AcDbArc
 50
335.8592237154
 51
348.7227850276
  0
ARC
  5
39C
100
AcDbEntity
  8
7_ALL_FEATURES
100
AcDbCircle
 62
7
  6
CONTINUOUS
 10
61.5002083943
 20
137.125617005
 40
22.5
100
AcDbArc
 50
11.2772309458
 51
24.1407768328
  0
ARC
  5
39D
100
AcDbEntity
  8
02___PRT_ALL_AXES
100
AcDbCircle
 62
7
  6
CONTINUOUS
 10
61.5002083943
 20
137.125617005
 40
22.5
100
AcDbArc
 50
12.4868898142
 51
347.5131101858
  0
ARC
  5
39E
100
AcDbEntity
  8
7_ALL_FEATURES
100
AcDbCircle
 62
9
  6
CONTINUOUS
 10
61.5002083943
 20
137.125617005
 40
22.0
100
AcDbArc
 50
12.6022648477
 51
347.3977351523
  0
CIRCLE
  5
39F
100
AcDbEntity
  8
02___PRT_ALL_AXES
100
AcDbCircle
 62
7
  6
CONTINUOUS
 10
61.5002083943
 20
137.125617005
 40
15.8
  0
CIRCLE
  5
3A0
100
AcDbEntity
  8
02___PRT_ALL_AXES
100
AcDbCircle
 62
7
  6
CONTINUOUS
 10
61.5002083943
 20
137.125617005
 40
15.3
  0
CIRCLE
  5
3A1
100
AcDbEntity
  8
7_ALL_FEATURES
100
AcDbCircle
 62
9
  6
CONTINUOUS
 10
61.5002083943
 20
137.125617005
 40
11.921906052
  0
CIRCLE
  5
3A2
100
AcDbEntity
  8
7_ALL_FEATURES
100
AcDbCircle
 62
7
  6
CONTINUOUS
 10
61.5002083943
 20
137.125617005
 40
11.75
  0
ARC
  5
3A3
100
AcDbEntity
  8
7_ALL_FEATURES
100
AcDbCircle
 62
7
  6
CONTINUOUS
 10
84.2095914861
 20
130.725617005
 40
2.0
100
AcDbArc
 50
344.4676491634
 51
90.0
  0
ARC
  5
3A4
100
AcDbEntity
  8
7_ALL_FEATURES
100
AcDbCircle
 62
7
  6
CONTINUOUS
 10
84.2095914861
 20
143.525617005
 40
2.0
100
AcDbArc
 50
270.0
 51
15.5323508366
  0
ARC
  5
3A5
100
AcDbEntity
  8
7_ALL_FEATURES
100
AcDbCircle
 62
7
  6
CONTINUOUS
 10
44.8469730645
 20
-248.0685087487
 40
320.0
100
AcDbArc
 50
80.3446271054
 51
81.6290799809
  0
ARC
  5
3A6
100
AcDbEntity
  8
7_ALL_FEATURES
100
AcDbCircle
 62
3
  6
CONTINUOUS
 10
77.5178941491
 20
-248.0685087487
 40
320.0
100
AcDbArc
 50
93.3690709712
 51
99.6553728946
  0
ARC
  5
3A7
100
AcDbEntity
  8
7_ALL_FEATURES
100
AcDbCircle
 62
3
  6
CONTINUOUS
 10
57.3993802332
 20
58.7645387236
 40
10.0
100
AcDbArc
 50
245.0
 51
270.0
  0
ARC
  5
3A8
100
AcDbEntity
  8
7_ALL_FEATURES
100
AcDbCircle
 62
3
  6
CONTINUOUS
 10
59.1824336068
 20
63.3922606697
 40
8.0
100
AcDbArc
 50
0.0
 51
93.3690709712
  0
CIRCLE
  5
3A9
100
AcDbEntity
  8
3_ALL_AXES
100
AcDbCircle
 62
7
  6
CONTINUOUS
 10
61.1824336068
 20
54.7145387236
 40
3.0
  0
ARC
  5
3AA
100
AcDbEntity
  8
7_ALL_FEATURES
100
AcDbCircle
 62
7
  6
CONTINUOUS
 10
98.1824336068
 20
65.4268319643
 40
2.0
100
AcDbArc
 50
295.0
 51
80.3446271054
  0
ARC
  5
3AB
100
AcDbEntity
  8
7_ALL_FEATURES
100
AcDbCircle
 62
3
  6
CONTINUOUS
 10
24.1824336068
 20
65.4268319643
 40
2.0
100
AcDbArc
 50
99.6553728946
 51
245.0
  0
ARC
  5
3AC
100
AcDbEntity
  8
7_ALL_FEATURES
100
AcDbCircle
 62
3
  6
CONTINUOUS
 10
65.1824336068
 20
50.7645387236
 40
2.0
100
AcDbArc
 50
270.0
 51
360.0
  0
ARC
  5
3AD
100
AcDbEntity
  8
7_ALL_FEATURES
100
AcDbCircle
 62
7
  6
CONTINUOUS
 10
89.3956904381
 20
47.2645387236
 40
1.5
100
AcDbArc
 50
270.0
 51
291.6444351407
  0
ARC
  5
3AE
100
AcDbEntity
  8
7_ALL_FEATURES
100
AcDbCircle
 62
7
  6
CONTINUOUS
 10
32.9691767755
 20
47.2645387236
 40
1.5
100
AcDbArc
 50
248.3555648593
 51
270.0
  0
ARC
  5
3AF
100
AcDbEntity
  8
7_ALL_FEATURES
100
AcDbCircle
 62
7
  6
CONTINUOUS
 10
160.0853748088
 20
108.9123601737
 40
1.5
100
AcDbArc
 50
338.3555648593
 51
360.0
  0
ARC
  5
3B0
100
AcDbEntity
  8
7_ALL_FEATURES
100
AcDbCircle
 62
7
  6
CONTINUOUS
 10
160.0853748088
 20
165.3388738363
 40
1.5
100
AcDbArc
 50
0.0
 51
21.6444351407
  0
ARC
  5
3B1
100
AcDbEntity
  8
7_ALL_FEATURES
100
AcDbCircle
 62
7
  6
CONTINUOUS
 10
334.1918643801
 20
-90.7110147842
 40
212.3955369114
100
AcDbArc
 50
106.308741375
 51
111.3088642668
  0
ARC
  5
3B2
100
AcDbEntity
  8
7_ALL_FEATURES
100
AcDbCircle
 62
9
  6
CONTINUOUS
 10
219.8311073215
 20
107.8126082891
 40
30.0231086185
100
AcDbArc
 50
243.4624947538
 51
245.8047913954
  0
ARC
  5
3B3
100
AcDbEntity
  8
7_ALL_FEATURES
100
AcDbCircle
 62
9
  6
CONTINUOUS
 10
219.7163626961
 20
106.8852661795
 40
28.8743571714
100
AcDbArc
 50
243.4463491462
 51
244.9535122949
  0
ARC
  5
3B4
100
AcDbEntity
  8
02___PRT_ALL_AXES
100
AcDbCircle
 62
7
  6
CONTINUOUS
 10
219.5250162307
 20
105.733365043
 40
27.3073889326
100
AcDbArc
 50
243.4351004726
 51
243.7370150494
  0
ARC
  5
3B5
100
AcDbEntity
  8
7_ALL_FEATURES
100
AcDbCircle
 62
7
  6
CONTINUOUS
 10
234.2101347184
 20
77.449083229
 40
25.7974155434
100
AcDbArc
 50
62.1989950577
 51
63.4423752406
  0
ARC
  5
3B6
100
AcDbEntity
  8
7_ALL_FEATURES
100
AcDbCircle
 62
7
  6
CONTINUOUS
 10
218.7517175891
 20
80.1458252516
 40
23.1531742271
100
AcDbArc
 50
118.7081578878
 51
119.6991745002
  0
ARC
  5
3B7
100
AcDbEntity
  8
7_ALL_FEATURES
100
AcDbCircle
 62
7
  6
CONTINUOUS
 10
234.8529702556
 20
80.7204468279
 40
22.6036862068
100
AcDbArc
 50
59.7738540931
 51
61.0216382724
  0
ARC
  5
3B8
100
AcDbEntity
  8
7_ALL_FEATURES
100
AcDbCircle
 62
7
  6
CONTINUOUS
 10
216.2697532962
 20
114.3054248749
 40
18.7457380306
100
AcDbArc
 50
235.0230748584
 51
235.3493845418
  0
ARC
  5
3B9
100
AcDbEntity
  8
7_ALL_FEATURES
100
AcDbCircle
 62
7
  6
CONTINUOUS
 10
215.9917391563
 20
113.5659114666
 40
17.9814140776
100
AcDbArc
 50
233.8792746164
 51
234.738948805
  0
ARC
  5
3BA
100
AcDbEntity
  8
7_ALL_FEATURES
100
AcDbCircle
 62
7
  6
CONTINUOUS
 10
225.7736895058
 20
91.1879579157
 40
14.6232072681
100
AcDbArc
 50
120.5683510405
 51
121.4849234066
  0
ARC
  5
3BB
100
AcDbEntity
  8
7_ALL_FEATURES
100
AcDbCircle
 62
7
  6
CONTINUOUS
 10
226.1575571284
 20
91.2339785985
 40
14.5946639548
100
AcDbArc
 50
120.1109506992
 51
121.4853710737
  0
ARC
  5
3BC
100
AcDbEntity
  8
7_ALL_FEATURES
100
AcDbCircle
 62
7
  6
CONTINUOUS
 10
226.0780398677
 20
73.2151401503
 40
12.5385286663
100
AcDbArc
 50
273.1041193898
 51
274.0651841603
  0
ARC
  5
3BD
100
AcDbEntity
  8
02___PRT_ALL_AXES
100
AcDbCircle
 62
7
  6
CONTINUOUS
 10
243.4094554655
 20
79.2662888164
 40
10.6203704947
100
AcDbArc
 50
235.4837045928
 51
243.3712817232
  0
ARC
  5
3BE
100
AcDbEntity
  8
02___PRT_ALL_AXES
100
AcDbCircle
 62
7
  6
CONTINUOUS
 10
200.6636841309
 20
93.1966086936
 40
8.7054023596
100
AcDbArc
 50
177.1523409621
 51
179.9997722712
  0
ARC
  5
3BF
100
AcDbEntity
  8
02___PRT_ALL_AXES
100
AcDbCircle
 62
7
  6
CONTINUOUS
 10
252.8528794119
 20
93.1966086936
 40
8.7054023595
100
AcDbArc
 50
0.0002277288
 51
2.8476590379
  0
ARC
  5
3C0
100
AcDbEntity
  8
02___PRT_ALL_AXES
100
AcDbCircle
 62
7
  6
CONTINUOUS
 10
247.2793623211
 20
91.0267956036
 40
6.9789210901
100
AcDbArc
 50
0.0392773334
 51
12.2323917112
  0
ARC
  5
3C1
100
AcDbEntity
  8
7_ALL_FEATURES
100
AcDbCircle
 62
7
  6
CONTINUOUS
 10
246.1740011734
 20
91.7220816408
 40
6.4842805778
100
AcDbArc
 50
356.7338755446
 51
359.9986362441
  0
ARC
  5
3C2
100
AcDbEntity
  8
7_ALL_FEATURES
100
AcDbCircle
 62
3
  6
CONTINUOUS
 10
205.9749117618
 20
121.7238515717
 40
3.0066633936
100
AcDbArc
 50
58.92183932
 51
63.4321311247
  0
ARC
  5
3C3
100
AcDbEntity
  8
3_ALL_AXES
100
AcDbCircle
 62
7
  6
CONTINUOUS
 10
205.4975625116
 20
111.5039652908
 40
1.1296633483
100
AcDbArc
 50
55.4707725016
 51
63.4308800436
  0
ARC
  5
3C4
100
AcDbEntity
  8
3_ALL_AXES
100
AcDbCircle
 62
7
  6
CONTINUOUS
 10
203.8243851025
 20
108.1575284179
 40
1.1289222661
100
AcDbArc
 50
243.4371578991
 51
251.2405103104
  0
SPLINE
  5
3C5
100
AcDbEntity
  8
7_ALL_FEATURES
100
AcDbSpline
 62
7
  6
CONTINUOUS
 70
0
 71
3
 72
36
 73
32
 74
0
 42
0.0000001
 43
0.0000001
 44
0.0000000001
 40
0.0
 40
0.0
 40
0.0
 40
0.0
 40
0.0000785294
 40
0.0003140517
 40
0.0007064677
 40
0.0012556781
 40
0.0019615836
 40
0.0028240848
 40
0.0050183456
 40
0.0078365442
 40
0.0112763144
 40
0.0153352337
 40
0.0200100513
 40
0.025296871
 40
0.031191765
 40
0.0447867922
 40
0.0607525027
 40
0.0790391334
 40
0.0995904533
 40
0.1223429787
 40
0.1472275271
 40
0.1741690786
 40
0.233896375
 40
0.3008278841
 40
0.3742082469
 40
0.453241892
 40
0.5371116759
 40
0.6249893743
 40
0.7160539399
 40
0.8095017278
 40
1.0
 40
1.0
 40
1.0
 40
1.0
 10
150.3853748088
 20
106.875617005
 30
0.0
 10
150.3853330404
 20
106.8755753929
 30
0.0
 10
150.3858128686
 20
106.8757068212
 30
0.0
 10
150.3861051787
 20
106.8756400364
 30
0.0
 10
150.3871209566
 20
106.8757721534
 30
0.0
 10
150.3882944666
 20
106.8758427209
 30
0.0
 10
150.3899024251
 20
106.8759791952
 30
0.0
 10
150.3927075518
 20
106.8761975904
 30
0.0
 10
150.397111824
 20
106.8765494045
 30
0.0
 10
150.4034347979
 20
106.8770480358
 30
0.0
 10
150.4111578179
 20
106.8776569554
 30
0.0
 10
150.4202691408
 20
106.8783720934
 30
0.0
 10
150.4307637541
 20
106.8791924365
 30
0.0
 10
150.4426328086
 20
106.8801153519
 30
0.0
 10
150.461179593
 20
106.8815494519
 30
0.0
 10
150.4877216587
 20
106.8835813689
 30
0.0
 10
150.5235433516
 20
106.8862818369
 30
0.0
 10
150.5645771131
 20
106.8893196069
 30
0.0
 10
150.6106975981
 20
106.8926632901
 30
0.0
 10
150.6617650145
 20
106.8962780377
 30
0.0
 10
150.7176255029
 20
106.9001268313
 30
0.0
 10
150.8011922162
 20
106.9057131272
 30
0.0
 10
150.9162830971
 20
106.9130116807
 30
0.0
 10
151.0662157893
 20
106.9217667304
 30
0.0
 10
151.2306698679
 20
106.9304535868
 30
0.0
 10
151.4078768703
 20
106.9387405452
 30
0.0
 10
151.5960096618
 20
106.9463189101
 30
0.0
 10
151.7932176436
 20
106.9529136379
 30
0.0
 10
151.9976566104
 20
106.9582919243
 30
0.0
 10
152.2791620305
 20
106.9636234402
 30
0.0
 10
152.4923506151
 20
106.9652519049
 30
0.0
 10
152.6353748088
 20
106.9652468316
 30
0.0
  0
SPLINE
  5
3C6
100
AcDbEntity
  8
7_ALL_FEATURES
100
AcDbSpline
 62
7
  6
CONTINUOUS
 70
0
 71
3
 72
36
 73
32
 74
0
 42
0.0000001
 43
0.0000001
 44
0.0000000001
 40
0.0
 40
0.0
 40
0.0
 40
0.0
 40
0.0000785272
 40
0.0003140432
 40
0.0007064485
 40
0.0012556441
 40
0.0019615305
 40
0.0028240087
 40
0.0050182108
 40
0.0078363338
 40
0.0112760121
 40
0.0153348233
 40
0.0200095164
 40
0.0252961957
 40
0.0311909336
 40
0.0447856023
 40
0.0607508947
 40
0.07903705
 40
0.0995878403
 40
0.1223397842
 40
0.1472237023
 40
0.1741645783
 40
0.2338904075
 40
0.3008203314
 40
0.3741990248
 40
0.4532309224
 40
0.5370990299
 40
0.6249748225
 40
0.7160382477
 40
0.8094821207
 40
1.0
 40
1.0
 40
1.0
 40
1.0
 10
154.8853748088
 20
167.375617005
 30
0.0
 10
154.8854165761
 20
167.375658616
 30
0.0
 10
154.8849367609
 20
167.3755271912
 30
0.0
 10
154.8846444587
 20
167.3755939742
 30
0.0
 10
154.8836287084
 20
167.3754618608
 30
0.0
 10
154.8824552302
 20
167.3753912952
 30
0.0
 10
154.8808473149
 20
167.3752548246
 30
0.0
 10
154.8780422633
 20
167.3750364352
 30
0.0
 10
154.8736381092
 20
167.3746846304
 30
0.0
 10
154.8673153044
 20
167.3741860125
 30
0.0
 10
154.8595924908
 20
167.373577109
 30
0.0
 10
154.8504814107
 20
167.3728619898
 30
0.0
 10
154.8399870767
 20
167.3720416681
 30
0.0
 10
154.8281183373
 20
167.3711187767
 30
0.0
 10
154.8095720433
 20
167.3696847134
 30
0.0
 10
154.783030676
 20
167.3676528479
 30
0.0
 10
154.7472099208
 20
167.3649524466
 30
0.0
 10
154.7061772252
 20
167.3619147495
 30
0.0
 10
154.6600579288
 20
167.3585711439
 30
0.0
 10
154.6089918175
 20
167.3549564769
 30
0.0
 10
154.5531327437
 20
167.3511077653
 30
0.0
 10
154.4695681097
 20
167.3455215809
 30
0.0
 10
154.3544800252
 20
167.338223157
 30
0.0
 10
154.2045508768
 20
167.3294682336
 30
0.0
 10
154.0401005543
 20
167.3207814665
 30
0.0
 10
153.8628973787
 20
167.3124945436
 30
0.0
 10
153.6747685926
 20
167.3049161651
 30
0.0
 10
153.4775641619
 20
167.2983213393
 30
0.0
 10
153.273130426
 20
167.2929429524
 30
0.0
 10
152.9916140909
 20
167.2876108168
 30
0.0
 10
152.7784137232
 20
167.2859820461
 30
0.0
 10
152.6353748088
 20
167.2859871784
 30
0.0
  0
SPLINE
  5
3C7
100
AcDbEntity
  8
7_ALL_FEATURES
100
AcDbSpline
 62
7
  6
CONTINUOUS
 70
0
 71
3
 72
30
 73
26
 74
0
 42
0.0000001
 43
0.0000001
 44
0.0000000001
 40
0.0
 40
0.0
 40
0.0
 40
0.0
 40
0.1907219515
 40
0.3751812949
 40
0.4630398149
 40
0.5468881324
 40
0.6259014222
 40
0.699261864
 40
0.7661745327
 40
0.8258844705
 40
0.8776950654
 40
0.9004406766
 40
0.9209856873
 40
0.939266654
 40
0.9552273833
 40
0.9688181378
 40
0.9799963198
 40
0.988727286
 40
0.9921659608
 40
0.9949832594
 40
0.9971768215
 40
0.9987447266
 40
0.99929376
 40
0.9996860491
 40
1.0
 40
1.0
 40
1.0
 40
1.0
 10
152.6353748088
 20
167.2859871784
 30
0.0
 10
152.4921828622
 20
167.2859821925
 30
0.0
 10
152.2104963701
 20
167.2881351488
 30
0.0
 10
151.8629269419
 20
167.2959867424
 30
0.0
 10
151.5956689481
 20
167.3049277927
 30
0.0
 10
151.4075821953
 20
167.3125063856
 30
0.0
 10
151.2304218153
 20
167.320792857
 30
0.0
 10
151.0660123408
 20
167.3294786661
 30
0.0
 10
150.9161219456
 20
167.3382322083
 30
0.0
 10
150.7824243748
 20
167.3467113662
 30
0.0
 10
150.6818496849
 20
167.3535341696
 30
0.0
 10
150.6106269224
 20
167.358575793
 30
0.0
 10
150.5645206453
 20
167.3619185414
 30
0.0
 10
150.5234996381
 20
167.3649554589
 30
0.0
 10
150.4876891577
 20
167.367655067
 30
0.0
 10
150.4571990104
 20
167.3699894413
 30
0.0
 10
150.4321228294
 20
167.3719331452
 30
0.0
 10
150.4146472149
 20
167.3733028327
 30
0.0
 10
150.4034297184
 20
167.3741853122
 30
0.0
 10
150.3971061112
 20
167.3746880038
 30
0.0
 10
150.3921810384
 20
167.3750710803
 30
0.0
 10
150.3889574992
 20
167.375342029
 30
0.0
 10
150.3870760342
 20
167.3754712441
 30
0.0
 10
150.3861426676
 20
167.3755810791
 30
0.0
 10
150.3856022825
 20
167.3755552364
 30
0.0
 10
150.3853748088
 20
167.375617005
 30
0.0
  0
SPLINE
  5
3C8
100
AcDbEntity
  8
7_ALL_FEATURES
100
AcDbSpline
 62
7
  6
CONTINUOUS
 70
0
 71
3
 72
30
 73
26
 74
0
 42
0.0000001
 43
0.0000001
 44
0.0000000001
 40
0.0
 40
0.0
 40
0.0
 40
0.0
 40
0.190727714
 40
0.3751862511
 40
0.4630442313
 40
0.5468919209
 40
0.6259046191
 40
0.6992644836
 40
0.7661766023
 40
0.8258860266
 40
0.8776961655
 40
0.9004415756
 40
0.9209864037
 40
0.9392672068
 40
0.9552277923
 40
0.9688184234
 40
0.9799965034
 40
0.9887273898
 40
0.992166033
 40
0.9949833056
 40
0.9971768476
 40
0.9987447382
 40
0.9992937665
 40
0.999686052
 40
1.0
 40
1.0
 40
1.0
 40
1.0
 10
152.6353748088
 20
106.9652468316
 30
0.0
 10
152.7785710818
 20
106.9652516741
 30
0.0
 10
153.0602612953
 20
106.9630988234
 30
0.0
 10
153.4078340351
 20
106.9552469443
 30
0.0
 10
153.6750905443
 20
106.9463058519
 30
0.0
 10
153.8631759747
 20
106.9387272488
 30
0.0
 10
154.0403350049
 20
106.9304407921
 30
0.0
 10
154.2047431885
 20
106.9217550129
 30
0.0
 10
154.3546323523
 20
106.9130015148
 30
0.0
 10
154.4883287833
 20
106.90452241
 30
0.0
 10
154.5889025956
 20
106.8976996556
 30
0.0
 10
154.6601247288
 20
106.8926580711
 30
0.0
 10
154.7062305958
 20
106.8893153495
 30
0.0
 10
154.747251236
 20
106.8862784571
 30
0.0
 10
154.7830613938
 20
106.8835788719
 30
0.0
 10
154.8135512647
 20
106.8812445181
 30
0.0
 10
154.8386272172
 20
106.8793008311
 30
0.0
 10
154.856102672
 20
106.8779311566
 30
0.0
 10
154.8673200653
 20
106.877048684
 30
0.0
 10
154.873643615
 20
106.8765459995
 30
0.0
 10
154.8785686408
 20
106.8761629203
 30
0.0
 10
154.8817921538
 20
106.8758919868
 30
0.0
 10
154.8836735967
 20
106.8757627557
 30
0.0
 10
154.8846069628
 20
106.875652952
 30
0.0
 10
154.8851473272
 20
106.875678736
 30
0.0
 10
154.8853748088
 20
106.875617005
 30
0.0
  0
SPLINE
  5
3C9
100
AcDbEntity
  8
3_ALL_AXES
100
AcDbSpline
 62
7
  6
CONTINUOUS
 70
0
 71
3
 72
15
 73
11
 74
0
 42
0.0000001
 43
0.0000001
 44
0.0000000001
 40
0.0
 40
0.0
 40
0.0
 40
0.0
 40
0.1483724352
 40
0.2894077241
 40
0.4229259865
 40
0.5491266345
 40
0.6686282608
 40
0.7825155336
 40
0.8923310224
 40
1.0
 40
1.0
 40
1.0
 40
1.0
 10
202.5398745158
 20
108.7703904329
 30
0.0
 10
202.5398745158
 20
108.6767327104
 30
0.0
 10
202.5479221351
 20
108.4939081471
 30
0.0
 10
202.5860751661
 20
108.2292114874
 30
0.0
 10
202.6496441977
 20
107.9837639128
 30
0.0
 10
202.737990523
 20
107.7605546723
 30
0.0
 10
202.8502234764
 20
107.5623344834
 30
0.0
 10
202.9851986855
 20
107.3916609393
 30
0.0
 10
203.1413200858
 20
107.2509453956
 30
0.0
 10
203.2587658715
 20
107.178165461
 30
0.0
 10
203.3195546484
 20
107.1477701818
 30
0.0
  0
SPLINE
  5
3CA
100
AcDbEntity
  8
3_ALL_AXES
100
AcDbSpline
 62
7
  6
CONTINUOUS
 70
0
 71
3
 72
25
 73
21
 74
0
 42
0.0000001
 43
0.0000001
 44
0.0000000001
 40
0.0
 40
0.0
 40
0.0
 40
0.0
 40
0.0647430307
 40
0.1325856947
 40
0.2028557896
 40
0.2747590502
 40
0.3474313662
 40
0.4199749277
 40
0.491497508
 40
0.5611510708
 40
0.6281720903
 40
0.6919253309
 40
0.7519532344
 40
0.8080322917
 40
0.8602357997
 40
0.9089955796
 40
0.9323593883
 40
0.9552056514
 40
0.9776942389
 40
1.0
 40
1.0
 40
1.0
 40
1.0
 10
202.5398745158
 20
108.7703904329
 30
0.0
 10
202.5398745158
 20
108.895775557
 30
0.0
 10
202.5549975447
 20
109.1527110824
 30
0.0
 10
202.6183929203
 20
109.5410245988
 30
0.0
 10
202.7218118673
 20
109.9349916089
 30
0.0
 10
202.8632305062
 20
110.3268704903
 30
0.0
 10
203.0398765407
 20
110.7090249786
 30
0.0
 10
203.2482954796
 20
111.0739750932
 30
0.0
 10
203.4844119823
 20
111.4145845798
 30
0.0
 10
203.7436231413
 20
111.7241977617
 30
0.0
 10
204.0209000923
 20
111.9967748673
 30
0.0
 10
204.3109122785
 20
112.227001163
 30
0.0
 10
204.6081404578
 20
112.4103712716
 30
0.0
 10
204.9070571723
 20
112.5432077206
 30
0.0
 10
205.2020337499
 20
112.6226600374
 30
0.0
 10
205.4436326269
 20
112.6428130732
 30
0.0
 10
205.6273780754
 20
112.6295142667
 30
0.0
 10
205.7585568102
 20
112.6057003214
 30
0.0
 10
205.8842867849
 20
112.5679947721
 30
0.0
 10
205.964197262
 20
112.5336504978
 30
0.0
 10
206.0028350703
 20
112.5143310275
 30
0.0
  0
SPLINE
  5
3CB
100
AcDbEntity
  8
3_ALL_AXES
100
AcDbSpline
 62
7
  6
CONTINUOUS
 70
0
 71
3
 72
15
 73
11
 74
0
 42
0.0000001
 43
0.0000001
 44
0.0000000001
 40
0.0
 40
0.0
 40
0.0
 40
0.0
 40
0.1076689776
 40
0.2174844664
 40
0.3313717392
 40
0.4508733655
 40
0.5770740135
 40
0.7105922759
 40
0.8516275648
 40
1.0
 40
1.0
 40
1.0
 40
1.0
 10
206.1442564269
 20
112.4436203492
 30
0.0
 10
206.2050452037
 20
112.41322507
 30
0.0
 10
206.3224909894
 20
112.3404451354
 30
0.0
 10
206.4786123897
 20
112.1997295916
 30
0.0
 10
206.6135875986
 20
112.0290560476
 30
0.0
 10
206.725820552
 20
111.8308358587
 30
0.0
 10
206.8141668773
 20
111.6076266183
 30
0.0
 10
206.8777359088
 20
111.3621790437
 30
0.0
 10
206.9158889398
 20
111.097482384
 30
0.0
 10
206.9239365591
 20
110.9146578208
 30
0.0
 10
206.9239365591
 20
110.8210000983
 30
0.0
  0
SPLINE
  5
3CC
100
AcDbEntity
  8
3_ALL_AXES
100
AcDbSpline
 62
7
  6
CONTINUOUS
 70
0
 71
3
 72
15
 73
11
 74
0
 42
0.0000001
 43
0.0000001
 44
0.0000000001
 40
0.0
 40
0.0
 40
0.0
 40
0.0
 40
0.1076689989
 40
0.2174845255
 40
0.3313717841
 40
0.4508735544
 40
0.5770738261
 40
0.7105930455
 40
0.851626366
 40
1.0
 40
1.0
 40
1.0
 40
1.0
 10
203.4609760042
 20
107.0770595039
 30
0.0
 10
203.5217647831
 20
107.0466642236
 30
0.0
 10
203.6504573749
 20
106.9963778838
 30
0.0
 10
203.8567022368
 20
106.9559094958
 30
0.0
 10
204.0742264111
 20
106.9503336928
 30
0.0
 10
204.3001420102
 20
106.9794799079
 30
0.0
 10
204.5317177969
 20
107.0427278585
 30
0.0
 10
204.7662160396
 20
107.1391418574
 30
0.0
 10
205.0008655339
 20
107.2674366854
 30
0.0
 10
205.1519539887
 20
107.3706922624
 30
0.0
 10
205.226880182
 20
107.4268881111
 30
0.0
  0
SPLINE
  5
3CD
100
AcDbEntity
  8
3_ALL_AXES
100
AcDbSpline
 62
7
  6
CONTINUOUS
 70
0
 71
3
 72
14
 73
10
 74
0
 42
0.0000001
 43
0.0000001
 44
0.0000000001
 40
0.0
 40
0.0
 40
0.0
 40
0.0
 40
0.107448792
 40
0.2179992898
 40
0.3330211966
 40
0.4535644339
 40
0.7133387253
 40
0.8534195288
 40
1.0
 40
1.0
 40
1.0
 40
1.0
 10
206.137885705
 20
112.4346239224
 30
0.0
 10
206.1891367084
 20
112.3993854324
 30
0.0
 10
206.2874243217
 20
112.3192401672
 30
0.0
 10
206.4165952714
 20
112.1752295605
 30
0.0
 10
206.5278388879
 20
112.0078031587
 30
0.0
 10
206.6539059077
 20
111.7495251263
 30
0.0
 10
206.7352749502
 20
111.4565218857
 30
0.0
 10
206.7758810823
 20
111.1426368554
 30
0.0
 10
206.7825152029
 20
110.9765586946
 30
0.0
 10
206.7825152029
 20
110.8917107764
 30
0.0
  0
SPLINE
  5
3CE
100
AcDbEntity
  8
3_ALL_AXES
100
AcDbSpline
 62
7
  6
CONTINUOUS
 70
0
 71
3
 72
15
 73
11
 74
0
 42
0.0000001
 43
0.0000001
 44
0.0000000001
 40
0.0
 40
0.0
 40
0.0
 40
0.0
 40
0.1172510188
 40
0.2409890057
 40
0.3693106711
 40
0.4999999467
 40
0.6306892902
 40
0.759010964
 40
0.8827470099
 40
1.0
 40
1.0
 40
1.0
 40
1.0
 10
205.226880182
 20
107.4268881111
 30
0.0
 10
205.3493111183
 20
107.5187132803
 30
0.0
 10
205.5876156503
 20
107.7256596543
 30
0.0
 10
205.9109517971
 20
108.084527098
 30
0.0
 10
206.2024554706
 20
108.4914708062
 30
0.0
 10
206.4537300921
 20
108.9347830801
 30
0.0
 10
206.6576148383
 20
109.4017902278
 30
0.0
 10
206.8082674586
 20
109.8791569408
 30
0.0
 10
206.9013599157
 20
110.3531461289
 30
0.0
 10
206.9239365591
 20
110.6679576748
 30
0.0
 10
206.9239365591
 20
110.8210000983
 30
0.0
  0
SPLINE
  5
3CF
100
AcDbEntity
  8
3_ALL_AXES
100
AcDbSpline
 62
7
  6
CONTINUOUS
 70
0
 71
3
 72
24
 73
20
 74
0
 42
0.0000001
 43
0.0000001
 44
0.0000000001
 40
0.0
 40
0.0
 40
0.0
 40
0.0
 40
0.0222933045
 40
0.0449541735
 40
0.0918799545
 40
0.1417599423
 40
0.1951657498
 40
0.2523312313
 40
0.3131977247
 40
0.3774685528
 40
0.4446605322
 40
0.5141494544
 40
0.5852101232
 40
0.657052472
 40
0.728855351
 40
0.7997990315
 40
0.8690988597
 40
0.9360353535
 40
1.0
 40
1.0
 40
1.0
 40
1.0
 10
203.46418727
 20
107.0876099975
 30
0.0
 10
203.5039972215
 20
107.0741909984
 30
0.0
 10
203.585836624
 20
107.0515405915
 30
0.0
 10
203.7569444055
 20
107.0233722079
 30
0.0
 10
203.9836730608
 20
107.0217885963
 30
0.0
 10
204.2636046878
 20
107.0720940699
 30
0.0
 10
204.5498749829
 20
107.1729217833
 30
0.0
 10
204.8374549084
 20
107.3221239492
 30
0.0
 10
205.1214085389
 20
107.516838666
 30
0.0
 10
205.3967589761
 20
107.753502543
 30
0.0
 10
205.6586262189
 20
108.0278307471
 30
0.0
 10
205.9023203364
 20
108.3348655639
 30
0.0
 10
206.1234494064
 20
108.6690513406
 30
0.0
 10
206.3180126663
 20
109.0243323019
 30
0.0
 10
206.4824835381
 20
109.3942668305
 30
0.0
 10
206.6138805638
 20
109.772143861
 30
0.0
 10
206.7098144611
 20
110.1511387102
 30
0.0
 10
206.768544807
 20
110.5243479965
 30
0.0
 10
206.7825152029
 20
110.7711722644
 30
0.0
 10
206.7825152029
 20
110.8917107764
 30
0.0
  0
SPLINE
  5
3D0
100
AcDbEntity
  8
7_ALL_FEATURES
100
AcDbSpline
 62
7
  6
CONTINUOUS
 70
0
 71
3
 72
9
 73
5
 74
0
 42
0.0000001
 43
0.0000001
 44
0.0000000001
 40
0.0
 40
0.0
 40
0.0
 40
0.0
 40
0.2445861973
 40
1.0
 40
1.0
 40
1.0
 40
1.0
 10
209.6109423276
 20
109.0440426165
 30
0.0
 10
209.6109423276
 20
109.0212955845
 30
0.0
 10
209.6094458517
 20
108.9282969019
 30
0.0
 10
209.6021220808
 20
108.8354132441
 30
0.0
 10
209.593686308
 20
108.765666463
 30
0.0
  0
SPLINE
  5
3D1
100
AcDbEntity
  8
7_ALL_FEATURES
100
AcDbSpline
 62
7
  6
CONTINUOUS
 70
0
 71
3
 72
18
 73
14
 74
0
 42
0.0000001
 43
0.0000001
 44
0.0000000001
 40
0.0
 40
0.0
 40
0.0
 40
0.0
 40
0.0537361433
 40
0.1077452165
 40
0.1622927508
 40
0.2176300567
 40
0.2739884452
 40
0.3315747909
 40
0.4510402746
 40
0.5772022313
 40
0.7106809304
 40
0.8516715027
 40
1.0
 40
1.0
 40
1.0
 40
1.0
 10
207.531796793
 20
124.3069609187
 30
0.0
 10
207.6127255107
 20
124.2664965696
 30
0.0
 10
207.7714086016
 20
124.1779542667
 30
0.0
 10
207.9973679934
 20
124.023654845
 30
0.0
 10
208.2108484027
 20
123.8482079567
 30
0.0
 10
208.4111582167
 20
123.6521983803
 30
0.0
 10
208.5976966784
 20
123.4362399848
 30
0.0
 10
208.8300821465
 20
123.1188422394
 30
0.0
 10
209.0826726976
 20
122.6728222563
 30
0.0
 10
209.3182138498
 20
122.0776544595
 30
0.0
 10
209.4877420977
 20
121.4231116804
 30
0.0
 10
209.5894823363
 20
120.7172588953
 30
0.0
 10
209.6109423276
 20
120.2297265089
 30
0.0
 10
209.6109423276
 20
119.9799706138
 30
0.0
  0
SPLINE
  5
3D2
100
AcDbEntity
  8
02___PRT_ALL_AXES
100
AcDbSpline
 62
7
  6
CONTINUOUS
 70
0
 71
3
 72
9
 73
5
 74
0
 42
0.0000001
 43
0.0000001
 44
0.0000000001
 40
0.0
 40
0.0
 40
0.0
 40
0.0
 40
0.5056385152
 40
1.0
 40
1.0
 40
1.0
 40
1.0
 10
206.0455878637
 20
112.4930839187
 30
0.0
 10
206.0870925175
 20
112.4905520827
 30
0.0
 10
206.168962155
 20
112.4804206722
 30
0.0
 10
206.2487776509
 20
112.459442695
 30
0.0
 10
206.2872821651
 20
112.4463972133
 30
0.0
  0
SPLINE
  5
3D3
100
AcDbEntity
  8
7_ALL_FEATURES
100
AcDbSpline
 62
7
  6
CONTINUOUS
 70
0
 71
3
 72
9
 73
5
 74
0
 42
0.0000001
 43
0.0000001
 44
0.0000000001
 40
0.0
 40
0.0
 40
0.0
 40
0.0
 40
0.4938485556
 40
1.0
 40
1.0
 40
1.0
 40
1.0
 10
178.310923596
 20
104.7503109639
 30
0.0
 10
178.3563885101
 20
104.7275783986
 30
0.0
 10
178.4534210771
 20
104.69090687
 30
0.0
 10
178.555711781
 20
104.6742530998
 30
0.0
 10
178.6076782592
 20
104.670557872
 30
0.0
  0
SPLINE
  5
3D4
100
AcDbEntity
  8
7_ALL_FEATURES
100
AcDbSpline
 62
7
  6
CONTINUOUS
 70
0
 71
3
 72
13
 73
9
 74
0
 42
0.0000001
 43
0.0000001
 44
0.0000000001
 40
0.0
 40
0.0
 40
0.0
 40
0.0
 40
0.2691389017
 40
0.5224958826
 40
0.6445975125
 40
0.7643914256
 40
0.8825995347
 40
1.0
 40
1.0
 40
1.0
 40
1.0
 10
274.5484069309
 20
113.1382483574
 30
0.0
 10
274.6064213817
 20
113.1551672398
 30
0.0
 10
274.7216674295
 20
113.1799290394
 30
0.0
 10
274.8671323397
 20
113.1858868892
 30
0.0
 10
274.9778946174
 20
113.1743590624
 30
0.0
 10
275.0572292031
 20
113.1580232589
 30
0.0
 10
275.1334555529
 20
113.1339527921
 30
0.0
 10
275.1820624528
 20
113.1127792665
 30
0.0
 10
275.2056399854
 20
113.1009903766
 30
0.0
  0
SPLINE
  5
3D5
100
AcDbEntity
  8
7_ALL_FEATURES
100
AcDbSpline
 62
7
  6
CONTINUOUS
 70
0
 71
3
 72
25
 73
21
 74
0
 42
0.0000001
 43
0.0000001
 44
0.0000000001
 40
0.0
 40
0.0
 40
0.0
 40
0.0
 40
0.0224377552
 40
0.0450233783
 40
0.0678995517
 40
0.0911991061
 40
0.1394813886
 40
0.1906763954
 40
0.2452476363
 40
0.3033836161
 40
0.3650338365
 40
0.429950598
 40
0.4977286816
 40
0.5678407444
 40
0.6396687659
 40
0.7125323827
 40
0.7857151487
 40
0.8584896979
 40
0.9301425284
 40
1.0
 40
1.0
 40
1.0
 40
1.0
 10
275.2056399854
 20
113.1009903766
 30
0.0
 10
275.228711406
 20
113.0894545454
 30
0.0
 10
275.2738433706
 20
113.0638928986
 30
0.0
 10
275.3375650179
 20
113.0185879853
 30
0.0
 10
275.3971606098
 20
112.9664493974
 30
0.0
 10
275.4716431404
 20
112.8872286715
 30
0.0
 10
275.5532625608
 20
112.7710597067
 30
0.0
 10
275.6296668744
 20
112.6105106335
 30
0.0
 10
275.6848716089
 20
112.4297189861
 30
0.0
 10
275.7181680236
 20
112.2315603193
 30
0.0
 10
275.7291684798
 20
112.0190929908
 30
0.0
 10
275.7177635994
 20
111.7956072804
 30
0.0
 10
275.6841656122
 20
111.5645758524
 30
0.0
 10
275.6289165697
 20
111.329606918
 30
0.0
 10
275.5528913719
 20
111.0943839073
 30
0.0
 10
275.4572882851
 20
110.8626033312
 30
0.0
 10
275.343614566
 20
110.6379147844
 30
0.0
 10
275.2136557113
 20
110.4238514844
 30
0.0
 10
275.0694733686
 20
110.2238020893
 30
0.0
 10
274.9636902815
 20
110.0999031893
 30
0.0
 10
274.9088852837
 20
110.0412011225
 30
0.0
  0
SPLINE
  5
3D6
100
AcDbEntity
  8
02___PRT_ALL_AXES
100
AcDbSpline
 62
7
  6
CONTINUOUS
 70
0
 71
3
 72
21
 73
17
 74
0
 42
0.0000001
 43
0.0000001
 44
0.0000000001
 40
0.0
 40
0.0
 40
0.0
 40
0.0
 40
0.0585941018
 40
0.1172976298
 40
0.1762183747
 40
0.2354609089
 40
0.2951251095
 40
0.3553048304
 40
0.4160867466
 40
0.4775494016
 40
0.5397624607
 40
0.6027861593
 40
0.6666709545
 40
0.7314573454
 40
0.8638041312
 40
1.0
 40
1.0
 40
1.0
 40
1.0
 10
225.9596531525
 20
60.6517680914
 30
0.0
 10
225.6881698868
 20
60.6370456954
 30
0.0
 10
225.143571078
 20
60.6252647074
 30
0.0
 10
224.3261253748
 20
60.6607298248
 30
0.0
 10
223.5096549662
 20
60.74922832
 30
0.0
 10
222.6961464916
 20
60.8905449409
 30
0.0
 10
221.8875192215
 20
61.0843335018
 30
0.0
 10
221.0856933225
 20
61.3301232229
 30
0.0
 10
220.292565028
 20
61.6273189708
 30
0.0
 10
219.5100080101
 20
61.9752038035
 30
0.0
 10
218.7398662403
 20
62.3729433061
 30
0.0
 10
217.9839567008
 20
62.8195815325
 30
0.0
 10
217.244040504
 20
63.3140667147
 30
0.0
 10
216.274402939
 20
64.0406351415
 30
0.0
 10
215.1117442425
 20
65.0649609911
 30
0.0
 10
214.2612645957
 20
65.9786318335
 30
0.0
 10
213.8524320897
 20
66.4605359382
 30
0.0
  0
SPLINE
  5
3D7
100
AcDbEntity
  8
7_ALL_FEATURES
100
AcDbSpline
 62
7
  6
CONTINUOUS
 70
0
 71
3
 72
23
 73
19
 74
0
 42
0.0000001
 43
0.0000001
 44
0.0000000001
 40
0.0
 40
0.0
 40
0.0
 40
0.0
 40
0.0582618412
 40
0.1180804198
 40
0.1793325363
 40
0.2418489875
 40
0.3054223582
 40
0.3698148242
 40
0.4347658878
 40
0.5
 40
0.5652341121
 40
0.6301851754
 40
0.694577642
 40
0.7581510119
 40
0.8206674641
 40
0.8819195797
 40
0.9417381588
 40
1.0
 40
1.0
 40
1.0
 40
1.0
 10
212.7672077273
 20
67.7397247053
 30
0.0
 10
212.3733764228
 20
68.2039463914
 30
0.0
 10
211.620353751
 20
69.1839858799
 30
0.0
 10
210.616215797
 20
70.7687578859
 30
0.0
 10
209.7312477817
 20
72.4732987676
 30
0.0
 10
208.9741255984
 20
74.2807604423
 30
0.0
 10
208.3521162969
 20
76.173529353
 30
0.0
 10
207.871246698
 20
78.1331027611
 30
0.0
 10
207.53617366
 20
80.1403444443
 30
0.0
 10
207.3501489684
 20
82.175647219
 30
0.0
 10
207.3149837561
 20
84.219131012
 30
0.0
 10
207.4310276512
 20
86.2508364296
 30
0.0
 10
207.6971674327
 20
88.2509197104
 30
0.0
 10
208.11084417
 20
90.1998530867
 30
0.0
 10
208.6680659297
 20
92.0785908451
 30
0.0
 10
209.3635142501
 20
93.8688365647
 30
0.0
 10
210.1903853362
 20
95.5529028938
 30
0.0
 10
210.8330095404
 20
96.6086276479
 30
0.0
 10
211.1743303101
 20
97.1127159355
 30
0.0
  0
SPLINE
  5
3D8
100
AcDbEntity
  8
02___PRT_ALL_AXES
100
AcDbSpline
 62
7
  6
CONTINUOUS
 70
0
 71
3
 72
12
 73
8
 74
0
 42
0.0000001
 43
0.0000001
 44
0.0000000001
 40
0.0
 40
0.0
 40
0.0
 40
0.0
 40
0.2607966046
 40
0.5141603401
 40
0.7603418039
 40
0.8809503813
 40
1.0
 40
1.0
 40
1.0
 40
1.0
 10
212.1148582426
 20
98.5017598495
 30
0.0
 10
212.4721410015
 20
99.0294226351
 30
0.0
 10
213.2254683022
 20
100.0377528157
 30
0.0
 10
214.4822325914
 20
101.4101327695
 30
0.0
 10
215.6204690581
 20
102.4155097125
 30
0.0
 10
216.5738310042
 20
103.1237300496
 30
0.0
 10
217.0635468688
 20
103.4455618949
 30
0.0
 10
217.3112766427
 20
103.5980346521
 30
0.0
  0
SPLINE
  5
3D9
100
AcDbEntity
  8
7_ALL_FEATURES
100
AcDbSpline
 62
7
  6
CONTINUOUS
 70
0
 71
3
 72
43
 73
39
 74
0
 42
0.0000001
 43
0.0000001
 44
0.0000000001
 40
0.0
 40
0.0
 40
0.0
 40
0.0
 40
0.0130484018
 40
0.0261160137
 40
0.0392218193
 40
0.0523843549
 40
0.0656215006
 40
0.0789502878
 40
0.0923867264
 40
0.1059456563
 40
0.1334745275
 40
0.1616379813
 40
0.1905031202
 40
0.2201122544
 40
0.250483362
 40
0.2816113457
 40
0.3134698216
 40
0.3460132316
 40
0.3791791304
 40
0.4128905502
 40
0.4470583847
 40
0.4815837618
 40
0.5163603911
 40
0.5512768857
 40
0.5862190614
 40
0.6210722233
 40
0.65572345
 40
0.6900638867
 40
0.7239910558
 40
0.7574111921
 40
0.7902416054
 40
0.8224130611
 40
0.8538721601
 40
0.8845836704
 40
0.914532732
 40
0.9437268123
 40
0.9721972343
 40
1.0
 40
1.0
 40
1.0
 40
1.0
 10
226.7570087752
 20
60.6950082685
 30
0.0
 10
226.5160582313
 20
60.6819415747
 30
0.0
 10
226.032930921
 20
60.6697194053
 30
0.0
 10
225.3075999956
 20
60.6932278407
 30
0.0
 10
224.5826906584
 20
60.758521288
 30
0.0
 10
223.8595906959
 20
60.8654754311
 30
0.0
 10
223.1396413004
 20
61.0138860049
 30
0.0
 10
222.4241938822
 20
61.2034668483
 30
0.0
 10
221.7145615052
 20
61.4338700105
 30
0.0
 10
220.7733325729
 20
61.7966588224
 30
0.0
 10
219.6166235846
 20
62.3521905762
 30
0.0
 10
218.2807688601
 20
63.1698102756
 30
0.0
 10
216.9994250991
 20
64.1356592261
 30
0.0
 10
215.7820846658
 20
65.2423693578
 30
0.0
 10
214.6375929408
 20
66.4816362125
 30
0.0
 10
213.5742975815
 20
67.8442098521
 30
0.0
 10
212.5999443771
 20
69.3199700713
 30
0.0
 10
211.7216409943
 20
70.8979855586
 30
0.0
 10
210.9458019332
 20
72.5665868677
 30
0.0
 10
210.2781015309
 20
74.3134453113
 30
0.0
 10
209.723429763
 20
76.1256593303
 30
0.0
 10
209.2858536737
 20
77.9898467152
 30
0.0
 10
208.9685852945
 20
79.8922419238
 30
0.0
 10
208.7739561957
 20
81.8187971175
 30
0.0
 10
208.7033990925
 20
83.7552859097
 30
0.0
 10
208.7574367458
 20
85.6874087819
 30
0.0
 10
208.9356782779
 20
87.6008991365
 30
0.0
 10
209.2368227148
 20
89.4816289899
 30
0.0
 10
209.6586702971
 20
91.3157131795
 30
0.0
 10
210.1981409082
 20
93.089611019
 30
0.0
 10
210.8512992272
 20
94.7902241503
 30
0.0
 10
211.6133869542
 20
96.4049899318
 30
0.0
 10
212.4788581386
 20
97.9219673432
 30
0.0
 10
213.4414273486
 20
99.3299212908
 30
0.0
 10
214.494088873
 20
100.6183802013
 30
0.0
 10
215.6292501248
 20
101.7777548116
 30
0.0
 10
216.8384519721
 20
102.7992057527
 30
0.0
 10
217.6979020598
 20
103.3897733562
 30
0.0
 10
218.1363658311
 20
103.6583018521
 30
0.0
  0
SPLINE
  5
3DA
100
AcDbEntity
  8
02___PRT_ALL_AXES
100
AcDbSpline
 62
7
  6
CONTINUOUS
 70
0
 71
3
 72
23
 73
19
 74
0
 42
0.0000001
 43
0.0000001
 44
0.0000000001
 40
0.0
 40
0.0
 40
0.0
 40
0.0
 40
0.0582618423
 40
0.1180804201
 40
0.1793325366
 40
0.2418489882
 40
0.3054223582
 40
0.3698148247
 40
0.4347658879
 40
0.5000000001
 40
0.5652341122
 40
0.6301851754
 40
0.694577642
 40
0.758151012
 40
0.8206674634
 40
0.8819195801
 40
0.9417381579
 40
1.0
 40
1.0
 40
1.0
 40
1.0
 10
213.8524320897
 20
66.4605359382
 30
0.0
 10
213.4228252837
 20
66.9669273825
 30
0.0
 10
212.6013984539
 20
68.0359934561
 30
0.0
 10
211.5060447514
 20
69.764725487
 30
0.0
 10
210.5406865822
 20
71.6241063197
 30
0.0
 10
209.7147878114
 20
73.5957572451
 30
0.0
 10
209.036275131
 20
75.6604645677
 30
0.0
 10
208.5117238212
 20
77.7980450346
 30
0.0
 10
208.1462125699
 20
79.9876238248
 30
0.0
 10
207.9432896825
 20
82.2078128383
 30
0.0
 10
207.9049299076
 20
84.4369259999
 30
0.0
 10
208.0315152902
 20
86.6531908518
 30
0.0
 10
208.3218311081
 20
88.8349610162
 30
0.0
 10
208.7730859827
 20
90.9609348708
 30
0.0
 10
209.380925844
 20
93.0103364546
 30
0.0
 10
210.1395481275
 20
94.9632075981
 30
0.0
 10
211.0415320978
 20
96.8002538941
 30
0.0
 10
211.7425323066
 20
97.9518801377
 30
0.0
 10
212.1148582426
 20
98.5017598495
 30
0.0
  0
SPLINE
  5
3DB
100
AcDbEntity
  8
02___PRT_ALL_AXES
100
AcDbSpline
 62
7
  6
CONTINUOUS
 70
0
 71
3
 72
14
 73
10
 74
0
 42
0.0000001
 43
0.0000001
 44
0.0000000001
 40
0.0
 40
0.0
 40
0.0
 40
0.0
 40
0.0983635077
 40
0.2084644254
 40
0.3282759467
 40
0.4555714872
 40
0.5881823548
 40
0.7241655547
 40
1.0
 40
1.0
 40
1.0
 40
1.0
 10
227.2859837897
 20
103.9509885678
 30
0.0
 10
227.3461956446
 20
103.9542538159
 30
0.0
 10
227.4735155802
 20
103.9667545762
 30
0.0
 10
227.6722779391
 20
103.9988079372
 30
0.0
 10
227.8865896126
 20
104.044136721
 30
0.0
 10
228.1123499291
 20
104.1010549946
 30
0.0
 10
228.3457671525
 20
104.1676311918
 30
0.0
 10
228.664365638
 20
104.2671450875
 30
0.0
 10
228.9030391457
 20
104.3496142705
 30
0.0
 10
229.0621578835
 20
104.406840069
 30
0.0
  0
SPLINE
  5
3DC
100
AcDbEntity
  8
02___PRT_ALL_AXES
100
AcDbSpline
 62
7
  6
CONTINUOUS
 70
0
 71
3
 72
11
 73
7
 74
0
 42
0.0000001
 43
0.0000001
 44
0.0000000001
 40
0.0
 40
0.0
 40
0.0
 40
0.0
 40
0.3126322446
 40
0.5828817041
 40
0.8110051966
 40
1.0
 40
1.0
 40
1.0
 40
1.0
 10
227.2859837897
 20
103.9509885678
 30
0.0
 10
227.2416793063
 20
103.9485859657
 30
0.0
 10
227.1588833092
 20
103.9467635414
 30
0.0
 10
227.0438334261
 20
103.9544257612
 30
0.0
 10
226.9476696627
 20
103.9722270924
 30
0.0
 10
226.8914921072
 20
103.9922553234
 30
0.0
 10
226.8675013194
 20
104.0042509808
 30
0.0
  0
SPLINE
  5
3DD
100
AcDbEntity
  8
02___PRT_ALL_AXES
100
AcDbSpline
 62
7
  6
CONTINUOUS
 70
0
 71
3
 72
11
 73
7
 74
0
 42
0.0000001
 43
0.0000001
 44
0.0000000001
 40
0.0
 40
0.0
 40
0.0
 40
0.0
 40
0.2555712342
 40
0.5066469946
 40
0.7543628534
 40
1.0
 40
1.0
 40
1.0
 40
1.0
 10
239.902786662
 20
73.0276980999
 30
0.0
 10
239.6812860302
 20
72.892044403
 30
0.0
 10
239.2281146151
 20
72.6452498683
 30
0.0
 10
238.5181663514
 20
72.3519876589
 30
0.0
 10
237.7898966391
 20
72.1414780769
 30
0.0
 10
237.2943388284
 20
72.0572060359
 30
0.0
 10
237.0462399544
 20
72.029481847
 30
0.0
  0
SPLINE
  5
3DE
100
AcDbEntity
  8
7_ALL_FEATURES
100
AcDbSpline
 62
7
  6
CONTINUOUS
 70
0
 71
3
 72
11
 73
7
 74
0
 42
0.0000001
 43
0.0000001
 44
0.0000000001
 40
0.0
 40
0.0
 40
0.0
 40
0.0
 40
0.2557212874
 40
0.5066101006
 40
0.7541534037
 40
1.0
 40
1.0
 40
1.0
 40
1.0
 10
234.1128244762
 20
95.0263271373
 30
0.0
 10
234.2748284628
 20
95.0960597695
 30
0.0
 10
234.6017589009
 20
95.2208056261
 30
0.0
 10
235.1026403449
 20
95.3634549393
 30
0.0
 10
235.6074975143
 20
95.4599410103
 30
0.0
 10
235.9466603997
 20
95.4936812832
 30
0.0
 10
236.1159753206
 20
95.5028631166
 30
0.0
  0
SPLINE
  5
3DF
100
AcDbEntity
  8
02___PRT_ALL_AXES
100
AcDbSpline
 62
7
  6
CONTINUOUS
 70
0
 71
3
 72
35
 73
31
 74
0
 42
0.0000001
 43
0.0000001
 44
0.0000000001
 40
0.0
 40
0.0
 40
0.0
 40
0.0
 40
0.0277319835
 40
0.0561187759
 40
0.0852150944
 40
0.1150521403
 40
0.1769107975
 40
0.2089369444
 40
0.2416168265
 40
0.308624137
 40
0.3428232024
 40
0.3773451083
 40
0.4120854996
 40
0.4469357442
 40
0.5164876301
 40
0.5510051033
 40
0.5851980857
 40
0.6521887756
 40
0.6848585034
 40
0.7168735543
 40
0.7481842043
 40
0.7787582639
 40
0.8085831291
 40
0.8376675879
 40
0.8660432161
 40
0.8937651349
 40
0.9209118704
 40
0.9475840422
 40
0.9739016664
 40
1.0
 40
1.0
 40
1.0
 40
1.0
 10
239.902786662
 20
73.0276980999
 30
0.0
 10
240.1281990627
 20
73.1657474825
 30
0.0
 10
240.5701734905
 20
73.4689176598
 30
0.0
 10
241.1927284417
 20
73.9923795287
 30
0.0
 10
241.7779755625
 20
74.5858495124
 30
0.0
 10
242.5114124031
 20
75.4748685715
 30
0.0
 10
243.1430957842
 20
76.4778653798
 30
0.0
 10
243.6665699864
 20
77.5655778073
 30
0.0
 10
244.1269507594
 20
78.7345870815
 30
0.0
 10
244.4666829565
 20
79.9695954318
 30
0.0
 10
244.6850859231
 20
81.2453720835
 30
0.0
 10
244.7880099647
 20
82.2268597002
 30
0.0
 10
244.828117135
 20
83.2190958393
 30
0.0
 10
244.7975335188
 20
84.5456365558
 30
0.0
 10
244.6415462648
 20
85.8648064769
 30
0.0
 10
244.3616530772
 20
87.1533721632
 30
0.0
 10
244.0053029785
 20
88.3974631677
 30
0.0
 10
243.5327792393
 20
89.5876958888
 30
0.0
 10
242.9476104176
 20
90.6989791371
 30
0.0
 10
242.4625438916
 20
91.4758567499
 30
0.0
 10
241.9312177397
 20
92.1972073109
 30
0.0
 10
241.3573606851
 20
92.857900275
 30
0.0
 10
240.7450354685
 20
93.45315073
 30
0.0
 10
240.0985694779
 20
93.9786406342
 30
0.0
 10
239.4225441223
 20
94.4305216495
 30
0.0
 10
238.7217656963
 20
94.8054472476
 30
0.0
 10
238.0012609277
 20
95.1005987447
 30
0.0
 10
237.2661970571
 20
95.3137170546
 30
0.0
 10
236.5220600818
 20
95.4431372001
 30
0.0
 10
236.0220870301
 20
95.4729990686
 30
0.0
 10
235.7733327209
 20
95.4736696414
 30
0.0
  0
SPLINE
  5
3E0
100
AcDbEntity
  8
7_ALL_FEATURES
100
AcDbSpline
 62
7
  6
CONTINUOUS
 70
0
 71
3
 72
11
 73
7
 74
0
 42
0.0000001
 43
0.0000001
 44
0.0000000001
 40
0.0
 40
0.0
 40
0.0
 40
0.0
 40
0.2458473172
 40
0.493391482
 40
0.7442797262
 40
1.0
 40
1.0
 40
1.0
 40
1.0
 10
237.3884946422
 20
72.0373417166
 30
0.0
 10
237.2191994072
 20
72.0281609507
 30
0.0
 10
236.8784164934
 20
72.0250247106
 30
0.0
 10
236.3661457877
 20
72.0663363056
 30
0.0
 10
235.8528351923
 20
72.153960209
 30
0.0
 10
235.5143702639
 20
72.242597117
 30
0.0
 10
235.3457941566
 20
72.2943886747
 30
0.0
  0
SPLINE
  5
3E1
100
AcDbEntity
  8
02___PRT_ALL_AXES
100
AcDbSpline
 62
7
  6
CONTINUOUS
 70
0
 71
3
 72
27
 73
23
 74
0
 42
0.0000001
 43
0.0000001
 44
0.0000000001
 40
0.0
 40
0.0
 40
0.0
 40
0.0
 40
0.0276858759
 40
0.0559116695
 40
0.084691561
 40
0.1140296692
 40
0.174322035
 40
0.2366724149
 40
0.3008129419
 40
0.3663795085
 40
0.432936292
 40
0.4999999939
 40
0.5670636958
 40
0.6336204794
 40
0.699187046
 40
0.763327573
 40
0.825677953
 40
0.8859703189
 40
0.9153084286
 40
0.9440883188
 40
0.9723141151
 40
1.0
 40
1.0
 40
1.0
 40
1.0
 10
235.9544095369
 20
97.0161329745
 30
0.0
 10
235.745178651
 20
96.8364206755
 30
0.0
 10
235.33595158
 20
96.4576953415
 30
0.0
 10
234.7583023219
 20
95.8418552072
 30
0.0
 10
234.213367494
 20
95.1754383381
 30
0.0
 10
233.5274771248
 20
94.2148386177
 30
0.0
 10
232.7666376896
 20
92.9010462517
 30
0.0
 10
232.026894455
 20
91.1894304727
 30
0.0
 10
231.4638421894
 20
89.3569590829
 30
0.0
 10
231.0868981734
 20
87.4349244623
 30
0.0
 10
230.9022602968
 20
85.4558864358
 30
0.0
 10
230.9129877674
 20
83.4534442065
 30
0.0
 10
231.1188685259
 20
81.4615850058
 30
0.0
 10
231.5164379885
 20
79.5141196844
 30
0.0
 10
232.0990214434
 20
77.644119576
 30
0.0
 10
232.8569363292
 20
75.883283338
 30
0.0
 10
233.7774365378
 20
74.2617013758
 30
0.0
 10
234.6758885599
 20
73.0378913535
 30
0.0
 10
235.4616361559
 20
72.1570972995
 30
0.0
 10
236.0754422602
 20
71.5535183747
 30
0.0
 10
236.716301112
 20
71.0037567526
 30
0.0
 10
237.1640841512
 20
70.6715066003
 30
0.0
 10
237.3915223295
 20
70.5154745563
 30
0.0
  0
SPLINE
  5
3E2
100
AcDbEntity
  8
7_ALL_FEATURES
100
AcDbSpline
 62
7
  6
CONTINUOUS
 70
0
 71
3
 72
9
 73
5
 74
0
 42
0.0000001
 43
0.0000001
 44
0.0000000001
 40
0.0
 40
0.0
 40
0.0
 40
0.0
 40
0.493238302
 40
1.0
 40
1.0
 40
1.0
 40
1.0
 10
249.5776575291
 20
97.8474027348
 30
0.0
 10
250.0798014232
 20
97.0473609576
 30
0.0
 10
250.9999748086
 20
95.3622785
 30
0.0
 10
251.7250878741
 20
93.5852546951
 30
0.0
 10
252.0437655754
 20
92.668600283
 30
0.0
  0
SPLINE
  5
3E3
100
AcDbEntity
  8
7_ALL_FEATURES
100
AcDbSpline
 62
7
  6
CONTINUOUS
 70
0
 71
3
 72
21
 73
17
 74
0
 42
0.0000001
 43
0.0000001
 44
0.0000000001
 40
0.0
 40
0.0
 40
0.0
 40
0.0
 40
0.1409946671
 40
0.2099742001
 40
0.2777799001
 40
0.4095036362
 40
0.4734269849
 40
0.5360275686
 40
0.5973415725
 40
0.6574371033
 40
0.7164141068
 40
0.7744032182
 40
0.8315633986
 40
0.8880782992
 40
0.9441513875
 40
1.0
 40
1.0
 40
1.0
 40
1.0
 10
252.9167340926
 20
76.5789668893
 30
0.0
 10
252.6748396302
 20
75.5277517533
 30
0.0
 10
252.2218214298
 20
73.9810067268
 30
0.0
 10
251.4329683946
 20
72.0063921853
 30
0.0
 10
250.5477916601
 20
70.1514394307
 30
0.0
 10
249.4974947919
 20
68.4217962021
 30
0.0
 10
248.2899204936
 20
66.8561159036
 30
0.0
 10
247.3265157417
 20
65.787736793
 30
0.0
 10
246.3017793198
 20
64.8201797834
 30
0.0
 10
245.2211569483
 20
63.9590824058
 30
0.0
 10
244.0905512818
 20
63.2096860238
 30
0.0
 10
242.9162390041
 20
62.5766566649
 30
0.0
 10
241.7049158004
 20
62.064062722
 30
0.0
 10
240.4636017995
 20
61.6752883294
 30
0.0
 10
239.1998787612
 20
61.4129693272
 30
0.0
 10
238.3465899176
 20
61.323501514
 30
0.0
 10
237.9199439011
 20
61.3003665992
 30
0.0
  0
SPLINE
  5
3E4
100
AcDbEntity
  8
02___PRT_ALL_AXES
100
AcDbSpline
 62
7
  6
CONTINUOUS
 70
0
 71
3
 72
15
 73
11
 74
0
 42
0.0000001
 43
0.0000001
 44
0.0000000001
 40
0.0
 40
0.0
 40
0.0
 40
0.0
 40
0.1289409338
 40
0.2563689261
 40
0.382456681
 40
0.5073943484
 40
0.6313900295
 40
0.7546659227
 40
0.8774555176
 40
1.0
 40
1.0
 40
1.0
 40
1.0
 10
246.1707009856
 20
98.8422182093
 30
0.0
 10
245.9847258507
 20
98.9352057767
 30
0.0
 10
245.6093365145
 20
99.109107339
 30
0.0
 10
245.0344875156
 20
99.3335733415
 30
0.0
 10
244.452772875
 20
99.5194814736
 30
0.0
 10
243.8656907185
 20
99.6663356283
 30
0.0
 10
243.274728711
 20
99.7737565929
 30
0.0
 10
242.6813824027
 20
99.8414610866
 30
0.0
 10
242.0871987715
 20
99.8692723911
 30
0.0
 10
241.6913094009
 20
99.861160602
 30
0.0
 10
241.4939875544
 20
99.8504598466
 30
0.0
  0
SPLINE
  5
3E5
100
AcDbEntity
  8
02___PRT_ALL_AXES
100
AcDbSpline
 62
7
  6
CONTINUOUS
 70
0
 71
3
 72
37
 73
33
 74
0
 42
0.0000001
 43
0.0000001
 44
0.0000000001
 40
0.0
 40
0.0
 40
0.0
 40
0.0
 40
0.0279207443
 40
0.0565179092
 40
0.0858416615
 40
0.1159180637
 40
0.1782691621
 40
0.2105371563
 40
0.2434485647
 40
0.276932763
 40
0.310906333
 40
0.3452753764
 40
0.3799378081
 40
0.4147856237
 40
0.4497071432
 40
0.5192835846
 40
0.5537527679
 40
0.5878566969
 40
0.6214987477
 40
0.6545920777
 40
0.687061935
 40
0.7188479765
 40
0.7499065646
 40
0.7802129826
 40
0.8097634738
 40
0.8385769569
 40
0.8666962166
 40
0.8941883114
 40
0.9211439105
 40
0.9476752915
 40
0.9739128295
 40
1.0
 40
1.0
 40
1.0
 40
1.0
 10
246.1707009856
 20
98.8422182093
 30
0.0
 10
246.4930235469
 20
98.6810569286
 30
0.0
 10
247.1290098961
 20
98.3208353419
 30
0.0
 10
248.0364784326
 20
97.6824701004
 30
0.0
 10
248.9020241261
 20
96.9445527276
 30
0.0
 10
250.0044215177
 20
95.8224473351
 30
0.0
 10
250.9825365709
 20
94.53394793
 30
0.0
 10
251.8239408027
 20
93.1180987506
 30
0.0
 10
252.3932386974
 20
91.9776549032
 30
0.0
 10
252.8890081491
 20
90.7797360669
 30
0.0
 10
253.3077804943
 20
89.5329222615
 30
0.0
 10
253.6464970047
 20
88.2463310145
 30
0.0
 10
253.9027134394
 20
86.9293516743
 30
0.0
 10
254.0745729255
 20
85.591475384
 30
0.0
 10
254.1894137823
 20
83.7957429408
 30
0.0
 10
254.132567825
 20
81.9970772572
 30
0.0
 10
253.902798482
 20
80.2278904309
 30
0.0
 10
253.6465811787
 20
78.9326743327
 30
0.0
 10
253.3078384346
 20
77.6749691183
 30
0.0
 10
252.8890011489
 20
76.4638416734
 30
0.0
 10
252.3930842949
 20
75.3081407716
 30
0.0
 10
251.8236499033
 20
74.2162859773
 30
0.0
 10
251.1847836786
 20
73.1962501667
 30
0.0
 10
250.4810648694
 20
72.2554975046
 30
0.0
 10
249.7175365611
 20
71.4009393583
 30
0.0
 10
248.8996757518
 20
70.6388911983
 30
0.0
 10
248.0333675824
 20
69.9750330737
 30
0.0
 10
247.1248741618
 20
69.4143691077
 30
0.0
 10
246.1808309743
 20
68.9611846091
 30
0.0
 10
245.2081394175
 20
68.618991534
 30
0.0
 10
244.2142093332
 20
68.3904877952
 30
0.0
 10
243.5413279067
 20
68.3150551364
 30
0.0
 10
243.2051199171
 20
68.2968225914
 30
0.0
  0
SPLINE
  5
3E6
100
AcDbEntity
  8
7_ALL_FEATURES
100
AcDbSpline
 62
7
  6
CONTINUOUS
 70
0
 71
3
 72
42
 73
38
 74
0
 42
0.0000001
 43
0.0000001
 44
0.0000000001
 40
0.0
 40
0.0
 40
0.0
 40
0.0
 40
0.0130485299
 40
0.0261162701
 40
0.0392222044
 40
0.0523848693
 40
0.065622145
 40
0.0789510631
 40
0.1059368765
 40
0.1334660181
 40
0.1616297484
 40
0.1904951708
 40
0.2201045958
 40
0.2504760017
 40
0.281604291
 40
0.3134630798
 40
0.3460068094
 40
0.3791730338
 40
0.4128847847
 40
0.4470529548
 40
0.4815786709
 40
0.5163556417
 40
0.5512724792
 40
0.586214998
 40
0.6210685022
 40
0.6557200691
 40
0.6900608431
 40
0.7239883453
 40
0.7574088099
 40
0.7902395455
 40
0.8224113172
 40
0.8538707251
 40
0.884582537
 40
0.9145318927
 40
0.9437262597
 40
0.9721969612
 40
1.0
 40
1.0
 40
1.0
 40
1.0
 10
227.1556865898
 20
60.7166282962
 30
0.0
 10
226.914736046
 20
60.7035616024
 30
0.0
 10
226.4316086782
 20
60.6913394621
 30
0.0
 10
225.7062780119
 20
60.714847766
 30
0.0
 10
224.9813677201
 20
60.7801416975
 30
0.0
 10
224.2582713396
 20
60.8870940239
 30
0.0
 10
223.5383084611
 20
61.035511436
 30
0.0
 10
222.580601592
 20
61.2892702388
 30
0.0
 10
221.3960072904
 20
61.7106491986
 30
0.0
 10
220.0153758655
 20
62.3737889142
 30
0.0
 10
218.6794259893
 20
63.1914363283
 30
0.0
 10
217.3981086695
 20
64.1572775773
 30
0.0
 10
216.1807608783
 20
65.2639898521
 30
0.0
 10
215.0362712009
 20
66.5032561104
 30
0.0
 10
213.9729752724
 20
67.8658299158
 30
0.0
 10
212.998622226
 20
69.341590089
 30
0.0
 10
212.1203187995
 20
70.9196055891
 30
0.0
 10
211.3444797504
 20
72.5882068946
 30
0.0
 10
210.6767793449
 20
74.3350653392
 30
0.0
 10
210.1221075778
 20
76.147279358
 30
0.0
 10
209.6845314883
 20
78.0114667429
 30
0.0
 10
209.3672631091
 20
79.9138619515
 30
0.0
 10
209.1726340103
 20
81.8404171452
 30
0.0
 10
209.1020769071
 20
83.7769059374
 30
0.0
 10
209.1561145605
 20
85.7090288096
 30
0.0
 10
209.3343560926
 20
87.6225191642
 30
0.0
 10
209.6355005295
 20
89.5032490176
 30
0.0
 10
210.0573481117
 20
91.3373332072
 30
0.0
 10
210.5968187228
 20
93.1112310467
 30
0.0
 10
211.2499770418
 20
94.8118441779
 30
0.0
 10
212.0120647688
 20
96.4266099594
 30
0.0
 10
212.8775359533
 20
97.9435873709
 30
0.0
 10
213.8401051633
 20
99.3515413184
 30
0.0
 10
214.8927666876
 20
100.640000229
 30
0.0
 10
216.0279279395
 20
101.7993748393
 30
0.0
 10
217.2371297867
 20
102.8208257804
 30
0.0
 10
218.0965798745
 20
103.4113933838
 30
0.0
 10
218.5350436458
 20
103.6799218798
 30
0.0
  0
SPLINE
  5
3E7
100
AcDbEntity
  8
02___PRT_ALL_AXES
100
AcDbSpline
 62
7
  6
CONTINUOUS
 70
0
 71
3
 72
37
 73
33
 74
0
 42
0.0000001
 43
0.0000001
 44
0.0000000001
 40
0.0
 40
0.0
 40
0.0
 40
0.0
 40
0.0260871705
 40
0.0523247085
 40
0.0788560895
 40
0.1058116886
 40
0.1333037834
 40
0.1614230431
 40
0.1902365262
 40
0.2197870174
 40
0.2500934354
 40
0.2811520235
 40
0.312938065
 40
0.3454079223
 40
0.3785012523
 40
0.4121433031
 40
0.4462472321
 40
0.4807164154
 40
0.5502928568
 40
0.5852143763
 40
0.6200621919
 40
0.6547246236
 40
0.689093667
 40
0.723067237
 40
0.7565514353
 40
0.7894628437
 40
0.8217308379
 40
0.8840819363
 40
0.9141583385
 40
0.9434820908
 40
0.9720792557
 40
1.0
 40
1.0
 40
1.0
 40
1.0
 10
241.4939875544
 20
99.8504598466
 30
0.0
 10
241.1577795647
 20
99.8322273016
 30
0.0
 10
240.4848981383
 20
99.7567946428
 30
0.0
 10
239.490968054
 20
99.5282909041
 30
0.0
 10
238.5182764972
 20
99.186097829
 30
0.0
 10
237.5742333096
 20
98.7329133304
 30
0.0
 10
236.6657398891
 20
98.1722493643
 30
0.0
 10
235.7994317197
 20
97.5083912397
 30
0.0
 10
234.9815709104
 20
96.7463430797
 30
0.0
 10
234.2180426021
 20
95.8917849334
 30
0.0
 10
233.5143237929
 20
94.9510322713
 30
0.0
 10
232.8754575682
 20
93.9309964607
 30
0.0
 10
232.3060231766
 20
92.8391416665
 30
0.0
 10
231.8101063226
 20
91.6834407646
 30
0.0
 10
231.3912690369
 20
90.4723133197
 30
0.0
 10
231.0525262928
 20
89.2146081053
 30
0.0
 10
230.7963089895
 20
87.9193920071
 30
0.0
 10
230.5665396464
 20
86.1502051809
 30
0.0
 10
230.5096936892
 20
84.3515394972
 30
0.0
 10
230.6245345459
 20
82.555807054
 30
0.0
 10
230.796394032
 20
81.2179307638
 30
0.0
 10
231.0526104668
 20
79.9009514235
 30
0.0
 10
231.3913269772
 20
78.6143601766
 30
0.0
 10
231.8100993224
 20
77.3675463711
 30
0.0
 10
232.305868774
 20
76.1696275349
 30
0.0
 10
232.8751666688
 20
75.0291836874
 30
0.0
 10
233.7165709006
 20
73.613334508
 30
0.0
 10
234.6946859538
 20
72.324835103
 30
0.0
 10
235.7970833454
 20
71.2027297104
 30
0.0
 10
236.6626290388
 20
70.4648123377
 30
0.0
 10
237.5700975754
 20
69.8264470961
 30
0.0
 10
238.2060839246
 20
69.4662255095
 30
0.0
 10
238.5284064859
 20
69.3050642288
 30
0.0
  0
SPLINE
  5
3E8
100
AcDbEntity
  8
02___PRT_ALL_AXES
100
AcDbSpline
 62
7
  6
CONTINUOUS
 70
0
 71
3
 72
37
 73
33
 74
0
 42
0.0000001
 43
0.0000001
 44
0.0000000001
 40
0.0
 40
0.0
 40
0.0
 40
0.0
 40
0.0260871704
 40
0.0523247083
 40
0.0788560891
 40
0.105811688
 40
0.1333037827
 40
0.1614230424
 40
0.1902365256
 40
0.219787017
 40
0.2500934353
 40
0.2811520237
 40
0.3129380656
 40
0.3454079232
 40
0.3785012535
 40
0.4121433043
 40
0.4462472333
 40
0.4807164164
 40
0.5502928571
 40
0.5852143762
 40
0.6200621916
 40
0.6547246232
 40
0.6890936667
 40
0.7230672368
 40
0.7565514352
 40
0.7894628437
 40
0.8217308381
 40
0.8840819367
 40
0.9141583388
 40
0.9434820914
 40
0.9720792586
 40
1.0
 40
1.0
 40
1.0
 40
1.0
 10
236.1782833621
 20
99.5621927589
 30
0.0
 10
235.8420753785
 20
99.5439601269
 30
0.0
 10
235.1691939484
 20
99.468527595
 30
0.0
 10
234.1752638674
 20
99.2400238267
 30
0.0
 10
233.2025723032
 20
98.8978308005
 30
0.0
 10
232.2585291026
 20
98.444646336
 30
0.0
 10
231.3500356642
 20
97.8839824041
 30
0.0
 10
230.4837274763
 20
97.2201243015
 30
0.0
 10
229.6658666517
 20
96.4580761503
 30
0.0
 10
228.9023383337
 20
95.6035179998
 30
0.0
 10
228.198619523
 20
94.6627653228
 30
0.0
 10
227.559753306
 20
93.6427294897
 30
0.0
 10
226.9903189317
 20
92.5508746693
 30
0.0
 10
226.4944021037
 20
91.3951737419
 30
0.0
 10
226.0755648501
 20
90.1840462757
 30
0.0
 10
225.7368221407
 20
88.9263410476
 30
0.0
 10
225.4806048697
 20
87.6311249448
 30
0.0
 10
225.2508355603
 20
85.8619381262
 30
0.0
 10
225.1939896017
 20
84.0632724594
 30
0.0
 10
225.3088304312
 20
82.2675400291
 30
0.0
 10
225.4806898911
 20
80.9296637425
 30
0.0
 10
225.736906298
 20
79.6126843992
 30
0.0
 10
226.0756227828
 20
78.3260931434
 30
0.0
 10
226.4943951074
 20
77.0792793252
 30
0.0
 10
226.9901645451
 20
75.8813604752
 30
0.0
 10
227.5594624331
 20
74.7409166156
 30
0.0
 10
228.4008666642
 20
73.325067427
 30
0.0
 10
229.3789817281
 20
72.0365680221
 30
0.0
 10
230.4813791391
 20
70.9144626394
 30
0.0
 10
231.346924869
 20
70.1765452568
 30
0.0
 10
232.2543934246
 20
69.5381800488
 30
0.0
 10
232.8903797619
 20
69.1779584575
 30
0.0
 10
233.2127022908
 20
69.016797193
 30
0.0
  0
SPLINE
  5
3E9
100
AcDbEntity
  8
02___PRT_ALL_AXES
100
AcDbSpline
 62
7
  6
CONTINUOUS
 70
0
 71
3
 72
11
 73
7
 74
0
 42
0.0000001
 43
0.0000001
 44
0.0000000001
 40
0.0
 40
0.0
 40
0.0
 40
0.0
 40
0.2875379524
 40
0.5422996263
 40
0.775516803
 40
1.0
 40
1.0
 40
1.0
 40
1.0
 10
226.8675013194
 20
104.0042509808
 30
0.0
 10
226.8531366971
 20
104.0114334497
 30
0.0
 10
226.8269566954
 20
104.027024238
 30
0.0
 10
226.7945481143
 20
104.0562631807
 30
0.0
 10
226.771785894
 20
104.0893847458
 30
0.0
 10
226.7630201151
 20
104.1137400597
 30
0.0
 10
226.7602539767
 20
104.1259694613
 30
0.0
  0
SPLINE
  5
3EA
100
AcDbEntity
  8
7_ALL_FEATURES
100
AcDbSpline
 62
9
  6
CONTINUOUS
 70
0
 71
3
 72
15
 73
11
 74
0
 42
0.0000001
 43
0.0000001
 44
0.0000000001
 40
0.0
 40
0.0
 40
0.0
 40
0.0
 40
0.1258496849
 40
0.2500764667
 40
0.3733480999
 40
0.4963763884
 40
0.619884537
 40
0.7445733274
 40
0.8710895505
 40
1.0
 40
1.0
 40
1.0
 40
1.0
 10
234.1518837884
 20
95.0782195508
 30
0.0
 10
234.3894416416
 20
95.1875808192
 30
0.0
 10
234.8736651526
 20
95.3796243259
 30
0.0
 10
235.6238747656
 20
95.5835386993
 30
0.0
 10
236.3868063709
 20
95.6995244241
 30
0.0
 10
237.1565227003
 20
95.7266036269
 30
0.0
 10
237.9271492497
 20
95.6645934421
 30
0.0
 10
238.6928181738
 20
95.5140086558
 30
0.0
 10
239.4476299286
 20
95.2761369836
 30
0.0
 10
239.9349079301
 20
95.0627786103
 30
0.0
 10
240.1745090158
 20
94.9429780675
 30
0.0
  0
SPLINE
  5
3EB
100
AcDbEntity
  8
02___PRT_ALL_AXES
100
AcDbSpline
 62
9
  6
CONTINUOUS
 70
0
 71
3
 72
42
 73
38
 74
0
 42
0.0000001
 43
0.0000001
 44
0.0000000001
 40
0.0
 40
0.0
 40
0.0
 40
0.0
 40
0.0277232585
 40
0.0561071128
 40
0.0852119013
 40
0.1150728303
 40
0.1457007197
 40
0.1770834787
 40
0.2091880529
 40
0.241962649
 40
0.2753391034
 40
0.3092353058
 40
0.3435576307
 40
0.3782033502
 40
0.4130630194
 40
0.4480228365
 40
0.482966983
 40
0.5177799552
 40
0.5523488966
 40
0.5865659426
 40
0.6203305868
 40
0.6535520742
 40
0.6861518205
 40
0.7180658449
 40
0.7492471855
 40
0.779668238
 40
0.809322922
 40
0.8382285223
 40
0.8664269959
 40
0.8939854716
 40
0.9209956354
 40
0.9343351508
 40
0.9475821155
 40
0.9607537167
 40
0.9738680071
 40
0.9869437088
 40
1.0
 40
1.0
 40
1.0
 40
1.0
 10
229.503369198
 20
104.3863428765
 30
0.0
 10
229.0599668887
 20
104.1246265025
 30
0.0
 10
228.1901731232
 20
103.5468323509
 30
0.0
 10
226.964700877
 20
102.5416805219
 30
0.0
 10
225.8127258991
 20
101.3960499901
 30
0.0
 10
224.7429206491
 20
100.1187724082
 30
0.0
 10
223.7630760476
 20
98.7194561077
 30
0.0
 10
222.8803916506
 20
97.2086160229
 30
0.0
 10
222.1013383401
 20
95.5975547113
 30
0.0
 10
221.4316389404
 20
93.8983039325
 30
0.0
 10
220.8762182877
 20
92.1235394897
 30
0.0
 10
220.4391664356
 20
90.286494057
 30
0.0
 10
220.1237049112
 20
88.4008621921
 30
0.0
 10
219.9321601684
 20
86.4807005861
 30
0.0
 10
219.8659439358
 20
84.5403242563
 30
0.0
 10
219.9255410637
 20
82.5942000144
 30
0.0
 10
220.1105048331
 20
80.6568382942
 30
0.0
 10
220.4194601457
 20
78.7426844612
 30
0.0
 10
220.8501142733
 20
76.8660107
 30
0.0
 10
221.3992751079
 20
75.0408095367
 30
0.0
 10
222.0628767402
 20
73.2806900881
 30
0.0
 10
222.836012005
 20
71.5987781576
 30
0.0
 10
223.7129715422
 20
70.0076213333
 30
0.0
 10
224.687288305
 20
68.5191002046
 30
0.0
 10
225.7517870559
 20
67.1443466799
 30
0.0
 10
226.8986351442
 20
65.8936705704
 30
0.0
 10
228.1193996876
 20
64.7764928902
 30
0.0
 10
229.4050822116
 20
63.8012899061
 30
0.0
 10
230.746224977
 20
62.9755265715
 30
0.0
 10
232.1327431542
 20
62.3056414137
 30
0.0
 10
233.3227744263
 20
61.879834869
 30
0.0
 10
234.2850103546
 20
61.6233401466
 30
0.0
 10
235.0084093773
 20
61.4732806795
 30
0.0
 10
235.7349995816
 20
61.3650878992
 30
0.0
 10
236.4634418989
 20
61.2989594156
 30
0.0
 10
237.1923222443
 20
61.2750252465
 30
0.0
 10
237.6778173556
 20
61.2872372255
 30
0.0
 10
237.9199446356
 20
61.3003667453
 30
0.0
  0
SPLINE
  5
3EC
100
AcDbEntity
  8
7_ALL_FEATURES
100
AcDbSpline
 62
9
  6
CONTINUOUS
 70
0
 71
3
 72
39
 73
35
 74
0
 42
0.0000001
 43
0.0000001
 44
0.0000000001
 40
0.0
 40
0.0
 40
0.0
 40
0.0
 40
0.0271712814
 40
0.0549246186
 40
0.0833274247
 40
0.112425575
 40
0.1422435224
 40
0.17278513
 40
0.2040350049
 40
0.235960156
 40
0.2685118407
 40
0.3016275098
 40
0.3352327899
 40
0.3692434694
 40
0.4035674696
 40
0.4381067948
 40
0.4727594619
 40
0.5074214136
 40
0.5419884237
 40
0.5763580008
 40
0.6104313
 40
0.6441150487
 40
0.6773234935
 40
0.7099803672
 40
0.7420208735
 40
0.7733936718
 40
0.8040628321
 40
0.8340097055
 40
0.8632346233
 40
0.8917583006
 40
0.9196227726
 40
0.9468916545
 40
0.9736494934
 40
1.0
 40
1.0
 40
1.0
 40
1.0
 10
230.6590540347
 20
104.3140287225
 30
0.0
 10
230.2382944487
 20
104.0955107973
 30
0.0
 10
229.4100383887
 20
103.6095265443
 30
0.0
 10
228.2325665876
 20
102.7528775746
 30
0.0
 10
227.1154490332
 20
101.7672845073
 30
0.0
 10
226.0663527363
 20
100.6596755785
 30
0.0
 10
225.0922352294
 20
99.4376436485
 30
0.0
 10
224.1996080299
 20
98.1095503027
 30
0.0
 10
223.3944203471
 20
96.6844358174
 30
0.0
 10
222.682046649
 20
95.1719780599
 30
0.0
 10
222.067245647
 20
93.5824312064
 30
0.0
 10
221.5541294281
 20
91.9265630281
 30
0.0
 10
221.1461336302
 20
90.2155858975
 30
0.0
 10
220.8459924131
 20
88.4610836516
 30
0.0
 10
220.6557180361
 20
86.6749347146
 30
0.0
 10
220.5765856445
 20
84.8692324136
 30
0.0
 10
220.609123435
 20
83.0562032626
 30
0.0
 10
220.7531083402
 20
81.2481240012
 30
0.0
 10
221.0075672758
 20
79.4572381344
 30
0.0
 10
221.3707839437
 20
77.6956727088
 30
0.0
 10
221.8403111273
 20
75.975356055
 30
0.0
 10
222.4129883652
 20
74.3079372343
 30
0.0
 10
223.084964807
 20
72.7047079452
 30
0.0
 10
223.851726967
 20
71.1765276622
 30
0.0
 10
224.708130905
 20
69.7337527848
 30
0.0
 10
225.6484382867
 20
68.3861705423
 30
0.0
 10
226.6663551417
 20
67.1429383159
 30
0.0
 10
227.7550730402
 20
66.0125285509
 30
0.0
 10
228.9073078843
 20
65.0026796487
 30
0.0
 10
230.1153468997
 20
64.1203497343
 30
0.0
 10
231.3710593788
 20
63.371678702
 30
0.0
 10
232.6660281958
 20
62.761928462
 30
0.0
 10
233.9912384436
 20
62.2954957433
 30
0.0
 10
234.8949059755
 20
62.080936831
 30
0.0
 10
235.3473752965
 20
61.9991764343
 30
0.0
  0
SPLINE
  5
3ED
100
AcDbEntity
  8
02___PRT_ALL_AXES
100
AcDbSpline
 62
7
  6
CONTINUOUS
 70
0
 71
3
 72
14
 73
10
 74
0
 42
0.0000001
 43
0.0000001
 44
0.0000000001
 40
0.0
 40
0.0
 40
0.0
 40
0.0
 40
0.0951024178
 40
0.195478487
 40
0.3037997536
 40
0.4217225051
 40
0.5501222632
 40
0.6893523582
 40
1.0
 40
1.0
 40
1.0
 40
1.0
 10
226.7602539767
 20
104.1259694613
 30
0.0
 10
226.7575952629
 20
104.1377239273
 30
0.0
 10
226.7549786037
 20
104.162595582
 30
0.0
 10
226.7588839631
 20
104.2011060161
 30
0.0
 10
226.7700029705
 20
104.241144126
 30
0.0
 10
226.7878952658
 20
104.282490581
 30
0.0
 10
226.8121819238
 20
104.3249792068
 30
0.0
 10
226.8541943581
 20
104.3851068645
 30
0.0
 10
226.8921197243
 20
104.4279542793
 30
0.0
 10
226.9196055249
 20
104.4561351346
 30
0.0
  0
SPLINE
  5
3EE
100
AcDbEntity
  8
02___PRT_ALL_AXES
100
AcDbSpline
 62
7
  6
CONTINUOUS
 70
0
 71
3
 72
23
 73
19
 74
0
 42
0.0000001
 43
0.0000001
 44
0.0000000001
 40
0.0
 40
0.0
 40
0.0
 40
0.0
 40
0.063962341
 40
0.1270762248
 40
0.1894574225
 40
0.2512347584
 40
0.3125493468
 40
0.3735516803
 40
0.4343987383
 40
0.4952507733
 40
0.556267931
 40
0.6176068827
 40
0.6794176202
 40
0.7418405398
 40
0.8050039526
 40
0.869022065
 40
0.9339934438
 40
1.0
 40
1.0
 40
1.0
 40
1.0
 10
246.0497786043
 20
98.3748581779
 30
0.0
 10
245.8432422113
 20
98.4781263744
 30
0.0
 10
245.4257321588
 20
98.6693233438
 30
0.0
 10
244.7847237396
 20
98.9095238164
 30
0.0
 10
244.1354750354
 20
99.1003128079
 30
0.0
 10
243.4801947749
 20
99.2410107721
 30
0.0
 10
242.8210736608
 20
99.3311328502
 30
0.0
 10
242.1603322935
 20
99.3703612417
 30
0.0
 10
241.500197663
 20
99.358555177
 30
0.0
 10
240.8428977227
 20
99.2957515378
 30
0.0
 10
240.1906501231
 20
99.1821659324
 30
0.0
 10
239.5456527747
 20
99.0181897075
 30
0.0
 10
238.9100747712
 20
98.8043880516
 30
0.0
 10
238.2860465063
 20
98.5414966194
 30
0.0
 10
237.6756556221
 20
98.2304180245
 30
0.0
 10
237.0809284059
 20
97.8722065399
 30
0.0
 10
236.5038690244
 20
97.4681036694
 30
0.0
 10
236.1351776293
 20
97.1713980509
 30
0.0
 10
235.9544095369
 20
97.0161329745
 30
0.0
  0
SPLINE
  5
3EF
100
AcDbEntity
  8
7_ALL_FEATURES
100
AcDbSpline
 62
9
  6
CONTINUOUS
 70
0
 71
3
 72
15
 73
11
 74
0
 42
0.0000001
 43
0.0000001
 44
0.0000000001
 40
0.0
 40
0.0
 40
0.0
 40
0.0
 40
0.1260163355
 40
0.2504342097
 40
0.3738842789
 40
0.4970393631
 40
0.6205853625
 40
0.7451908478
 40
0.8714782974
 40
1.0
 40
1.0
 40
1.0
 40
1.0
 10
235.3890837724
 20
72.2474038943
 30
0.0
 10
235.6304212115
 20
72.1665655284
 30
0.0
 10
236.1188965612
 20
72.0309546242
 30
0.0
 10
236.8656228496
 20
71.9091048359
 30
0.0
 10
237.6156137291
 20
71.8712488714
 30
0.0
 10
238.3633459788
 20
71.9177341582
 30
0.0
 10
239.1034272948
 20
72.0482083813
 30
0.0
 10
239.8305313543
 20
72.2617004132
 30
0.0
 10
240.5393629025
 20
72.556544947
 30
0.0
 10
240.992083598
 20
72.8035412661
 30
0.0
 10
241.213445494
 20
72.9391099969
 30
0.0
  0
SPLINE
  5
3F0
100
AcDbEntity
  8
7_ALL_FEATURES
100
AcDbSpline
 62
9
  6
CONTINUOUS
 70
0
 71
3
 72
29
 73
25
 74
0
 42
0.0000001
 43
0.0000001
 44
0.0000000001
 40
0.0
 40
0.0
 40
0.0
 40
0.0
 40
0.0270811715
 40
0.0547103534
 40
0.0829314771
 40
0.1117731472
 40
0.1713207528
 40
0.2020513503
 40
0.2333765771
 40
0.2976226403
 40
0.3636857677
 40
0.431040326
 40
0.4990816184
 40
0.567164451
 40
0.6346412133
 40
0.7008999262
 40
0.7654027275
 40
0.7968738311
 40
0.8277586987
 40
0.8876286281
 40
0.9166310405
 40
0.9450079962
 40
0.9727842872
 40
1.0
 40
1.0
 40
1.0
 40
1.0
 10
241.213445494
 20
72.9391099969
 30
0.0
 10
241.4115952386
 20
73.0604629031
 30
0.0
 10
241.8011082161
 20
73.3237055942
 30
0.0
 10
242.3550953335
 20
73.7714934903
 30
0.0
 10
242.8815286885
 20
74.2735896291
 30
0.0
 10
243.5497289999
 20
75.0193533168
 30
0.0
 10
244.1433942264
 20
75.8565080976
 30
0.0
 10
244.6571227816
 20
76.7652549733
 30
0.0
 10
245.1271160224
 20
77.7425145015
 30
0.0
 10
245.606302506
 20
79.0480463701
 30
0.0
 10
245.9974454743
 20
80.7021110704
 30
0.0
 10
246.2017578934
 20
82.4221975575
 30
0.0
 10
246.2149545334
 20
84.1715094064
 30
0.0
 10
246.0368278879
 20
85.9128263898
 30
0.0
 10
245.6711063218
 20
87.6090896461
 30
0.0
 10
245.1255401751
 20
89.2240054102
 30
0.0
 10
244.5253131467
 20
90.4841352677
 30
0.0
 10
243.9651933955
 20
91.4182425491
 30
0.0
 10
243.3677686429
 20
92.2807886246
 30
0.0
 10
242.6976090227
 20
93.0651774855
 30
0.0
 10
241.9618285044
 20
93.7523905462
 30
0.0
 10
241.390183857
 20
94.2087233304
 30
0.0
 10
240.7962176754
 20
94.6086777504
 30
0.0
 10
240.3833680742
 20
94.8385485383
 30
0.0
 10
240.1745090158
 20
94.9429780675
 30
0.0
  0
SPLINE
  5
3F1
100
AcDbEntity
  8
02___PRT_ALL_AXES
100
AcDbSpline
 62
7
  6
CONTINUOUS
 70
0
 71
3
 72
38
 73
34
 74
0
 42
0.0000001
 43
0.0000001
 44
0.0000000001
 40
0.0
 40
0.0
 40
0.0
 40
0.0
 40
0.028511477
 40
0.057823766
 40
0.0879969157
 40
0.1190543564
 40
0.1836827122
 40
0.2172047901
 40
0.2513938074
 40
0.2861364582
 40
0.3213039396
 40
0.356755983
 40
0.3923448358
 40
0.4279192013
 40
0.4633281561
 40
0.4984250707
 40
0.5330715574
 40
0.5671414586
 40
0.6005248886
 40
0.633132313
 40
0.6648986219
 40
0.6957870821
 40
0.7257929742
 40
0.7549465913
 40
0.7833151322
 40
0.8110028776
 40
0.8381489884
 40
0.8649224025
 40
0.8915136908
 40
0.9181243577
 40
0.9449547331
 40
0.9721920262
 40
1.0
 40
1.0
 40
1.0
 40
1.0
 10
246.0497786043
 20
98.3748581779
 30
0.0
 10
246.4082831911
 20
98.1956058845
 30
0.0
 10
247.1143345169
 20
97.7885002243
 30
0.0
 10
248.1126076369
 20
97.0540705427
 30
0.0
 10
249.0549394077
 20
96.1949219148
 30
0.0
 10
250.2397570538
 20
94.8777849731
 30
0.0
 10
251.2579483649
 20
93.3597032654
 30
0.0
 10
252.094545372
 20
91.6964636654
 30
0.0
 10
252.6364596373
 20
90.360177886
 30
0.0
 10
253.0795014865
 20
88.9639393565
 30
0.0
 10
253.4196161924
 20
87.5208748466
 30
0.0
 10
253.6535379058
 20
86.0448440803
 30
0.0
 10
253.7790540683
 20
84.5499440033
 30
0.0
 10
253.7949653483
 20
83.0504733608
 30
0.0
 10
253.7011147655
 20
81.5607682907
 30
0.0
 10
253.4983839953
 20
80.0950718291
 30
0.0
 10
253.1886843577
 20
78.6673955028
 30
0.0
 10
252.7749344745
 20
77.2913869513
 30
0.0
 10
252.2610283457
 20
75.9802023833
 30
0.0
 10
251.6517935602
 20
74.7463869243
 30
0.0
 10
250.9529422776
 20
73.6017644807
 30
0.0
 10
250.1710165539
 20
72.5573393999
 30
0.0
 10
249.3133328982
 20
71.6232102062
 30
0.0
 10
248.3879310625
 20
70.8084929844
 30
0.0
 10
247.4035307696
 20
70.1212482722
 30
0.0
 10
246.369496089
 20
69.5684005742
 30
0.0
 10
245.2957962717
 20
69.155640872
 30
0.0
 10
244.192946381
 20
68.8873058221
 30
0.0
 10
243.071894332
 20
68.7662523588
 30
0.0
 10
241.9438771302
 20
68.7937436626
 30
0.0
 10
240.8201384306
 20
68.9694441748
 30
0.0
 10
239.712017803
 20
69.2913130316
 30
0.0
 10
238.998987573
 20
69.5975949072
 30
0.0
 10
238.6493288672
 20
69.7724242601
 30
0.0
  0
SPLINE
  5
3F2
100
AcDbEntity
  8
7_ALL_FEATURES
100
AcDbSpline
 62
9
  6
CONTINUOUS
 70
0
 71
3
 72
36
 73
32
 74
0
 42
0.0000001
 43
0.0000001
 44
0.0000000001
 40
0.0
 40
0.0
 40
0.0
 40
0.0
 40
0.0278075439
 40
0.0562827999
 40
0.0854818602
 40
0.1154360339
 40
0.1775658734
 40
0.2097428219
 40
0.2425788397
 40
0.2760046811
 40
0.3099376419
 40
0.3442839417
 40
0.3789410844
 40
0.4138001963
 40
0.4487483371
 40
0.5184169158
 40
0.5529481869
 40
0.587121854
 40
0.6539693347
 40
0.6865183014
 40
0.718382216
 40
0.7495155128
 40
0.7798918047
 40
0.8095059944
 40
0.8383760623
 40
0.8665443244
 40
0.8940778948
 40
0.9210680495
 40
0.9476282113
 40
0.9738903763
 40
1.0
 40
1.0
 40
1.0
 40
1.0
 10
240.6178666394
 20
73.0664764024
 30
0.0
 10
240.8468424242
 20
73.2067081094
 30
0.0
 10
241.295667949
 20
73.5151178904
 30
0.0
 10
241.9271329546
 20
74.0485318291
 30
0.0
 10
242.5199654933
 20
74.6540233365
 30
0.0
 10
243.2617010364
 20
75.5618648093
 30
0.0
 10
243.8979990862
 20
76.5865896705
 30
0.0
 10
244.4222537196
 20
77.6975237197
 30
0.0
 10
244.7633940889
 20
78.5856981353
 30
0.0
 10
245.0451048401
 20
79.512046151
 30
0.0
 10
245.2654066707
 20
80.4698505231
 30
0.0
 10
245.4226697551
 20
81.4520113014
 30
0.0
 10
245.5157525467
 20
82.4512659838
 30
0.0
 10
245.5439685482
 20
83.4603120636
 30
0.0
 10
245.4949154191
 20
84.8068577315
 30
0.0
 10
245.3168069506
 20
86.143097894
 30
0.0
 10
245.0112780403
 20
87.4446471849
 30
0.0
 10
244.6280181326
 20
88.6969052482
 30
0.0
 10
244.1259783826
 20
89.8904241103
 30
0.0
 10
243.5091243565
 20
90.9986861878
 30
0.0
 10
243.0002761515
 20
91.769398927
 30
0.0
 10
242.4450043763
 20
92.4809552987
 30
0.0
 10
241.8473248638
 20
93.1281302194
 30
0.0
 10
241.2116000989
 20
93.7060792078
 30
0.0
 10
240.5424644229
 20
94.2104638591
 30
0.0
 10
239.8448135395
 20
94.6374553289
 30
0.0
 10
239.1237744402
 20
94.9837692576
 30
0.0
 10
238.3846998888
 20
95.2466965961
 30
0.0
 10
237.6330825215
 20
95.4241367099
 30
0.0
 10
236.8747345282
 20
95.5146487244
 30
0.0
 10
236.3677154416
 20
95.5165146694
 30
0.0
 10
236.115975321
 20
95.5028631103
 30
0.0
  0
SPLINE
  5
3F3
100
AcDbEntity
  8
02___PRT_ALL_AXES
100
AcDbSpline
 62
7
  6
CONTINUOUS
 70
0
 71
3
 72
15
 73
11
 74
0
 42
0.0000001
 43
0.0000001
 44
0.0000000001
 40
0.0
 40
0.0
 40
0.0
 40
0.0
 40
0.1225444824
 40
0.2453340773
 40
0.3686099705
 40
0.4926056516
 40
0.617543319
 40
0.7436310739
 40
0.8710590662
 40
1.0
 40
1.0
 40
1.0
 40
1.0
 10
243.2051199171
 20
68.2968225914
 30
0.0
 10
243.0077980706
 20
68.286121836
 30
0.0
 10
242.6119086999
 20
68.278010047
 30
0.0
 10
242.0177250688
 20
68.3058213514
 30
0.0
 10
241.4243787604
 20
68.3735258452
 30
0.0
 10
240.833416753
 20
68.4809468097
 30
0.0
 10
240.2463345964
 20
68.6278009644
 30
0.0
 10
239.6646199559
 20
68.8137090966
 30
0.0
 10
239.089770957
 20
69.0381750991
 30
0.0
 10
238.7143816207
 20
69.2120766614
 30
0.0
 10
238.5284064859
 20
69.3050642288
 30
0.0
  0
SPLINE
  5
3F4
100
AcDbEntity
  8
7_ALL_FEATURES
100
AcDbSpline
 62
9
  6
CONTINUOUS
 70
0
 71
3
 72
11
 73
7
 74
0
 42
0.0000001
 43
0.0000001
 44
0.0000000001
 40
0.0
 40
0.0
 40
0.0
 40
0.0
 40
0.2457233459
 40
0.4932168093
 40
0.7441493883
 40
1.0
 40
1.0
 40
1.0
 40
1.0
 10
237.3884946369
 20
72.0373418139
 30
0.0
 10
237.6684060681
 20
72.0525209589
 30
0.0
 10
238.2289338514
 20
72.1192730656
 30
0.0
 10
239.0543368585
 20
72.3268917363
 30
0.0
 10
239.8581067709
 20
72.6399861768
 30
0.0
 10
240.36896041
 20
72.9140386874
 30
0.0
 10
240.6178666394
 20
73.0664764024
 30
0.0
  0
SPLINE
  5
3F5
100
AcDbEntity
  8
02___PRT_ALL_AXES
100
AcDbSpline
 62
7
  6
CONTINUOUS
 70
0
 71
3
 72
15
 73
11
 74
0
 42
0.0000001
 43
0.0000001
 44
0.0000000001
 40
0.0
 40
0.0
 40
0.0
 40
0.0
 40
0.1289409436
 40
0.2563689262
 40
0.3824566788
 40
0.5073943496
 40
0.6313900298
 40
0.7546659236
 40
0.877455518
 40
1.0
 40
1.0
 40
1.0
 40
1.0
 10
233.2127022908
 20
69.016797193
 30
0.0
 10
233.3986774399
 20
68.9238096185
 30
0.0
 10
233.7740667771
 20
68.7499080568
 30
0.0
 10
234.3489157773
 20
68.5254420658
 30
0.0
 10
234.9306304032
 20
68.3395339338
 30
0.0
 10
235.5177125539
 20
68.1926797515
 30
0.0
 10
236.1086745636
 20
68.0852587709
 30
0.0
 10
236.7020208707
 20
68.0175542574
 30
0.0
 10
237.2962045044
 20
67.9897430324
 30
0.0
 10
237.6920938758
 20
67.9978548012
 30
0.0
 10
237.8894157191
 20
68.0085556076
 30
0.0
  0
SPLINE
  5
3F6
100
AcDbEntity
  8
7_ALL_FEATURES
100
AcDbSpline
 62
9
  6
CONTINUOUS
 70
0
 71
3
 72
22
 73
18
 74
0
 42
0.0000001
 43
0.0000001
 44
0.0000000001
 40
0.0
 40
0.0
 40
0.0
 40
0.0
 40
0.0569479192
 40
0.1135557303
 40
0.1701237627
 40
0.2269540457
 40
0.2843374732
 40
0.3425419976
 40
0.4018028228
 40
0.4623151696
 40
0.5242297538
 40
0.5876507712
 40
0.6526359674
 40
0.7191982986
 40
0.787308715
 40
0.8568996745
 40
1.0
 40
1.0
 40
1.0
 40
1.0
 10
235.3473752965
 20
61.9991764343
 30
0.0
 10
235.7934392803
 20
61.9185734705
 30
0.0
 10
236.6923210511
 20
61.8054550985
 30
0.0
 10
238.0489078267
 20
61.7844458624
 30
0.0
 10
239.3987812703
 20
61.9129583272
 30
0.0
 10
240.7323570068
 20
62.1901075832
 30
0.0
 10
242.0404564766
 20
62.6138715325
 30
0.0
 10
243.3140763179
 20
63.181188656
 30
0.0
 10
244.5445479514
 20
63.8880004176
 30
0.0
 10
245.7235665521
 20
64.7293163545
 30
0.0
 10
246.8432363084
 20
65.6992716146
 30
0.0
 10
247.8960984148
 20
66.7911745716
 30
0.0
 10
248.8751676612
 20
67.9975692623
 30
0.0
 10
249.7739400798
 20
69.310219723
 30
0.0
 10
250.5865182605
 20
70.7203933198
 30
0.0
 10
251.5564407229
 20
72.7356764763
 30
0.0
 10
252.124856875
 20
74.3379067445
 30
0.0
 10
252.4349678529
 20
75.4339134943
 30
0.0
  0
SPLINE
  5
3F7
100
AcDbEntity
  8
7_ALL_FEATURES
100
AcDbSpline
 62
9
  6
CONTINUOUS
 70
0
 71
3
 72
9
 73
5
 74
0
 42
0.0000001
 43
0.0000001
 44
0.0000000001
 40
0.0
 40
0.0
 40
0.0
 40
0.0
 40
0.5071606003
 40
1.0
 40
1.0
 40
1.0
 40
1.0
 10
251.4420035061
 20
93.7521428347
 30
0.0
 10
251.112162741
 20
94.5683648676
 30
0.0
 10
250.3800715953
 20
96.1461318733
 30
0.0
 10
249.4825013531
 20
97.636665811
 30
0.0
 10
248.9993497242
 20
98.342658851
 30
0.0
  0
SPLINE
  5
3F8
100
AcDbEntity
  8
7_ALL_FEATURES
100
AcDbSpline
 62
7
  6
CONTINUOUS
 70
0
 71
3
 72
29
 73
25
 74
0
 42
0.0000001
 43
0.0000001
 44
0.0000000001
 40
0.0
 40
0.0
 40
0.0
 40
0.0
 40
0.0271102463
 40
0.0549934587
 40
0.0836178842
 40
0.1129467526
 40
0.1429392321
 40
0.1735507169
 40
0.2364294765
 40
0.3011733231
 40
0.3673290377
 40
0.4344172942
 40
0.5019420618
 40
0.5693996351
 40
0.6362874845
 40
0.7021131338
 40
0.7664032684
 40
0.8287132909
 40
0.8590008509
 40
0.8886452082
 40
0.9176037033
 40
0.9458376591
 40
0.973312846
 40
1.0
 40
1.0
 40
1.0
 40
1.0
 10
245.7440988463
 20
100.5244883222
 30
0.0
 10
245.4235245451
 20
100.6847754727
 30
0.0
 10
244.766593728
 20
100.9967882077
 30
0.0
 10
243.7506760038
 20
101.4332533277
 30
0.0
 10
242.6925067405
 20
101.8438557439
 30
0.0
 10
241.5947322702
 20
102.227566203
 30
0.0
 10
240.4600628091
 20
102.5834424309
 30
0.0
 10
238.8877668936
 20
103.0235426653
 30
0.0
 10
236.8486655413
 20
103.4964610817
 30
0.0
 10
234.3235328261
 20
103.9358083629
 30
0.0
 10
231.7234657715
 20
104.2476362354
 30
0.0
 10
229.0742539719
 20
104.4288368907
 30
0.0
 10
226.4021038056
 20
104.4776100591
 30
0.0
 10
223.7334808953
 20
104.3934684812
 30
0.0
 10
221.0948148674
 20
104.1772515457
 30
0.0
 10
218.5122024995
 20
103.8311072311
 30
0.0
 10
216.0112562199
 20
103.3584839597
 30
0.0
 10
213.9969222239
 20
102.8584865221
 30
0.0
 10
212.4477449709
 20
102.3974219955
 30
0.0
 10
211.33237684
 20
102.0266032373
 30
0.0
 10
210.255366871
 20
101.6284491705
 30
0.0
 10
209.2193715081
 20
101.203936427
 30
0.0
 10
208.2269842551
 20
100.7541286696
 30
0.0
 10
207.5865454495
 20
100.4333451318
 30
0.0
 10
207.2744583973
 20
100.2687752977
 30
0.0
  0
SPLINE
  5
3F9
100
AcDbEntity
  8
02___PRT_ALL_AXES
100
AcDbSpline
 62
7
  6
CONTINUOUS
 70
0
 71
3
 72
23
 73
19
 74
0
 42
0.0000001
 43
0.0000001
 44
0.0000000001
 40
0.0
 40
0.0
 40
0.0
 40
0.0
 40
0.0792022967
 40
0.1559760058
 40
0.2302783608
 40
0.3020872667
 40
0.3714035929
 40
0.438253697
 40
0.502692112
 40
0.5648043128
 40
0.6247094482
 40
0.6825627734
 40
0.738557431
 40
0.7929251623
 40
0.8459354014
 40
0.8978922411
 40
0.9491289494
 40
1.0
 40
1.0
 40
1.0
 40
1.0
 10
207.4322225848
 20
81.3552435278
 30
0.0
 10
207.1200198269
 20
81.5111302475
 30
0.0
 10
206.5110373743
 20
81.8300442633
 30
0.0
 10
205.6323673633
 20
82.3379087847
 30
0.0
 10
204.8045212282
 20
82.8667709759
 30
0.0
 10
204.0295024731
 20
83.415368508
 30
0.0
 10
203.3091668873
 20
83.9824087216
 30
0.0
 10
202.645248228
 20
84.5665581409
 30
0.0
 10
202.039349434
 20
85.1664494903
 30
0.0
 10
201.4929444455
 20
85.7806838361
 30
0.0
 10
201.0073780417
 20
86.4078316872
 30
0.0
 10
200.5838666738
 20
87.0464322375
 30
0.0
 10
200.2234989957
 20
87.6949893737
 30
0.0
 10
199.9272331187
 20
88.3519683079
 30
0.0
 10
199.6958892763
 20
89.0157774852
 30
0.0
 10
199.53013737
 20
89.6848015024
 30
0.0
 10
199.4304783873
 20
90.3572611123
 30
0.0
 10
199.4082817125
 20
90.8074470551
 30
0.0
 10
199.4082818012
 20
91.0315797847
 30
0.0
  0
SPLINE
  5
3FA
100
AcDbEntity
  8
02___PRT_ALL_AXES
100
AcDbSpline
 62
7
  6
CONTINUOUS
 70
0
 71
3
 72
11
 73
7
 74
0
 42
0.0000001
 43
0.0000001
 44
0.0000000001
 40
0.0
 40
0.0
 40
0.0
 40
0.0
 40
0.2558383922
 40
0.5067217298
 40
0.7542199347
 40
1.0
 40
1.0
 40
1.0
 40
1.0
 10
253.5963565491
 20
88.3981295063
 30
0.0
 10
253.6804078665
 20
88.6122761152
 30
0.0
 10
253.8286787176
 20
89.0438735087
 30
0.0
 10
253.9898150188
 20
89.7036288858
 30
0.0
 10
254.0867052931
 20
90.3667212415
 30
0.0
 10
254.1082816542
 20
90.8105734193
 30
0.0
 10
254.1082817416
 20
91.0315797847
 30
0.0
  0
SPLINE
  5
3FB
100
AcDbEntity
  8
7_ALL_FEATURES
100
AcDbSpline
 62
7
  6
CONTINUOUS
 70
0
 71
3
 72
11
 73
7
 74
0
 42
0.0000001
 43
0.0000001
 44
0.0000000001
 40
0.0
 40
0.0
 40
0.0
 40
0.0
 40
0.2338303732
 40
0.4786770477
 40
0.7342244714
 40
1.0
 40
1.0
 40
1.0
 40
1.0
 10
205.6114761398
 20
98.8845357186
 30
0.0
 10
205.9753557107
 20
98.6330326556
 30
0.0
 10
206.7384863442
 20
98.1441745741
 30
0.0
 10
207.9530237743
 20
97.468770102
 30
0.0
 10
209.2583586447
 20
96.837259694
 30
0.0
 10
210.1678588194
 20
96.4547195982
 30
0.0
 10
210.6358275437
 20
96.2709242272
 30
0.0
  0
SPLINE
  5
3FC
100
AcDbEntity
  8
7_ALL_FEATURES
100
AcDbSpline
 62
7
  6
CONTINUOUS
 70
0
 71
3
 72
15
 73
11
 74
0
 42
0.0000001
 43
0.0000001
 44
0.0000000001
 40
0.0
 40
0.0
 40
0.0
 40
0.0
 40
0.119379564
 40
0.2436532462
 40
0.3712579047
 40
0.5005205371
 40
0.6297153741
 40
0.7571187777
 40
0.8810641222
 40
1.0
 40
1.0
 40
1.0
 40
1.0
 10
246.5559319756
 20
98.639168324
 30
0.0
 10
246.6347777713
 20
98.6622492324
 30
0.0
 10
246.7977430346
 20
98.7025872077
 30
0.0
 10
247.0498452983
 20
98.7453215587
 30
0.0
 10
247.3110895324
 20
98.7709928651
 30
0.0
 10
247.5768414029
 20
98.7791377755
 30
0.0
 10
247.8424090904
 20
98.7696132105
 30
0.0
 10
248.1031043382
 20
98.7425869141
 30
0.0
 10
248.3543032517
 20
98.6985465036
 30
0.0
 10
248.5165063552
 20
98.6573432626
 30
0.0
 10
248.5949081314
 20
98.6338385188
 30
0.0
  0
SPLINE
  5
3FD
100
AcDbEntity
  8
7_ALL_FEATURES
100
AcDbSpline
 62
7
  6
CONTINUOUS
 70
0
 71
3
 72
11
 73
7
 74
0
 42
0.0000001
 43
0.0000001
 44
0.0000000001
 40
0.0
 40
0.0
 40
0.0
 40
0.0
 40
0.2813961831
 40
0.5466638869
 40
0.7885647373
 40
1.0
 40
1.0
 40
1.0
 40
1.0
 10
248.5949081314
 20
98.6338385188
 30
0.0
 10
248.6640644314
 20
98.5861578174
 30
0.0
 10
248.797616369
 20
98.4923641315
 30
0.0
 10
248.9873029123
 20
98.3529300328
 30
0.0
 10
249.1566236559
 20
98.2211805668
 30
0.0
 10
249.2604251084
 20
98.1342743244
 30
0.0
 10
249.3076918462
 20
98.0924473999
 30
0.0
  0
SPLINE
  5
3FE
100
AcDbEntity
  8
7_ALL_FEATURES
100
AcDbSpline
 62
7
  6
CONTINUOUS
 70
0
 71
3
 72
11
 73
7
 74
0
 42
0.0000001
 43
0.0000001
 44
0.0000000001
 40
0.0
 40
0.0
 40
0.0
 40
0.0
 40
0.262055581
 40
0.513993464
 40
0.7588301728
 40
1.0
 40
1.0
 40
1.0
 40
1.0
 10
240.4336455269
 20
102.5847647752
 30
0.0
 10
240.4468797961
 20
102.5623460394
 30
0.0
 10
240.4703794034
 20
102.5168492337
 30
0.0
 10
240.4963136521
 20
102.4458399131
 30
0.0
 10
240.5119619541
 20
102.3739862642
 30
0.0
 10
240.5154578559
 20
102.3256353136
 30
0.0
 10
240.5154577384
 20
102.3016766323
 30
0.0
  0
SPLINE
  5
3FF
100
AcDbEntity
  8
7_ALL_FEATURES
100
AcDbSpline
 62
7
  6
CONTINUOUS
 70
0
 71
3
 72
21
 73
17
 74
0
 42
0.0000001
 43
0.0000001
 44
0.0000000001
 40
0.0
 40
0.0
 40
0.0
 40
0.0
 40
0.1534219705
 40
0.2266455553
 40
0.2975319787
 40
0.3661051477
 40
0.4324111471
 40
0.4965202431
 40
0.5585288608
 40
0.6766995612
 40
0.7332716661
 40
0.7884198955
 40
0.8423874294
 40
0.895443508
 40
0.9478789388
 40
1.0
 40
1.0
 40
1.0
 40
1.0
 10
207.2805664791
 20
100.2575673195
 30
0.0
 10
206.7838185973
 20
99.9741813206
 30
0.0
 10
206.0651814626
 20
99.5275001397
 30
0.0
 10
205.1642614018
 20
98.8801496844
 30
0.0
 10
204.5426009714
 20
98.387619514
 30
0.0
 10
203.9657728951
 20
97.8815511931
 30
0.0
 10
203.434938841
 20
97.3629453414
 30
0.0
 10
202.9511372659
 20
96.8327527104
 30
0.0
 10
202.3794734897
 20
96.123472049
 30
0.0
 10
201.8927465096
 20
95.3831747812
 30
0.0
 10
201.5052896236
 20
94.6180334761
 30
0.0
 10
201.2699740937
 20
94.0462551995
 30
0.0
 10
201.0863695493
 20
93.4695638239
 30
0.0
 10
200.954892892
 20
92.8891078536
 30
0.0
 10
200.8758743728
 20
92.3061850001
 30
0.0
 10
200.8582817193
 20
91.9162141699
 30
0.0
 10
200.8582818917
 20
91.7219273018
 30
0.0
  0
SPLINE
  5
400
100
AcDbEntity
  8
7_ALL_FEATURES
100
AcDbSpline
 62
7
  6
CONTINUOUS
 70
0
 71
3
 72
17
 73
13
 74
0
 42
0.0000001
 43
0.0000001
 44
0.0000000001
 40
0.0
 40
0.0
 40
0.0
 40
0.0
 40
0.0561297376
 40
0.1124329118
 40
0.1690806536
 40
0.2262395921
 40
0.3426715078
 40
0.4629597939
 40
0.5881111634
 40
0.7189449176
 40
0.8560909359
 40
1.0
 40
1.0
 40
1.0
 40
1.0
 10
252.6582817494
 20
91.7219273018
 30
0.0
 10
252.658281644
 20
91.8607309525
 30
0.0
 10
252.6493280463
 20
92.1388501936
 30
0.0
 10
252.6090752906
 20
92.5552982855
 30
0.0
 10
252.5420320499
 20
92.9708846322
 30
0.0
 10
252.4163101408
 20
93.5265080975
 30
0.0
 10
252.1904231856
 20
94.2192583864
 30
0.0
 10
251.8154946572
 20
95.0338025052
 30
0.0
 10
251.3369183732
 20
95.8337289208
 30
0.0
 10
250.7569588731
 20
96.6157770815
 30
0.0
 10
250.0782488051
 20
97.3768828071
 30
0.0
 10
249.5742008123
 20
97.8566102989
 30
0.0
 10
249.3076918462
 20
98.0924473999
 30
0.0
  0
SPLINE
  5
401
100
AcDbEntity
  8
02___PRT_ALL_AXES
100
AcDbSpline
 62
7
  6
CONTINUOUS
 70
0
 71
3
 72
18
 73
14
 74
0
 42
0.0000001
 43
0.0000001
 44
0.0000000001
 40
0.0
 40
0.0
 40
0.0
 40
0.0
 40
0.2192070538
 40
0.4123426892
 40
0.5782015178
 40
0.7156377981
 40
0.823775164
 40
0.8668416714
 40
0.9027823642
 40
0.932156846
 40
0.9562396298
 40
0.9775838126
 40
1.0
 40
1.0
 40
1.0
 40
1.0
 10
252.6498526818
 20
92.0456237765
 30
0.0
 10
252.6483224391
 20
92.0234729869
 30
0.0
 10
252.6449237021
 20
91.9818375787
 30
0.0
 10
252.6382295837
 20
91.9236440112
 30
0.0
 10
252.6303403187
 20
91.8739562669
 30
0.0
 10
252.6213411385
 20
91.8332457977
 30
0.0
 10
252.6125335433
 20
91.8052723278
 30
0.0
 10
252.6045895888
 20
91.7880306448
 30
0.0
 10
252.5988526264
 20
91.7786287371
 30
0.0
 10
252.5928539635
 20
91.7717664606
 30
0.0
 10
252.5864221923
 20
91.767488032
 30
0.0
 10
252.5794229799
 20
91.7662642278
 30
0.0
 10
252.5750390689
 20
91.7676272026
 30
0.0
 10
252.5730082378
 20
91.7686426353
 30
0.0
  0
SPLINE
  5
402
100
AcDbEntity
  8
7_ALL_FEATURES
100
AcDbSpline
 62
7
  6
CONTINUOUS
 70
0
 71
3
 72
9
 73
5
 74
0
 42
0.0000001
 43
0.0000001
 44
0.0000000001
 40
0.0
 40
0.0
 40
0.0
 40
0.0
 40
0.2399348115
 40
1.0
 40
1.0
 40
1.0
 40
1.0
 10
237.5670802771
 20
100.4950598713
 30
0.0
 10
237.6178733143
 20
100.5066936064
 30
0.0
 10
237.8279211726
 20
100.562303892
 30
0.0
 10
238.0304143973
 20
100.6449413387
 30
0.0
 10
238.1780562876
 20
100.7187622838
 30
0.0
  0
SPLINE
  5
403
100
AcDbEntity
  8
7_ALL_FEATURES
100
AcDbSpline
 62
7
  6
CONTINUOUS
 70
0
 71
3
 72
9
 73
5
 74
0
 42
0.0000001
 43
0.0000001
 44
0.0000000001
 40
0.0
 40
0.0
 40
0.0
 40
0.0
 40
0.5136438965
 40
1.0
 40
1.0
 40
1.0
 40
1.0
 10
246.231988913
 20
100.2510526692
 30
0.0
 10
246.6558615177
 20
100.0040177133
 30
0.0
 10
247.4653437895
 20
99.4953326264
 30
0.0
 10
248.2340028104
 20
98.9263222504
 30
0.0
 10
248.5949081314
 20
98.6338385188
 30
0.0
  0
SPLINE
  5
404
100
AcDbEntity
  8
7_ALL_FEATURES
100
AcDbSpline
 62
7
  6
CONTINUOUS
 70
0
 71
3
 72
39
 73
35
 74
0
 42
0.0000001
 43
0.0000001
 44
0.0000000001
 40
0.0
 40
0.0
 40
0.0
 40
0.0
 40
0.0392882046
 40
0.0773764296
 40
0.1142492536
 40
0.149901269
 40
0.1843381569
 40
0.2175778511
 40
0.2496517558
 40
0.2806059826
 40
0.3105025343
 40
0.339420317
 40
0.3674558245
 40
0.3947232829
 40
0.4213540396
 40
0.4474949983
 40
0.473305972
 40
0.4989559764
 40
0.5246186717
 40
0.5504673477
 40
0.5766699463
 40
0.6033846099
 40
0.6307561166
 40
0.6589133923
 40
0.6879680959
 40
0.7180141365
 40
0.749127912
 40
0.7813690438
 40
0.8147814231
 40
0.8493944114
 40
0.8852240867
 40
0.9222744523
 40
0.9605385036
 40
1.0
 40
1.0
 40
1.0
 40
1.0
 10
207.2744583973
 20
100.2687752977
 30
0.0
 10
206.9854477956
 20
100.116374144
 30
0.0
 10
206.4219917577
 20
99.8051610279
 30
0.0
 10
205.6099608155
 20
99.3113158217
 30
0.0
 10
204.8457784184
 20
98.7986559491
 30
0.0
 10
204.1311860329
 20
98.268331828
 30
0.0
 10
203.4677940679
 20
97.7215178537
 30
0.0
 10
202.8571062643
 20
97.1594232346
 30
0.0
 10
202.3005120786
 20
96.5832855881
 30
0.0
 10
201.7992883751
 20
95.9943698642
 30
0.0
 10
201.3545994142
 20
95.3939675446
 30
0.0
 10
200.9674975032
 20
94.7833977968
 30
0.0
 10
200.6389220704
 20
94.1640109529
 30
0.0
 10
200.3696969685
 20
93.5371933811
 30
0.0
 10
200.1605239241
 20
92.9043730617
 30
0.0
 10
200.0119711006
 20
92.2670234151
 30
0.0
 10
199.9244579942
 20
91.626662145
 30
0.0
 10
199.8982389372
 20
90.984842731
 30
0.0
 10
199.9333911827
 20
90.3431380388
 30
0.0
 10
200.0298110308
 20
89.7031193292
 30
0.0
 10
200.1872192199
 20
89.0663356675
 30
0.0
 10
200.4051740128
 20
88.4342987384
 30
0.0
 10
200.6830868681
 20
87.8084752931
 30
0.0
 10
201.0202374707
 20
87.190286892
 30
0.0
 10
201.4157846777
 20
86.5811142389
 30
0.0
 10
201.8687725483
 20
85.9823028033
 30
0.0
 10
202.3781328057
 20
85.3951677599
 30
0.0
 10
202.9426848217
 20
84.8209966896
 30
0.0
 10
203.5611351373
 20
84.2610505814
 30
0.0
 10
204.2320777123
 20
83.7165628751
 30
0.0
 10
204.9539924618
 20
83.1887382239
 30
0.0
 10
205.725252584
 20
82.6787468409
 30
0.0
 10
206.5441041427
 20
82.1877310374
 30
0.0
 10
207.1119248078
 20
81.8784436041
 30
0.0
 10
207.4030791791
 20
81.7270296696
 30
0.0
  0
SPLINE
  5
405
100
AcDbEntity
  8
7_ALL_FEATURES
100
AcDbSpline
 62
7
  6
CONTINUOUS
 70
0
 71
3
 72
22
 73
18
 74
0
 42
0.0000001
 43
0.0000001
 44
0.0000000001
 40
0.0
 40
0.0
 40
0.0
 40
0.0
 40
0.0520538009
 40
0.1044245618
 40
0.1574210062
 40
0.2113361209
 40
0.2664409684
 40
0.3229801421
 40
0.4411194844
 40
0.5031308071
 40
0.5672546533
 40
0.6335870061
 40
0.7021974443
 40
0.7731311564
 40
0.8464109702
 40
0.9220393824
 40
1.0
 40
1.0
 40
1.0
 40
1.0
 10
200.8582818917
 20
91.7219273018
 30
0.0
 10
200.858282065
 20
91.5267086109
 30
0.0
 10
200.8760445069
 20
91.1348540483
 30
0.0
 10
200.9558259974
 20
90.5491357507
 30
0.0
 10
201.0885690545
 20
89.9659213767
 30
0.0
 10
201.2739370136
 20
89.3865275111
 30
0.0
 10
201.5115042938
 20
88.8121192195
 30
0.0
 10
201.9026949302
 20
88.0434588699
 30
0.0
 10
202.3940427766
 20
87.2999954353
 30
0.0
 10
202.97100332
 20
86.5879232228
 30
0.0
 10
203.4593067167
 20
86.0556949328
 30
0.0
 10
203.9950413645
 20
85.5352168149
 30
0.0
 10
204.5771546633
 20
85.0274474712
 30
0.0
 10
205.2044433874
 20
84.5334192082
 30
0.0
 10
205.8756377369
 20
84.0541105718
 30
0.0
 10
206.5893568499
 20
83.5904926142
 30
0.0
 10
207.0851326184
 20
83.2968902358
 30
0.0
 10
207.339522529
 20
83.1527705539
 30
0.0
  0
SPLINE
  5
406
100
AcDbEntity
  8
02___PRT_ALL_AXES
100
AcDbSpline
 62
7
  6
CONTINUOUS
 70
0
 71
3
 72
23
 73
19
 74
0
 42
0.0000001
 43
0.0000001
 44
0.0000000001
 40
0.0
 40
0.0
 40
0.0
 40
0.0
 40
0.0508837149
 40
0.102132544
 40
0.1541004504
 40
0.2071202603
 40
0.2614957133
 40
0.317495978
 40
0.3753526351
 40
0.4352587613
 40
0.4973696142
 40
0.5618044251
 40
0.6286488161
 40
0.6979575004
 40
0.7697570662
 40
0.8440486484
 40
0.9208103982
 40
1.0
 40
1.0
 40
1.0
 40
1.0
 10
199.4082818012
 20
91.0315797847
 30
0.0
 10
199.4082818898
 20
91.2555160165
 30
0.0
 10
199.4304390276
 20
91.7053039601
 30
0.0
 10
199.5299228541
 20
92.3771741567
 30
0.0
 10
199.6953835737
 20
93.04561821
 30
0.0
 10
199.9263225187
 20
93.7088615781
 30
0.0
 10
200.2220724273
 20
94.3652928582
 30
0.0
 10
200.5818155454
 20
95.0133246624
 30
0.0
 10
201.0045972474
 20
95.6514259276
 30
0.0
 10
201.4893328127
 20
96.2781039886
 30
0.0
 10
202.0348095593
 20
96.8919018195
 30
0.0
 10
202.6396873517
 20
97.4913933111
 30
0.0
 10
203.3024974062
 20
98.0751826381
 30
0.0
 10
204.0216419303
 20
98.6419060043
 30
0.0
 10
204.7953930365
 20
99.19023296
 30
0.0
 10
205.6219011824
 20
99.7188734171
 30
0.0
 10
206.4991696954
 20
100.2265683289
 30
0.0
 10
207.1071955834
 20
100.5454071562
 30
0.0
 10
207.418911306
 20
100.7012650175
 30
0.0
  0
SPLINE
  5
407
100
AcDbEntity
  8
7_ALL_FEATURES
100
AcDbSpline
 62
7
  6
CONTINUOUS
 70
0
 71
3
 72
24
 73
20
 74
0
 42
0.0000001
 43
0.0000001
 44
0.0000000001
 40
0.0
 40
0.0
 40
0.0
 40
0.0
 40
0.0535361495
 40
0.1064055969
 40
0.1590896872
 40
0.2120771099
 40
0.265844583
 40
0.320839169
 40
0.3774642553
 40
0.4360703367
 40
0.4662169341
 40
0.4969637215
 40
0.5603528746
 40
0.6264300232
 40
0.6953218701
 40
0.7671074312
 40
0.8418227642
 40
0.9194656195
 40
1.0
 40
1.0
 40
1.0
 40
1.0
 10
253.3728420877
 20
89.2576238731
 30
0.0
 10
253.4380993594
 20
89.5023860435
 30
0.0
 10
253.542318961
 20
89.9961298388
 30
0.0
 10
253.6162152402
 20
90.746731116
 30
0.0
 10
253.6060313968
 20
91.4983974823
 30
0.0
 10
253.5117848271
 20
92.248434372
 30
0.0
 10
253.3338907617
 20
92.9943169256
 30
0.0
 10
253.0730747965
 20
93.7335780034
 30
0.0
 10
252.7303705197
 20
94.4638337607
 30
0.0
 10
252.3808511112
 20
95.0574441055
 30
0.0
 10
252.063113218
 20
95.5253115661
 30
0.0
 10
251.7126503157
 20
95.9977164099
 30
0.0
 10
251.2243586869
 20
96.5786522704
 30
0.0
 10
250.5686408824
 20
97.2512092383
 30
0.0
 10
249.8393039332
 20
97.9042529083
 30
0.0
 10
249.0386440077
 20
98.5358008531
 30
0.0
 10
248.169120052
 20
99.1439725989
 30
0.0
 10
247.2334382663
 20
99.7269179381
 30
0.0
 10
246.5791699087
 20
100.0910344119
 30
0.0
 10
246.2421049322
 20
100.2687751965
 30
0.0
  0
SPLINE
  5
408
100
AcDbEntity
  8
02___PRT_ALL_AXES
100
AcDbSpline
 62
7
  6
CONTINUOUS
 70
0
 71
3
 72
20
 73
16
 74
0
 42
0.0000001
 43
0.0000001
 44
0.0000000001
 40
0.0
 40
0.0
 40
0.0
 40
0.0
 40
0.0121867019
 40
0.0201265871
 40
0.0294801322
 40
0.0527727605
 40
0.0826041424
 40
0.1193197237
 40
0.1631725124
 40
0.2143477341
 40
0.2729679216
 40
0.4126894625
 40
0.5818906614
 40
0.7787487898
 40
1.0
 40
1.0
 40
1.0
 40
1.0
 10
252.5730082378
 20
91.7686426353
 30
0.0
 10
252.5689882079
 20
91.7706526842
 30
0.0
 10
252.5634010269
 20
91.7759258155
 30
0.0
 10
252.5569892574
 20
91.7846687881
 30
0.0
 10
252.5493937827
 20
91.7976118234
 30
0.0
 10
252.5401513241
 20
91.818777532
 30
0.0
 10
252.5296596803
 20
91.8502334948
 30
0.0
 10
252.5192597858
 20
91.8896211481
 30
0.0
 10
252.5090775347
 20
91.9371436069
 30
0.0
 10
252.4992608212
 20
91.9929642454
 30
0.0
 10
252.4860737646
 20
92.0840494256
 30
0.0
 10
252.4719784028
 20
92.2189182542
 30
0.0
 10
252.4595573628
 20
92.4050708822
 30
0.0
 10
252.4517770275
 20
92.6215644902
 30
0.0
 10
252.4501829502
 20
92.7757742205
 30
0.0
 10
252.4501829502
 20
92.8573732923
 30
0.0
  0
SPLINE
  5
409
100
AcDbEntity
  8
02___PRT_ALL_AXES
100
AcDbSpline
 62
7
  6
CONTINUOUS
 70
0
 71
3
 72
9
 73
5
 74
0
 42
0.0000001
 43
0.0000001
 44
0.0000000001
 40
0.0
 40
0.0
 40
0.0
 40
0.0
 40
0.2395131917
 40
1.0
 40
1.0
 40
1.0
 40
1.0
 10
252.4501829502
 20
92.8573732923
 30
0.0
 10
252.4501829502
 20
92.8947834934
 30
0.0
 10
252.4509318102
 20
93.0509760041
 30
0.0
 10
252.4544584244
 20
93.2071488683
 30
0.0
 10
252.4583142174
 20
93.3258687234
 30
0.0
  0
SPLINE
  5
40A
100
AcDbEntity
  8
02___PRT_ALL_AXES
100
AcDbSpline
 62
7
  6
CONTINUOUS
 70
0
 71
3
 72
42
 73
38
 74
0
 42
0.0000001
 43
0.0000001
 44
0.0000000001
 40
0.0
 40
0.0
 40
0.0
 40
0.0
 40
0.0094976267
 40
0.0190337117
 40
0.0286460451
 40
0.0383711214
 40
0.0482435869
 40
0.0582957858
 40
0.0790454536
 40
0.1008337355
 40
0.1238148903
 40
0.148096683
 40
0.1737445763
 40
0.2007868386
 40
0.2292196285
 40
0.2590116317
 40
0.2901081018
 40
0.322434334
 40
0.3558986357
 40
0.3903949019
 40
0.4258048676
 40
0.4620001273
 40
0.4988439664
 40
0.5361930667
 40
0.5738991102
 40
0.6118103202
 40
0.6497729578
 40
0.6876327946
 40
0.7252365815
 40
0.7624335264
 40
0.7990768046
 40
0.8350251156
 40
0.8701443209
 40
0.9043091821
 40
0.9374052546
 40
0.969330976
 40
1.0
 40
1.0
 40
1.0
 40
1.0
 10
254.1082817416
 20
91.0315797847
 30
0.0
 10
254.108281808
 20
91.1994730656
 30
0.0
 10
254.0958650669
 20
91.5360702221
 30
0.0
 10
254.0400576025
 20
92.0398040863
 30
0.0
 10
253.9471430669
 20
92.5421381773
 30
0.0
 10
253.8172704597
 20
93.0423269903
 30
0.0
 10
253.6506284069
 20
93.5397013972
 30
0.0
 10
253.3769428533
 20
94.2050830993
 30
0.0
 10
252.9399113238
 20
95.0285774473
 30
0.0
 10
252.2792926106
 20
95.9827256971
 30
0.0
 10
251.4809186212
 20
96.908804332
 30
0.0
 10
250.5493923562
 20
97.8020504311
 30
0.0
 10
249.4898146243
 20
98.658021906
 30
0.0
 10
248.3078988643
 20
99.4723492059
 30
0.0
 10
247.0099680828
 20
100.2408299836
 30
0.0
 10
245.6029575579
 20
100.9594435757
 30
0.0
 10
244.0943926352
 20
101.6243943862
 30
0.0
 10
242.4923562168
 20
102.2321432996
 30
0.0
 10
240.8054480455
 20
102.77943844
 30
0.0
 10
239.0427382311
 20
103.2633394311
 30
0.0
 10
237.2137173803
 20
103.6812395491
 30
0.0
 10
235.3282435774
 20
104.030882664
 30
0.0
 10
233.3964875919
 20
104.3103788814
 30
0.0
 10
231.4288761625
 20
104.5182155358
 30
0.0
 10
229.4360342365
 20
104.6532674599
 30
0.0
 10
227.4287260706
 20
104.71480279
 30
0.0
 10
225.4177957937
 20
104.7024883622
 30
0.0
 10
223.4141075225
 20
104.6163906343
 30
0.0
 10
221.4284853841
 20
104.4569763754
 30
0.0
 10
219.4716538331
 20
104.2251087926
 30
0.0
 10
217.5541780897
 20
103.9220434224
 30
0.0
 10
215.6864064312
 20
103.5494196577
 30
0.0
 10
213.8784099436
 20
103.1092505478
 30
0.0
 10
212.139936097
 20
102.6039132755
 30
0.0
 10
210.4803202417
 20
102.0361182773
 30
0.0
 10
208.9085546447
 20
101.4089475081
 30
0.0
 10
207.9038235691
 20
100.9437211491
 30
0.0
 10
207.418911306
 20
100.7012650175
 30
0.0
  0
SPLINE
  5
40B
100
AcDbEntity
  8
7_ALL_FEATURES
100
AcDbSpline
 62
7
  6
CONTINUOUS
 70
0
 71
3
 72
11
 73
7
 74
0
 42
0.0000001
 43
0.0000001
 44
0.0000000001
 40
0.0
 40
0.0
 40
0.0
 40
0.0
 40
0.233465929
 40
0.4781835408
 40
0.7338512466
 40
1.0
 40
1.0
 40
1.0
 40
1.0
 10
205.611020387
 20
98.8835434675
 30
0.0
 10
205.9714966905
 20
98.6286479425
 30
0.0
 10
206.7288407447
 20
98.1330811144
 30
0.0
 10
207.9368886039
 20
97.4484834126
 30
0.0
 10
209.2381624671
 20
96.8081697124
 30
0.0
 10
210.1460942243
 20
96.4203766974
 30
0.0
 10
210.6136202828
 20
96.2340270215
 30
0.0
  0
SPLINE
  5
40C
100
AcDbEntity
  8
7_ALL_FEATURES
100
AcDbSpline
 62
7
  6
CONTINUOUS
 70
0
 71
3
 72
15
 73
11
 74
0
 42
0.0000001
 43
0.0000001
 44
0.0000000001
 40
0.0
 40
0.0
 40
0.0
 40
0.0
 40
0.1020723935
 40
0.207011286
 40
0.3173570539
 40
0.4351112383
 40
0.5616688626
 40
0.6978525274
 40
0.8439882389
 40
1.0
 40
1.0
 40
1.0
 40
1.0
 10
240.5154577384
 20
102.3016766323
 30
0.0
 10
240.5154575774
 20
102.2688469263
 30
0.0
 10
240.5088086006
 20
102.2020908692
 30
0.0
 10
240.47923536
 20
102.1038133964
 30
0.0
 10
240.430551394
 20
102.0078320657
 30
0.0
 10
240.3634531288
 20
101.9150865691
 30
0.0
 10
240.27871635
 20
101.8263409889
 30
0.0
 10
240.1771977468
 20
101.7423362641
 30
0.0
 10
240.0598791782
 20
101.6637929975
 30
0.0
 10
239.9745522673
 20
101.6170102737
 30
0.0
 10
239.9296714221
 20
101.5945698511
 30
0.0
  0
SPLINE
  5
40D
100
AcDbEntity
  8
02___PRT_ALL_AXES
100
AcDbSpline
 62
7
  6
CONTINUOUS
 70
0
 71
3
 72
23
 73
19
 74
0
 42
0.0000001
 43
0.0000001
 44
0.0000000001
 40
0.0
 40
0.0
 40
0.0
 40
0.0
 40
0.0791896137
 40
0.1559513519
 40
0.2302429331
 40
0.3020424989
 40
0.3713511853
 40
0.4381955738
 40
0.5026303853
 40
0.5647412404
 40
0.6246473635
 40
0.682504022
 40
0.7385042878
 40
0.7928797387
 40
0.8458995499
 40
0.8978674564
 40
0.9491162849
 40
1.0
 40
1.0
 40
1.0
 40
1.0
 10
202.1509657861
 20
80.8929853016
 30
0.0
 10
201.7543402371
 20
81.091298076
 30
0.0
 10
200.9806912122
 20
81.4969869761
 30
0.0
 10
199.8644592422
 20
82.1429753656
 30
0.0
 10
198.8128145796
 20
82.8156147598
 30
0.0
 10
197.8282976518
 20
83.5133032029
 30
0.0
 10
196.9132617677
 20
84.2343990198
 30
0.0
 10
196.0699057292
 20
84.9772096696
 30
0.0
 10
195.3002623146
 20
85.7399995603
 30
0.0
 10
194.6062003786
 20
86.5209926799
 30
0.0
 10
193.9894255007
 20
87.3183747764
 30
0.0
 10
193.4514801395
 20
88.1302914868
 30
0.0
 10
192.993744746
 20
88.9548438003
 30
0.0
 10
192.6174342968
 20
89.7900836986
 30
0.0
 10
192.3235885828
 20
90.6339910877
 30
0.0
 10
192.1130571988
 20
91.484515899
 30
0.0
 10
191.9864747369
 20
92.3394001137
 30
0.0
 10
191.9582817714
 20
92.9117079782
 30
0.0
 10
191.9582817714
 20
93.1966432942
 30
0.0
  0
SPLINE
  5
40E
100
AcDbEntity
  8
7_ALL_FEATURES
100
AcDbSpline
 62
7
  6
CONTINUOUS
 70
0
 71
3
 72
9
 73
5
 74
0
 42
0.0000001
 43
0.0000001
 44
0.0000000001
 40
0.0
 40
0.0
 40
0.0
 40
0.0
 40
0.5139670057
 40
1.0
 40
1.0
 40
1.0
 40
1.0
 10
247.0876017305
 20
127.1770018778
 30
0.0
 10
247.6483064713
 20
126.8966495075
 30
0.0
 10
248.7216596148
 20
126.3150032084
 30
0.0
 10
249.7485265309
 20
125.6540145225
 30
0.0
 10
250.2325584613
 20
125.3117520137
 30
0.0
  0
SPLINE
  5
40F
100
AcDbEntity
  8
02___PRT_ALL_AXES
100
AcDbSpline
 62
7
  6
CONTINUOUS
 70
0
 71
3
 72
11
 73
7
 74
0
 42
0.0000001
 43
0.0000001
 44
0.0000000001
 40
0.0
 40
0.0
 40
0.0
 40
0.0
 40
0.2396040105
 40
0.4863558355
 40
0.7399416551
 40
1.0
 40
1.0
 40
1.0
 40
1.0
 10
202.1509657861
 20
80.8929853016
 30
0.0
 10
202.5870711071
 20
80.674932641
 30
0.0
 10
203.481783191
 20
80.2510818442
 30
0.0
 10
204.8671830264
 20
79.6603472356
 30
0.0
 10
206.3124366558
 20
79.1066379156
 30
0.0
 10
207.301304806
 20
78.7672788448
 30
0.0
 10
207.8046388796
 20
78.6038418086
 30
0.0
  0
SPLINE
  5
410
100
AcDbEntity
  8
02___PRT_ALL_AXES
100
AcDbSpline
 62
7
  6
CONTINUOUS
 70
0
 71
3
 72
19
 73
15
 74
0
 42
0.0000001
 43
0.0000001
 44
0.0000000001
 40
0.0
 40
0.0
 40
0.0
 40
0.0
 40
0.1511561154
 40
0.2234403909
 40
0.2935407802
 40
0.4273189566
 40
0.5530799933
 40
0.6717295592
 40
0.7288126591
 40
0.7846348554
 40
0.8394164877
 40
0.8933980115
 40
0.9468363252
 40
1.0
 40
1.0
 40
1.0
 40
1.0
 10
254.1276256085
 20
82.4500273406
 30
0.0
 10
254.706734403
 20
82.8187439965
 30
0.0
 10
255.5429840226
 20
83.39637322
 30
0.0
 10
256.5877126588
 20
84.225244101
 30
0.0
 10
257.5334282729
 20
85.0497191723
 30
0.0
 10
258.5896650425
 20
86.1149337117
 30
0.0
 10
259.6584178681
 20
87.4644634755
 30
0.0
 10
260.369181736
 20
88.6402066798
 30
0.0
 10
260.8144229488
 20
89.5938846488
 30
0.0
 10
261.0851023143
 20
90.3065627798
 30
0.0
 10
261.2961936865
 20
91.0244485186
 30
0.0
 10
261.44729044
 20
91.7463103583
 30
0.0
 10
261.5380754309
 20
92.4707735646
 30
0.0
 10
261.5582817714
 20
92.9551824417
 30
0.0
 10
261.5582817714
 20
93.1966432942
 30
0.0
  0
SPLINE
  5
411
100
AcDbEntity
  8
7_ALL_FEATURES
100
AcDbSpline
 62
7
  6
CONTINUOUS
 70
0
 71
3
 72
18
 73
14
 74
0
 42
0.0000001
 43
0.0000001
 44
0.0000000001
 40
0.0
 40
0.0
 40
0.0
 40
0.0
 40
0.1488758071
 40
0.2895400594
 40
0.4223295634
 40
0.5478474862
 40
0.6669940517
 40
0.7245783131
 40
0.7810509353
 40
0.8366100296
 40
0.8914691246
 40
0.9458542
 40
1.0
 40
1.0
 40
1.0
 40
1.0
 10
251.4573033097
 20
124.4457266018
 30
0.0
 10
251.8929109721
 20
124.137705148
 30
0.0
 10
252.7182437698
 20
123.5066941159
 30
0.0
 10
253.8389174242
 20
122.4865678854
 30
0.0
 10
254.8005802208
 20
121.4251589721
 30
0.0
 10
255.5971353046
 20
120.3284508904
 30
0.0
 10
256.1250257456
 20
119.3789559008
 30
0.0
 10
256.4556296983
 20
118.6108096423
 30
0.0
 10
256.6568202013
 20
118.0366866545
 30
0.0
 10
256.813651413
 20
117.4590033873
 30
0.0
 10
256.9258712782
 20
116.8786050674
 30
0.0
 10
256.9932817222
 20
116.2964336431
 30
0.0
 10
257.0082817714
 20
115.9073396245
 30
0.0
 10
257.0082817714
 20
115.7133037926
 30
0.0
  0
SPLINE
  5
412
100
AcDbEntity
  8
02___PRT_ALL_AXES
100
AcDbSpline
 62
7
  6
CONTINUOUS
 70
0
 71
3
 72
42
 73
38
 74
0
 42
0.0000001
 43
0.0000001
 44
0.0000000001
 40
0.0
 40
0.0
 40
0.0
 40
0.0
 40
0.0094976268
 40
0.0190337117
 40
0.0286460451
 40
0.0383711215
 40
0.0482435872
 40
0.058295786
 40
0.0790454538
 40
0.1008337353
 40
0.1238148899
 40
0.1480966825
 40
0.1737445764
 40
0.2007868388
 40
0.2292196289
 40
0.2590116316
 40
0.2901081015
 40
0.3224343334
 40
0.3558986356
 40
0.3903949018
 40
0.4258048679
 40
0.4620001272
 40
0.4988439663
 40
0.5361930665
 40
0.57389911
 40
0.6118103201
 40
0.6497729576
 40
0.6876327944
 40
0.7252365813
 40
0.7624335264
 40
0.7990768045
 40
0.8350251156
 40
0.8701443204
 40
0.9043091818
 40
0.9374052546
 40
0.969330977
 40
1.0
 40
1.0
 40
1.0
 40
1.0
 10
199.2582817714
 20
91.0315797847
 30
0.0
 10
199.2582817714
 20
91.2003938701
 30
0.0
 10
199.2707665734
 20
91.5388370782
 30
0.0
 10
199.3268801109
 20
92.0453336534
 30
0.0
 10
199.420304221
 20
92.5504227805
 30
0.0
 10
199.5508891676
 20
93.0533548522
 30
0.0
 10
199.7184452196
 20
93.5534570713
 30
0.0
 10
199.9936317269
 20
94.2224880585
 30
0.0
 10
200.4330601757
 20
95.0504987992
 30
0.0
 10
201.097301951
 20
96.0098800706
 30
0.0
 10
201.9000545811
 20
96.9410377424
 30
0.0
 10
202.8366897493
 20
97.8391828389
 30
0.0
 10
203.902078753
 20
98.6998488001
 30
0.0
 10
205.0904766858
 20
99.518642268
 30
0.0
 10
206.3955259381
 20
100.2913377053
 30
0.0
 10
207.8102531159
 20
101.0138925635
 30
0.0
 10
209.3270916941
 20
101.6824902465
 30
0.0
 10
210.9379143946
 20
102.2935723953
 30
0.0
 10
212.6340743757
 20
102.8438690785
 30
0.0
 10
214.4064517073
 20
103.3304240376
 30
0.0
 10
216.2455037653
 20
103.750616046
 30
0.0
 10
218.1413183594
 20
104.1021768331
 30
0.0
 10
220.0836689795
 20
104.3832058992
 30
0.0
 10
222.0620716847
 20
104.5921825105
 30
0.0
 10
224.0658432775
 20
104.7279750447
 30
0.0
 10
226.0841604453
 20
104.7898479029
 30
0.0
 10
228.1061195877
 20
104.7774658516
 30
0.0
 10
230.1207970084
 20
104.6908959969
 30
0.0
 10
232.1173092122
 20
104.5306073832
 30
0.0
 10
234.0848729416
 20
104.2974682336
 30
0.0
 10
236.0128649967
 20
103.9927406402
 30
0.0
 10
237.890880374
 20
103.6180732911
 30
0.0
 10
239.708792716
 20
103.1754899867
 30
0.0
 10
241.4568011757
 20
102.66738129
 30
0.0
 10
243.1255191275
 20
102.0964721564
 30
0.0
 10
244.7059050602
 20
101.4658618068
 30
0.0
 10
245.7161465253
 20
100.9980838904
 30
0.0
 10
246.203718254
 20
100.7542980261
 30
0.0
  0
SPLINE
  5
413
100
AcDbEntity
  8
02___PRT_ALL_AXES
100
AcDbSpline
 62
7
  6
CONTINUOUS
 70
0
 71
3
 72
42
 73
38
 74
0
 42
0.0000001
 43
0.0000001
 44
0.0000000001
 40
0.0
 40
0.0
 40
0.0
 40
0.0
 40
0.0094976268
 40
0.0190337117
 40
0.028646045
 40
0.0383711213
 40
0.0482435869
 40
0.0582957858
 40
0.0790454536
 40
0.1008337353
 40
0.1238148905
 40
0.1480966826
 40
0.1737445766
 40
0.2007868382
 40
0.2292196287
 40
0.2590116315
 40
0.2901081019
 40
0.3224343339
 40
0.3558986356
 40
0.3903949019
 40
0.4258048675
 40
0.4620001273
 40
0.4988439664
 40
0.5361930667
 40
0.5738991102
 40
0.6118103202
 40
0.6497729577
 40
0.6876327947
 40
0.7252365813
 40
0.7624335265
 40
0.7990768043
 40
0.8350251157
 40
0.8701443207
 40
0.9043091822
 40
0.9374052546
 40
0.9693309767
 40
1.0
 40
1.0
 40
1.0
 40
1.0
 10
191.9582817714
 20
93.6296559961
 30
0.0
 10
191.9582817714
 20
93.8432825479
 30
0.0
 10
191.9740807497
 20
94.271567044
 30
0.0
 10
192.045089901
 20
94.9125154324
 30
0.0
 10
192.1633138215
 20
95.5516827647
 30
0.0
 10
192.3285630456
 20
96.1881204562
 30
0.0
 10
192.540597586
 20
96.8209770918
 30
0.0
 10
192.8888336763
 20
97.6676053685
 30
0.0
 10
193.4449103689
 20
98.7154153491
 30
0.0
 10
194.2854781835
 20
99.9294687448
 30
0.0
 10
195.3013252508
 20
101.1078063669
 30
0.0
 10
196.4865943878
 20
102.2443682664
 30
0.0
 10
197.8347957853
 20
103.3335018275
 30
0.0
 10
199.3386592459
 20
104.3696478841
 30
0.0
 10
200.9901398108
 20
105.3474587358
 30
0.0
 10
202.7804127449
 20
106.2618191163
 30
0.0
 10
204.6999030644
 20
107.1078990374
 30
0.0
 10
206.7383259863
 20
107.8811956884
 30
0.0
 10
208.8847393109
 20
108.577571217
 30
0.0
 10
211.1276022585
 20
109.1932843411
 30
0.0
 10
213.4548390203
 20
109.7250183468
 30
0.0
 10
215.8539062404
 20
110.169902425
 30
0.0
 10
218.3118626666
 20
110.5255319911
 30
0.0
 10
220.8154413763
 20
110.7899823068
 30
0.0
 10
223.3511232439
 20
110.961821622
 30
0.0
 10
225.905211877
 20
111.0401189646
 30
0.0
 10
228.4639092663
 20
111.0244500076
 30
0.0
 10
231.0133919712
 20
110.9148998748
 30
0.0
 10
233.5398874048
 20
110.7120617944
 30
0.0
 10
236.0297498695
 20
110.4170348657
 30
0.0
 10
238.4695361688
 20
110.0314158542
 30
0.0
 10
240.8460792874
 20
109.5572914415
 30
0.0
 10
243.1465647415
 20
108.9972223953
 30
0.0
 10
245.3585899838
 20
108.3542339212
 30
0.0
 10
247.4702767091
 20
107.63177442
 30
0.0
 10
249.4701832106
 20
106.8337655552
 30
0.0
 10
250.7485978902
 20
106.241813922
 30
0.0
 10
251.3655977567
 20
105.9333139887
 30
0.0
  0
SPLINE
  5
414
100
AcDbEntity
  8
7_ALL_FEATURES
100
AcDbSpline
 62
7
  6
CONTINUOUS
 70
0
 71
3
 72
11
 73
7
 74
0
 42
0.0000001
 43
0.0000001
 44
0.0000000001
 40
0.0
 40
0.0
 40
0.0
 40
0.0
 40
0.2329919392
 40
0.4770010237
 40
0.7325684681
 40
1.0
 40
1.0
 40
1.0
 40
1.0
 10
198.5319220015
 20
121.1524009672
 30
0.0
 10
198.7615154738
 20
121.4502719185
 30
0.0
 10
199.259559819
 20
122.0389123869
 30
0.0
 10
200.094929106
 20
122.8773975885
 30
0.0
 10
201.031995332
 20
123.6880993998
 30
0.0
 10
201.7067980821
 20
124.1964979922
 30
0.0
 10
202.0592602274
 20
124.4457266038
 30
0.0
  0
SPLINE
  5
415
100
AcDbEntity
  8
7_ALL_FEATURES
100
AcDbSpline
 62
7
  6
CONTINUOUS
 70
0
 71
3
 72
31
 73
27
 74
0
 42
0.0000001
 43
0.0000001
 44
0.0000000001
 40
0.0
 40
0.0
 40
0.0
 40
0.0
 40
0.0247534314
 40
0.0504353077
 40
0.0770305065
 40
0.1045151351
 40
0.1328575217
 40
0.1620190867
 40
0.1919551075
 40
0.2226154257
 40
0.253945085
 40
0.285884901
 40
0.351332965
 40
0.4184289817
 40
0.4865977129
 40
0.555241055
 40
0.6237509845
 40
0.6915222558
 40
0.7579651595
 40
0.8225187156
 40
0.8539271089
 40
0.8846732646
 40
0.9147016675
 40
0.9439615497
 40
0.9724073733
 40
1.0
 40
1.0
 40
1.0
 40
1.0
 10
203.2840052532
 20
125.311751953
 30
0.0
 10
203.5907303508
 20
125.5286392708
 30
0.0
 10
204.2280188925
 20
125.95332166
 30
0.0
 10
205.232596158
 20
126.5520200368
 30
0.0
 10
206.3006704026
 20
127.1225237578
 30
0.0
 10
207.4290659482
 20
127.6631436797
 30
0.0
 10
208.6144780733
 20
128.1723071305
 30
0.0
 10
209.8534177712
 20
128.6485188301
 30
0.0
 10
211.1422405475
 20
129.0903813216
 30
0.0
 10
212.4771473875
 20
129.4965924014
 30
0.0
 10
213.8542175078
 20
129.8659628071
 30
0.0
 10
215.75645204
 20
130.3114492126
 30
0.0
 10
218.2123989081
 20
130.7671379689
 30
0.0
 10
221.2360660732
 20
131.148427986
 30
0.0
 10
224.3246475491
 20
131.3640680502
 30
0.0
 10
227.4417949567
 20
131.4115049313
 30
0.0
 10
230.550913447
 20
131.2901796955
 30
0.0
 10
233.6155095331
 20
131.0015245748
 30
0.0
 10
236.5995233382
 20
130.5489540885
 30
0.0
 10
239.0117746175
 20
130.0350405687
 30
0.0
 10
240.871331769
 20
129.5442907901
 30
0.0
 10
242.2116771493
 20
129.142566476
 30
0.0
 10
243.5064035009
 20
128.7050463166
 30
0.0
 10
244.7517167929
 20
128.2330050405
 30
0.0
 10
245.9439213904
 20
127.7278472436
 30
0.0
 10
246.7130623239
 20
127.3642715811
 30
0.0
 10
247.0876017305
 20
127.1770018778
 30
0.0
  0
SPLINE
  5
416
100
AcDbEntity
  8
02___PRT_ALL_AXES
100
AcDbSpline
 62
7
  6
CONTINUOUS
 70
0
 71
3
 72
17
 73
13
 74
0
 42
0.0000001
 43
0.0000001
 44
0.0000000001
 40
0.0
 40
0.0
 40
0.0
 40
0.0
 40
0.0506271107
 40
0.1021509528
 40
0.1547920609
 40
0.2087495365
 40
0.3212327243
 40
0.4407898605
 40
0.5681689901
 40
0.703784999
 40
0.847766303
 40
1.0
 40
1.0
 40
1.0
 40
1.0
 10
254.0998358523
 20
92.5054708187
 30
0.0
 10
254.0579034861
 20
92.6999378603
 30
0.0
 10
253.9570386715
 20
93.0889922021
 30
0.0
 10
253.7578820937
 20
93.6643256094
 30
0.0
 10
253.5101311561
 20
94.2347851768
 30
0.0
 10
253.1102448002
 20
94.9978697848
 30
0.0
 10
252.4848878094
 20
95.935928017
 30
0.0
 10
251.5611296085
 20
97.0082172731
 30
0.0
 10
250.4607103686
 20
98.0361310971
 30
0.0
 10
249.1917007953
 20
99.0127964753
 30
0.0
 10
247.7631695694
 20
99.9317452868
 30
0.0
 10
246.738759474
 20
100.4867774161
 30
0.0
 10
246.203718254
 20
100.7542980261
 30
0.0
  0
SPLINE
  5
417
100
AcDbEntity
  8
02___PRT_ALL_AXES
100
AcDbSpline
 62
7
  6
CONTINUOUS
 70
0
 71
3
 72
23
 73
19
 74
0
 42
0.0000001
 43
0.0000001
 44
0.0000000001
 40
0.0
 40
0.0
 40
0.0
 40
0.0
 40
0.0508837151
 40
0.1021325436
 40
0.1541004501
 40
0.2071202613
 40
0.2614957122
 40
0.317495978
 40
0.3753526365
 40
0.4352587596
 40
0.4973696147
 40
0.5618044262
 40
0.6286488147
 40
0.6979575011
 40
0.7697570669
 40
0.8440486481
 40
0.9208103863
 40
1.0
 40
1.0
 40
1.0
 40
1.0
 10
261.5582817714
 20
93.6296559961
 30
0.0
 10
261.5582817714
 20
93.9145913121
 30
0.0
 10
261.5300888059
 20
94.4868991766
 30
0.0
 10
261.403506344
 20
95.3417833913
 30
0.0
 10
261.19297496
 20
96.1923082026
 30
0.0
 10
260.899129246
 20
97.0362155917
 30
0.0
 10
260.5228187968
 20
97.87145549
 30
0.0
 10
260.0650834033
 20
98.6960078035
 30
0.0
 10
259.5271380421
 20
99.5079245139
 30
0.0
 10
258.9103631642
 20
100.3053066104
 30
0.0
 10
258.2163012282
 20
101.08629973
 30
0.0
 10
257.4466578136
 20
101.8490896207
 30
0.0
 10
256.6033017751
 20
102.5919002705
 30
0.0
 10
255.688265891
 20
103.3129960874
 30
0.0
 10
254.7037489632
 20
104.0106845305
 30
0.0
 10
253.6521043006
 20
104.6833239247
 30
0.0
 10
252.5358723306
 20
105.3293123142
 30
0.0
 10
251.7622233057
 20
105.7350012143
 30
0.0
 10
251.3655977567
 20
105.9333139887
 30
0.0
  0
SPLINE
  5
418
100
AcDbEntity
  8
7_ALL_FEATURES
100
AcDbSpline
 62
9
  6
CONTINUOUS
 70
0
 71
3
 72
57
 73
53
 74
0
 42
0.0000001
 43
0.0000001
 44
0.0000000001
 40
0.0
 40
0.0
 40
0.0
 40
0.0
 40
0.0157852133
 40
0.031086413
 40
0.0458952765
 40
0.0602073778
 40
0.0740229656
 40
0.0873473342
 40
0.1001913909
 40
0.1125722032
 40
0.1245135383
 40
0.1360463454
 40
0.1472091102
 40
0.1580479938
 40
0.1686166512
 40
0.1789756285
 40
0.1891912692
 40
0.1993341304
 40
0.2094769914
 40
0.2196926322
 40
0.23005161
 40
0.2406202681
 40
0.2514591516
 40
0.2626219152
 40
0.2741547213
 40
0.2860960569
 40
0.2984768706
 40
0.3113209284
 40
0.3246452964
 40
0.338460882
 40
0.3527729858
 40
0.367581835
 40
0.3828830818
 40
0.3986682625
 40
0.4149252148
 40
0.4316384513
 40
0.4487894983
 40
0.4663571992
 40
0.5026419037
 40
0.5402842988
 40
0.5790439152
 40
0.6186592295
 40
0.6588533638
 40
0.699339394
 40
0.7398254241
 40
0.780019559
 40
0.8196348726
 40
0.8583944886
 40
0.8960368854
 40
0.9323215888
 40
0.967035492
 40
1.0
 40
1.0
 40
1.0
 40
1.0
 10
206.4172767937
 20
80.9526715489
 30
0.0
 10
206.0894160599
 20
81.1166019158
 30
0.0
 10
205.4498992108
 20
81.4519539333
 30
0.0
 10
204.5271949605
 20
81.9859440337
 30
0.0
 10
203.6578802609
 20
82.5419636387
 30
0.0
 10
202.8440543953
 20
83.1186900375
 30
0.0
 10
202.0876635002
 20
83.7147652817
 30
0.0
 10
201.3905248472
 20
84.3287905562
 30
0.0
 10
200.7543189625
 20
84.9593312266
 30
0.0
 10
200.1805906899
 20
85.6049192076
 30
0.0
 10
199.6707495475
 20
86.2640545752
 30
0.0
 10
199.2260708076
 20
86.9352045526
 30
0.0
 10
198.8476955367
 20
87.6167998225
 30
0.0
 10
198.5366280417
 20
88.3072281906
 30
0.0
 10
198.2937282728
 20
89.004826796
 30
0.0
 10
198.1196979817
 20
89.7078760604
 30
0.0
 10
198.0150618028
 20
90.4145996694
 30
0.0
 10
197.9801460001
 20
91.1231740342
 30
0.0
 10
198.0150615586
 20
91.8317484173
 30
0.0
 10
198.1196977598
 20
92.5384720444
 30
0.0
 10
198.2937283018
 20
93.2415212801
 30
0.0
 10
198.5366282847
 20
93.9391198296
 30
0.0
 10
198.8476957219
 20
94.6295481987
 30
0.0
 10
199.2260707582
 20
95.3111435367
 30
0.0
 10
199.6707493235
 20
95.9822935895
 30
0.0
 10
200.1805905416
 20
96.6414289306
 30
0.0
 10
200.7543190261
 20
97.2870168199
 30
0.0
 10
201.3905250346
 20
97.9175574066
 30
0.0
 10
202.0876636528
 20
98.5315827353
 30
0.0
 10
202.8440541959
 20
99.1276580682
 30
0.0
 10
203.6578805833
 20
99.7043846608
 30
0.0
 10
204.5271927996
 20
100.2604033474
 30
0.0
 10
205.4499094125
 20
100.7943988881
 30
0.0
 10
206.4238211146
 20
101.305103617
 30
0.0
 10
207.4465961301
 20
101.7913022972
 30
0.0
 10
208.5157815303
 20
102.2518325445
 30
0.0
 10
209.6288233878
 20
102.6856014287
 30
0.0
 10
211.1844876678
 20
103.2327379029
 30
0.0
 10
213.2218876805
 20
103.8405616316
 30
0.0
 10
215.7702984397
 20
104.4407069732
 30
0.0
 10
218.4239126882
 20
104.9135780503
 30
0.0
 10
221.1572922351
 20
105.2546262269
 30
0.0
 10
223.9443118774
 20
105.4605777076
 30
0.0
 10
226.7582817164
 20
105.5294489499
 30
0.0
 10
229.5722518682
 20
105.4605774945
 30
0.0
 10
232.3592706097
 20
105.2546265082
 30
0.0
 10
235.0926534562
 20
104.9135777799
 30
0.0
 10
237.7462556746
 20
104.4407076273
 30
0.0
 10
240.2947093901
 20
103.8405589057
 30
0.0
 10
242.7137685715
 20
103.1188415804
 30
0.0
 10
244.9802390178
 20
102.2825081931
 30
0.0
 10
246.4146100447
 20
101.6360148788
 30
0.0
 10
247.0992867491
 20
101.2936765266
 30
0.0
  0
SPLINE
  5
419
100
AcDbEntity
  8
7_ALL_FEATURES
100
AcDbSpline
 62
7
  6
CONTINUOUS
 70
0
 71
3
 72
9
 73
5
 74
0
 42
0.0000001
 43
0.0000001
 44
0.0000000001
 40
0.0
 40
0.0
 40
0.0
 40
0.0
 40
0.5139669794
 40
1.0
 40
1.0
 40
1.0
 40
1.0
 10
248.1482619023
 20
126.408293858
 30
0.0
 10
248.7382207709
 20
126.1133144238
 30
0.0
 10
249.8675749086
 20
125.5013213117
 30
0.0
 10
250.9480175679
 20
124.8058463795
 30
0.0
 10
251.4573033097
 20
124.4457266018
 30
0.0
  0
SPLINE
  5
41A
100
AcDbEntity
  8
02___PRT_ALL_AXES
100
AcDbSpline
 62
7
  6
CONTINUOUS
 70
0
 71
3
 72
22
 73
18
 74
0
 42
0.0000001
 43
0.0000001
 44
0.0000000001
 40
0.0
 40
0.0
 40
0.0
 40
0.0
 40
0.0791959211
 40
0.1559636505
 40
0.2302611046
 40
0.3020663432
 40
0.3713804994
 40
0.4382301637
 40
0.5026700653
 40
0.5647858185
 40
0.6824789576
 40
0.7384836448
 40
0.7928633889
 40
0.8458873844
 40
0.8978593942
 40
0.949112268
 40
1.0
 40
1.0
 40
1.0
 40
1.0
 10
207.3128452888
 20
81.3088615434
 30
0.0
 10
206.9994197049
 20
81.4655743354
 30
0.0
 10
206.3880591594
 20
81.786161833
 30
0.0
 10
205.5059793929
 20
82.2966410513
 30
0.0
 10
204.6749383356
 20
82.8281811101
 30
0.0
 10
203.8969444952
 20
83.3795140062
 30
0.0
 10
203.1738524044
 20
83.9493501194
 30
0.0
 10
202.507419342
 20
84.5363250537
 30
0.0
 10
201.8991814702
 20
85.1391618465
 30
0.0
 10
201.1809504234
 20
85.947306662
 30
0.0
 10
200.5668128768
 20
86.7963862611
 30
0.0
 10
200.076548559
 20
87.679564034
 30
0.0
 10
199.7791604173
 20
88.3396194655
 30
0.0
 10
199.5469591113
 20
89.0064941843
 30
0.0
 10
199.38058964
 20
89.6786058654
 30
0.0
 10
199.2805608514
 20
90.3541605205
 30
0.0
 10
199.2582817714
 20
90.8064153825
 30
0.0
 10
199.2582817714
 20
91.0315797847
 30
0.0
  0
SPLINE
  5
41B
100
AcDbEntity
  8
02___PRT_ALL_AXES
100
AcDbSpline
 62
7
  6
CONTINUOUS
 70
0
 71
3
 72
11
 73
7
 74
0
 42
0.0000001
 43
0.0000001
 44
0.0000000001
 40
0.0
 40
0.0
 40
0.0
 40
0.0
 40
0.2568222205
 40
0.5078643802
 40
0.7549411632
 40
1.0
 40
1.0
 40
1.0
 40
1.0
 10
253.651510066
 20
88.1591126266
 30
0.0
 10
253.7508932175
 20
88.3917288447
 30
0.0
 10
253.9264131034
 20
88.8610987833
 30
0.0
 10
254.1176264847
 20
89.5809275393
 30
0.0
 10
254.2326547429
 20
90.3051010354
 30
0.0
 10
254.2582817714
 20
90.790208992
 30
0.0
 10
254.2582817714
 20
91.0315797847
 30
0.0
  0
SPLINE
  5
41C
100
AcDbEntity
  8
7_ALL_FEATURES
100
AcDbSpline
 62
9
  6
CONTINUOUS
 70
0
 71
3
 72
56
 73
52
 74
0
 42
0.0000001
 43
0.0000001
 44
0.0000000001
 40
0.0
 40
0.0
 40
0.0
 40
0.0
 40
0.0157852892
 40
0.0310865634
 40
0.0458954988
 40
0.0602076696
 40
0.0740233246
 40
0.0873477579
 40
0.100191877
 40
0.1125727494
 40
0.1245141426
 40
0.1360470057
 40
0.1472098247
 40
0.158048761
 40
0.1686174698
 40
0.1789764974
 40
0.1891921877
 40
0.1993350981
 40
0.2094780085
 40
0.2196936988
 40
0.230052727
 40
0.2406214364
 40
0.2514603725
 40
0.2626231904
 40
0.2741560525
 40
0.2860974461
 40
0.2984783199
 40
0.3113224401
 40
0.3246468728
 40
0.3384625255
 40
0.3527746988
 40
0.36758362
 40
0.382884941
 40
0.3986701985
 40
0.4149272297
 40
0.4316405474
 40
0.466354608
 40
0.5026394887
 40
0.5402820666
 40
0.5790418713
 40
0.618657378
 40
0.6588517075
 40
0.6993379344
 40
0.7398241612
 40
0.7800184913
 40
0.8196339973
 40
0.8583938016
 40
0.8960363812
 40
0.9323212608
 40
0.9670353325
 40
1.0
 40
1.0
 40
1.0
 40
1.0
 10
206.8084965466
 20
81.0566871724
 30
0.0
 10
206.4869415916
 20
81.2174646499
 30
0.0
 10
205.8597246192
 20
81.5463668162
 30
0.0
 10
204.9547668046
 20
82.0700866444
 30
0.0
 10
204.1021716825
 20
82.6154122923
 30
0.0
 10
203.3039981752
 20
83.1810464771
 30
0.0
 10
202.5621549876
 20
83.7656573712
 30
0.0
 10
201.8784244409
 20
84.3678730616
 30
0.0
 10
201.2544547388
 20
84.9862865063
 30
0.0
 10
200.6917610131
 20
85.6194578557
 30
0.0
 10
200.1917256729
 20
86.2659160342
 30
0.0
 10
199.7555994628
 20
86.9241577449
 30
0.0
 10
199.3845015034
 20
87.5926438533
 30
0.0
 10
199.079416786
 20
88.2697931725
 30
0.0
 10
198.8411887208
 20
88.9539748233
 30
0.0
 10
198.6705055625
 20
89.6435023004
 30
0.0
 10
198.5678818555
 20
90.3366334533
 30
0.0
 10
198.5336375889
 20
91.0315797663
 30
0.0
 10
198.5678816131
 20
91.7265260973
 30
0.0
 10
198.670505339
 20
92.4196572681
 30
0.0
 10
198.8411887403
 20
93.1091847172
 30
0.0
 10
199.0794170125
 20
93.7933663135
 30
0.0
 10
199.3845016706
 20
94.470515634
 30
0.0
 10
199.755599397
 20
95.1390018095
 30
0.0
 10
200.191725433
 20
95.7972435946
 30
0.0
 10
200.6917608448
 20
96.4437017477
 30
0.0
 10
201.2544547755
 20
97.076873008
 30
0.0
 10
201.8784245961
 20
97.6952863708
 30
0.0
 10
202.5621551079
 20
98.2975021167
 30
0.0
 10
203.3039979419
 20
98.8821130918
 30
0.0
 10
204.1021719813
 20
99.447747494
 30
0.0
 10
204.954764578
 20
99.9930721407
 30
0.0
 10
205.8597348708
 20
100.5167977077
 30
0.0
 10
206.8149139355
 20
101.0176784852
 30
0.0
 10
207.8180230748
 20
101.4945320751
 30
0.0
 10
209.2340620347
 20
102.1044428614
 30
0.0
 10
211.10974075
 20
102.796556607
 30
0.0
 10
213.4821805014
 20
103.504363813
 30
0.0
 10
215.9816460026
 20
104.0929784358
 30
0.0
 10
218.584203949
 20
104.5567514177
 30
0.0
 10
221.2650175663
 20
104.8912411189
 30
0.0
 10
223.9984328415
 20
105.0932312681
 30
0.0
 10
226.7582818309
 20
105.1607779734
 30
0.0
 10
229.5181306257
 20
105.0932311066
 30
0.0
 10
232.2515465021
 20
104.8912411906
 30
0.0
 10
234.9323580298
 20
104.5567518694
 30
0.0
 10
237.5349233636
 20
104.0929764539
 30
0.0
 10
240.0343625188
 20
103.5043704253
 30
0.0
 10
242.4068957915
 20
102.7965339296
 30
0.0
 10
244.6297750626
 20
101.9762857941
 30
0.0
 10
246.0365587323
 20
101.3422265291
 30
0.0
 10
246.7080669962
 20
101.0064723971
 30
0.0
  0
SPLINE
  5
41D
100
AcDbEntity
  8
02___PRT_ALL_AXES
100
AcDbSpline
 62
7
  6
CONTINUOUS
 70
0
 71
3
 72
42
 73
38
 74
0
 42
0.0000001
 43
0.0000001
 44
0.0000000001
 40
0.0
 40
0.0
 40
0.0
 40
0.0
 40
0.0094794628
 40
0.0190216803
 40
0.0286627282
 40
0.0384370736
 40
0.0483771063
 40
0.0585127737
 40
0.0794679243
 40
0.1014963216
 40
0.1247348897
 40
0.1492766809
 40
0.1751752533
 40
0.2024496058
 40
0.2310889446
 40
0.2610569777
 40
0.292295633
 40
0.3247282612
 40
0.3582623806
 40
0.3927920624
 40
0.4282000378
 40
0.4643595805
 40
0.5011362382
 40
0.5383894366
 40
0.5759740025
 40
0.6137416262
 40
0.6515422858
 40
0.6892256518
 40
0.7266424887
 40
0.7636460682
 40
0.8000936127
 40
0.8358477891
 40
0.8707782724
 40
0.9047634189
 40
0.9376920736
 40
0.9694655788
 40
1.0
 40
1.0
 40
1.0
 40
1.0
 10
191.9690315659
 20
93.6290980176
 30
0.0
 10
191.979552377
 20
93.840689136
 30
0.0
 10
192.0161659074
 20
94.2646598224
 30
0.0
 10
192.117234437
 20
94.8977339959
 30
0.0
 10
192.2644143293
 20
95.5284904581
 30
0.0
 10
192.4574766356
 20
96.156018721
 30
0.0
 10
192.6961480427
 20
96.7795019746
 30
0.0
 10
193.0788699186
 20
97.6133895356
 30
0.0
 10
193.6748625295
 20
98.6436591074
 30
0.0
 10
194.5572677277
 20
99.8351876551
 30
0.0
 10
195.6097485311
 20
100.9901200223
 30
0.0
 10
196.8264422516
 20
102.1026341535
 30
0.0
 10
198.2008721176
 20
103.1672844195
 30
0.0
 10
199.7257997848
 20
104.1787232472
 30
0.0
 10
201.3932418665
 20
105.1318185214
 30
0.0
 10
203.1944721833
 20
106.0216720127
 30
0.0
 10
205.120052933
 20
106.8436713419
 30
0.0
 10
207.1598768003
 20
107.5935261424
 30
0.0
 10
209.3032178675
 20
108.2673034525
 30
0.0
 10
211.5387884954
 20
108.8614569609
 30
0.0
 10
213.8548006572
 20
109.3728508559
 30
0.0
 10
216.2390299281
 20
109.7987818256
 30
0.0
 10
218.6788823812
 20
110.1369948618
 30
0.0
 10
221.1614629695
 20
110.3856980026
 30
0.0
 10
223.6736455836
 20
110.5435727962
 30
0.0
 10
226.2021441503
 20
110.609781623
 30
0.0
 10
228.7335844424
 20
110.5839735942
 30
0.0
 10
231.2545763468
 20
110.4662853192
 30
0.0
 10
233.7517862034
 20
110.2573412408
 30
0.0
 10
236.2120087987
 20
109.9582493782
 30
0.0
 10
238.6222390446
 20
109.5705946934
 30
0.0
 10
240.9697416981
 20
109.0964308152
 30
0.0
 10
243.2421236627
 20
108.5382648291
 30
0.0
 10
245.4273900824
 20
107.8990486229
 30
0.0
 10
247.5140513363
 20
107.1821384667
 30
0.0
 10
249.4910370511
 20
106.3913446928
 30
0.0
 10
250.755239833
 20
105.8054802487
 30
0.0
 10
251.3655977567
 20
105.5003012868
 30
0.0
  0
SPLINE
  5
41E
100
AcDbEntity
  8
7_ALL_FEATURES
100
AcDbSpline
 62
7
  6
CONTINUOUS
 70
0
 71
3
 72
31
 73
27
 74
0
 42
0.0000001
 43
0.0000001
 44
0.0000000001
 40
0.0
 40
0.0
 40
0.0
 40
0.0
 40
0.0247534329
 40
0.050435312
 40
0.0770305072
 40
0.1045151355
 40
0.1328575255
 40
0.1620190883
 40
0.1919551074
 40
0.2226154283
 40
0.2539450872
 40
0.2858849011
 40
0.3513329671
 40
0.4184289826
 40
0.4865977139
 40
0.5552410558
 40
0.6237509854
 40
0.6915222562
 40
0.7579651599
 40
0.8225187164
 40
0.8539271093
 40
0.8846732644
 40
0.9147016684
 40
0.9439615483
 40
0.972407375
 40
1.0
 40
1.0
 40
1.0
 40
1.0
 10
202.0592602274
 20
124.4457266038
 30
0.0
 10
202.3819882524
 20
124.6739299971
 30
0.0
 10
203.0525269453
 20
125.1207694105
 30
0.0
 10
204.1095170302
 20
125.7507040603
 30
0.0
 10
205.2333166915
 20
126.350973528
 30
0.0
 10
206.4205850482
 20
126.9197997148
 30
0.0
 10
207.6678449309
 20
127.4555278604
 30
0.0
 10
208.9714248539
 20
127.9565856347
 30
0.0
 10
210.3274904923
 20
128.4215019876
 30
0.0
 10
211.7320447635
 20
128.848906349
 30
0.0
 10
213.1809620014
 20
129.2375483241
 30
0.0
 10
215.1824434748
 20
129.7062778434
 30
0.0
 10
217.7665267861
 20
130.1857411517
 30
0.0
 10
220.9479504657
 20
130.5869248774
 30
0.0
 10
224.1976753196
 20
130.8138157595
 30
0.0
 10
227.4774565095
 20
130.8637273386
 30
0.0
 10
230.7487898893
 20
130.7360724187
 30
0.0
 10
233.9732779262
 20
130.4323567816
 30
0.0
 10
237.1129794196
 20
129.9561740071
 30
0.0
 10
239.651087308
 20
129.4154476629
 30
0.0
 10
241.6076648212
 20
128.8990935152
 30
0.0
 10
243.0179412483
 20
128.4764096061
 30
0.0
 10
244.3802185371
 20
128.0160623793
 30
0.0
 10
245.6905047324
 20
127.5193928624
 30
0.0
 10
246.9449112795
 20
126.9878789668
 30
0.0
 10
247.7541813323
 20
126.6053341431
 30
0.0
 10
248.1482619023
 20
126.408293858
 30
0.0
  0
SPLINE
  5
41F
100
AcDbEntity
  8
7_ALL_FEATURES
100
AcDbSpline
 62
9
  6
CONTINUOUS
 70
0
 71
3
 72
23
 73
19
 74
0
 42
0.0000001
 43
0.0000001
 44
0.0000000001
 40
0.0
 40
0.0
 40
0.0
 40
0.0
 40
0.082152034
 40
0.1608390514
 40
0.2360008384
 40
0.3076350452
 40
0.3758065966
 40
0.4406571685
 40
0.5024149458
 40
0.5614030203
 40
0.6180444469
 40
0.6728606752
 40
0.7264602063
 40
0.7795155445
 40
0.8327295183
 40
0.8867960005
 40
0.9423623247
 40
1.0
 40
1.0
 40
1.0
 40
1.0
 10
246.7080669962
 20
101.0064723971
 30
0.0
 10
247.1425735845
 20
100.789219103
 30
0.0
 10
247.982386913
 20
100.3415761496
 30
0.0
 10
249.1746104321
 20
99.6146307835
 30
0.0
 10
250.2677215383
 20
98.8494062877
 30
0.0
 10
251.2568634265
 20
98.0491923342
 30
0.0
 10
252.1376687818
 20
97.2173655941
 30
0.0
 10
252.9061824273
 20
96.3574051032
 30
0.0
 10
253.5588658261
 20
95.4728857814
 30
0.0
 10
254.0925684631
 20
94.5674982609
 30
0.0
 10
254.5045279546
 20
93.6451049721
 30
0.0
 10
254.792408699
 20
92.7098145132
 30
0.0
 10
254.9544102958
 20
91.7660438929
 30
0.0
 10
254.9894362055
 20
90.8185000573
 30
0.0
 10
254.8972424765
 20
89.8720614858
 30
0.0
 10
254.6784541647
 20
88.9315152308
 30
0.0
 10
254.33457675
 20
88.0015782886
 30
0.0
 10
254.0295579431
 20
87.4038216832
 30
0.0
 10
253.8587800292
 20
87.1088625349
 30
0.0
  0
SPLINE
  5
420
100
AcDbEntity
  8
7_ALL_FEATURES
100
AcDbSpline
 62
9
  6
CONTINUOUS
 70
0
 71
3
 72
28
 73
24
 74
0
 42
0.0000001
 43
0.0000001
 44
0.0000000001
 40
0.0
 40
0.0
 40
0.0
 40
0.0
 40
0.0822177849
 40
0.1607994388
 40
0.2356830356
 40
0.3068741322
 40
0.3744569811
 40
0.4386060366
 40
0.4995974287
 40
0.5578183648
 40
0.6137710873
 40
0.6410990312
 40
0.6680975712
 40
0.6948570052
 40
0.7214712399
 40
0.7480364316
 40
0.7746495077
 40
0.8014066438
 40
0.8284017818
 40
0.8557252682
 40
0.8834626764
 40
0.9404660163
 40
1.0
 40
1.0
 40
1.0
 40
1.0
 10
247.0992867491
 20
101.2936765266
 30
0.0
 10
247.5624177246
 20
101.0621110388
 30
0.0
 10
248.4561114099
 20
100.5843975441
 30
0.0
 10
249.721059066
 20
99.8059988825
 30
0.0
 10
250.8749031215
 20
98.9851754485
 30
0.0
 10
251.9120319579
 20
98.1257711804
 30
0.0
 10
252.8274262814
 20
97.2317258289
 30
0.0
 10
253.6165600919
 20
96.3071137737
 30
0.0
 10
254.2754038474
 20
95.3560729519
 30
0.0
 10
254.8003573837
 20
94.3830833014
 30
0.0
 10
255.1262716193
 20
93.5508577317
 30
0.0
 10
255.3148228007
 20
92.8819655514
 30
0.0
 10
255.4203156796
 20
92.3819012435
 30
0.0
 10
255.4907897573
 20
91.8802574561
 30
0.0
 10
255.5261586493
 20
91.3776487356
 30
0.0
 10
255.5263690398
 20
90.8747176029
 30
0.0
 10
255.4914215664
 20
90.372102129
 30
0.0
 10
255.4213645452
 20
89.8704393917
 30
0.0
 10
255.3162989175
 20
89.3703663497
 30
0.0
 10
255.1763606465
 20
88.8724958604
 30
0.0
 10
254.9414690639
 20
88.2065096086
 30
0.0
 10
254.5579921679
 20
87.3801401607
 30
0.0
 10
254.1728609555
 20
86.7533739835
 30
0.0
 10
253.9603457355
 20
86.4444810473
 30
0.0
  0
SPLINE
  5
421
100
AcDbEntity
  8
02___PRT_ALL_AXES
100
AcDbSpline
 62
7
  6
CONTINUOUS
 70
0
 71
3
 72
23
 73
19
 74
0
 42
0.0000001
 43
0.0000001
 44
0.0000000001
 40
0.0
 40
0.0
 40
0.0
 40
0.0
 40
0.0507081133
 40
0.1019313738
 40
0.1539917438
 40
0.2071886462
 40
0.2617929295
 40
0.3180429355
 40
0.3761425874
 40
0.436261111
 40
0.4985339695
 40
0.563064628
 40
0.6299267274
 40
0.6991665113
 40
0.7708052155
 40
0.8448414004
 40
0.9212530757
 40
1.0
 40
1.0
 40
1.0
 40
1.0
 10
261.5475319769
 20
93.6290980176
 30
0.0
 10
261.5337934755
 20
93.9054022743
 30
0.0
 10
261.4796572636
 20
94.4598483314
 30
0.0
 10
261.3197879404
 20
95.2857865329
 30
0.0
 10
261.0814585013
 20
96.1067569022
 30
0.0
 10
260.7653289662
 20
96.9207397687
 30
0.0
 10
260.3722311846
 20
97.7259003445
 30
0.0
 10
259.9031620519
 20
98.5204251464
 30
0.0
 10
259.3592688465
 20
99.3025594553
 30
0.0
 10
258.7418447759
 20
100.0705879851
 30
0.0
 10
258.0523275584
 20
100.8228336811
 30
0.0
 10
257.29229857
 20
101.557653058
 30
0.0
 10
256.4634851261
 20
102.273437879
 30
0.0
 10
255.5677586273
 20
102.9686155219
 30
0.0
 10
254.607137075
 20
103.6416524455
 30
0.0
 10
253.5837743203
 20
104.2910611288
 30
0.0
 10
252.4999889867
 20
104.9153889954
 30
0.0
 10
251.7498575203
 20
105.3081714051
 30
0.0
 10
251.3655977567
 20
105.5003012868
 30
0.0
  0
SPLINE
  5
422
100
AcDbEntity
  8
7_ALL_FEATURES
100
AcDbSpline
 62
3
  6
CONTINUOUS
 70
0
 71
3
 72
25
 73
21
 74
0
 42
0.0000001
 43
0.0000001
 44
0.0000000001
 40
0.0
 40
0.0
 40
0.0
 40
0.0
 40
0.0639621493
 40
0.1312010352
 40
0.2010515398
 40
0.2727183499
 40
0.3453220443
 40
0.4179416238
 40
0.4896553944
 40
0.5595818241
 40
0.6269219935
 40
0.6910054788
 40
0.7513417981
 40
0.8076793609
 40
0.8600716884
 40
0.9089433189
 40
0.9323372629
 40
0.9551994303
 40
0.9776937836
 40
1.0
 40
1.0
 40
1.0
 40
1.0
 10
178.7560245776
 20
108.2341494769
 30
0.0
 10
178.6876554243
 20
108.1857189708
 30
0.0
 10
178.5534305303
 20
108.077685889
 30
0.0
 10
178.3667263015
 20
107.891346866
 30
0.0
 10
178.1926764986
 20
107.6799002729
 30
0.0
 10
178.0347995031
 20
107.4476217477
 30
0.0
 10
177.8962504831
 20
107.1991727018
 30
0.0
 10
177.7798195118
 20
106.9395556785
 30
0.0
 10
177.6878497997
 20
106.6739937327
 30
0.0
 10
177.6221949204
 20
106.4078213597
 30
0.0
 10
177.5841832946
 20
106.146367367
 30
0.0
 10
177.574606164
 20
105.8948362848
 30
0.0
 10
177.5937178033
 20
105.6582056054
 30
0.0
 10
177.64130053
 20
105.441112984
 30
0.0
 10
177.7166261476
 20
105.2479034926
 30
0.0
 10
177.8030128243
 20
105.1079849976
 30
0.0
 10
177.8844072916
 20
105.0133562089
 30
0.0
 10
177.9503355642
 20
104.9517251692
 30
0.0
 10
178.0216576085
 20
104.8987954347
 30
0.0
 10
178.0726572229
 20
104.8694442126
 30
0.0
 10
178.0987915616
 20
104.8563769811
 30
0.0
  0
SPLINE
  5
423
100
AcDbEntity
  8
7_ALL_FEATURES
100
AcDbSpline
 62
3
  6
CONTINUOUS
 70
0
 71
3
 72
10
 73
6
 74
0
 42
0.0000001
 43
0.0000001
 44
0.0000000001
 40
0.0
 40
0.0
 40
0.0
 40
0.0
 40
0.4938255651
 40
0.7453959944
 40
1.0
 40
1.0
 40
1.0
 40
1.0
 10
203.4095168519
 20
124.0076191051
 30
0.0
 10
199.2264166685
 20
121.6144682989
 30
0.0
 10
193.0038497674
 20
117.8390874427
 30
0.0
 10
184.8473796757
 20
112.4798190214
 30
0.0
 10
180.7835686758
 20
109.6703964117
 30
0.0
 10
178.7560245776
 20
108.2341494769
 30
0.0
  0
SPLINE
  5
424
100
AcDbEntity
  8
02___PRT_ALL_AXES
100
AcDbSpline
 62
3
  6
CONTINUOUS
 70
0
 71
3
 72
13
 73
9
 74
0
 42
0.0000001
 43
0.0000001
 44
0.0000000001
 40
0.0
 40
0.0
 40
0.0
 40
0.0
 40
0.1170927778
 40
0.2350296355
 40
0.3546223258
 40
0.4766214642
 40
0.7301400396
 40
1.0
 40
1.0
 40
1.0
 40
1.0
 10
206.1847608272
 20
112.5067710771
 30
0.0
 10
206.2125228182
 20
112.4928900564
 30
0.0
 10
206.2667835311
 20
112.4619853013
 30
0.0
 10
206.3431427828
 20
112.4068724153
 30
0.0
 10
206.414272668
 20
112.3431787664
 30
0.0
 10
206.5028065134
 20
112.2460293751
 30
0.0
 10
206.5987902933
 20
112.1031585305
 30
0.0
 10
206.6554259276
 20
111.9757689873
 30
0.0
 10
206.6796539756
 20
111.9084625782
 30
0.0
  0
SPLINE
  5
425
100
AcDbEntity
  8
7_ALL_FEATURES
100
AcDbSpline
 62
3
  6
CONTINUOUS
 70
0
 71
3
 72
19
 73
15
 74
0
 42
0.0000001
 43
0.0000001
 44
0.0000000001
 40
0.0
 40
0.0
 40
0.0
 40
0.0
 40
0.0556213222
 40
0.1114419348
 40
0.1676573038
 40
0.2244554595
 40
0.3404258447
 40
0.4606780701
 40
0.5227567832
 40
0.5862500838
 40
0.6512358367
 40
0.7177742158
 40
0.8556231899
 40
1.0
 40
1.0
 40
1.0
 40
1.0
 10
207.3196647587
 20
124.4130269359
 30
0.0
 10
207.2517665101
 20
124.446976052
 30
0.0
 10
207.1130835338
 20
124.5098507822
 30
0.0
 10
206.8979378354
 20
124.5883660824
 30
0.0
 10
206.6759559501
 20
124.6509977234
 30
0.0
 10
206.3695212655
 20
124.7135740605
 30
0.0
 10
205.9699130294
 20
124.750744276
 30
0.0
 10
205.5619687501
 20
124.7334121177
 30
0.0
 10
205.2293477813
 20
124.6883127076
 30
0.0
 10
204.9740121184
 20
124.6380766241
 30
0.0
 10
204.7160649865
 20
124.5719061536
 30
0.0
 10
204.3652794032
 20
124.4613384045
 30
0.0
 10
203.9231305434
 20
124.2828228814
 30
0.0
 10
203.5805520283
 20
124.1054682964
 30
0.0
 10
203.4095168519
 20
124.0076191051
 30
0.0
  0
SPLINE
  5
426
100
AcDbEntity
  8
7_ALL_FEATURES
100
AcDbSpline
 62
3
  6
CONTINUOUS
 70
0
 71
3
 72
18
 73
14
 74
0
 42
0.0000001
 43
0.0000001
 44
0.0000000001
 40
0.0
 40
0.0
 40
0.0
 40
0.0
 40
0.1473278797
 40
0.2877899162
 40
0.4212070218
 40
0.5477041306
 40
0.6677556573
 40
0.7256550699
 40
0.7822986217
 40
0.8378547637
 40
0.8925142336
 40
0.9464873103
 40
1.0
 40
1.0
 40
1.0
 40
1.0
 10
209.3988102933
 20
120.0860366309
 30
0.0
 10
209.3988102933
 20
120.3225059611
 30
0.0
 10
209.3795399144
 20
120.7847392789
 30
0.0
 10
209.2884434502
 20
121.4556783175
 30
0.0
 10
209.1366221856
 20
122.0814372761
 30
0.0
 10
208.9255253675
 20
122.6551223695
 30
0.0
 10
208.6989759167
 20
123.0899435515
 30
0.0
 10
208.4900606612
 20
123.4035568089
 30
0.0
 10
208.3221405173
 20
123.6191683084
 30
0.0
 10
208.1415850685
 20
123.8173419516
 30
0.0
 10
207.9488739374
 20
123.9975280453
 30
0.0
 10
207.7445595106
 20
124.1591942023
 30
0.0
 10
207.6005357632
 20
124.254614834
 30
0.0
 10
207.5269721807
 20
124.298950253
 30
0.0
  0
SPLINE
  5
427
100
AcDbEntity
  8
7_ALL_FEATURES
100
AcDbSpline
 62
3
  6
CONTINUOUS
 70
0
 71
3
 72
9
 73
5
 74
0
 42
0.0000001
 43
0.0000001
 44
0.0000000001
 40
0.0
 40
0.0
 40
0.0
 40
0.0
 40
0.5106980687
 40
1.0
 40
1.0
 40
1.0
 40
1.0
 10
209.3544216722
 20
108.6973690548
 30
0.0
 10
209.3688679697
 20
108.7735363302
 30
0.0
 10
209.3908619246
 20
108.9239594466
 30
0.0
 10
209.3988102933
 20
109.0758314639
 30
0.0
 10
209.3988102933
 20
109.1501086336
 30
0.0
  0
SPLINE
  5
428
100
AcDbEntity
  8
02___PRT_ALL_AXES
100
AcDbSpline
 62
3
  6
CONTINUOUS
 70
0
 71
3
 72
11
 73
7
 74
0
 42
0.0000001
 43
0.0000001
 44
0.0000000001
 40
0.0
 40
0.0
 40
0.0
 40
0.0
 40
0.2575792412
 40
0.5087683346
 40
0.7555211894
 40
1.0
 40
1.0
 40
1.0
 40
1.0
 10
205.7656658397
 20
112.6010287769
 30
0.0
 10
205.802869848
 20
112.601212244
 30
0.0
 10
205.8764459771
 20
112.5976903415
 30
0.0
 10
205.9843906573
 20
112.5801156681
 30
0.0
 10
206.0876889029
 20
112.5504117165
 30
0.0
 10
206.153176603
 20
112.5225632178
 30
0.0
 10
206.1847608272
 20
112.5067710771
 30
0.0
  0
SPLINE
  5
429
100
AcDbEntity
  8
7_ALL_FEATURES
100
AcDbSpline
 62
3
  6
CONTINUOUS
 70
0
 71
3
 72
9
 73
5
 74
0
 42
0.0000001
 43
0.0000001
 44
0.0000000001
 40
0.0
 40
0.0
 40
0.0
 40
0.0
 40
0.4938485556
 40
1.0
 40
1.0
 40
1.0
 40
1.0
 10
178.0987915616
 20
104.8563769811
 30
0.0
 10
178.1442564758
 20
104.8336444158
 30
0.0
 10
178.2412890427
 20
104.7969728872
 30
0.0
 10
178.3435797466
 20
104.780319117
 30
0.0
 10
178.3955462248
 20
104.7766238892
 30
0.0
  0
SPLINE
  5
42A
100
AcDbEntity
  8
7_ALL_FEATURES
100
AcDbSpline
 62
3
  6
CONTINUOUS
 70
0
 71
3
 72
25
 73
21
 74
0
 42
0.0000001
 43
0.0000001
 44
0.0000000001
 40
0.0
 40
0.0
 40
0.0
 40
0.0
 40
0.0224377552
 40
0.0450233783
 40
0.0678995517
 40
0.0911991061
 40
0.1394813886
 40
0.1906763954
 40
0.2452476363
 40
0.3033836161
 40
0.3650338365
 40
0.429950598
 40
0.4977286816
 40
0.5678407444
 40
0.6396687659
 40
0.7125323827
 40
0.7857151487
 40
0.8584896979
 40
0.9301425284
 40
1.0
 40
1.0
 40
1.0
 40
1.0
 10
275.4177720198
 20
112.9949243594
 30
0.0
 10
275.4408434404
 20
112.9833885282
 30
0.0
 10
275.4859754049
 20
112.9578268815
 30
0.0
 10
275.5496970522
 20
112.9125219681
 30
0.0
 10
275.6092926442
 20
112.8603833802
 30
0.0
 10
275.6837751748
 20
112.7811626544
 30
0.0
 10
275.7653945951
 20
112.6649936895
 30
0.0
 10
275.8417989088
 20
112.5044446163
 30
0.0
 10
275.8970036432
 20
112.323652969
 30
0.0
 10
275.9303000579
 20
112.1254943021
 30
0.0
 10
275.9413005142
 20
111.9130269736
 30
0.0
 10
275.9298956337
 20
111.6895412632
 30
0.0
 10
275.8962976466
 20
111.4585098352
 30
0.0
 10
275.841048604
 20
111.2235409009
 30
0.0
 10
275.7650234062
 20
110.9883178901
 30
0.0
 10
275.6694203195
 20
110.756537314
 30
0.0
 10
275.5557466003
 20
110.5318487672
 30
0.0
 10
275.4257877457
 20
110.3177854672
 30
0.0
 10
275.2816054029
 20
110.1177360721
 30
0.0
 10
275.1758223158
 20
109.9938371721
 30
0.0
 10
275.121017318
 20
109.9351351053
 30
0.0
  0
ENDSEC
  0
SECTION
  2
OBJECTS
  0
DICTIONARY
  5
42B
100
AcDbDictionary
  3
ACAD_GROUP
350
42C
  3
ACAD_MLINESTYLE
350
42D
  0
DICTIONARY
  5
42C
102
{ACAD_REACTORS
330
42B
102
}
100
AcDbDictionary
  0
DICTIONARY
  5
42D
102
{ACAD_REACTORS
330
42B
102
}
100
AcDbDictionary
  3
STANDARD
350
42E
  0
MLINESTYLE
  5
42E
102
{ACAD_REACTORS
330
42D
102
}
100
AcDbMlineStyle
  2
STANDARD
 70
0
  3

 62
256
 51
90.0
 52
90.0
 71
2
 49
0.5
 62
256
  6
BYLAYER
 49
-0.5
 62
256
  6
BYLAYER
  0
ENDSEC
  0
EOF
