  0
SECTION
  2
HEADER
  9
$ACADVER
  1
AC1027
  9
$ACADMAINTVER
 70
   105
  9
$DWGCODEPAGE
  3
ANSI_1252
  9
$REQUIREDVERSIONS
160
                 0
  9
$LASTSAVEDBY
  1
andrea.zolin
  9
$INSBASE
 10
0.0
 20
0.0
 30
0.0
  9
$EXTMIN
 10
0.0
 20
0.0
 30
0.0
  9
$EXTMAX
 10
297.0
 20
210.0
 30
0.0
  9
$LIMMIN
 10
0.0
 20
0.0
  9
$LIMMAX
 10
297.0
 20
210.0
  9
$ORTHOMODE
 70
     0
  9
$REGENMODE
 70
     1
  9
$FILLMODE
 70
     1
  9
$QTEXTMODE
 70
     0
  9
$MIRRTEXT
 70
     1
  9
$LTSCALE
 40
16.335
  9
$ATTMODE
 70
     1
  9
$TEXTSIZE
 40
0.2
  9
$TRACEWID
 40
0.05
  9
$TEXTSTYLE
  7
STANDARD
  9
$CLAYER
  8
0
  9
$CELTYPE
  6
BYLAYER
  9
$CECOLOR
 62
   256
  9
$CELTSCALE
 40
1.0
  9
$DISPSILH
 70
     0
  9
$DIMSCALE
 40
1.0
  9
$DIMASZ
 40
2.5
  9
$DIMEXO
 40
0.75
  9
$DIMDLI
 40
11.286
  9
$DIMRND
 40
0.0
  9
$DIMDLE
 40
0.0
  9
$DIMEXE
 40
0.75
  9
$DIMTP
 40
0.01
  9
$DIMTM
 40
0.01
  9
$DIMTXT
 40
3.0
  9
$DIMCEN
 40
2.673
  9
$DIMTSZ
 40
0.0
  9
$DIMTOL
 70
     1
  9
$DIMLIM
 70
     0
  9
$DIMTIH
 70
     1
  9
$DIMTOH
 70
     1
  9
$DIMSE1
 70
     0
  9
$DIMSE2
 70
     0
  9
$DIMTAD
 70
     0
  9
$DIMZIN
 70
     0
  9
$DIMBLK
  1
CLOSED
  9
$DIMASO
 70
     1
  9
$DIMSHO
 70
     1
  9
$DIMPOST
  1

  9
$DIMAPOST
  1

  9
$DIMALT
 70
     0
  9
$DIMALTD
 70
     2
  9
$DIMALTF
 40
25.4
  9
$DIMLFAC
 40
1.0
  9
$DIMTOFL
 70
     0
  9
$DIMTVP
 40
0.0
  9
$DIMTIX
 70
     0
  9
$DIMSOXD
 70
     0
  9
$DIMSAH
 70
     0
  9
$DIMBLK1
  1

  9
$DIMBLK2
  1

  9
$DIMSTYLE
  2
STANDARD
  9
$DIMCLRD
 70
     0
  9
$DIMCLRE
 70
     0
  9
$DIMCLRT
 70
     0
  9
$DIMTFAC
 40
1.0
  9
$DIMGAP
 40
0.625
  9
$DIMJUST
 70
     0
  9
$DIMSD1
 70
     0
  9
$DIMSD2
 70
     0
  9
$DIMTOLJ
 70
     1
  9
$DIMTZIN
 70
     0
  9
$DIMALTZ
 70
     0
  9
$DIMALTTZ
 70
     0
  9
$DIMUPT
 70
     0
  9
$DIMDEC
 70
     4
  9
$DIMTDEC
 70
     4
  9
$DIMALTU
 70
     2
  9
$DIMALTTD
 70
     2
  9
$DIMTXSTY
  7
STANDARD
  9
$DIMAUNIT
 70
     0
  9
$DIMADEC
 70
     0
  9
$DIMALTRND
 40
0.0
  9
$DIMAZIN
 70
     0
  9
$DIMDSEP
 70
    44
  9
$DIMATFIT
 70
     3
  9
$DIMFRAC
 70
     0
  9
$DIMLDRBLK
  1

  9
$DIMLUNIT
 70
     2
  9
$DIMLWD
 70
    -2
  9
$DIMLWE
 70
    -2
  9
$DIMTMOVE
 70
     0
  9
$DIMFXL
 40
1.0
  9
$DIMFXLON
 70
     0
  9
$DIMJOGANG
 40
0.7853981633974483
  9
$DIMTFILL
 70
     0
  9
$DIMTFILLCLR
 70
     0
  9
$DIMARCSYM
 70
     0
  9
$DIMLTYPE
  6

  9
$DIMLTEX1
  6

  9
$DIMLTEX2
  6

  9
$DIMTXTDIRECTION
 70
     0
  9
$LUNITS
 70
     2
  9
$LUPREC
 70
     4
  9
$SKETCHINC
 40
0.1
  9
$FILLETRAD
 40
0.5
  9
$AUNITS
 70
     0
  9
$AUPREC
 70
     0
  9
$MENU
  1
.
  9
$ELEVATION
 40
0.0
  9
$PELEVATION
 40
0.0
  9
$THICKNESS
 40
0.0
  9
$LIMCHECK
 70
     0
  9
$CHAMFERA
 40
0.0
  9
$CHAMFERB
 40
0.0
  9
$CHAMFERC
 40
0.0
  9
$CHAMFERD
 40
0.0
  9
$SKPOLY
 70
     0
  9
$TDCREATE
 40
2447893.083333333
  9
$TDUCREATE
 40
0.0
  9
$TDUPDATE
 40
2458620.586933901
  9
$TDUUPDATE
 40
2458620.503600567
  9
$TDINDWG
 40
0.0003060648
  9
$TDUSRTIMER
 40
0.0003060648
  9
$USRTIMER
 70
     1
  9
$ANGBASE
 50
0.0
  9
$ANGDIR
 70
     0
  9
$PDMODE
 70
     3
  9
$PDSIZE
 40
0.3125
  9
$PLINEWID
 40
0.0
  9
$SPLFRAME
 70
     0
  9
$SPLINETYPE
 70
     6
  9
$SPLINESEGS
 70
     8
  9
$HANDSEED
  5
467
  9
$SURFTAB1
 70
     6
  9
$SURFTAB2
 70
     6
  9
$SURFTYPE
 70
     6
  9
$SURFU
 70
     6
  9
$SURFV
 70
     6
  9
$UCSBASE
  2

  9
$UCSNAME
  2

  9
$UCSORG
 10
0.0
 20
0.0
 30
0.0
  9
$UCSXDIR
 10
1.0
 20
0.0
 30
0.0
  9
$UCSYDIR
 10
0.0
 20
1.0
 30
0.0
  9
$UCSORTHOREF
  2

  9
$UCSORTHOVIEW
 70
     0
  9
$UCSORGTOP
 10
0.0
 20
0.0
 30
0.0
  9
$UCSORGBOTTOM
 10
0.0
 20
0.0
 30
0.0
  9
$UCSORGLEFT
 10
0.0
 20
0.0
 30
0.0
  9
$UCSORGRIGHT
 10
0.0
 20
0.0
 30
0.0
  9
$UCSORGFRONT
 10
0.0
 20
0.0
 30
0.0
  9
$UCSORGBACK
 10
0.0
 20
0.0
 30
0.0
  9
$PUCSBASE
  2

  9
$PUCSNAME
  2

  9
$PUCSORG
 10
0.0
 20
0.0
 30
0.0
  9
$PUCSXDIR
 10
1.0
 20
0.0
 30
0.0
  9
$PUCSYDIR
 10
0.0
 20
1.0
 30
0.0
  9
$PUCSORTHOREF
  2

  9
$PUCSORTHOVIEW
 70
     0
  9
$PUCSORGTOP
 10
0.0
 20
0.0
 30
0.0
  9
$PUCSORGBOTTOM
 10
0.0
 20
0.0
 30
0.0
  9
$PUCSORGLEFT
 10
0.0
 20
0.0
 30
0.0
  9
$PUCSORGRIGHT
 10
0.0
 20
0.0
 30
0.0
  9
$PUCSORGFRONT
 10
0.0
 20
0.0
 30
0.0
  9
$PUCSORGBACK
 10
0.0
 20
0.0
 30
0.0
  9
$USERI1
 70
     0
  9
$USERI2
 70
     0
  9
$USERI3
 70
     0
  9
$USERI4
 70
     0
  9
$USERI5
 70
     0
  9
$USERR1
 40
0.0
  9
$USERR2
 40
0.0
  9
$USERR3
 40
0.0
  9
$USERR4
 40
0.0
  9
$USERR5
 40
0.0
  9
$WORLDVIEW
 70
     1
  9
$SHADEDGE
 70
     3
  9
$SHADEDIF
 70
    70
  9
$TILEMODE
 70
     0
  9
$MAXACTVP
 70
    64
  9
$PINSBASE
 10
0.0
 20
0.0
 30
0.0
  9
$PLIMCHECK
 70
     0
  9
$PEXTMIN
 10
9.949999999999989
 20
9.950000000000003
 30
0.0
  9
$PEXTMAX
 10
291.5463968142666
 20
200.05
 30
0.0
  9
$PLIMMIN
 10
0.0
 20
0.0
  9
$PLIMMAX
 10
297.0
 20
210.0
  9
$UNITMODE
 70
     0
  9
$VISRETAIN
 70
     1
  9
$PLINEGEN
 70
     0
  9
$PSLTSCALE
 70
     1
  9
$TREEDEPTH
 70
  3020
  9
$CMLSTYLE
  2
Standard
  9
$CMLJUST
 70
     0
  9
$CMLSCALE
 40
1.0
  9
$PROXYGRAPHICS
 70
     1
  9
$MEASUREMENT
 70
     1
  9
$CELWEIGHT
370
    -1
  9
$ENDCAPS
280
     0
  9
$JOINSTYLE
280
     0
  9
$LWDISPLAY
290
     0
  9
$INSUNITS
 70
     4
  9
$HYPERLINKBASE
  1

  9
$STYLESHEET
  1

  9
$XEDIT
290
     1
  9
$CEPSNTYPE
380
     0
  9
$PSTYLEMODE
290
     1
  9
$FINGERPRINTGUID
  2
{26ABF423-2F9E-47CF-A27E-C024303334EF}
  9
$VERSIONGUID
  2
{FAEB1C32-E019-11D5-929B-00C0DF256EC4}
  9
$EXTNAMES
290
     1
  9
$PSVPSCALE
 40
0.0
  9
$OLESTARTUP
290
     0
  9
$SORTENTS
280
   127
  9
$INDEXCTL
280
     0
  9
$HIDETEXT
280
     1
  9
$XCLIPFRAME
280
     2
  9
$HALOGAP
280
     0
  9
$OBSCOLOR
 70
   257
  9
$OBSLTYPE
280
     0
  9
$INTERSECTIONDISPLAY
280
     0
  9
$INTERSECTIONCOLOR
 70
   257
  9
$DIMASSOC
280
     2
  9
$PROJECTNAME
  1

  9
$CAMERADISPLAY
290
     0
  9
$LENSLENGTH
 40
50.0
  9
$CAMERAHEIGHT
 40
0.0
  9
$STEPSPERSEC
 40
2.0
  9
$STEPSIZE
 40
6.0
  9
$3DDWFPREC
 40
2.0
  9
$PSOLWIDTH
 40
0.25
  9
$PSOLHEIGHT
 40
4.0
  9
$LOFTANG1
 40
1.570796326794897
  9
$LOFTANG2
 40
1.570796326794897
  9
$LOFTMAG1
 40
0.0
  9
$LOFTMAG2
 40
0.0
  9
$LOFTPARAM
 70
     7
  9
$LOFTNORMALS
280
     1
  9
$LATITUDE
 40
37.795
  9
$LONGITUDE
 40
-122.394
  9
$NORTHDIRECTION
 40
0.0
  9
$TIMEZONE
 70
 -8000
  9
$LIGHTGLYPHDISPLAY
280
     1
  9
$TILEMODELIGHTSYNCH
280
     1
  9
$SOLIDHIST
280
     0
  9
$SHOWHIST
280
     1
  9
$DWFFRAME
280
     2
  9
$DGNFRAME
280
     2
  9
$REALWORLDSCALE
290
     1
  9
$INTERFERECOLOR
 62
   256
  9
$CSHADOW
280
     0
  9
$SHADOWPLANELOCATION
 40
0.0
  0
ENDSEC
  0
SECTION
  2
CLASSES
  0
CLASS
  1
ACDBDICTIONARYWDFLT
  2
AcDbDictionaryWithDefault
  3
ObjectDBX Classes
 90
        0
 91
        4
280
     0
281
     0
  0
CLASS
  1
ACDBPLACEHOLDER
  2
AcDbPlaceHolder
  3
ObjectDBX Classes
 90
        0
 91
        1
280
     0
281
     0
  0
CLASS
  1
LAYOUT
  2
AcDbLayout
  3
ObjectDBX Classes
 90
        0
 91
        1
280
     0
281
     0
  0
CLASS
  1
SCALE
  2
AcDbScale
  3
ObjectDBX Classes
 90
     1153
 91
        4
280
     0
281
     0
  0
CLASS
  1
VISUALSTYLE
  2
AcDbVisualStyle
  3
ObjectDBX Classes
 90
     4095
 91
        4
280
     0
281
     0
  0
CLASS
  1
MATERIAL
  2
AcDbMaterial
  3
ObjectDBX Classes
 90
     1153
 91
        4
280
     0
281
     0
  0
CLASS
  1
TABLESTYLE
  2
AcDbTableStyle
  3
ObjectDBX Classes
 90
     4095
 91
        4
280
     0
281
     0
  0
CLASS
  1
MLEADERSTYLE
  2
AcDbMLeaderStyle
  3
ACDB_MLEADERSTYLE_CLASS
 90
     4095
 91
        4
280
     0
281
     0
  0
CLASS
  1
DICTIONARYVAR
  2
AcDbDictionaryVar
  3
ObjectDBX Classes
 90
        0
 91
        4
280
     0
281
     0
  0
CLASS
  1
CELLSTYLEMAP
  2
AcDbCellStyleMap
  3
ObjectDBX Classes
 90
     1152
 91
        4
280
     0
281
     0
  0
ENDSEC
  0
SECTION
  2
TABLES
  0
TABLE
  2
VPORT
  5
8
330
0
100
AcDbSymbolTable
 70
     1
  0
VPORT
  5
1F4
330
8
100
AcDbSymbolTableRecord
100
AcDbViewportTableRecord
  2
*ACTIVE
 70
     0
 10
0.0
 20
0.0
 11
1.0
 21
1.0
 12
148.5
 22
105.0
 13
0.0
 23
0.0
 14
1.0
 24
1.0
 15
0.0
 25
0.0
 16
0.0
 26
0.0
 36
1.0
 17
0.0
 27
0.0
 37
0.0
 40
210.0
 41
1.4142857143
 42
50.0
 43
0.0
 44
0.0
 50
0.0
 51
0.0
 71
     0
 72
   100
 73
     1
 74
     1
 75
     0
 76
     0
 77
     0
 78
     0
281
     0
 65
     1
110
0.0
120
0.0
130
0.0
111
1.0
121
0.0
131
0.0
112
0.0
122
1.0
132
0.0
 79
     0
146
0.0
348
440
 60
     3
 61
     5
292
     1
282
     1
141
0.0
142
0.0
 63
   256
  0
ENDTAB
  0
TABLE
  2
LTYPE
  5
5
330
0
100
AcDbSymbolTable
 70
     6
  0
LTYPE
  5
14
330
5
100
AcDbSymbolTableRecord
100
AcDbLinetypeTableRecord
  2
BYBLOCK
 70
     0
  3

 72
    65
 73
     0
 40
0.0
  0
LTYPE
  5
15
330
5
100
AcDbSymbolTableRecord
100
AcDbLinetypeTableRecord
  2
BYLAYER
 70
     0
  3

 72
    65
 73
     0
 40
0.0
  0
LTYPE
  5
16
330
5
100
AcDbSymbolTableRecord
100
AcDbLinetypeTableRecord
  2
CONTINUOUS
 70
     0
  3
Solid line
 72
    65
 73
     0
 40
0.0
  0
LTYPE
  5
1F5
330
5
100
AcDbSymbolTableRecord
100
AcDbLinetypeTableRecord
  2
CENTER
 70
     0
  3
____ _ ____ _ ____ _ ____ _ ____ _ ____ _ ____
 72
    65
 73
     4
 40
0.6
 49
0.375
 74
     0
 49
-0.075
 74
     0
 49
0.075
 74
     0
 49
-0.075
 74
     0
  0
LTYPE
  5
1F6
330
5
100
AcDbSymbolTableRecord
100
AcDbLinetypeTableRecord
  2
HIDDEN
 70
     0
  3
- - - - - - - - - - - - - - - - - - - -
 72
    65
 73
     2
 40
0.2
 49
0.1
 74
     0
 49
-0.1
 74
     0
  0
LTYPE
  5
1F7
330
5
100
AcDbSymbolTableRecord
100
AcDbLinetypeTableRecord
  2
PHANTOM
 70
     0
  3
_____ _ _ _____ _ _ _____ _ _ _____
 72
    65
 73
     6
 40
0.8
 49
0.45
 74
     0
 49
-0.05
 74
     0
 49
0.1
 74
     0
 49
-0.05
 74
     0
 49
0.1
 74
     0
 49
-0.05
 74
     0
  0
LTYPE
  5
1F8
330
5
100
AcDbSymbolTableRecord
100
AcDbLinetypeTableRecord
  2
DOT
 70
     0
  3
. . . . . . . . . . . . . . . . . . . .
 72
    65
 73
     2
 40
0.2
 49
0.1
 74
     0
 49
-0.1
 74
     0
  0
LTYPE
  5
1F9
330
5
100
AcDbSymbolTableRecord
100
AcDbLinetypeTableRecord
  2
DASHED
 70
     0
  3
- - - - - - - - - - - - - - - - - - - -
 72
    65
 73
     2
 40
0.2
 49
0.1
 74
     0
 49
-0.1
 74
     0
  0
ENDTAB
  0
TABLE
  2
LAYER
  5
2
330
0
100
AcDbSymbolTable
 70
    23
  0
LAYER
  5
10
330
2
100
AcDbSymbolTableRecord
100
AcDbLayerTableRecord
  2
0
 70
     0
 62
     7
  6
CONTINUOUS
370
    -3
390
F
347
457
348
0
  0
LAYER
  5
1FA
330
2
100
AcDbSymbolTableRecord
100
AcDbLayerTableRecord
  2
DEFAULT_1
 70
     0
 62
     7
  6
CENTER
370
    -3
390
F
347
457
348
0
  0
LAYER
  5
1FB
330
2
100
AcDbSymbolTableRecord
100
AcDbLayerTableRecord
  2
DEFAULT_2
 70
     0
 62
     8
  6
HIDDEN
370
    -3
390
F
347
457
348
0
  0
LAYER
  5
1FC
330
2
100
AcDbSymbolTableRecord
100
AcDbLayerTableRecord
  2
DEFAULT_3
 70
     0
 62
     7
  6
PHANTOM
370
    -3
390
F
347
457
348
0
  0
LAYER
  5
1FD
330
2
100
AcDbSymbolTableRecord
100
AcDbLayerTableRecord
  2
01___PRT_ALL_DTM_PLN
 70
     0
 62
     7
  6
CONTINUOUS
370
    -3
390
F
347
457
348
0
  0
LAYER
  5
1FE
330
2
100
AcDbSymbolTableRecord
100
AcDbLayerTableRecord
  2
01___PRT_DEF_DTM_PLN
 70
     0
 62
     7
  6
CONTINUOUS
370
    -3
390
F
347
457
348
0
  0
LAYER
  5
1FF
330
2
100
AcDbSymbolTableRecord
100
AcDbLayerTableRecord
  2
02___PRT_ALL_AXES
 70
     0
 62
     7
  6
CONTINUOUS
370
    -3
390
F
347
457
348
0
  0
LAYER
  5
200
330
2
100
AcDbSymbolTableRecord
100
AcDbLayerTableRecord
  2
03___PRT_ALL_CURVES
 70
     0
 62
     7
  6
CONTINUOUS
370
    -3
390
F
347
457
348
0
  0
LAYER
  5
201
330
2
100
AcDbSymbolTableRecord
100
AcDbLayerTableRecord
  2
04___PRT_ALL_DTM_PNT
 70
     0
 62
     7
  6
CONTINUOUS
370
    -3
390
F
347
457
348
0
  0
LAYER
  5
202
330
2
100
AcDbSymbolTableRecord
100
AcDbLayerTableRecord
  2
05___PRT_ALL_DTM_CSYS
 70
     0
 62
     7
  6
CONTINUOUS
370
    -3
390
F
347
457
348
0
  0
LAYER
  5
203
330
2
100
AcDbSymbolTableRecord
100
AcDbLayerTableRecord
  2
05___PRT_DEF_DTM_CSYS
 70
     0
 62
     7
  6
CONTINUOUS
370
    -3
390
F
347
457
348
0
  0
LAYER
  5
204
330
2
100
AcDbSymbolTableRecord
100
AcDbLayerTableRecord
  2
06___PRT_ALL_SURFS
 70
     0
 62
     7
  6
CONTINUOUS
370
    -3
390
F
347
457
348
0
  0
LAYER
  5
205
330
2
100
AcDbSymbolTableRecord
100
AcDbLayerTableRecord
  2
1_ALL_PLANES
 70
     0
 62
     7
  6
CONTINUOUS
370
    -3
390
F
347
457
348
0
  0
LAYER
  5
206
330
2
100
AcDbSymbolTableRecord
100
AcDbLayerTableRecord
  2
2_ALL_CSYS
 70
     0
 62
     7
  6
CONTINUOUS
370
    -3
390
F
347
457
348
0
  0
LAYER
  5
207
330
2
100
AcDbSymbolTableRecord
100
AcDbLayerTableRecord
  2
3_ALL_AXES
 70
     0
 62
     7
  6
CONTINUOUS
370
    -3
390
F
347
457
348
0
  0
LAYER
  5
208
330
2
100
AcDbSymbolTableRecord
100
AcDbLayerTableRecord
  2
4_ALL_POINTS
 70
     0
 62
     7
  6
CONTINUOUS
370
    -3
390
F
347
457
348
0
  0
LAYER
  5
209
330
2
100
AcDbSymbolTableRecord
100
AcDbLayerTableRecord
  2
5_ALL_CURVES
 70
     0
 62
     7
  6
CONTINUOUS
370
    -3
390
F
347
457
348
0
  0
LAYER
  5
20A
330
2
100
AcDbSymbolTableRecord
100
AcDbLayerTableRecord
  2
5__COSTRUZIONE
 70
     0
 62
     7
  6
CONTINUOUS
370
    -3
390
F
347
457
348
0
  0
LAYER
  5
20B
330
2
100
AcDbSymbolTableRecord
100
AcDbLayerTableRecord
  2
6_ALL_SURFS
 70
     0
 62
     7
  6
CONTINUOUS
370
    -3
390
F
347
457
348
0
  0
LAYER
  5
20C
330
2
100
AcDbSymbolTableRecord
100
AcDbLayerTableRecord
  2
7_ALL_FEATURES
 70
     0
 62
     7
  6
CONTINUOUS
370
    -3
390
F
347
457
348
0
  0
LAYER
  5
20D
330
2
100
AcDbSymbolTableRecord
100
AcDbLayerTableRecord
  2
9_SOLID
 70
     0
 62
     7
  6
CONTINUOUS
370
    -3
390
F
347
457
348
0
  0
LAYER
  5
20E
330
2
100
AcDbSymbolTableRecord
100
AcDbLayerTableRecord
  2
WHITE
 70
     0
 62
     7
  6
CONTINUOUS
370
    -3
390
F
347
457
348
0
  0
LAYER
  5
20F
330
2
100
AcDbSymbolTableRecord
100
AcDbLayerTableRecord
  2
XXX_SOLIDO
 70
     0
 62
     7
  6
CONTINUOUS
370
    -3
390
F
347
457
348
0
  0
ENDTAB
  0
TABLE
  2
STYLE
  5
3
330
0
100
AcDbSymbolTable
 70
     5
  0
STYLE
  5
11
330
3
100
AcDbSymbolTableRecord
100
AcDbTextStyleTableRecord
  2
STANDARD
 70
     0
 40
0.0
 41
1.0
 50
0.0
 71
     0
 42
0.2
  3
arial.ttf
  4

  0
STYLE
  5
210
330
3
100
AcDbSymbolTableRecord
100
AcDbTextStyleTableRecord
  2
TEXTSTYLE_1
 70
     0
 40
0.0
 41
0.8
 50
0.0
 71
     0
 42
0.2
  3
gdt
  4

  0
STYLE
  5
211
330
3
100
AcDbSymbolTableRecord
100
AcDbTextStyleTableRecord
  2
TEXTSTYLE_2
 70
     0
 40
0.0
 41
0.85
 50
0.0
 71
     0
 42
0.2
  3
gdt
  4

  0
STYLE
  5
212
330
3
100
AcDbSymbolTableRecord
100
AcDbTextStyleTableRecord
  2
TEXTSTYLE_3
 70
     0
 40
0.0
 41
2.0
 50
0.0
 71
     0
 42
0.2
  3
txt
  4

  0
STYLE
  5
213
330
3
100
AcDbSymbolTableRecord
100
AcDbTextStyleTableRecord
  2
TEXTSTYLE_4
 70
     0
 40
0.0
 41
0.85
 50
0.0
 71
     0
 42
0.2
  3
txt
  4

  0
ENDTAB
  0
TABLE
  2
VIEW
  5
6
330
0
100
AcDbSymbolTable
 70
     0
  0
ENDTAB
  0
TABLE
  2
UCS
  5
7
330
0
100
AcDbSymbolTable
 70
     0
  0
ENDTAB
  0
TABLE
  2
APPID
  5
9
330
0
100
AcDbSymbolTable
 70
     1
  0
APPID
  5
214
330
9
100
AcDbSymbolTableRecord
100
AcDbRegAppTableRecord
  2
ACAD
 70
     0
  0
ENDTAB
  0
TABLE
  2
DIMSTYLE
  5
A
330
0
100
AcDbSymbolTable
 70
     5
100
AcDbDimStyleTable
  0
DIMSTYLE
105
21E
330
A
100
AcDbSymbolTableRecord
100
AcDbDimStyleTableRecord
  2
STANDARD
 70
     0
 41
2.5
 42
0.75
 44
0.75
 47
0.01
 48
0.01
 71
     1
 73
     0
 74
     0
 77
     1
 78
     8
 79
     2
140
3.0
147
0.625
171
     1
178
     0
179
     2
271
     2
272
     2
278
    44
284
     8
340
11
341
217
342
217
343
217
344
217
  0
DIMSTYLE
105
21F
330
A
100
AcDbSymbolTableRecord
100
AcDbDimStyleTableRecord
  2
DIMSTYLE_1
 70
     0
 41
2.5
 42
0.75
 44
0.75
 47
0.2
 48
0.2
 73
     0
 74
     0
 77
     1
 78
     8
 79
     2
140
3.0
147
0.75
171
     1
178
     0
179
     2
271
     2
272
     2
278
    44
284
     8
340
11
341
217
342
217
343
217
344
217
  0
DIMSTYLE
105
220
330
A
100
AcDbSymbolTableRecord
100
AcDbDimStyleTableRecord
  2
DIMSTYLE_2
 70
     0
 41
2.5
 42
0.75
 44
0.75
 47
0.1
 48
0.1
 73
     0
 74
     0
 77
     1
 78
     8
 79
     2
140
3.0
147
0.75
171
     1
178
     0
179
     2
271
     2
272
     2
278
    44
284
     8
340
11
341
217
342
217
343
217
344
217
  0
DIMSTYLE
105
221
330
A
100
AcDbSymbolTableRecord
100
AcDbDimStyleTableRecord
  2
DIMSTYLE_3
 70
     0
  3
<>
 41
2.5
 42
0.75
 44
0.75
 47
0.3
 48
0.3
 73
     0
 74
     0
 77
     1
 78
     8
 79
     2
140
3.0
147
0.625
171
     1
172
     1
178
     0
179
     2
271
     2
272
     2
278
    44
284
     8
288
     1
289
     2
340
11
341
217
342
217
343
217
344
217
  0
DIMSTYLE
105
222
330
A
100
AcDbSymbolTableRecord
100
AcDbDimStyleTableRecord
  2
DIMSTYLE_4
 70
     0
 41
2.5
 42
0.75
 44
0.75
 47
0.3
 48
0.3
 73
     0
 74
     0
 77
     1
 78
     8
 79
     2
140
3.0
147
0.75
171
     1
178
     0
179
     2
271
     2
272
     2
278
    44
284
     8
340
11
341
217
342
217
343
217
344
217
  0
ENDTAB
  0
TABLE
  2
BLOCK_RECORD
  5
1
330
0
100
AcDbSymbolTable
 70
     7
  0
BLOCK_RECORD
  5
215
330
1
100
AcDbSymbolTableRecord
100
AcDbBlockTableRecord
  2
*Model_Space
340
417
 70
     0
280
     1
281
     0
  0
BLOCK_RECORD
  5
216
330
1
100
AcDbSymbolTableRecord
100
AcDbBlockTableRecord
  2
*Paper_Space
340
418
 70
     0
280
     1
281
     0
  0
BLOCK_RECORD
  5
217
330
1
100
AcDbSymbolTableRecord
100
AcDbBlockTableRecord
  2
_CLOSED
340
0
102
{BLKREFS
331
275
331
276
331
280
331
281
331
286
331
28E
331
28F
102
}
 70
     0
280
     1
281
     0
  0
BLOCK_RECORD
  5
218
330
1
100
AcDbSymbolTableRecord
100
AcDbBlockTableRecord
  2
*D1
340
0
 70
     0
280
     1
281
     0
  0
BLOCK_RECORD
  5
219
330
1
100
AcDbSymbolTableRecord
100
AcDbBlockTableRecord
  2
*D2
340
0
 70
     0
280
     1
281
     0
  0
BLOCK_RECORD
  5
21A
330
1
100
AcDbSymbolTableRecord
100
AcDbBlockTableRecord
  2
*D3
340
0
 70
     0
280
     1
281
     0
  0
BLOCK_RECORD
  5
21B
330
1
100
AcDbSymbolTableRecord
100
AcDbBlockTableRecord
  2
*D4
340
0
 70
     0
280
     1
281
     0
  0
BLOCK_RECORD
  5
21C
330
1
100
AcDbSymbolTableRecord
100
AcDbBlockTableRecord
  2
LOGO2_BL1
340
0
102
{BLKREFS
331
405
102
}
 70
     0
280
     1
281
     0
  0
BLOCK_RECORD
  5
21D
330
1
100
AcDbSymbolTableRecord
100
AcDbBlockTableRecord
  2
PROIEZIONE_EU_BL0
340
0
102
{BLKREFS
331
402
102
}
 70
     0
280
     1
281
     0
  0
ENDTAB
  0
ENDSEC
  0
SECTION
  2
BLOCKS
  0
BLOCK
  5
20
330
215
100
AcDbEntity
  8
0
100
AcDbBlockBegin
  2
*Model_Space
 70
     0
 10
0.0
 20
0.0
 30
0.0
  3
*Model_Space
  1

  0
ENDBLK
  5
21
330
215
100
AcDbEntity
  8
0
100
AcDbBlockEnd
  0
BLOCK
  5
1C
330
216
100
AcDbEntity
 67
     1
  8
0
100
AcDbBlockBegin
  2
*Paper_Space
 70
     0
 10
0.0
 20
0.0
 30
0.0
  3
*Paper_Space
  1

  0
ENDBLK
  5
1D
330
216
100
AcDbEntity
 67
     1
  8
0
100
AcDbBlockEnd
  0
BLOCK
  5
269
330
217
100
AcDbEntity
  8
0
100
AcDbBlockBegin
  2
_CLOSED
 70
     0
 10
0.0
 20
0.0
 30
0.0
  3
_CLOSED
  1

  0
LINE
  5
26A
330
217
100
AcDbEntity
  8
0
  6
ByBlock
 62
     0
100
AcDbLine
 10
0.0
 20
0.0
 30
0.0
 11
-1.0
 21
0.2
 31
0.0
  0
LINE
  5
26B
330
217
100
AcDbEntity
  8
0
  6
ByBlock
 62
     0
100
AcDbLine
 10
-1.0
 20
0.2
 30
0.0
 11
-1.0
 21
-0.2
 31
0.0
  0
LINE
  5
26C
330
217
100
AcDbEntity
  8
0
  6
ByBlock
 62
     0
100
AcDbLine
 10
-1.0
 20
-0.2
 30
0.0
 11
0.0
 21
0.0
 31
0.0
  0
LINE
  5
26D
330
217
100
AcDbEntity
  8
0
  6
ByBlock
 62
     0
100
AcDbLine
 10
-1.0
 20
0.0
 30
0.0
 11
0.0
 21
0.0
 31
0.0
  0
ENDBLK
  5
26E
330
217
100
AcDbEntity
  8
0
  6
ByBlock
 62
     0
100
AcDbBlockEnd
  0
BLOCK
  5
26F
330
218
100
AcDbEntity
  8
0
100
AcDbBlockBegin
  2
*D1
 70
     1
 10
0.0
 20
0.0
 30
0.0
  3
*D1
  1

  0
MTEXT
  5
270
330
218
100
AcDbEntity
  8
0
  6
Continuous
 62
     2
100
AcDbMText
 10
29.8309047422
 20
66.8726156843
 30
0.0
 40
3.0
 41
10.4832713755
 46
0.0
 71
     2
 72
     1
  1
28,42
 11
0.0
 21
1.0
 31
0.0
 73
     1
 44
0.9
  0
LINE
  5
271
330
218
100
AcDbEntity
  8
0
  6
Continuous
 62
     2
100
AcDbLine
 10
47.4285904033
 20
81.0817969436
 30
0.0
 11
32.8309047422
 21
81.0817969436
 31
0.0
  0
LINE
  5
272
330
218
100
AcDbEntity
  8
0
  6
Continuous
 62
     2
100
AcDbLine
 10
44.6735647496
 20
52.6634344249
 30
0.0
 11
32.8309047422
 21
52.6634344249
 31
0.0
  0
LINE
  5
273
330
218
100
AcDbEntity
  8
0
  6
Continuous
 62
     2
100
AcDbLine
 10
33.5809047422
 20
81.0817969436
 30
0.0
 11
33.5809047422
 21
66.8726156843
 31
0.0
  0
LINE
  5
274
330
218
100
AcDbEntity
  8
0
  6
Continuous
 62
     2
100
AcDbLine
 10
33.5809047422
 20
52.6634344249
 30
0.0
 11
33.5809047422
 21
66.8726156843
 31
0.0
  0
INSERT
  5
275
330
218
100
AcDbEntity
  8
0
  6
Continuous
 62
     2
100
AcDbBlockReference
  2
_CLOSED
 10
33.5809047422
 20
81.0817969436
 30
0.0
 41
2.5
 42
2.5
 43
2.5
 50
90.0
  0
INSERT
  5
276
330
218
100
AcDbEntity
  8
0
  6
Continuous
 62
     2
100
AcDbBlockReference
  2
_CLOSED
 10
33.5809047422
 20
52.6634344249
 30
0.0
 41
2.5
 42
2.5
 43
2.5
 50
270.0
  0
ENDBLK
  5
277
330
218
100
AcDbEntity
  8
0
  6
ByBlock
 62
     0
100
AcDbBlockEnd
  0
BLOCK
  5
278
330
219
100
AcDbEntity
  8
0
100
AcDbBlockBegin
  2
*D2
 70
     1
 10
0.0
 20
0.0
 30
0.0
  3
*D2
  1

  0
MTEXT
  5
279
330
219
100
AcDbEntity
  8
0
  6
Continuous
 62
     2
100
AcDbMText
 10
108.6974949246
 20
48.7437484781
 30
0.0
 40
3.0
 41
5.8215613383
 46
0.0
 71
     3
 72
     1
  1
1,5
 11
0.0
 21
1.0
 31
0.0
 73
     1
 44
0.9
  0
LINE
  5
27A
330
219
100
AcDbEntity
  8
0
  6
Continuous
 62
     2
100
AcDbLine
 10
105.8189754813
 20
52.6634344249
 30
0.0
 11
113.1974949246
 21
52.6634344249
 31
0.0
  0
LINE
  5
27B
330
219
100
AcDbEntity
  8
0
  6
Continuous
 62
     2
100
AcDbLine
 10
105.6300776036
 20
54.1634344249
 30
0.0
 11
113.1974949246
 21
54.1634344249
 31
0.0
  0
LINE
  5
27C
330
219
100
AcDbEntity
  8
0
  6
Continuous
 62
     2
100
AcDbLine
 10
112.4474949246
 20
52.6634344249
 30
0.0
 11
112.4474949246
 21
42.9221871398
 31
0.0
  0
LINE
  5
27D
330
219
100
AcDbEntity
  8
0
  6
Continuous
 62
     2
100
AcDbLine
 10
112.4474949246
 20
42.9221871398
 30
0.0
 11
112.4474949246
 21
53.4134344249
 31
0.0
  0
LINE
  5
27E
330
219
100
AcDbEntity
  8
0
  6
Continuous
 62
     2
100
AcDbLine
 10
112.4474949246
 20
54.1634344249
 30
0.0
 11
112.4474949246
 21
55.1634344249
 31
0.0
  0
LINE
  5
27F
330
219
100
AcDbEntity
  8
0
  6
Continuous
 62
     2
100
AcDbLine
 10
112.4474949246
 20
55.1634344249
 30
0.0
 11
112.4474949246
 21
53.4134344249
 31
0.0
  0
INSERT
  5
280
330
219
100
AcDbEntity
  8
0
  6
Continuous
 62
     2
100
AcDbBlockReference
  2
_CLOSED
 10
112.4474949246
 20
52.6634344249
 30
0.0
 41
2.5
 42
2.5
 43
2.5
 50
90.0
  0
INSERT
  5
281
330
219
100
AcDbEntity
  8
0
  6
Continuous
 62
     2
100
AcDbBlockReference
  2
_CLOSED
 10
112.4474949246
 20
54.1634344249
 30
0.0
 41
2.5
 42
2.5
 43
2.5
 50
270.0
  0
ENDBLK
  5
282
330
219
100
AcDbEntity
  8
0
  6
ByBlock
 62
     0
100
AcDbBlockEnd
  0
BLOCK
  5
283
330
21A
100
AcDbEntity
  8
0
100
AcDbBlockBegin
  2
*D3
 70
     1
 10
0.0
 20
0.0
 30
0.0
  3
*D3
  1

  0
MTEXT
  5
284
330
21A
100
AcDbEntity
  8
0
  6
Continuous
 62
     2
100
AcDbMText
 10
50.6440459006
 20
167.7674916385
 30
0.0
 40
3.0
 41
8.6617100372
 46
0.0
 71
     3
 72
     1
  1
{\Fgdt;n}\Farial.ttf;58
  7
TEXTSTYLE_2
 11
0.7618954148
 21
-0.647700067
 31
0.0
 73
     1
 44
0.9
  0
LINE
  5
285
330
21A
100
AcDbEntity
  8
0
  6
Continuous
 62
     2
100
AcDbLine
 10
53.785110573
 20
160.1752845113
 30
0.0
 11
41.6158534872
 21
170.5205740045
 31
0.0
  0
INSERT
  5
286
330
21A
100
AcDbEntity
  8
0
  6
Continuous
 62
     2
100
AcDbBlockReference
  2
_CLOSED
 10
53.785110573
 20
160.1752845113
 30
0.0
 41
2.5
 42
2.5
 43
2.5
 50
319.6315796049
  0
ENDBLK
  5
287
330
21A
100
AcDbEntity
  8
0
  6
ByBlock
 62
     0
100
AcDbBlockEnd
  0
BLOCK
  5
288
330
21B
100
AcDbEntity
  8
0
100
AcDbBlockBegin
  2
*D4
 70
     1
 10
0.0
 20
0.0
 30
0.0
  3
*D4
  1

  0
MTEXT
  5
289
330
21B
100
AcDbEntity
  8
0
  6
Continuous
 62
     2
100
AcDbMText
 10
156.729386667
 20
141.3919825674
 30
0.0
 40
3.0
 41
8.6617100372
 46
0.0
 71
     2
 72
     1
  1
{\Fgdt;n}\Farial.ttf;47
  7
TEXTSTYLE_2
 11
0.0
 21
1.0
 31
0.0
 73
     1
 44
0.9
  0
LINE
  5
28A
330
21B
100
AcDbEntity
  8
0
  6
Continuous
 62
     2
100
AcDbLine
 10
172.2385971449
 20
164.8919825674
 30
0.0
 11
159.729386667
 21
164.8919825674
 31
0.0
  0
LINE
  5
28B
330
21B
100
AcDbEntity
  8
0
  6
Continuous
 62
     2
100
AcDbLine
 10
172.1244222839
 20
117.8919825674
 30
0.0
 11
159.729386667
 21
117.8919825674
 31
0.0
  0
LINE
  5
28C
330
21B
100
AcDbEntity
  8
0
  6
Continuous
 62
     2
100
AcDbLine
 10
160.479386667
 20
164.8919825674
 30
0.0
 11
160.479386667
 21
141.3919825674
 31
0.0
  0
LINE
  5
28D
330
21B
100
AcDbEntity
  8
0
  6
Continuous
 62
     2
100
AcDbLine
 10
160.479386667
 20
117.8919825674
 30
0.0
 11
160.479386667
 21
141.3919825674
 31
0.0
  0
INSERT
  5
28E
330
21B
100
AcDbEntity
  8
0
  6
Continuous
 62
     2
100
AcDbBlockReference
  2
_CLOSED
 10
160.479386667
 20
164.8919825674
 30
0.0
 41
2.5
 42
2.5
 43
2.5
 50
90.0
  0
INSERT
  5
28F
330
21B
100
AcDbEntity
  8
0
  6
Continuous
 62
     2
100
AcDbBlockReference
  2
_CLOSED
 10
160.479386667
 20
117.8919825674
 30
0.0
 41
2.5
 42
2.5
 43
2.5
 50
270.0
  0
ENDBLK
  5
290
330
21B
100
AcDbEntity
  8
0
  6
ByBlock
 62
     0
100
AcDbBlockEnd
  0
BLOCK
  5
223
330
21C
100
AcDbEntity
  8
0
100
AcDbBlockBegin
  2
LOGO2_BL1
 70
     0
 10
167.8332771924
 20
44.9839440915
 30
0.0
  3
LOGO2_BL1
  1

  0
LINE
  5
224
330
21C
100
AcDbEntity
  8
0
  6
Continuous
 62
     7
100
AcDbLine
 10
159.5762024206
 20
48.1794354304
 30
0.0
 11
158.2718614913
 21
48.1794354304
 31
0.0
  0
LINE
  5
225
330
21C
100
AcDbEntity
  8
0
  6
Continuous
 62
     7
100
AcDbLine
 10
158.2718614913
 20
48.1794354304
 30
0.0
 11
158.2718614913
 21
37.7203693705
 31
0.0
  0
LINE
  5
226
330
21C
100
AcDbEntity
  8
0
  6
Continuous
 62
     7
100
AcDbLine
 10
158.2718614913
 20
37.7203693705
 30
0.0
 11
162.7529163795
 21
37.7203693705
 31
0.0
  0
LINE
  5
227
330
21C
100
AcDbEntity
  8
0
  6
Continuous
 62
     7
100
AcDbLine
 10
162.7529163795
 20
37.7203693705
 30
0.0
 11
162.7529163795
 21
38.9132236956
 31
0.0
  0
LINE
  5
228
330
21C
100
AcDbEntity
  8
0
  6
Continuous
 62
     7
100
AcDbLine
 10
162.7529163795
 20
38.9132236956
 30
0.0
 11
159.5762024206
 21
38.9132236956
 31
0.0
  0
LINE
  5
229
330
21C
100
AcDbEntity
  8
0
  6
Continuous
 62
     7
100
AcDbLine
 10
159.5762024206
 20
38.9132236956
 30
0.0
 11
159.5762024206
 21
48.1794354304
 31
0.0
  0
LINE
  5
22A
330
21C
100
AcDbEntity
  8
0
  6
Continuous
 62
     7
100
AcDbLine
 10
174.5125286369
 20
48.1794354304
 30
0.0
 11
173.2087111188
 21
48.1794354304
 31
0.0
  0
LINE
  5
22B
330
21C
100
AcDbEntity
  8
0
  6
Continuous
 62
     7
100
AcDbLine
 10
173.2087111188
 20
48.1794354304
 30
0.0
 11
173.2087111188
 21
37.7203693705
 31
0.0
  0
LINE
  5
22C
330
21C
100
AcDbEntity
  8
0
  6
Continuous
 62
     7
100
AcDbLine
 10
173.2087111188
 20
37.7203693705
 30
0.0
 11
177.6898968599
 21
37.7203693705
 31
0.0
  0
LINE
  5
22D
330
21C
100
AcDbEntity
  8
0
  6
Continuous
 62
     7
100
AcDbLine
 10
177.6898968599
 20
37.7203693705
 30
0.0
 11
177.6898968599
 21
38.9132236956
 31
0.0
  0
LINE
  5
22E
330
21C
100
AcDbEntity
  8
0
  6
Continuous
 62
     7
100
AcDbLine
 10
177.6898968599
 20
38.9132236956
 30
0.0
 11
174.5125286369
 21
38.9132236956
 31
0.0
  0
LINE
  5
22F
330
21C
100
AcDbEntity
  8
0
  6
Continuous
 62
     7
100
AcDbLine
 10
174.5125286369
 20
38.9132236956
 30
0.0
 11
174.5125286369
 21
48.1794354304
 31
0.0
  0
LWPOLYLINE
  5
230
330
21C
100
AcDbEntity
  8
0
  6
Continuous
 62
     7
100
AcDbPolyline
 90
        2
 70
     0
 43
0.2
 10
156.6262564022
 20
34.3768180636
 10
156.6262564022
 20
32.5197548143
  0
LWPOLYLINE
  5
231
330
21C
100
AcDbEntity
  8
0
  6
Continuous
 62
     7
100
AcDbPolyline
 90
        2
 70
     0
 43
0.2
 10
156.6262564022
 20
32.5197548143
 10
157.4219724126
 20
32.5197548143
  0
LWPOLYLINE
  5
232
330
21C
100
AcDbEntity
  8
0
  6
Continuous
 62
     7
100
AcDbPolyline
 90
        2
 70
     0
 43
0.2
 10
157.4219724126
 20
32.5197548143
 10
157.4219724126
 20
32.7317363858
  0
LWPOLYLINE
  5
233
330
21C
100
AcDbEntity
  8
0
  6
Continuous
 62
     7
100
AcDbPolyline
 90
        2
 70
     0
 43
0.2
 10
157.4219724126
 20
32.7317363858
 10
156.8578658971
 20
32.7317363858
  0
LWPOLYLINE
  5
234
330
21C
100
AcDbEntity
  8
0
  6
Continuous
 62
     7
100
AcDbPolyline
 90
        2
 70
     0
 43
0.2
 10
156.8578658971
 20
32.7317363858
 10
156.8578658971
 20
34.3768180636
  0
LWPOLYLINE
  5
235
330
21C
100
AcDbEntity
  8
0
  6
Continuous
 62
     7
100
AcDbPolyline
 90
        2
 70
     0
 43
0.2
 10
156.8578658971
 20
34.3768180636
 10
156.6262564022
 20
34.3768180636
  0
SPLINE
  5
236
330
21C
100
AcDbEntity
  8
0
  6
Continuous
 62
     7
100
AcDbSpline
 70
     3
 71
     3
 72
    35
 73
    31
 74
     0
 42
0.000000001
 43
0.0000001
 40
0.0
 40
0.0
 40
0.0
 40
0.0
 40
1.0
 40
1.0
 40
1.0
 40
2.0
 40
2.0
 40
2.0
 40
3.0
 40
3.0
 40
3.0
 40
4.0
 40
4.0
 40
4.0
 40
5.0
 40
5.0
 40
5.0
 40
6.0
 40
6.0
 40
6.0
 40
7.0
 40
7.0
 40
7.0
 40
8.0
 40
8.0
 40
8.0
 40
9.0
 40
9.0
 40
9.0
 40
10.0
 40
10.0
 40
10.0
 40
10.0
 10
158.8202656681
 20
33.6723064701
 30
0.0
 10
158.8202656681
 20
33.6723064701
 30
0.0
 10
158.8202656681
 20
33.010191191
 30
0.0
 10
158.8202656681
 20
33.010191191
 30
0.0
 10
158.8202656681
 20
32.6950975957
 30
0.0
 10
158.9681293569
 20
32.4804989677
 30
0.0
 10
159.3082158412
 20
32.4804989677
 30
0.0
 10
159.6477789142
 20
32.4804989677
 30
0.0
 10
159.7959043087
 20
32.6950975957
 30
0.0
 10
159.7959043087
 20
33.010191191
 30
0.0
 10
159.7959043087
 20
33.010191191
 30
0.0
 10
159.7959043087
 20
33.6723064701
 30
0.0
 10
159.7959043087
 20
33.6723064701
 30
0.0
 10
159.7959043087
 20
33.6723064701
 30
0.0
 10
159.5738470698
 20
33.6723064701
 30
0.0
 10
159.5738470698
 20
33.6723064701
 30
0.0
 10
159.5738470698
 20
33.6723064701
 30
0.0
 10
159.5738470698
 20
33.0353149328
 30
0.0
 10
159.5738470698
 20
33.0353149328
 30
0.0
 10
159.5738470698
 20
32.8495039256
 30
0.0
 10
159.5271326124
 20
32.6867230151
 30
0.0
 10
159.3082158412
 20
32.6867230151
 30
0.0
 10
159.0887756588
 20
32.6867230151
 30
0.0
 10
159.0420612014
 20
32.8495039256
 30
0.0
 10
159.0420612014
 20
33.0353149328
 30
0.0
 10
159.0420612014
 20
33.0353149328
 30
0.0
 10
159.0420612014
 20
33.6723064701
 30
0.0
 10
159.0420612014
 20
33.6723064701
 30
0.0
 10
159.0420612014
 20
33.6723064701
 30
0.0
 10
158.8202656681
 20
33.6723064701
 30
0.0
 10
158.8202656681
 20
33.6723064701
 30
0.0
  0
SPLINE
  5
237
330
21C
100
AcDbEntity
  8
0
  6
Continuous
 62
     7
100
AcDbSpline
 70
     3
 71
     3
 72
    35
 73
    31
 74
     0
 42
0.000000001
 43
0.0000001
 40
0.0
 40
0.0
 40
0.0
 40
0.0
 40
1.0
 40
1.0
 40
1.0
 40
2.0
 40
2.0
 40
2.0
 40
3.0
 40
3.0
 40
3.0
 40
4.0
 40
4.0
 40
4.0
 40
5.0
 40
5.0
 40
5.0
 40
6.0
 40
6.0
 40
6.0
 40
7.0
 40
7.0
 40
7.0
 40
8.0
 40
8.0
 40
8.0
 40
9.0
 40
9.0
 40
9.0
 40
10.0
 40
10.0
 40
10.0
 40
10.0
 10
162.2190368659
 20
33.6309569784
 30
0.0
 10
162.1305803583
 20
33.6822512846
 30
0.0
 10
162.0171309616
 20
33.7073750264
 30
0.0
 10
161.9134955266
 20
33.7073750264
 30
0.0
 10
161.5586226734
 20
33.7073750264
 30
0.0
 10
161.2831774832
 20
33.4435757373
 30
0.0
 10
161.2831774832
 20
33.0860858277
 30
0.0
 10
161.2831774832
 20
32.741157789
 30
0.0
 10
161.5616322883
 20
32.481022379
 30
0.0
 10
161.9011953613
 20
32.481022379
 30
0.0
 10
162.0171309616
 20
32.481022379
 30
0.0
 10
162.1178876345
 20
32.503005653
 30
0.0
 10
162.2190368659
 20
32.5569170157
 30
0.0
 10
162.2190368659
 20
32.5569170157
 30
0.0
 10
162.2190368659
 20
32.8395591111
 30
0.0
 10
162.2190368659
 20
32.8395591111
 30
0.0
 10
162.135160207
 20
32.7463919019
 30
0.0
 10
162.0316556248
 20
32.6872464264
 30
0.0
 10
161.9035507121
 20
32.6872464264
 30
0.0
 10
161.6698475721
 20
32.6872464264
 30
0.0
 10
161.504580458
 20
32.8594487401
 30
0.0
 10
161.504580458
 20
33.0960306422
 30
0.0
 10
161.504580458
 20
33.3080122138
 30
0.0
 10
161.6723337757
 20
33.5001041564
 30
0.0
 10
161.8891569017
 20
33.5001041564
 30
0.0
 10
162.021972516
 20
33.5001041564
 30
0.0
 10
162.1305803583
 20
33.4461927938
 30
0.0
 10
162.2190368659
 20
33.3451744152
 30
0.0
 10
162.2190368659
 20
33.3451744152
 30
0.0
 10
162.2190368659
 20
33.6309569784
 30
0.0
 10
162.2190368659
 20
33.6309569784
 30
0.0
  0
SPLINE
  5
238
330
21C
100
AcDbEntity
  8
0
  6
Continuous
 62
     7
100
AcDbSpline
 70
     3
 71
     3
 72
    32
 73
    28
 74
     0
 42
0.000000001
 43
0.0000001
 40
0.0
 40
0.0
 40
0.0
 40
0.0
 40
1.0
 40
1.0
 40
1.0
 40
2.0
 40
2.0
 40
2.0
 40
3.0
 40
3.0
 40
3.0
 40
4.0
 40
4.0
 40
4.0
 40
5.0
 40
5.0
 40
5.0
 40
6.0
 40
6.0
 40
6.0
 40
7.0
 40
7.0
 40
7.0
 40
8.0
 40
8.0
 40
8.0
 40
9.0
 40
9.0
 40
9.0
 40
9.0
 10
164.7509081182
 20
33.0593918521
 30
0.0
 10
164.7509081182
 20
33.0593918521
 30
0.0
 10
164.7509081182
 20
33.0934135858
 30
0.0
 10
164.7509081182
 20
33.0934135858
 30
0.0
 10
164.7509081182
 20
33.435724568
 30
0.0
 10
164.5780515403
 20
33.7073750264
 30
0.0
 10
164.2114019332
 20
33.7073750264
 30
0.0
 10
163.8397799188
 20
33.7073750264
 30
0.0
 10
163.6500433269
 20
33.4409586809
 30
0.0
 10
163.6500433269
 20
33.0860858277
 30
0.0
 10
163.6500433269
 20
32.7463919019
 30
0.0
 10
163.8641185437
 20
32.4804989677
 30
0.0
 10
164.2162434876
 20
32.4804989677
 30
0.0
 10
164.4402635188
 20
32.4804989677
 30
0.0
 10
164.6424311287
 20
32.5961728623
 30
0.0
 10
164.7509081182
 20
32.795592563
 30
0.0
 10
164.7509081182
 20
32.795592563
 30
0.0
 10
164.5632651715
 20
32.9023684657
 30
0.0
 10
164.5632651715
 20
32.9023684657
 30
0.0
 10
164.479781071
 20
32.7636644744
 30
0.0
 10
164.3885766541
 20
32.6778250232
 30
0.0
 10
164.2189913969
 20
32.6778250232
 30
0.0
 10
164.0070098253
 20
32.6778250232
 30
0.0
 10
163.8740633582
 20
32.8625892078
 30
0.0
 10
163.8717080074
 20
33.0593918521
 30
0.0
 10
163.8717080074
 20
33.0593918521
 30
0.0
 10
164.7509081182
 20
33.0593918521
 30
0.0
 10
164.7509081182
 20
33.0593918521
 30
0.0
  0
SPLINE
  5
239
330
21C
100
AcDbEntity
  8
0
  6
Continuous
 62
     7
100
AcDbSpline
 70
     3
 71
     3
 72
    14
 73
    10
 74
     0
 42
0.000000001
 43
0.0000001
 40
0.0
 40
0.0
 40
0.0
 40
0.0
 40
1.0
 40
1.0
 40
1.0
 40
2.0
 40
2.0
 40
2.0
 40
3.0
 40
3.0
 40
3.0
 40
3.0
 10
163.883746467
 20
33.2268834642
 30
0.0
 10
163.9113564124
 20
33.3917580198
 30
0.0
 10
164.0391996195
 20
33.5147596725
 30
0.0
 10
164.2114019332
 20
33.5147596725
 30
0.0
 10
164.3885766541
 20
33.5147596725
 30
0.0
 10
164.5020260508
 20
33.3990857779
 30
0.0
 10
164.5292434377
 20
33.2268834642
 30
0.0
 10
164.5292434377
 20
33.2268834642
 30
0.0
 10
163.883746467
 20
33.2268834642
 30
0.0
 10
163.883746467
 20
33.2268834642
 30
0.0
  0
SPLINE
  5
23A
330
21C
100
AcDbEntity
  8
0
  6
Continuous
 62
     7
100
AcDbSpline
 70
     3
 71
     3
 72
    20
 73
    16
 74
     0
 42
0.000000001
 43
0.0000001
 40
0.0
 40
0.0
 40
0.0
 40
0.0
 40
1.0
 40
1.0
 40
1.0
 40
2.0
 40
2.0
 40
2.0
 40
3.0
 40
3.0
 40
3.0
 40
4.0
 40
4.0
 40
4.0
 40
5.0
 40
5.0
 40
5.0
 40
5.0
 10
166.7749395683
 20
33.4362479793
 30
0.0
 10
166.7749395683
 20
33.4362479793
 30
0.0
 10
167.186079135
 20
32.933773143
 30
0.0
 10
167.186079135
 20
32.933773143
 30
0.0
 10
167.0700126819
 20
32.8180992483
 30
0.0
 10
166.9322246604
 20
32.6877698377
 30
0.0
 10
166.7602840523
 20
32.6877698377
 30
0.0
 10
166.5828476257
 20
32.6877698377
 30
0.0
 10
166.4153560136
 20
32.8521209821
 30
0.0
 10
166.4153560136
 20
33.0290339974
 30
0.0
 10
166.4153560136
 20
33.2069938352
 30
0.0
 10
166.6251130872
 20
33.3331359556
 30
0.0
 10
166.7526945886
 20
33.421069052
 30
0.0
 10
166.7526945886
 20
33.421069052
 30
0.0
 10
166.7749395683
 20
33.4362479793
 30
0.0
 10
166.7749395683
 20
33.4362479793
 30
0.0
  0
SPLINE
  5
23B
330
21C
100
AcDbEntity
  8
0
  6
Continuous
 62
     7
100
AcDbSpline
 70
     3
 71
     3
 72
    23
 73
    19
 74
     0
 42
0.000000001
 43
0.0000001
 40
0.0
 40
0.0
 40
0.0
 40
0.0
 40
1.0
 40
1.0
 40
1.0
 40
2.0
 40
2.0
 40
2.0
 40
3.0
 40
3.0
 40
3.0
 40
4.0
 40
4.0
 40
4.0
 40
5.0
 40
5.0
 40
5.0
 40
6.0
 40
6.0
 40
6.0
 40
6.0
 10
166.8242710822
 20
33.7272646554
 30
0.0
 10
166.8242710822
 20
33.7272646554
 30
0.0
 10
166.7626394031
 20
33.8057763486
 30
0.0
 10
166.7626394031
 20
33.8057763486
 30
0.0
 10
166.7087280404
 20
33.8743432273
 30
0.0
 10
166.6519379157
 20
33.9434335173
 30
0.0
 10
166.6519379157
 20
34.0371241378
 30
0.0
 10
166.6519379157
 20
34.1559385001
 30
0.0
 10
166.7478530342
 20
34.2334033707
 30
0.0
 10
166.8588162272
 20
34.2334033707
 30
0.0
 10
166.9820795855
 20
34.2334033707
 30
0.0
 10
167.0753776476
 20
34.1622194356
 30
0.0
 10
167.0753776476
 20
34.0318900249
 30
0.0
 10
167.0753776476
 20
33.8968499126
 30
0.0
 10
166.9472727349
 20
33.8204318646
 30
0.0
 10
166.8537129672
 20
33.746630873
 30
0.0
 10
166.8537129672
 20
33.746630873
 30
0.0
 10
166.8242710822
 20
33.7272646554
 30
0.0
 10
166.8242710822
 20
33.7272646554
 30
0.0
  0
SPLINE
  5
23C
330
21C
100
AcDbEntity
  8
0
  6
Continuous
 62
     7
100
AcDbSpline
 70
     3
 71
     3
 72
    50
 73
    46
 74
     0
 42
0.000000001
 43
0.0000001
 40
0.0
 40
0.0
 40
0.0
 40
0.0
 40
1.0
 40
1.0
 40
1.0
 40
2.0
 40
2.0
 40
2.0
 40
3.0
 40
3.0
 40
3.0
 40
4.0
 40
4.0
 40
4.0
 40
5.0
 40
5.0
 40
5.0
 40
6.0
 40
6.0
 40
6.0
 40
7.0
 40
7.0
 40
7.0
 40
8.0
 40
8.0
 40
8.0
 40
9.0
 40
9.0
 40
9.0
 40
10.0
 40
10.0
 40
10.0
 40
11.0
 40
11.0
 40
11.0
 40
12.0
 40
12.0
 40
12.0
 40
13.0
 40
13.0
 40
13.0
 40
14.0
 40
14.0
 40
14.0
 40
15.0
 40
15.0
 40
15.0
 40
15.0
 10
167.5264273249
 20
32.5202782255
 30
0.0
 10
167.5264273249
 20
32.5202782255
 30
0.0
 10
167.8118173296
 20
32.5202782255
 30
0.0
 10
167.8118173296
 20
32.5202782255
 30
0.0
 10
167.8118173296
 20
32.5202782255
 30
0.0
 10
167.4794511618
 20
32.9311560865
 30
0.0
 10
167.4794511618
 20
32.9311560865
 30
0.0
 10
167.4794511618
 20
32.9311560865
 30
0.0
 10
167.7059573966
 20
33.1970490208
 30
0.0
 10
167.7059573966
 20
33.1970490208
 30
0.0
 10
167.7059573966
 20
33.1970490208
 30
0.0
 10
167.5577011494
 20
33.3498851168
 30
0.0
 10
167.5577011494
 20
33.3498851168
 30
0.0
 10
167.5577011494
 20
33.3498851168
 30
0.0
 10
167.3417939931
 20
33.0986476986
 30
0.0
 10
167.3417939931
 20
33.0986476986
 30
0.0
 10
167.3417939931
 20
33.0986476986
 30
0.0
 10
166.9547313457
 20
33.56657739
 30
0.0
 10
166.9547313457
 20
33.56657739
 30
0.0
 10
167.1101844982
 20
33.6806810508
 30
0.0
 10
167.2924624792
 20
33.8204318646
 30
0.0
 10
167.2924624792
 20
34.0297963798
 30
0.0
 10
167.2924624792
 20
34.2737060399
 30
0.0
 10
167.0904257221
 20
34.4171207328
 30
0.0
 10
166.8639194873
 20
34.4171207328
 30
0.0
 10
166.6197481215
 20
34.4171207328
 30
0.0
 10
166.4353764953
 20
34.2663782819
 30
0.0
 10
166.4353764953
 20
34.0099067508
 30
0.0
 10
166.4353764953
 20
33.8523599532
 30
0.0
 10
166.5340395231
 20
33.7147027845
 30
0.0
 10
166.6393760448
 20
33.6037395914
 30
0.0
 10
166.6393760448
 20
33.6037395914
 30
0.0
 10
166.523833003
 20
33.5199937854
 30
0.0
 10
166.523833003
 20
33.5199937854
 30
0.0
 10
166.3461348708
 20
33.3917580198
 30
0.0
 10
166.1987945932
 20
33.2640456656
 30
0.0
 10
166.1987945932
 20
33.0269403522
 30
0.0
 10
166.1987945932
 20
32.706612644
 30
0.0
 10
166.4573597694
 20
32.4804989677
 30
0.0
 10
166.7677426631
 20
32.4804989677
 30
0.0
 10
166.9866594343
 20
32.4804989677
 30
0.0
 10
167.183854637
 20
32.6055942655
 30
0.0
 10
167.3241288621
 20
32.7715156437
 30
0.0
 10
167.3241288621
 20
32.7715156437
 30
0.0
 10
167.5264273249
 20
32.5202782255
 30
0.0
 10
167.5264273249
 20
32.5202782255
 30
0.0
  0
LWPOLYLINE
  5
23D
330
21C
100
AcDbEntity
  8
0
  6
Continuous
 62
     7
100
AcDbPolyline
 90
        2
 70
     0
 43
0.2
 10
169.4618714146
 20
34.3768180636
 10
169.2305236254
 20
34.3768180636
  0
LWPOLYLINE
  5
23E
330
21C
100
AcDbEntity
  8
0
  6
Continuous
 62
     7
100
AcDbPolyline
 90
        2
 70
     0
 43
0.2
 10
169.2305236254
 20
34.3768180636
 10
169.2305236254
 20
32.5197548143
  0
LWPOLYLINE
  5
23F
330
21C
100
AcDbEntity
  8
0
  6
Continuous
 62
     7
100
AcDbPolyline
 90
        2
 70
     0
 43
0.2
 10
169.2305236254
 20
32.5197548143
 10
170.0258470773
 20
32.5197548143
  0
LWPOLYLINE
  5
240
330
21C
100
AcDbEntity
  8
0
  6
Continuous
 62
     7
100
AcDbPolyline
 90
        2
 70
     0
 43
0.2
 10
170.0258470773
 20
32.5197548143
 10
170.0258470773
 20
32.7317363858
  0
LWPOLYLINE
  5
241
330
21C
100
AcDbEntity
  8
0
  6
Continuous
 62
     7
100
AcDbPolyline
 90
        2
 70
     0
 43
0.2
 10
170.0258470773
 20
32.7317363858
 10
169.4618714146
 20
32.7317363858
  0
LWPOLYLINE
  5
242
330
21C
100
AcDbEntity
  8
0
  6
Continuous
 62
     7
100
AcDbPolyline
 90
        2
 70
     0
 43
0.2
 10
169.4618714146
 20
32.7317363858
 10
169.4618714146
 20
34.3768180636
  0
LWPOLYLINE
  5
243
330
21C
100
AcDbEntity
  8
0
  6
Continuous
 62
     7
100
AcDbPolyline
 90
        2
 70
     0
 43
0.2
 10
171.7049504888
 20
33.6723064701
 10
171.4838092197
 20
33.6723064701
  0
LWPOLYLINE
  5
244
330
21C
100
AcDbEntity
  8
0
  6
Continuous
 62
     7
100
AcDbPolyline
 90
        2
 70
     0
 43
0.2
 10
171.4838092197
 20
33.6723064701
 10
171.4838092197
 20
32.5202782255
  0
LWPOLYLINE
  5
245
330
21C
100
AcDbEntity
  8
0
  6
Continuous
 62
     7
100
AcDbPolyline
 90
        2
 70
     0
 43
0.2
 10
171.4838092197
 20
32.5202782255
 10
171.7049504888
 20
32.5202782255
  0
LWPOLYLINE
  5
246
330
21C
100
AcDbEntity
  8
0
  6
Continuous
 62
     7
100
AcDbPolyline
 90
        2
 70
     0
 43
0.2
 10
171.7049504888
 20
32.5202782255
 10
171.7049504888
 20
33.6723064701
  0
SPLINE
  5
247
330
21C
100
AcDbEntity
  8
0
  6
Continuous
 62
     7
100
AcDbSpline
 70
     3
 71
     3
 72
    17
 73
    13
 74
     0
 42
0.000000001
 43
0.0000001
 40
0.0
 40
0.0
 40
0.0
 40
0.0
 40
1.0
 40
1.0
 40
1.0
 40
2.0
 40
2.0
 40
2.0
 40
3.0
 40
3.0
 40
3.0
 40
4.0
 40
4.0
 40
4.0
 40
4.0
 10
171.5945107071
 20
34.3548347895
 30
0.0
 10
171.5105031954
 20
34.3548347895
 30
0.0
 10
171.4419363166
 20
34.2857444995
 30
0.0
 10
171.4419363166
 20
34.1999050483
 30
0.0
 10
171.4419363166
 20
34.115635831
 30
0.0
 10
171.5105031954
 20
34.0496860087
 30
0.0
 10
171.5945107071
 20
34.0496860087
 30
0.0
 10
171.6782565131
 20
34.0496860087
 30
0.0
 10
171.7470850975
 20
34.115635831
 30
0.0
 10
171.7470850975
 20
34.1999050483
 30
0.0
 10
171.7470850975
 20
34.2857444995
 30
0.0
 10
171.6782565131
 20
34.3548347895
 30
0.0
 10
171.5945107071
 20
34.3548347895
 30
0.0
  0
SPLINE
  5
248
330
21C
100
AcDbEntity
  8
0
  6
Continuous
 62
     7
100
AcDbSpline
 70
     3
 71
     3
 72
    17
 73
    13
 74
     0
 42
0.000000001
 43
0.0000001
 40
0.0
 40
0.0
 40
0.0
 40
0.0
 40
1.0
 40
1.0
 40
1.0
 40
2.0
 40
2.0
 40
2.0
 40
3.0
 40
3.0
 40
3.0
 40
4.0
 40
4.0
 40
4.0
 40
4.0
 10
173.8352344304
 20
32.6778250232
 30
0.0
 10
173.6012695848
 20
32.6778250232
 30
0.0
 10
173.4709401741
 20
32.8798617803
 30
0.0
 10
173.4709401741
 20
33.0960306422
 30
0.0
 10
173.4709401741
 20
33.3106292702
 30
0.0
 10
173.6067654033
 20
33.5095255596
 30
0.0
 10
173.8352344304
 20
33.5095255596
 30
0.0
 10
174.0746950946
 20
33.5095255596
 30
0.0
 10
174.2102586182
 20
33.3205740847
 30
0.0
 10
174.2102586182
 20
33.0960306422
 30
0.0
 10
174.2102586182
 20
32.8699169658
 30
0.0
 10
174.0770504454
 20
32.6778250232
 30
0.0
 10
173.8352344304
 20
32.6778250232
 30
0.0
  0
SPLINE
  5
249
330
21C
100
AcDbEntity
  8
0
  6
Continuous
 62
     7
100
AcDbSpline
 70
     3
 71
     3
 72
    50
 73
    46
 74
     0
 42
0.000000001
 43
0.0000001
 40
0.0
 40
0.0
 40
0.0
 40
0.0
 40
1.0
 40
1.0
 40
1.0
 40
2.0
 40
2.0
 40
2.0
 40
3.0
 40
3.0
 40
3.0
 40
4.0
 40
4.0
 40
4.0
 40
5.0
 40
5.0
 40
5.0
 40
6.0
 40
6.0
 40
6.0
 40
7.0
 40
7.0
 40
7.0
 40
8.0
 40
8.0
 40
8.0
 40
9.0
 40
9.0
 40
9.0
 40
10.0
 40
10.0
 40
10.0
 40
11.0
 40
11.0
 40
11.0
 40
12.0
 40
12.0
 40
12.0
 40
13.0
 40
13.0
 40
13.0
 40
14.0
 40
14.0
 40
14.0
 40
15.0
 40
15.0
 40
15.0
 40
15.0
 10
174.4193614277
 20
33.6728298814
 30
0.0
 10
174.4193614277
 20
33.6728298814
 30
0.0
 10
174.1976967473
 20
33.6728298814
 30
0.0
 10
174.1976967473
 20
33.6728298814
 30
0.0
 10
174.1976967473
 20
33.6728298814
 30
0.0
 10
174.1976967473
 20
33.4755038259
 30
0.0
 10
174.1976967473
 20
33.4755038259
 30
0.0
 10
174.1976967473
 20
33.4755038259
 30
0.0
 10
174.1929860457
 20
33.4755038259
 30
0.0
 10
174.1929860457
 20
33.4755038259
 30
0.0
 10
174.101650776
 20
33.6183951075
 30
0.0
 10
173.9637319016
 20
33.7068516151
 30
0.0
 10
173.7910061766
 20
33.7068516151
 30
0.0
 10
173.4586400088
 20
33.7068516151
 30
0.0
 10
173.2495371993
 20
33.4189754068
 30
0.0
 10
173.2495371993
 20
33.1033584002
 30
0.0
 10
173.2495371993
 20
32.7736092889
 30
0.0
 10
173.4466015492
 20
32.4804989677
 30
0.0
 10
173.8014744024
 20
32.4804989677
 30
0.0
 10
173.9637319016
 20
32.4804989677
 30
0.0
 10
174.1037444211
 20
32.5689554753
 30
0.0
 10
174.1929860457
 20
32.6998082973
 30
0.0
 10
174.1929860457
 20
32.6998082973
 30
0.0
 10
174.1976967473
 20
32.6998082973
 30
0.0
 10
174.1976967473
 20
32.6998082973
 30
0.0
 10
174.1976967473
 20
32.6998082973
 30
0.0
 10
174.1976967473
 20
32.4804989677
 30
0.0
 10
174.1976967473
 20
32.4804989677
 30
0.0
 10
174.1976967473
 20
32.2439170656
 30
0.0
 10
174.1411683282
 20
32.0570592358
 30
0.0
 10
173.8679476359
 20
32.0570592358
 30
0.0
 10
173.6656491732
 20
32.0570592358
 30
0.0
 10
173.5230195972
 20
32.1753501868
 30
0.0
 10
173.5230195972
 20
32.3815742343
 30
0.0
 10
173.5230195972
 20
32.3815742343
 30
0.0
 10
173.3013549168
 20
32.3815742343
 30
0.0
 10
173.3013549168
 20
32.3815742343
 30
0.0
 10
173.306327324
 20
32.0570592358
 30
0.0
 10
173.5374134076
 20
31.8602565915
 30
0.0
 10
173.8577411158
 20
31.8602565915
 30
0.0
 10
174.3057811782
 20
31.8602565915
 30
0.0
 10
174.4193614277
 20
32.1455157434
 30
0.0
 10
174.4193614277
 20
32.5422614996
 30
0.0
 10
174.4193614277
 20
32.5422614996
 30
0.0
 10
174.4193614277
 20
33.6728298814
 30
0.0
 10
174.4193614277
 20
33.6728298814
 30
0.0
  0
SPLINE
  5
24A
330
21C
100
AcDbEntity
  8
0
  6
Continuous
 62
     7
100
AcDbSpline
 70
     3
 71
     3
 72
    44
 73
    40
 74
     0
 42
0.000000001
 43
0.0000001
 40
0.0
 40
0.0
 40
0.0
 40
0.0
 40
1.0
 40
1.0
 40
1.0
 40
2.0
 40
2.0
 40
2.0
 40
3.0
 40
3.0
 40
3.0
 40
4.0
 40
4.0
 40
4.0
 40
5.0
 40
5.0
 40
5.0
 40
6.0
 40
6.0
 40
6.0
 40
7.0
 40
7.0
 40
7.0
 40
8.0
 40
8.0
 40
8.0
 40
9.0
 40
9.0
 40
9.0
 40
10.0
 40
10.0
 40
10.0
 40
11.0
 40
11.0
 40
11.0
 40
12.0
 40
12.0
 40
12.0
 40
13.0
 40
13.0
 40
13.0
 40
13.0
 10
175.9882867631
 20
34.6578899252
 30
0.0
 10
175.9882867631
 20
34.6578899252
 30
0.0
 10
175.9882867631
 20
32.5197548143
 30
0.0
 10
175.9882867631
 20
32.5197548143
 30
0.0
 10
175.9882867631
 20
32.5197548143
 30
0.0
 10
176.2096897379
 20
32.5197548143
 30
0.0
 10
176.2096897379
 20
32.5197548143
 30
0.0
 10
176.2096897379
 20
32.5197548143
 30
0.0
 10
176.2096897379
 20
33.0494470376
 30
0.0
 10
176.2096897379
 20
33.0494470376
 30
0.0
 10
176.2096897379
 20
33.259334964
 30
0.0
 10
176.2096897379
 20
33.5100489709
 30
0.0
 10
176.4949488897
 20
33.5100489709
 30
0.0
 10
176.721847683
 20
33.5100489709
 30
0.0
 10
176.7488033644
 20
33.3771025038
 30
0.0
 10
176.7488033644
 20
33.1808232708
 30
0.0
 10
176.7488033644
 20
33.1808232708
 30
0.0
 10
176.7488033644
 20
32.5197548143
 30
0.0
 10
176.7488033644
 20
32.5197548143
 30
0.0
 10
176.7488033644
 20
32.5197548143
 30
0.0
 10
176.9707297504
 20
32.5197548143
 30
0.0
 10
176.9707297504
 20
32.5197548143
 30
0.0
 10
176.9707297504
 20
32.5197548143
 30
0.0
 10
176.9707297504
 20
33.2069938352
 30
0.0
 10
176.9707297504
 20
33.2069938352
 30
0.0
 10
176.9707297504
 20
33.4875422855
 30
0.0
 10
176.8867222387
 20
33.7073750264
 30
0.0
 10
176.5616838289
 20
33.7073750264
 30
0.0
 10
176.4219330151
 20
33.7073750264
 30
0.0
 10
176.2837524351
 20
33.6409017929
 30
0.0
 10
176.2144004394
 20
33.5179001402
 30
0.0
 10
176.2144004394
 20
33.5179001402
 30
0.0
 10
176.2096897379
 20
33.5179001402
 30
0.0
 10
176.2096897379
 20
33.5179001402
 30
0.0
 10
176.2096897379
 20
33.5179001402
 30
0.0
 10
176.2096897379
 20
34.6578899252
 30
0.0
 10
176.2096897379
 20
34.6578899252
 30
0.0
 10
176.2096897379
 20
34.6578899252
 30
0.0
 10
175.9882867631
 20
34.6578899252
 30
0.0
 10
175.9882867631
 20
34.6578899252
 30
0.0
  0
LWPOLYLINE
  5
24B
330
21C
100
AcDbEntity
  8
0
  6
Continuous
 62
     7
100
AcDbPolyline
 90
        2
 70
     0
 43
0.2
 10
178.8105204273
 20
33.4655590114
 10
179.0269509948
 20
33.4655590114
  0
LWPOLYLINE
  5
24C
330
21C
100
AcDbEntity
  8
0
  6
Continuous
 62
     7
100
AcDbPolyline
 90
        2
 70
     0
 43
0.2
 10
179.0269509948
 20
33.4655590114
 10
179.0269509948
 20
33.6723064701
  0
LWPOLYLINE
  5
24D
330
21C
100
AcDbEntity
  8
0
  6
Continuous
 62
     7
100
AcDbPolyline
 90
        2
 70
     0
 43
0.2
 10
179.0269509948
 20
33.6723064701
 10
178.8105204273
 20
33.6723064701
  0
LWPOLYLINE
  5
24E
330
21C
100
AcDbEntity
  8
0
  6
Continuous
 62
     7
100
AcDbPolyline
 90
        2
 70
     0
 43
0.2
 10
178.8105204273
 20
33.6723064701
 10
178.8105204273
 20
34.1130187745
  0
LWPOLYLINE
  5
24F
330
21C
100
AcDbEntity
  8
0
  6
Continuous
 62
     7
100
AcDbPolyline
 90
        2
 70
     0
 43
0.2
 10
178.8105204273
 20
34.1130187745
 10
178.5888557469
 20
34.1130187745
  0
LWPOLYLINE
  5
250
330
21C
100
AcDbEntity
  8
0
  6
Continuous
 62
     7
100
AcDbPolyline
 90
        2
 70
     0
 43
0.2
 10
178.5888557469
 20
34.1130187745
 10
178.5888557469
 20
33.6723064701
  0
LWPOLYLINE
  5
251
330
21C
100
AcDbEntity
  8
0
  6
Continuous
 62
     7
100
AcDbPolyline
 90
        2
 70
     0
 43
0.2
 10
178.5888557469
 20
33.6723064701
 10
178.468209445
 20
33.6723064701
  0
LWPOLYLINE
  5
252
330
21C
100
AcDbEntity
  8
0
  6
Continuous
 62
     7
100
AcDbPolyline
 90
        2
 70
     0
 43
0.2
 10
178.468209445
 20
33.6723064701
 10
178.468209445
 20
33.4655590114
  0
LWPOLYLINE
  5
253
330
21C
100
AcDbEntity
  8
0
  6
Continuous
 62
     7
100
AcDbPolyline
 90
        2
 70
     0
 43
0.2
 10
178.468209445
 20
33.4655590114
 10
178.5888557469
 20
33.4655590114
  0
LWPOLYLINE
  5
254
330
21C
100
AcDbEntity
  8
0
  6
Continuous
 62
     7
100
AcDbPolyline
 90
        2
 70
     0
 43
0.2
 10
178.5888557469
 20
33.4655590114
 10
178.5888557469
 20
32.5197548143
  0
LWPOLYLINE
  5
255
330
21C
100
AcDbEntity
  8
0
  6
Continuous
 62
     7
100
AcDbPolyline
 90
        2
 70
     0
 43
0.2
 10
178.5888557469
 20
32.5197548143
 10
178.8105204273
 20
32.5197548143
  0
LWPOLYLINE
  5
256
330
21C
100
AcDbEntity
  8
0
  6
Continuous
 62
     7
100
AcDbPolyline
 90
        2
 70
     0
 43
0.2
 10
178.8105204273
 20
32.5197548143
 10
178.8105204273
 20
33.4655590114
  0
SPLINE
  5
257
330
21C
100
AcDbEntity
  8
0
  6
Continuous
 62
     7
100
AcDbSpline
 70
     3
 71
     3
 72
    20
 73
    16
 74
     0
 42
0.000000001
 43
0.0000001
 40
0.0
 40
0.0
 40
0.0
 40
0.0
 40
1.0
 40
1.0
 40
1.0
 40
2.0
 40
2.0
 40
2.0
 40
3.0
 40
3.0
 40
3.0
 40
4.0
 40
4.0
 40
4.0
 40
5.0
 40
5.0
 40
5.0
 40
5.0
 10
166.5925307345
 20
42.8806812576
 30
0.0
 10
166.5925307345
 20
42.8806812576
 30
0.0
 10
168.908887389
 20
40.0511198354
 30
0.0
 10
168.908887389
 20
40.0511198354
 30
0.0
 10
168.2572403356
 20
39.3989493707
 30
0.0
 10
167.4803671316
 20
38.6630331
 30
0.0
 10
166.5091774869
 20
38.6630331
 30
0.0
 10
165.5106396025
 20
38.6630331
 30
0.0
 10
164.5673216089
 20
39.5926115472
 30
0.0
 10
164.5673216089
 20
40.5918036958
 30
0.0
 10
164.5673216089
 20
41.5909958443
 30
0.0
 10
165.746174682
 20
42.297601083
 30
0.0
 10
166.4676971424
 20
42.7974588629
 30
0.0
 10
166.4676971424
 20
42.7974588629
 30
0.0
 10
166.5925307345
 20
42.8806812576
 30
0.0
 10
166.5925307345
 20
42.8806812576
 30
0.0
  0
SPLINE
  5
258
330
21C
100
AcDbEntity
  8
0
  6
Continuous
 62
     7
100
AcDbSpline
 70
     3
 71
     3
 72
    23
 73
    19
 74
     0
 42
0.000000001
 43
0.0000001
 40
0.0
 40
0.0
 40
0.0
 40
0.0
 40
1.0
 40
1.0
 40
1.0
 40
2.0
 40
2.0
 40
2.0
 40
3.0
 40
3.0
 40
3.0
 40
4.0
 40
4.0
 40
4.0
 40
5.0
 40
5.0
 40
5.0
 40
6.0
 40
6.0
 40
6.0
 40
6.0
 10
166.8699387171
 20
44.5184351774
 30
0.0
 10
166.8699387171
 20
44.5184351774
 30
0.0
 10
166.5234404445
 20
44.9617645382
 30
0.0
 10
166.5234404445
 20
44.9617645382
 30
0.0
 10
166.2176373996
 20
45.3498740082
 30
0.0
 10
165.8987490725
 20
45.7383760366
 30
0.0
 10
165.8987490725
 20
46.2653203507
 30
0.0
 10
165.8987490725
 20
46.9314920673
 30
0.0
 10
166.4400871969
 20
47.3752139866
 30
0.0
 10
167.0639934521
 20
47.3752139866
 30
0.0
 10
167.7577751141
 20
47.3752139866
 30
0.0
 10
168.2849811339
 20
46.9729724119
 30
0.0
 10
168.2849811339
 20
46.2379721109
 30
0.0
 10
168.2849811339
 20
45.4747076003
 30
0.0
 10
167.5637203792
 20
45.0445943745
 30
0.0
 10
167.0366452123
 20
44.6288749591
 30
0.0
 10
167.0366452123
 20
44.6288749591
 30
0.0
 10
166.8699387171
 20
44.5184351774
 30
0.0
 10
166.8699387171
 20
44.5184351774
 30
0.0
  0
SPLINE
  5
259
330
21C
100
AcDbEntity
  8
0
  6
Continuous
 62
     7
100
AcDbSpline
 70
     3
 71
     3
 72
    50
 73
    46
 74
     0
 42
0.000000001
 43
0.0000001
 40
0.0
 40
0.0
 40
0.0
 40
0.0
 40
1.0
 40
1.0
 40
1.0
 40
2.0
 40
2.0
 40
2.0
 40
3.0
 40
3.0
 40
3.0
 40
4.0
 40
4.0
 40
4.0
 40
5.0
 40
5.0
 40
5.0
 40
6.0
 40
6.0
 40
6.0
 40
7.0
 40
7.0
 40
7.0
 40
8.0
 40
8.0
 40
8.0
 40
9.0
 40
9.0
 40
9.0
 40
10.0
 40
10.0
 40
10.0
 40
11.0
 40
11.0
 40
11.0
 40
12.0
 40
12.0
 40
12.0
 40
13.0
 40
13.0
 40
13.0
 40
14.0
 40
14.0
 40
14.0
 40
15.0
 40
15.0
 40
15.0
 40
15.0
 10
170.82352588
 20
37.7198459592
 30
0.0
 10
170.82352588
 20
37.7198459592
 30
0.0
 10
172.4327538846
 20
37.7198459592
 30
0.0
 10
172.4327538846
 20
37.7198459592
 30
0.0
 10
172.4327538846
 20
37.7198459592
 30
0.0
 10
170.5597265909
 20
40.0369877306
 30
0.0
 10
170.5597265909
 20
40.0369877306
 30
0.0
 10
170.5597265909
 20
40.0369877306
 30
0.0
 10
171.8360650164
 20
41.5344674252
 30
0.0
 10
171.8360650164
 20
41.5344674252
 30
0.0
 10
171.8360650164
 20
41.5344674252
 30
0.0
 10
171.0038410687
 20
42.3954789938
 30
0.0
 10
171.0038410687
 20
42.3954789938
 30
0.0
 10
171.0038410687
 20
42.3954789938
 30
0.0
 10
169.7832459454
 20
40.9801748714
 30
0.0
 10
169.7832459454
 20
40.9801748714
 30
0.0
 10
169.7832459454
 20
40.9801748714
 30
0.0
 10
167.6053315766
 20
43.6155507058
 30
0.0
 10
167.6053315766
 20
43.6155507058
 30
0.0
 10
168.478905016
 20
44.2535890657
 30
0.0
 10
169.5055762572
 20
45.0445943745
 30
0.0
 10
169.5055762572
 20
46.2234474476
 30
0.0
 10
169.5055762572
 20
47.5971403726
 30
0.0
 10
168.3676801173
 20
48.4016235221
 30
0.0
 10
167.0923885144
 20
48.4016235221
 30
0.0
 10
165.7189572951
 20
48.4016235221
 30
0.0
 10
164.6780230963
 20
47.5553983224
 30
0.0
 10
164.6780230963
 20
46.1127459602
 30
0.0
 10
164.6780230963
 20
45.2251712688
 30
0.0
 10
165.2333624727
 20
44.4482980648
 30
0.0
 10
165.8295279296
 20
43.8238683984
 30
0.0
 10
165.8295279296
 20
43.8238683984
 30
0.0
 10
165.1776191706
 20
43.352274828
 30
0.0
 10
165.1776191706
 20
43.352274828
 30
0.0
 10
164.1790812862
 20
42.6310140733
 30
0.0
 10
163.3462030743
 20
41.9097533186
 30
0.0
 10
163.3462030743
 20
40.5781950023
 30
0.0
 10
163.3462030743
 20
38.7745197043
 30
0.0
 10
164.8032492469
 20
37.4979195732
 30
0.0
 10
166.5507886843
 20
37.4979195732
 30
0.0
 10
167.7856467652
 20
37.4979195732
 30
0.0
 10
168.8950169899
 20
38.2060950457
 30
0.0
 10
169.6858914458
 20
39.1346266704
 30
0.0
 10
169.6858914458
 20
39.1346266704
 30
0.0
 10
170.82352588
 20
37.7198459592
 30
0.0
 10
170.82352588
 20
37.7198459592
 30
0.0
  0
LINE
  5
25A
330
21C
100
AcDbEntity
  8
0
  6
Continuous
 62
     7
100
AcDbLine
 10
156.626387255
 20
35.6937208639
 30
0.0
 11
179.0402979827
 21
35.6937208639
 31
0.0
  0
LINE
  5
25B
330
21C
100
AcDbEntity
  8
0
  6
Continuous
 62
     7
100
AcDbLine
 10
179.0402979827
 20
35.6937208639
 30
0.0
 11
179.0402979827
 21
58.1076315915
 31
0.0
  0
LINE
  5
25C
330
21C
100
AcDbEntity
  8
0
  6
Continuous
 62
     7
100
AcDbLine
 10
179.0402979827
 20
58.1076315915
 30
0.0
 11
156.626387255
 21
58.1076315915
 31
0.0
  0
LINE
  5
25D
330
21C
100
AcDbEntity
  8
0
  6
Continuous
 62
     7
100
AcDbLine
 10
156.626387255
 20
58.1076315915
 30
0.0
 11
156.626387255
 21
35.6937208639
 31
0.0
  0
ENDBLK
  5
25E
330
21C
100
AcDbEntity
  8
0
  6
ByBlock
 62
     0
100
AcDbBlockEnd
  0
BLOCK
  5
25F
330
21D
100
AcDbEntity
  8
0
100
AcDbBlockBegin
  2
PROIEZIONE_EU_BL0
 70
     0
 10
169.0072301476
 20
70.6089440915
 30
0.0
  3
PROIEZIONE_EU_BL0
  1

  0
LWPOLYLINE
  5
260
330
21D
100
AcDbEntity
  8
DEFAULT_1
  6
CENTER
 62
     7
100
AcDbPolyline
 90
        2
 70
     0
 43
0.25
 10
175.1338508093
 20
75.6086382234
 10
175.1338917917
 20
65.6092499597
  0
LWPOLYLINE
  5
261
330
21D
100
AcDbEntity
  8
DEFAULT_1
  6
CENTER
 62
     7
100
AcDbPolyline
 90
        2
 70
     0
 43
0.25
 10
181.1338806344
 20
70.6092152267
 10
156.8805796609
 20
70.6089445663
  0
LWPOLYLINE
  5
262
330
21D
100
AcDbEntity
  8
0
  6
Continuous
 62
     7
100
AcDbPolyline
 90
        2
 70
     1
 43
0.25
 10
171.5867406335
 20
70.5903963373
 42
1.0
 10
178.6930697321
 20
70.5903963373
 42
1.0
  0
LWPOLYLINE
  5
263
330
21D
100
AcDbEntity
  8
0
  6
Continuous
 62
     7
100
AcDbPolyline
 90
        2
 70
     1
 43
0.25
 10
173.1364844619
 20
70.6082943819
 42
1.0
 10
177.1482362119
 20
70.6082943819
 42
1.0
  0
LWPOLYLINE
  5
264
330
21D
100
AcDbEntity
  8
0
  6
Continuous
 62
     7
100
AcDbPolyline
 90
        2
 70
     0
 43
0.25
 10
169.1338784284
 20
74.1841475868
 10
169.1338780738
 20
67.0839446785
  0
LWPOLYLINE
  5
265
330
21D
100
AcDbEntity
  8
0
  6
Continuous
 62
     7
100
AcDbPolyline
 90
        2
 70
     0
 43
0.25
 10
169.1339065102
 20
67.0839162421
 10
159.139349239
 20
68.6040096549
  0
LWPOLYLINE
  5
266
330
21D
100
AcDbEntity
  8
0
  6
Continuous
 62
     7
100
AcDbPolyline
 90
        2
 70
     0
 43
0.25
 10
159.1370392534
 20
68.6033321134
 10
159.1343723493
 20
72.6089707248
  0
LWPOLYLINE
  5
267
330
21D
100
AcDbEntity
  8
0
  6
Continuous
 62
     7
100
AcDbPolyline
 90
        2
 70
     0
 43
0.25
 10
159.1343640732
 20
72.6089624487
 10
169.1341073105
 20
74.1841196688
  0
ENDBLK
  5
268
330
21D
100
AcDbEntity
  8
0
  6
ByBlock
 62
     0
100
AcDbBlockEnd
  0
ENDSEC
  0
SECTION
  2
ENTITIES
  0
LWPOLYLINE
  5
291
330
216
100
AcDbEntity
 67
     1
  8
0
  6
Continuous
 62
     7
100
AcDbPolyline
 90
        2
 70
     0
 43
0.5
 10
284.0
 20
13.0
 10
284.0
 20
197.0
  0
LWPOLYLINE
  5
292
330
216
100
AcDbEntity
 67
     1
  8
0
  6
Continuous
 62
     7
100
AcDbPolyline
 90
        2
 70
     0
 43
0.5
 10
13.0
 20
13.0
 10
13.0
 20
197.0
  0
LWPOLYLINE
  5
293
330
216
100
AcDbEntity
 67
     1
  8
0
  6
Continuous
 62
     7
100
AcDbPolyline
 90
        2
 70
     0
 43
0.5
 10
13.0
 20
13.0
 10
284.0
 20
13.0
  0
LWPOLYLINE
  5
294
330
216
100
AcDbEntity
 67
     1
  8
0
  6
Continuous
 62
     7
100
AcDbPolyline
 90
        2
 70
     0
 43
0.1
 10
148.5
 20
197.0
 10
148.5
 20
200.0
  0
LWPOLYLINE
  5
295
330
216
100
AcDbEntity
 67
     1
  8
0
  6
Continuous
 62
     7
100
AcDbPolyline
 90
        2
 70
     0
 43
0.1
 10
284.0
 20
105.0
 10
287.0
 20
105.0
  0
LWPOLYLINE
  5
296
330
216
100
AcDbEntity
 67
     1
  8
0
  6
Continuous
 62
     7
100
AcDbPolyline
 90
        2
 70
     0
 43
0.1
 10
13.0
 20
105.0
 10
10.0
 20
105.0
  0
LWPOLYLINE
  5
297
330
216
100
AcDbEntity
 67
     1
  8
0
  6
Continuous
 62
     7
100
AcDbPolyline
 90
        2
 70
     0
 43
0.5
 10
13.0
 20
197.0
 10
284.0
 20
197.0
  0
LWPOLYLINE
  5
298
330
216
100
AcDbEntity
 67
     1
  8
0
  6
Continuous
 62
     7
100
AcDbPolyline
 90
        2
 70
     0
 43
0.1
 10
10.0
 20
200.0
 10
287.0
 20
200.0
  0
LWPOLYLINE
  5
299
330
216
100
AcDbEntity
 67
     1
  8
0
  6
Continuous
 62
     7
100
AcDbPolyline
 90
        2
 70
     0
 43
0.1
 10
10.0
 20
10.0
 10
10.0
 20
200.0
  0
LWPOLYLINE
  5
29A
330
216
100
AcDbEntity
 67
     1
  8
0
  6
Continuous
 62
     7
100
AcDbPolyline
 90
        2
 70
     0
 43
0.1
 10
287.0
 20
10.0
 10
287.0
 20
200.0
  0
LWPOLYLINE
  5
29B
330
216
100
AcDbEntity
 67
     1
  8
0
  6
Continuous
 62
     7
100
AcDbPolyline
 90
        2
 70
     0
 43
0.1
 10
10.0
 20
10.0
 10
287.0
 20
10.0
  0
LWPOLYLINE
  5
29C
330
216
100
AcDbEntity
 67
     1
  8
0
  6
Continuous
 62
     7
100
AcDbPolyline
 90
        2
 70
     0
 43
0.1
 10
148.5
 20
13.0
 10
148.5
 20
10.0
  0
VIEWPORT
  5
29D
330
216
100
AcDbEntity
 67
     1
  8
0
100
AcDbViewport
 10
148.5
 20
105.0
 30
0.0
 40
297.0
 41
210.0
 68
     1
 69
     1
 12
148.5
 22
105.0
 13
0.0
 23
0.0
 14
10.0
 24
10.0
 15
10.0
 25
10.0
 16
0.0
 26
0.0
 36
1.0
 17
0.0
 27
0.0
 37
0.0
 42
50.0
 43
0.0
 44
0.0
 45
210.0
 50
0.0
 51
0.0
 72
   100
 90
    32864
  1

281
     0
 71
     1
 74
     0
110
0.0
120
0.0
130
0.0
111
1.0
121
0.0
131
0.0
112
0.0
122
1.0
132
0.0
 79
     0
146
0.0
170
     0
 61
     5
348
440
292
     1
282
     1
141
0.0
142
0.0
 63
   256
  0
LINE
  5
29E
330
216
100
AcDbEntity
 67
     1
  8
3_ALL_AXES
  6
Continuous
 62
     7
100
AcDbLine
 10
99.3800776036
 20
60.3634344249
 30
0.0
 11
99.3295908898
 21
60.3634344249
 31
0.0
  0
LINE
  5
29F
330
216
100
AcDbEntity
 67
     1
  8
3_ALL_AXES
  6
Continuous
 62
     7
100
AcDbLine
 10
99.3800776036
 20
65.1634344249
 30
0.0
 11
99.3295908648
 21
65.1634344249
 31
0.0
  0
LINE
  5
2A0
330
216
100
AcDbEntity
 67
     1
  8
3_ALL_AXES
  6
Continuous
 62
     7
100
AcDbLine
 10
52.3800776036
 20
65.1634344249
 30
0.0
 11
52.4305643174
 21
65.1634344249
 31
0.0
  0
LINE
  5
2A1
330
216
100
AcDbEntity
 67
     1
  8
3_ALL_AXES
  6
Continuous
 62
     7
100
AcDbLine
 10
52.3800776036
 20
60.3634344249
 30
0.0
 11
52.4305643423
 21
60.3634344249
 31
0.0
  0
LINE
  5
2A2
330
216
100
AcDbEntity
 67
     1
  8
3_ALL_AXES
  6
Continuous
 62
     7
100
AcDbLine
 10
75.8243157785
 20
79.2045799344
 30
0.0
 11
75.8243157785
 21
77.9817969436
 31
0.0
  0
LINE
  5
2A3
330
216
100
AcDbEntity
 67
     1
  8
3_ALL_AXES
  6
Continuous
 62
     7
100
AcDbLine
 10
80.0743157785
 20
76.6817969436
 30
0.0
 11
80.0743157785
 21
76.5817969436
 31
0.0
  0
LINE
  5
2A4
330
216
100
AcDbEntity
 67
     1
  8
3_ALL_AXES
  6
Continuous
 62
     7
100
AcDbLine
 10
77.1743157785
 20
76.6817969436
 30
0.0
 11
77.1743157785
 21
76.5817969436
 31
0.0
  0
LINE
  5
2A5
330
216
100
AcDbEntity
 67
     1
  8
3_ALL_AXES
  6
Continuous
 62
     7
100
AcDbLine
 10
81.4243157785
 20
79.2045799344
 30
0.0
 11
81.4243157785
 21
77.9817969436
 31
0.0
  0
LINE
  5
2A6
330
216
100
AcDbEntity
 67
     1
  8
3_ALL_AXES
  6
Continuous
 62
     7
100
AcDbLine
 10
77.1243157785
 20
79.9099762208
 30
0.0
 11
77.1243157785
 21
79.9244376307
 31
0.0
  0
ARC
  5
2A7
330
216
100
AcDbEntity
 67
     1
  8
3_ALL_AXES
  6
Continuous
 62
     7
100
AcDbCircle
 10
78.6243157785
 20
75.6817969436
 30
0.0
 40
4.4863682417
100
AcDbArc
 50
95.37172068440002
 51
109.5327832667
  0
SPLINE
  5
2A8
330
216
100
AcDbEntity
 67
     1
  8
3_ALL_AXES
  6
Continuous
 62
     7
100
AcDbSpline
 70
     0
 71
     3
 72
    14
 73
    10
 74
     0
 42
0.000000001
 43
0.0000001
 40
0.0
 40
0.0
 40
0.0
 40
0.0
 40
0.0250522634
 40
0.0826614775
 40
0.1745543994
 40
0.29798062
 40
0.4484197279
 40
0.6200504974
 40
1.0
 40
1.0
 40
1.0
 40
1.0
 10
78.2743157785
 20
80.1484623665
 30
0.0
 10
78.2743157785
 20
80.1490522101
 30
0.0
 10
78.272019618
 20
80.1501109738
 30
0.0
 10
78.2683491278
 20
80.1505870934
 30
0.0
 10
78.2617266932
 20
80.1511434022
 30
0.0
 10
78.2531999738
 20
80.1512307599
 30
0.0
 10
78.2426803203
 20
80.1510457884
 30
0.0
 10
78.2261803135
 20
80.1502944609
 30
0.0
 10
78.2132222208
 20
80.1492998382
 30
0.0
 10
78.2043157785
 20
80.1484623665
 30
0.0
  0
LINE
  5
2A9
330
216
100
AcDbEntity
 67
     1
  8
3_ALL_AXES
  6
Continuous
 62
     7
100
AcDbLine
 10
78.2743157785
 20
79.9099762208
 30
0.0
 11
78.2743157785
 21
80.1484623665
 31
0.0
  0
ARC
  5
2AA
330
216
100
AcDbEntity
 67
     1
  8
3_ALL_AXES
  6
Continuous
 62
     7
100
AcDbCircle
 10
78.6243157785
 20
75.6817969436
 30
0.0
 40
4.2426406871
100
AcDbArc
 50
85.26796159589999
 51
94.73203840409998
  0
LINE
  5
2AB
330
216
100
AcDbEntity
 67
     1
  8
3_ALL_AXES
  6
Continuous
 62
     7
100
AcDbLine
 10
78.9743157785
 20
80.1484623665
 30
0.0
 11
78.9743157785
 21
79.9099762208
 31
0.0
  0
SPLINE
  5
2AC
330
216
100
AcDbEntity
 67
     1
  8
3_ALL_AXES
  6
Continuous
 62
     7
100
AcDbSpline
 70
     0
 71
     3
 72
    14
 73
    10
 74
     0
 42
0.000000001
 43
0.0000001
 40
0.0
 40
0.0
 40
0.0
 40
0.0
 40
0.3799509066
 40
0.5515831282
 40
0.7020272295
 40
0.8254484769
 40
0.9173381866
 40
0.9749483193
 40
1.0
 40
1.0
 40
1.0
 40
1.0
 10
79.0443157785
 20
80.1484623665
 30
0.0
 10
79.0354093022
 20
80.1492998414
 30
0.0
 10
79.0224511425
 20
80.1502944854
 30
0.0
 10
79.0059509461
 20
80.1510457913
 30
0.0
 10
78.9954312599
 20
80.1512307508
 30
0.0
 10
78.9869046011
 20
80.1511434248
 30
0.0
 10
78.9802823707
 20
80.1505870351
 30
0.0
 10
78.9766119048
 20
80.1501110122
 30
0.0
 10
78.9743157785
 20
80.1490521964
 30
0.0
 10
78.9743157785
 20
80.1484623665
 30
0.0
  0
ARC
  5
2AD
330
216
100
AcDbEntity
 67
     1
  8
3_ALL_AXES
  6
Continuous
 62
     7
100
AcDbCircle
 10
78.6243157785
 20
75.6817969436
 30
0.0
 40
4.4863682417
100
AcDbArc
 50
70.4672167333
 51
84.62827931560001
  0
LINE
  5
2AE
330
216
100
AcDbEntity
 67
     1
  8
3_ALL_AXES
  6
Continuous
 62
     7
100
AcDbLine
 10
80.1243157785
 20
79.9244376307
 30
0.0
 11
80.1243157785
 21
79.9099762208
 31
0.0
  0
ARC
  5
2AF
330
216
100
AcDbEntity
 67
     1
  8
3_ALL_AXES
  6
Continuous
 62
     7
100
AcDbCircle
 10
78.6243157785
 20
75.6817969436
 30
0.0
 40
4.5
100
AcDbArc
 50
70.4578675255
 51
70.5287793655
  0
ARC
  5
2B0
330
216
100
AcDbEntity
 67
     1
  8
3_ALL_AXES
  6
Continuous
 62
     7
100
AcDbCircle
 10
78.6243157785
 20
75.6817969436
 30
0.0
 40
4.5
100
AcDbArc
 50
51.52140486670001
 51
70.4578675255
  0
ARC
  5
2B1
330
216
100
AcDbEntity
 67
     1
  8
3_ALL_AXES
  6
Continuous
 62
     7
100
AcDbCircle
 10
78.6243157785
 20
75.6817969436
 30
0.0
 40
4.5
100
AcDbArc
 50
109.4712206345
 51
109.5421324745
  0
ARC
  5
2B2
330
216
100
AcDbEntity
 67
     1
  8
3_ALL_AXES
  6
Continuous
 62
     7
100
AcDbCircle
 10
78.6243157785
 20
75.6817969436
 30
0.0
 40
4.5
100
AcDbArc
 50
109.5421324745
 51
128.4785951333
  0
LINE
  5
2B3
330
216
100
AcDbEntity
 67
     1
  8
3_ALL_AXES
  6
Continuous
 62
     7
100
AcDbLine
 10
81.4243157785
 20
79.2045799344
 30
0.0
 11
75.8243157785
 21
79.2045799344
 31
0.0
  0
LINE
  5
2B4
330
216
100
AcDbEntity
 67
     1
  8
7_ALL_FEATURES
  6
Continuous
 62
     7
100
AcDbLine
 10
75.4460565768
 20
76.6817969436
 30
0.0
 11
71.0434498499
 21
76.6817969436
 31
0.0
  0
SPLINE
  5
2B5
330
216
100
AcDbEntity
 67
     1
  8
7_ALL_FEATURES
  6
Continuous
 62
     7
100
AcDbSpline
 70
     0
 71
     3
 72
    15
 73
    11
 74
     0
 42
0.000000001
 43
0.0000001
 40
0.0
 40
0.0
 40
0.0
 40
0.0
 40
0.0949350993
 40
0.1960380449
 40
0.3073689991
 40
0.430372671
 40
0.5641563511
 40
0.7061574752
 40
0.8528408401
 40
1.0
 40
1.0
 40
1.0
 40
1.0
 10
71.0434498499
 20
76.6817969436
 30
0.0
 10
70.9962238435
 20
76.6817969436
 30
0.0
 10
70.8980132797
 20
76.6994352668
 30
0.0
 10
70.7624447808
 20
76.7748198046
 30
0.0
 10
70.6425982163
 20
76.8933319417
 30
0.0
 10
70.5429936409
 20
77.0484245252
 30
0.0
 10
70.4674864158
 20
77.2328862166
 30
0.0
 10
70.4192138763
 20
77.4382435148
 30
0.0
 10
70.4003944358
 20
77.6549211393
 30
0.0
 10
70.4080824674
 20
77.8014653458
 30
0.0
 10
70.4171670389
 20
77.8741046359
 30
0.0
  0
SPLINE
  5
2B6
330
216
100
AcDbEntity
 67
     1
  8
7_ALL_FEATURES
  6
Continuous
 62
     7
100
AcDbSpline
 70
     0
 71
     3
 72
    17
 73
    13
 74
     0
 42
0.000000001
 43
0.0000001
 40
0.0
 40
0.0
 40
0.0
 40
0.0
 40
0.1470876484
 40
0.2936465808
 40
0.4355751795
 40
0.5692711859
 40
0.692197788
 40
0.8034645534
 40
0.8551963239
 40
0.9047718184
 40
0.9527941068
 40
1.0
 40
1.0
 40
1.0
 40
1.0
 10
70.4171670389
 20
77.8741046359
 30
0.0
 10
70.4317044278
 20
77.9903440879
 30
0.0
 10
70.4440230485
 20
78.2248063287
 30
0.0
 10
70.413871496
 20
78.5714912331
 30
0.0
 10
70.3366887898
 20
78.9000534743
 30
0.0
 10
70.2158134224
 20
79.195207283
 30
0.0
 10
70.056572507
 20
79.4433160459
 30
0.0
 10
69.8927076612
 20
79.6051831872
 30
0.0
 10
69.7497549971
 20
79.6968960493
 30
0.0
 10
69.6407093412
 20
79.7456008424
 30
0.0
 10
69.5287130504
 20
79.7751767102
 30
0.0
 10
69.452710706
 20
79.7817879781
 30
0.0
 10
69.4151145286
 20
79.7817905685
 30
0.0
  0
LINE
  5
2B7
330
216
100
AcDbEntity
 67
     1
  8
7_ALL_FEATURES
  6
Continuous
 62
     7
100
AcDbLine
 10
69.4151145412
 20
76.5817969436
 30
0.0
 11
75.4460565768
 21
76.5817969436
 31
0.0
  0
SPLINE
  5
2B8
330
216
100
AcDbEntity
 67
     1
  8
7_ALL_FEATURES
  6
Continuous
 62
     7
100
AcDbSpline
 70
     0
 71
     3
 72
    27
 73
    23
 74
     0
 42
0.000000001
 43
0.0000001
 40
0.0
 40
0.0
 40
0.0
 40
0.0
 40
0.0241051609
 40
0.0485586166
 40
0.0736420375
 40
0.0996225569
 40
0.1549371299
 40
0.2154848527
 40
0.2812299263
 40
0.3514355163
 40
0.4248723256
 40
0.499999953
 40
0.5751275491
 40
0.6485643215
 40
0.7187699288
 40
0.7845150478
 40
0.8450629868
 40
0.9003770155
 40
0.9263591948
 40
0.9514426816
 40
0.9758873109
 40
1.0
 40
1.0
 40
1.0
 40
1.0
 10
69.4151145412
 20
75.2817969436
 30
0.0
 10
69.3544857676
 20
75.2817969436
 30
0.0
 10
69.2321520937
 20
75.2913009463
 30
0.0
 10
69.051155414
 20
75.333624052
 30
0.0
 10
68.8738925704
 20
75.403669194
 30
0.0
 10
68.6402225432
 20
75.5354718067
 30
0.0
 10
68.3663314997
 20
75.7696916645
 30
0.0
 10
68.0875146941
 20
76.134834759
 30
0.0
 10
67.8598590421
 20
76.5759985997
 30
0.0
 10
67.6912635748
 20
77.0768058354
 30
0.0
 10
67.5875836719
 20
77.6187922573
 30
0.0
 10
67.5525997685
 20
78.1817968867
 30
0.0
 10
67.5875854449
 20
78.7448011897
 30
0.0
 10
67.6912651349
 20
79.2867876311
 30
0.0
 10
67.8598606205
 20
79.7875944199
 30
0.0
 10
68.0875133288
 20
80.22876178
 30
0.0
 10
68.3663340779
 20
80.5938982268
 30
0.0
 10
68.640216841
 20
80.8281365345
 30
0.0
 10
68.8739025356
 20
80.9599183677
 30
0.0
 10
69.0511455682
 20
81.029960563
 30
0.0
 10
69.2321344642
 20
81.0723052788
 30
0.0
 10
69.3544668306
 20
81.0817990211
 30
0.0
 10
69.4151145389
 20
81.0817955784
 30
0.0
  0
LINE
  5
2B9
330
216
100
AcDbEntity
 67
     1
  8
7_ALL_FEATURES
  6
Continuous
 62
     7
100
AcDbLine
 10
71.8511472864
 20
77.9817969436
 30
0.0
 11
75.4460565768
 21
77.9817969436
 31
0.0
  0
LINE
  5
2BA
330
216
100
AcDbEntity
 67
     1
  8
7_ALL_FEATURES
  6
Continuous
 62
     7
100
AcDbLine
 10
83.8529132333
 20
76.5817969436
 30
0.0
 11
75.4460565768
 21
76.5817969436
 31
0.0
  0
LINE
  5
2BB
330
216
100
AcDbEntity
 67
     1
  8
7_ALL_FEATURES
  6
Continuous
 62
     7
100
AcDbLine
 10
83.8529619718
 20
75.2817969436
 30
0.0
 11
83.8529619718
 21
76.5817969436
 31
0.0
  0
LINE
  5
2BC
330
216
100
AcDbEntity
 67
     1
  8
7_ALL_FEATURES
  6
Continuous
 62
     7
100
AcDbLine
 10
83.8529132333
 20
77.9817969436
 30
0.0
 11
81.4243157785
 21
77.9817969436
 31
0.0
  0
LINE
  5
2BD
330
216
100
AcDbEntity
 67
     1
  8
7_ALL_FEATURES
  6
Continuous
 62
     7
100
AcDbLine
 10
81.4243157785
 20
77.9817969436
 30
0.0
 11
75.8243157785
 21
77.9817969436
 31
0.0
  0
LINE
  5
2BE
330
216
100
AcDbEntity
 67
     1
  8
7_ALL_FEATURES
  6
Continuous
 62
     7
100
AcDbLine
 10
75.8243157785
 20
77.9817969436
 30
0.0
 11
75.4460565768
 21
77.9817969436
 31
0.0
  0
LINE
  5
2BF
330
216
100
AcDbEntity
 67
     1
  8
7_ALL_FEATURES
  6
Continuous
 62
     7
100
AcDbLine
 10
83.8529619718
 20
76.6817969436
 30
0.0
 11
83.8529619718
 21
77.9817969436
 31
0.0
  0
SPLINE
  5
2C0
330
216
100
AcDbEntity
 67
     1
  8
7_ALL_FEATURES
  6
Continuous
 62
     7
100
AcDbSpline
 70
     0
 71
     3
 72
     9
 73
     5
 74
     0
 42
0.000000001
 43
0.0000001
 40
0.0
 40
0.0
 40
0.0
 40
0.0
 40
0.2546820145
 40
1.0
 40
1.0
 40
1.0
 40
1.0
 10
76.3856528307
 20
76.6749178018
 30
0.0
 10
76.3966703158
 20
76.6687558432
 30
0.0
 10
76.4404793529
 20
76.6455630427
 30
0.0
 10
76.4865109477
 20
76.626516586
 30
0.0
 10
76.5216477733
 20
76.615108315
 30
0.0
  0
SPLINE
  5
2C1
330
216
100
AcDbEntity
 67
     1
  8
7_ALL_FEATURES
  6
Continuous
 62
     7
100
AcDbSpline
 70
     0
 71
     3
 72
     9
 73
     5
 74
     0
 42
0.000000001
 43
0.0000001
 40
0.0
 40
0.0
 40
0.0
 40
0.0
 40
0.5039622484
 40
1.0
 40
1.0
 40
1.0
 40
1.0
 10
76.5216477733
 20
76.615108315
 30
0.0
 10
76.5552948188
 20
76.6041837478
 30
0.0
 10
76.6238009836
 20
76.5874944843
 30
0.0
 10
76.6941054794
 20
76.5817969436
 30
0.0
 10
76.7289253313
 20
76.5817969436
 30
0.0
  0
SPLINE
  5
2C2
330
216
100
AcDbEntity
 67
     1
  8
7_ALL_FEATURES
  6
Continuous
 62
     7
100
AcDbSpline
 70
     0
 71
     3
 72
    14
 73
    10
 74
     0
 42
0.000000001
 43
0.0000001
 40
0.0
 40
0.0
 40
0.0
 40
0.0
 40
0.1107764733
 40
0.2232528632
 40
0.3389847913
 40
0.4592704084
 40
0.5850794769
 40
0.7170464525
 40
1.0
 40
1.0
 40
1.0
 40
1.0
 10
76.728925329
 20
81.0817955784
 30
0.0
 10
76.7930373284
 20
81.0817919391
 30
0.0
 10
76.9224843873
 20
81.0711850546
 30
0.0
 10
77.1136624308
 20
81.023800456
 30
0.0
 10
77.3003967933
 20
80.9455984121
 30
0.0
 10
77.4805541352
 20
80.8375796902
 30
0.0
 10
77.65232106
 20
80.7010796205
 30
0.0
 10
77.8727224575
 20
80.4781306838
 30
0.0
 10
78.0122878984
 20
80.2801026481
 30
0.0
 10
78.0948227382
 20
80.1386628137
 30
0.0
  0
LINE
  5
2C3
330
216
100
AcDbEntity
 67
     1
  8
7_ALL_FEATURES
  6
Continuous
 62
     7
100
AcDbLine
 10
75.4460565768
 20
76.6817969436
 30
0.0
 11
83.8529132333
 21
76.6817969436
 31
0.0
  0
LINE
  5
2C4
330
216
100
AcDbEntity
 67
     1
  8
7_ALL_FEATURES
  6
Continuous
 62
     7
100
AcDbLine
 10
69.4151145412
 20
81.0817969436
 30
0.0
 11
76.7289253313
 21
81.0817969436
 31
0.0
  0
LINE
  5
2C5
330
216
100
AcDbEntity
 67
     1
  8
7_ALL_FEATURES
  6
Continuous
 62
     9
100
AcDbLine
 10
75.4460565768
 20
76.6817969436
 30
0.0
 11
75.4460565768
 21
77.9817969436
 31
0.0
  0
LINE
  5
2C6
330
216
100
AcDbEntity
 67
     1
  8
7_ALL_FEATURES
  6
Continuous
 62
     9
100
AcDbLine
 10
75.4460565768
 20
75.2817969436
 30
0.0
 11
75.4460565768
 21
76.5817969436
 31
0.0
  0
SPLINE
  5
2C7
330
216
100
AcDbEntity
 67
     1
  8
7_ALL_FEATURES
  6
Continuous
 62
     7
100
AcDbSpline
 70
     0
 71
     3
 72
    14
 73
    10
 74
     0
 42
0.000000001
 43
0.0000001
 40
0.0
 40
0.0
 40
0.0
 40
0.0
 40
0.2973636564
 40
0.4358712334
 40
0.5654050232
 40
0.6853815438
 40
0.7963392357
 40
0.9001977645
 40
1.0
 40
1.0
 40
1.0
 40
1.0
 10
71.2265235056
 20
78.7766687385
 30
0.0
 10
71.2409076102
 20
78.6691289254
 30
0.0
 10
71.2789523291
 20
78.5126310493
 30
0.0
 10
71.3658592939
 20
78.3249751211
 30
0.0
 10
71.4436153154
 20
78.205953976
 30
0.0
 10
71.5334463491
 20
78.108915875
 30
0.0
 10
71.6331481791
 20
78.0367139842
 30
0.0
 10
71.7400806862
 20
77.9920131605
 30
0.0
 10
71.8147329642
 20
77.9817969436
 30
0.0
 10
71.8511472864
 20
77.9817969436
 30
0.0
  0
LINE
  5
2C8
330
216
100
AcDbEntity
 67
     1
  8
7_ALL_FEATURES
  6
Continuous
 62
     9
100
AcDbLine
 10
71.2265235056
 20
78.7766687385
 30
0.0
 11
75.8243157785
 21
78.7766687385
 31
0.0
  0
SPLINE
  5
2C9
330
216
100
AcDbEntity
 67
     1
  8
7_ALL_FEATURES
  6
Continuous
 62
     7
100
AcDbSpline
 70
     0
 71
     3
 72
    24
 73
    20
 74
     0
 42
0.000000001
 43
0.0000001
 40
0.0
 40
0.0
 40
0.0
 40
0.0
 40
0.0241216704
 40
0.0485759264
 40
0.0995411468
 40
0.1548758695
 40
0.2154464986
 40
0.2812163477
 40
0.3514484332
 40
0.424912912
 40
0.500068828
 40
0.5752248078
 40
0.6486894658
 40
0.7189218363
 40
0.7846919568
 40
0.8452631121
 40
0.9005975392
 40
0.9515643947
 40
1.0
 40
1.0
 40
1.0
 40
1.0
 10
69.4151145286
 20
79.7817905685
 30
0.0
 10
69.3816539684
 20
79.781792874
 30
0.0
 10
69.3141530691
 20
79.7765620868
 30
0.0
 10
69.1792658019
 20
79.7450140164
 30
0.0
 10
69.0138861806
 20
79.6644978985
 30
0.0
 10
68.8365687334
 20
79.5126340066
 30
0.0
 10
68.6826191657
 20
79.3111461018
 30
0.0
 10
68.5570533567
 20
79.0677549623
 30
0.0
 10
68.4640251637
 20
78.7914453483
 30
0.0
 10
68.406826361
 20
78.4924199023
 30
0.0
 10
68.3875234129
 20
78.1817974372
 30
0.0
 10
68.4068251492
 20
77.8711746776
 30
0.0
 10
68.464023939
 20
77.5721482609
 30
0.0
 10
68.5570481387
 20
77.2958374883
 30
0.0
 10
68.6826260868
 20
77.0524444192
 30
0.0
 10
68.8365328081
 20
76.8509549628
 30
0.0
 10
69.0139962531
 20
76.6990940346
 30
0.0
 10
69.2092210081
 20
76.6037838048
 30
0.0
 10
69.3479267194
 20
76.5817969436
 30
0.0
 10
69.4151145412
 20
76.5817969436
 30
0.0
  0
SPLINE
  5
2CA
330
216
100
AcDbEntity
 67
     1
  8
7_ALL_FEATURES
  6
Continuous
 62
     7
100
AcDbSpline
 70
     0
 71
     3
 72
    16
 73
    12
 74
     0
 42
0.000000001
 43
0.0000001
 40
0.0
 40
0.0
 40
0.0
 40
0.0
 40
0.0497253571
 40
0.0999690573
 40
0.2037170005
 40
0.3146069818
 40
0.4344925844
 40
0.5639241856
 40
0.7023509388
 40
0.848379615
 40
1.0
 40
1.0
 40
1.0
 40
1.0
 10
69.4151145389
 20
81.0817955784
 30
0.0
 10
69.4677685133
 20
81.0817925895
 30
0.0
 10
69.5737668652
 20
81.0746598499
 30
0.0
 10
69.7857115311
 20
81.0317858699
 30
0.0
 10
70.0474411228
 20
80.922513268
 30
0.0
 10
70.3364187631
 20
80.7131858243
 30
0.0
 10
70.5969618397
 20
80.4317238284
 30
0.0
 10
70.8224454457
 20
80.0866326443
 30
0.0
 10
71.0071892614
 20
79.6877075724
 30
0.0
 10
71.1462608056
 20
79.2462302332
 30
0.0
 10
71.2052384971
 20
78.9358017462
 30
0.0
 10
71.2265235056
 20
78.7766687385
 30
0.0
  0
ARC
  5
2CB
330
216
100
AcDbEntity
 67
     1
  8
3_ALL_AXES
  6
Continuous
 62
     7
100
AcDbCircle
 10
53.3800776036
 20
58.2634344249
 30
0.0
 40
0.75
100
AcDbArc
 50
90.0
 51
180.0
  0
ARC
  5
2CC
330
216
100
AcDbEntity
 67
     1
  8
3_ALL_AXES
  6
Continuous
 62
     7
100
AcDbCircle
 10
98.3800776036
 20
58.2634344249
 30
0.0
 40
0.75
100
AcDbArc
 50
0.0
 51
90.0
  0
LINE
  5
2CD
330
216
100
AcDbEntity
 67
     1
  8
3_ALL_AXES
  6
Continuous
 62
     7
100
AcDbLine
 10
98.144987301
 20
57.5134344249
 30
0.0
 11
98.348231442
 21
57.5134344249
 31
0.0
  0
LINE
  5
2CE
330
216
100
AcDbEntity
 67
     1
  8
3_ALL_AXES
  6
Continuous
 62
     7
100
AcDbLine
 10
98.144987301
 20
59.0134344249
 30
0.0
 11
98.348231442
 21
59.0134344249
 31
0.0
  0
ARC
  5
2CF
330
216
100
AcDbEntity
 67
     1
  8
3_ALL_AXES
  6
Continuous
 62
     7
100
AcDbCircle
 10
98.3800776036
 20
58.2634344249
 30
0.0
 40
0.75
100
AcDbArc
 50
270.0
 51
360.0
  0
ARC
  5
2D0
330
216
100
AcDbEntity
 67
     1
  8
3_ALL_AXES
  6
Continuous
 62
     7
100
AcDbCircle
 10
53.3800776036
 20
58.2634344249
 30
0.0
 40
0.75
100
AcDbArc
 50
180.0
 51
270.0
  0
LINE
  5
2D1
330
216
100
AcDbEntity
 67
     1
  8
7_ALL_FEATURES
  6
Continuous
 62
     7
100
AcDbLine
 10
51.3769687123
 20
54.9008699902
 30
0.0
 11
40.2769687123
 21
74.1266339542
 31
0.0
  0
LINE
  5
2D2
330
216
100
AcDbEntity
 67
     1
  8
7_ALL_FEATURES
  6
Continuous
 62
     7
100
AcDbLine
 10
52.0300776036
 20
66.6634344249
 30
0.0
 11
52.3800776036
 21
66.6634344249
 31
0.0
  0
ARC
  5
2D3
330
216
100
AcDbEntity
 67
     1
  8
7_ALL_FEATURES
  6
Continuous
 62
     7
100
AcDbCircle
 10
52.7300776036
 20
59.8634344249
 30
0.0
 40
0.7
100
AcDbArc
 50
180.0
 51
270.0
  0
LINE
  5
2D4
330
216
100
AcDbEntity
 67
     1
  8
7_ALL_FEATURES
  6
Continuous
 62
     7
100
AcDbLine
 10
52.0300776036
 20
59.8634344249
 30
0.0
 11
52.0300776036
 21
66.6634344249
 31
0.0
  0
LINE
  5
2D5
330
216
100
AcDbEntity
 67
     1
  8
7_ALL_FEATURES
  6
Continuous
 62
     7
100
AcDbLine
 10
52.0300776036
 20
56.6634344249
 30
0.0
 11
52.0300776036
 21
55.0758699902
 31
0.0
  0
ARC
  5
2D6
330
216
100
AcDbEntity
 67
     1
  8
7_ALL_FEATURES
  6
Continuous
 62
     7
100
AcDbCircle
 10
40.5800776036
 20
74.3016339542
 30
0.0
 40
0.35
100
AcDbArc
 50
180.0
 51
210.0
  0
ARC
  5
2D7
330
216
100
AcDbEntity
 67
     1
  8
7_ALL_FEATURES
  6
Continuous
 62
     7
100
AcDbCircle
 10
51.6800776036
 20
55.0758699902
 30
0.0
 40
0.35
100
AcDbArc
 50
210.0
 51
360.0
  0
LINE
  5
2D8
330
216
100
AcDbEntity
 67
     1
  8
7_ALL_FEATURES
  6
Continuous
 62
     7
100
AcDbLine
 10
40.2300776036
 20
74.3016339542
 30
0.0
 11
40.2300776036
 21
80.1140695195
 31
0.0
  0
LINE
  5
2D9
330
216
100
AcDbEntity
 67
     1
  8
7_ALL_FEATURES
  6
Continuous
 62
     7
100
AcDbLine
 10
52.7300776036
 20
57.3634344249
 30
0.0
 11
53.3300776036
 21
57.3634344249
 31
0.0
  0
LINE
  5
2DA
330
216
100
AcDbEntity
 67
     1
  8
7_ALL_FEATURES
  6
Continuous
 62
     7
100
AcDbLine
 10
39.8800776036
 20
80.1140695195
 30
0.0
 11
40.2300776036
 21
80.1140695195
 31
0.0
  0
ARC
  5
2DB
330
216
100
AcDbEntity
 67
     1
  8
7_ALL_FEATURES
  6
Continuous
 62
     7
100
AcDbCircle
 10
52.7300776036
 20
56.6634344249
 30
0.0
 40
0.7
100
AcDbArc
 50
90.0
 51
180.0
  0
ARC
  5
2DC
330
216
100
AcDbEntity
 67
     1
  8
7_ALL_FEATURES
  6
Continuous
 62
     7
100
AcDbCircle
 10
53.3300776036
 20
58.8134344249
 30
0.0
 40
0.35
100
AcDbArc
 50
51.42857142859999
 51
90.0
  0
LINE
  5
2DD
330
216
100
AcDbEntity
 67
     1
  8
7_ALL_FEATURES
  6
Continuous
 62
     7
100
AcDbLine
 10
52.7300776036
 20
59.1634344249
 30
0.0
 11
53.3300776036
 21
59.1634344249
 31
0.0
  0
ARC
  5
2DE
330
216
100
AcDbEntity
 67
     1
  8
7_ALL_FEATURES
  6
Continuous
 62
     7
100
AcDbCircle
 10
53.3300776036
 20
57.7134344249
 30
0.0
 40
0.35
100
AcDbArc
 50
270.0
 51
308.5714285714
  0
LINE
  5
2DF
330
216
100
AcDbEntity
 67
     1
  8
7_ALL_FEATURES
  6
Continuous
 62
     9
100
AcDbLine
 10
52.0300776036
 20
56.6634344249
 30
0.0
 11
52.3800776036
 21
56.6634344249
 31
0.0
  0
LINE
  5
2E0
330
216
100
AcDbEntity
 67
     1
  8
7_ALL_FEATURES
  6
Continuous
 62
     9
100
AcDbLine
 10
52.0300776036
 20
59.8634344249
 30
0.0
 11
52.3800776036
 21
59.8634344249
 31
0.0
  0
LINE
  5
2E1
330
216
100
AcDbEntity
 67
     1
  8
7_ALL_FEATURES
  6
Continuous
 62
     9
100
AcDbLine
 10
52.7300776036
 20
59.1634344249
 30
0.0
 11
52.7300776036
 21
59.5134344249
 31
0.0
  0
LINE
  5
2E2
330
216
100
AcDbEntity
 67
     1
  8
7_ALL_FEATURES
  6
Continuous
 62
     9
100
AcDbLine
 10
51.0738598209
 20
54.7258699902
 30
0.0
 11
51.3769687123
 21
54.9008699902
 31
0.0
  0
LINE
  5
2E3
330
216
100
AcDbEntity
 67
     1
  8
7_ALL_FEATURES
  6
Continuous
 62
     9
100
AcDbLine
 10
53.3300776036
 20
59.5134344249
 30
0.0
 11
53.3300776036
 21
59.1634344249
 31
0.0
  0
LINE
  5
2E4
330
216
100
AcDbEntity
 67
     1
  8
7_ALL_FEATURES
  6
Continuous
 62
     9
100
AcDbLine
 10
39.8800776036
 20
74.3016339542
 30
0.0
 11
40.2300776036
 21
74.3016339542
 31
0.0
  0
LINE
  5
2E5
330
216
100
AcDbEntity
 67
     1
  8
7_ALL_FEATURES
  6
Continuous
 62
     9
100
AcDbLine
 10
39.9738598209
 20
73.9516339542
 30
0.0
 11
40.2769687123
 21
74.1266339542
 31
0.0
  0
LINE
  5
2E6
330
216
100
AcDbEntity
 67
     1
  8
7_ALL_FEATURES
  6
Continuous
 62
     9
100
AcDbLine
 10
52.7300776036
 20
57.3634344249
 30
0.0
 11
52.7300776036
 21
57.0134344249
 31
0.0
  0
LINE
  5
2E7
330
216
100
AcDbEntity
 67
     1
  8
7_ALL_FEATURES
  6
Continuous
 62
     9
100
AcDbLine
 10
53.3300776036
 20
57.0134344249
 30
0.0
 11
53.3300776036
 21
57.3634344249
 31
0.0
  0
LINE
  5
2E8
330
216
100
AcDbEntity
 67
     1
  8
7_ALL_FEATURES
  6
Continuous
 62
     9
100
AcDbLine
 10
52.3800776036
 20
55.0758699902
 30
0.0
 11
52.0300776036
 21
55.0758699902
 31
0.0
  0
LINE
  5
2E9
330
216
100
AcDbEntity
 67
     1
  8
7_ALL_FEATURES
  6
Continuous
 62
     7
100
AcDbLine
 10
111.4831864949
 20
74.1266339542
 30
0.0
 11
100.3831864949
 21
54.9008699902
 31
0.0
  0
LINE
  5
2EA
330
216
100
AcDbEntity
 67
     1
  8
7_ALL_FEATURES
  6
Continuous
 62
     7
100
AcDbLine
 10
99.7300776036
 20
66.6634344249
 30
0.0
 11
99.3800776036
 21
66.6634344249
 31
0.0
  0
ARC
  5
2EB
330
216
100
AcDbEntity
 67
     1
  8
7_ALL_FEATURES
  6
Continuous
 62
     7
100
AcDbCircle
 10
99.0300776036
 20
59.8634344249
 30
0.0
 40
0.7
100
AcDbArc
 50
270.0
 51
360.0
  0
LINE
  5
2EC
330
216
100
AcDbEntity
 67
     1
  8
7_ALL_FEATURES
  6
Continuous
 62
     7
100
AcDbLine
 10
99.7300776036
 20
66.6634344249
 30
0.0
 11
99.7300776036
 21
59.8634344249
 31
0.0
  0
LINE
  5
2ED
330
216
100
AcDbEntity
 67
     1
  8
7_ALL_FEATURES
  6
Continuous
 62
     7
100
AcDbLine
 10
99.7300776036
 20
55.0758699902
 30
0.0
 11
99.7300776036
 21
56.6634344249
 31
0.0
  0
ARC
  5
2EE
330
216
100
AcDbEntity
 67
     1
  8
7_ALL_FEATURES
  6
Continuous
 62
     7
100
AcDbCircle
 10
111.1800776036
 20
74.3016339542
 30
0.0
 40
0.35
100
AcDbArc
 50
330.0
 51
360.0
  0
LINE
  5
2EF
330
216
100
AcDbEntity
 67
     1
  8
7_ALL_FEATURES
  6
Continuous
 62
     7
100
AcDbLine
 10
111.5300776036
 20
80.1140695195
 30
0.0
 11
111.5300776036
 21
74.3016339542
 31
0.0
  0
LINE
  5
2F0
330
216
100
AcDbEntity
 67
     1
  8
7_ALL_FEATURES
  6
Continuous
 62
     7
100
AcDbLine
 10
111.8800776036
 20
80.1140695195
 30
0.0
 11
111.5300776036
 21
80.1140695195
 31
0.0
  0
ARC
  5
2F1
330
216
100
AcDbEntity
 67
     1
  8
7_ALL_FEATURES
  6
Continuous
 62
     7
100
AcDbCircle
 10
100.0800776036
 20
55.0758699902
 30
0.0
 40
0.35
100
AcDbArc
 50
180.0
 51
330.0
  0
LINE
  5
2F2
330
216
100
AcDbEntity
 67
     1
  8
7_ALL_FEATURES
  6
Continuous
 62
     7
100
AcDbLine
 10
98.4300776036
 20
57.3634344249
 30
0.0
 11
99.0300776036
 21
57.3634344249
 31
0.0
  0
ARC
  5
2F3
330
216
100
AcDbEntity
 67
     1
  8
7_ALL_FEATURES
  6
Continuous
 62
     7
100
AcDbCircle
 10
98.4300776036
 20
58.8134344249
 30
0.0
 40
0.35
100
AcDbArc
 50
90.0
 51
180.0
  0
LINE
  5
2F4
330
216
100
AcDbEntity
 67
     1
  8
7_ALL_FEATURES
  6
Continuous
 62
     7
100
AcDbLine
 10
98.4300776036
 20
59.1634344249
 30
0.0
 11
99.0300776036
 21
59.1634344249
 31
0.0
  0
ARC
  5
2F5
330
216
100
AcDbEntity
 67
     1
  8
7_ALL_FEATURES
  6
Continuous
 62
     7
100
AcDbCircle
 10
99.0300776036
 20
56.6634344249
 30
0.0
 40
0.7
100
AcDbArc
 50
0.0
 51
90.0
  0
ARC
  5
2F6
330
216
100
AcDbEntity
 67
     1
  8
7_ALL_FEATURES
  6
Continuous
 62
     7
100
AcDbCircle
 10
98.4300776036
 20
57.7134344249
 30
0.0
 40
0.35
100
AcDbArc
 50
180.0
 51
270.0
  0
LINE
  5
2F7
330
216
100
AcDbEntity
 67
     1
  8
7_ALL_FEATURES
  6
Continuous
 62
     9
100
AcDbLine
 10
111.7862953862
 20
73.9516339542
 30
0.0
 11
111.4831864949
 21
74.1266339542
 31
0.0
  0
LINE
  5
2F8
330
216
100
AcDbEntity
 67
     1
  8
7_ALL_FEATURES
  6
Continuous
 62
     9
100
AcDbLine
 10
99.0300776036
 20
59.1634344249
 30
0.0
 11
99.0300776036
 21
59.5134344249
 31
0.0
  0
LINE
  5
2F9
330
216
100
AcDbEntity
 67
     1
  8
7_ALL_FEATURES
  6
Continuous
 62
     9
100
AcDbLine
 10
100.6862953862
 20
54.7258699902
 30
0.0
 11
100.3831864949
 21
54.9008699902
 31
0.0
  0
LINE
  5
2FA
330
216
100
AcDbEntity
 67
     1
  8
7_ALL_FEATURES
  6
Continuous
 62
     9
100
AcDbLine
 10
99.3800776036
 20
55.0758699902
 30
0.0
 11
99.7300776036
 21
55.0758699902
 31
0.0
  0
LINE
  5
2FB
330
216
100
AcDbEntity
 67
     1
  8
7_ALL_FEATURES
  6
Continuous
 62
     9
100
AcDbLine
 10
111.8800776036
 20
74.3016339542
 30
0.0
 11
111.5300776036
 21
74.3016339542
 31
0.0
  0
LINE
  5
2FC
330
216
100
AcDbEntity
 67
     1
  8
7_ALL_FEATURES
  6
Continuous
 62
     9
100
AcDbLine
 10
99.0300776036
 20
57.3634344249
 30
0.0
 11
99.0300776036
 21
57.0134344249
 31
0.0
  0
LINE
  5
2FD
330
216
100
AcDbEntity
 67
     1
  8
7_ALL_FEATURES
  6
Continuous
 62
     9
100
AcDbLine
 10
98.4300776036
 20
57.0134344249
 30
0.0
 11
98.4300776036
 21
57.3634344249
 31
0.0
  0
LINE
  5
2FE
330
216
100
AcDbEntity
 67
     1
  8
7_ALL_FEATURES
  6
Continuous
 62
     9
100
AcDbLine
 10
99.7300776036
 20
59.8634344249
 30
0.0
 11
99.3800776036
 21
59.8634344249
 31
0.0
  0
LINE
  5
2FF
330
216
100
AcDbEntity
 67
     1
  8
7_ALL_FEATURES
  6
Continuous
 62
     9
100
AcDbLine
 10
98.4300776036
 20
59.5134344249
 30
0.0
 11
98.4300776036
 21
59.1634344249
 31
0.0
  0
LINE
  5
300
330
216
100
AcDbEntity
 67
     1
  8
7_ALL_FEATURES
  6
Continuous
 62
     9
100
AcDbLine
 10
99.7300776036
 20
56.6634344249
 30
0.0
 11
99.3800776036
 21
56.6634344249
 31
0.0
  0
LINE
  5
301
330
216
100
AcDbEntity
 67
     1
  8
7_ALL_FEATURES
  6
Continuous
 62
     7
100
AcDbLine
 10
64.7891570296
 20
75.2817969436
 30
0.0
 11
69.4151145412
 21
75.2817969436
 31
0.0
  0
LINE
  5
302
330
216
100
AcDbEntity
 67
     1
  8
7_ALL_FEATURES
  6
Continuous
 62
     7
100
AcDbLine
 10
69.4151145412
 20
75.2817969436
 30
0.0
 11
75.4460565768
 21
75.2817969436
 31
0.0
  0
LINE
  5
303
330
216
100
AcDbEntity
 67
     1
  8
7_ALL_FEATURES
  6
Continuous
 62
     7
100
AcDbLine
 10
75.4460565768
 20
75.2817969436
 30
0.0
 11
76.4743480056
 21
75.2817969436
 31
0.0
  0
LINE
  5
304
330
216
100
AcDbEntity
 67
     1
  8
7_ALL_FEATURES
  6
Continuous
 62
     7
100
AcDbLine
 10
76.4743480056
 20
75.2817969436
 30
0.0
 11
77.252196691
 21
75.2817969436
 31
0.0
  0
LINE
  5
305
330
216
100
AcDbEntity
 67
     1
  8
7_ALL_FEATURES
  6
Continuous
 62
     7
100
AcDbLine
 10
77.252196691
 20
75.2817969436
 30
0.0
 11
77.524417239
 21
75.2817969436
 31
0.0
  0
LINE
  5
306
330
216
100
AcDbEntity
 67
     1
  8
7_ALL_FEATURES
  6
Continuous
 62
     7
100
AcDbLine
 10
77.524417239
 20
75.2817969436
 30
0.0
 11
77.6182454866
 21
75.2817969436
 31
0.0
  0
LINE
  5
307
330
216
100
AcDbEntity
 67
     1
  8
7_ALL_FEATURES
  6
Continuous
 62
     7
100
AcDbLine
 10
77.6182454866
 20
75.2817969436
 30
0.0
 11
77.9223013617
 21
75.2817969436
 31
0.0
  0
LINE
  5
308
330
216
100
AcDbEntity
 67
     1
  8
7_ALL_FEATURES
  6
Continuous
 62
     7
100
AcDbLine
 10
77.9223013617
 20
75.2817969436
 30
0.0
 11
79.6357940382
 21
75.2817969436
 31
0.0
  0
LINE
  5
309
330
216
100
AcDbEntity
 67
     1
  8
7_ALL_FEATURES
  6
Continuous
 62
     7
100
AcDbLine
 10
79.6357940382
 20
75.2817969436
 30
0.0
 11
79.724214318
 21
75.2817969436
 31
0.0
  0
LINE
  5
30A
330
216
100
AcDbEntity
 67
     1
  8
7_ALL_FEATURES
  6
Continuous
 62
     7
100
AcDbLine
 10
79.724214318
 20
75.2817969436
 30
0.0
 11
80.7742835514
 21
75.2817969436
 31
0.0
  0
LINE
  5
30B
330
216
100
AcDbEntity
 67
     1
  8
7_ALL_FEATURES
  6
Continuous
 62
     7
100
AcDbLine
 10
80.7742835514
 20
75.2817969436
 30
0.0
 11
81.7087758439
 21
75.2817969436
 31
0.0
  0
LINE
  5
30C
330
216
100
AcDbEntity
 67
     1
  8
7_ALL_FEATURES
  6
Continuous
 62
     7
100
AcDbLine
 10
81.7087758439
 20
75.2817969436
 30
0.0
 11
82.0705683702
 21
75.2817969436
 31
0.0
  0
LINE
  5
30D
330
216
100
AcDbEntity
 67
     1
  8
7_ALL_FEATURES
  6
Continuous
 62
     7
100
AcDbLine
 10
82.0705683702
 20
75.2817969436
 30
0.0
 11
83.7087507453
 21
75.2817969436
 31
0.0
  0
LINE
  5
30E
330
216
100
AcDbEntity
 67
     1
  8
7_ALL_FEATURES
  6
Continuous
 62
     7
100
AcDbLine
 10
83.7087507453
 20
75.2817969436
 30
0.0
 11
83.8529619718
 21
75.2817969436
 31
0.0
  0
LINE
  5
30F
330
216
100
AcDbEntity
 67
     1
  8
7_ALL_FEATURES
  6
Continuous
 62
     7
100
AcDbLine
 10
83.8529619718
 20
75.2817969436
 30
0.0
 11
90.2861748309
 21
75.2817969436
 31
0.0
  0
LINE
  5
310
330
216
100
AcDbEntity
 67
     1
  8
7_ALL_FEATURES
  6
Continuous
 62
     7
100
AcDbLine
 10
90.2862125827
 20
75.2817969436
 30
0.0
 11
90.316508495
 21
75.2634344249
 31
0.0
  0
LINE
  5
311
330
216
100
AcDbEntity
 67
     1
  8
7_ALL_FEATURES
  6
Continuous
 62
     7
100
AcDbLine
 10
61.4739803763
 20
75.2817969436
 30
0.0
 11
64.7891570296
 21
75.2817969436
 31
0.0
  0
LINE
  5
312
330
216
100
AcDbEntity
 67
     1
  8
7_ALL_FEATURES
  6
Continuous
 62
     7
100
AcDbLine
 10
61.4739426244
 20
75.2817969436
 30
0.0
 11
61.4436467122
 21
75.2634344249
 31
0.0
  0
LINE
  5
313
330
216
100
AcDbEntity
 67
     1
  8
7_ALL_FEATURES
  6
Continuous
 62
     7
100
AcDbLine
 10
97.6300776036
 20
59.7634344249
 30
0.0
 11
97.6300776036
 21
59.0134344249
 31
0.0
  0
LINE
  5
314
330
216
100
AcDbEntity
 67
     1
  8
7_ALL_FEATURES
  6
Continuous
 62
     7
100
AcDbLine
 10
97.6300776036
 20
57.5134344249
 30
0.0
 11
97.6300776036
 21
56.7634344249
 31
0.0
  0
LINE
  5
315
330
216
100
AcDbEntity
 67
     1
  8
7_ALL_FEATURES
  6
Continuous
 62
     7
100
AcDbLine
 10
54.1300776036
 20
59.7634344249
 30
0.0
 11
54.1300776036
 21
59.0134344249
 31
0.0
  0
LINE
  5
316
330
216
100
AcDbEntity
 67
     1
  8
7_ALL_FEATURES
  6
Continuous
 62
     7
100
AcDbLine
 10
54.1300776036
 20
57.5134344249
 30
0.0
 11
54.1300776036
 21
56.7634344249
 31
0.0
  0
LINE
  5
317
330
216
100
AcDbEntity
 67
     1
  8
7_ALL_FEATURES
  6
Continuous
 62
     7
100
AcDbLine
 10
53.9866793214
 20
52.6634344249
 30
0.0
 11
54.8800776036
 21
52.6634344249
 31
0.0
  0
LINE
  5
318
330
216
100
AcDbEntity
 67
     1
  8
7_ALL_FEATURES
  6
Continuous
 62
     7
100
AcDbLine
 10
54.8800776036
 20
52.6634344249
 30
0.0
 11
96.8800776036
 21
52.6634344249
 31
0.0
  0
LINE
  5
319
330
216
100
AcDbEntity
 67
     1
  8
7_ALL_FEATURES
  6
Continuous
 62
     7
100
AcDbLine
 10
96.8800776036
 20
52.6634344249
 30
0.0
 11
97.7734758858
 21
52.6634344249
 31
0.0
  0
LINE
  5
31A
330
216
100
AcDbEntity
 67
     1
  8
02___PRT_ALL_AXES
  6
Continuous
 62
     7
100
AcDbLine
 10
46.8800776036
 20
54.1634344249
 30
0.0
 11
52.3800776036
 21
54.1634344249
 31
0.0
  0
LINE
  5
31B
330
216
100
AcDbEntity
 67
     1
  8
02___PRT_ALL_AXES
  6
Continuous
 62
     7
100
AcDbLine
 10
52.3800776036
 20
54.1634344249
 30
0.0
 11
99.3800776036
 21
54.1634344249
 31
0.0
  0
LINE
  5
31C
330
216
100
AcDbEntity
 67
     1
  8
02___PRT_ALL_AXES
  6
Continuous
 62
     7
100
AcDbLine
 10
99.3800776036
 20
54.1634344249
 30
0.0
 11
104.8800776036
 21
54.1634344249
 31
0.0
  0
LINE
  5
31D
330
216
100
AcDbEntity
 67
     1
  8
7_ALL_FEATURES
  6
Continuous
 62
     7
100
AcDbLine
 10
52.3965921429
 20
56.7634344249
 30
0.0
 11
54.1300776036
 21
56.7634344249
 31
0.0
  0
LINE
  5
31E
330
216
100
AcDbEntity
 67
     1
  8
7_ALL_FEATURES
  6
Continuous
 62
     7
100
AcDbLine
 10
54.1300776036
 20
56.7634344249
 30
0.0
 11
97.6300776036
 21
56.7634344249
 31
0.0
  0
LINE
  5
31F
330
216
100
AcDbEntity
 67
     1
  8
7_ALL_FEATURES
  6
Continuous
 62
     7
100
AcDbLine
 10
97.6300776036
 20
56.7634344249
 30
0.0
 11
99.3635630643
 21
56.7634344249
 31
0.0
  0
LINE
  5
320
330
216
100
AcDbEntity
 67
     1
  8
7_ALL_FEATURES
  6
Continuous
 62
     7
100
AcDbLine
 10
99.3642525121
 20
59.7634344249
 30
0.0
 11
97.6300776036
 21
59.7634344249
 31
0.0
  0
LINE
  5
321
330
216
100
AcDbEntity
 67
     1
  8
7_ALL_FEATURES
  6
Continuous
 62
     7
100
AcDbLine
 10
97.6300776036
 20
59.7634344249
 30
0.0
 11
54.1300776036
 21
59.7634344249
 31
0.0
  0
LINE
  5
322
330
216
100
AcDbEntity
 67
     1
  8
7_ALL_FEATURES
  6
Continuous
 62
     7
100
AcDbLine
 10
54.1300776036
 20
59.7634344249
 30
0.0
 11
52.3959026951
 21
59.7634344249
 31
0.0
  0
SPLINE
  5
323
330
216
100
AcDbEntity
 67
     1
  8
7_ALL_FEATURES
  6
Continuous
 62
     7
100
AcDbSpline
 70
     0
 71
     3
 72
    58
 73
    54
 74
     0
 42
0.000000001
 43
0.0000001
 40
0.0
 40
0.0
 40
0.0
 40
0.0
 40
0.0001616788
 40
0.0003652918
 40
0.0006505481
 40
0.0014653733
 40
0.0026049198
 40
0.0040679532
 40
0.0058532353
 40
0.007959242
 40
0.0103839792
 40
0.0161809633
 40
0.0232224353
 40
0.0314820728
 40
0.0409295799
 40
0.0515299707
 40
0.0632443262
 40
0.0898412527
 40
0.1203411658
 40
0.1543251952
 40
0.191350772
 40
0.2309683936
 40
0.2727367039
 40
0.3162342986
 40
0.3610665659
 40
0.4068678134
 40
0.500036468
 40
0.5932041546
 40
0.6390041622
 40
0.6838346412
 40
0.7273298549
 40
0.7690951469
 40
0.8087090748
 40
0.8457302599
 40
0.8797091991
 40
0.910203349
 40
0.9367938797
 40
0.9485048552
 40
0.9591016325
 40
0.9685455275
 40
0.9768016589
 40
0.9838386778
 40
0.9896319121
 40
0.9920555186
 40
0.9941602008
 40
0.9959433654
 40
0.9974035693
 40
0.9985400689
 40
0.99935213
 40
0.9996362667
 40
0.9998390185
 40
0.9999602934
 40
1.0
 40
1.0
 40
1.0
 40
1.0
 10
52.3800776036
 20
65.5634344249
 30
0.0
 10
52.3799941573
 20
65.5637254281
 30
0.0
 10
52.3802814797
 20
65.562112494
 30
0.0
 10
52.3803440071
 20
65.5613922358
 30
0.0
 10
52.3807310599
 20
65.5586951085
 30
0.0
 10
52.3812521218
 20
65.5547467379
 30
0.0
 10
52.3821317497
 20
65.5483060454
 30
0.0
 10
52.3832230697
 20
65.5402028371
 30
0.0
 10
52.3845634627
 20
65.5302528879
 30
0.0
 10
52.3861345809
 20
65.5185363532
 30
0.0
 10
52.3886940337
 20
65.499366509
 30
0.0
 10
52.3924455439
 20
65.4710359221
 30
0.0
 10
52.3975654168
 20
65.4318640091
 30
0.0
 10
52.4034790032
 20
65.3859031557
 30
0.0
 10
52.4101207904
 20
65.3333171556
 30
0.0
 10
52.417417377
 20
65.2742940312
 30
0.0
 10
52.4283862186
 20
65.1833698215
 30
0.0
 10
52.4431702121
 20
65.0553760305
 30
0.0
 10
52.4614543419
 20
64.8858152671
 30
0.0
 10
52.4802057597
 20
64.6966711381
 30
0.0
 10
52.4986780098
 20
64.4903520761
 30
0.0
 10
52.5161683237
 20
64.2693223897
 30
0.0
 10
52.5320443712
 20
64.0360221763
 30
0.0
 10
52.5457642294
 20
63.7928044437
 30
0.0
 10
52.5568844559
 20
63.5418940246
 30
0.0
 10
52.5678547272
 20
63.1979060707
 30
0.0
 10
52.5734209028
 20
62.7632313625
 30
0.0
 10
52.5678460971
 20
62.3285590884
 30
0.0
 10
52.5568693344
 20
61.9845788289
 30
0.0
 10
52.5457447646
 20
61.7336787414
 30
0.0
 10
52.5320211738
 20
61.4904747
 30
0.0
 10
52.5161421634
 20
61.2571917547
 30
0.0
 10
52.4986498059
 20
61.036183087
 30
0.0
 10
52.4801765585
 20
60.8298888848
 30
0.0
 10
52.461425281
 20
60.6407734277
 30
0.0
 10
52.443142471
 20
60.4712450105
 30
0.0
 10
52.4283604149
 20
60.3432802797
 30
0.0
 10
52.4173936975
 20
60.2523810765
 30
0.0
 10
52.4100990345
 20
60.1933776972
 30
0.0
 10
52.4034593733
 20
60.140811766
 30
0.0
 10
52.3975481795
 20
60.094872195
 30
0.0
 10
52.392431096
 20
60.0557227767
 30
0.0
 10
52.3886813609
 20
60.0274077489
 30
0.0
 10
52.3861239767
 20
60.0082523619
 30
0.0
 10
52.3845525222
 20
59.996537461
 30
0.0
 10
52.3832178817
 20
59.9866192616
 30
0.0
 10
52.3821168782
 20
59.9784751669
 30
0.0
 10
52.381269372
 20
59.9721936175
 30
0.0
 10
52.3806878745
 20
59.9679612018
 30
0.0
 10
52.3803855794
 20
59.9656719711
 30
0.0
 10
52.380190357
 20
59.9643454807
 30
0.0
 10
52.3801720842
 20
59.9640189026
 30
0.0
 10
52.380056529
 20
59.9633631269
 30
0.0
 10
52.3800776036
 20
59.9634344249
 30
0.0
  0
SPLINE
  5
324
330
216
100
AcDbEntity
 67
     1
  8
7_ALL_FEATURES
  6
Continuous
 62
     7
100
AcDbSpline
 70
     0
 71
     3
 72
    58
 73
    54
 74
     0
 42
0.000000001
 43
0.0000001
 40
0.0
 40
0.0
 40
0.0
 40
0.0
 40
0.000161674
 40
0.0003652846
 40
0.0006505386
 40
0.0014653594
 40
0.002604902
 40
0.0040679323
 40
0.0058532123
 40
0.0079592176
 40
0.0103839535
 40
0.0161809328
 40
0.0232224005
 40
0.0314820375
 40
0.0409295437
 40
0.0515299344
 40
0.0632442915
 40
0.0898412233
 40
0.1203411454
 40
0.1543251867
 40
0.1913507779
 40
0.2309684158
 40
0.2727367439
 40
0.3162343573
 40
0.361066644
 40
0.4068679111
 40
0.5000366039
 40
0.5932043251
 40
0.6390043476
 40
0.6838348392
 40
0.7273300628
 40
0.7690953614
 40
0.8087092918
 40
0.845730475
 40
0.8797094071
 40
0.9102035444
 40
0.9367940568
 40
0.9485050203
 40
0.9591017857
 40
0.9685456668
 40
0.9768017793
 40
0.9838387827
 40
0.9896320037
 40
0.9920556018
 40
0.994160273
 40
0.9959434233
 40
0.9974036109
 40
0.9985400942
 40
0.9993521414
 40
0.9996362728
 40
0.9998390207
 40
0.9999602935
 40
1.0
 40
1.0
 40
1.0
 40
1.0
 10
99.3800776036
 20
59.9634344249
 30
0.0
 10
99.3801609624
 20
59.9631434061
 30
0.0
 10
99.3798737808
 20
59.9647563438
 30
0.0
 10
99.3798111849
 20
59.9654765682
 30
0.0
 10
99.3794241744
 20
59.9681736904
 30
0.0
 10
99.3789030856
 20
59.9721220319
 30
0.0
 10
99.3780234747
 20
59.9785627082
 30
0.0
 10
99.3769321514
 20
59.9866658977
 30
0.0
 10
99.375591762
 20
59.9966158355
 30
0.0
 10
99.3740206442
 20
60.0083323611
 30
0.0
 10
99.3714611935
 20
60.0275021914
 30
0.0
 10
99.3677096854
 20
60.0558327588
 30
0.0
 10
99.3625898147
 20
60.0950046538
 30
0.0
 10
99.3566762292
 20
60.1409654967
 30
0.0
 10
99.3500344418
 20
60.1935514939
 30
0.0
 10
99.3427378545
 20
60.2525746194
 30
0.0
 10
99.3317690105
 20
60.3434988418
 30
0.0
 10
99.3169850125
 20
60.4714926622
 30
0.0
 10
99.2987008763
 20
60.6410534743
 30
0.0
 10
99.2799494513
 20
60.8301976688
 30
0.0
 10
99.261477194
 20
61.0365168102
 30
0.0
 10
99.2439868738
 20
61.2575465872
 30
0.0
 10
99.2281108215
 20
61.4908468996
 30
0.0
 10
99.2143909607
 20
61.7340647369
 30
0.0
 10
99.2032707341
 20
61.9849752641
 30
0.0
 10
99.1923004665
 20
62.3289633625
 30
0.0
 10
99.1867343026
 20
62.7636382437
 30
0.0
 10
99.1923091287
 20
63.1983106818
 30
0.0
 10
99.2032859119
 20
63.5422910572
 30
0.0
 10
99.214410498
 20
63.7931912141
 30
0.0
 10
99.2281341054
 20
64.0363953093
 30
0.0
 10
99.2440131316
 20
64.2696782892
 30
0.0
 10
99.261505503
 20
64.4906869692
 30
0.0
 10
99.2799787613
 20
64.6969811582
 30
0.0
 10
99.2987300455
 20
64.8860965738
 30
0.0
 10
99.3170128569
 20
65.0556249194
 30
0.0
 10
99.3317949102
 20
65.1835895698
 30
0.0
 10
99.3427616222
 20
65.2744886943
 30
0.0
 10
99.350056279
 20
65.333492003
 30
0.0
 10
99.3566959317
 20
65.386057851
 30
0.0
 10
99.3626071156
 20
65.4319973321
 30
0.0
 10
99.3677241886
 20
65.4711466618
 30
0.0
 10
99.3714739153
 20
65.4994616202
 30
0.0
 10
99.3740312918
 20
65.5186169463
 30
0.0
 10
99.3756027383
 20
65.5303317846
 30
0.0
 10
99.3769373682
 20
65.5402499069
 30
0.0
 10
99.3780383611
 20
65.5483939141
 30
0.0
 10
99.3788858529
 20
65.5546753787
 30
0.0
 10
99.3794673472
 20
65.5589077251
 30
0.0
 10
99.3797696289
 20
65.5611969181
 30
0.0
 10
99.3799648608
 20
65.5625233791
 30
0.0
 10
99.3799831101
 20
65.5628499596
 30
0.0
 10
99.3800986879
 20
65.5635057199
 30
0.0
 10
99.3800776036
 20
65.5634344249
 30
0.0
  0
LINE
  5
325
330
216
100
AcDbEntity
 67
     1
  8
7_ALL_FEATURES
  6
Continuous
 62
     7
100
AcDbLine
 10
53.8800776036
 20
75.2634344249
 30
0.0
 11
59.8660518975
 21
75.2634344249
 31
0.0
  0
LINE
  5
326
330
216
100
AcDbEntity
 67
     1
  8
7_ALL_FEATURES
  6
Continuous
 62
     7
100
AcDbLine
 10
59.8660518975
 20
75.2634344249
 30
0.0
 11
91.8941033097
 21
75.2634344249
 31
0.0
  0
LINE
  5
327
330
216
100
AcDbEntity
 67
     1
  8
7_ALL_FEATURES
  6
Continuous
 62
     7
100
AcDbLine
 10
91.8941033097
 20
75.2634344249
 30
0.0
 11
97.8800776036
 21
75.2634344249
 31
0.0
  0
ARC
  5
328
330
216
100
AcDbEntity
 67
     1
  8
7_ALL_FEATURES
  6
Continuous
 62
     7
100
AcDbCircle
 10
97.7734758858
 20
54.1634344249
 30
0.0
 40
1.5
100
AcDbArc
 50
270.0
 51
278.1301023542
  0
ARC
  5
329
330
216
100
AcDbEntity
 67
     1
  8
7_ALL_FEATURES
  6
Continuous
 62
     7
100
AcDbCircle
 10
53.9866793214
 20
54.1634344249
 30
0.0
 40
1.5
100
AcDbArc
 50
261.8698976458
 51
270.0
  0
LINE
  5
32A
330
216
100
AcDbEntity
 67
     1
  8
7_ALL_FEATURES
  6
Continuous
 62
     7
100
AcDbLine
 10
97.8800776036
 20
75.2634344249
 30
0.0
 11
99.3800776036
 21
73.7634344249
 31
0.0
  0
LINE
  5
32B
330
216
100
AcDbEntity
 67
     1
  8
7_ALL_FEATURES
  6
Continuous
 62
     7
100
AcDbLine
 10
53.8800776036
 20
75.2634344249
 30
0.0
 11
52.3800776036
 21
73.7634344249
 31
0.0
  0
LINE
  5
32C
330
216
100
AcDbEntity
 67
     1
  8
7_ALL_FEATURES
  6
Continuous
 62
     7
100
AcDbLine
 10
52.3800776036
 20
66.6634344249
 30
0.0
 11
52.3800776036
 21
73.7634344249
 31
0.0
  0
LINE
  5
32D
330
216
100
AcDbEntity
 67
     1
  8
7_ALL_FEATURES
  6
Continuous
 62
     7
100
AcDbLine
 10
97.9856079201
 20
52.6785101844
 30
0.0
 11
104.8800776036
 21
53.6634344249
 31
0.0
  0
LINE
  5
32E
330
216
100
AcDbEntity
 67
     1
  8
7_ALL_FEATURES
  6
Continuous
 62
     7
100
AcDbLine
 10
53.774547287
 20
52.6785101844
 30
0.0
 11
46.8800776036
 21
53.6634344249
 31
0.0
  0
LINE
  5
32F
330
216
100
AcDbEntity
 67
     1
  8
02___PRT_ALL_AXES
  6
Continuous
 62
     7
100
AcDbLine
 10
46.8800776036
 20
53.6634344249
 30
0.0
 11
46.8800776036
 21
54.1634344249
 31
0.0
  0
LINE
  5
330
330
216
100
AcDbEntity
 67
     1
  8
7_ALL_FEATURES
  6
Continuous
 62
     7
100
AcDbLine
 10
99.3800776036
 20
66.6634344249
 30
0.0
 11
99.3800776036
 21
73.7634344249
 31
0.0
  0
LINE
  5
331
330
216
100
AcDbEntity
 67
     1
  8
02___PRT_ALL_AXES
  6
Continuous
 62
     7
100
AcDbLine
 10
104.8800776036
 20
53.6634344249
 30
0.0
 11
104.8800776036
 21
54.1634344249
 31
0.0
  0
LINE
  5
332
330
216
100
AcDbEntity
 67
     1
  8
7_ALL_FEATURES
  6
Continuous
 62
     7
100
AcDbLine
 10
52.3800776036
 20
54.1634344249
 30
0.0
 11
52.3800776036
 21
55.0758699902
 31
0.0
  0
LINE
  5
333
330
216
100
AcDbEntity
 67
     1
  8
7_ALL_FEATURES
  6
Continuous
 62
     7
100
AcDbLine
 10
99.3800776036
 20
54.1634344249
 30
0.0
 11
99.3800776036
 21
55.0758699902
 31
0.0
  0
LINE
  5
334
330
216
100
AcDbEntity
 67
     1
  8
02___PRT_ALL_AXES
  6
Continuous
 62
     7
100
AcDbLine
 10
46.8800776036
 20
53.6634344249
 30
0.0
 11
104.8800776036
 21
53.6634344249
 31
0.0
  0
LINE
  5
335
330
216
100
AcDbEntity
 67
     1
  8
7_ALL_FEATURES
  6
Continuous
 62
     7
100
AcDbLine
 10
52.3800776036
 20
73.7634344249
 30
0.0
 11
99.3800776036
 21
73.7634344249
 31
0.0
  0
LINE
  5
336
330
216
100
AcDbEntity
 67
     1
  8
7_ALL_FEATURES
  6
Continuous
 62
     9
100
AcDbLine
 10
53.774547287
 20
52.6785101844
 30
0.0
 11
97.9856079201
 21
52.6785101844
 31
0.0
  0
ARC
  5
337
330
216
100
AcDbEntity
 67
     1
  8
7_ALL_FEATURES
  6
Continuous
 62
     3
100
AcDbCircle
 10
52.7300776036
 20
59.8634344249
 30
0.0
 40
0.35
100
AcDbArc
 50
180.0
 51
195.6717846261
  0
ARC
  5
338
330
216
100
AcDbEntity
 67
     1
  8
7_ALL_FEATURES
  6
Continuous
 62
     3
100
AcDbCircle
 10
52.7300776036
 20
59.8634344249
 30
0.0
 40
0.35
100
AcDbArc
 50
195.6717846261
 51
270.0
  0
LINE
  5
339
330
216
100
AcDbEntity
 67
     1
  8
7_ALL_FEATURES
  6
Continuous
 62
     3
100
AcDbLine
 10
51.0738598209
 20
54.7258699902
 30
0.0
 11
39.9738598209
 21
73.9516339542
 31
0.0
  0
LINE
  5
33A
330
216
100
AcDbEntity
 67
     1
  8
7_ALL_FEATURES
  6
Continuous
 62
     3
100
AcDbLine
 10
52.3800776036
 20
59.8634344249
 30
0.0
 11
52.3800776036
 21
66.6634344249
 31
0.0
  0
LINE
  5
33B
330
216
100
AcDbEntity
 67
     1
  8
7_ALL_FEATURES
  6
Continuous
 62
     3
100
AcDbLine
 10
52.3800776036
 20
56.6634344249
 30
0.0
 11
52.3800776036
 21
55.0758699902
 31
0.0
  0
ARC
  5
33C
330
216
100
AcDbEntity
 67
     1
  8
7_ALL_FEATURES
  6
Continuous
 62
     3
100
AcDbCircle
 10
51.6800776036
 20
55.0758699902
 30
0.0
 40
0.7
100
AcDbArc
 50
210.0
 51
360.0
  0
ARC
  5
33D
330
216
100
AcDbEntity
 67
     1
  8
7_ALL_FEATURES
  6
Continuous
 62
     3
100
AcDbCircle
 10
40.5800776036
 20
74.3016339542
 30
0.0
 40
0.7
100
AcDbArc
 50
180.0
 51
210.0
  0
LINE
  5
33E
330
216
100
AcDbEntity
 67
     1
  8
7_ALL_FEATURES
  6
Continuous
 62
     3
100
AcDbLine
 10
39.8800776036
 20
74.3016339542
 30
0.0
 11
39.8800776036
 21
80.1140695195
 31
0.0
  0
LINE
  5
33F
330
216
100
AcDbEntity
 67
     1
  8
7_ALL_FEATURES
  6
Continuous
 62
     3
100
AcDbLine
 10
52.7300776036
 20
57.0134344249
 30
0.0
 11
53.3300776036
 21
57.0134344249
 31
0.0
  0
ARC
  5
340
330
216
100
AcDbEntity
 67
     1
  8
7_ALL_FEATURES
  6
Continuous
 62
     3
100
AcDbCircle
 10
53.3300776036
 20
58.8134344249
 30
0.0
 40
0.7
100
AcDbArc
 50
16.6920503368
 51
90.0
  0
LINE
  5
341
330
216
100
AcDbEntity
 67
     1
  8
7_ALL_FEATURES
  6
Continuous
 62
     3
100
AcDbLine
 10
52.7300776036
 20
59.5134344249
 30
0.0
 11
53.3300776036
 21
59.5134344249
 31
0.0
  0
ARC
  5
342
330
216
100
AcDbEntity
 67
     1
  8
7_ALL_FEATURES
  6
Continuous
 62
     3
100
AcDbCircle
 10
52.7300776036
 20
56.6634344249
 30
0.0
 40
0.35
100
AcDbArc
 50
90.0
 51
164.2039496886
  0
ARC
  5
343
330
216
100
AcDbEntity
 67
     1
  8
7_ALL_FEATURES
  6
Continuous
 62
     3
100
AcDbCircle
 10
52.7300776036
 20
56.6634344249
 30
0.0
 40
0.35
100
AcDbArc
 50
164.2039496886
 51
180.0
  0
ARC
  5
344
330
216
100
AcDbEntity
 67
     1
  8
7_ALL_FEATURES
  6
Continuous
 62
     3
100
AcDbCircle
 10
53.3300776036
 20
57.7134344249
 30
0.0
 40
0.7
100
AcDbArc
 50
270.0
 51
343.3079496632
  0
LINE
  5
345
330
216
100
AcDbEntity
 67
     1
  8
7_ALL_FEATURES
  6
Continuous
 62
     3
100
AcDbLine
 10
111.7862953862
 20
73.9516339542
 30
0.0
 11
100.6862953862
 21
54.7258699902
 31
0.0
  0
ARC
  5
346
330
216
100
AcDbEntity
 67
     1
  8
7_ALL_FEATURES
  6
Continuous
 62
     3
100
AcDbCircle
 10
99.0300776036
 20
59.8634344249
 30
0.0
 40
0.35
100
AcDbArc
 50
344.3282153739
 51
360.0
  0
ARC
  5
347
330
216
100
AcDbEntity
 67
     1
  8
7_ALL_FEATURES
  6
Continuous
 62
     3
100
AcDbCircle
 10
99.0300776036
 20
59.8634344249
 30
0.0
 40
0.35
100
AcDbArc
 50
270.0
 51
344.3282153739
  0
LINE
  5
348
330
216
100
AcDbEntity
 67
     1
  8
7_ALL_FEATURES
  6
Continuous
 62
     3
100
AcDbLine
 10
99.3800776036
 20
66.6634344249
 30
0.0
 11
99.3800776036
 21
59.8634344249
 31
0.0
  0
LINE
  5
349
330
216
100
AcDbEntity
 67
     1
  8
7_ALL_FEATURES
  6
Continuous
 62
     3
100
AcDbLine
 10
99.3800776036
 20
55.0758699902
 30
0.0
 11
99.3800776036
 21
56.6634344249
 31
0.0
  0
ARC
  5
34A
330
216
100
AcDbEntity
 67
     1
  8
7_ALL_FEATURES
  6
Continuous
 62
     3
100
AcDbCircle
 10
100.0800776036
 20
55.0758699902
 30
0.0
 40
0.7
100
AcDbArc
 50
180.0
 51
330.0
  0
ARC
  5
34B
330
216
100
AcDbEntity
 67
     1
  8
7_ALL_FEATURES
  6
Continuous
 62
     3
100
AcDbCircle
 10
111.1800776036
 20
74.3016339542
 30
0.0
 40
0.7
100
AcDbArc
 50
330.0
 51
360.0
  0
LINE
  5
34C
330
216
100
AcDbEntity
 67
     1
  8
7_ALL_FEATURES
  6
Continuous
 62
     3
100
AcDbLine
 10
111.8800776036
 20
80.1140695195
 30
0.0
 11
111.8800776036
 21
74.3016339542
 31
0.0
  0
ARC
  5
34D
330
216
100
AcDbEntity
 67
     1
  8
7_ALL_FEATURES
  6
Continuous
 62
     3
100
AcDbCircle
 10
98.4300776036
 20
58.8134344249
 30
0.0
 40
0.7
100
AcDbArc
 50
90.0
 51
163.3079496632
  0
LINE
  5
34E
330
216
100
AcDbEntity
 67
     1
  8
7_ALL_FEATURES
  6
Continuous
 62
     3
100
AcDbLine
 10
98.4300776036
 20
57.0134344249
 30
0.0
 11
99.0300776036
 21
57.0134344249
 31
0.0
  0
LINE
  5
34F
330
216
100
AcDbEntity
 67
     1
  8
7_ALL_FEATURES
  6
Continuous
 62
     3
100
AcDbLine
 10
98.4300776036
 20
59.5134344249
 30
0.0
 11
99.0300776036
 21
59.5134344249
 31
0.0
  0
ARC
  5
350
330
216
100
AcDbEntity
 67
     1
  8
7_ALL_FEATURES
  6
Continuous
 62
     3
100
AcDbCircle
 10
99.0300776036
 20
56.6634344249
 30
0.0
 40
0.35
100
AcDbArc
 50
15.7960503114
 51
90.0
  0
ARC
  5
351
330
216
100
AcDbEntity
 67
     1
  8
7_ALL_FEATURES
  6
Continuous
 62
     3
100
AcDbCircle
 10
99.0300776036
 20
56.6634344249
 30
0.0
 40
0.35
100
AcDbArc
 50
0.0
 51
15.7960503114
  0
ARC
  5
352
330
216
100
AcDbEntity
 67
     1
  8
7_ALL_FEATURES
  6
Continuous
 62
     3
100
AcDbCircle
 10
98.4300776036
 20
57.7134344249
 30
0.0
 40
0.7
100
AcDbArc
 50
196.6920503368
 51
270.0
  0
LINE
  5
353
330
216
100
AcDbEntity
 67
     1
  8
3_ALL_AXES
  6
Continuous
 62
     7
100
AcDbLine
 10
55.0174914743
 20
142.6419825674
 30
0.0
 11
54.9199708528
 21
142.6419825674
 31
0.0
  0
LINE
  5
354
330
216
100
AcDbEntity
 67
     1
  8
3_ALL_AXES
  6
Continuous
 62
     7
100
AcDbLine
 10
55.0174914743
 20
140.1419825674
 30
0.0
 11
54.9199708528
 21
140.1419825674
 31
0.0
  0
LINE
  5
355
330
216
100
AcDbEntity
 67
     1
  8
3_ALL_AXES
  6
Continuous
 62
     7
100
AcDbLine
 10
96.7426637328
 20
142.6419825674
 30
0.0
 11
96.8401843544
 21
142.6419825674
 31
0.0
  0
LINE
  5
356
330
216
100
AcDbEntity
 67
     1
  8
3_ALL_AXES
  6
Continuous
 62
     7
100
AcDbLine
 10
96.7426637328
 20
140.1419825674
 30
0.0
 11
96.8401843544
 21
140.1419825674
 31
0.0
  0
ARC
  5
357
330
216
100
AcDbEntity
 67
     1
  8
7_ALL_FEATURES
  6
Continuous
 62
     7
100
AcDbCircle
 10
75.8800776036
 20
141.3919825674
 30
0.0
 40
7.5
100
AcDbArc
 50
0.0
 51
180.0
  0
ARC
  5
358
330
216
100
AcDbEntity
 67
     1
  8
3_ALL_AXES
  6
Continuous
 62
     7
100
AcDbCircle
 10
75.8800776036
 20
141.3919825674
 30
0.0
 40
14.5
100
AcDbArc
 50
0.0
 51
180.0
  0
ARC
  5
359
330
216
100
AcDbEntity
 67
     1
  8
3_ALL_AXES
  6
Continuous
 62
     7
100
AcDbCircle
 10
75.8800776036
 20
141.3919825674
 30
0.0
 40
14.5
100
AcDbArc
 50
180.0
 51
360.0
  0
ARC
  5
35A
330
216
100
AcDbEntity
 67
     1
  8
7_ALL_FEATURES
  6
Continuous
 62
     7
100
AcDbCircle
 10
75.8800776036
 20
141.3919825674
 30
0.0
 40
7.5
100
AcDbArc
 50
180.0
 51
360.0
  0
ARC
  5
35B
330
216
100
AcDbEntity
 67
     1
  8
7_ALL_FEATURES
  6
Continuous
 62
     9
100
AcDbCircle
 10
75.8800776036
 20
141.3919825674
 30
0.0
 40
11.8995550167
100
AcDbArc
 50
0.0
 51
180.0
  0
ARC
  5
35C
330
216
100
AcDbEntity
 67
     1
  8
7_ALL_FEATURES
  6
Continuous
 62
     9
100
AcDbCircle
 10
75.8800776036
 20
141.3919825674
 30
0.0
 40
7.6036880054
100
AcDbArc
 50
0.0
 51
180.0
  0
ARC
  5
35D
330
216
100
AcDbEntity
 67
     1
  8
7_ALL_FEATURES
  6
Continuous
 62
     9
100
AcDbCircle
 10
75.8800776036
 20
141.3919825674
 30
0.0
 40
13.4848029949
100
AcDbArc
 50
0.0
 51
180.0
  0
ARC
  5
35E
330
216
100
AcDbEntity
 67
     1
  8
7_ALL_FEATURES
  6
Continuous
 62
     9
100
AcDbCircle
 10
75.8800776036
 20
141.3919825674
 30
0.0
 40
13.4848029949
100
AcDbArc
 50
180.0
 51
360.0
  0
ARC
  5
35F
330
216
100
AcDbEntity
 67
     1
  8
7_ALL_FEATURES
  6
Continuous
 62
     9
100
AcDbCircle
 10
75.8800776036
 20
141.3919825674
 30
0.0
 40
7.6036880054
100
AcDbArc
 50
180.0
 51
360.0
  0
ARC
  5
360
330
216
100
AcDbEntity
 67
     1
  8
7_ALL_FEATURES
  6
Continuous
 62
     9
100
AcDbCircle
 10
75.8800776036
 20
141.3919825674
 30
0.0
 40
11.8995550167
100
AcDbArc
 50
180.0
 51
360.0
  0
ARC
  5
361
330
216
100
AcDbEntity
 67
     1
  8
7_ALL_FEATURES
  6
Continuous
 62
     9
100
AcDbCircle
 10
75.8800776036
 20
141.3919825674
 30
0.0
 40
14.72
100
AcDbArc
 50
140.3426491298
 51
320.3426491298
  0
ARC
  5
362
330
216
100
AcDbEntity
 67
     1
  8
7_ALL_FEATURES
  6
Continuous
 62
     9
100
AcDbCircle
 10
75.8800776036
 20
141.3919825674
 30
0.0
 40
14.72
100
AcDbArc
 50
320.3426491298
 51
140.3426491298
  0
ARC
  5
363
330
216
100
AcDbEntity
 67
     1
  8
3_ALL_AXES
  6
Continuous
 62
     7
100
AcDbCircle
 10
75.8800776036
 20
141.3919825674
 30
0.0
 40
20.9
100
AcDbArc
 50
0.0
 51
180.0
  0
ARC
  5
364
330
216
100
AcDbEntity
 67
     1
  8
7_ALL_FEATURES
  6
Continuous
 62
     7
100
AcDbCircle
 10
75.8800776036
 20
141.3919825674
 30
0.0
 40
17.15
100
AcDbArc
 50
0.0
 51
180.0
  0
ARC
  5
365
330
216
100
AcDbEntity
 67
     1
  8
3_ALL_AXES
  6
Continuous
 62
     7
100
AcDbCircle
 10
75.8800776036
 20
141.3919825674
 30
0.0
 40
20.9
100
AcDbArc
 50
180.0
 51
360.0
  0
ARC
  5
366
330
216
100
AcDbEntity
 67
     1
  8
7_ALL_FEATURES
  6
Continuous
 62
     7
100
AcDbCircle
 10
75.8800776036
 20
141.3919825674
 30
0.0
 40
17.15
100
AcDbArc
 50
180.0
 51
360.0
  0
ARC
  5
367
330
216
100
AcDbEntity
 67
     1
  8
7_ALL_FEATURES
  6
Continuous
 62
     9
100
AcDbCircle
 10
75.8800776036
 20
141.3919825674
 30
0.0
 40
18.3716889669
100
AcDbArc
 50
179.9999999675
 51
359.9999999675001
  0
ARC
  5
368
330
216
100
AcDbEntity
 67
     1
  8
7_ALL_FEATURES
  6
Continuous
 62
     9
100
AcDbCircle
 10
75.8800776036
 20
141.3919825674
 30
0.0
 40
18.3716889669
100
AcDbArc
 50
0.0
 51
179.9999999675
  0
ARC
  5
369
330
216
100
AcDbEntity
 67
     1
  8
7_ALL_FEATURES
  6
Continuous
 62
     9
100
AcDbCircle
 10
75.8800776036
 20
141.3919825674
 30
0.0
 40
18.6469556545
100
AcDbArc
 50
180.0000002374
 51
0.0000002374
  0
ARC
  5
36A
330
216
100
AcDbEntity
 67
     1
  8
7_ALL_FEATURES
  6
Continuous
 62
     9
100
AcDbCircle
 10
75.8800776036
 20
141.3919825674
 30
0.0
 40
18.6469556545
100
AcDbArc
 50
0.0000002374
 51
180.0000002374
  0
ARC
  5
36B
330
216
100
AcDbEntity
 67
     1
  8
02___PRT_ALL_AXES
  6
Continuous
 62
     7
100
AcDbCircle
 10
75.8800776036
 20
141.3919825674
 30
0.0
 40
21.0
100
AcDbArc
 50
0.0
 51
180.0
  0
ARC
  5
36C
330
216
100
AcDbEntity
 67
     1
  8
02___PRT_ALL_AXES
  6
Continuous
 62
     7
100
AcDbCircle
 10
75.8800776036
 20
141.3919825674
 30
0.0
 40
21.0
100
AcDbArc
 50
180.0
 51
360.0
  0
ARC
  5
36D
330
216
100
AcDbEntity
 67
     1
  8
02___PRT_ALL_AXES
  6
Continuous
 62
     7
100
AcDbCircle
 10
75.8800776036
 20
141.3919825674
 30
0.0
 40
29.0
100
AcDbArc
 50
0.0
 51
180.0
  0
ARC
  5
36E
330
216
100
AcDbEntity
 67
     1
  8
02___PRT_ALL_AXES
  6
Continuous
 62
     7
100
AcDbCircle
 10
75.8800776036
 20
141.3919825674
 30
0.0
 40
29.0
100
AcDbArc
 50
180.0
 51
360.0
  0
ARC
  5
36F
330
216
100
AcDbEntity
 67
     1
  8
7_ALL_FEATURES
  6
Continuous
 62
     9
100
AcDbCircle
 10
75.8800776036
 20
141.3919825674
 30
0.0
 40
21.8933982822
100
AcDbArc
 50
0.0
 51
180.0
  0
ARC
  5
370
330
216
100
AcDbEntity
 67
     1
  8
7_ALL_FEATURES
  6
Continuous
 62
     9
100
AcDbCircle
 10
75.8800776036
 20
141.3919825674
 30
0.0
 40
21.8933982822
100
AcDbArc
 50
180.0
 51
360.0
  0
ARC
  5
371
330
216
100
AcDbEntity
 67
     1
  8
7_ALL_FEATURES
  6
Continuous
 62
     9
100
AcDbCircle
 10
75.8800776036
 20
141.3919825674
 30
0.0
 40
22.1055303166
100
AcDbArc
 50
0.0
 51
180.0
  0
ARC
  5
372
330
216
100
AcDbEntity
 67
     1
  8
7_ALL_FEATURES
  6
Continuous
 62
     9
100
AcDbCircle
 10
75.8800776036
 20
141.3919825674
 30
0.0
 40
22.1055303166
100
AcDbArc
 50
180.0
 51
360.0
  0
LINE
  5
373
330
216
100
AcDbEntity
 67
     1
  8
7_ALL_FEATURES
  6
Continuous
 62
     3
100
AcDbLine
 10
111.7862953862
 20
145.3919825674
 30
0.0
 11
104.6000443354
 21
145.3919825674
 31
0.0
  0
LINE
  5
374
330
216
100
AcDbEntity
 67
     1
  8
7_ALL_FEATURES
  6
Continuous
 62
     3
100
AcDbLine
 10
104.6000443354
 20
137.3919825674
 30
0.0
 11
111.7862953862
 21
137.3919825674
 31
0.0
  0
LINE
  5
375
330
216
100
AcDbEntity
 67
     1
  8
7_ALL_FEATURES
  6
Continuous
 62
     3
100
AcDbLine
 10
111.8800776036
 20
145.3919825674
 30
0.0
 11
111.7862953862
 21
145.3919825674
 31
0.0
  0
LINE
  5
376
330
216
100
AcDbEntity
 67
     1
  8
7_ALL_FEATURES
  6
Continuous
 62
     3
100
AcDbLine
 10
111.8800776036
 20
137.3919825674
 30
0.0
 11
111.7862953862
 21
137.3919825674
 31
0.0
  0
LINE
  5
377
330
216
100
AcDbEntity
 67
     1
  8
7_ALL_FEATURES
  6
Continuous
 62
     3
100
AcDbLine
 10
111.8800776036
 20
145.3919825674
 30
0.0
 11
111.8800776036
 21
137.3919825674
 31
0.0
  0
LINE
  5
378
330
216
100
AcDbEntity
 67
     1
  8
7_ALL_FEATURES
  6
Continuous
 62
     9
100
AcDbLine
 10
111.7862953862
 20
145.3919825674
 30
0.0
 11
111.7862953862
 21
137.3919825674
 31
0.0
  0
LINE
  5
379
330
216
100
AcDbEntity
 67
     1
  8
7_ALL_FEATURES
  6
Continuous
 62
     3
100
AcDbLine
 10
39.9738598209
 20
137.3919825674
 30
0.0
 11
47.1601108718
 21
137.3919825674
 31
0.0
  0
LINE
  5
37A
330
216
100
AcDbEntity
 67
     1
  8
7_ALL_FEATURES
  6
Continuous
 62
     3
100
AcDbLine
 10
47.1601108718
 20
145.3919825674
 30
0.0
 11
39.9738598209
 21
145.3919825674
 31
0.0
  0
LINE
  5
37B
330
216
100
AcDbEntity
 67
     1
  8
7_ALL_FEATURES
  6
Continuous
 62
     3
100
AcDbLine
 10
39.8800776036
 20
137.3919825674
 30
0.0
 11
39.9738598209
 21
137.3919825674
 31
0.0
  0
LINE
  5
37C
330
216
100
AcDbEntity
 67
     1
  8
7_ALL_FEATURES
  6
Continuous
 62
     3
100
AcDbLine
 10
39.8800776036
 20
145.3919825674
 30
0.0
 11
39.9738598209
 21
145.3919825674
 31
0.0
  0
LINE
  5
37D
330
216
100
AcDbEntity
 67
     1
  8
7_ALL_FEATURES
  6
Continuous
 62
     3
100
AcDbLine
 10
39.8800776036
 20
137.3919825674
 30
0.0
 11
39.8800776036
 21
145.3919825674
 31
0.0
  0
LINE
  5
37E
330
216
100
AcDbEntity
 67
     1
  8
7_ALL_FEATURES
  6
Continuous
 62
     9
100
AcDbLine
 10
39.9738598209
 20
137.3919825674
 30
0.0
 11
39.9738598209
 21
145.3919825674
 31
0.0
  0
LINE
  5
37F
330
216
100
AcDbEntity
 67
     1
  8
3_ALL_AXES
  6
Continuous
 62
     7
100
AcDbLine
 10
172.9947044816
 20
147.5024442934
 30
0.0
 11
171.7719214908
 21
147.5024442934
 31
0.0
  0
LINE
  5
380
330
216
100
AcDbEntity
 67
     1
  8
3_ALL_AXES
  6
Continuous
 62
     7
100
AcDbLine
 10
171.0520692395
 20
146.2024442934
 30
0.0
 11
171.0665252044
 21
146.2024442934
 31
0.0
  0
ARC
  5
381
330
216
100
AcDbEntity
 67
     1
  8
3_ALL_AXES
  6
Continuous
 62
     7
100
AcDbCircle
 10
175.2947044816
 20
144.7024442934
 30
0.0
 40
4.5
100
AcDbArc
 50
141.5214048667
 51
160.4579351587
  0
ARC
  5
382
330
216
100
AcDbEntity
 67
     1
  8
3_ALL_AXES
  6
Continuous
 62
     7
100
AcDbCircle
 10
175.2947044816
 20
144.7024442934
 30
0.0
 40
4.5
100
AcDbArc
 50
160.4579351587
 51
160.5287793655
  0
ARC
  5
383
330
216
100
AcDbEntity
 67
     1
  8
3_ALL_AXES
  6
Continuous
 62
     7
100
AcDbCircle
 10
175.2947044816
 20
144.7024442934
 30
0.0
 40
4.4863682417
100
AcDbArc
 50
185.3717206844
 51
188.8895717194
  0
SPLINE
  5
384
330
216
100
AcDbEntity
 67
     1
  8
3_ALL_AXES
  6
Continuous
 62
     7
100
AcDbSpline
 70
     0
 71
     3
 72
    14
 73
    10
 74
     0
 42
0.000000001
 43
0.0000001
 40
0.0
 40
0.0
 40
0.0
 40
0.0
 40
0.0250522634
 40
0.0826614775
 40
0.1745543994
 40
0.29798062
 40
0.4484197279
 40
0.6200504974
 40
1.0
 40
1.0
 40
1.0
 40
1.0
 10
170.8280390587
 20
144.3524442934
 30
0.0
 10
170.8274492151
 20
144.3524442934
 30
0.0
 10
170.8263904513
 20
144.3501481329
 30
0.0
 10
170.8259143318
 20
144.3464776428
 30
0.0
 10
170.825358023
 20
144.3398552082
 30
0.0
 10
170.8252706653
 20
144.3313284888
 30
0.0
 10
170.8254556368
 20
144.3208088353
 30
0.0
 10
170.8262069643
 20
144.3043088284
 30
0.0
 10
170.827201587
 20
144.2913507358
 30
0.0
 10
170.8280390587
 20
144.2824442934
 30
0.0
  0
LINE
  5
385
330
216
100
AcDbEntity
 67
     1
  8
3_ALL_AXES
  6
Continuous
 62
     7
100
AcDbLine
 10
170.8624319057
 20
144.3524442934
 30
0.0
 11
170.8280390587
 21
144.3524442934
 31
0.0
  0
LINE
  5
386
330
216
100
AcDbEntity
 67
     1
  8
3_ALL_AXES
  6
Continuous
 62
     7
100
AcDbLine
 10
174.3947044816
 20
146.1524442934
 30
0.0
 11
174.2947044816
 21
146.1524442934
 31
0.0
  0
LINE
  5
387
330
216
100
AcDbEntity
 67
     1
  8
3_ALL_AXES
  6
Continuous
 62
     7
100
AcDbLine
 10
170.8280390587
 20
145.0524442934
 30
0.0
 11
170.8624319057
 21
145.0524442934
 31
0.0
  0
SPLINE
  5
388
330
216
100
AcDbEntity
 67
     1
  8
3_ALL_AXES
  6
Continuous
 62
     7
100
AcDbSpline
 70
     0
 71
     3
 72
    14
 73
    10
 74
     0
 42
0.000000001
 43
0.0000001
 40
0.0
 40
0.0
 40
0.0
 40
0.0
 40
0.3799509066
 40
0.5515831282
 40
0.7020272295
 40
0.8254484769
 40
0.9173381866
 40
0.9749483193
 40
1.0
 40
1.0
 40
1.0
 40
1.0
 10
170.8280390587
 20
145.1224442934
 30
0.0
 10
170.8272015838
 20
145.1135378172
 30
0.0
 10
170.8262069398
 20
145.1005796575
 30
0.0
 10
170.8254556339
 20
145.0840794611
 30
0.0
 10
170.8252706744
 20
145.0735597749
 30
0.0
 10
170.8253580004
 20
145.0650331161
 30
0.0
 10
170.8259143901
 20
145.0584108857
 30
0.0
 10
170.826390413
 20
145.0547404198
 30
0.0
 10
170.8274492288
 20
145.0524442934
 30
0.0
 10
170.8280390587
 20
145.0524442934
 30
0.0
  0
ARC
  5
389
330
216
100
AcDbEntity
 67
     1
  8
3_ALL_AXES
  6
Continuous
 62
     7
100
AcDbCircle
 10
175.2947044816
 20
144.7024442934
 30
0.0
 40
4.4863682417
100
AcDbArc
 50
160.4672167333
 51
170.7506175041
  0
ARC
  5
38A
330
216
100
AcDbEntity
 67
     1
  8
3_ALL_AXES
  6
Continuous
 62
     7
100
AcDbCircle
 10
175.2947044816
 20
144.7024442934
 30
0.0
 40
4.4863682417
100
AcDbArc
 50
171.7251837136
 51
174.6282793156
  0
LINE
  5
38B
330
216
100
AcDbEntity
 67
     1
  8
3_ALL_AXES
  6
Continuous
 62
     7
100
AcDbLine
 10
171.7719214908
 20
147.5024442934
 30
0.0
 11
171.7719214908
 21
145.3919825674
 31
0.0
  0
ARC
  5
38C
330
216
100
AcDbEntity
 67
     1
  8
3_ALL_AXES
  6
Continuous
 62
     7
100
AcDbCircle
 10
192.7130670003
 20
163.8919825674
 30
0.0
 40
0.75
100
AcDbArc
 50
90.0
 51
180.0
  0
SPLINE
  5
38D
330
216
100
AcDbEntity
 67
     1
  8
3_ALL_AXES
  6
Continuous
 62
     7
100
AcDbSpline
 70
     0
 71
     3
 72
    13
 73
     9
 74
     0
 42
0.000000001
 43
0.0000001
 40
0.0
 40
0.0
 40
0.0
 40
0.0
 40
0.2605653988
 40
0.5146747524
 40
0.6388189488
 40
0.7607026409
 40
0.8808311617
 40
1.0
 40
1.0
 40
1.0
 40
1.0
 10
192.7130670003
 20
120.3203265188
 30
0.0
 10
192.6158469269
 20
120.3203265188
 30
0.0
 10
192.4220976859
 20
120.3544835698
 30
0.0
 10
192.2124476718
 20
120.4799964117
 30
0.0
 10
192.0862267148
 20
120.6189370103
 30
0.0
 10
192.0160983745
 20
120.7373588551
 30
0.0
 10
191.9728371828
 20
120.8660122262
 30
0.0
 10
191.9630670003
 20
120.9555940372
 30
0.0
 10
191.9630670003
 20
121.0000573591
 30
0.0
  0
LINE
  5
38E
330
216
100
AcDbEntity
 67
     1
  8
3_ALL_AXES
  6
Continuous
 62
     7
100
AcDbLine
 10
193.4630670003
 20
121.0000573591
 30
0.0
 11
193.4630670003
 21
137.3919825674
 31
0.0
  0
LINE
  5
38F
330
216
100
AcDbEntity
 67
     1
  8
3_ALL_AXES
  6
Continuous
 62
     7
100
AcDbLine
 10
193.4630670003
 20
145.3919825674
 30
0.0
 11
193.4630670003
 21
163.8430221207
 31
0.0
  0
SPLINE
  5
390
330
216
100
AcDbEntity
 67
     1
  8
3_ALL_AXES
  6
Continuous
 62
     7
100
AcDbSpline
 70
     0
 71
     3
 72
    13
 73
     9
 74
     0
 42
0.000000001
 43
0.0000001
 40
0.0
 40
0.0
 40
0.0
 40
0.0
 40
0.1191688383
 40
0.2392973591
 40
0.3611810512
 40
0.4853252476
 40
0.7394346012
 40
1.0
 40
1.0
 40
1.0
 40
1.0
 10
193.4630670003
 20
121.0000573591
 30
0.0
 10
193.4630670003
 20
120.9555940372
 30
0.0
 10
193.4532968178
 20
120.8660122262
 30
0.0
 10
193.410035626
 20
120.7373588551
 30
0.0
 10
193.3399072858
 20
120.6189370103
 30
0.0
 10
193.2136863288
 20
120.4799964117
 30
0.0
 10
193.0040363147
 20
120.3544835698
 30
0.0
 10
192.8102870736
 20
120.3203265188
 30
0.0
 10
192.7130670003
 20
120.3203265188
 30
0.0
  0
LINE
  5
391
330
216
100
AcDbEntity
 67
     1
  8
3_ALL_AXES
  6
Continuous
 62
     7
100
AcDbLine
 10
193.4630670003
 20
163.8430221207
 30
0.0
 11
193.4630670003
 21
163.8919825674
 31
0.0
  0
ARC
  5
392
330
216
100
AcDbEntity
 67
     1
  8
3_ALL_AXES
  6
Continuous
 62
     7
100
AcDbCircle
 10
192.7130670003
 20
163.8919825674
 30
0.0
 40
0.75
100
AcDbArc
 50
0.0
 51
90.0
  0
LINE
  5
393
330
216
100
AcDbEntity
 67
     1
  8
3_ALL_AXES
  6
Continuous
 62
     7
100
AcDbLine
 10
191.9630670003
 20
121.0000573591
 30
0.0
 11
191.9630670003
 21
137.3919825674
 31
0.0
  0
LINE
  5
394
330
216
100
AcDbEntity
 67
     1
  8
3_ALL_AXES
  6
Continuous
 62
     7
100
AcDbLine
 10
191.9630670003
 20
145.3919825674
 30
0.0
 11
191.9630670003
 21
163.8430221207
 31
0.0
  0
LINE
  5
395
330
216
100
AcDbEntity
 67
     1
  8
3_ALL_AXES
  6
Continuous
 62
     7
100
AcDbLine
 10
191.9630670003
 20
163.8430221207
 30
0.0
 11
191.9630670003
 21
163.8919825674
 31
0.0
  0
LINE
  5
396
330
216
100
AcDbEntity
 67
     1
  8
7_ALL_FEATURES
  6
Continuous
 62
     7
100
AcDbLine
 10
174.2947044816
 20
148.3112762993
 30
0.0
 11
174.2947044816
 21
145.3919825674
 31
0.0
  0
LINE
  5
397
330
216
100
AcDbEntity
 67
     1
  8
7_ALL_FEATURES
  6
Continuous
 62
     7
100
AcDbLine
 10
174.3947044816
 20
145.3919825674
 30
0.0
 11
174.3947044816
 21
148.3112762993
 31
0.0
  0
LINE
  5
398
330
216
100
AcDbEntity
 67
     1
  8
7_ALL_FEATURES
  6
Continuous
 62
     7
100
AcDbLine
 10
172.9947044816
 20
145.3919825674
 30
0.0
 11
172.9947044816
 21
148.3112762993
 31
0.0
  0
SPLINE
  5
399
330
216
100
AcDbEntity
 67
     1
  8
7_ALL_FEATURES
  6
Continuous
 62
     7
100
AcDbSpline
 70
     0
 71
     3
 72
    24
 73
    20
 74
     0
 42
0.000000001
 43
0.0000001
 40
0.0
 40
0.0
 40
0.0
 40
0.0
 40
0.0543186457
 40
0.1100004567
 40
0.1681264459
 40
0.2292945855
 40
0.2935945818
 40
0.3606580235
 40
0.4297619763
 40
0.4999455262
 40
0.570129052
 40
0.6392329718
 40
0.7062964187
 40
0.770596425
 40
0.8317647854
 40
0.8898900993
 40
0.9455740819
 40
0.9728756979
 40
1.0
 40
1.0
 40
1.0
 40
1.0
 10
175.6947044816
 20
134.9731074685
 30
0.0
 10
175.6947044816
 20
134.8267311882
 30
0.0
 10
175.6561671835
 20
134.5289910367
 30
0.0
 10
175.4865451837
 20
134.1043067815
 30
0.0
 10
175.2132873778
 20
133.715247611
 30
0.0
 10
174.848282011
 20
133.3764540041
 30
0.0
 10
174.4061147103
 20
133.0997113355
 30
0.0
 10
173.9036432806
 20
132.8947293826
 30
0.0
 10
173.3597296498
 20
132.7687346663
 30
0.0
 10
172.794704518
 20
132.7262287195
 30
0.0
 10
172.2296797492
 20
132.7687370581
 30
0.0
 10
171.6857662327
 20
132.8947302816
 30
0.0
 10
171.1832949345
 20
133.0997166433
 30
0.0
 10
170.7411250865
 20
133.3764402071
 30
0.0
 10
170.376122753
 20
133.7152931088
 30
0.0
 10
170.1028559582
 20
134.1041495231
 30
0.0
 10
169.9604920797
 20
134.4611904612
 30
0.0
 10
169.9041270986
 20
134.753164888
 30
0.0
 10
169.8947024073
 20
134.9000136988
 30
0.0
 10
169.8947058468
 20
134.9731074658
 30
0.0
  0
LINE
  5
39A
330
216
100
AcDbEntity
 67
     1
  8
7_ALL_FEATURES
  6
Continuous
 62
     7
100
AcDbLine
 10
174.3947044816
 20
150.0298395031
 30
0.0
 11
174.3947044816
 21
148.3112762993
 31
0.0
  0
LINE
  5
39B
330
216
100
AcDbEntity
 67
     1
  8
7_ALL_FEATURES
  6
Continuous
 62
     7
100
AcDbLine
 10
175.6947044816
 20
150.0298504085
 30
0.0
 11
174.3947044816
 21
150.0298504085
 31
0.0
  0
LINE
  5
39C
330
216
100
AcDbEntity
 67
     1
  8
7_ALL_FEATURES
  6
Continuous
 62
     7
100
AcDbLine
 10
172.9947044816
 20
150.0298395031
 30
0.0
 11
172.9947044816
 21
148.3112762993
 31
0.0
  0
LINE
  5
39D
330
216
100
AcDbEntity
 67
     1
  8
7_ALL_FEATURES
  6
Continuous
 62
     7
100
AcDbLine
 10
174.2947044816
 20
150.0298504085
 30
0.0
 11
172.9947044816
 21
150.0298504085
 31
0.0
  0
SPLINE
  5
39E
330
216
100
AcDbEntity
 67
     1
  8
7_ALL_FEATURES
  6
Continuous
 62
     7
100
AcDbSpline
 70
     0
 71
     3
 72
    13
 73
     9
 74
     0
 42
0.000000001
 43
0.0000001
 40
0.0
 40
0.0
 40
0.0
 40
0.0
 40
0.117415423
 40
0.235709487
 40
0.3557046901
 40
0.4781162353
 40
0.7318704737
 40
1.0
 40
1.0
 40
1.0
 40
1.0
 10
169.8947058468
 20
141.0359592475
 30
0.0
 10
169.8947095314
 20
141.1142637865
 30
0.0
 10
169.9055038738
 20
141.2716681455
 30
0.0
 10
169.9538268211
 20
141.5046078401
 30
0.0
 10
170.0337001429
 20
141.7322649637
 30
0.0
 10
170.1826585447
 20
142.0286127401
 30
0.0
 10
170.4458753373
 20
142.3735285574
 30
0.0
 10
170.7146399296
 20
142.5990846472
 30
0.0
 10
170.8619419366
 20
142.7004616109
 30
0.0
  0
LINE
  5
39F
330
216
100
AcDbEntity
 67
     1
  8
7_ALL_FEATURES
  6
Continuous
 62
     7
100
AcDbLine
 10
174.2947044816
 20
148.3112762993
 30
0.0
 11
174.2947044816
 21
150.0298395031
 31
0.0
  0
LINE
  5
3A0
330
216
100
AcDbEntity
 67
     1
  8
7_ALL_FEATURES
  6
Continuous
 62
     7
100
AcDbLine
 10
169.8947044816
 20
141.0359592503
 30
0.0
 11
169.8947044816
 21
134.9731074685
 31
0.0
  0
LINE
  5
3A1
330
216
100
AcDbEntity
 67
     1
  8
7_ALL_FEATURES
  6
Continuous
 62
     9
100
AcDbLine
 10
174.2947044816
 20
148.3112762993
 30
0.0
 11
172.9947044816
 21
148.3112762993
 31
0.0
  0
LINE
  5
3A2
330
216
100
AcDbEntity
 67
     1
  8
7_ALL_FEATURES
  6
Continuous
 62
     9
100
AcDbLine
 10
175.6947044816
 20
148.3112762993
 30
0.0
 11
174.3947044816
 21
148.3112762993
 31
0.0
  0
SPLINE
  5
3A3
330
216
100
AcDbEntity
 67
     1
  8
7_ALL_FEATURES
  6
Continuous
 62
     7
100
AcDbSpline
 70
     0
 71
     3
 72
    13
 73
     9
 74
     0
 42
0.000000001
 43
0.0000001
 40
0.0
 40
0.0
 40
0.0
 40
0.0
 40
0.2680582879
 40
0.5217899155
 40
0.6442090815
 40
0.7642258143
 40
0.8825499127
 40
1.0
 40
1.0
 40
1.0
 40
1.0
 10
170.8564676847
 20
139.3752389083
 30
0.0
 10
170.7099384145
 20
139.4766086083
 30
0.0
 10
170.4426195332
 20
139.701958885
 30
0.0
 10
170.1809251451
 20
140.0461348345
 30
0.0
 10
170.032874451
 20
140.3417064978
 30
0.0
 10
169.9534565585
 20
140.5687141494
 30
0.0
 10
169.9054494646
 20
140.8009681264
 30
0.0
 10
169.8947021732
 20
140.9578912556
 30
0.0
 10
169.8947058468
 20
141.0359592475
 30
0.0
  0
LINE
  5
3A4
330
216
100
AcDbEntity
 67
     1
  8
7_ALL_FEATURES
  6
Continuous
 62
     7
100
AcDbLine
 10
175.6947044816
 20
150.5859047913
 30
0.0
 11
175.6947044816
 21
155.7980797761
 31
0.0
  0
LINE
  5
3A5
330
216
100
AcDbEntity
 67
     1
  8
7_ALL_FEATURES
  6
Continuous
 62
     7
100
AcDbLine
 10
175.6947044816
 20
155.7981175466
 30
0.0
 11
175.7130670003
 21
155.8284134588
 31
0.0
  0
LINE
  5
3A6
330
216
100
AcDbEntity
 67
     1
  8
7_ALL_FEATURES
  6
Continuous
 62
     7
100
AcDbLine
 10
175.6947044816
 20
126.9858853588
 30
0.0
 11
175.6947044816
 21
132.1544697758
 31
0.0
  0
LINE
  5
3A7
330
216
100
AcDbEntity
 67
     1
  8
7_ALL_FEATURES
  6
Continuous
 62
     7
100
AcDbLine
 10
175.6947044816
 20
132.1544697758
 30
0.0
 11
175.6947044816
 21
133.9241968134
 31
0.0
  0
LINE
  5
3A8
330
216
100
AcDbEntity
 67
     1
  8
7_ALL_FEATURES
  6
Continuous
 62
     7
100
AcDbLine
 10
175.6947044816
 20
133.9241968134
 30
0.0
 11
175.6947044816
 21
134.154174211
 31
0.0
  0
LINE
  5
3A9
330
216
100
AcDbEntity
 67
     1
  8
7_ALL_FEATURES
  6
Continuous
 62
     7
100
AcDbLine
 10
175.6947044816
 20
134.154174211
 30
0.0
 11
175.6947044816
 21
134.9731074685
 31
0.0
  0
LINE
  5
3AA
330
216
100
AcDbEntity
 67
     1
  8
7_ALL_FEATURES
  6
Continuous
 62
     7
100
AcDbLine
 10
175.6947044816
 20
134.9731074685
 30
0.0
 11
175.6947044816
 21
137.3919825674
 31
0.0
  0
LINE
  5
3AB
330
216
100
AcDbEntity
 67
     1
  8
7_ALL_FEATURES
  6
Continuous
 62
     7
100
AcDbLine
 10
175.6947044816
 20
145.3919825674
 30
0.0
 11
175.6947044816
 21
148.3112762993
 31
0.0
  0
LINE
  5
3AC
330
216
100
AcDbEntity
 67
     1
  8
7_ALL_FEATURES
  6
Continuous
 62
     7
100
AcDbLine
 10
175.6947044816
 20
148.3112762993
 30
0.0
 11
175.6947044816
 21
150.0298395031
 31
0.0
  0
LINE
  5
3AD
330
216
100
AcDbEntity
 67
     1
  8
7_ALL_FEATURES
  6
Continuous
 62
     7
100
AcDbLine
 10
175.6947044816
 20
150.0298395031
 30
0.0
 11
175.6947044816
 21
150.5859047913
 31
0.0
  0
LINE
  5
3AE
330
216
100
AcDbEntity
 67
     1
  8
7_ALL_FEATURES
  6
Continuous
 62
     7
100
AcDbLine
 10
175.6947044816
 20
126.9858475883
 30
0.0
 11
175.7130670003
 21
126.955551676
 31
0.0
  0
LINE
  5
3AF
330
216
100
AcDbEntity
 67
     1
  8
7_ALL_FEATURES
  6
Continuous
 62
     7
100
AcDbLine
 10
198.3130670003
 20
119.4985860451
 30
0.0
 11
198.3130670003
 21
120.3919825674
 31
0.0
  0
LINE
  5
3B0
330
216
100
AcDbEntity
 67
     1
  8
7_ALL_FEATURES
  6
Continuous
 62
     7
100
AcDbLine
 10
198.3130670003
 20
120.3919825674
 30
0.0
 11
198.3130670003
 21
141.3919825674
 31
0.0
  0
ARC
  5
3B1
330
216
100
AcDbEntity
 67
     1
  8
7_ALL_FEATURES
  6
Continuous
 62
     7
100
AcDbCircle
 10
196.8130670003
 20
119.4985842852
 30
0.0
 40
1.5
100
AcDbArc
 50
351.8698976458
 51
360.0
  0
LINE
  5
3B2
330
216
100
AcDbEntity
 67
     1
  8
7_ALL_FEATURES
  6
Continuous
 62
     7
100
AcDbLine
 10
198.3130670003
 20
119.4985842852
 30
0.0
 11
198.3130670003
 21
120.3919825674
 31
0.0
  0
LINE
  5
3B3
330
216
100
AcDbEntity
 67
     1
  8
7_ALL_FEATURES
  6
Continuous
 62
     7
100
AcDbLine
 10
198.3130670003
 20
120.3919825674
 30
0.0
 11
198.3130670003
 21
141.3919825674
 31
0.0
  0
ARC
  5
3B4
330
216
100
AcDbEntity
 67
     1
  8
7_ALL_FEATURES
  6
Continuous
 62
     7
100
AcDbCircle
 10
196.8130670003
 20
163.2853808496
 30
0.0
 40
1.5
100
AcDbArc
 50
0.0
 51
8.1301023542
  0
LINE
  5
3B5
330
216
100
AcDbEntity
 67
     1
  8
7_ALL_FEATURES
  6
Continuous
 62
     7
100
AcDbLine
 10
198.3130670003
 20
141.3919825674
 30
0.0
 11
198.3130670003
 21
162.3919825674
 31
0.0
  0
LINE
  5
3B6
330
216
100
AcDbEntity
 67
     1
  8
7_ALL_FEATURES
  6
Continuous
 62
     7
100
AcDbLine
 10
198.3130670003
 20
162.3919825674
 30
0.0
 11
198.3130670003
 21
163.2853790898
 31
0.0
  0
LINE
  5
3B7
330
216
100
AcDbEntity
 67
     1
  8
02___PRT_ALL_AXES
  6
Continuous
 62
     7
100
AcDbLine
 10
196.8130670003
 20
141.3919825674
 30
0.0
 11
196.8130670003
 21
164.8919825674
 31
0.0
  0
LINE
  5
3B8
330
216
100
AcDbEntity
 67
     1
  8
02___PRT_ALL_AXES
  6
Continuous
 62
     7
100
AcDbLine
 10
196.8130670003
 20
164.8919825674
 30
0.0
 11
196.8130670003
 21
170.3919825674
 31
0.0
  0
LINE
  5
3B9
330
216
100
AcDbEntity
 67
     1
  8
02___PRT_ALL_AXES
  6
Continuous
 62
     7
100
AcDbLine
 10
196.8130670003
 20
141.3919825674
 30
0.0
 11
196.8130670003
 21
117.8919825674
 31
0.0
  0
LINE
  5
3BA
330
216
100
AcDbEntity
 67
     1
  8
02___PRT_ALL_AXES
  6
Continuous
 62
     7
100
AcDbLine
 10
196.8130670003
 20
117.8919825674
 30
0.0
 11
196.8130670003
 21
112.3919825674
 31
0.0
  0
LINE
  5
3BB
330
216
100
AcDbEntity
 67
     1
  8
7_ALL_FEATURES
  6
Continuous
 62
     7
100
AcDbLine
 10
194.2130670003
 20
145.3919825674
 30
0.0
 11
194.2130670003
 21
163.1419825674
 31
0.0
  0
LINE
  5
3BC
330
216
100
AcDbEntity
 67
     1
  8
7_ALL_FEATURES
  6
Continuous
 62
     7
100
AcDbLine
 10
194.2130670003
 20
163.1419825674
 30
0.0
 11
194.2130670003
 21
164.891980872
 31
0.0
  0
LINE
  5
3BD
330
216
100
AcDbEntity
 67
     1
  8
7_ALL_FEATURES
  6
Continuous
 62
     7
100
AcDbLine
 10
198.3130670003
 20
141.3919825674
 30
0.0
 11
198.3130670003
 21
162.3919825674
 31
0.0
  0
LINE
  5
3BE
330
216
100
AcDbEntity
 67
     1
  8
7_ALL_FEATURES
  6
Continuous
 62
     7
100
AcDbLine
 10
198.3130670003
 20
162.3919825674
 30
0.0
 11
198.3130670003
 21
163.2853808496
 31
0.0
  0
LINE
  5
3BF
330
216
100
AcDbEntity
 67
     1
  8
7_ALL_FEATURES
  6
Continuous
 62
     7
100
AcDbLine
 10
175.7130670003
 20
119.391984334
 30
0.0
 11
175.7130670003
 21
125.3779568613
 31
0.0
  0
LINE
  5
3C0
330
216
100
AcDbEntity
 67
     1
  8
7_ALL_FEATURES
  6
Continuous
 62
     7
100
AcDbLine
 10
175.7130670003
 20
125.3779568613
 30
0.0
 11
175.7130670003
 21
137.3919825674
 31
0.0
  0
LINE
  5
3C1
330
216
100
AcDbEntity
 67
     1
  8
7_ALL_FEATURES
  6
Continuous
 62
     7
100
AcDbLine
 10
175.7130670003
 20
119.3919825674
 30
0.0
 11
177.2130670003
 21
117.8919825674
 31
0.0
  0
LINE
  5
3C2
330
216
100
AcDbEntity
 67
     1
  8
7_ALL_FEATURES
  6
Continuous
 62
     7
100
AcDbLine
 10
175.7130670003
 20
145.3919825674
 30
0.0
 11
175.7130670003
 21
157.4060082735
 31
0.0
  0
LINE
  5
3C3
330
216
100
AcDbEntity
 67
     1
  8
7_ALL_FEATURES
  6
Continuous
 62
     7
100
AcDbLine
 10
175.7130670003
 20
157.4060082735
 30
0.0
 11
175.7130670003
 21
163.3919808008
 31
0.0
  0
LINE
  5
3C4
330
216
100
AcDbEntity
 67
     1
  8
7_ALL_FEATURES
  6
Continuous
 62
     7
100
AcDbLine
 10
175.7130670003
 20
163.3919825674
 30
0.0
 11
177.2130670003
 21
164.8919825674
 31
0.0
  0
LINE
  5
3C5
330
216
100
AcDbEntity
 67
     1
  8
02___PRT_ALL_AXES
  6
Continuous
 62
     7
100
AcDbLine
 10
191.2130670003
 20
117.8919825674
 30
0.0
 11
177.2130670003
 21
117.8919825674
 31
0.0
  0
LINE
  5
3C6
330
216
100
AcDbEntity
 67
     1
  8
7_ALL_FEATURES
  6
Continuous
 62
     7
100
AcDbLine
 10
194.2130670003
 20
117.8919842628
 30
0.0
 11
194.2130670003
 21
119.6419825674
 31
0.0
  0
LINE
  5
3C7
330
216
100
AcDbEntity
 67
     1
  8
7_ALL_FEATURES
  6
Continuous
 62
     7
100
AcDbLine
 10
194.2130670003
 20
119.6419825674
 30
0.0
 11
194.2130670003
 21
137.3919825674
 31
0.0
  0
LINE
  5
3C8
330
216
100
AcDbEntity
 67
     1
  8
02___PRT_ALL_AXES
  6
Continuous
 62
     7
100
AcDbLine
 10
196.8130670003
 20
117.8919825674
 30
0.0
 11
194.2130670003
 21
117.8919825674
 31
0.0
  0
LINE
  5
3C9
330
216
100
AcDbEntity
 67
     1
  8
02___PRT_ALL_AXES
  6
Continuous
 62
     7
100
AcDbLine
 10
197.3130670003
 20
112.3919825674
 30
0.0
 11
196.8130670003
 21
112.3919825674
 31
0.0
  0
LINE
  5
3CA
330
216
100
AcDbEntity
 67
     1
  8
02___PRT_ALL_AXES
  6
Continuous
 62
     7
100
AcDbLine
 10
198.2979912408
 20
119.2864522509
 30
0.0
 11
197.3130670003
 21
112.3919825674
 31
0.0
  0
LINE
  5
3CB
330
216
100
AcDbEntity
 67
     1
  8
7_ALL_FEATURES
  6
Continuous
 62
     7
100
AcDbLine
 10
191.2130670003
 20
137.3919825674
 30
0.0
 11
191.2130670003
 21
119.6419825674
 31
0.0
  0
LINE
  5
3CC
330
216
100
AcDbEntity
 67
     1
  8
7_ALL_FEATURES
  6
Continuous
 62
     7
100
AcDbLine
 10
191.2130670003
 20
119.6419825674
 30
0.0
 11
191.2130670003
 21
117.8919842628
 31
0.0
  0
LINE
  5
3CD
330
216
100
AcDbEntity
 67
     1
  8
7_ALL_FEATURES
  6
Continuous
 62
     7
100
AcDbLine
 10
191.2130670003
 20
164.891980872
 30
0.0
 11
191.2130670003
 21
163.1419825674
 31
0.0
  0
LINE
  5
3CE
330
216
100
AcDbEntity
 67
     1
  8
7_ALL_FEATURES
  6
Continuous
 62
     7
100
AcDbLine
 10
191.2130670003
 20
163.1419825674
 30
0.0
 11
191.2130670003
 21
145.3919825674
 31
0.0
  0
LINE
  5
3CF
330
216
100
AcDbEntity
 67
     1
  8
02___PRT_ALL_AXES
  6
Continuous
 62
     7
100
AcDbLine
 10
191.2130670003
 20
164.8919825674
 30
0.0
 11
177.2130670003
 21
164.8919825674
 31
0.0
  0
LINE
  5
3D0
330
216
100
AcDbEntity
 67
     1
  8
02___PRT_ALL_AXES
  6
Continuous
 62
     7
100
AcDbLine
 10
196.8130670003
 20
164.8919825674
 30
0.0
 11
194.2130670003
 21
164.8919825674
 31
0.0
  0
LINE
  5
3D1
330
216
100
AcDbEntity
 67
     1
  8
02___PRT_ALL_AXES
  6
Continuous
 62
     7
100
AcDbLine
 10
197.3130670003
 20
170.3919825674
 30
0.0
 11
196.8130670003
 21
170.3919825674
 31
0.0
  0
LINE
  5
3D2
330
216
100
AcDbEntity
 67
     1
  8
02___PRT_ALL_AXES
  6
Continuous
 62
     7
100
AcDbLine
 10
198.2979912408
 20
163.497512884
 30
0.0
 11
197.3130670003
 21
170.3919825674
 31
0.0
  0
LINE
  5
3D3
330
216
100
AcDbEntity
 67
     1
  8
7_ALL_FEATURES
  6
Continuous
 62
     7
100
AcDbLine
 10
191.2130670003
 20
119.6419825674
 30
0.0
 11
194.2130670003
 21
119.6419825674
 31
0.0
  0
LINE
  5
3D4
330
216
100
AcDbEntity
 67
     1
  8
7_ALL_FEATURES
  6
Continuous
 62
     7
100
AcDbLine
 10
191.2130670003
 20
163.1419825674
 30
0.0
 11
191.9630670003
 21
163.1419825674
 31
0.0
  0
LINE
  5
3D5
330
216
100
AcDbEntity
 67
     1
  8
7_ALL_FEATURES
  6
Continuous
 62
     7
100
AcDbLine
 10
193.4630670003
 20
163.1419825674
 30
0.0
 11
194.2130670003
 21
163.1419825674
 31
0.0
  0
LINE
  5
3D6
330
216
100
AcDbEntity
 67
     1
  8
02___PRT_ALL_AXES
  6
Continuous
 62
     7
100
AcDbLine
 10
197.3130670003
 20
141.3919825674
 30
0.0
 11
197.3130670003
 21
112.3919825674
 31
0.0
  0
LINE
  5
3D7
330
216
100
AcDbEntity
 67
     1
  8
7_ALL_FEATURES
  6
Continuous
 62
     9
100
AcDbLine
 10
198.2979912408
 20
119.2864522509
 30
0.0
 11
198.2979912408
 21
141.3919825674
 31
0.0
  0
LINE
  5
3D8
330
216
100
AcDbEntity
 67
     1
  8
7_ALL_FEATURES
  6
Continuous
 62
     7
100
AcDbLine
 10
177.2130670003
 20
145.3919825674
 30
0.0
 11
177.2130670003
 21
164.8919825674
 31
0.0
  0
LINE
  5
3D9
330
216
100
AcDbEntity
 67
     1
  8
7_ALL_FEATURES
  6
Continuous
 62
     7
100
AcDbLine
 10
177.2130670003
 20
117.8919825674
 30
0.0
 11
177.2130670003
 21
137.3919825674
 31
0.0
  0
LINE
  5
3DA
330
216
100
AcDbEntity
 67
     1
  8
02___PRT_ALL_AXES
  6
Continuous
 62
     7
100
AcDbLine
 10
197.3130670003
 20
141.3919825674
 30
0.0
 11
197.3130670003
 21
170.3919825674
 31
0.0
  0
LINE
  5
3DB
330
216
100
AcDbEntity
 67
     1
  8
7_ALL_FEATURES
  6
Continuous
 62
     9
100
AcDbLine
 10
198.2979912408
 20
141.3919825674
 30
0.0
 11
198.2979912408
 21
163.497512884
 31
0.0
  0
LINE
  5
3DC
330
216
100
AcDbEntity
 67
     1
  8
7_ALL_FEATURES
  6
Continuous
 62
     3
100
AcDbLine
 10
177.024867471
 20
137.3919825674
 30
0.0
 11
196.250631435
 21
137.3919825674
 31
0.0
  0
LINE
  5
3DD
330
216
100
AcDbEntity
 67
     1
  8
7_ALL_FEATURES
  6
Continuous
 62
     3
100
AcDbLine
 10
196.250631435
 20
145.3919825674
 30
0.0
 11
177.024867471
 21
145.3919825674
 31
0.0
  0
LINE
  5
3DE
330
216
100
AcDbEntity
 67
     1
  8
7_ALL_FEATURES
  6
Continuous
 62
     3
100
AcDbLine
 10
196.600631435
 20
137.3919825674
 30
0.0
 11
196.250631435
 21
137.3919825674
 31
0.0
  0
LINE
  5
3DF
330
216
100
AcDbEntity
 67
     1
  8
7_ALL_FEATURES
  6
Continuous
 62
     3
100
AcDbLine
 10
196.600631435
 20
145.3919825674
 30
0.0
 11
196.250631435
 21
145.3919825674
 31
0.0
  0
LINE
  5
3E0
330
216
100
AcDbEntity
 67
     1
  8
7_ALL_FEATURES
  6
Continuous
 62
     3
100
AcDbLine
 10
196.600631435
 20
145.3919825674
 30
0.0
 11
196.600631435
 21
137.3919825674
 31
0.0
  0
LINE
  5
3E1
330
216
100
AcDbEntity
 67
     1
  8
7_ALL_FEATURES
  6
Continuous
 62
     3
100
AcDbLine
 10
176.674867471
 20
137.3919825674
 30
0.0
 11
177.024867471
 21
137.3919825674
 31
0.0
  0
LINE
  5
3E2
330
216
100
AcDbEntity
 67
     1
  8
7_ALL_FEATURES
  6
Continuous
 62
     3
100
AcDbLine
 10
176.674867471
 20
145.3919825674
 30
0.0
 11
177.024867471
 21
145.3919825674
 31
0.0
  0
LINE
  5
3E3
330
216
100
AcDbEntity
 67
     1
  8
7_ALL_FEATURES
  6
Continuous
 62
     3
100
AcDbLine
 10
170.8624319057
 20
145.3919825674
 30
0.0
 11
170.8624319057
 21
137.3919825674
 31
0.0
  0
LINE
  5
3E4
330
216
100
AcDbEntity
 67
     1
  8
7_ALL_FEATURES
  6
Continuous
 62
     3
100
AcDbLine
 10
170.8624319057
 20
137.3919825674
 30
0.0
 11
176.674867471
 21
137.3919825674
 31
0.0
  0
LINE
  5
3E5
330
216
100
AcDbEntity
 67
     1
  8
7_ALL_FEATURES
  6
Continuous
 62
     3
100
AcDbLine
 10
176.674867471
 20
145.3919825674
 30
0.0
 11
170.8624319057
 21
145.3919825674
 31
0.0
  0
LINE
  5
3E6
330
216
100
AcDbEntity
 67
     1
  8
7_ALL_FEATURES
  6
Continuous
 62
     9
100
AcDbLine
 10
176.674867471
 20
137.3919825674
 30
0.0
 11
176.674867471
 21
145.3919825674
 31
0.0
  0
LINE
  5
3E7
330
216
100
AcDbEntity
 67
     1
  8
7_ALL_FEATURES
  6
Continuous
 62
     9
100
AcDbLine
 10
177.024867471
 20
137.3919825674
 30
0.0
 11
177.024867471
 21
145.3919825674
 31
0.0
  0
LINE
  5
3E8
330
216
100
AcDbEntity
 67
     1
  8
7_ALL_FEATURES
  6
Continuous
 62
     9
100
AcDbLine
 10
196.250631435
 20
145.3919825674
 30
0.0
 11
196.250631435
 21
137.3919825674
 31
0.0
  0
DIMENSION
  5
3E9
330
216
100
AcDbEntity
 67
     1
  8
0
  6
Continuous
 62
     2
100
AcDbDimension
280
     0
  2
*D1
 10
33.5809047422
 20
52.6634344249
 30
0.0
 11
33.5809047422
 21
66.8160639247
 31
0.0
 70
   160
 71
     2
 42
28.4183625187
 73
     0
 74
     0
 75
     0
  3
DIMSTYLE_1
100
AcDbAlignedDimension
 13
48.1785904033
 23
81.0817969436
 33
0.0
 14
45.4235647496
 24
52.6634344249
 34
0.0
 50
270.0
100
AcDbRotatedDimension
  0
DIMENSION
  5
3EA
330
216
100
AcDbEntity
 67
     1
  8
0
  6
Continuous
 62
     2
100
AcDbDimension
280
     0
  2
*D2
 10
112.4474949246
 20
54.1634344249
 30
0.0
 11
112.4474949246
 21
45.9765218509
 31
0.0
 70
   160
 71
     3
 42
1.5
 73
     0
 74
     0
 75
     0
  3
DIMSTYLE_2
100
AcDbAlignedDimension
 13
105.0689754813
 23
52.6634344249
 33
0.0
 14
104.8800776036
 24
54.1634344249
 34
0.0
 50
90.0
100
AcDbRotatedDimension
  0
DIMENSION
  5
3EB
330
216
100
AcDbEntity
 67
     1
  8
0
  6
Continuous
 62
     2
100
AcDbDimension
280
     0
  2
*D3
 10
53.785110573
 20
160.1752845113
 30
0.0
 11
46.372837219
 21
169.4297436021
 31
0.0
 70
   163
  1
%%c<>
 71
     3
 42
58.0
 73
     0
 74
     0
 75
     0
  3
DIMSTYLE_3
100
AcDbDiametricDimension
 15
97.9750446342
 25
122.6086806236
 35
0.0
 40
0.0
  0
DIMENSION
  5
3EC
330
216
100
AcDbEntity
 67
     1
  8
0
  6
Continuous
 62
     2
100
AcDbDimension
280
     0
  2
*D4
 10
160.479386667
 20
117.8919825674
 30
0.0
 11
160.479386667
 21
141.3919825674
 31
0.0
 70
   160
  1
%%c<>
 71
     2
 42
47.0
 73
     0
 74
     0
 75
     0
  3
DIMSTYLE_4
100
AcDbAlignedDimension
 13
172.9885971449
 23
164.8919825674
 33
0.0
 14
172.8744222839
 24
117.8919825674
 34
0.0
 50
270.0
100
AcDbRotatedDimension
  0
LINE
  5
3ED
330
216
100
AcDbEntity
 67
     1
  8
0
  6
Continuous
 62
     2
100
AcDbLine
 10
154.0072301476
 20
78.9839440915
 30
0.0
 11
284.0072301476
 21
78.9839440915
 31
0.0
  0
LINE
  5
3EE
330
216
100
AcDbEntity
 67
     1
  8
0
  6
Continuous
 62
     2
100
AcDbLine
 10
154.0072301476
 20
78.9839440915
 30
0.0
 11
154.0072301476
 21
12.9839440915
 31
0.0
  0
LINE
  5
3EF
330
216
100
AcDbEntity
 67
     1
  8
0
  6
Continuous
 62
     2
100
AcDbLine
 10
184.0072301476
 20
70.9839440915
 30
0.0
 11
284.0072301476
 21
70.9839440915
 31
0.0
  0
LINE
  5
3F0
330
216
100
AcDbEntity
 67
     1
  8
0
  6
Continuous
 62
     2
100
AcDbLine
 10
154.0072301476
 20
62.9839440915
 30
0.0
 11
284.0072301476
 21
62.9839440915
 31
0.0
  0
LINE
  5
3F1
330
216
100
AcDbEntity
 67
     1
  8
0
  6
Continuous
 62
     2
100
AcDbLine
 10
184.0072301476
 20
56.9839440915
 30
0.0
 11
284.0072301476
 21
56.9839440915
 31
0.0
  0
LINE
  5
3F2
330
216
100
AcDbEntity
 67
     1
  8
0
  6
Continuous
 62
     2
100
AcDbLine
 10
184.0072301476
 20
50.9839440915
 30
0.0
 11
284.0072301476
 21
50.9839440915
 31
0.0
  0
LINE
  5
3F3
330
216
100
AcDbEntity
 67
     1
  8
0
  6
Continuous
 62
     2
100
AcDbLine
 10
184.0072301476
 20
44.9839440915
 30
0.0
 11
284.0072301476
 21
44.9839440915
 31
0.0
  0
LINE
  5
3F4
330
216
100
AcDbEntity
 67
     1
  8
0
  6
Continuous
 62
     2
100
AcDbLine
 10
184.0072301476
 20
38.9839440915
 30
0.0
 11
284.0072301476
 21
38.9839440915
 31
0.0
  0
LINE
  5
3F5
330
216
100
AcDbEntity
 67
     1
  8
0
  6
Continuous
 62
     2
100
AcDbLine
 10
184.0072301476
 20
32.9839440915
 30
0.0
 11
284.0072301476
 21
32.9839440915
 31
0.0
  0
LINE
  5
3F6
330
216
100
AcDbEntity
 67
     1
  8
0
  6
Continuous
 62
     2
100
AcDbLine
 10
154.0072301476
 20
26.9839440915
 30
0.0
 11
284.0072301476
 21
26.9839440915
 31
0.0
  0
LINE
  5
3F7
330
216
100
AcDbEntity
 67
     1
  8
0
  6
Continuous
 62
     2
100
AcDbLine
 10
154.0072301476
 20
20.9839440915
 30
0.0
 11
284.0072301476
 21
20.9839440915
 31
0.0
  0
LINE
  5
3F8
330
216
100
AcDbEntity
 67
     1
  8
0
  6
Continuous
 62
     2
100
AcDbLine
 10
154.0072301476
 20
16.9839440915
 30
0.0
 11
284.0072301476
 21
16.9839440915
 31
0.0
  0
LINE
  5
3F9
330
216
100
AcDbEntity
 67
     1
  8
0
  6
Continuous
 62
     2
100
AcDbLine
 10
154.0072301476
 20
12.9839440915
 30
0.0
 11
284.0072301476
 21
12.9839440915
 31
0.0
  0
LINE
  5
3FA
330
216
100
AcDbEntity
 67
     1
  8
0
  6
Continuous
 62
     2
100
AcDbLine
 10
184.0072301476
 20
78.9839440915
 30
0.0
 11
184.0072301476
 21
20.9839440915
 31
0.0
  0
LINE
  5
3FB
330
216
100
AcDbEntity
 67
     1
  8
0
  6
Continuous
 62
     2
100
AcDbLine
 10
204.0072301476
 20
62.9839440915
 30
0.0
 11
204.0072301476
 21
56.9839440915
 31
0.0
  0
LINE
  5
3FC
330
216
100
AcDbEntity
 67
     1
  8
0
  6
Continuous
 62
     2
100
AcDbLine
 10
234.0072301476
 20
32.9839440915
 30
0.0
 11
234.0072301476
 21
20.9839440915
 31
0.0
  0
LINE
  5
3FD
330
216
100
AcDbEntity
 67
     1
  8
0
  6
Continuous
 62
     2
100
AcDbLine
 10
244.0072301476
 20
62.9839440915
 30
0.0
 11
244.0072301476
 21
56.9839440915
 31
0.0
  0
LINE
  5
3FE
330
216
100
AcDbEntity
 67
     1
  8
0
  6
Continuous
 62
     2
100
AcDbLine
 10
244.0072301476
 20
50.9839440915
 30
0.0
 11
244.0072301476
 21
44.9839440915
 31
0.0
  0
LINE
  5
3FF
330
216
100
AcDbEntity
 67
     1
  8
0
  6
Continuous
 62
     2
100
AcDbLine
 10
264.0072301476
 20
62.9839440915
 30
0.0
 11
264.0072301476
 21
56.9839440915
 31
0.0
  0
LINE
  5
400
330
216
100
AcDbEntity
 67
     1
  8
0
  6
Continuous
 62
     2
100
AcDbLine
 10
274.0072301476
 20
50.9839440915
 30
0.0
 11
274.0072301476
 21
44.9839440915
 31
0.0
  0
LINE
  5
401
330
216
100
AcDbEntity
 67
     1
  8
0
  6
Continuous
 62
     2
100
AcDbLine
 10
284.0072301476
 20
78.9839440915
 30
0.0
 11
284.0072301476
 21
12.9839440915
 31
0.0
  0
INSERT
  5
402
330
216
100
AcDbEntity
 67
     1
  8
0
  6
Continuous
 62
     2
100
AcDbBlockReference
  2
PROIEZIONE_EU_BL0
 10
169.0072301476
 20
70.6089440915
 30
0.0
  0
MTEXT
  5
403
330
216
100
AcDbEntity
 67
     1
  8
9_SOLID
  6
Continuous
 62
     2
100
AcDbMText
 10
185.4947301476
 20
77.3589440915
 30
0.0
 40
1.9
 41
142.3642857143
 46
0.0
 71
     1
 72
     1
  1
EN: Chamfer/radii unlisted 0.3x45°. Remove sharp edges.\PGen. tol.: hole H11, shaft h11, lenght Js12. UNI EN 22768 Medium Grande.
  7
TEXTSTYLE_4
 73
     1
 44
0.9
  0
MTEXT
  5
404
330
216
100
AcDbEntity
 67
     1
  8
9_SOLID
  6
Continuous
 62
     2
100
AcDbMText
 10
185.4947301476
 20
69.3589440915
 30
0.0
 40
1.9
 41
148.2678571429
 46
0.0
 71
     1
 72
     1
  1
IT: Sm./rac. non quotati 0.3x45°. Eliminare spigoli taglienti.\PToll. gen.: foro H11, albero h11, lunghezza Js12. UNI EN 22768 Grado Medio.
  7
TEXTSTYLE_4
 73
     1
 44
0.9
  0
INSERT
  5
405
330
216
100
AcDbEntity
 67
     1
  8
0
  6
Continuous
 62
     2
100
AcDbBlockReference
  2
LOGO2_BL1
 10
167.8332771924
 20
44.9839440915
 30
0.0
  0
MTEXT
  5
406
330
216
100
AcDbEntity
 67
     1
  8
9_SOLID
  6
Continuous
 62
     2
100
AcDbMText
 10
185.4947301476
 20
61.2339440915
 30
0.0
 40
3.0
 41
25.9285714286
 46
0.0
 71
     1
 72
     1
  1
Pj: A023
  7
TEXTSTYLE_4
 73
     1
 44
0.9
  0
MTEXT
  5
407
330
216
100
AcDbEntity
 67
     1
  8
9_SOLID
  6
Continuous
 62
     2
100
AcDbMText
 10
205.4947301476
 20
61.2339440915
 30
0.0
 40
3.0
 41
38.0357142857
 46
0.0
 71
     1
 72
     1
  1
% Check: %
  7
TEXTSTYLE_4
 73
     1
 44
0.9
  0
MTEXT
  5
408
330
216
100
AcDbEntity
 67
     1
  8
9_SOLID
  6
Continuous
 62
     2
100
AcDbMText
 10
245.4947301476
 20
61.2339440915
 30
0.0
 40
3.0
 41
19.5
 46
0.0
 71
     1
 72
     1
  1
Rev:00
  7
TEXTSTYLE_4
 73
     1
 44
0.9
  0
MTEXT
  5
409
330
216
100
AcDbEntity
 67
     1
  8
9_SOLID
  6
Continuous
 62
     2
100
AcDbMText
 10
265.4947301476
 20
61.4839440915
 30
0.0
 40
3.0
 41
19.7142857143
 46
0.0
 71
     1
 72
     1
  1
Ver: A
  7
TEXTSTYLE_4
 73
     1
 44
0.9
  0
MTEXT
  5
40A
330
216
100
AcDbEntity
 67
     1
  8
9_SOLID
  6
Continuous
 62
     2
100
AcDbMText
 10
185.4947301476
 20
55.2339440915
 30
0.0
 40
3.0
 41
77.5714285714
 46
0.0
 71
     1
 72
     1
  1
Neutral code: A023_C_001
  7
TEXTSTYLE_4
 73
     1
 44
0.9
  0
MTEXT
  5
40B
330
216
100
AcDbEntity
 67
     1
  8
9_SOLID
  6
Continuous
 62
     2
100
AcDbMText
 10
185.4947301476
 20
49.2339440915
 30
0.0
 40
3.0
 41
19.3928571429
 46
0.0
 71
     1
 72
     1
  1
Code: 
  7
TEXTSTYLE_4
 73
     1
 44
0.9
  0
MTEXT
  5
40C
330
216
100
AcDbEntity
 67
     1
  8
9_SOLID
  6
Continuous
 62
     2
100
AcDbMText
 10
245.4947301476
 20
49.4839440915
 30
0.0
 40
3.0
 41
27.0
 46
0.0
 71
     1
 72
     1
  1
Scale: 1:1
  7
TEXTSTYLE_4
 73
     1
 44
0.9
  0
MTEXT
  5
40D
330
216
100
AcDbEntity
 67
     1
  8
9_SOLID
  6
Continuous
 62
     2
100
AcDbMText
 10
279.0072301476
 20
49.4839440915
 30
0.0
 40
3.0
 41
7.3928571429
 46
0.0
 71
     2
 72
     1
  1
A4
  7
TEXTSTYLE_4
 73
     1
 44
0.9
  0
MTEXT
  5
40E
330
216
100
AcDbEntity
 67
     1
  8
9_SOLID
  6
Continuous
 62
     2
100
AcDbMText
 10
185.4947301476
 20
43.4839440915
 30
0.0
 40
3.0
 41
81.4285714286
 46
0.0
 71
     1
 72
     1
  1
It descr.: CAMEO 1.1 - 1.7
  7
TEXTSTYLE_4
 73
     1
 44
0.9
  0
MTEXT
  5
40F
330
216
100
AcDbEntity
 67
     1
  8
9_SOLID
  6
Continuous
 62
     2
100
AcDbMText
 10
185.4947301476
 20
37.4839440915
 30
0.0
 40
3.0
 41
33.9642857143
 46
0.0
 71
     1
 72
     1
  1
En descr.: 
  7
TEXTSTYLE_4
 73
     1
 44
0.9
  0
MTEXT
  5
410
330
216
100
AcDbEntity
 67
     1
  8
9_SOLID
  6
Continuous
 62
     2
100
AcDbMText
 10
185.4947301476
 20
31.4839440915
 30
0.0
 40
3.0
 41
31.6071428571
 46
0.0
 71
     1
 72
     1
  1
Des.: A.G.
  7
TEXTSTYLE_4
 73
     1
 44
0.9
  0
MTEXT
  5
411
330
216
100
AcDbEntity
 67
     1
  8
9_SOLID
  6
Continuous
 62
     2
100
AcDbMText
 10
235.4947301476
 20
31.4839440915
 30
0.0
 40
3.0
 41
34.8214285714
 46
0.0
 71
     1
 72
     1
  1
Check: A.P.
  7
TEXTSTYLE_4
 73
     1
 44
0.9
  0
MTEXT
  5
412
330
216
100
AcDbEntity
 67
     1
  8
9_SOLID
  6
Continuous
 62
     2
100
AcDbMText
 10
155.4947301476
 20
25.4839440915
 30
0.0
 40
3.0
 41
43.1785714286
 46
0.0
 71
     1
 72
     1
  1
Date: 16.05.19
  7
TEXTSTYLE_4
 73
     1
 44
0.9
  0
MTEXT
  5
413
330
216
100
AcDbEntity
 67
     1
  8
9_SOLID
  6
Continuous
 62
     2
100
AcDbMText
 10
185.4947301476
 20
25.4839440915
 30
0.0
 40
3.0
 41
18.2142857143
 46
0.0
 71
     1
 72
     1
  1
Mat.: 
  7
TEXTSTYLE_4
 73
     1
 44
0.9
  0
MTEXT
  5
414
330
216
100
AcDbEntity
 67
     1
  8
9_SOLID
  6
Continuous
 62
     2
100
AcDbMText
 10
235.4947301476
 20
24.9839440915
 30
0.0
 40
2.0
 41
42.3571428571
 46
0.0
 71
     1
 72
     1
  1
Disegno per catalogo
  7
TEXTSTYLE_4
 73
     1
 44
0.9
  0
MTEXT
  5
415
330
216
100
AcDbEntity
 67
     1
  8
9_SOLID
  6
Continuous
 62
     2
100
AcDbMText
 10
155.4947301476
 20
19.8839440915
 30
0.0
 40
1.8
 41
175.6928571429
 46
0.0
 71
     1
 72
     1
  1
It: A norma di legge si diffida da qualsiasi riproduzione senza nostra autorizzazione esplicita.
  7
TEXTSTYLE_4
 73
     1
 44
0.9
  0
MTEXT
  5
416
330
216
100
AcDbEntity
 67
     1
  8
9_SOLID
  6
Continuous
 62
     2
100
AcDbMText
 10
155.4947301476
 20
15.8839440915
 30
0.0
 40
1.8
 41
157.6285714286
 46
0.0
 71
     1
 72
     1
  1
En: According to the law, beware of any reproduction made without our authorization.
  7
TEXTSTYLE_4
 73
     1
 44
0.9
  0
ENDSEC
  0
SECTION
  2
OBJECTS
  0
DICTIONARY
  5
C
330
0
100
AcDbDictionary
281
     1
  3
ACAD_DETAILVIEWSTYLE
350
465
  3
ACAD_GROUP
350
D
  3
ACAD_LAYOUT
350
1A
  3
ACAD_MATERIAL
350
454
  3
ACAD_MLEADERSTYLE
350
45A
  3
ACAD_MLINESTYLE
350
17
  3
ACAD_PLOTSETTINGS
350
19
  3
ACAD_PLOTSTYLENAME
350
E
  3
ACAD_SCALELIST
350
419
  3
ACAD_SECTIONVIEWSTYLE
350
466
  3
ACAD_TABLESTYLE
350
458
  3
ACAD_VISUALSTYLE
350
43B
  3
ACDB_RECOMPOSE_DATA
350
461
  3
AcDbVariableDictionary
350
45D
  3
APPDATA
350
45C
  0
DICTIONARY
  5
465
102
{ACAD_REACTORS
330
C
102
}
330
C
100
AcDbDictionary
281
     1
  0
DICTIONARY
  5
D
102
{ACAD_REACTORS
330
C
102
}
330
C
100
AcDbDictionary
281
     1
  0
DICTIONARY
  5
1A
102
{ACAD_REACTORS
330
C
102
}
330
C
100
AcDbDictionary
281
     1
  3
168707_1
350
418
  3
Model
350
417
  0
DICTIONARY
  5
454
102
{ACAD_REACTORS
330
C
102
}
330
C
100
AcDbDictionary
281
     1
  3
ByBlock
350
456
  3
ByLayer
350
455
  3
Global
350
457
  0
DICTIONARY
  5
45A
102
{ACAD_REACTORS
330
C
102
}
330
C
100
AcDbDictionary
281
     1
  3
Standard
350
45B
  0
DICTIONARY
  5
17
102
{ACAD_REACTORS
330
C
102
}
330
C
100
AcDbDictionary
281
     1
  3
Standard
350
18
  0
DICTIONARY
  5
19
102
{ACAD_REACTORS
330
C
102
}
330
C
100
AcDbDictionary
281
     1
  0
ACDBDICTIONARYWDFLT
  5
E
102
{ACAD_REACTORS
330
C
102
}
330
C
100
AcDbDictionary
281
     1
  3
Normal
350
F
100
AcDbDictionaryWithDefault
340
F
  0
DICTIONARY
  5
419
102
{ACAD_REACTORS
330
C
102
}
330
C
100
AcDbDictionary
281
     1
  3
A0
350
41A
  3
A1
350
41B
  3
A2
350
41C
  3
A3
350
41D
  3
A4
350
41E
  3
A5
350
41F
  3
A6
350
420
  3
A7
350
421
  3
A8
350
422
  3
A9
350
423
  3
B0
350
424
  3
B1
350
425
  3
B2
350
426
  3
B3
350
427
  3
B4
350
428
  3
B5
350
429
  3
B6
350
42A
  3
B7
350
42B
  3
B8
350
42C
  3
B9
350
42D
  3
C0
350
42E
  3
C1
350
42F
  3
C2
350
430
  3
C3
350
431
  3
C4
350
432
  3
C5
350
433
  3
C6
350
434
  3
C7
350
435
  3
C8
350
436
  3
C9
350
437
  3
D0
350
438
  3
D1
350
439
  3
D2
350
43A
  0
DICTIONARY
  5
466
102
{ACAD_REACTORS
330
C
102
}
330
C
100
AcDbDictionary
281
     1
  0
DICTIONARY
  5
458
102
{ACAD_REACTORS
330
C
102
}
330
C
100
AcDbDictionary
281
     1
  3
Standard
350
459
  0
DICTIONARY
  5
43B
102
{ACAD_REACTORS
330
C
102
}
330
C
100
AcDbDictionary
281
     1
  3
2dWireframe
350
440
  3
Basic
350
443
  3
Brighten
350
447
  3
ColorChange
350
44B
  3
Conceptual
350
445
  3
Dim
350
446
  3
EdgeColorOff
350
44E
  3
Facepattern
350
44A
  3
Flat
350
43C
  3
FlatWithEdges
350
43D
  3
Gouraud
350
43E
  3
GouraudWithEdges
350
43F
  3
Hidden
350
442
  3
JitterOff
350
44C
  3
Linepattern
350
449
  3
OverhangOff
350
44D
  3
Realistic
350
444
  3
Shaded
350
453
  3
Shaded with edges
350
452
  3
Shades of Gray
350
44F
  3
Sketchy
350
450
  3
Thicken
350
448
  3
Wireframe
350
441
  3
X-Ray
350
451
  0
XRECORD
  5
461
102
{ACAD_REACTORS
330
C
102
}
330
C
100
AcDbXrecord
280
     1
 90
        1
330
459
  0
DICTIONARY
  5
45D
102
{ACAD_REACTORS
330
C
102
}
330
C
100
AcDbDictionary
281
     1
  3
CANNOSCALE
350
45E
  3
CMLEADERSTYLE
350
463
  3
CTABLESTYLE
350
462
  3
MSLTSCALE
350
464
  0
DICTIONARY
  5
45C
102
{ACAD_REACTORS
330
C
102
}
330
C
100
AcDbDictionary
281
     1
  0
LAYOUT
  5
418
102
{ACAD_REACTORS
330
1A
102
}
330
1A
100
AcDbPlotSettings
  1

  2
none_device
  4
ISO_A4_(297.00_x_210.00_MM)
  6

 40
0.0
 41
0.0
 42
0.0
 43
0.0
 44
297.0
 45
210.0
 46
0.0
 47
0.0
 48
0.0
 49
0.0
140
0.0
141
0.0
142
1.0
143
1.0
 70
     0
 72
     1
 73
     0
 74
     0
  7

 75
     0
 76
     0
 77
     2
 78
   300
147
1.0
148
0.0
149
0.0
100
AcDbLayout
  1
168707_1
 70
     0
 71
     1
 10
0.0
 20
0.0
 11
297.0
 21
210.0
 12
0.0
 22
0.0
 32
0.0
 14
9.949999999999989
 24
9.950000000000003
 34
0.0
 15
291.5463968142666
 25
200.05
 35
0.0
146
0.0
 13
0.0
 23
0.0
 33
0.0
 16
1.0
 26
0.0
 36
0.0
 17
0.0
 27
1.0
 37
0.0
 76
     0
330
216
331
29D
  0
LAYOUT
  5
417
102
{ACAD_REACTORS
330
1A
102
}
330
1A
100
AcDbPlotSettings
  1

  2
none_device
  4

  6

 40
0.0
 41
0.0
 42
0.0
 43
0.0
 44
297.0
 45
210.0
 46
0.0
 47
0.0
 48
0.0
 49
0.0
140
0.0
141
0.0
142
1.0
143
1.0
 70
  1024
 72
     1
 73
     0
 74
     0
  7

 75
     0
 76
     0
 77
     2
 78
   300
147
1.0
148
0.0
149
0.0
100
AcDbLayout
  1
Model
 70
     0
 71
     0
 10
0.0
 20
0.0
 11
297.0
 21
210.0
 12
0.0
 22
0.0
 32
0.0
 14
0.0
 24
0.0
 34
0.0
 15
0.0
 25
0.0
 35
0.0
146
0.0
 13
0.0
 23
0.0
 33
0.0
 16
1.0
 26
0.0
 36
0.0
 17
0.0
 27
1.0
 37
0.0
 76
     0
330
215
331
1F4
  0
MATERIAL
  5
456
102
{ACAD_REACTORS
330
454
102
}
330
454
100
AcDbMaterial
  1
ByBlock
 72
     1
 94
      127
  0
MATERIAL
  5
455
102
{ACAD_REACTORS
330
454
102
}
330
454
100
AcDbMaterial
  1
ByLayer
 72
     1
 94
      127
  0
MATERIAL
  5
457
102
{ACAD_REACTORS
330
454
102
}
330
454
100
AcDbMaterial
  1
Global
 72
     1
 94
      127
  0
MLEADERSTYLE
  5
45B
102
{ACAD_REACTORS
330
45A
102
}
330
45A
100
AcDbMLeaderStyle
179
     2
170
     2
171
     1
172
     0
 90
        2
 40
0.0
 41
0.0
173
     1
 91
-1056964608
340
14
 92
       -2
290
     1
 42
2.0
291
     1
 43
8.0
  3
Standard
341
0
 44
4.0
300

342
11
174
     1
178
     1
175
     1
176
     0
 93
-1056964608
 45
4.0
292
     0
297
     0
 46
4.0
343
0
 94
-1056964608
 47
1.0
 49
1.0
140
1.0
293
     1
141
0.0
294
     1
177
     0
142
1.0
295
     0
296
     0
143
3.75
271
     0
272
     9
273
     9
298
     0
  0
MLINESTYLE
  5
18
102
{ACAD_REACTORS
330
17
102
}
330
17
100
AcDbMlineStyle
  2
STANDARD
 70
     0
  3

 62
   256
 51
90.0
 52
90.0
 71
     2
 49
0.5
 62
   256
  6
BYLAYER
 49
-0.5
 62
   256
  6
BYLAYER
  0
ACDBPLACEHOLDER
  5
F
102
{ACAD_REACTORS
330
E
102
}
330
E
  0
SCALE
  5
41A
102
{ACAD_REACTORS
330
419
102
}
330
419
100
AcDbScale
 70
     0
300
1:1
140
1.0
141
1.0
290
     1
  0
SCALE
  5
41B
102
{ACAD_REACTORS
330
419
102
}
330
419
100
AcDbScale
 70
     0
300
1:2
140
1.0
141
2.0
290
     0
  0
SCALE
  5
41C
102
{ACAD_REACTORS
330
419
102
}
330
419
100
AcDbScale
 70
     0
300
1:4
140
1.0
141
4.0
290
     0
  0
SCALE
  5
41D
102
{ACAD_REACTORS
330
419
102
}
330
419
100
AcDbScale
 70
     0
300
1:5
140
1.0
141
5.0
290
     0
  0
SCALE
  5
41E
102
{ACAD_REACTORS
330
419
102
}
330
419
100
AcDbScale
 70
     0
300
1:8
140
1.0
141
8.0
290
     0
  0
SCALE
  5
41F
102
{ACAD_REACTORS
330
419
102
}
330
419
100
AcDbScale
 70
     0
300
1:10
140
1.0
141
10.0
290
     0
  0
SCALE
  5
420
102
{ACAD_REACTORS
330
419
102
}
330
419
100
AcDbScale
 70
     0
300
1:16
140
1.0
141
16.0
290
     0
  0
SCALE
  5
421
102
{ACAD_REACTORS
330
419
102
}
330
419
100
AcDbScale
 70
     0
300
1:20
140
1.0
141
20.0
290
     0
  0
SCALE
  5
422
102
{ACAD_REACTORS
330
419
102
}
330
419
100
AcDbScale
 70
     0
300
1:30
140
1.0
141
30.0
290
     0
  0
SCALE
  5
423
102
{ACAD_REACTORS
330
419
102
}
330
419
100
AcDbScale
 70
     0
300
1:40
140
1.0
141
40.0
290
     0
  0
SCALE
  5
424
102
{ACAD_REACTORS
330
419
102
}
330
419
100
AcDbScale
 70
     0
300
1:50
140
1.0
141
50.0
290
     0
  0
SCALE
  5
425
102
{ACAD_REACTORS
330
419
102
}
330
419
100
AcDbScale
 70
     0
300
1:100
140
1.0
141
100.0
290
     0
  0
SCALE
  5
426
102
{ACAD_REACTORS
330
419
102
}
330
419
100
AcDbScale
 70
     0
300
2:1
140
2.0
141
1.0
290
     0
  0
SCALE
  5
427
102
{ACAD_REACTORS
330
419
102
}
330
419
100
AcDbScale
 70
     0
300
4:1
140
4.0
141
1.0
290
     0
  0
SCALE
  5
428
102
{ACAD_REACTORS
330
419
102
}
330
419
100
AcDbScale
 70
     0
300
8:1
140
8.0
141
1.0
290
     0
  0
SCALE
  5
429
102
{ACAD_REACTORS
330
419
102
}
330
419
100
AcDbScale
 70
     0
300
10:1
140
10.0
141
1.0
290
     0
  0
SCALE
  5
42A
102
{ACAD_REACTORS
330
419
102
}
330
419
100
AcDbScale
 70
     0
300
100:1
140
100.0
141
1.0
290
     0
  0
SCALE
  5
42B
102
{ACAD_REACTORS
330
419
102
}
330
419
100
AcDbScale
 70
     0
300
1/128" = 1'-0"
140
0.0078125
141
12.0
290
     0
  0
SCALE
  5
42C
102
{ACAD_REACTORS
330
419
102
}
330
419
100
AcDbScale
 70
     0
300
1/64" = 1'-0"
140
0.015625
141
12.0
290
     0
  0
SCALE
  5
42D
102
{ACAD_REACTORS
330
419
102
}
330
419
100
AcDbScale
 70
     0
300
1/32" = 1'-0"
140
0.03125
141
12.0
290
     0
  0
SCALE
  5
42E
102
{ACAD_REACTORS
330
419
102
}
330
419
100
AcDbScale
 70
     0
300
1/16" = 1'-0"
140
0.0625
141
12.0
290
     0
  0
SCALE
  5
42F
102
{ACAD_REACTORS
330
419
102
}
330
419
100
AcDbScale
 70
     0
300
3/32" = 1'-0"
140
0.09375
141
12.0
290
     0
  0
SCALE
  5
430
102
{ACAD_REACTORS
330
419
102
}
330
419
100
AcDbScale
 70
     0
300
1/8" = 1'-0"
140
0.125
141
12.0
290
     0
  0
SCALE
  5
431
102
{ACAD_REACTORS
330
419
102
}
330
419
100
AcDbScale
 70
     0
300
3/16" = 1'-0"
140
0.1875
141
12.0
290
     0
  0
SCALE
  5
432
102
{ACAD_REACTORS
330
419
102
}
330
419
100
AcDbScale
 70
     0
300
1/4" = 1'-0"
140
0.25
141
12.0
290
     0
  0
SCALE
  5
433
102
{ACAD_REACTORS
330
419
102
}
330
419
100
AcDbScale
 70
     0
300
3/8" = 1'-0"
140
0.375
141
12.0
290
     0
  0
SCALE
  5
434
102
{ACAD_REACTORS
330
419
102
}
330
419
100
AcDbScale
 70
     0
300
1/2" = 1'-0"
140
0.5
141
12.0
290
     0
  0
SCALE
  5
435
102
{ACAD_REACTORS
330
419
102
}
330
419
100
AcDbScale
 70
     0
300
3/4" = 1'-0"
140
0.75
141
12.0
290
     0
  0
SCALE
  5
436
102
{ACAD_REACTORS
330
419
102
}
330
419
100
AcDbScale
 70
     0
300
1" = 1'-0"
140
1.0
141
12.0
290
     0
  0
SCALE
  5
437
102
{ACAD_REACTORS
330
419
102
}
330
419
100
AcDbScale
 70
     0
300
1-1/2" = 1'-0"
140
1.5
141
12.0
290
     0
  0
SCALE
  5
438
102
{ACAD_REACTORS
330
419
102
}
330
419
100
AcDbScale
 70
     0
300
3" = 1'-0"
140
3.0
141
12.0
290
     0
  0
SCALE
  5
439
102
{ACAD_REACTORS
330
419
102
}
330
419
100
AcDbScale
 70
     0
300
6" = 1'-0"
140
6.0
141
12.0
290
     0
  0
SCALE
  5
43A
102
{ACAD_REACTORS
330
419
102
}
330
419
100
AcDbScale
 70
     0
300
1'-0" = 1'-0"
140
12.0
141
12.0
290
     0
  0
TABLESTYLE
  5
459
102
{ACAD_REACTORS
330
458
102
}
102
{ACAD_XDICTIONARY
360
45F
102
}
330
458
100
AcDbTableStyle
  3
Standard
 70
     0
 71
     0
 40
0.06
 41
0.06
280
     0
281
     0
  7
STANDARD
140
4.5
170
     2
 62
     0
 63
   257
283
     0
 90
        4
 91
        0
  1

274
    -2
284
     1
 64
     0
275
    -2
285
     1
 65
     0
276
    -2
286
     1
 66
     0
277
    -2
287
     1
 67
     0
278
    -2
288
     1
 68
     0
279
    -2
289
     1
 69
     0
  7
STANDARD
140
6.0
170
     5
 62
     0
 63
   257
283
     0
 90
        4
 91
        0
  1

274
    -2
284
     1
 64
     0
275
    -2
285
     1
 65
     0
276
    -2
286
     1
 66
     0
277
    -2
287
     1
 67
     0
278
    -2
288
     1
 68
     0
279
    -2
289
     1
 69
     0
  7
STANDARD
140
4.5
170
     5
 62
     0
 63
   257
283
     0
 90
        4
 91
        0
  1

274
    -2
284
     1
 64
     0
275
    -2
285
     1
 65
     0
276
    -2
286
     1
 66
     0
277
    -2
287
     1
 67
     0
278
    -2
288
     1
 68
     0
279
    -2
289
     1
 69
     0
  0
VISUALSTYLE
  5
440
102
{ACAD_REACTORS
330
43B
102
}
330
43B
100
AcDbVisualStyle
  2
2dWireframe
 70
     4
177
     3
291
     0
 70
    58
 90
        0
176
     1
 90
        2
176
     1
 90
        0
176
     1
 90
        0
176
     1
 40
0.6
176
     1
 40
30.0
176
     1
 62
     7
420
 16777215
176
     1
 90
        1
176
     1
 90
        4
176
     1
 62
     7
176
     1
 62
   257
176
     1
 90
        1
176
     1
 90
        1
176
     1
 40
1.0
176
     1
 90
        0
176
     1
 62
   257
176
     1
 40
1.0
176
     1
 90
        1
176
     1
 90
        6
176
     1
 90
        2
176
     1
 62
     7
176
     1
 90
        5
176
     1
 90
        0
176
     1
 90
        0
176
     1
290
     0
176
     1
 90
        1
176
     1
 40
0.0
176
     1
 90
        0
176
     1
290
     1
176
     1
290
     1
176
     1
290
     0
176
     1
290
     0
176
     1
290
     0
176
     1
290
     0
176
     1
290
     0
176
     1
290
     0
176
     1
290
     0
176
     1
 90
       50
176
     1
 40
0.0
176
     1
 40
1.0
176
     1
 90
        0
176
     1
 62
    18
420
        0
176
     1
 90
       50
176
     1
 90
        3
176
     1
 62
     5
420
      255
176
     1
290
     0
176
     1
 90
       50
176
     1
 90
       50
176
     1
 90
       50
176
     1
290
     0
176
     1
 90
       50
176
     1
 62
   256
176
     0
 40
1.0
176
     0
 90
        2
176
     1
  1
strokes_ogs.tif
176
     1
290
     0
176
     1
 40
1.0
176
     1
 40
1.0
176
     1
  0
VISUALSTYLE
  5
443
102
{ACAD_REACTORS
330
43B
102
}
330
43B
100
AcDbVisualStyle
  2
Basic
 70
     7
177
     3
291
     1
 70
    58
 90
        1
176
     1
 90
        0
176
     1
 90
        1
176
     1
 90
        0
176
     1
 40
0.6
176
     1
 40
30.0
176
     1
 62
     7
420
 16777215
176
     1
 90
        0
176
     1
 90
        4
176
     1
 62
     7
176
     1
 62
   257
176
     1
 90
        1
176
     1
 90
        1
176
     1
 40
1.0
176
     1
 90
        8
176
     1
 62
     7
176
     1
 40
1.0
176
     1
 90
        1
176
     1
 90
        6
176
     1
 90
        2
176
     1
 62
     7
176
     1
 90
        5
176
     1
 90
        0
176
     1
 90
        0
176
     1
290
     0
176
     1
 90
        1
176
     1
 40
0.0
176
     1
 90
        0
176
     1
290
     0
176
     1
290
     1
176
     1
290
     1
176
     1
290
     0
176
     1
290
     0
176
     1
290
     0
176
     1
290
     0
176
     1
290
     0
176
     1
290
     0
176
     1
 90
       50
176
     1
 40
0.0
176
     1
 40
1.0
176
     1
 90
        0
176
     1
 62
    18
420
        0
176
     1
 90
       50
176
     1
 90
        3
176
     1
 62
     5
420
      255
176
     1
290
     0
176
     1
 90
       50
176
     1
 90
       50
176
     1
 90
       50
176
     1
290
     0
176
     1
 90
       50
176
     1
 62
   256
176
     0
 40
1.0
176
     0
 90
        2
176
     1
  1
strokes_ogs.tif
176
     1
290
     0
176
     1
 40
1.0
176
     1
 40
1.0
176
     1
  0
VISUALSTYLE
  5
447
102
{ACAD_REACTORS
330
43B
102
}
330
43B
100
AcDbVisualStyle
  2
Brighten
 70
    12
177
     3
291
     1
 70
    58
 90
        2
176
     1
 90
        2
176
     1
 90
        0
176
     1
 90
        0
176
     1
 40
0.6
176
     1
 40
30.0
176
     1
 62
     7
420
 16777215
176
     1
 90
        1
176
     1
 90
        4
176
     1
 62
     7
176
     1
 62
   257
176
     1
 90
        1
176
     1
 90
        1
176
     1
 40
1.0
176
     1
 90
        8
176
     1
 62
     7
176
     1
 40
1.0
176
     1
 90
        1
176
     1
 90
        6
176
     1
 90
        2
176
     1
 62
     7
176
     1
 90
        5
176
     1
 90
        0
176
     1
 90
        0
176
     1
290
     0
176
     1
 90
        1
176
     1
 40
50.0
176
     1
 90
        0
176
     1
290
     0
176
     1
290
     1
176
     1
290
     1
176
     1
290
     0
176
     1
290
     0
176
     1
290
     0
176
     1
290
     0
176
     1
290
     0
176
     1
290
     0
176
     1
 90
       50
176
     1
 40
0.0
176
     1
 40
1.0
176
     1
 90
        0
176
     1
 62
    18
420
        0
176
     1
 90
       50
176
     1
 90
        3
176
     1
 62
     5
420
      255
176
     1
290
     0
176
     1
 90
       50
176
     1
 90
       50
176
     1
 90
       50
176
     1
290
     0
176
     1
 90
       50
176
     1
 62
   256
176
     0
 40
1.0
176
     0
 90
        2
176
     1
  1
strokes_ogs.tif
176
     1
290
     0
176
     1
 40
1.0
176
     1
 40
1.0
176
     1
  0
VISUALSTYLE
  5
44B
102
{ACAD_REACTORS
330
43B
102
}
330
43B
100
AcDbVisualStyle
  2
ColorChange
 70
    16
177
     3
291
     1
 70
    58
 90
        2
176
     1
 90
        2
176
     1
 90
        3
176
     1
 90
        0
176
     1
 40
0.6
176
     1
 40
30.0
176
     1
 62
     8
420
  8421504
176
     1
 90
        1
176
     1
 90
        4
176
     1
 62
     7
176
     1
 62
   257
176
     1
 90
        1
176
     1
 90
        1
176
     1
 40
1.0
176
     1
 90
        8
176
     1
 62
     8
420
  8421504
176
     1
 40
1.0
176
     1
 90
        1
176
     1
 90
        6
176
     1
 90
        2
176
     1
 62
     7
176
     1
 90
        5
176
     1
 90
        0
176
     1
 90
        0
176
     1
290
     0
176
     1
 90
        1
176
     1
 40
0.0
176
     1
 90
        0
176
     1
290
     0
176
     1
290
     1
176
     1
290
     1
176
     1
290
     0
176
     1
290
     0
176
     1
290
     0
176
     1
290
     0
176
     1
290
     0
176
     1
290
     0
176
     1
 90
       50
176
     1
 40
0.0
176
     1
 40
1.0
176
     1
 90
        0
176
     1
 62
    18
420
        0
176
     1
 90
       50
176
     1
 90
        3
176
     1
 62
     5
420
      255
176
     1
290
     0
176
     1
 90
       50
176
     1
 90
       50
176
     1
 90
       50
176
     1
290
     0
176
     1
 90
       50
176
     1
 62
   256
176
     0
 40
1.0
176
     0
 90
        2
176
     1
  1
strokes_ogs.tif
176
     1
290
     0
176
     1
 40
1.0
176
     1
 40
1.0
176
     1
  0
VISUALSTYLE
  5
445
102
{ACAD_REACTORS
330
43B
102
}
330
43B
100
AcDbVisualStyle
  2
Conceptual
 70
     9
177
     3
291
     0
 70
    58
 90
        3
176
     1
 90
        2
176
     1
 90
        0
176
     1
 90
        0
176
     1
 40
0.6
176
     1
 40
30.0
176
     1
 62
     7
420
 16777215
176
     1
 90
        2
176
     1
 90
        2
176
     1
 62
     7
176
     1
 62
   257
176
     1
 90
        1
176
     1
 90
        1
176
     1
 40
179.0
176
     1
 90
        8
176
     1
 62
     7
176
     1
 40
1.0
176
     1
 90
        1
176
     1
 90
        6
176
     1
 90
        2
176
     1
 62
     7
176
     1
 90
        3
176
     1
 90
        0
176
     1
 90
        0
176
     1
290
     0
176
     1
 90
        1
176
     1
 40
0.0
176
     1
 90
        0
176
     1
290
     0
176
     1
290
     1
176
     1
290
     1
176
     1
290
     0
176
     1
290
     0
176
     1
290
     0
176
     1
290
     0
176
     1
290
     0
176
     1
290
     0
176
     1
 90
       50
176
     1
 40
0.0
176
     1
 40
1.0
176
     1
 90
        0
176
     1
 62
    18
420
        0
176
     1
 90
       50
176
     1
 90
        3
176
     1
 62
     5
420
      255
176
     1
290
     0
176
     1
 90
       50
176
     1
 90
       50
176
     1
 90
       50
176
     1
290
     0
176
     1
 90
       50
176
     1
 62
   256
176
     0
 40
1.0
176
     0
 90
        2
176
     1
  1
strokes_ogs.tif
176
     1
290
     0
176
     1
 40
1.0
176
     1
 40
1.0
176
     1
  0
VISUALSTYLE
  5
446
102
{ACAD_REACTORS
330
43B
102
}
330
43B
100
AcDbVisualStyle
  2
Dim
 70
    11
177
     3
291
     1
 70
    58
 90
        2
176
     1
 90
        2
176
     1
 90
        0
176
     1
 90
        0
176
     1
 40
0.6
176
     1
 40
30.0
176
     1
 62
     7
420
 16777215
176
     1
 90
        1
176
     1
 90
        4
176
     1
 62
     7
176
     1
 62
   257
176
     1
 90
        1
176
     1
 90
        1
176
     1
 40
1.0
176
     1
 90
        8
176
     1
 62
     7
176
     1
 40
1.0
176
     1
 90
        1
176
     1
 90
        6
176
     1
 90
        2
176
     1
 62
     7
176
     1
 90
        5
176
     1
 90
        0
176
     1
 90
        0
176
     1
290
     0
176
     1
 90
        1
176
     1
 40
-50.0
176
     1
 90
        0
176
     1
290
     0
176
     1
290
     1
176
     1
290
     1
176
     1
290
     0
176
     1
290
     0
176
     1
290
     0
176
     1
290
     0
176
     1
290
     0
176
     1
290
     0
176
     1
 90
       50
176
     1
 40
0.0
176
     1
 40
1.0
176
     1
 90
        0
176
     1
 62
    18
420
        0
176
     1
 90
       50
176
     1
 90
        3
176
     1
 62
     5
420
      255
176
     1
290
     0
176
     1
 90
       50
176
     1
 90
       50
176
     1
 90
       50
176
     1
290
     0
176
     1
 90
       50
176
     1
 62
   256
176
     0
 40
1.0
176
     0
 90
        2
176
     1
  1
strokes_ogs.tif
176
     1
290
     0
176
     1
 40
1.0
176
     1
 40
1.0
176
     1
  0
VISUALSTYLE
  5
44E
102
{ACAD_REACTORS
330
43B
102
}
330
43B
100
AcDbVisualStyle
  2
EdgeColorOff
 70
    22
177
     3
291
     1
 70
    58
 90
        2
176
     0
 90
        2
176
     0
 90
        0
176
     0
 90
        0
176
     0
 40
0.6
176
     0
 40
30.0
176
     0
 62
     7
420
 16777215
176
     0
 90
        1
176
     0
 90
        4
176
     0
 62
     7
176
     0
 62
   257
176
     0
 90
        1
176
     0
 90
        1
176
     0
 40
1.0
176
     0
 90
        8
176
     2
 62
     7
176
     0
 40
1.0
176
     0
 90
        1
176
     0
 90
        6
176
     0
 90
        2
176
     0
 62
     7
176
     0
 90
        5
176
     0
 90
        0
176
     0
 90
        0
176
     0
290
     0
176
     0
 90
        1
176
     0
 40
0.0
176
     0
 90
        0
176
     0
290
     0
176
     0
290
     1
176
     0
290
     1
176
     0
290
     0
176
     0
290
     0
176
     0
290
     0
176
     0
290
     0
176
     0
290
     0
176
     0
290
     0
176
     0
 90
       50
176
     0
 40
0.0
176
     0
 40
1.0
176
     0
 90
        0
176
     0
 62
    18
420
        0
176
     0
 90
       50
176
     0
 90
        3
176
     0
 62
     5
420
      255
176
     0
290
     0
176
     0
 90
       50
176
     0
 90
       50
176
     0
 90
       50
176
     0
290
     0
176
     0
 90
       50
176
     0
 62
   256
176
     0
 40
1.0
176
     0
 90
        2
176
     0
  1
strokes_ogs.tif
176
     0
290
     0
176
     0
 40
1.0
176
     0
 40
1.0
176
     0
  0
VISUALSTYLE
  5
44A
102
{ACAD_REACTORS
330
43B
102
}
330
43B
100
AcDbVisualStyle
  2
Facepattern
 70
    15
177
     3
291
     1
 70
    58
 90
        2
176
     1
 90
        2
176
     1
 90
        0
176
     1
 90
        0
176
     1
 40
0.6
176
     1
 40
30.0
176
     1
 62
     7
420
 16777215
176
     1
 90
        1
176
     1
 90
        4
176
     1
 62
     7
176
     1
 62
   257
176
     1
 90
        1
176
     1
 90
        1
176
     1
 40
1.0
176
     1
 90
        8
176
     1
 62
     7
176
     1
 40
1.0
176
     1
 90
        1
176
     1
 90
        6
176
     1
 90
        2
176
     1
 62
     7
176
     1
 90
        5
176
     1
 90
        0
176
     1
 90
        0
176
     1
290
     0
176
     1
 90
        1
176
     1
 40
0.0
176
     1
 90
        0
176
     1
290
     0
176
     1
290
     1
176
     1
290
     1
176
     1
290
     0
176
     1
290
     0
176
     1
290
     0
176
     1
290
     0
176
     1
290
     0
176
     1
290
     0
176
     1
 90
       50
176
     1
 40
0.0
176
     1
 40
1.0
176
     1
 90
        0
176
     1
 62
    18
420
        0
176
     1
 90
       50
176
     1
 90
        3
176
     1
 62
     5
420
      255
176
     1
290
     0
176
     1
 90
       50
176
     1
 90
       50
176
     1
 90
       50
176
     1
290
     0
176
     1
 90
       50
176
     1
 62
   256
176
     0
 40
1.0
176
     0
 90
        2
176
     1
  1
strokes_ogs.tif
176
     1
290
     0
176
     1
 40
1.0
176
     1
 40
1.0
176
     1
  0
VISUALSTYLE
  5
43C
102
{ACAD_REACTORS
330
43B
102
}
330
43B
100
AcDbVisualStyle
  2
Flat
 70
     0
177
     3
291
     1
 70
    58
 90
        2
176
     1
 90
        1
176
     1
 90
        1
176
     1
 90
        2
176
     1
 40
0.6
176
     1
 40
30.0
176
     1
 62
     7
420
 16777215
176
     1
 90
        0
176
     1
 90
        0
176
     1
 62
     7
176
     1
 62
   257
176
     1
 90
        1
176
     1
 90
        1
176
     1
 40
1.0
176
     1
 90
        8
176
     1
 62
     7
176
     1
 40
1.0
176
     1
 90
        1
176
     1
 90
        6
176
     1
 90
        2
176
     1
 62
     7
176
     1
 90
        5
176
     1
 90
        0
176
     1
 90
        0
176
     1
290
     0
176
     1
 90
       13
176
     1
 40
0.0
176
     1
 90
        0
176
     1
290
     0
176
     1
290
     1
176
     1
290
     1
176
     1
290
     0
176
     1
290
     0
176
     1
290
     0
176
     1
290
     0
176
     1
290
     0
176
     1
290
     0
176
     1
 90
       50
176
     1
 40
0.0
176
     1
 40
1.0
176
     1
 90
        0
176
     1
 62
    18
420
        0
176
     1
 90
       50
176
     1
 90
        3
176
     1
 62
     5
420
      255
176
     1
290
     0
176
     1
 90
       50
176
     1
 90
       50
176
     1
 90
       50
176
     1
290
     0
176
     1
 90
       50
176
     1
 62
   256
176
     0
 40
1.0
176
     0
 90
        2
176
     1
  1
strokes_ogs.tif
176
     1
290
     0
176
     1
 40
1.0
176
     1
 40
1.0
176
     1
  0
VISUALSTYLE
  5
43D
102
{ACAD_REACTORS
330
43B
102
}
330
43B
100
AcDbVisualStyle
  2
FlatWithEdges
 70
     1
177
     3
291
     1
 70
    58
 90
        2
176
     1
 90
        1
176
     1
 90
        1
176
     1
 90
        2
176
     1
 40
0.6
176
     1
 40
30.0
176
     1
 62
     7
420
 16777215
176
     1
 90
        1
176
     1
 90
        0
176
     1
 62
     7
176
     1
 62
   257
176
     1
 90
        1
176
     1
 90
        1
176
     1
 40
1.0
176
     1
 90
        0
176
     1
 62
   257
176
     1
 40
1.0
176
     1
 90
        1
176
     1
 90
        6
176
     1
 90
        2
176
     1
 62
     7
176
     1
 90
        5
176
     1
 90
        0
176
     1
 90
        0
176
     1
290
     0
176
     1
 90
       13
176
     1
 40
0.0
176
     1
 90
        0
176
     1
290
     0
176
     1
290
     1
176
     1
290
     1
176
     1
290
     0
176
     1
290
     0
176
     1
290
     0
176
     1
290
     0
176
     1
290
     0
176
     1
290
     0
176
     1
 90
       50
176
     1
 40
0.0
176
     1
 40
1.0
176
     1
 90
        0
176
     1
 62
    18
420
        0
176
     1
 90
       50
176
     1
 90
        3
176
     1
 62
     5
420
      255
176
     1
290
     0
176
     1
 90
       50
176
     1
 90
       50
176
     1
 90
       50
176
     1
290
     0
176
     1
 90
       50
176
     1
 62
   256
176
     0
 40
1.0
176
     0
 90
        2
176
     1
  1
strokes_ogs.tif
176
     1
290
     0
176
     1
 40
1.0
176
     1
 40
1.0
176
     1
  0
VISUALSTYLE
  5
43E
102
{ACAD_REACTORS
330
43B
102
}
330
43B
100
AcDbVisualStyle
  2
Gouraud
 70
     2
177
     3
291
     1
 70
    58
 90
        2
176
     1
 90
        2
176
     1
 90
        1
176
     1
 90
        2
176
     1
 40
0.6
176
     1
 40
30.0
176
     1
 62
     7
420
 16777215
176
     1
 90
        0
176
     1
 90
        0
176
     1
 62
     7
176
     1
 62
   257
176
     1
 90
        1
176
     1
 90
        1
176
     1
 40
1.0
176
     1
 90
        0
176
     1
 62
     7
176
     1
 40
1.0
176
     1
 90
        1
176
     1
 90
        6
176
     1
 90
        2
176
     1
 62
     7
176
     1
 90
        5
176
     1
 90
        0
176
     1
 90
        0
176
     1
290
     0
176
     1
 90
       13
176
     1
 40
0.0
176
     1
 90
        0
176
     1
290
     0
176
     1
290
     1
176
     1
290
     1
176
     1
290
     0
176
     1
290
     0
176
     1
290
     0
176
     1
290
     0
176
     1
290
     0
176
     1
290
     0
176
     1
 90
       50
176
     1
 40
0.0
176
     1
 40
1.0
176
     1
 90
        0
176
     1
 62
    18
420
        0
176
     1
 90
       50
176
     1
 90
        3
176
     1
 62
     5
420
      255
176
     1
290
     0
176
     1
 90
       50
176
     1
 90
       50
176
     1
 90
       50
176
     1
290
     0
176
     1
 90
       50
176
     1
 62
   256
176
     0
 40
1.0
176
     0
 90
        2
176
     1
  1
strokes_ogs.tif
176
     1
290
     0
176
     1
 40
1.0
176
     1
 40
1.0
176
     1
  0
VISUALSTYLE
  5
43F
102
{ACAD_REACTORS
330
43B
102
}
330
43B
100
AcDbVisualStyle
  2
GouraudWithEdges
 70
     3
177
     3
291
     1
 70
    58
 90
        2
176
     1
 90
        2
176
     1
 90
        1
176
     1
 90
        2
176
     1
 40
0.6
176
     1
 40
30.0
176
     1
 62
     7
420
 16777215
176
     1
 90
        1
176
     1
 90
        0
176
     1
 62
     7
176
     1
 62
   257
176
     1
 90
        1
176
     1
 90
        1
176
     1
 40
1.0
176
     1
 90
        0
176
     1
 62
   257
176
     1
 40
1.0
176
     1
 90
        1
176
     1
 90
        6
176
     1
 90
        2
176
     1
 62
     7
176
     1
 90
        5
176
     1
 90
        0
176
     1
 90
        0
176
     1
290
     0
176
     1
 90
       13
176
     1
 40
0.0
176
     1
 90
        0
176
     1
290
     0
176
     1
290
     1
176
     1
290
     1
176
     1
290
     0
176
     1
290
     0
176
     1
290
     0
176
     1
290
     0
176
     1
290
     0
176
     1
290
     0
176
     1
 90
       50
176
     1
 40
0.0
176
     1
 40
1.0
176
     1
 90
        0
176
     1
 62
    18
420
        0
176
     1
 90
       50
176
     1
 90
        3
176
     1
 62
     5
420
      255
176
     1
290
     0
176
     1
 90
       50
176
     1
 90
       50
176
     1
 90
       50
176
     1
290
     0
176
     1
 90
       50
176
     1
 62
   256
176
     0
 40
1.0
176
     0
 90
        2
176
     1
  1
strokes_ogs.tif
176
     1
290
     0
176
     1
 40
1.0
176
     1
 40
1.0
176
     1
  0
VISUALSTYLE
  5
442
102
{ACAD_REACTORS
330
43B
102
}
330
43B
100
AcDbVisualStyle
  2
Hidden
 70
     6
177
     3
291
     0
 70
    58
 90
        1
176
     1
 90
        2
176
     1
 90
        2
176
     1
 90
        0
176
     1
 40
0.6
176
     1
 40
30.0
176
     1
 62
     7
420
 16777215
176
     1
 90
        2
176
     1
 90
        2
176
     1
 62
     7
176
     1
 62
   257
176
     1
 90
        2
176
     1
 90
        1
176
     1
 40
40.0
176
     1
 90
        0
176
     1
 62
   257
176
     1
 40
1.0
176
     1
 90
        1
176
     1
 90
        6
176
     1
 90
        2
176
     1
 62
     7
176
     1
 90
        3
176
     1
 90
        0
176
     1
 90
        0
176
     1
290
     0
176
     1
 90
        1
176
     1
 40
0.0
176
     1
 90
        0
176
     1
290
     0
176
     1
290
     1
176
     1
290
     1
176
     1
290
     0
176
     1
290
     0
176
     1
290
     0
176
     1
290
     0
176
     1
290
     0
176
     1
290
     0
176
     1
 90
       50
176
     1
 40
0.0
176
     1
 40
1.0
176
     1
 90
        0
176
     1
 62
    18
420
        0
176
     1
 90
       50
176
     1
 90
        3
176
     1
 62
     5
420
      255
176
     1
290
     0
176
     1
 90
       50
176
     1
 90
       50
176
     1
 90
       50
176
     1
290
     0
176
     1
 90
       50
176
     1
 62
   256
176
     0
 40
1.0
176
     0
 90
        2
176
     1
  1
strokes_ogs.tif
176
     1
290
     0
176
     1
 40
1.0
176
     1
 40
1.0
176
     1
  0
VISUALSTYLE
  5
44C
102
{ACAD_REACTORS
330
43B
102
}
330
43B
100
AcDbVisualStyle
  2
JitterOff
 70
    20
177
     3
291
     1
 70
    58
 90
        2
176
     0
 90
        2
176
     0
 90
        0
176
     0
 90
        0
176
     0
 40
0.6
176
     0
 40
30.0
176
     0
 62
     7
420
 16777215
176
     0
 90
        1
176
     0
 90
        4
176
     0
 62
     7
176
     0
 62
   257
176
     0
 90
        1
176
     0
 90
        1
176
     0
 40
1.0
176
     0
 90
       10
176
     2
 62
     7
176
     0
 40
1.0
176
     0
 90
        1
176
     0
 90
        6
176
     0
 90
        2
176
     0
 62
     7
176
     0
 90
        5
176
     0
 90
        0
176
     0
 90
        0
176
     0
290
     0
176
     0
 90
        1
176
     0
 40
0.0
176
     0
 90
        0
176
     0
290
     0
176
     0
290
     1
176
     0
290
     1
176
     0
290
     0
176
     0
290
     0
176
     0
290
     0
176
     0
290
     0
176
     0
290
     0
176
     0
290
     0
176
     0
 90
       50
176
     0
 40
0.0
176
     0
 40
1.0
176
     0
 90
        0
176
     0
 62
    18
420
        0
176
     0
 90
       50
176
     0
 90
        3
176
     0
 62
     5
420
      255
176
     0
290
     0
176
     0
 90
       50
176
     0
 90
       50
176
     0
 90
       50
176
     0
290
     0
176
     0
 90
       50
176
     0
 62
   256
176
     0
 40
1.0
176
     0
 90
        2
176
     0
  1
strokes_ogs.tif
176
     0
290
     0
176
     0
 40
1.0
176
     0
 40
1.0
176
     0
  0
VISUALSTYLE
  5
449
102
{ACAD_REACTORS
330
43B
102
}
330
43B
100
AcDbVisualStyle
  2
Linepattern
 70
    14
177
     3
291
     1
 70
    58
 90
        2
176
     1
 90
        2
176
     1
 90
        0
176
     1
 90
        0
176
     1
 40
0.6
176
     1
 40
30.0
176
     1
 62
     7
420
 16777215
176
     1
 90
        1
176
     1
 90
        4
176
     1
 62
     7
176
     1
 62
   257
176
     1
 90
        7
176
     1
 90
        7
176
     1
 40
1.0
176
     1
 90
        8
176
     1
 62
     7
176
     1
 40
1.0
176
     1
 90
        1
176
     1
 90
        6
176
     1
 90
        2
176
     1
 62
     7
176
     1
 90
        5
176
     1
 90
        0
176
     1
 90
        0
176
     1
290
     0
176
     1
 90
        1
176
     1
 40
0.0
176
     1
 90
        0
176
     1
290
     0
176
     1
290
     1
176
     1
290
     1
176
     1
290
     0
176
     1
290
     0
176
     1
290
     0
176
     1
290
     0
176
     1
290
     0
176
     1
290
     0
176
     1
 90
       50
176
     1
 40
0.0
176
     1
 40
1.0
176
     1
 90
        0
176
     1
 62
    18
420
        0
176
     1
 90
       50
176
     1
 90
        3
176
     1
 62
     5
420
      255
176
     1
290
     0
176
     1
 90
       50
176
     1
 90
       50
176
     1
 90
       50
176
     1
290
     0
176
     1
 90
       50
176
     1
 62
   256
176
     0
 40
1.0
176
     0
 90
        2
176
     1
  1
strokes_ogs.tif
176
     1
290
     0
176
     1
 40
1.0
176
     1
 40
1.0
176
     1
  0
VISUALSTYLE
  5
44D
102
{ACAD_REACTORS
330
43B
102
}
330
43B
100
AcDbVisualStyle
  2
OverhangOff
 70
    21
177
     3
291
     1
 70
    58
 90
        2
176
     0
 90
        2
176
     0
 90
        0
176
     0
 90
        0
176
     0
 40
0.6
176
     0
 40
30.0
176
     0
 62
     7
420
 16777215
176
     0
 90
        1
176
     0
 90
        4
176
     0
 62
     7
176
     0
 62
   257
176
     0
 90
        1
176
     0
 90
        1
176
     0
 40
1.0
176
     0
 90
        9
176
     2
 62
     7
176
     0
 40
1.0
176
     0
 90
        1
176
     0
 90
        6
176
     0
 90
        2
176
     0
 62
     7
176
     0
 90
        5
176
     0
 90
        0
176
     0
 90
        0
176
     0
290
     0
176
     0
 90
        1
176
     0
 40
0.0
176
     0
 90
        0
176
     0
290
     0
176
     0
290
     1
176
     0
290
     1
176
     0
290
     0
176
     0
290
     0
176
     0
290
     0
176
     0
290
     0
176
     0
290
     0
176
     0
290
     0
176
     0
 90
       50
176
     0
 40
0.0
176
     0
 40
1.0
176
     0
 90
        0
176
     0
 62
    18
420
        0
176
     0
 90
       50
176
     0
 90
        3
176
     0
 62
     5
420
      255
176
     0
290
     0
176
     0
 90
       50
176
     0
 90
       50
176
     0
 90
       50
176
     0
290
     0
176
     0
 90
       50
176
     0
 62
   256
176
     0
 40
1.0
176
     0
 90
        2
176
     0
  1
strokes_ogs.tif
176
     0
290
     0
176
     0
 40
1.0
176
     0
 40
1.0
176
     0
  0
VISUALSTYLE
  5
444
102
{ACAD_REACTORS
330
43B
102
}
330
43B
100
AcDbVisualStyle
  2
Realistic
 70
     8
177
     3
291
     0
 70
    58
 90
        2
176
     1
 90
        3
176
     1
 90
        0
176
     1
 90
        2
176
     1
 40
0.6
176
     1
 40
30.0
176
     1
 62
     7
420
 16777215
176
     1
 90
        0
176
     1
 90
        0
176
     1
 62
     7
176
     1
 62
   257
176
     1
 90
        1
176
     1
 90
        1
176
     1
 40
1.0
176
     1
 90
        8
176
     1
 62
   257
176
     1
 40
1.0
176
     1
 90
        1
176
     1
 90
        6
176
     1
 90
        2
176
     1
 62
     7
176
     1
 90
        3
176
     1
 90
        0
176
     1
 90
        0
176
     1
290
     0
176
     1
 90
       13
176
     1
 40
0.0
176
     1
 90
        0
176
     1
290
     0
176
     1
290
     1
176
     1
290
     1
176
     1
290
     0
176
     1
290
     0
176
     1
290
     0
176
     1
290
     0
176
     1
290
     0
176
     1
290
     0
176
     1
 90
       50
176
     1
 40
0.0
176
     1
 40
1.0
176
     1
 90
        0
176
     1
 62
    18
420
        0
176
     1
 90
       50
176
     1
 90
        3
176
     1
 62
     5
420
      255
176
     1
290
     0
176
     1
 90
       50
176
     1
 90
       50
176
     1
 90
       50
176
     1
290
     0
176
     1
 90
       50
176
     1
 62
   256
176
     0
 40
1.0
176
     0
 90
        2
176
     1
  1
strokes_ogs.tif
176
     1
290
     0
176
     1
 40
1.0
176
     1
 40
1.0
176
     1
  0
VISUALSTYLE
  5
453
102
{ACAD_REACTORS
330
43B
102
}
330
43B
100
AcDbVisualStyle
  2
Shaded
 70
    27
177
     3
291
     0
 70
    58
 90
        2
176
     1
 90
        2
176
     1
 90
        1
176
     1
 90
        2
176
     1
 40
0.6
176
     1
 40
30.0
176
     1
 62
     7
420
 16777215
176
     1
 90
        0
176
     1
 90
        4
176
     1
 62
     7
176
     1
 62
   257
176
     1
 90
        1
176
     1
 90
        1
176
     1
 40
1.0
176
     1
 90
        8
176
     1
 62
   257
176
     1
 40
1.0
176
     1
 90
        1
176
     1
 90
        6
176
     1
 90
        2
176
     1
 62
     8
420
  7895160
176
     1
 90
        3
176
     1
 90
        0
176
     1
 90
        0
176
     1
290
     0
176
     1
 90
        5
176
     1
 40
0.0
176
     1
 90
        0
176
     1
290
     0
176
     1
290
     1
176
     1
290
     1
176
     1
290
     0
176
     1
290
     0
176
     1
290
     0
176
     1
290
     0
176
     1
290
     0
176
     1
290
     0
176
     1
 90
       50
176
     1
 40
0.0
176
     1
 40
1.0
176
     1
 90
        0
176
     1
 62
    18
420
        0
176
     1
 90
       50
176
     1
 90
        3
176
     1
 62
     5
420
      255
176
     1
290
     0
176
     1
 90
       50
176
     1
 90
       50
176
     1
 90
       50
176
     1
290
     0
176
     1
 90
       50
176
     1
 62
   256
176
     0
 40
1.0
176
     0
 90
        2
176
     1
  1
strokes_ogs.tif
176
     1
290
     0
176
     1
 40
1.0
176
     1
 40
1.0
176
     1
  0
VISUALSTYLE
  5
452
102
{ACAD_REACTORS
330
43B
102
}
330
43B
100
AcDbVisualStyle
  2
Shaded with edges
 70
    26
177
     3
291
     0
 70
    58
 90
        2
176
     1
 90
        2
176
     1
 90
        1
176
     1
 90
        2
176
     1
 40
0.6
176
     1
 40
30.0
176
     1
 62
     7
420
 16777215
176
     1
 90
        1
176
     1
 90
       10
176
     1
 62
     7
176
     1
 62
   257
176
     1
 90
        2
176
     1
 90
        1
176
     1
 40
1.0
176
     1
 90
        8
176
     1
 62
   257
176
     1
 40
1.0
176
     1
 90
        1
176
     1
 90
        6
176
     1
 90
        2
176
     1
 62
     7
176
     1
 90
        3
176
     1
 90
        0
176
     1
 90
        0
176
     1
290
     0
176
     1
 90
        5
176
     1
 40
0.0
176
     1
 90
        0
176
     1
290
     0
176
     1
290
     1
176
     1
290
     1
176
     1
290
     0
176
     1
290
     0
176
     1
290
     0
176
     1
290
     0
176
     1
290
     0
176
     1
290
     0
176
     1
 90
       50
176
     1
 40
0.0
176
     1
 40
1.0
176
     1
 90
        0
176
     1
 62
    18
420
        0
176
     1
 90
       50
176
     1
 90
        3
176
     1
 62
     5
420
      255
176
     1
290
     0
176
     1
 90
       50
176
     1
 90
       50
176
     1
 90
       50
176
     1
290
     0
176
     1
 90
       50
176
     1
 62
   256
176
     0
 40
1.0
176
     0
 90
        2
176
     1
  1
strokes_ogs.tif
176
     1
290
     0
176
     1
 40
1.0
176
     1
 40
1.0
176
     1
  0
VISUALSTYLE
  5
44F
102
{ACAD_REACTORS
330
43B
102
}
330
43B
100
AcDbVisualStyle
  2
Shades of Gray
 70
    23
177
     3
291
     0
 70
    58
 90
        2
176
     1
 90
        2
176
     1
 90
        3
176
     1
 90
        0
176
     1
 40
0.6
176
     1
 40
30.0
176
     1
 62
     7
420
 16777215
176
     1
 90
        2
176
     1
 90
        2
176
     1
 62
     7
176
     1
 62
     7
176
     1
 90
        1
176
     1
 90
        1
176
     1
 40
40.0
176
     1
 90
        8
176
     1
 62
     7
176
     1
 40
1.0
176
     1
 90
        1
176
     1
 90
        6
176
     1
 90
        2
176
     1
 62
     7
176
     1
 90
        3
176
     1
 90
        0
176
     1
 90
        0
176
     1
290
     0
176
     1
 90
        1
176
     1
 40
0.0
176
     1
 90
        0
176
     1
290
     0
176
     1
290
     1
176
     1
290
     1
176
     1
290
     0
176
     1
290
     0
176
     1
290
     0
176
     1
290
     0
176
     1
290
     0
176
     1
290
     0
176
     1
 90
       50
176
     1
 40
0.0
176
     1
 40
1.0
176
     1
 90
        0
176
     1
 62
    18
420
        0
176
     1
 90
       50
176
     1
 90
        3
176
     1
 62
     5
420
      255
176
     1
290
     0
176
     1
 90
       50
176
     1
 90
       50
176
     1
 90
       50
176
     1
290
     0
176
     1
 90
       50
176
     1
 62
   256
176
     0
 40
1.0
176
     0
 90
        2
176
     1
  1
strokes_ogs.tif
176
     1
290
     0
176
     1
 40
1.0
176
     1
 40
1.0
176
     1
  0
VISUALSTYLE
  5
450
102
{ACAD_REACTORS
330
43B
102
}
330
43B
100
AcDbVisualStyle
  2
Sketchy
 70
    24
177
     3
291
     0
 70
    58
 90
        1
176
     1
 90
        2
176
     1
 90
        2
176
     1
 90
        0
176
     1
 40
0.6
176
     1
 40
30.0
176
     1
 62
     7
420
 16777215
176
     1
 90
        2
176
     1
 90
        2
176
     1
 62
     7
176
     1
 62
     7
176
     1
 90
        1
176
     1
 90
        1
176
     1
 40
40.0
176
     1
 90
       11
176
     1
 62
     7
176
     1
 40
1.0
176
     1
 90
        1
176
     1
 90
        6
176
     1
 90
        2
176
     1
 62
     7
176
     1
 90
        6
176
     1
 90
        0
176
     1
 90
        0
176
     1
290
     0
176
     1
 90
        1
176
     1
 40
0.0
176
     1
 90
        0
176
     1
290
     0
176
     1
290
     1
176
     1
290
     1
176
     1
290
     0
176
     1
290
     0
176
     1
290
     0
176
     1
290
     0
176
     1
290
     0
176
     1
290
     0
176
     1
 90
       50
176
     1
 40
0.0
176
     1
 40
1.0
176
     1
 90
        0
176
     1
 62
    18
420
        0
176
     1
 90
       50
176
     1
 90
        3
176
     1
 62
     5
420
      255
176
     1
290
     0
176
     1
 90
       50
176
     1
 90
       50
176
     1
 90
       50
176
     1
290
     0
176
     1
 90
       50
176
     1
 62
   256
176
     0
 40
1.0
176
     0
 90
        2
176
     1
  1
strokes_ogs.tif
176
     1
290
     0
176
     1
 40
1.0
176
     1
 40
1.0
176
     1
  0
VISUALSTYLE
  5
448
102
{ACAD_REACTORS
330
43B
102
}
330
43B
100
AcDbVisualStyle
  2
Thicken
 70
    13
177
     3
291
     1
 70
    58
 90
        2
176
     1
 90
        2
176
     1
 90
        0
176
     1
 90
        0
176
     1
 40
0.6
176
     1
 40
30.0
176
     1
 62
     7
420
 16777215
176
     1
 90
        1
176
     1
 90
        4
176
     1
 62
     7
176
     1
 62
   257
176
     1
 90
        1
176
     1
 90
        1
176
     1
 40
1.0
176
     1
 90
       12
176
     1
 62
     7
176
     1
 40
1.0
176
     1
 90
        1
176
     1
 90
        6
176
     1
 90
        2
176
     1
 62
     7
176
     1
 90
        5
176
     1
 90
        0
176
     1
 90
        0
176
     1
290
     0
176
     1
 90
        1
176
     1
 40
0.0
176
     1
 90
        0
176
     1
290
     0
176
     1
290
     1
176
     1
290
     1
176
     1
290
     0
176
     1
290
     0
176
     1
290
     0
176
     1
290
     0
176
     1
290
     0
176
     1
290
     0
176
     1
 90
       50
176
     1
 40
0.0
176
     1
 40
1.0
176
     1
 90
        0
176
     1
 62
    18
420
        0
176
     1
 90
       50
176
     1
 90
        3
176
     1
 62
     5
420
      255
176
     1
290
     0
176
     1
 90
       50
176
     1
 90
       50
176
     1
 90
       50
176
     1
290
     0
176
     1
 90
       50
176
     1
 62
   256
176
     0
 40
1.0
176
     0
 90
        2
176
     1
  1
strokes_ogs.tif
176
     1
290
     0
176
     1
 40
1.0
176
     1
 40
1.0
176
     1
  0
VISUALSTYLE
  5
441
102
{ACAD_REACTORS
330
43B
102
}
330
43B
100
AcDbVisualStyle
  2
Wireframe
 70
     5
177
     3
291
     0
 70
    58
 90
        0
176
     1
 90
        2
176
     1
 90
        0
176
     1
 90
        0
176
     1
 40
0.6
176
     1
 40
30.0
176
     1
 62
     7
420
 16777215
176
     1
 90
        1
176
     1
 90
        4
176
     1
 62
     7
176
     1
 62
   257
176
     1
 90
        1
176
     1
 90
        1
176
     1
 40
1.0
176
     1
 90
        0
176
     1
 62
   257
176
     1
 40
1.0
176
     1
 90
        1
176
     1
 90
        6
176
     1
 90
        2
176
     1
 62
     7
176
     1
 90
        3
176
     1
 90
        0
176
     1
 90
        0
176
     1
290
     0
176
     1
 90
        1
176
     1
 40
0.0
176
     1
 90
        0
176
     1
290
     0
176
     1
290
     1
176
     1
290
     1
176
     1
290
     0
176
     1
290
     0
176
     1
290
     0
176
     1
290
     0
176
     1
290
     0
176
     1
290
     0
176
     1
 90
       50
176
     1
 40
0.0
176
     1
 40
1.0
176
     1
 90
        0
176
     1
 62
    18
420
        0
176
     1
 90
       50
176
     1
 90
        3
176
     1
 62
     5
420
      255
176
     1
290
     0
176
     1
 90
       50
176
     1
 90
       50
176
     1
 90
       50
176
     1
290
     0
176
     1
 90
       50
176
     1
 62
   256
176
     0
 40
1.0
176
     0
 90
        2
176
     1
  1
strokes_ogs.tif
176
     1
290
     0
176
     1
 40
1.0
176
     1
 40
1.0
176
     1
  0
VISUALSTYLE
  5
451
102
{ACAD_REACTORS
330
43B
102
}
330
43B
100
AcDbVisualStyle
  2
X-Ray
 70
    25
177
     3
291
     0
 70
    58
 90
        2
176
     1
 90
        2
176
     1
 90
        1
176
     1
 90
        1
176
     1
 40
0.5
176
     1
 40
30.0
176
     1
 62
     7
420
 16777215
176
     1
 90
        1
176
     1
 90
        0
176
     1
 62
     7
176
     1
 62
   257
176
     1
 90
        1
176
     1
 90
        1
176
     1
 40
1.0
176
     1
 90
        8
176
     1
 62
     7
176
     1
 40
1.0
176
     1
 90
        1
176
     1
 90
        6
176
     1
 90
        2
176
     1
 62
     7
176
     1
 90
        3
176
     1
 90
        0
176
     1
 90
        0
176
     1
290
     0
176
     1
 90
       13
176
     1
 40
0.0
176
     1
 90
        0
176
     1
290
     0
176
     1
290
     1
176
     1
290
     1
176
     1
290
     0
176
     1
290
     0
176
     1
290
     0
176
     1
290
     0
176
     1
290
     0
176
     1
290
     0
176
     1
 90
       50
176
     1
 40
0.0
176
     1
 40
1.0
176
     1
 90
        0
176
     1
 62
    18
420
        0
176
     1
 90
       50
176
     1
 90
        3
176
     1
 62
     5
420
      255
176
     1
290
     0
176
     1
 90
       50
176
     1
 90
       50
176
     1
 90
       50
176
     1
290
     0
176
     1
 90
       50
176
     1
 62
   256
176
     0
 40
1.0
176
     0
 90
        2
176
     1
  1
strokes_ogs.tif
176
     1
290
     0
176
     1
 40
1.0
176
     1
 40
1.0
176
     1
  0
DICTIONARYVAR
  5
45E
102
{ACAD_REACTORS
330
45D
102
}
330
45D
100
DictionaryVariables
280
     0
  1
1:1
  0
DICTIONARYVAR
  5
463
102
{ACAD_REACTORS
330
45D
102
}
330
45D
100
DictionaryVariables
280
     0
  1
Standard
  0
DICTIONARYVAR
  5
462
102
{ACAD_REACTORS
330
45D
102
}
330
45D
100
DictionaryVariables
280
     0
  1
Standard
  0
DICTIONARYVAR
  5
464
102
{ACAD_REACTORS
330
45D
102
}
330
45D
100
DictionaryVariables
280
     0
  1
0
  0
DICTIONARY
  5
45F
330
459
100
AcDbDictionary
280
     1
281
     1
  3
ACAD_ROUNDTRIP_2008_TABLESTYLE_CELLSTYLEMAP
360
460
  0
CELLSTYLEMAP
  5
460
102
{ACAD_REACTORS
330
45F
102
}
330
45F
100
AcDbCellStyleMap
 90
        3
300
CELLSTYLE
  1
TABLEFORMAT_BEGIN
 90
        5
170
     1
 91
        0
 92
    32768
 62
   257
 93
        1
300
CONTENTFORMAT
  1
CONTENTFORMAT_BEGIN
 90
        0
 91
        0
 92
        4
 93
        0
300

 40
0.0
140
1.0
 94
        5
 62
     0
340
11
144
6.0
309
CONTENTFORMAT_END
171
     1
301
MARGIN
  1
CELLMARGIN_BEGIN
 40
1.5
 40
1.5
 40
1.5
 40
1.5
 40
1.5
 40
1.5
309
CELLMARGIN_END
 94
        6
 95
        1
302
GRIDFORMAT
  1
GRIDFORMAT_BEGIN
 90
        0
 91
        1
 62
     0
 92
       -2
340
14
 93
        0
 40
0.045
309
GRIDFORMAT_END
 95
        2
302
GRIDFORMAT
  1
GRIDFORMAT_BEGIN
 90
        0
 91
        1
 62
     0
 92
       -2
340
14
 93
        0
 40
0.045
309
GRIDFORMAT_END
 95
        4
302
GRIDFORMAT
  1
GRIDFORMAT_BEGIN
 90
        0
 91
        1
 62
     0
 92
       -2
340
14
 93
        0
 40
0.045
309
GRIDFORMAT_END
 95
        8
302
GRIDFORMAT
  1
GRIDFORMAT_BEGIN
 90
        0
 91
        1
 62
     0
 92
       -2
340
14
 93
        0
 40
0.045
309
GRIDFORMAT_END
 95
       16
302
GRIDFORMAT
  1
GRIDFORMAT_BEGIN
 90
        0
 91
        1
 62
     0
 92
       -2
340
14
 93
        0
 40
0.045
309
GRIDFORMAT_END
 95
       32
302
GRIDFORMAT
  1
GRIDFORMAT_BEGIN
 90
        0
 91
        1
 62
     0
 92
       -2
340
14
 93
        0
 40
0.045
309
GRIDFORMAT_END
309
TABLEFORMAT_END
  1
CELLSTYLE_BEGIN
 90
        1
 91
        1
300
_TITLE
309
CELLSTYLE_END
300
CELLSTYLE
  1
TABLEFORMAT_BEGIN
 90
        5
170
     1
 91
        0
 92
        0
 62
   257
 93
        1
300
CONTENTFORMAT
  1
CONTENTFORMAT_BEGIN
 90
        0
 91
        0
 92
        4
 93
        0
300

 40
0.0
140
1.0
 94
        5
 62
     0
340
11
144
4.5
309
CONTENTFORMAT_END
171
     1
301
MARGIN
  1
CELLMARGIN_BEGIN
 40
1.5
 40
1.5
 40
1.5
 40
1.5
 40
1.5
 40
1.5
309
CELLMARGIN_END
 94
        6
 95
        1
302
GRIDFORMAT
  1
GRIDFORMAT_BEGIN
 90
        0
 91
        1
 62
     0
 92
       -2
340
14
 93
        0
 40
0.045
309
GRIDFORMAT_END
 95
        2
302
GRIDFORMAT
  1
GRIDFORMAT_BEGIN
 90
        0
 91
        1
 62
     0
 92
       -2
340
14
 93
        0
 40
0.045
309
GRIDFORMAT_END
 95
        4
302
GRIDFORMAT
  1
GRIDFORMAT_BEGIN
 90
        0
 91
        1
 62
     0
 92
       -2
340
14
 93
        0
 40
0.045
309
GRIDFORMAT_END
 95
        8
302
GRIDFORMAT
  1
GRIDFORMAT_BEGIN
 90
        0
 91
        1
 62
     0
 92
       -2
340
14
 93
        0
 40
0.045
309
GRIDFORMAT_END
 95
       16
302
GRIDFORMAT
  1
GRIDFORMAT_BEGIN
 90
        0
 91
        1
 62
     0
 92
       -2
340
14
 93
        0
 40
0.045
309
GRIDFORMAT_END
 95
       32
302
GRIDFORMAT
  1
GRIDFORMAT_BEGIN
 90
        0
 91
        1
 62
     0
 92
       -2
340
14
 93
        0
 40
0.045
309
GRIDFORMAT_END
309
TABLEFORMAT_END
  1
CELLSTYLE_BEGIN
 90
        2
 91
        1
300
_HEADER
309
CELLSTYLE_END
300
CELLSTYLE
  1
TABLEFORMAT_BEGIN
 90
        5
170
     1
 91
        0
 92
        0
 62
   257
 93
        1
300
CONTENTFORMAT
  1
CONTENTFORMAT_BEGIN
 90
        0
 91
        0
 92
        4
 93
        0
300

 40
0.0
140
1.0
 94
        2
 62
     0
340
11
144
4.5
309
CONTENTFORMAT_END
171
     1
301
MARGIN
  1
CELLMARGIN_BEGIN
 40
1.5
 40
1.5
 40
1.5
 40
1.5
 40
1.5
 40
1.5
309
CELLMARGIN_END
 94
        6
 95
        1
302
GRIDFORMAT
  1
GRIDFORMAT_BEGIN
 90
        0
 91
        1
 62
     0
 92
       -2
340
14
 93
        0
 40
0.045
309
GRIDFORMAT_END
 95
        2
302
GRIDFORMAT
  1
GRIDFORMAT_BEGIN
 90
        0
 91
        1
 62
     0
 92
       -2
340
14
 93
        0
 40
0.045
309
GRIDFORMAT_END
 95
        4
302
GRIDFORMAT
  1
GRIDFORMAT_BEGIN
 90
        0
 91
        1
 62
     0
 92
       -2
340
14
 93
        0
 40
0.045
309
GRIDFORMAT_END
 95
        8
302
GRIDFORMAT
  1
GRIDFORMAT_BEGIN
 90
        0
 91
        1
 62
     0
 92
       -2
340
14
 93
        0
 40
0.045
309
GRIDFORMAT_END
 95
       16
302
GRIDFORMAT
  1
GRIDFORMAT_BEGIN
 90
        0
 91
        1
 62
     0
 92
       -2
340
14
 93
        0
 40
0.045
309
GRIDFORMAT_END
 95
       32
302
GRIDFORMAT
  1
GRIDFORMAT_BEGIN
 90
        0
 91
        1
 62
     0
 92
       -2
340
14
 93
        0
 40
0.045
309
GRIDFORMAT_END
309
TABLEFORMAT_END
  1
CELLSTYLE_BEGIN
 90
        3
 91
        2
300
_DATA
309
CELLSTYLE_END
  0
ENDSEC
  0
EOF
