  0
SECTION
  2
HEADER
  9
$ACADVER
  1
AC1015
  9
$ACADMAINTVER
 70
     6
  9
$DWGCODEPAGE
  3
ANSI_1252
  9
$INSBASE
 10
0.0
 20
0.0
 30
0.0
  9
$EXTMIN
 10
0.0
 20
0.0
 30
0.0
  9
$EXTMAX
 10
420.0
 20
297.0
 30
0.0
  9
$LIMMIN
 10
0.0
 20
0.0
  9
$LIMMAX
 10
420.0
 20
297.0
  9
$ORTHOMODE
 70
     0
  9
$REGENMODE
 70
     1
  9
$FILLMODE
 70
     1
  9
$QTEXTMODE
 70
     0
  9
$MIRRTEXT
 70
     1
  9
$LTSCALE
 40
23.1
  9
$ATTMODE
 70
     1
  9
$TEXTSIZE
 40
0.2
  9
$TRACEWID
 40
0.05
  9
$TEXTSTYLE
  7
STANDARD
  9
$CLAYER
  8
0
  9
$CELTYPE
  6
BYLAYER
  9
$CECOLOR
 62
   256
  9
$CELTSCALE
 40
1.0
  9
$DISPSILH
 70
     0
  9
$DIMSCALE
 40
1.0
  9
$DIMASZ
 40
2.5
  9
$DIMEXO
 40
2.625
  9
$DIMDLI
 40
15.96
  9
$DIMRND
 40
0.0
  9
$DIMDLE
 40
0.0
  9
$DIMEXE
 40
7.56
  9
$DIMTP
 40
0.01
  9
$DIMTM
 40
0.01
  9
$DIMTXT
 40
3.0
  9
$DIMCEN
 40
3.78
  9
$DIMTSZ
 40
0.0
  9
$DIMTOL
 70
     1
  9
$DIMLIM
 70
     0
  9
$DIMTIH
 70
     1
  9
$DIMTOH
 70
     1
  9
$DIMSE1
 70
     0
  9
$DIMSE2
 70
     0
  9
$DIMTAD
 70
     0
  9
$DIMZIN
 70
     0
  9
$DIMBLK
  1
CLOSED
  9
$DIMASO
 70
     1
  9
$DIMSHO
 70
     1
  9
$DIMPOST
  1

  9
$DIMAPOST
  1

  9
$DIMALT
 70
     0
  9
$DIMALTD
 70
     2
  9
$DIMALTF
 40
25.4
  9
$DIMLFAC
 40
1.0
  9
$DIMTOFL
 70
     0
  9
$DIMTVP
 40
0.0
  9
$DIMTIX
 70
     0
  9
$DIMSOXD
 70
     0
  9
$DIMSAH
 70
     0
  9
$DIMBLK1
  1

  9
$DIMBLK2
  1

  9
$DIMSTYLE
  2
STANDARD
  9
$DIMCLRD
 70
     0
  9
$DIMCLRE
 70
     0
  9
$DIMCLRT
 70
     0
  9
$DIMTFAC
 40
1.0
  9
$DIMGAP
 40
0.09
  9
$DIMJUST
 70
     0
  9
$DIMSD1
 70
     0
  9
$DIMSD2
 70
     0
  9
$DIMTOLJ
 70
     1
  9
$DIMTZIN
 70
     0
  9
$DIMALTZ
 70
     0
  9
$DIMALTTZ
 70
     0
  9
$DIMUPT
 70
     0
  9
$DIMDEC
 70
     4
  9
$DIMTDEC
 70
     4
  9
$DIMALTU
 70
     2
  9
$DIMALTTD
 70
     2
  9
$DIMTXSTY
  7
STANDARD
  9
$DIMAUNIT
 70
     0
  9
$DIMADEC
 70
     0
  9
$DIMALTRND
 40
0.0
  9
$DIMAZIN
 70
     0
  9
$DIMDSEP
 70
    46
  9
$DIMATFIT
 70
     3
  9
$DIMFRAC
 70
     0
  9
$DIMLDRBLK
  1

  9
$DIMLUNIT
 70
     2
  9
$DIMLWD
 70
    -2
  9
$DIMLWE
 70
    -2
  9
$DIMTMOVE
 70
     0
  9
$LUNITS
 70
     2
  9
$LUPREC
 70
     4
  9
$SKETCHINC
 40
0.1
  9
$FILLETRAD
 40
0.5
  9
$AUNITS
 70
     0
  9
$AUPREC
 70
     0
  9
$MENU
  1
.
  9
$ELEVATION
 40
0.0
  9
$PELEVATION
 40
0.0
  9
$THICKNESS
 40
0.0
  9
$LIMCHECK
 70
     0
  9
$CHAMFERA
 40
0.0
  9
$CHAMFERB
 40
0.0
  9
$CHAMFERC
 40
0.0
  9
$CHAMFERD
 40
0.0
  9
$SKPOLY
 70
     0
  9
$TDCREATE
 40
2447893.083333333
  9
$TDUCREATE
 40
0.0
  9
$TDUPDATE
 40
2456748.520853183
  9
$TDUUPDATE
 40
2456748.43751985
  9
$TDINDWG
 40
0.0002763426
  9
$TDUSRTIMER
 40
2456748.437243634
  9
$USRTIMER
 70
     1
  9
$ANGBASE
 50
0.0
  9
$ANGDIR
 70
     0
  9
$PDMODE
 70
     3
  9
$PDSIZE
 40
0.3125
  9
$PLINEWID
 40
0.0
  9
$SPLFRAME
 70
     0
  9
$SPLINETYPE
 70
     6
  9
$SPLINESEGS
 70
     8
  9
$HANDSEED
  5
4B7
  9
$SURFTAB1
 70
     6
  9
$SURFTAB2
 70
     6
  9
$SURFTYPE
 70
     6
  9
$SURFU
 70
     6
  9
$SURFV
 70
     6
  9
$UCSBASE
  2

  9
$UCSNAME
  2

  9
$UCSORG
 10
0.0
 20
0.0
 30
0.0
  9
$UCSXDIR
 10
1.0
 20
0.0
 30
0.0
  9
$UCSYDIR
 10
0.0
 20
1.0
 30
0.0
  9
$UCSORTHOREF
  2

  9
$UCSORTHOVIEW
 70
     0
  9
$UCSORGTOP
 10
0.0
 20
0.0
 30
0.0
  9
$UCSORGBOTTOM
 10
0.0
 20
0.0
 30
0.0
  9
$UCSORGLEFT
 10
0.0
 20
0.0
 30
0.0
  9
$UCSORGRIGHT
 10
0.0
 20
0.0
 30
0.0
  9
$UCSORGFRONT
 10
0.0
 20
0.0
 30
0.0
  9
$UCSORGBACK
 10
0.0
 20
0.0
 30
0.0
  9
$PUCSBASE
  2

  9
$PUCSNAME
  2

  9
$PUCSORG
 10
0.0
 20
0.0
 30
0.0
  9
$PUCSXDIR
 10
1.0
 20
0.0
 30
0.0
  9
$PUCSYDIR
 10
0.0
 20
1.0
 30
0.0
  9
$PUCSORTHOREF
  2

  9
$PUCSORTHOVIEW
 70
     0
  9
$PUCSORGTOP
 10
0.0
 20
0.0
 30
0.0
  9
$PUCSORGBOTTOM
 10
0.0
 20
0.0
 30
0.0
  9
$PUCSORGLEFT
 10
0.0
 20
0.0
 30
0.0
  9
$PUCSORGRIGHT
 10
0.0
 20
0.0
 30
0.0
  9
$PUCSORGFRONT
 10
0.0
 20
0.0
 30
0.0
  9
$PUCSORGBACK
 10
0.0
 20
0.0
 30
0.0
  9
$USERI1
 70
     0
  9
$USERI2
 70
     0
  9
$USERI3
 70
     0
  9
$USERI4
 70
     0
  9
$USERI5
 70
     0
  9
$USERR1
 40
0.0
  9
$USERR2
 40
0.0
  9
$USERR3
 40
0.0
  9
$USERR4
 40
0.0
  9
$USERR5
 40
0.0
  9
$WORLDVIEW
 70
     1
  9
$SHADEDGE
 70
     3
  9
$SHADEDIF
 70
    70
  9
$TILEMODE
 70
     1
  9
$MAXACTVP
 70
    64
  9
$PINSBASE
 10
0.0
 20
0.0
 30
0.0
  9
$PLIMCHECK
 70
     0
  9
$PEXTMIN
 10
1.000000000000000E+20
 20
1.000000000000000E+20
 30
1.000000000000000E+20
  9
$PEXTMAX
 10
-1.000000000000000E+20
 20
-1.000000000000000E+20
 30
-1.000000000000000E+20
  9
$PLIMMIN
 10
0.0
 20
0.0
  9
$PLIMMAX
 10
420.0
 20
297.0
  9
$UNITMODE
 70
     0
  9
$VISRETAIN
 70
     1
  9
$PLINEGEN
 70
     0
  9
$PSLTSCALE
 70
     1
  9
$TREEDEPTH
 70
  3020
  9
$CMLSTYLE
  2

  9
$CMLJUST
 70
     0
  9
$CMLSCALE
 40
1.0
  9
$PROXYGRAPHICS
 70
     1
  9
$MEASUREMENT
 70
     1
  9
$CELWEIGHT
370
    -1
  9
$ENDCAPS
280
     0
  9
$JOINSTYLE
280
     0
  9
$LWDISPLAY
290
     0
  9
$INSUNITS
 70
     4
  9
$HYPERLINKBASE
  1

  9
$STYLESHEET
  1

  9
$XEDIT
290
     1
  9
$CEPSNTYPE
380
     0
  9
$PSTYLEMODE
290
     1
  9
$FINGERPRINTGUID
  2
{D76AE4D2-5942-4C69-830C-813FBAAB7CD0}
  9
$VERSIONGUID
  2
{FAEB1C32-E019-11D5-929B-00C0DF256EC4}
  9
$EXTNAMES
290
     1
  9
$PSVPSCALE
 40
0.0
  9
$OLESTARTUP
290
     0
  0
ENDSEC
  0
SECTION
  2
CLASSES
  0
CLASS
  1
ACDBDICTIONARYWDFLT
  2
AcDbDictionaryWithDefault
  3
ObjectDBX Classes
 90
        0
280
     0
281
     0
  0
CLASS
  1
ACDBPLACEHOLDER
  2
AcDbPlaceHolder
  3
ObjectDBX Classes
 90
        0
280
     0
281
     0
  0
CLASS
  1
LAYOUT
  2
AcDbLayout
  3
ObjectDBX Classes
 90
        0
280
     0
281
     0
  0
CLASS
  1
TABLESTYLE
  2
AcDbTableStyle
  3
ObjectDBX Classes
 90
     4095
280
     0
281
     0
  0
CLASS
  1
ACAD_TABLE
  2
AcDbTable
  3
ObjectDBX Classes
 90
     1025
280
     0
281
     1
  0
CLASS
  1
SCALE
  2
AcDbScale
  3
ObjectDBX Classes
 90
     1153
280
     0
281
     0
  0
CLASS
  1
TABLEGEOMETRY
  2
AcDbTableGeometry
  3
ObjectDBX Classes
 90
     1152
280
     0
281
     0
  0
CLASS
  1
VISUALSTYLE
  2
AcDbVisualStyle
  3
ObjectDBX Classes
 90
     4095
280
     0
281
     0
  0
CLASS
  1
MATERIAL
  2
AcDbMaterial
  3
ObjectDBX Classes
 90
     1153
280
     0
281
     0
  0
CLASS
  1
SUN
  2
AcDbSun
  3
SCENEOE
 90
     1153
280
     0
281
     0
  0
CLASS
  1
RASTERVARIABLES
  2
AcDbRasterVariables
  3
ISM
 90
        0
280
     0
281
     0
  0
ENDSEC
  0
SECTION
  2
TABLES
  0
TABLE
  2
VPORT
  5
8
330
0
100
AcDbSymbolTable
 70
     1
  0
VPORT
  5
1F4
330
8
100
AcDbSymbolTableRecord
100
AcDbViewportTableRecord
  2
*ACTIVE
 70
     0
 10
0.0
 20
0.0
 11
1.0
 21
1.0
 12
210.0
 22
148.5
 13
0.0
 23
0.0
 14
1.0
 24
1.0
 15
0.0
 25
0.0
 16
0.0
 26
0.0
 36
1.0
 17
0.0
 27
0.0
 37
0.0
 40
297.0
 41
1.4141414141
 42
50.0
 43
0.0
 44
0.0
 50
0.0
 51
0.0
 71
     0
 72
   100
 73
     1
 74
     1
 75
     0
 76
     0
 77
     0
 78
     0
281
     0
 65
     1
110
0.0
120
0.0
130
0.0
111
1.0
121
0.0
131
0.0
112
0.0
122
1.0
132
0.0
 79
     0
146
0.0
  0
ENDTAB
  0
TABLE
  2
LTYPE
  5
5
330
0
100
AcDbSymbolTable
 70
     6
  0
LTYPE
  5
14
330
5
100
AcDbSymbolTableRecord
100
AcDbLinetypeTableRecord
  2
BYBLOCK
 70
     0
  3

 72
    65
 73
     0
 40
0.0
  0
LTYPE
  5
15
330
5
100
AcDbSymbolTableRecord
100
AcDbLinetypeTableRecord
  2
BYLAYER
 70
     0
  3

 72
    65
 73
     0
 40
0.0
  0
LTYPE
  5
16
330
5
100
AcDbSymbolTableRecord
100
AcDbLinetypeTableRecord
  2
CONTINUOUS
 70
     0
  3
Solid line
 72
    65
 73
     0
 40
0.0
  0
LTYPE
  5
1F5
330
5
100
AcDbSymbolTableRecord
100
AcDbLinetypeTableRecord
  2
CENTER
 70
     0
  3
____ _ ____ _ ____ _ ____ _ ____ _ ____ _ ____
 72
    65
 73
     4
 40
0.6
 49
0.375
 74
     0
 49
-0.075
 74
     0
 49
0.075
 74
     0
 49
-0.075
 74
     0
  0
LTYPE
  5
1F6
330
5
100
AcDbSymbolTableRecord
100
AcDbLinetypeTableRecord
  2
HIDDEN
 70
     0
  3
- - - - - - - - - - - - - - - - - - - -
 72
    65
 73
     2
 40
0.2
 49
0.1
 74
     0
 49
-0.1
 74
     0
  0
LTYPE
  5
1F7
330
5
100
AcDbSymbolTableRecord
100
AcDbLinetypeTableRecord
  2
PHANTOM
 70
     0
  3
_____ _ _ _____ _ _ _____ _ _ _____
 72
    65
 73
     6
 40
0.8
 49
0.45
 74
     0
 49
-0.05
 74
     0
 49
0.1
 74
     0
 49
-0.05
 74
     0
 49
0.1
 74
     0
 49
-0.05
 74
     0
  0
LTYPE
  5
1F8
330
5
100
AcDbSymbolTableRecord
100
AcDbLinetypeTableRecord
  2
DOT
 70
     0
  3
. . . . . . . . . . . . . . . . . . . .
 72
    65
 73
     2
 40
0.2
 49
0.1
 74
     0
 49
-0.1
 74
     0
  0
LTYPE
  5
1F9
330
5
100
AcDbSymbolTableRecord
100
AcDbLinetypeTableRecord
  2
DASHED
 70
     0
  3
- - - - - - - - - - - - - - - - - - - -
 72
    65
 73
     2
 40
0.2
 49
0.1
 74
     0
 49
-0.1
 74
     0
  0
ENDTAB
  0
TABLE
  2
LAYER
  5
2
330
0
100
AcDbSymbolTable
 70
    40
  0
LAYER
  5
10
330
2
100
AcDbSymbolTableRecord
100
AcDbLayerTableRecord
  2
0
 70
     0
 62
     7
  6
CONTINUOUS
370
    -3
390
F
  0
LAYER
  5
1FA
330
2
100
AcDbSymbolTableRecord
100
AcDbLayerTableRecord
  2
DEFAULT_1
 70
     0
 62
     7
  6
CENTER
370
    -3
390
F
  0
LAYER
  5
1FB
330
2
100
AcDbSymbolTableRecord
100
AcDbLayerTableRecord
  2
DEFAULT_2
 70
     0
 62
     8
  6
HIDDEN
370
    -3
390
F
  0
LAYER
  5
1FC
330
2
100
AcDbSymbolTableRecord
100
AcDbLayerTableRecord
  2
DEFAULT_3
 70
     0
 62
     7
  6
PHANTOM
370
    -3
390
F
  0
LAYER
  5
1FD
330
2
100
AcDbSymbolTableRecord
100
AcDbLayerTableRecord
  2
01_ALL_DTM_PLN
 70
     0
 62
     7
  6
CONTINUOUS
370
    -3
390
F
  0
LAYER
  5
1FE
330
2
100
AcDbSymbolTableRecord
100
AcDbLayerTableRecord
  2
01__ASM_ALL_DTM_PLN
 70
     0
 62
     7
  6
CONTINUOUS
370
    -3
390
F
  0
LAYER
  5
1FF
330
2
100
AcDbSymbolTableRecord
100
AcDbLayerTableRecord
  2
01__ASM_DEF_DTM_PLN
 70
     0
 62
     7
  6
CONTINUOUS
370
    -3
390
F
  0
LAYER
  5
200
330
2
100
AcDbSymbolTableRecord
100
AcDbLayerTableRecord
  2
01___PRT_ALL_DTM_PLN
 70
     0
 62
     7
  6
CONTINUOUS
370
    -3
390
F
  0
LAYER
  5
201
330
2
100
AcDbSymbolTableRecord
100
AcDbLayerTableRecord
  2
01___PRT_DEF_DTM_PLN
 70
     0
 62
     7
  6
CONTINUOUS
370
    -3
390
F
  0
LAYER
  5
202
330
2
100
AcDbSymbolTableRecord
100
AcDbLayerTableRecord
  2
02_ALL_AXES
 70
     0
 62
     7
  6
CONTINUOUS
370
    -3
390
F
  0
LAYER
  5
203
330
2
100
AcDbSymbolTableRecord
100
AcDbLayerTableRecord
  2
02__ASM_ALL_AXES
 70
     0
 62
     7
  6
CONTINUOUS
370
    -3
390
F
  0
LAYER
  5
204
330
2
100
AcDbSymbolTableRecord
100
AcDbLayerTableRecord
  2
02___PRT_ALL_AXES
 70
     0
 62
     7
  6
CONTINUOUS
370
    -3
390
F
  0
LAYER
  5
205
330
2
100
AcDbSymbolTableRecord
100
AcDbLayerTableRecord
  2
03_ALL_CURVES
 70
     0
 62
     7
  6
CONTINUOUS
370
    -3
390
F
  0
LAYER
  5
206
330
2
100
AcDbSymbolTableRecord
100
AcDbLayerTableRecord
  2
03__ASM_ALL_CURVES
 70
     0
 62
     7
  6
CONTINUOUS
370
    -3
390
F
  0
LAYER
  5
207
330
2
100
AcDbSymbolTableRecord
100
AcDbLayerTableRecord
  2
03___PRT_ALL_CURVES
 70
     0
 62
     7
  6
CONTINUOUS
370
    -3
390
F
  0
LAYER
  5
208
330
2
100
AcDbSymbolTableRecord
100
AcDbLayerTableRecord
  2
04_ALL_DTM_PNT
 70
     0
 62
     7
  6
CONTINUOUS
370
    -3
390
F
  0
LAYER
  5
209
330
2
100
AcDbSymbolTableRecord
100
AcDbLayerTableRecord
  2
04__ASM_ALL_DTM_PNT
 70
     0
 62
     7
  6
CONTINUOUS
370
    -3
390
F
  0
LAYER
  5
20A
330
2
100
AcDbSymbolTableRecord
100
AcDbLayerTableRecord
  2
04___PRT_ALL_DTM_PNT
 70
     0
 62
     7
  6
CONTINUOUS
370
    -3
390
F
  0
LAYER
  5
20B
330
2
100
AcDbSymbolTableRecord
100
AcDbLayerTableRecord
  2
05_ALL_DTM_CSYS
 70
     0
 62
     7
  6
CONTINUOUS
370
    -3
390
F
  0
LAYER
  5
20C
330
2
100
AcDbSymbolTableRecord
100
AcDbLayerTableRecord
  2
05__ASM_ALL_DTM_CSYS
 70
     0
 62
     7
  6
CONTINUOUS
370
    -3
390
F
  0
LAYER
  5
20D
330
2
100
AcDbSymbolTableRecord
100
AcDbLayerTableRecord
  2
05__ASM_DEF_DTM_CSYS
 70
     0
 62
     7
  6
CONTINUOUS
370
    -3
390
F
  0
LAYER
  5
20E
330
2
100
AcDbSymbolTableRecord
100
AcDbLayerTableRecord
  2
05___PRT_ALL_DTM_CSYS
 70
     0
 62
     7
  6
CONTINUOUS
370
    -3
390
F
  0
LAYER
  5
20F
330
2
100
AcDbSymbolTableRecord
100
AcDbLayerTableRecord
  2
05___PRT_DEF_DTM_CSYS
 70
     0
 62
     7
  6
CONTINUOUS
370
    -3
390
F
  0
LAYER
  5
210
330
2
100
AcDbSymbolTableRecord
100
AcDbLayerTableRecord
  2
06_ALL_SURFS
 70
     0
 62
     7
  6
CONTINUOUS
370
    -3
390
F
  0
LAYER
  5
211
330
2
100
AcDbSymbolTableRecord
100
AcDbLayerTableRecord
  2
06__ASM_ALL_SURFS
 70
     0
 62
     7
  6
CONTINUOUS
370
    -3
390
F
  0
LAYER
  5
212
330
2
100
AcDbSymbolTableRecord
100
AcDbLayerTableRecord
  2
06___PRT_ALL_SURFS
 70
     0
 62
     7
  6
CONTINUOUS
370
    -3
390
F
  0
LAYER
  5
213
330
2
100
AcDbSymbolTableRecord
100
AcDbLayerTableRecord
  2
07__ASM_ALL_SKELETONS
 70
     0
 62
     7
  6
CONTINUOUS
370
    -3
390
F
  0
LAYER
  5
214
330
2
100
AcDbSymbolTableRecord
100
AcDbLayerTableRecord
  2
1_ALL_PLANES
 70
     0
 62
     7
  6
CONTINUOUS
370
    -3
390
F
  0
LAYER
  5
215
330
2
100
AcDbSymbolTableRecord
100
AcDbLayerTableRecord
  2
2_ALL_CSYS
 70
     0
 62
     7
  6
CONTINUOUS
370
    -3
390
F
  0
LAYER
  5
216
330
2
100
AcDbSymbolTableRecord
100
AcDbLayerTableRecord
  2
3_ALL_AXES
 70
     0
 62
     7
  6
CONTINUOUS
370
    -3
390
F
  0
LAYER
  5
217
330
2
100
AcDbSymbolTableRecord
100
AcDbLayerTableRecord
  2
4_ALL_POINTS
 70
     0
 62
     7
  6
CONTINUOUS
370
    -3
390
F
  0
LAYER
  5
218
330
2
100
AcDbSymbolTableRecord
100
AcDbLayerTableRecord
  2
5_ALL_CURVES
 70
     0
 62
     7
  6
CONTINUOUS
370
    -3
390
F
  0
LAYER
  5
219
330
2
100
AcDbSymbolTableRecord
100
AcDbLayerTableRecord
  2
7_ALL_FEATURES
 70
     0
 62
     7
  6
CONTINUOUS
370
    -3
390
F
  0
LAYER
  5
21A
330
2
100
AcDbSymbolTableRecord
100
AcDbLayerTableRecord
  2
8_ALL_NOTES_BALLOONS_SYMBOLS_GT
 70
     0
 62
     7
  6
CONTINUOUS
370
    -3
390
F
  0
LAYER
  5
21B
330
2
100
AcDbSymbolTableRecord
100
AcDbLayerTableRecord
  2
CLOSED_SHELL
 70
     0
 62
     7
  6
CONTINUOUS
370
    -3
390
F
  0
LAYER
  5
21C
330
2
100
AcDbSymbolTableRecord
100
AcDbLayerTableRecord
  2
INTF_GREEN
 70
     0
 62
     7
  6
CONTINUOUS
370
    -3
390
F
  0
LAYER
  5
21D
330
2
100
AcDbSymbolTableRecord
100
AcDbLayerTableRecord
  2
INTF_MAGENTA
 70
     0
 62
     7
  6
CONTINUOUS
370
    -3
390
F
  0
LAYER
  5
21E
330
2
100
AcDbSymbolTableRecord
100
AcDbLayerTableRecord
  2
INTF_YELLOW
 70
     0
 62
     7
  6
CONTINUOUS
370
    -3
390
F
  0
LAYER
  5
21F
330
2
100
AcDbSymbolTableRecord
100
AcDbLayerTableRecord
  2
XSEC_DATUMS
 70
     0
 62
     7
  6
CONTINUOUS
370
    -3
390
F
  0
LAYER
  5
494
330
2
100
AcDbSymbolTableRecord
100
AcDbLayerTableRecord
  2
Defpoints
 70
     0
 62
     7
  6
CONTINUOUS
290
     0
370
    -3
390
F
  0
ENDTAB
  0
TABLE
  2
STYLE
  5
3
330
0
100
AcDbSymbolTable
 70
     5
  0
STYLE
  5
11
330
3
100
AcDbSymbolTableRecord
100
AcDbTextStyleTableRecord
  2
STANDARD
 70
     0
 40
0.0
 41
0.85
 50
0.0
 71
     0
 42
0.2
  3
txt
  4

  0
STYLE
  5
220
330
3
100
AcDbSymbolTableRecord
100
AcDbTextStyleTableRecord
  2
TEXTSTYLE_1
 70
     0
 40
0.0
 41
0.8
 50
0.0
 71
     0
 42
0.2
  3
gdt
  4

  0
STYLE
  5
221
330
3
100
AcDbSymbolTableRecord
100
AcDbTextStyleTableRecord
  2
TEXTSTYLE_2
 70
     0
 40
0.0
 41
0.9
 50
0.0
 71
     0
 42
0.2
  3
txt
  4

  0
STYLE
  5
222
330
3
100
AcDbSymbolTableRecord
100
AcDbTextStyleTableRecord
  2
TEXTSTYLE_3
 70
     0
 40
0.0
 41
0.9
 50
0.0
 71
     0
 42
0.2
  3
txt
  4

  0
STYLE
  5
223
330
3
100
AcDbSymbolTableRecord
100
AcDbTextStyleTableRecord
  2
TEXTSTYLE_4
 70
     0
 40
0.0
 41
0.85
 50
0.0
 71
     0
 42
0.2
  3
txt
  4

  0
ENDTAB
  0
TABLE
  2
VIEW
  5
6
330
0
100
AcDbSymbolTable
 70
     0
  0
ENDTAB
  0
TABLE
  2
UCS
  5
7
330
0
100
AcDbSymbolTable
 70
     0
  0
ENDTAB
  0
TABLE
  2
APPID
  5
9
330
0
100
AcDbSymbolTable
 70
     1
  0
APPID
  5
224
330
9
100
AcDbSymbolTableRecord
100
AcDbRegAppTableRecord
  2
ACAD
 70
     0
  0
ENDTAB
  0
TABLE
  2
DIMSTYLE
  5
A
330
0
100
AcDbSymbolTable
 70
     2
100
AcDbDimStyleTable
  0
DIMSTYLE
105
22D
330
A
100
AcDbSymbolTableRecord
100
AcDbDimStyleTableRecord
  2
STANDARD
 70
     0
 41
2.5
 47
0.01
 48
0.01
 71
     1
 73
     0
 74
     0
 77
     1
 78
     8
140
3.0
178
     0
271
     2
272
     2
284
     8
340
11
341
227
342
227
343
227
344
227
  0
DIMSTYLE
105
22E
330
A
100
AcDbSymbolTableRecord
100
AcDbDimStyleTableRecord
  2
DIMSTYLE_1
 70
     0
 41
2.5
 47
0.3
 48
0.3
 73
     0
 74
     0
 77
     1
 78
     8
140
3.0
178
     0
271
     2
272
     2
284
     8
340
11
341
227
342
227
343
227
344
227
  0
ENDTAB
  0
TABLE
  2
BLOCK_RECORD
  5
1
330
0
100
AcDbSymbolTable
 70
     6
  0
BLOCK_RECORD
  5
225
330
1
100
AcDbSymbolTableRecord
100
AcDbBlockTableRecord
  2
*Model_Space
340
44B
  0
BLOCK_RECORD
  5
226
330
1
100
AcDbSymbolTableRecord
100
AcDbBlockTableRecord
  2
*Paper_Space
340
44C
  0
BLOCK_RECORD
  5
227
330
1
100
AcDbSymbolTableRecord
100
AcDbBlockTableRecord
  2
_CLOSED
340
0
102
{BLKREFS
331
0
331
0
331
0
331
0
331
0
331
0
331
27F
331
27E
331
276
331
275
331
288
331
287
102
}
  0
BLOCK_RECORD
  5
228
330
1
100
AcDbSymbolTableRecord
100
AcDbBlockTableRecord
  2
*D1
340
0
  0
BLOCK_RECORD
  5
229
330
1
100
AcDbSymbolTableRecord
100
AcDbBlockTableRecord
  2
*D2
340
0
  0
BLOCK_RECORD
  5
22A
330
1
100
AcDbSymbolTableRecord
100
AcDbBlockTableRecord
  2
*D3
340
0
  0
BLOCK_RECORD
  5
22B
330
1
100
AcDbSymbolTableRecord
100
AcDbBlockTableRecord
  2
LOGO2_BL0
340
0
102
{BLKREFS
331
2B0
102
}
  0
BLOCK_RECORD
  5
22C
330
1
100
AcDbSymbolTableRecord
100
AcDbBlockTableRecord
  2
*T5
340
0
102
{BLKREFS
331
2B1
331
2B1
102
}
  0
ENDTAB
  0
ENDSEC
  0
SECTION
  2
BLOCKS
  0
BLOCK
  5
20
330
225
100
AcDbEntity
  8
0
100
AcDbBlockBegin
  2
*Model_Space
 70
     0
 10
0.0
 20
0.0
 30
0.0
  3
*Model_Space
  1
*Model_Space
  0
ENDBLK
  5
21
330
225
100
AcDbEntity
  8
0
100
AcDbBlockEnd
  0
BLOCK
  5
1C
330
226
100
AcDbEntity
 67
     1
  8
0
100
AcDbBlockBegin
  2
*Paper_Space
 70
     0
 10
0.0
 20
0.0
 30
0.0
  3
*Paper_Space
  1
*Paper_Space
  0
ENDBLK
  5
1D
330
226
100
AcDbEntity
 67
     1
  8
0
100
AcDbBlockEnd
  0
BLOCK
  5
26B
330
227
100
AcDbEntity
  8
0
100
AcDbBlockBegin
  2
_CLOSED
 70
     0
 10
0.0
 20
0.0
 30
0.0
  3
_CLOSED
  1
_CLOSED
  0
LINE
  5
26C
330
227
100
AcDbEntity
  8
0
  6
ByBlock
 62
     0
100
AcDbLine
 10
0.0
 20
0.0
 30
0.0
 11
-1.0
 21
0.2
 31
0.0
  0
LINE
  5
26D
330
227
100
AcDbEntity
  8
0
  6
ByBlock
 62
     0
100
AcDbLine
 10
-1.0
 20
0.2
 30
0.0
 11
-1.0
 21
-0.2
 31
0.0
  0
LINE
  5
26E
330
227
100
AcDbEntity
  8
0
  6
ByBlock
 62
     0
100
AcDbLine
 10
-1.0
 20
-0.2
 30
0.0
 11
0.0
 21
0.0
 31
0.0
  0
LINE
  5
26F
330
227
100
AcDbEntity
  8
0
  6
ByBlock
 62
     0
100
AcDbLine
 10
-1.0
 20
0.0
 30
0.0
 11
0.0
 21
0.0
 31
0.0
  0
ENDBLK
  5
270
330
227
100
AcDbEntity
  8
0
  6
ByBlock
 62
     0
100
AcDbBlockEnd
  0
BLOCK
  5
271
330
228
100
AcDbEntity
  8
0
100
AcDbBlockBegin
  2
*D1
 70
     1
 10
0.0
 20
0.0
 30
0.0
  3
*D1
  1
*D1
  0
LINE
  5
272
330
228
100
AcDbEntity
  8
0
  6
Continuous
 62
     0
370
    -2
100
AcDbLine
 10
40.0958806818
 20
40.5335744337
 30
0.0
 11
40.0958806818
 21
30.1935795455
 31
0.0
  0
LINE
  5
273
330
228
100
AcDbEntity
  8
0
  6
Continuous
 62
     0
370
    -2
100
AcDbLine
 10
110.0958806818
 20
41.0362653428
 30
0.0
 11
110.0958806818
 21
30.1935795455
 31
0.0
  0
LINE
  5
274
330
228
100
AcDbEntity
  8
0
  6
Continuous
 62
     0
370
    -2
100
AcDbLine
 10
42.5958806818
 20
30.3735795455
 30
0.0
 11
107.5958806818
 21
30.3735795455
 31
0.0
  0
INSERT
  5
275
330
228
100
AcDbEntity
  8
0
 62
     0
370
    -2
100
AcDbBlockReference
  2
_CLOSED
 10
40.0958806818
 20
30.3735795455
 30
0.0
 41
2.5
 42
2.5
 43
2.5
 50
180.0
  0
INSERT
  5
276
330
228
100
AcDbEntity
  8
0
 62
     0
370
    -2
100
AcDbBlockReference
  2
_CLOSED
 10
110.0958806818
 20
30.3735795455
 30
0.0
 41
2.5
 42
2.5
 43
2.5
  0
MTEXT
  5
277
330
228
100
AcDbEntity
  8
0
 62
     0
100
AcDbMText
 10
75.0958806818
 20
35.3735795455
 30
0.0
 40
3.0
 41
0.0
 71
     2
 72
     1
  1
\A1;70
 73
     1
 44
1.0
  0
POINT
  5
278
330
228
100
AcDbEntity
  8
Defpoints
 62
     0
100
AcDbPoint
 10
40.0958806818
 20
40.5960744337
 30
0.0
  0
POINT
  5
497
330
228
100
AcDbEntity
  8
Defpoints
 62
     0
100
AcDbPoint
 10
110.0958806818
 20
41.0987653428
 30
0.0
  0
POINT
  5
498
330
228
100
AcDbEntity
  8
Defpoints
 62
     0
100
AcDbPoint
 10
110.0958806818
 20
30.3735795455
 30
0.0
  0
ENDBLK
  5
279
330
228
100
AcDbEntity
  8
0
  6
ByBlock
 62
     0
100
AcDbBlockEnd
  0
BLOCK
  5
27A
330
229
100
AcDbEntity
  8
0
100
AcDbBlockBegin
  2
*D2
 70
     1
 10
0.0
 20
0.0
 30
0.0
  3
*D2
  1
*D2
  0
LINE
  5
27B
330
229
100
AcDbEntity
  8
0
  6
Continuous
 62
     0
370
    -2
100
AcDbLine
 10
113.7432406644
 20
113.1235795455
 30
0.0
 11
126.2820542056
 21
113.1235795455
 31
0.0
  0
LINE
  5
27C
330
229
100
AcDbEntity
  8
0
  6
Continuous
 62
     0
370
    -2
100
AcDbLine
 10
114.2746252098
 20
43.1235795455
 30
0.0
 11
126.2820542056
 21
43.12357954550001
 31
0.0
  0
LINE
  5
27D
330
229
100
AcDbEntity
  8
0
  6
Continuous
 62
     0
370
    -2
100
AcDbLine
 10
126.1020542056
 20
110.6235795455
 30
0.0
 11
126.1020542056
 21
45.62357954550001
 31
0.0
  0
INSERT
  5
27E
330
229
100
AcDbEntity
  8
0
 62
     0
370
    -2
100
AcDbBlockReference
  2
_CLOSED
 10
126.1020542056
 20
113.1235795455
 30
0.0
 41
2.5
 42
2.5
 43
2.5
 50
89.99999999999999
  0
INSERT
  5
27F
330
229
100
AcDbEntity
  8
0
 62
     0
370
    -2
100
AcDbBlockReference
  2
_CLOSED
 10
126.1020542056
 20
43.12357954550001
 30
0.0
 41
2.5
 42
2.5
 43
2.5
 50
270.0
  0
MTEXT
  5
280
330
229
100
AcDbEntity
  8
0
 62
     0
100
AcDbMText
 10
121.1020542056
 20
78.12357954550001
 30
0.0
 40
3.0
 41
0.0
 71
     2
 72
     1
  1
\A1;70
 11
2.030122102171715E-16
 21
1.0
 31
0.0
 73
     1
 44
1.0
  0
POINT
  5
281
330
229
100
AcDbEntity
  8
Defpoints
 62
     0
100
AcDbPoint
 10
113.6807406644
 20
113.1235795455
 30
0.0
  0
POINT
  5
495
330
229
100
AcDbEntity
  8
Defpoints
 62
     0
100
AcDbPoint
 10
114.2121252098
 20
43.1235795455
 30
0.0
  0
POINT
  5
496
330
229
100
AcDbEntity
  8
Defpoints
 62
     0
100
AcDbPoint
 10
126.1020542056
 20
43.1235795455
 30
0.0
  0
ENDBLK
  5
282
330
229
100
AcDbEntity
  8
0
  6
ByBlock
 62
     0
100
AcDbBlockEnd
  0
BLOCK
  5
283
330
22A
100
AcDbEntity
  8
0
100
AcDbBlockBegin
  2
*D3
 70
     1
 10
0.0
 20
0.0
 30
0.0
  3
*D3
  1
*D3
  0
LINE
  5
284
330
22A
100
AcDbEntity
  8
0
  6
Continuous
 62
     0
370
    -2
100
AcDbLine
 10
112.6659545671
 20
259.4382102273
 30
0.0
 11
126.2820542056
 21
259.4382102273
 31
0.0
  0
LINE
  5
285
330
22A
100
AcDbEntity
  8
0
  6
Continuous
 62
     0
370
    -2
100
AcDbLine
 10
112.9801363853
 20
175.4382102273
 30
0.0
 11
126.2820542056
 21
175.4382102273
 31
0.0
  0
LINE
  5
286
330
22A
100
AcDbEntity
  8
0
  6
Continuous
 62
     0
370
    -2
100
AcDbLine
 10
126.1020542056
 20
256.9382102273
 30
0.0
 11
126.1020542056
 21
177.9382102273
 31
0.0
  0
INSERT
  5
287
330
22A
100
AcDbEntity
  8
0
 62
     0
370
    -2
100
AcDbBlockReference
  2
_CLOSED
 10
126.1020542056
 20
259.4382102273
 30
0.0
 41
2.5
 42
2.5
 43
2.5
 50
90.0
  0
INSERT
  5
288
330
22A
100
AcDbEntity
  8
0
 62
     0
370
    -2
100
AcDbBlockReference
  2
_CLOSED
 10
126.1020542056
 20
175.4382102273
 30
0.0
 41
2.5
 42
2.5
 43
2.5
 50
270.0
  0
MTEXT
  5
289
330
22A
100
AcDbEntity
  8
0
 62
     0
100
AcDbMText
 10
121.1020542056
 20
217.4382102273
 30
0.0
 40
3.0
 41
0.0
 71
     2
 72
     1
  1
\A1;84
 11
1.691768418476430E-16
 21
1.0
 31
0.0
 73
     1
 44
1.0
  0
POINT
  5
28A
330
22A
100
AcDbEntity
  8
Defpoints
 62
     0
100
AcDbPoint
 10
112.6034545671
 20
259.4382102273
 30
0.0
  0
POINT
  5
499
330
22A
100
AcDbEntity
  8
Defpoints
 62
     0
100
AcDbPoint
 10
112.9176363853
 20
175.4382102273
 30
0.0
  0
POINT
  5
49A
330
22A
100
AcDbEntity
  8
Defpoints
 62
     0
100
AcDbPoint
 10
126.1020542056
 20
175.4382102273
 30
0.0
  0
ENDBLK
  5
28B
330
22A
100
AcDbEntity
  8
0
  6
ByBlock
 62
     0
100
AcDbBlockEnd
  0
BLOCK
  5
22F
330
22B
100
AcDbEntity
  8
0
100
AcDbBlockBegin
  2
LOGO2_BL0
 70
     0
 10
333.1473869546
 20
37.5239270671
 30
0.0
  3
LOGO2_BL0
  1
LOGO2_BL0
  0
LINE
  5
230
330
22B
100
AcDbEntity
  8
0
  6
Continuous
 62
     7
100
AcDbLine
 10
324.8903121828
 20
40.7194184059
 30
0.0
 11
323.5859712535
 21
40.7194184059
 31
0.0
  0
LINE
  5
231
330
22B
100
AcDbEntity
  8
0
  6
Continuous
 62
     7
100
AcDbLine
 10
323.5859712535
 20
40.7194184059
 30
0.0
 11
323.5859712535
 21
30.260352346
 31
0.0
  0
LINE
  5
232
330
22B
100
AcDbEntity
  8
0
  6
Continuous
 62
     7
100
AcDbLine
 10
323.5859712535
 20
30.260352346
 30
0.0
 11
328.0670261417
 21
30.260352346
 31
0.0
  0
LINE
  5
233
330
22B
100
AcDbEntity
  8
0
  6
Continuous
 62
     7
100
AcDbLine
 10
328.0670261417
 20
30.260352346
 30
0.0
 11
328.0670261417
 21
31.4532066711
 31
0.0
  0
LINE
  5
234
330
22B
100
AcDbEntity
  8
0
  6
Continuous
 62
     7
100
AcDbLine
 10
328.0670261417
 20
31.4532066711
 30
0.0
 11
324.8903121828
 21
31.4532066711
 31
0.0
  0
LINE
  5
235
330
22B
100
AcDbEntity
  8
0
  6
Continuous
 62
     7
100
AcDbLine
 10
324.8903121828
 20
31.4532066711
 30
0.0
 11
324.8903121828
 21
40.7194184059
 31
0.0
  0
LINE
  5
236
330
22B
100
AcDbEntity
  8
0
  6
Continuous
 62
     7
100
AcDbLine
 10
339.8266383991
 20
40.7194184059
 30
0.0
 11
338.522820881
 21
40.7194184059
 31
0.0
  0
LINE
  5
237
330
22B
100
AcDbEntity
  8
0
  6
Continuous
 62
     7
100
AcDbLine
 10
338.522820881
 20
40.7194184059
 30
0.0
 11
338.522820881
 21
30.260352346
 31
0.0
  0
LINE
  5
238
330
22B
100
AcDbEntity
  8
0
  6
Continuous
 62
     7
100
AcDbLine
 10
338.522820881
 20
30.260352346
 30
0.0
 11
343.0040066221
 21
30.260352346
 31
0.0
  0
LINE
  5
239
330
22B
100
AcDbEntity
  8
0
  6
Continuous
 62
     7
100
AcDbLine
 10
343.0040066221
 20
30.260352346
 30
0.0
 11
343.0040066221
 21
31.4532066711
 31
0.0
  0
LINE
  5
23A
330
22B
100
AcDbEntity
  8
0
  6
Continuous
 62
     7
100
AcDbLine
 10
343.0040066221
 20
31.4532066711
 30
0.0
 11
339.8266383991
 21
31.4532066711
 31
0.0
  0
LINE
  5
23B
330
22B
100
AcDbEntity
  8
0
  6
Continuous
 62
     7
100
AcDbLine
 10
339.8266383991
 20
31.4532066711
 30
0.0
 11
339.8266383991
 21
40.7194184059
 31
0.0
  0
LWPOLYLINE
  5
23C
330
22B
100
AcDbEntity
  8
0
  6
Continuous
 62
     7
100
AcDbPolyline
 90
        2
 70
     0
 43
0.2
 10
321.9403661644
 20
26.9168010391
 10
321.9403661644
 20
25.0597377898
  0
LWPOLYLINE
  5
23D
330
22B
100
AcDbEntity
  8
0
  6
Continuous
 62
     7
100
AcDbPolyline
 90
        2
 70
     0
 43
0.2
 10
321.9403661644
 20
25.0597377898
 10
322.7360821748
 20
25.0597377898
  0
LWPOLYLINE
  5
23E
330
22B
100
AcDbEntity
  8
0
  6
Continuous
 62
     7
100
AcDbPolyline
 90
        2
 70
     0
 43
0.2
 10
322.7360821748
 20
25.0597377898
 10
322.7360821748
 20
25.2717193614
  0
LWPOLYLINE
  5
23F
330
22B
100
AcDbEntity
  8
0
  6
Continuous
 62
     7
100
AcDbPolyline
 90
        2
 70
     0
 43
0.2
 10
322.7360821748
 20
25.2717193614
 10
322.1719756593
 20
25.2717193614
  0
LWPOLYLINE
  5
240
330
22B
100
AcDbEntity
  8
0
  6
Continuous
 62
     7
100
AcDbPolyline
 90
        2
 70
     0
 43
0.2
 10
322.1719756593
 20
25.2717193614
 10
322.1719756593
 20
26.9168010391
  0
LWPOLYLINE
  5
241
330
22B
100
AcDbEntity
  8
0
  6
Continuous
 62
     7
100
AcDbPolyline
 90
        2
 70
     0
 43
0.2
 10
322.1719756593
 20
26.9168010391
 10
321.9403661644
 20
26.9168010391
  0
SPLINE
  5
242
330
22B
100
AcDbEntity
  8
0
  6
Continuous
 62
     7
100
AcDbSpline
 70
     3
 71
     3
 72
    35
 73
    31
 74
     0
 42
0.000000001
 43
0.0000001
 40
0.0
 40
0.0
 40
0.0
 40
0.0
 40
1.0
 40
1.0
 40
1.0
 40
2.0
 40
2.0
 40
2.0
 40
3.0
 40
3.0
 40
3.0
 40
4.0
 40
4.0
 40
4.0
 40
5.0
 40
5.0
 40
5.0
 40
6.0
 40
6.0
 40
6.0
 40
7.0
 40
7.0
 40
7.0
 40
8.0
 40
8.0
 40
8.0
 40
9.0
 40
9.0
 40
9.0
 40
10.0
 40
10.0
 40
10.0
 40
10.0
 10
324.1343754303
 20
26.2122894457
 30
0.0
 10
324.1343754303
 20
26.2122894457
 30
0.0
 10
324.1343754303
 20
25.5501741665
 30
0.0
 10
324.1343754303
 20
25.5501741665
 30
0.0
 10
324.1343754303
 20
25.2350805712
 30
0.0
 10
324.2822391191
 20
25.0204819432
 30
0.0
 10
324.6223256034
 20
25.0204819432
 30
0.0
 10
324.9618886764
 20
25.0204819432
 30
0.0
 10
325.1100140709
 20
25.2350805712
 30
0.0
 10
325.1100140709
 20
25.5501741665
 30
0.0
 10
325.1100140709
 20
25.5501741665
 30
0.0
 10
325.1100140709
 20
26.2122894457
 30
0.0
 10
325.1100140709
 20
26.2122894457
 30
0.0
 10
325.1100140709
 20
26.2122894457
 30
0.0
 10
324.887956832
 20
26.2122894457
 30
0.0
 10
324.887956832
 20
26.2122894457
 30
0.0
 10
324.887956832
 20
26.2122894457
 30
0.0
 10
324.887956832
 20
25.5752979083
 30
0.0
 10
324.887956832
 20
25.5752979083
 30
0.0
 10
324.887956832
 20
25.3894869011
 30
0.0
 10
324.8412423746
 20
25.2267059906
 30
0.0
 10
324.6223256034
 20
25.2267059906
 30
0.0
 10
324.402885421
 20
25.2267059906
 30
0.0
 10
324.3561709636
 20
25.3894869011
 30
0.0
 10
324.3561709636
 20
25.5752979083
 30
0.0
 10
324.3561709636
 20
25.5752979083
 30
0.0
 10
324.3561709636
 20
26.2122894457
 30
0.0
 10
324.3561709636
 20
26.2122894457
 30
0.0
 10
324.3561709636
 20
26.2122894457
 30
0.0
 10
324.1343754303
 20
26.2122894457
 30
0.0
 10
324.1343754303
 20
26.2122894457
 30
0.0
  0
SPLINE
  5
243
330
22B
100
AcDbEntity
  8
0
  6
Continuous
 62
     7
100
AcDbSpline
 70
     3
 71
     3
 72
    35
 73
    31
 74
     0
 42
0.000000001
 43
0.0000001
 40
0.0
 40
0.0
 40
0.0
 40
0.0
 40
1.0
 40
1.0
 40
1.0
 40
2.0
 40
2.0
 40
2.0
 40
3.0
 40
3.0
 40
3.0
 40
4.0
 40
4.0
 40
4.0
 40
5.0
 40
5.0
 40
5.0
 40
6.0
 40
6.0
 40
6.0
 40
7.0
 40
7.0
 40
7.0
 40
8.0
 40
8.0
 40
8.0
 40
9.0
 40
9.0
 40
9.0
 40
10.0
 40
10.0
 40
10.0
 40
10.0
 10
327.5331466281
 20
26.1709399539
 30
0.0
 10
327.4446901205
 20
26.2222342601
 30
0.0
 10
327.3312407238
 20
26.2473580019
 30
0.0
 10
327.2276052888
 20
26.2473580019
 30
0.0
 10
326.8727324356
 20
26.2473580019
 30
0.0
 10
326.5972872454
 20
25.9835587129
 30
0.0
 10
326.5972872454
 20
25.6260688032
 30
0.0
 10
326.5972872454
 20
25.2811407645
 30
0.0
 10
326.8757420505
 20
25.0210053545
 30
0.0
 10
327.2153051235
 20
25.0210053545
 30
0.0
 10
327.3312407238
 20
25.0210053545
 30
0.0
 10
327.4319973967
 20
25.0429886286
 30
0.0
 10
327.5331466281
 20
25.0968999912
 30
0.0
 10
327.5331466281
 20
25.0968999912
 30
0.0
 10
327.5331466281
 20
25.3795420867
 30
0.0
 10
327.5331466281
 20
25.3795420867
 30
0.0
 10
327.4492699692
 20
25.2863748774
 30
0.0
 10
327.345765387
 20
25.2272294019
 30
0.0
 10
327.2176604743
 20
25.2272294019
 30
0.0
 10
326.9839573343
 20
25.2272294019
 30
0.0
 10
326.8186902202
 20
25.3994317156
 30
0.0
 10
326.8186902202
 20
25.6360136177
 30
0.0
 10
326.8186902202
 20
25.8479951893
 30
0.0
 10
326.9864435379
 20
26.040087132
 30
0.0
 10
327.2032666639
 20
26.040087132
 30
0.0
 10
327.3360822782
 20
26.040087132
 30
0.0
 10
327.4446901205
 20
25.9861757693
 30
0.0
 10
327.5331466281
 20
25.8851573907
 30
0.0
 10
327.5331466281
 20
25.8851573907
 30
0.0
 10
327.5331466281
 20
26.1709399539
 30
0.0
 10
327.5331466281
 20
26.1709399539
 30
0.0
  0
SPLINE
  5
244
330
22B
100
AcDbEntity
  8
0
  6
Continuous
 62
     7
100
AcDbSpline
 70
     3
 71
     3
 72
    32
 73
    28
 74
     0
 42
0.000000001
 43
0.0000001
 40
0.0
 40
0.0
 40
0.0
 40
0.0
 40
1.0
 40
1.0
 40
1.0
 40
2.0
 40
2.0
 40
2.0
 40
3.0
 40
3.0
 40
3.0
 40
4.0
 40
4.0
 40
4.0
 40
5.0
 40
5.0
 40
5.0
 40
6.0
 40
6.0
 40
6.0
 40
7.0
 40
7.0
 40
7.0
 40
8.0
 40
8.0
 40
8.0
 40
9.0
 40
9.0
 40
9.0
 40
9.0
 10
330.0650178804
 20
25.5993748276
 30
0.0
 10
330.0650178804
 20
25.5993748276
 30
0.0
 10
330.0650178804
 20
25.6333965613
 30
0.0
 10
330.0650178804
 20
25.6333965613
 30
0.0
 10
330.0650178804
 20
25.9757075435
 30
0.0
 10
329.8921613025
 20
26.2473580019
 30
0.0
 10
329.5255116954
 20
26.2473580019
 30
0.0
 10
329.153889681
 20
26.2473580019
 30
0.0
 10
328.9641530891
 20
25.9809416564
 30
0.0
 10
328.9641530891
 20
25.6260688032
 30
0.0
 10
328.9641530891
 20
25.2863748774
 30
0.0
 10
329.1782283059
 20
25.0204819432
 30
0.0
 10
329.5303532498
 20
25.0204819432
 30
0.0
 10
329.754373281
 20
25.0204819432
 30
0.0
 10
329.9565408909
 20
25.1361558378
 30
0.0
 10
330.0650178804
 20
25.3355755385
 30
0.0
 10
330.0650178804
 20
25.3355755385
 30
0.0
 10
329.8773749337
 20
25.4423514412
 30
0.0
 10
329.8773749337
 20
25.4423514412
 30
0.0
 10
329.7938908332
 20
25.3036474499
 30
0.0
 10
329.7026864163
 20
25.2178079987
 30
0.0
 10
329.5331011591
 20
25.2178079987
 30
0.0
 10
329.3211195875
 20
25.2178079987
 30
0.0
 10
329.1881731204
 20
25.4025721833
 30
0.0
 10
329.1858177696
 20
25.5993748276
 30
0.0
 10
329.1858177696
 20
25.5993748276
 30
0.0
 10
330.0650178804
 20
25.5993748276
 30
0.0
 10
330.0650178804
 20
25.5993748276
 30
0.0
  0
SPLINE
  5
245
330
22B
100
AcDbEntity
  8
0
  6
Continuous
 62
     7
100
AcDbSpline
 70
     3
 71
     3
 72
    14
 73
    10
 74
     0
 42
0.000000001
 43
0.0000001
 40
0.0
 40
0.0
 40
0.0
 40
0.0
 40
1.0
 40
1.0
 40
1.0
 40
2.0
 40
2.0
 40
2.0
 40
3.0
 40
3.0
 40
3.0
 40
3.0
 10
329.1978562292
 20
25.7668664397
 30
0.0
 10
329.2254661746
 20
25.9317409954
 30
0.0
 10
329.3533093817
 20
26.054742648
 30
0.0
 10
329.5255116954
 20
26.054742648
 30
0.0
 10
329.7026864163
 20
26.054742648
 30
0.0
 10
329.816135813
 20
25.9390687534
 30
0.0
 10
329.8433531999
 20
25.7668664397
 30
0.0
 10
329.8433531999
 20
25.7668664397
 30
0.0
 10
329.1978562292
 20
25.7668664397
 30
0.0
 10
329.1978562292
 20
25.7668664397
 30
0.0
  0
SPLINE
  5
246
330
22B
100
AcDbEntity
  8
0
  6
Continuous
 62
     7
100
AcDbSpline
 70
     3
 71
     3
 72
    20
 73
    16
 74
     0
 42
0.000000001
 43
0.0000001
 40
0.0
 40
0.0
 40
0.0
 40
0.0
 40
1.0
 40
1.0
 40
1.0
 40
2.0
 40
2.0
 40
2.0
 40
3.0
 40
3.0
 40
3.0
 40
4.0
 40
4.0
 40
4.0
 40
5.0
 40
5.0
 40
5.0
 40
5.0
 10
332.0890493306
 20
25.9762309548
 30
0.0
 10
332.0890493306
 20
25.9762309548
 30
0.0
 10
332.5001888972
 20
25.4737561185
 30
0.0
 10
332.5001888972
 20
25.4737561185
 30
0.0
 10
332.3841224441
 20
25.3580822239
 30
0.0
 10
332.2463344226
 20
25.2277528132
 30
0.0
 10
332.0743938145
 20
25.2277528132
 30
0.0
 10
331.8969573879
 20
25.2277528132
 30
0.0
 10
331.7294657758
 20
25.3921039576
 30
0.0
 10
331.7294657758
 20
25.5690169729
 30
0.0
 10
331.7294657758
 20
25.7469768107
 30
0.0
 10
331.9392228494
 20
25.8731189311
 30
0.0
 10
332.0668043508
 20
25.9610520275
 30
0.0
 10
332.0668043508
 20
25.9610520275
 30
0.0
 10
332.0890493306
 20
25.9762309548
 30
0.0
 10
332.0890493306
 20
25.9762309548
 30
0.0
  0
SPLINE
  5
247
330
22B
100
AcDbEntity
  8
0
  6
Continuous
 62
     7
100
AcDbSpline
 70
     3
 71
     3
 72
    23
 73
    19
 74
     0
 42
0.000000001
 43
0.0000001
 40
0.0
 40
0.0
 40
0.0
 40
0.0
 40
1.0
 40
1.0
 40
1.0
 40
2.0
 40
2.0
 40
2.0
 40
3.0
 40
3.0
 40
3.0
 40
4.0
 40
4.0
 40
4.0
 40
5.0
 40
5.0
 40
5.0
 40
6.0
 40
6.0
 40
6.0
 40
6.0
 10
332.1383808444
 20
26.2672476309
 30
0.0
 10
332.1383808444
 20
26.2672476309
 30
0.0
 10
332.0767491653
 20
26.3457593241
 30
0.0
 10
332.0767491653
 20
26.3457593241
 30
0.0
 10
332.0228378026
 20
26.4143262028
 30
0.0
 10
331.9660476779
 20
26.4834164928
 30
0.0
 10
331.9660476779
 20
26.5771071133
 30
0.0
 10
331.9660476779
 20
26.6959214757
 30
0.0
 10
332.0619627964
 20
26.7733863463
 30
0.0
 10
332.1729259894
 20
26.7733863463
 30
0.0
 10
332.2961893477
 20
26.7733863463
 30
0.0
 10
332.3894874098
 20
26.7022024111
 30
0.0
 10
332.3894874098
 20
26.5718730004
 30
0.0
 10
332.3894874098
 20
26.4368328882
 30
0.0
 10
332.2613824971
 20
26.3604148401
 30
0.0
 10
332.1678227294
 20
26.2866138485
 30
0.0
 10
332.1678227294
 20
26.2866138485
 30
0.0
 10
332.1383808444
 20
26.2672476309
 30
0.0
 10
332.1383808444
 20
26.2672476309
 30
0.0
  0
SPLINE
  5
248
330
22B
100
AcDbEntity
  8
0
  6
Continuous
 62
     7
100
AcDbSpline
 70
     3
 71
     3
 72
    50
 73
    46
 74
     0
 42
0.000000001
 43
0.0000001
 40
0.0
 40
0.0
 40
0.0
 40
0.0
 40
1.0
 40
1.0
 40
1.0
 40
2.0
 40
2.0
 40
2.0
 40
3.0
 40
3.0
 40
3.0
 40
4.0
 40
4.0
 40
4.0
 40
5.0
 40
5.0
 40
5.0
 40
6.0
 40
6.0
 40
6.0
 40
7.0
 40
7.0
 40
7.0
 40
8.0
 40
8.0
 40
8.0
 40
9.0
 40
9.0
 40
9.0
 40
10.0
 40
10.0
 40
10.0
 40
11.0
 40
11.0
 40
11.0
 40
12.0
 40
12.0
 40
12.0
 40
13.0
 40
13.0
 40
13.0
 40
14.0
 40
14.0
 40
14.0
 40
15.0
 40
15.0
 40
15.0
 40
15.0
 10
332.8405370871
 20
25.0602612011
 30
0.0
 10
332.8405370871
 20
25.0602612011
 30
0.0
 10
333.1259270918
 20
25.0602612011
 30
0.0
 10
333.1259270918
 20
25.0602612011
 30
0.0
 10
333.1259270918
 20
25.0602612011
 30
0.0
 10
332.793560924
 20
25.471139062
 30
0.0
 10
332.793560924
 20
25.471139062
 30
0.0
 10
332.793560924
 20
25.471139062
 30
0.0
 10
333.0200671588
 20
25.7370319963
 30
0.0
 10
333.0200671588
 20
25.7370319963
 30
0.0
 10
333.0200671588
 20
25.7370319963
 30
0.0
 10
332.8718109116
 20
25.8898680923
 30
0.0
 10
332.8718109116
 20
25.8898680923
 30
0.0
 10
332.8718109116
 20
25.8898680923
 30
0.0
 10
332.6559037553
 20
25.6386306742
 30
0.0
 10
332.6559037553
 20
25.6386306742
 30
0.0
 10
332.6559037553
 20
25.6386306742
 30
0.0
 10
332.2688411079
 20
26.1065603655
 30
0.0
 10
332.2688411079
 20
26.1065603655
 30
0.0
 10
332.4242942604
 20
26.2206640263
 30
0.0
 10
332.6065722414
 20
26.3604148401
 30
0.0
 10
332.6065722414
 20
26.5697793553
 30
0.0
 10
332.6065722414
 20
26.8136890154
 30
0.0
 10
332.4045354843
 20
26.9571037083
 30
0.0
 10
332.1780292495
 20
26.9571037083
 30
0.0
 10
331.9338578837
 20
26.9571037083
 30
0.0
 10
331.7494862575
 20
26.8063612574
 30
0.0
 10
331.7494862575
 20
26.5498897263
 30
0.0
 10
331.7494862575
 20
26.3923429287
 30
0.0
 10
331.8481492853
 20
26.25468576
 30
0.0
 10
331.953485807
 20
26.1437225669
 30
0.0
 10
331.953485807
 20
26.1437225669
 30
0.0
 10
331.8379427652
 20
26.0599767609
 30
0.0
 10
331.8379427652
 20
26.0599767609
 30
0.0
 10
331.660244633
 20
25.9317409954
 30
0.0
 10
331.5129043554
 20
25.8040286411
 30
0.0
 10
331.5129043554
 20
25.5669233277
 30
0.0
 10
331.5129043554
 20
25.2465956195
 30
0.0
 10
331.7714695316
 20
25.0204819432
 30
0.0
 10
332.0818524253
 20
25.0204819432
 30
0.0
 10
332.3007691965
 20
25.0204819432
 30
0.0
 10
332.4979643992
 20
25.145577241
 30
0.0
 10
332.6382386243
 20
25.3114986192
 30
0.0
 10
332.6382386243
 20
25.3114986192
 30
0.0
 10
332.8405370871
 20
25.0602612011
 30
0.0
 10
332.8405370871
 20
25.0602612011
 30
0.0
  0
LWPOLYLINE
  5
249
330
22B
100
AcDbEntity
  8
0
  6
Continuous
 62
     7
100
AcDbPolyline
 90
        2
 70
     0
 43
0.2
 10
334.7759811768
 20
26.9168010391
 10
334.5446333876
 20
26.9168010391
  0
LWPOLYLINE
  5
24A
330
22B
100
AcDbEntity
  8
0
  6
Continuous
 62
     7
100
AcDbPolyline
 90
        2
 70
     0
 43
0.2
 10
334.5446333876
 20
26.9168010391
 10
334.5446333876
 20
25.0597377898
  0
LWPOLYLINE
  5
24B
330
22B
100
AcDbEntity
  8
0
  6
Continuous
 62
     7
100
AcDbPolyline
 90
        2
 70
     0
 43
0.2
 10
334.5446333876
 20
25.0597377898
 10
335.3399568395
 20
25.0597377898
  0
LWPOLYLINE
  5
24C
330
22B
100
AcDbEntity
  8
0
  6
Continuous
 62
     7
100
AcDbPolyline
 90
        2
 70
     0
 43
0.2
 10
335.3399568395
 20
25.0597377898
 10
335.3399568395
 20
25.2717193614
  0
LWPOLYLINE
  5
24D
330
22B
100
AcDbEntity
  8
0
  6
Continuous
 62
     7
100
AcDbPolyline
 90
        2
 70
     0
 43
0.2
 10
335.3399568395
 20
25.2717193614
 10
334.7759811768
 20
25.2717193614
  0
LWPOLYLINE
  5
24E
330
22B
100
AcDbEntity
  8
0
  6
Continuous
 62
     7
100
AcDbPolyline
 90
        2
 70
     0
 43
0.2
 10
334.7759811768
 20
25.2717193614
 10
334.7759811768
 20
26.9168010391
  0
LWPOLYLINE
  5
24F
330
22B
100
AcDbEntity
  8
0
  6
Continuous
 62
     7
100
AcDbPolyline
 90
        2
 70
     0
 43
0.2
 10
337.019060251
 20
26.2122894457
 10
336.7979189819
 20
26.2122894457
  0
LWPOLYLINE
  5
250
330
22B
100
AcDbEntity
  8
0
  6
Continuous
 62
     7
100
AcDbPolyline
 90
        2
 70
     0
 43
0.2
 10
336.7979189819
 20
26.2122894457
 10
336.7979189819
 20
25.0602612011
  0
LWPOLYLINE
  5
251
330
22B
100
AcDbEntity
  8
0
  6
Continuous
 62
     7
100
AcDbPolyline
 90
        2
 70
     0
 43
0.2
 10
336.7979189819
 20
25.0602612011
 10
337.019060251
 20
25.0602612011
  0
LWPOLYLINE
  5
252
330
22B
100
AcDbEntity
  8
0
  6
Continuous
 62
     7
100
AcDbPolyline
 90
        2
 70
     0
 43
0.2
 10
337.019060251
 20
25.0602612011
 10
337.019060251
 20
26.2122894457
  0
SPLINE
  5
253
330
22B
100
AcDbEntity
  8
0
  6
Continuous
 62
     7
100
AcDbSpline
 70
     3
 71
     3
 72
    17
 73
    13
 74
     0
 42
0.000000001
 43
0.0000001
 40
0.0
 40
0.0
 40
0.0
 40
0.0
 40
1.0
 40
1.0
 40
1.0
 40
2.0
 40
2.0
 40
2.0
 40
3.0
 40
3.0
 40
3.0
 40
4.0
 40
4.0
 40
4.0
 40
4.0
 10
336.9086204693
 20
26.894817765
 30
0.0
 10
336.8246129576
 20
26.894817765
 30
0.0
 10
336.7560460788
 20
26.825727475
 30
0.0
 10
336.7560460788
 20
26.7398880238
 30
0.0
 10
336.7560460788
 20
26.6556188065
 30
0.0
 10
336.8246129576
 20
26.5896689842
 30
0.0
 10
336.9086204693
 20
26.5896689842
 30
0.0
 10
336.9923662753
 20
26.5896689842
 30
0.0
 10
337.0611948597
 20
26.6556188065
 30
0.0
 10
337.0611948597
 20
26.7398880238
 30
0.0
 10
337.0611948597
 20
26.825727475
 30
0.0
 10
336.9923662753
 20
26.894817765
 30
0.0
 10
336.9086204693
 20
26.894817765
 30
0.0
  0
SPLINE
  5
254
330
22B
100
AcDbEntity
  8
0
  6
Continuous
 62
     7
100
AcDbSpline
 70
     3
 71
     3
 72
    17
 73
    13
 74
     0
 42
0.000000001
 43
0.0000001
 40
0.0
 40
0.0
 40
0.0
 40
0.0
 40
1.0
 40
1.0
 40
1.0
 40
2.0
 40
2.0
 40
2.0
 40
3.0
 40
3.0
 40
3.0
 40
4.0
 40
4.0
 40
4.0
 40
4.0
 10
339.1493441926
 20
25.2178079987
 30
0.0
 10
338.915379347
 20
25.2178079987
 30
0.0
 10
338.7850499363
 20
25.4198447558
 30
0.0
 10
338.7850499363
 20
25.6360136177
 30
0.0
 10
338.7850499363
 20
25.8506122457
 30
0.0
 10
338.9208751655
 20
26.0495085351
 30
0.0
 10
339.1493441926
 20
26.0495085351
 30
0.0
 10
339.3888048568
 20
26.0495085351
 30
0.0
 10
339.5243683804
 20
25.8605570602
 30
0.0
 10
339.5243683804
 20
25.6360136177
 30
0.0
 10
339.5243683804
 20
25.4098999414
 30
0.0
 10
339.3911602076
 20
25.2178079987
 30
0.0
 10
339.1493441926
 20
25.2178079987
 30
0.0
  0
SPLINE
  5
255
330
22B
100
AcDbEntity
  8
0
  6
Continuous
 62
     7
100
AcDbSpline
 70
     3
 71
     3
 72
    50
 73
    46
 74
     0
 42
0.000000001
 43
0.0000001
 40
0.0
 40
0.0
 40
0.0
 40
0.0
 40
1.0
 40
1.0
 40
1.0
 40
2.0
 40
2.0
 40
2.0
 40
3.0
 40
3.0
 40
3.0
 40
4.0
 40
4.0
 40
4.0
 40
5.0
 40
5.0
 40
5.0
 40
6.0
 40
6.0
 40
6.0
 40
7.0
 40
7.0
 40
7.0
 40
8.0
 40
8.0
 40
8.0
 40
9.0
 40
9.0
 40
9.0
 40
10.0
 40
10.0
 40
10.0
 40
11.0
 40
11.0
 40
11.0
 40
12.0
 40
12.0
 40
12.0
 40
13.0
 40
13.0
 40
13.0
 40
14.0
 40
14.0
 40
14.0
 40
15.0
 40
15.0
 40
15.0
 40
15.0
 10
339.7334711899
 20
26.2128128569
 30
0.0
 10
339.7334711899
 20
26.2128128569
 30
0.0
 10
339.5118065095
 20
26.2128128569
 30
0.0
 10
339.5118065095
 20
26.2128128569
 30
0.0
 10
339.5118065095
 20
26.2128128569
 30
0.0
 10
339.5118065095
 20
26.0154868014
 30
0.0
 10
339.5118065095
 20
26.0154868014
 30
0.0
 10
339.5118065095
 20
26.0154868014
 30
0.0
 10
339.5070958079
 20
26.0154868014
 30
0.0
 10
339.5070958079
 20
26.0154868014
 30
0.0
 10
339.4157605382
 20
26.158378083
 30
0.0
 10
339.2778416638
 20
26.2468345907
 30
0.0
 10
339.1051159388
 20
26.2468345907
 30
0.0
 10
338.772749771
 20
26.2468345907
 30
0.0
 10
338.5636469615
 20
25.9589583823
 30
0.0
 10
338.5636469615
 20
25.6433413757
 30
0.0
 10
338.5636469615
 20
25.3135922644
 30
0.0
 10
338.7607113114
 20
25.0204819432
 30
0.0
 10
339.1155841646
 20
25.0204819432
 30
0.0
 10
339.2778416638
 20
25.0204819432
 30
0.0
 10
339.4178541833
 20
25.1089384508
 30
0.0
 10
339.5070958079
 20
25.2397912728
 30
0.0
 10
339.5070958079
 20
25.2397912728
 30
0.0
 10
339.5118065095
 20
25.2397912728
 30
0.0
 10
339.5118065095
 20
25.2397912728
 30
0.0
 10
339.5118065095
 20
25.2397912728
 30
0.0
 10
339.5118065095
 20
25.0204819432
 30
0.0
 10
339.5118065095
 20
25.0204819432
 30
0.0
 10
339.5118065095
 20
24.7839000411
 30
0.0
 10
339.4552780904
 20
24.5970422113
 30
0.0
 10
339.1820573981
 20
24.5970422113
 30
0.0
 10
338.9797589354
 20
24.5970422113
 30
0.0
 10
338.8371293594
 20
24.7153331624
 30
0.0
 10
338.8371293594
 20
24.9215572098
 30
0.0
 10
338.8371293594
 20
24.9215572098
 30
0.0
 10
338.615464679
 20
24.9215572098
 30
0.0
 10
338.615464679
 20
24.9215572098
 30
0.0
 10
338.6204370862
 20
24.5970422113
 30
0.0
 10
338.8515231698
 20
24.4002395671
 30
0.0
 10
339.171850878
 20
24.4002395671
 30
0.0
 10
339.6198909404
 20
24.4002395671
 30
0.0
 10
339.7334711899
 20
24.6854987189
 30
0.0
 10
339.7334711899
 20
25.0822444751
 30
0.0
 10
339.7334711899
 20
25.0822444751
 30
0.0
 10
339.7334711899
 20
26.2128128569
 30
0.0
 10
339.7334711899
 20
26.2128128569
 30
0.0
  0
SPLINE
  5
256
330
22B
100
AcDbEntity
  8
0
  6
Continuous
 62
     7
100
AcDbSpline
 70
     3
 71
     3
 72
    44
 73
    40
 74
     0
 42
0.000000001
 43
0.0000001
 40
0.0
 40
0.0
 40
0.0
 40
0.0
 40
1.0
 40
1.0
 40
1.0
 40
2.0
 40
2.0
 40
2.0
 40
3.0
 40
3.0
 40
3.0
 40
4.0
 40
4.0
 40
4.0
 40
5.0
 40
5.0
 40
5.0
 40
6.0
 40
6.0
 40
6.0
 40
7.0
 40
7.0
 40
7.0
 40
8.0
 40
8.0
 40
8.0
 40
9.0
 40
9.0
 40
9.0
 40
10.0
 40
10.0
 40
10.0
 40
11.0
 40
11.0
 40
11.0
 40
12.0
 40
12.0
 40
12.0
 40
13.0
 40
13.0
 40
13.0
 40
13.0
 10
341.3023965253
 20
27.1978729007
 30
0.0
 10
341.3023965253
 20
27.1978729007
 30
0.0
 10
341.3023965253
 20
25.0597377898
 30
0.0
 10
341.3023965253
 20
25.0597377898
 30
0.0
 10
341.3023965253
 20
25.0597377898
 30
0.0
 10
341.5237995001
 20
25.0597377898
 30
0.0
 10
341.5237995001
 20
25.0597377898
 30
0.0
 10
341.5237995001
 20
25.0597377898
 30
0.0
 10
341.5237995001
 20
25.5894300131
 30
0.0
 10
341.5237995001
 20
25.5894300131
 30
0.0
 10
341.5237995001
 20
25.7993179395
 30
0.0
 10
341.5237995001
 20
26.0500319464
 30
0.0
 10
341.8090586519
 20
26.0500319464
 30
0.0
 10
342.0359574452
 20
26.0500319464
 30
0.0
 10
342.0629131266
 20
25.9170854793
 30
0.0
 10
342.0629131266
 20
25.7208062464
 30
0.0
 10
342.0629131266
 20
25.7208062464
 30
0.0
 10
342.0629131266
 20
25.0597377898
 30
0.0
 10
342.0629131266
 20
25.0597377898
 30
0.0
 10
342.0629131266
 20
25.0597377898
 30
0.0
 10
342.2848395126
 20
25.0597377898
 30
0.0
 10
342.2848395126
 20
25.0597377898
 30
0.0
 10
342.2848395126
 20
25.0597377898
 30
0.0
 10
342.2848395126
 20
25.7469768107
 30
0.0
 10
342.2848395126
 20
25.7469768107
 30
0.0
 10
342.2848395126
 20
26.027525261
 30
0.0
 10
342.2008320009
 20
26.2473580019
 30
0.0
 10
341.8757935911
 20
26.2473580019
 30
0.0
 10
341.7360427773
 20
26.2473580019
 30
0.0
 10
341.5978621973
 20
26.1808847684
 30
0.0
 10
341.5285102016
 20
26.0578831157
 30
0.0
 10
341.5285102016
 20
26.0578831157
 30
0.0
 10
341.5237995001
 20
26.0578831157
 30
0.0
 10
341.5237995001
 20
26.0578831157
 30
0.0
 10
341.5237995001
 20
26.0578831157
 30
0.0
 10
341.5237995001
 20
27.1978729007
 30
0.0
 10
341.5237995001
 20
27.1978729007
 30
0.0
 10
341.5237995001
 20
27.1978729007
 30
0.0
 10
341.3023965253
 20
27.1978729007
 30
0.0
 10
341.3023965253
 20
27.1978729007
 30
0.0
  0
LWPOLYLINE
  5
257
330
22B
100
AcDbEntity
  8
0
  6
Continuous
 62
     7
100
AcDbPolyline
 90
        2
 70
     0
 43
0.2
 10
344.1246301895
 20
26.005541987
 10
344.341060757
 20
26.005541987
  0
LWPOLYLINE
  5
258
330
22B
100
AcDbEntity
  8
0
  6
Continuous
 62
     7
100
AcDbPolyline
 90
        2
 70
     0
 43
0.2
 10
344.341060757
 20
26.005541987
 10
344.341060757
 20
26.2122894457
  0
LWPOLYLINE
  5
259
330
22B
100
AcDbEntity
  8
0
  6
Continuous
 62
     7
100
AcDbPolyline
 90
        2
 70
     0
 43
0.2
 10
344.341060757
 20
26.2122894457
 10
344.1246301895
 20
26.2122894457
  0
LWPOLYLINE
  5
25A
330
22B
100
AcDbEntity
  8
0
  6
Continuous
 62
     7
100
AcDbPolyline
 90
        2
 70
     0
 43
0.2
 10
344.1246301895
 20
26.2122894457
 10
344.1246301895
 20
26.65300175
  0
LWPOLYLINE
  5
25B
330
22B
100
AcDbEntity
  8
0
  6
Continuous
 62
     7
100
AcDbPolyline
 90
        2
 70
     0
 43
0.2
 10
344.1246301895
 20
26.65300175
 10
343.9029655091
 20
26.65300175
  0
LWPOLYLINE
  5
25C
330
22B
100
AcDbEntity
  8
0
  6
Continuous
 62
     7
100
AcDbPolyline
 90
        2
 70
     0
 43
0.2
 10
343.9029655091
 20
26.65300175
 10
343.9029655091
 20
26.2122894457
  0
LWPOLYLINE
  5
25D
330
22B
100
AcDbEntity
  8
0
  6
Continuous
 62
     7
100
AcDbPolyline
 90
        2
 70
     0
 43
0.2
 10
343.9029655091
 20
26.2122894457
 10
343.7823192072
 20
26.2122894457
  0
LWPOLYLINE
  5
25E
330
22B
100
AcDbEntity
  8
0
  6
Continuous
 62
     7
100
AcDbPolyline
 90
        2
 70
     0
 43
0.2
 10
343.7823192072
 20
26.2122894457
 10
343.7823192072
 20
26.005541987
  0
LWPOLYLINE
  5
25F
330
22B
100
AcDbEntity
  8
0
  6
Continuous
 62
     7
100
AcDbPolyline
 90
        2
 70
     0
 43
0.2
 10
343.7823192072
 20
26.005541987
 10
343.9029655091
 20
26.005541987
  0
LWPOLYLINE
  5
260
330
22B
100
AcDbEntity
  8
0
  6
Continuous
 62
     7
100
AcDbPolyline
 90
        2
 70
     0
 43
0.2
 10
343.9029655091
 20
26.005541987
 10
343.9029655091
 20
25.0597377898
  0
LWPOLYLINE
  5
261
330
22B
100
AcDbEntity
  8
0
  6
Continuous
 62
     7
100
AcDbPolyline
 90
        2
 70
     0
 43
0.2
 10
343.9029655091
 20
25.0597377898
 10
344.1246301895
 20
25.0597377898
  0
LWPOLYLINE
  5
262
330
22B
100
AcDbEntity
  8
0
  6
Continuous
 62
     7
100
AcDbPolyline
 90
        2
 70
     0
 43
0.2
 10
344.1246301895
 20
25.0597377898
 10
344.1246301895
 20
26.005541987
  0
SPLINE
  5
263
330
22B
100
AcDbEntity
  8
0
  6
Continuous
 62
     7
100
AcDbSpline
 70
     3
 71
     3
 72
    20
 73
    16
 74
     0
 42
0.000000001
 43
0.0000001
 40
0.0
 40
0.0
 40
0.0
 40
0.0
 40
1.0
 40
1.0
 40
1.0
 40
2.0
 40
2.0
 40
2.0
 40
3.0
 40
3.0
 40
3.0
 40
4.0
 40
4.0
 40
4.0
 40
5.0
 40
5.0
 40
5.0
 40
5.0
 10
331.9066404967
 20
35.4206642332
 30
0.0
 10
331.9066404967
 20
35.4206642332
 30
0.0
 10
334.2229971512
 20
32.5911028109
 30
0.0
 10
334.2229971512
 20
32.5911028109
 30
0.0
 10
333.5713500978
 20
31.9389323462
 30
0.0
 10
332.7944768938
 20
31.2030160755
 30
0.0
 10
331.8232872491
 20
31.2030160755
 30
0.0
 10
330.8247493647
 20
31.2030160755
 30
0.0
 10
329.8814313711
 20
32.1325945228
 30
0.0
 10
329.8814313711
 20
33.1317866713
 30
0.0
 10
329.8814313711
 20
34.1309788198
 30
0.0
 10
331.0602844442
 20
34.8375840585
 30
0.0
 10
331.7818069046
 20
35.3374418384
 30
0.0
 10
331.7818069046
 20
35.3374418384
 30
0.0
 10
331.9066404967
 20
35.4206642332
 30
0.0
 10
331.9066404967
 20
35.4206642332
 30
0.0
  0
SPLINE
  5
264
330
22B
100
AcDbEntity
  8
0
  6
Continuous
 62
     7
100
AcDbSpline
 70
     3
 71
     3
 72
    23
 73
    19
 74
     0
 42
0.000000001
 43
0.0000001
 40
0.0
 40
0.0
 40
0.0
 40
0.0
 40
1.0
 40
1.0
 40
1.0
 40
2.0
 40
2.0
 40
2.0
 40
3.0
 40
3.0
 40
3.0
 40
4.0
 40
4.0
 40
4.0
 40
5.0
 40
5.0
 40
5.0
 40
6.0
 40
6.0
 40
6.0
 40
6.0
 10
332.1840484793
 20
37.0584181529
 30
0.0
 10
332.1840484793
 20
37.0584181529
 30
0.0
 10
331.8375502067
 20
37.5017475137
 30
0.0
 10
331.8375502067
 20
37.5017475137
 30
0.0
 10
331.5317471618
 20
37.8898569837
 30
0.0
 10
331.2128588347
 20
38.2783590121
 30
0.0
 10
331.2128588347
 20
38.8053033262
 30
0.0
 10
331.2128588347
 20
39.4714750428
 30
0.0
 10
331.7541969591
 20
39.9151969621
 30
0.0
 10
332.3781032143
 20
39.9151969621
 30
0.0
 10
333.0718848763
 20
39.9151969621
 30
0.0
 10
333.5990908961
 20
39.5129553874
 30
0.0
 10
333.5990908961
 20
38.7779550864
 30
0.0
 10
333.5990908961
 20
38.0146905758
 30
0.0
 10
332.8778301414
 20
37.58457735
 30
0.0
 10
332.3507549745
 20
37.1688579346
 30
0.0
 10
332.3507549745
 20
37.1688579346
 30
0.0
 10
332.1840484793
 20
37.0584181529
 30
0.0
 10
332.1840484793
 20
37.0584181529
 30
0.0
  0
SPLINE
  5
265
330
22B
100
AcDbEntity
  8
0
  6
Continuous
 62
     7
100
AcDbSpline
 70
     3
 71
     3
 72
    50
 73
    46
 74
     0
 42
0.000000001
 43
0.0000001
 40
0.0
 40
0.0
 40
0.0
 40
0.0
 40
1.0
 40
1.0
 40
1.0
 40
2.0
 40
2.0
 40
2.0
 40
3.0
 40
3.0
 40
3.0
 40
4.0
 40
4.0
 40
4.0
 40
5.0
 40
5.0
 40
5.0
 40
6.0
 40
6.0
 40
6.0
 40
7.0
 40
7.0
 40
7.0
 40
8.0
 40
8.0
 40
8.0
 40
9.0
 40
9.0
 40
9.0
 40
10.0
 40
10.0
 40
10.0
 40
11.0
 40
11.0
 40
11.0
 40
12.0
 40
12.0
 40
12.0
 40
13.0
 40
13.0
 40
13.0
 40
14.0
 40
14.0
 40
14.0
 40
15.0
 40
15.0
 40
15.0
 40
15.0
 10
336.1376356422
 20
30.2598289348
 30
0.0
 10
336.1376356422
 20
30.2598289348
 30
0.0
 10
337.7468636468
 20
30.2598289348
 30
0.0
 10
337.7468636468
 20
30.2598289348
 30
0.0
 10
337.7468636468
 20
30.2598289348
 30
0.0
 10
335.8738363531
 20
32.5769707062
 30
0.0
 10
335.8738363531
 20
32.5769707062
 30
0.0
 10
335.8738363531
 20
32.5769707062
 30
0.0
 10
337.1501747786
 20
34.0744504008
 30
0.0
 10
337.1501747786
 20
34.0744504008
 30
0.0
 10
337.1501747786
 20
34.0744504008
 30
0.0
 10
336.3179508309
 20
34.9354619693
 30
0.0
 10
336.3179508309
 20
34.9354619693
 30
0.0
 10
336.3179508309
 20
34.9354619693
 30
0.0
 10
335.0973557076
 20
33.5201578469
 30
0.0
 10
335.0973557076
 20
33.5201578469
 30
0.0
 10
335.0973557076
 20
33.5201578469
 30
0.0
 10
332.9194413388
 20
36.1555336813
 30
0.0
 10
332.9194413388
 20
36.1555336813
 30
0.0
 10
333.7930147782
 20
36.7935720412
 30
0.0
 10
334.8196860194
 20
37.58457735
 30
0.0
 10
334.8196860194
 20
38.7634304231
 30
0.0
 10
334.8196860194
 20
40.1371233482
 30
0.0
 10
333.6817898795
 20
40.9416064976
 30
0.0
 10
332.4064982766
 20
40.9416064976
 30
0.0
 10
331.0330670573
 20
40.9416064976
 30
0.0
 10
329.9921328585
 20
40.0953812979
 30
0.0
 10
329.9921328585
 20
38.6527289358
 30
0.0
 10
329.9921328585
 20
37.7651542444
 30
0.0
 10
330.547472235
 20
36.9882810403
 30
0.0
 10
331.1436376918
 20
36.3638513739
 30
0.0
 10
331.1436376918
 20
36.3638513739
 30
0.0
 10
330.4917289328
 20
35.8922578035
 30
0.0
 10
330.4917289328
 20
35.8922578035
 30
0.0
 10
329.4931910484
 20
35.1709970488
 30
0.0
 10
328.6603128365
 20
34.4497362942
 30
0.0
 10
328.6603128365
 20
33.1181779778
 30
0.0
 10
328.6603128365
 20
31.3145026798
 30
0.0
 10
330.1173590091
 20
30.0379025487
 30
0.0
 10
331.8648984465
 20
30.0379025487
 30
0.0
 10
333.0997565274
 20
30.0379025487
 30
0.0
 10
334.2091267521
 20
30.7460780212
 30
0.0
 10
335.000001208
 20
31.6746096459
 30
0.0
 10
335.000001208
 20
31.6746096459
 30
0.0
 10
336.1376356422
 20
30.2598289348
 30
0.0
 10
336.1376356422
 20
30.2598289348
 30
0.0
  0
LINE
  5
266
330
22B
100
AcDbEntity
  8
0
  6
Continuous
 62
     7
100
AcDbLine
 10
321.9404970172
 20
28.2337038394
 30
0.0
 11
344.3544077449
 21
28.2337038394
 31
0.0
  0
LINE
  5
267
330
22B
100
AcDbEntity
  8
0
  6
Continuous
 62
     7
100
AcDbLine
 10
344.3544077449
 20
28.2337038394
 30
0.0
 11
344.3544077449
 21
50.6476145671
 31
0.0
  0
LINE
  5
268
330
22B
100
AcDbEntity
  8
0
  6
Continuous
 62
     7
100
AcDbLine
 10
344.3544077449
 20
50.6476145671
 30
0.0
 11
321.9404970172
 21
50.6476145671
 31
0.0
  0
LINE
  5
269
330
22B
100
AcDbEntity
  8
0
  6
Continuous
 62
     7
100
AcDbLine
 10
321.9404970172
 20
50.6476145671
 30
0.0
 11
321.9404970172
 21
28.2337038394
 31
0.0
  0
ENDBLK
  5
26A
330
22B
100
AcDbEntity
  8
0
  6
ByBlock
 62
     0
100
AcDbBlockEnd
  0
BLOCK
  5
28C
330
22C
100
AcDbEntity
  8
0
100
AcDbBlockBegin
  2
*T5
 70
     1
 10
0.0
 20
0.0
 30
0.0
  3
*T5
  1
*T5
  0
MTEXT
  5
28D
330
22C
100
AcDbEntity
  8
0
  6
Continuous
 62
     0
100
AcDbMText
 10
30.28622003006668
 20
-3.0
 30
0.0
 40
3.0
 41
40.18162670675557
 71
     4
 72
     5
  1
3A2_C_001
 73
     1
 44
1.0
  0
MTEXT
  5
28E
330
22C
100
AcDbEntity
  8
0
  6
Continuous
 62
     0
100
AcDbMText
 10
70.58784673682226
 20
-0.06
 30
0.0
 40
3.5
 41
20.03081335337778
 71
     1
 72
     5
  1
Rev:00
 73
     1
 44
1.0
  0
MTEXT
  5
28F
330
22C
100
AcDbEntity
  8
0
  6
Continuous
 62
     0
100
AcDbMText
 10
30.28622003006668
 20
-6.06
 30
0.0
 40
3.5
 41
40.18162670675557
 71
     1
 72
     5
  1
Scale:1:1
 73
     1
 44
1.0
  0
MTEXT
  5
290
330
22C
100
AcDbEntity
  8
0
  6
Continuous
 62
     0
100
AcDbMText
 10
70.58784673682226
 20
-9.0
 30
0.0
 40
3.5
 41
20.03081335337778
 71
     4
 72
     5
  1
A3
 73
     1
 44
1.0
  0
MTEXT
  5
291
330
22C
100
AcDbEntity
  8
0
  6
Continuous
 62
     0
100
AcDbMText
 10
30.28622003006668
 20
-17.0
 30
0.0
 40
3.5
 41
60.33244006013336
 71
     4
 72
     5
  1
BROM 3.0 
 73
     1
 44
1.0
  0
MTEXT
  5
292
330
22C
100
AcDbEntity
  8
0
  6
Continuous
 62
     0
100
AcDbMText
 10
30.28622003006668
 20
-24.5
 30
0.0
 40
2.5
 41
60.33244006013336
 71
     4
 72
     5
  1
DATE:31/03/2014
 73
     1
 44
1.0
  0
MTEXT
  5
293
330
22C
100
AcDbEntity
  8
0
  6
Continuous
 62
     0
100
AcDbMText
 10
0.06
 20
-27.06
 30
0.0
 40
1.85
 41
90.55866009020004
 71
     1
 72
     5
  1
Any integral or partial reproductions are prohibited \Pwithout prior authorisation of L & L Luce & Light s.r.l., \Pin accordance with the law in force. \PAll rights reserved.
 73
     1
 44
1.0
  0
LINE
  5
294
330
22C
100
AcDbEntity
  8
0
  6
Continuous
 62
     0
370
    -2
100
AcDbLine
 10
0.0
 20
0.0
 30
0.0
 11
10.07540667668889
 21
0.0
 31
0.0
  0
LINE
  5
295
330
22C
100
AcDbEntity
  8
0
  6
Continuous
 62
     0
370
    -2
100
AcDbLine
 10
10.07540667668889
 20
0.0
 30
0.0
 11
20.15081335337779
 21
0.0
 31
0.0
  0
LINE
  5
296
330
22C
100
AcDbEntity
  8
0
  6
Continuous
 62
     0
370
    -2
100
AcDbLine
 10
20.15081335337779
 20
0.0
 30
0.0
 11
30.22622003006668
 21
0.0
 31
0.0
  0
LINE
  5
297
330
22C
100
AcDbEntity
  8
0
  6
Continuous
 62
     0
370
    -2
100
AcDbLine
 10
0.0
 20
0.0
 30
0.0
 11
0.0
 21
-6.0
 31
0.0
  0
LINE
  5
298
330
22C
100
AcDbEntity
  8
0
  6
Continuous
 62
     0
370
    -2
100
AcDbLine
 10
0.0
 20
-6.0
 30
0.0
 11
0.0
 21
-12.0
 31
0.0
  0
LINE
  5
299
330
22C
100
AcDbEntity
  8
0
  6
Continuous
 62
     0
370
    -2
100
AcDbLine
 10
0.0
 20
-12.0
 30
0.0
 11
0.0
 21
-22.0
 31
0.0
  0
LINE
  5
29A
330
22C
100
AcDbEntity
  8
0
  6
Continuous
 62
     0
370
    -2
100
AcDbLine
 10
0.0
 20
-22.0
 30
0.0
 11
0.0
 21
-27.0
 31
0.0
  0
LINE
  5
29B
330
22C
100
AcDbEntity
  8
0
  6
Continuous
 62
     0
370
    -2
100
AcDbLine
 10
30.22622003006668
 20
0.0
 30
0.0
 11
70.52784673682226
 21
0.0
 31
0.0
  0
LINE
  5
29C
330
22C
100
AcDbEntity
  8
0
  6
Continuous
 62
     0
370
    -2
100
AcDbLine
 10
30.22622003006668
 20
0.0
 30
0.0
 11
30.22622003006668
 21
-6.0
 31
0.0
  0
LINE
  5
29D
330
22C
100
AcDbEntity
  8
0
  6
Continuous
 62
     0
370
    -2
100
AcDbLine
 10
70.52784673682226
 20
0.0
 30
0.0
 11
90.67866009020004
 21
0.0
 31
0.0
  0
LINE
  5
49B
330
22C
100
AcDbEntity
  8
0
  6
Continuous
 62
     0
370
    -2
100
AcDbLine
 10
70.52784673682226
 20
0.0
 30
0.0
 11
70.52784673682226
 21
-6.0
 31
0.0
  0
LINE
  5
49C
330
22C
100
AcDbEntity
  8
0
  6
Continuous
 62
     0
370
    -2
100
AcDbLine
 10
90.67866009020004
 20
0.0
 30
0.0
 11
90.67866009020004
 21
-6.0
 31
0.0
  0
LINE
  5
49D
330
22C
100
AcDbEntity
  8
0
  6
Continuous
 62
     0
370
    -2
100
AcDbLine
 10
30.22622003006668
 20
-6.0
 30
0.0
 11
70.52784673682226
 21
-6.0
 31
0.0
  0
LINE
  5
49E
330
22C
100
AcDbEntity
  8
0
  6
Continuous
 62
     0
370
    -2
100
AcDbLine
 10
30.22622003006668
 20
-6.0
 30
0.0
 11
30.22622003006668
 21
-12.0
 31
0.0
  0
LINE
  5
49F
330
22C
100
AcDbEntity
  8
0
  6
Continuous
 62
     0
370
    -2
100
AcDbLine
 10
70.52784673682226
 20
-6.0
 30
0.0
 11
90.67866009020004
 21
-6.0
 31
0.0
  0
LINE
  5
4A0
330
22C
100
AcDbEntity
  8
0
  6
Continuous
 62
     0
370
    -2
100
AcDbLine
 10
70.52784673682226
 20
-6.0
 30
0.0
 11
70.52784673682226
 21
-12.0
 31
0.0
  0
LINE
  5
4A1
330
22C
100
AcDbEntity
  8
0
  6
Continuous
 62
     0
370
    -2
100
AcDbLine
 10
90.67866009020004
 20
-6.0
 30
0.0
 11
90.67866009020004
 21
-12.0
 31
0.0
  0
LINE
  5
4A2
330
22C
100
AcDbEntity
  8
0
  6
Continuous
 62
     0
370
    -2
100
AcDbLine
 10
30.22622003006668
 20
-12.0
 30
0.0
 11
70.52784673682226
 21
-12.0
 31
0.0
  0
LINE
  5
4A3
330
22C
100
AcDbEntity
  8
0
  6
Continuous
 62
     0
370
    -2
100
AcDbLine
 10
70.52784673682226
 20
-12.0
 30
0.0
 11
90.67866009020003
 21
-12.0
 31
0.0
  0
LINE
  5
4A4
330
22C
100
AcDbEntity
  8
0
  6
Continuous
 62
     0
370
    -2
100
AcDbLine
 10
30.22622003006668
 20
-12.0
 30
0.0
 11
30.22622003006668
 21
-22.0
 31
0.0
  0
LINE
  5
4A5
330
22C
100
AcDbEntity
  8
0
  6
Continuous
 62
     0
370
    -2
100
AcDbLine
 10
90.67866009020004
 20
-12.0
 30
0.0
 11
90.67866009020004
 21
-22.0
 31
0.0
  0
LINE
  5
4A6
330
22C
100
AcDbEntity
  8
0
  6
Continuous
 62
     0
370
    -2
100
AcDbLine
 10
30.22622003006668
 20
-22.0
 30
0.0
 11
70.52784673682226
 21
-22.0
 31
0.0
  0
LINE
  5
4A7
330
22C
100
AcDbEntity
  8
0
  6
Continuous
 62
     0
370
    -2
100
AcDbLine
 10
70.52784673682226
 20
-22.0
 30
0.0
 11
90.67866009020003
 21
-22.0
 31
0.0
  0
LINE
  5
4A8
330
22C
100
AcDbEntity
  8
0
  6
Continuous
 62
     0
370
    -2
100
AcDbLine
 10
30.22622003006668
 20
-22.0
 30
0.0
 11
30.22622003006668
 21
-27.0
 31
0.0
  0
LINE
  5
4A9
330
22C
100
AcDbEntity
  8
0
  6
Continuous
 62
     0
370
    -2
100
AcDbLine
 10
90.67866009020004
 20
-22.0
 30
0.0
 11
90.67866009020004
 21
-27.0
 31
0.0
  0
LINE
  5
4AA
330
22C
100
AcDbEntity
  8
0
  6
Continuous
 62
     0
370
    -2
100
AcDbLine
 10
0.0
 20
-27.0
 30
0.0
 11
10.07540667668889
 21
-27.0
 31
0.0
  0
LINE
  5
4AB
330
22C
100
AcDbEntity
  8
0
  6
Continuous
 62
     0
370
    -2
100
AcDbLine
 10
10.07540667668889
 20
-27.0
 30
0.0
 11
20.15081335337779
 21
-27.0
 31
0.0
  0
LINE
  5
4AC
330
22C
100
AcDbEntity
  8
0
  6
Continuous
 62
     0
370
    -2
100
AcDbLine
 10
20.15081335337779
 20
-27.0
 30
0.0
 11
30.22622003006668
 21
-27.0
 31
0.0
  0
LINE
  5
4AD
330
22C
100
AcDbEntity
  8
0
  6
Continuous
 62
     0
370
    -2
100
AcDbLine
 10
30.22622003006668
 20
-27.0
 30
0.0
 11
70.52784673682226
 21
-27.0
 31
0.0
  0
LINE
  5
4AE
330
22C
100
AcDbEntity
  8
0
  6
Continuous
 62
     0
370
    -2
100
AcDbLine
 10
70.52784673682226
 20
-27.0
 30
0.0
 11
90.67866009020004
 21
-27.0
 31
0.0
  0
LINE
  5
4AF
330
22C
100
AcDbEntity
  8
0
  6
Continuous
 62
     0
370
    -2
100
AcDbLine
 10
0.0
 20
-27.0
 30
0.0
 11
0.0
 21
-40.0
 31
0.0
  0
LINE
  5
4B0
330
22C
100
AcDbEntity
  8
0
  6
Continuous
 62
     0
370
    -2
100
AcDbLine
 10
90.67866009020004
 20
-27.0
 30
0.0
 11
90.67866009020004
 21
-40.0
 31
0.0
  0
LINE
  5
4B1
330
22C
100
AcDbEntity
  8
0
  6
Continuous
 62
     0
370
    -2
100
AcDbLine
 10
0.0
 20
-40.0
 30
0.0
 11
10.07540667668889
 21
-40.0
 31
0.0
  0
LINE
  5
4B2
330
22C
100
AcDbEntity
  8
0
  6
Continuous
 62
     0
370
    -2
100
AcDbLine
 10
10.07540667668889
 20
-40.0
 30
0.0
 11
20.15081335337779
 21
-40.0
 31
0.0
  0
LINE
  5
4B3
330
22C
100
AcDbEntity
  8
0
  6
Continuous
 62
     0
370
    -2
100
AcDbLine
 10
20.15081335337779
 20
-40.0
 30
0.0
 11
30.22622003006668
 21
-40.0
 31
0.0
  0
LINE
  5
4B4
330
22C
100
AcDbEntity
  8
0
  6
Continuous
 62
     0
370
    -2
100
AcDbLine
 10
30.22622003006668
 20
-40.0
 30
0.0
 11
70.52784673682226
 21
-40.0
 31
0.0
  0
LINE
  5
4B5
330
22C
100
AcDbEntity
  8
0
  6
Continuous
 62
     0
370
    -2
100
AcDbLine
 10
70.52784673682226
 20
-40.0
 30
0.0
 11
90.67866009020004
 21
-40.0
 31
0.0
  0
ENDBLK
  5
29E
330
22C
100
AcDbEntity
  8
0
100
AcDbBlockEnd
  0
ENDSEC
  0
SECTION
  2
ENTITIES
  0
MTEXT
  5
29F
330
225
100
AcDbEntity
  8
0
  6
Continuous
 62
     2
100
AcDbMText
 10
1.6467220993
 20
53.595027386
 30
0.0
 40
4.0
 41
2.2857142857
 71
     1
 72
     1
  1
1
  7
TEXTSTYLE_2
 73
     1
 44
0.9
  0
MTEXT
  5
2A0
330
225
100
AcDbEntity
  8
0
  6
Continuous
 62
     2
100
AcDbMText
 10
1.6467220993
 20
153.595027386
 30
0.0
 40
4.0
 41
3.1428571429
 71
     1
 72
     1
  1
2
  7
TEXTSTYLE_2
 73
     1
 44
0.9
  0
MTEXT
  5
2A1
330
225
100
AcDbEntity
  8
0
  6
Continuous
 62
     2
100
AcDbMText
 10
1.6467220993
 20
253.595027386
 30
0.0
 40
4.0
 41
2.8571428571
 71
     1
 72
     1
  1
3
  7
TEXTSTYLE_2
 73
     1
 44
0.9
  0
MTEXT
  5
2A2
330
225
100
AcDbEntity
  8
0
  6
Continuous
 62
     2
100
AcDbMText
 10
414.6467220993
 20
60.6268709614
 30
0.0
 40
4.0
 41
2.2857142857
 71
     1
 72
     1
  1
1
  7
TEXTSTYLE_2
 73
     1
 44
0.9
  0
MTEXT
  5
2A3
330
225
100
AcDbEntity
  8
0
  6
Continuous
 62
     2
100
AcDbMText
 10
414.6467220993
 20
160.6268709614
 30
0.0
 40
4.0
 41
3.1428571429
 71
     1
 72
     1
  1
2
  7
TEXTSTYLE_2
 73
     1
 44
0.9
  0
MTEXT
  5
2A4
330
225
100
AcDbEntity
  8
0
  6
Continuous
 62
     2
100
AcDbMText
 10
414.6467220993
 20
260.6268709614
 30
0.0
 40
4.0
 41
2.8571428571
 71
     1
 72
     1
  1
3
  7
TEXTSTYLE_2
 73
     1
 44
0.9
  0
MTEXT
  5
2A5
330
225
100
AcDbEntity
  8
0
  6
Continuous
 62
     2
100
AcDbMText
 10
362.154890719
 20
5.35876025
 30
0.0
 40
4.0
 41
3.6
 71
     1
 72
     1
  1
A
  7
TEXTSTYLE_3
 73
     1
 44
0.9
  0
MTEXT
  5
2A6
330
225
100
AcDbEntity
  8
0
  6
Continuous
 62
     2
100
AcDbMText
 10
262.154890719
 20
5.35876025
 30
0.0
 40
4.0
 41
3.6
 71
     1
 72
     1
  1
B
  7
TEXTSTYLE_3
 73
     1
 44
0.9
  0
MTEXT
  5
2A7
330
225
100
AcDbEntity
  8
0
  6
Continuous
 62
     2
100
AcDbMText
 10
162.154890719
 20
5.35876025
 30
0.0
 40
4.0
 41
3.6
 71
     1
 72
     1
  1
C
  7
TEXTSTYLE_3
 73
     1
 44
0.9
  0
MTEXT
  5
2A8
330
225
100
AcDbEntity
  8
0
  6
Continuous
 62
     2
100
AcDbMText
 10
55.7978688212
 20
5.5353441916
 30
0.0
 40
4.0
 41
3.6
 71
     1
 72
     1
  1
D
  7
TEXTSTYLE_3
 73
     1
 44
0.9
  0
MTEXT
  5
2A9
330
225
100
AcDbEntity
  8
0
  6
Continuous
 62
     2
100
AcDbMText
 10
362.154890719
 20
295.35876025
 30
0.0
 40
4.0
 41
3.6
 71
     1
 72
     1
  1
A
  7
TEXTSTYLE_3
 73
     1
 44
0.9
  0
MTEXT
  5
2AA
330
225
100
AcDbEntity
  8
0
  6
Continuous
 62
     2
100
AcDbMText
 10
262.154890719
 20
295.35876025
 30
0.0
 40
4.0
 41
3.6
 71
     1
 72
     1
  1
B
  7
TEXTSTYLE_3
 73
     1
 44
0.9
  0
MTEXT
  5
2AB
330
225
100
AcDbEntity
  8
0
  6
Continuous
 62
     2
100
AcDbMText
 10
162.154890719
 20
295.35876025
 30
0.0
 40
4.0
 41
3.6
 71
     1
 72
     1
  1
C
  7
TEXTSTYLE_3
 73
     1
 44
0.9
  0
MTEXT
  5
2AC
330
225
100
AcDbEntity
  8
0
  6
Continuous
 62
     2
100
AcDbMText
 10
53.9878834197
 20
295.579490177
 30
0.0
 40
4.0
 41
3.6
 71
     1
 72
     1
  1
D
  7
TEXTSTYLE_3
 73
     1
 44
0.9
  0
DIMENSION
  5
2AD
330
225
100
AcDbEntity
  8
0
  6
Continuous
 62
     2
100
AcDbDimension
  2
*D1
 10
110.0958806818
 20
30.3735795455
 30
0.0
 11
75.0958806818
 21
30.3735795455
 31
0.0
 70
   160
 71
     2
 42
70.0
  3
DIMSTYLE_1
100
AcDbAlignedDimension
 13
40.0958806818
 23
40.5960744337
 33
0.0
 14
110.0958806818
 24
41.0987653428
 34
0.0
100
AcDbRotatedDimension
1001
ACAD
1000
DSTYLE
1002
{
1070
   147
1040
2.0
1002
}
  0
DIMENSION
  5
2AE
330
225
100
AcDbEntity
  8
0
  6
Continuous
 62
     2
100
AcDbDimension
  2
*D2
 10
126.1020542056
 20
43.12357954550001
 30
0.0
 11
126.1020542056
 21
78.12357954550001
 31
0.0
 70
   160
 71
     2
 42
70.0
  3
DIMSTYLE_1
100
AcDbAlignedDimension
 13
113.6807406644
 23
113.1235795455
 33
0.0
 14
114.2121252098
 24
43.1235795455
 34
0.0
 50
270.0
100
AcDbRotatedDimension
1001
ACAD
1000
DSTYLE
1002
{
1070
   147
1040
2.0
1002
}
  0
DIMENSION
  5
2AF
330
225
100
AcDbEntity
  8
0
  6
Continuous
 62
     2
100
AcDbDimension
  2
*D3
 10
126.1020542056
 20
175.4382102273
 30
0.0
 11
126.1020542056
 21
217.4382102273
 31
0.0
 70
   160
 71
     2
 42
83.99999999999997
  3
DIMSTYLE_1
100
AcDbAlignedDimension
 13
112.6034545671
 23
259.4382102273
 33
0.0
 14
112.9176363853
 24
175.4382102273
 34
0.0
 50
270.0
100
AcDbRotatedDimension
1001
ACAD
1000
DSTYLE
1002
{
1070
   147
1040
2.0
1002
}
  0
INSERT
  5
2B0
330
225
100
AcDbEntity
  8
0
  6
Continuous
 62
     2
100
AcDbBlockReference
  2
LOGO2_BL0
 10
333.1473869546
 20
37.5239270671
 30
0.0
  0
INSERT
  5
2B1
330
225
100
AcDbEntity
  8
0
  6
Continuous
 62
     2
100
AcDbBlockReference
  2
*T5
 10
319.3213399098
 20
51.0239270671
 30
0.0
  0
LINE
  5
2B2
330
225
100
AcDbEntity
  8
0
  6
Continuous
 62
     7
100
AcDbLine
 10
0.0
 20
0.0
 30
0.0
 11
0.0
 21
297.0
 31
0.0
  0
LWPOLYLINE
  5
2B3
330
225
100
AcDbEntity
  8
0
  6
Continuous
 62
     7
100
AcDbPolyline
 90
        2
 70
     0
 43
0.1000000003
 10
7.0536312849
 20
0.0
 10
7.0536312849
 20
297.0
  0
LWPOLYLINE
  5
2B4
330
225
100
AcDbEntity
  8
0
  6
Continuous
 62
     7
100
AcDbPolyline
 90
        2
 70
     0
 43
0.4999999952
 10
10.0536312849
 20
10.0318435754
 10
10.0536312849
 20
287.0
  0
LINE
  5
2B5
330
225
100
AcDbEntity
  8
0
  6
Continuous
 62
     7
100
AcDbLine
 10
0.0
 20
0.0
 30
0.0
 11
420.0
 21
0.0
 31
0.0
  0
LWPOLYLINE
  5
2B6
330
225
100
AcDbEntity
  8
0
  6
Continuous
 62
     7
100
AcDbPolyline
 90
        2
 70
     0
 43
0.1000000003
 10
0.0
 20
7.0318435754
 10
420.0
 20
7.0318435754
  0
LWPOLYLINE
  5
2B7
330
225
100
AcDbEntity
  8
0
  6
Continuous
 62
     7
100
AcDbPolyline
 90
        2
 70
     0
 43
0.4999999952
 10
10.0536312849
 20
10.0318435754
 10
410.0
 20
10.0318435754
  0
LINE
  5
2B8
330
225
100
AcDbEntity
  8
0
  6
Continuous
 62
     7
100
AcDbLine
 10
113.0
 20
297.0
 30
0.0
 11
113.0
 21
290.0
 31
0.0
  0
LINE
  5
2B9
330
225
100
AcDbEntity
  8
0
  6
Continuous
 62
     7
100
AcDbLine
 10
113.0
 20
7.0
 30
0.0
 11
113.0
 21
0.0
 31
0.0
  0
LWPOLYLINE
  5
2BA
330
225
100
AcDbEntity
  8
0
  6
Continuous
 62
     7
100
AcDbPolyline
 90
        2
 70
     0
 43
0.1000000003
 10
123.0
 20
10.0
 10
123.0
 20
0.0
  0
LWPOLYLINE
  5
2BB
330
225
100
AcDbEntity
  8
0
  6
Continuous
 62
     7
100
AcDbPolyline
 90
        2
 70
     0
 43
0.1000000003
 10
123.0
 20
287.0
 10
123.0
 20
297.0
  0
LINE
  5
2BC
330
225
100
AcDbEntity
  8
0
  6
Continuous
 62
     7
100
AcDbLine
 10
0.0
 20
99.9681564246
 30
0.0
 11
7.0
 21
99.9681564246
 31
0.0
  0
LINE
  5
2BD
330
225
100
AcDbEntity
  8
0
  6
Continuous
 62
     7
100
AcDbLine
 10
413.0
 20
107.0
 30
0.0
 11
420.0
 21
107.0
 31
0.0
  0
LWPOLYLINE
  5
2BE
330
225
100
AcDbEntity
  8
0
  6
Continuous
 62
     7
100
AcDbPolyline
 90
        2
 70
     0
 43
0.1000000003
 10
210.0
 20
10.0
 10
210.0
 20
0.0
  0
LWPOLYLINE
  5
2BF
330
225
100
AcDbEntity
  8
0
  6
Continuous
 62
     7
100
AcDbPolyline
 90
        2
 70
     0
 43
0.1000000003
 10
210.0
 20
287.0
 10
210.0
 20
297.0
  0
LWPOLYLINE
  5
2C0
330
225
100
AcDbEntity
  8
0
  6
Continuous
 62
     7
100
AcDbPolyline
 90
        2
 70
     0
 43
0.1000000003
 10
10.0
 20
148.5
 10
0.0
 20
148.5
  0
LWPOLYLINE
  5
2C1
330
225
100
AcDbEntity
  8
0
  6
Continuous
 62
     7
100
AcDbPolyline
 90
        2
 70
     0
 43
0.1000000003
 10
410.0
 20
148.5
 10
420.0
 20
148.5
  0
LINE
  5
2C2
330
225
100
AcDbEntity
  8
0
  6
Continuous
 62
     7
100
AcDbLine
 10
0.0
 20
199.9681564246
 30
0.0
 11
7.0
 21
199.9681564246
 31
0.0
  0
LWPOLYLINE
  5
2C3
330
225
100
AcDbEntity
  8
0
  6
Continuous
 62
     7
100
AcDbPolyline
 90
        2
 70
     0
 43
0.1000000003
 10
10.0
 20
202.9681564246
 10
0.0
 20
202.9681564246
  0
LWPOLYLINE
  5
2C4
330
225
100
AcDbEntity
  8
0
  6
Continuous
 62
     7
100
AcDbPolyline
 90
        2
 70
     0
 43
0.1000000003
 10
410.0
 20
210.0
 10
420.0
 20
210.0
  0
LINE
  5
2C5
330
225
100
AcDbEntity
  8
0
  6
Continuous
 62
     7
100
AcDbLine
 10
313.0
 20
297.0
 30
0.0
 11
313.0
 21
290.0
 31
0.0
  0
LINE
  5
2C6
330
225
100
AcDbEntity
  8
0
  6
Continuous
 62
     7
100
AcDbLine
 10
313.0
 20
7.0
 30
0.0
 11
313.0
 21
0.0
 31
0.0
  0
LWPOLYLINE
  5
2C7
330
225
100
AcDbEntity
  8
0
  6
Continuous
 62
     7
100
AcDbPolyline
 90
        2
 70
     0
 43
0.4999999952
 10
10.0536312849
 20
287.0
 10
410.0
 20
287.0
  0
LWPOLYLINE
  5
2C8
330
225
100
AcDbEntity
  8
0
  6
Continuous
 62
     7
100
AcDbPolyline
 90
        2
 70
     0
 43
0.1000000003
 10
0.0
 20
290.0
 10
420.0
 20
290.0
  0
LINE
  5
2C9
330
225
100
AcDbEntity
  8
0
  6
Continuous
 62
     7
100
AcDbLine
 10
0.0
 20
297.0
 30
0.0
 11
420.0
 21
297.0
 31
0.0
  0
LWPOLYLINE
  5
2CA
330
225
100
AcDbEntity
  8
0
  6
Continuous
 62
     7
100
AcDbPolyline
 90
        2
 70
     0
 43
0.4999999952
 10
410.0
 20
10.0318435754
 10
410.0
 20
287.0
  0
LWPOLYLINE
  5
2CB
330
225
100
AcDbEntity
  8
0
  6
Continuous
 62
     7
100
AcDbPolyline
 90
        2
 70
     0
 43
0.1000000003
 10
413.0
 20
0.0
 10
413.0
 20
297.0
  0
LINE
  5
2CC
330
225
100
AcDbEntity
  8
0
  6
Continuous
 62
     7
100
AcDbLine
 10
420.0
 20
0.0
 30
0.0
 11
420.0
 21
297.0
 31
0.0
  0
LINE
  5
2CD
330
225
100
AcDbEntity
  8
02___PRT_ALL_AXES
  6
Continuous
 62
     7
100
AcDbLine
 10
37.8958806818
 20
51.1585795455
 30
0.0
 11
37.8958806818
 21
55.0885795455
 31
0.0
  0
LINE
  5
2CE
330
225
100
AcDbEntity
  8
02___PRT_ALL_AXES
  6
Continuous
 62
     7
100
AcDbLine
 10
39.7158806818
 20
49.3235795455
 30
0.0
 11
39.7158806818
 21
56.9235795455
 31
0.0
  0
LINE
  5
2CF
330
225
100
AcDbEntity
  8
02___PRT_ALL_AXES
  6
Continuous
 62
     7
100
AcDbLine
 10
40.0958806818
 20
43.1235795455
 30
0.0
 11
40.0958806818
 21
111.0235795455
 31
0.0
  0
LINE
  5
2D0
330
225
100
AcDbEntity
  8
02___PRT_ALL_AXES
  6
Continuous
 62
     7
100
AcDbLine
 10
41.0958806818
 20
43.1235795455
 30
0.0
 11
41.0958806818
 21
111.0235795455
 31
0.0
  0
LINE
  5
2D1
330
225
100
AcDbEntity
  8
7_ALL_FEATURES
  6
Continuous
 62
     7
100
AcDbLine
 10
41.3958806818
 20
43.1235795455
 30
0.0
 11
41.3958806818
 21
45.2235795455
 31
0.0
  0
LINE
  5
2D2
330
225
100
AcDbEntity
  8
02___PRT_ALL_AXES
  6
Continuous
 62
     7
100
AcDbLine
 10
41.3958806818
 20
45.2235795455
 30
0.0
 11
41.3958806818
 21
110.3735795455
 31
0.0
  0
LINE
  5
2D3
330
225
100
AcDbEntity
  8
02___PRT_ALL_AXES
  6
Continuous
 62
     7
100
AcDbLine
 10
110.0958806818
 20
43.1235795455
 30
0.0
 11
109.0958806818
 21
43.1235795455
 31
0.0
  0
LINE
  5
2D4
330
225
100
AcDbEntity
  8
7_ALL_FEATURES
  6
Continuous
 62
     7
100
AcDbLine
 10
108.7958806818
 20
43.1235795455
 30
0.0
 11
41.3958806818
 21
43.1235795455
 31
0.0
  0
LINE
  5
2D5
330
225
100
AcDbEntity
  8
02___PRT_ALL_AXES
  6
Continuous
 62
     7
100
AcDbLine
 10
41.0958806818
 20
43.1235795455
 30
0.0
 11
40.0958806818
 21
43.1235795455
 31
0.0
  0
LINE
  5
2D6
330
225
100
AcDbEntity
  8
02___PRT_ALL_AXES
  6
Continuous
 62
     9
100
AcDbLine
 10
42.1958806818
 20
113.1235795455
 30
0.0
 11
42.1958806818
 21
112.1235795455
 31
0.0
  0
LINE
  5
2D7
330
225
100
AcDbEntity
  8
02___PRT_ALL_AXES
  6
Continuous
 62
     9
100
AcDbLine
 10
110.0958806818
 20
45.1235795455
 30
0.0
 11
109.0958806818
 21
45.1235795455
 31
0.0
  0
LINE
  5
2D8
330
225
100
AcDbEntity
  8
02___PRT_ALL_AXES
  6
Continuous
 62
     9
100
AcDbLine
 10
40.0958806818
 20
45.1235795455
 30
0.0
 11
41.0958806818
 21
45.1235795455
 31
0.0
  0
LINE
  5
2D9
330
225
100
AcDbEntity
  8
7_ALL_FEATURES
  6
Continuous
 62
     9
100
AcDbLine
 10
108.7958806818
 20
45.2235795455
 30
0.0
 11
41.3958806818
 21
45.2235795455
 31
0.0
  0
LINE
  5
2DA
330
225
100
AcDbEntity
  8
02___PRT_ALL_AXES
  6
Continuous
 62
     7
100
AcDbLine
 10
40.0958806818
 20
49.3235795455
 30
0.0
 11
39.7158806818
 21
49.3235795455
 31
0.0
  0
LINE
  5
2DB
330
225
100
AcDbEntity
  8
02___PRT_ALL_AXES
  6
Continuous
 62
     7
100
AcDbLine
 10
110.0958806818
 20
49.3235795455
 30
0.0
 11
110.4758806818
 21
49.3235795455
 31
0.0
  0
LINE
  5
2DC
330
225
100
AcDbEntity
  8
02___PRT_ALL_AXES
  6
Continuous
 62
     7
100
AcDbLine
 10
41.3958806818
 20
49.6235795455
 30
0.0
 11
41.0958806818
 21
49.6235795455
 31
0.0
  0
LINE
  5
2DD
330
225
100
AcDbEntity
  8
02___PRT_ALL_AXES
  6
Continuous
 62
     7
100
AcDbLine
 10
108.7958806818
 20
49.6235795455
 30
0.0
 11
109.0958806818
 21
49.6235795455
 31
0.0
  0
LINE
  5
2DE
330
225
100
AcDbEntity
  8
02___PRT_ALL_AXES
  6
Continuous
 62
     7
100
AcDbLine
 10
41.3958806818
 20
56.6235795455
 30
0.0
 11
41.0958806818
 21
56.6235795455
 31
0.0
  0
LINE
  5
2DF
330
225
100
AcDbEntity
  8
02___PRT_ALL_AXES
  6
Continuous
 62
     7
100
AcDbLine
 10
108.7958806818
 20
56.6235795455
 30
0.0
 11
109.0958806818
 21
56.6235795455
 31
0.0
  0
LINE
  5
2E0
330
225
100
AcDbEntity
  8
02___PRT_ALL_AXES
  6
Continuous
 62
     7
100
AcDbLine
 10
40.0958806818
 20
56.9235795455
 30
0.0
 11
39.7158806818
 21
56.9235795455
 31
0.0
  0
LINE
  5
2E1
330
225
100
AcDbEntity
  8
02___PRT_ALL_AXES
  6
Continuous
 62
     7
100
AcDbLine
 10
110.0958806818
 20
56.9235795455
 30
0.0
 11
110.4758806818
 21
56.9235795455
 31
0.0
  0
LINE
  5
2E2
330
225
100
AcDbEntity
  8
02___PRT_ALL_AXES
  6
Continuous
 62
     9
100
AcDbLine
 10
107.9958806818
 20
113.1235795455
 30
0.0
 11
107.9958806818
 21
112.1235795455
 31
0.0
  0
LINE
  5
2E3
330
225
100
AcDbEntity
  8
7_ALL_FEATURES
  6
Continuous
 62
     7
100
AcDbLine
 10
108.7958806818
 20
45.2235795455
 30
0.0
 11
108.7958806818
 21
43.1235795455
 31
0.0
  0
LINE
  5
2E4
330
225
100
AcDbEntity
  8
02___PRT_ALL_AXES
  6
Continuous
 62
     7
100
AcDbLine
 10
108.7958806818
 20
45.2235795455
 30
0.0
 11
108.7958806818
 21
110.3735795455
 31
0.0
  0
LINE
  5
2E5
330
225
100
AcDbEntity
  8
02___PRT_ALL_AXES
  6
Continuous
 62
     7
100
AcDbLine
 10
109.0958806818
 20
111.0235795455
 30
0.0
 11
109.0958806818
 21
43.1235795455
 31
0.0
  0
LINE
  5
2E6
330
225
100
AcDbEntity
  8
02___PRT_ALL_AXES
  6
Continuous
 62
     9
100
AcDbLine
 10
110.0958806818
 20
111.0235795455
 30
0.0
 11
109.0958806818
 21
111.0235795455
 31
0.0
  0
LINE
  5
2E7
330
225
100
AcDbEntity
  8
02___PRT_ALL_AXES
  6
Continuous
 62
     9
100
AcDbLine
 10
40.0958806818
 20
111.0235795455
 30
0.0
 11
41.0958806818
 21
111.0235795455
 31
0.0
  0
LINE
  5
2E8
330
225
100
AcDbEntity
  8
02___PRT_ALL_AXES
  6
Continuous
 62
     7
100
AcDbLine
 10
42.8958806818
 20
111.8735795455
 30
0.0
 11
107.2958806818
 21
111.8735795455
 31
0.0
  0
LINE
  5
2E9
330
225
100
AcDbEntity
  8
02___PRT_ALL_AXES
  6
Continuous
 62
     7
100
AcDbLine
 10
107.9958806818
 20
112.1235795455
 30
0.0
 11
42.1958806818
 21
112.1235795455
 31
0.0
  0
LINE
  5
2EA
330
225
100
AcDbEntity
  8
02___PRT_ALL_AXES
  6
Continuous
 62
     7
100
AcDbLine
 10
110.0958806818
 20
111.0235795455
 30
0.0
 11
110.0958806818
 21
43.1235795455
 31
0.0
  0
LINE
  5
2EB
330
225
100
AcDbEntity
  8
02___PRT_ALL_AXES
  6
Continuous
 62
     7
100
AcDbLine
 10
110.4758806818
 20
49.3235795455
 30
0.0
 11
110.4758806818
 21
56.9235795455
 31
0.0
  0
LINE
  5
2EC
330
225
100
AcDbEntity
  8
02___PRT_ALL_AXES
  6
Continuous
 62
     7
100
AcDbLine
 10
112.2958806818
 20
51.1585795455
 30
0.0
 11
112.2958806818
 21
55.0885795455
 31
0.0
  0
LINE
  5
2ED
330
225
100
AcDbEntity
  8
02___PRT_ALL_AXES
  6
Continuous
 62
     7
100
AcDbLine
 10
107.9958806818
 20
113.1235795455
 30
0.0
 11
42.1958806818
 21
113.1235795455
 31
0.0
  0
LINE
  5
2EE
330
225
100
AcDbEntity
  8
02___PRT_ALL_AXES
  6
Continuous
 62
     7
100
AcDbLine
 10
40.0958806818
 20
175.4382102273
 30
0.0
 11
110.0958806818
 21
175.4382102273
 31
0.0
  0
LINE
  5
2EF
330
225
100
AcDbEntity
  8
02___PRT_ALL_AXES
  6
Continuous
 62
     7
100
AcDbLine
 10
37.8958806818
 20
219.4032102273
 30
0.0
 11
37.8958806818
 21
215.4732102273
 31
0.0
  0
LINE
  5
2F0
330
225
100
AcDbEntity
  8
7_ALL_FEATURES
  6
Continuous
 62
     7
100
AcDbLine
 10
56.7958806818
 20
252.6382102273
 30
0.0
 11
56.5958806818
 21
252.4382102273
 31
0.0
  0
LINE
  5
2F1
330
225
100
AcDbEntity
  8
02___PRT_ALL_AXES
  6
Continuous
 62
     9
100
AcDbLine
 10
110.0958806818
 20
177.4382102273
 30
0.0
 11
109.0958806818
 21
177.4382102273
 31
0.0
  0
LINE
  5
2F2
330
225
100
AcDbEntity
  8
02___PRT_ALL_AXES
  6
Continuous
 62
     9
100
AcDbLine
 10
40.0958806818
 20
177.4382102273
 30
0.0
 11
41.0958806818
 21
177.4382102273
 31
0.0
  0
LINE
  5
2F3
330
225
100
AcDbEntity
  8
02___PRT_ALL_AXES
  6
Continuous
 62
     7
100
AcDbLine
 10
39.7158806818
 20
221.2382102273
 30
0.0
 11
39.7158806818
 21
213.6382102273
 31
0.0
  0
LINE
  5
2F4
330
225
100
AcDbEntity
  8
02___PRT_ALL_AXES
  6
Continuous
 62
     7
100
AcDbLine
 10
40.0958806818
 20
175.4382102273
 30
0.0
 11
40.0958806818
 21
259.4382102273
 31
0.0
  0
LINE
  5
2F5
330
225
100
AcDbEntity
  8
02___PRT_ALL_AXES
  6
Continuous
 62
     7
100
AcDbLine
 10
41.0958806818
 20
175.4382102273
 30
0.0
 11
41.0958806818
 21
259.4382102273
 31
0.0
  0
LINE
  5
2F6
330
225
100
AcDbEntity
  8
7_ALL_FEATURES
  6
Continuous
 62
     7
100
AcDbLine
 10
41.3958806818
 20
182.4382102273
 30
0.0
 11
41.3958806818
 21
184.5382102273
 31
0.0
  0
LINE
  5
2F7
330
225
100
AcDbEntity
  8
02___PRT_ALL_AXES
  6
Continuous
 62
     7
100
AcDbLine
 10
41.3958806818
 20
184.5382102273
 30
0.0
 11
41.3958806818
 21
208.9382102273
 31
0.0
  0
LINE
  5
2F8
330
225
100
AcDbEntity
  8
02___PRT_ALL_AXES
  6
Continuous
 62
     7
100
AcDbLine
 10
41.3958806818
 20
243.4382102273
 30
0.0
 11
41.3958806818
 21
250.3382102273
 31
0.0
  0
LINE
  5
2F9
330
225
100
AcDbEntity
  8
7_ALL_FEATURES
  6
Continuous
 62
     7
100
AcDbLine
 10
41.3958806818
 20
250.3382102273
 30
0.0
 11
41.3958806818
 21
252.4382102273
 31
0.0
  0
LINE
  5
2FA
330
225
100
AcDbEntity
  8
7_ALL_FEATURES
  6
Continuous
 62
     7
100
AcDbLine
 10
41.5958806818
 20
223.4382102273
 30
0.0
 11
41.5958806818
 21
211.4382102273
 31
0.0
  0
LINE
  5
2FB
330
225
100
AcDbEntity
  8
7_ALL_FEATURES
  6
Continuous
 62
     7
100
AcDbLine
 10
41.3958806818
 20
182.4382102273
 30
0.0
 11
108.7958806818
 21
182.4382102273
 31
0.0
  0
LINE
  5
2FC
330
225
100
AcDbEntity
  8
7_ALL_FEATURES
  6
Continuous
 62
     7
100
AcDbLine
 10
42.1632309874
 20
221.4382102273
 30
0.0
 11
42.1632309874
 21
213.4382102273
 31
0.0
  0
LINE
  5
2FD
330
225
100
AcDbEntity
  8
02___PRT_ALL_AXES
  6
Continuous
 62
     9
100
AcDbLine
 10
42.1958806818
 20
175.4382102273
 30
0.0
 11
42.1958806818
 21
182.4382102273
 31
0.0
  0
LINE
  5
2FE
330
225
100
AcDbEntity
  8
02___PRT_ALL_AXES
  6
Continuous
 62
     9
100
AcDbLine
 10
42.1958806818
 20
210.2443052215
 30
0.0
 11
42.1958806818
 21
211.4382102273
 31
0.0
  0
LINE
  5
2FF
330
225
100
AcDbEntity
  8
02___PRT_ALL_AXES
  6
Continuous
 62
     9
100
AcDbLine
 10
42.1958806818
 20
223.4382102273
 30
0.0
 11
42.1958806818
 21
242.132115233
 31
0.0
  0
LINE
  5
300
330
225
100
AcDbEntity
  8
02___PRT_ALL_AXES
  6
Continuous
 62
     9
100
AcDbLine
 10
42.1958806818
 20
252.4382102273
 30
0.0
 11
42.1958806818
 21
259.4382102273
 31
0.0
  0
LINE
  5
301
330
225
100
AcDbEntity
  8
7_ALL_FEATURES
  6
Continuous
 62
     7
100
AcDbLine
 10
42.2602676022
 20
213.4382102273
 30
0.0
 11
42.2602676022
 21
221.4382102273
 31
0.0
  0
LINE
  5
302
330
225
100
AcDbEntity
  8
7_ALL_FEATURES
  6
Continuous
 62
     9
100
AcDbLine
 10
43.6958806818
 20
223.4382102273
 30
0.0
 11
43.6958806818
 21
211.4382102273
 31
0.0
  0
LINE
  5
303
330
225
100
AcDbEntity
  8
02___PRT_ALL_AXES
  6
Continuous
 62
     7
100
AcDbLine
 10
43.7958806818
 20
211.4382102273
 30
0.0
 11
43.7958806818
 21
210.4382102273
 31
0.0
  0
LINE
  5
304
330
225
100
AcDbEntity
  8
3_ALL_AXES
  6
Continuous
 62
     7
100
AcDbLine
 10
45.5958806818
 20
241.9382102273
 30
0.0
 11
45.5958806818
 21
239.8882102273
 31
0.0
  0
LINE
  5
305
330
225
100
AcDbEntity
  8
7_ALL_FEATURES
  6
Continuous
 62
     7
100
AcDbLine
 10
45.5958806818
 20
239.8882102273
 30
0.0
 11
45.5958806818
 21
241.9382102273
 31
0.0
  0
LINE
  5
306
330
225
100
AcDbEntity
  8
7_ALL_FEATURES
  6
Continuous
 62
     9
100
AcDbLine
 10
41.3958806818
 20
184.5382102273
 30
0.0
 11
108.7958806818
 21
184.5382102273
 31
0.0
  0
LINE
  5
307
330
225
100
AcDbEntity
  8
02___PRT_ALL_AXES
  6
Continuous
 62
     7
100
AcDbLine
 10
47.3458806818
 20
208.1882102273
 30
0.0
 11
47.3458806818
 21
212.6882102273
 31
0.0
  0
LINE
  5
308
330
225
100
AcDbEntity
  8
02___PRT_ALL_AXES
  6
Continuous
 62
     7
100
AcDbLine
 10
49.4958806818
 20
223.9882102273
 30
0.0
 11
49.4958806818
 21
223.4382102273
 31
0.0
  0
LINE
  5
309
330
225
100
AcDbEntity
  8
7_ALL_FEATURES
  6
Continuous
 62
     7
100
AcDbLine
 10
49.9958806818
 20
240.9382102273
 30
0.0
 11
49.9958806818
 21
224.4382102273
 31
0.0
  0
LINE
  5
30A
330
225
100
AcDbEntity
  8
02___PRT_ALL_AXES
  6
Continuous
 62
     7
100
AcDbLine
 10
49.9958806818
 20
212.4382102273
 30
0.0
 11
49.9958806818
 21
214.4882102273
 31
0.0
  0
LINE
  5
30B
330
225
100
AcDbEntity
  8
02___PRT_ALL_AXES
  6
Continuous
 62
     7
100
AcDbLine
 10
49.9958806818
 20
223.4382102273
 30
0.0
 11
49.9958806818
 21
224.4382102273
 31
0.0
  0
LINE
  5
30C
330
225
100
AcDbEntity
  8
7_ALL_FEATURES
  6
Continuous
 62
     7
100
AcDbLine
 10
50.5632309874
 20
238.9382102273
 30
0.0
 11
50.5632309874
 21
226.4382102273
 31
0.0
  0
LINE
  5
30D
330
225
100
AcDbEntity
  8
7_ALL_FEATURES
  6
Continuous
 62
     7
100
AcDbLine
 10
50.6602676022
 20
226.4382102273
 30
0.0
 11
50.6602676022
 21
238.9382102273
 31
0.0
  0
LINE
  5
30E
330
225
100
AcDbEntity
  8
02___PRT_ALL_AXES
  6
Continuous
 62
     7
100
AcDbLine
 10
50.9958806818
 20
212.4382102273
 30
0.0
 11
50.9958806818
 21
214.4882102273
 31
0.0
  0
LINE
  5
30F
330
225
100
AcDbEntity
  8
02___PRT_ALL_AXES
  6
Continuous
 62
     7
100
AcDbLine
 10
50.9958806818
 20
223.4382102273
 30
0.0
 11
50.9958806818
 21
224.4382102273
 31
0.0
  0
LINE
  5
310
330
225
100
AcDbEntity
  8
7_ALL_FEATURES
  6
Continuous
 62
     7
100
AcDbLine
 10
51.0958806818
 20
224.4382102273
 30
0.0
 11
51.0958806818
 21
223.4382102273
 31
0.0
  0
LINE
  5
311
330
225
100
AcDbEntity
  8
7_ALL_FEATURES
  6
Continuous
 62
     7
100
AcDbLine
 10
51.0958806818
 20
209.2382102521
 30
0.0
 11
51.0958806818
 21
211.7382102273
 31
0.0
  0
LINE
  5
312
330
225
100
AcDbEntity
  8
7_ALL_FEATURES
  6
Continuous
 62
     9
100
AcDbLine
 10
52.0958806818
 20
240.9382102273
 30
0.0
 11
52.0958806818
 21
224.4382102273
 31
0.0
  0
LINE
  5
313
330
225
100
AcDbEntity
  8
02___PRT_ALL_AXES
  6
Continuous
 62
     7
100
AcDbLine
 10
52.1958806818
 20
241.9382102273
 30
0.0
 11
52.1958806818
 21
240.9382102273
 31
0.0
  0
LINE
  5
314
330
225
100
AcDbEntity
  8
02___PRT_ALL_AXES
  6
Continuous
 62
     7
100
AcDbLine
 10
52.1958806818
 20
224.4382102273
 30
0.0
 11
52.1958806818
 21
223.4382102273
 31
0.0
  0
LINE
  5
315
330
225
100
AcDbEntity
  8
02___PRT_ALL_AXES
  6
Continuous
 62
     7
100
AcDbLine
 10
52.8458806818
 20
212.6882102273
 30
0.0
 11
52.8458806818
 21
208.1882102273
 31
0.0
  0
LINE
  5
316
330
225
100
AcDbEntity
  8
02___PRT_ALL_AXES
  6
Continuous
 62
     9
100
AcDbLine
 10
68.0958806818
 20
196.7382102273
 30
0.0
 11
68.5958806818
 21
196.7382102273
 31
0.0
  0
LINE
  5
317
330
225
100
AcDbEntity
  8
02___PRT_ALL_AXES
  6
Continuous
 62
     9
100
AcDbLine
 10
69.5958806818
 20
196.7382102273
 30
0.0
 11
74.0958806818
 21
196.7382102273
 31
0.0
  0
LINE
  5
318
330
225
100
AcDbEntity
  8
02___PRT_ALL_AXES
  6
Continuous
 62
     9
100
AcDbLine
 10
76.0958806818
 20
196.7382102273
 30
0.0
 11
80.5958806818
 21
196.7382102273
 31
0.0
  0
LINE
  5
319
330
225
100
AcDbEntity
  8
02___PRT_ALL_AXES
  6
Continuous
 62
     9
100
AcDbLine
 10
81.5958806818
 20
196.7382102273
 30
0.0
 11
82.0958806818
 21
196.7382102273
 31
0.0
  0
LINE
  5
31A
330
225
100
AcDbEntity
  8
02___PRT_ALL_AXES
  6
Continuous
 62
     7
100
AcDbLine
 10
68.0958806818
 20
197.2382102273
 30
0.0
 11
68.5958806818
 21
197.2382102273
 31
0.0
  0
LINE
  5
31B
330
225
100
AcDbEntity
  8
02___PRT_ALL_AXES
  6
Continuous
 62
     7
100
AcDbLine
 10
69.5958806818
 20
197.2382102273
 30
0.0
 11
74.0958806818
 21
197.2382102273
 31
0.0
  0
LINE
  5
31C
330
225
100
AcDbEntity
  8
02___PRT_ALL_AXES
  6
Continuous
 62
     7
100
AcDbLine
 10
76.0958806818
 20
197.2382102273
 30
0.0
 11
80.5958806818
 21
197.2382102273
 31
0.0
  0
LINE
  5
31D
330
225
100
AcDbEntity
  8
02___PRT_ALL_AXES
  6
Continuous
 62
     7
100
AcDbLine
 10
81.5958806818
 20
197.2382102273
 30
0.0
 11
82.0958806818
 21
197.2382102273
 31
0.0
  0
LINE
  5
31E
330
225
100
AcDbEntity
  8
02___PRT_ALL_AXES
  6
Continuous
 62
     7
100
AcDbLine
 10
68.0958806818
 20
197.2382102273
 30
0.0
 11
67.0958806818
 21
198.2382102273
 31
0.0
  0
LINE
  5
31F
330
225
100
AcDbEntity
  8
02___PRT_ALL_AXES
  6
Continuous
 62
     7
100
AcDbLine
 10
102.3458806818
 20
202.6882102273
 30
0.0
 11
97.8458806818
 21
202.6882102273
 31
0.0
  0
LINE
  5
320
330
225
100
AcDbEntity
  8
02___PRT_ALL_AXES
  6
Continuous
 62
     7
100
AcDbLine
 10
83.0958806818
 20
202.7382102273
 30
0.0
 11
67.0958806818
 21
202.7382102273
 31
0.0
  0
LINE
  5
321
330
225
100
AcDbEntity
  8
02___PRT_ALL_AXES
  6
Continuous
 62
     7
100
AcDbLine
 10
83.0958806818
 20
205.7382102273
 30
0.0
 11
67.0958806818
 21
205.7382102273
 31
0.0
  0
LINE
  5
322
330
225
100
AcDbEntity
  8
02___PRT_ALL_AXES
  6
Continuous
 62
     7
100
AcDbLine
 10
67.0958806818
 20
209.2382102273
 30
0.0
 11
67.0958806818
 21
205.7382102273
 31
0.0
  0
LINE
  5
323
330
225
100
AcDbEntity
  8
02___PRT_ALL_AXES
  6
Continuous
 62
     7
100
AcDbLine
 10
67.0958806818
 20
202.7382102273
 30
0.0
 11
67.0958806818
 21
198.2382102273
 31
0.0
  0
LINE
  5
324
330
225
100
AcDbEntity
  8
02___PRT_ALL_AXES
  6
Continuous
 62
     7
100
AcDbLine
 10
68.0958806818
 20
196.7382102273
 30
0.0
 11
68.0958806818
 21
197.2382102273
 31
0.0
  0
LINE
  5
325
330
225
100
AcDbEntity
  8
02___PRT_ALL_AXES
  6
Continuous
 62
     7
100
AcDbLine
 10
97.8458806818
 20
208.1882102273
 30
0.0
 11
102.3458806818
 21
208.1882102273
 31
0.0
  0
LINE
  5
326
330
225
100
AcDbEntity
  8
7_ALL_FEATURES
  6
Continuous
 62
     7
100
AcDbLine
 10
88.6884010875
 20
209.2382102273
 30
0.0
 11
61.5033602762
 21
209.2382102273
 31
0.0
  0
LINE
  5
327
330
225
100
AcDbEntity
  8
7_ALL_FEATURES
  6
Continuous
 62
     7
100
AcDbLine
 10
52.8458806818
 20
209.2382102273
 30
0.0
 11
51.0958807165
 21
209.2382102273
 31
0.0
  0
LINE
  5
328
330
225
100
AcDbEntity
  8
7_ALL_FEATURES
  6
Continuous
 62
     7
100
AcDbLine
 10
61.6652638135
 20
210.2382259773
 30
0.0
 11
88.5264975501
 21
210.2382259773
 31
0.0
  0
LINE
  5
329
330
225
100
AcDbEntity
  8
7_ALL_FEATURES
  6
Continuous
 62
     7
100
AcDbLine
 10
51.0958806818
 20
210.2382102273
 30
0.0
 11
52.8458806818
 21
210.2382259773
 31
0.0
  0
LINE
  5
32A
330
225
100
AcDbEntity
  8
02___PRT_ALL_AXES
  6
Continuous
 62
     7
100
AcDbLine
 10
107.2958806818
 20
210.4382102273
 30
0.0
 11
106.3958806818
 21
210.4382102273
 31
0.0
  0
LINE
  5
32B
330
225
100
AcDbEntity
  8
02___PRT_ALL_AXES
  6
Continuous
 62
     7
100
AcDbLine
 10
42.8958806818
 20
210.4382102273
 30
0.0
 11
43.7958806818
 21
210.4382102273
 31
0.0
  0
LINE
  5
32C
330
225
100
AcDbEntity
  8
02___PRT_ALL_AXES
  6
Continuous
 62
     7
100
AcDbLine
 10
68.5958806818
 20
196.7382102273
 30
0.0
 11
68.5958806818
 21
197.2382102273
 31
0.0
  0
LINE
  5
32D
330
225
100
AcDbEntity
  8
02___PRT_ALL_AXES
  6
Continuous
 62
     7
100
AcDbLine
 10
69.0958806818
 20
205.7382102273
 30
0.0
 11
69.0958806818
 21
202.7382102273
 31
0.0
  0
LINE
  5
32E
330
225
100
AcDbEntity
  8
02___PRT_ALL_AXES
  6
Continuous
 62
     7
100
AcDbLine
 10
69.5958806818
 20
196.7382102273
 30
0.0
 11
69.5958806818
 21
197.2382102273
 31
0.0
  0
LINE
  5
32F
330
225
100
AcDbEntity
  8
02___PRT_ALL_AXES
  6
Continuous
 62
     7
100
AcDbLine
 10
71.0958806818
 20
209.2382102273
 30
0.0
 11
71.0958806818
 21
205.7382102273
 31
0.0
  0
LINE
  5
330
330
225
100
AcDbEntity
  8
02___PRT_ALL_AXES
  6
Continuous
 62
     7
100
AcDbLine
 10
71.0958806818
 20
202.7382102273
 30
0.0
 11
71.0958806818
 21
198.2382102273
 31
0.0
  0
LINE
  5
331
330
225
100
AcDbEntity
  8
02___PRT_ALL_AXES
  6
Continuous
 62
     7
100
AcDbLine
 10
106.4958806818
 20
211.4382102273
 30
0.0
 11
106.3958806818
 21
211.4382102273
 31
0.0
  0
LINE
  5
332
330
225
100
AcDbEntity
  8
7_ALL_FEATURES
  6
Continuous
 62
     7
100
AcDbLine
 10
108.5958806818
 20
211.4382102273
 30
0.0
 11
106.4958806818
 21
211.4382102273
 31
0.0
  0
LINE
  5
333
330
225
100
AcDbEntity
  8
7_ALL_FEATURES
  6
Continuous
 62
     7
100
AcDbLine
 10
43.6958806818
 20
211.4382102273
 30
0.0
 11
41.5958806818
 21
211.4382102273
 31
0.0
  0
LINE
  5
334
330
225
100
AcDbEntity
  8
02___PRT_ALL_AXES
  6
Continuous
 62
     7
100
AcDbLine
 10
43.6958806818
 20
211.4382102273
 30
0.0
 11
43.7958806818
 21
211.4382102273
 31
0.0
  0
LINE
  5
335
330
225
100
AcDbEntity
  8
7_ALL_FEATURES
  6
Continuous
 62
     7
100
AcDbLine
 10
51.0958806818
 20
211.7382102273
 30
0.0
 11
52.8458806818
 21
211.7382102273
 31
0.0
  0
LINE
  5
336
330
225
100
AcDbEntity
  8
7_ALL_FEATURES
  6
Continuous
 62
     7
100
AcDbLine
 10
62.067183382
 20
211.7382102273
 30
0.0
 11
88.1245779817
 21
211.7382102273
 31
0.0
  0
LINE
  5
337
330
225
100
AcDbEntity
  8
02___PRT_ALL_AXES
  6
Continuous
 62
     7
100
AcDbLine
 10
50.9958806818
 20
212.4382102273
 30
0.0
 11
49.9958806818
 21
212.4382102273
 31
0.0
  0
LINE
  5
338
330
225
100
AcDbEntity
  8
7_ALL_FEATURES
  6
Continuous
 62
     7
100
AcDbLine
 10
42.1632309874
 20
213.4382102273
 30
0.0
 11
42.2602676022
 21
213.4382102273
 31
0.0
  0
LINE
  5
339
330
225
100
AcDbEntity
  8
7_ALL_FEATURES
  6
Continuous
 62
     7
100
AcDbLine
 10
107.9314937614
 20
213.4382102273
 30
0.0
 11
108.0285303762
 21
213.4382102273
 31
0.0
  0
LINE
  5
33A
330
225
100
AcDbEntity
  8
02___PRT_ALL_AXES
  6
Continuous
 62
     7
100
AcDbLine
 10
110.4758806818
 20
213.6382102273
 30
0.0
 11
110.0958806818
 21
213.6382102273
 31
0.0
  0
LINE
  5
33B
330
225
100
AcDbEntity
  8
02___PRT_ALL_AXES
  6
Continuous
 62
     7
100
AcDbLine
 10
40.0958806818
 20
213.6382102273
 30
0.0
 11
39.7158806818
 21
213.6382102273
 31
0.0
  0
LINE
  5
33C
330
225
100
AcDbEntity
  8
02___PRT_ALL_AXES
  6
Continuous
 62
     7
100
AcDbLine
 10
109.0958806818
 20
213.9382102273
 30
0.0
 11
108.5958806818
 21
213.9382102273
 31
0.0
  0
LINE
  5
33D
330
225
100
AcDbEntity
  8
02___PRT_ALL_AXES
  6
Continuous
 62
     7
100
AcDbLine
 10
41.5958806818
 20
213.9382102273
 30
0.0
 11
41.0958806818
 21
213.9382102273
 31
0.0
  0
LINE
  5
33E
330
225
100
AcDbEntity
  8
7_ALL_FEATURES
  6
Continuous
 62
     7
100
AcDbLine
 10
45.8458820094
 20
239.6382115546
 30
0.0
 11
45.5958820207
 21
239.8882115659
 31
0.0
  0
LINE
  5
33F
330
225
100
AcDbEntity
  8
02___PRT_ALL_AXES
  6
Continuous
 62
     7
100
AcDbLine
 10
74.0958806818
 20
196.7382102273
 30
0.0
 11
74.0958806818
 21
197.2382102273
 31
0.0
  0
LINE
  5
340
330
225
100
AcDbEntity
  8
02___PRT_ALL_AXES
  6
Continuous
 62
     7
100
AcDbLine
 10
52.1513365723
 20
214.4882102273
 30
0.0
 11
48.0404247913
 21
214.4882102273
 31
0.0
  0
LINE
  5
341
330
225
100
AcDbEntity
  8
7_ALL_FEATURES
  6
Continuous
 62
     7
100
AcDbLine
 10
86.7061417801
 20
214.7382102273
 30
0.0
 11
63.4856195835
 21
214.7382102273
 31
0.0
  0
LINE
  5
342
330
225
100
AcDbEntity
  8
02___PRT_ALL_AXES
  6
Continuous
 62
     7
100
AcDbLine
 10
76.0958806818
 20
196.7382102273
 30
0.0
 11
76.0958806818
 21
197.2382102273
 31
0.0
  0
LINE
  5
343
330
225
100
AcDbEntity
  8
02___PRT_ALL_AXES
  6
Continuous
 62
     7
100
AcDbLine
 10
79.0958806818
 20
209.2382102273
 30
0.0
 11
79.0958806818
 21
205.7382102273
 31
0.0
  0
LINE
  5
344
330
225
100
AcDbEntity
  8
02___PRT_ALL_AXES
  6
Continuous
 62
     7
100
AcDbLine
 10
79.0958806818
 20
202.7382102273
 30
0.0
 11
79.0958806818
 21
198.2382102273
 31
0.0
  0
LINE
  5
345
330
225
100
AcDbEntity
  8
02___PRT_ALL_AXES
  6
Continuous
 62
     7
100
AcDbLine
 10
109.0958806818
 20
220.9382102273
 30
0.0
 11
108.5958806818
 21
220.9382102273
 31
0.0
  0
LINE
  5
346
330
225
100
AcDbEntity
  8
02___PRT_ALL_AXES
  6
Continuous
 62
     7
100
AcDbLine
 10
41.5958806818
 20
220.9382102273
 30
0.0
 11
41.0958806818
 21
220.9382102273
 31
0.0
  0
LINE
  5
347
330
225
100
AcDbEntity
  8
02___PRT_ALL_AXES
  6
Continuous
 62
     7
100
AcDbLine
 10
110.4758806818
 20
221.2382102273
 30
0.0
 11
110.0958806818
 21
221.2382102273
 31
0.0
  0
LINE
  5
348
330
225
100
AcDbEntity
  8
02___PRT_ALL_AXES
  6
Continuous
 62
     7
100
AcDbLine
 10
40.0958806818
 20
221.2382102273
 30
0.0
 11
39.7158806818
 21
221.2382102273
 31
0.0
  0
LINE
  5
349
330
225
100
AcDbEntity
  8
7_ALL_FEATURES
  6
Continuous
 62
     7
100
AcDbLine
 10
108.0285303762
 20
221.4382102273
 30
0.0
 11
107.9314937614
 21
221.4382102273
 31
0.0
  0
LINE
  5
34A
330
225
100
AcDbEntity
  8
7_ALL_FEATURES
  6
Continuous
 62
     7
100
AcDbLine
 10
42.2602676022
 20
221.4382102273
 30
0.0
 11
42.1632309874
 21
221.4382102273
 31
0.0
  0
LINE
  5
34B
330
225
100
AcDbEntity
  8
02___PRT_ALL_AXES
  6
Continuous
 62
     7
100
AcDbLine
 10
80.5958806818
 20
196.7382102273
 30
0.0
 11
80.5958806818
 21
197.2382102273
 31
0.0
  0
LINE
  5
34C
330
225
100
AcDbEntity
  8
02___PRT_ALL_AXES
  6
Continuous
 62
     7
100
AcDbLine
 10
81.0958806818
 20
205.7382102273
 30
0.0
 11
81.0958806818
 21
202.7382102273
 31
0.0
  0
LINE
  5
34D
330
225
100
AcDbEntity
  8
02___PRT_ALL_AXES
  6
Continuous
 62
     7
100
AcDbLine
 10
81.5958806818
 20
196.7382102273
 30
0.0
 11
81.5958806818
 21
197.2382102273
 31
0.0
  0
LINE
  5
34E
330
225
100
AcDbEntity
  8
02___PRT_ALL_AXES
  6
Continuous
 62
     7
100
AcDbLine
 10
82.0958806818
 20
196.7382102273
 30
0.0
 11
82.0958806818
 21
197.2382102273
 31
0.0
  0
LINE
  5
34F
330
225
100
AcDbEntity
  8
7_ALL_FEATURES
  6
Continuous
 62
     7
100
AcDbLine
 10
104.3458793543
 20
239.6382115546
 30
0.0
 11
104.5958793429
 21
239.888211566
 31
0.0
  0
LINE
  5
350
330
225
100
AcDbEntity
  8
02___PRT_ALL_AXES
  6
Continuous
 62
     7
100
AcDbLine
 10
106.4958806818
 20
223.4382102273
 30
0.0
 11
97.9958806818
 21
223.4382102273
 31
0.0
  0
LINE
  5
351
330
225
100
AcDbEntity
  8
02___PRT_ALL_AXES
  6
Continuous
 62
     7
100
AcDbLine
 10
52.1958806818
 20
223.4382102273
 30
0.0
 11
43.6958806818
 21
223.4382102273
 31
0.0
  0
LINE
  5
352
330
225
100
AcDbEntity
  8
7_ALL_FEATURES
  6
Continuous
 62
     7
100
AcDbLine
 10
41.5958806818
 20
223.4382102273
 30
0.0
 11
43.6958806818
 21
223.4382102273
 31
0.0
  0
LINE
  5
353
330
225
100
AcDbEntity
  8
7_ALL_FEATURES
  6
Continuous
 62
     7
100
AcDbLine
 10
106.4958806818
 20
223.4382102273
 30
0.0
 11
108.5958806818
 21
223.4382102273
 31
0.0
  0
LINE
  5
354
330
225
100
AcDbEntity
  8
02___PRT_ALL_AXES
  6
Continuous
 62
     7
100
AcDbLine
 10
100.6958806818
 20
223.9882102273
 30
0.0
 11
100.1958806818
 21
223.9882102273
 31
0.0
  0
LINE
  5
355
330
225
100
AcDbEntity
  8
02___PRT_ALL_AXES
  6
Continuous
 62
     7
100
AcDbLine
 10
49.9958806818
 20
223.9882102273
 30
0.0
 11
49.4958806818
 21
223.9882102273
 31
0.0
  0
LINE
  5
356
330
225
100
AcDbEntity
  8
02___PRT_ALL_AXES
  6
Continuous
 62
     7
100
AcDbLine
 10
98.0958806818
 20
224.4382102273
 30
0.0
 11
97.9958806818
 21
224.4382102273
 31
0.0
  0
LINE
  5
357
330
225
100
AcDbEntity
  8
7_ALL_FEATURES
  6
Continuous
 62
     7
100
AcDbLine
 10
100.1958806818
 20
224.4382102273
 30
0.0
 11
98.0958806818
 21
224.4382102273
 31
0.0
  0
LINE
  5
358
330
225
100
AcDbEntity
  8
7_ALL_FEATURES
  6
Continuous
 62
     7
100
AcDbLine
 10
52.0958806818
 20
224.4382102273
 30
0.0
 11
49.9958806818
 21
224.4382102273
 31
0.0
  0
LINE
  5
359
330
225
100
AcDbEntity
  8
02___PRT_ALL_AXES
  6
Continuous
 62
     7
100
AcDbLine
 10
52.0958806818
 20
224.4382102273
 30
0.0
 11
52.1958806818
 21
224.4382102273
 31
0.0
  0
LINE
  5
35A
330
225
100
AcDbEntity
  8
02___PRT_ALL_AXES
  6
Continuous
 62
     7
100
AcDbLine
 10
83.0958806818
 20
209.2382102273
 30
0.0
 11
83.0958806818
 21
205.7382102273
 31
0.0
  0
LINE
  5
35B
330
225
100
AcDbEntity
  8
02___PRT_ALL_AXES
  6
Continuous
 62
     7
100
AcDbLine
 10
83.0958806818
 20
202.7382102273
 30
0.0
 11
83.0958806818
 21
198.2382102273
 31
0.0
  0
LINE
  5
35C
330
225
100
AcDbEntity
  8
7_ALL_FEATURES
  6
Continuous
 62
     7
100
AcDbLine
 10
50.5632309874
 20
226.4382102273
 30
0.0
 11
50.6602676022
 21
226.4382102273
 31
0.0
  0
LINE
  5
35D
330
225
100
AcDbEntity
  8
7_ALL_FEATURES
  6
Continuous
 62
     7
100
AcDbLine
 10
99.5314937614
 20
226.4382102273
 30
0.0
 11
99.6285303762
 21
226.4382102273
 31
0.0
  0
LINE
  5
35E
330
225
100
AcDbEntity
  8
02___PRT_ALL_AXES
  6
Continuous
 62
     7
100
AcDbLine
 10
97.9958806818
 20
241.9382102273
 30
0.0
 11
97.9958806818
 21
240.9382102273
 31
0.0
  0
LINE
  5
35F
330
225
100
AcDbEntity
  8
02___PRT_ALL_AXES
  6
Continuous
 62
     7
100
AcDbLine
 10
97.9958806818
 20
224.4382102273
 30
0.0
 11
97.9958806818
 21
223.4382102273
 31
0.0
  0
LINE
  5
360
330
225
100
AcDbEntity
  8
02___PRT_ALL_AXES
  6
Continuous
 62
     7
100
AcDbLine
 10
82.0958806818
 20
197.2382102273
 30
0.0
 11
83.0958806818
 21
198.2382102273
 31
0.0
  0
LINE
  5
361
330
225
100
AcDbEntity
  8
7_ALL_FEATURES
  6
Continuous
 62
     7
100
AcDbLine
 10
99.6285303762
 20
238.9382102273
 30
0.0
 11
99.5314937614
 21
238.9382102273
 31
0.0
  0
LINE
  5
362
330
225
100
AcDbEntity
  8
7_ALL_FEATURES
  6
Continuous
 62
     7
100
AcDbLine
 10
50.6602676022
 20
238.9382102273
 30
0.0
 11
50.5632309874
 21
238.9382102273
 31
0.0
  0
LINE
  5
363
330
225
100
AcDbEntity
  8
7_ALL_FEATURES
  6
Continuous
 62
     7
100
AcDbLine
 10
45.8458806818
 20
239.6382102273
 30
0.0
 11
49.9958806818
 21
239.6382102273
 31
0.0
  0
LINE
  5
364
330
225
100
AcDbEntity
  8
7_ALL_FEATURES
  6
Continuous
 62
     7
100
AcDbLine
 10
100.1958806818
 20
239.6382102273
 30
0.0
 11
104.3458806819
 21
239.6382102273
 31
0.0
  0
LINE
  5
365
330
225
100
AcDbEntity
  8
7_ALL_FEATURES
  6
Continuous
 62
     7
100
AcDbLine
 10
100.1958806818
 20
239.8882064414
 30
0.0
 11
104.5958806818
 21
239.8882102273
 31
0.0
  0
LINE
  5
366
330
225
100
AcDbEntity
  8
7_ALL_FEATURES
  6
Continuous
 62
     7
100
AcDbLine
 10
45.5958806818
 20
239.8882102273
 30
0.0
 11
49.9958806818
 21
239.8882068746
 31
0.0
  0
LINE
  5
367
330
225
100
AcDbEntity
  8
7_ALL_FEATURES
  6
Continuous
 62
     9
100
AcDbLine
 10
98.0958806818
 20
224.4382102273
 30
0.0
 11
98.0958806818
 21
240.9382102273
 31
0.0
  0
LINE
  5
368
330
225
100
AcDbEntity
  8
7_ALL_FEATURES
  6
Continuous
 62
     7
100
AcDbLine
 10
99.0958806818
 20
224.4382102273
 30
0.0
 11
99.0958806818
 21
223.4382102273
 31
0.0
  0
LINE
  5
369
330
225
100
AcDbEntity
  8
02___PRT_ALL_AXES
  6
Continuous
 62
     7
100
AcDbLine
 10
99.1958806818
 20
224.4382102273
 30
0.0
 11
99.1958806818
 21
223.4382102273
 31
0.0
  0
LINE
  5
36A
330
225
100
AcDbEntity
  8
7_ALL_FEATURES
  6
Continuous
 62
     7
100
AcDbLine
 10
99.5314937614
 20
238.9382102273
 30
0.0
 11
99.5314937614
 21
226.4382102273
 31
0.0
  0
LINE
  5
36B
330
225
100
AcDbEntity
  8
7_ALL_FEATURES
  6
Continuous
 62
     7
100
AcDbLine
 10
99.6285303762
 20
226.4382102273
 30
0.0
 11
99.6285303762
 21
238.9382102273
 31
0.0
  0
LINE
  5
36C
330
225
100
AcDbEntity
  8
02___PRT_ALL_AXES
  6
Continuous
 62
     7
100
AcDbLine
 10
100.1958806818
 20
224.4382102273
 30
0.0
 11
100.1958806818
 21
223.4382102273
 31
0.0
  0
LINE
  5
36D
330
225
100
AcDbEntity
  8
7_ALL_FEATURES
  6
Continuous
 62
     7
100
AcDbLine
 10
100.1958806818
 20
224.4382102273
 30
0.0
 11
100.1958806818
 21
240.9382102273
 31
0.0
  0
LINE
  5
36E
330
225
100
AcDbEntity
  8
02___PRT_ALL_AXES
  6
Continuous
 62
     7
100
AcDbLine
 10
100.6958806818
 20
223.4382102273
 30
0.0
 11
100.6958806818
 21
223.9882102273
 31
0.0
  0
LINE
  5
36F
330
225
100
AcDbEntity
  8
7_ALL_FEATURES
  6
Continuous
 62
     7
100
AcDbLine
 10
49.9958806818
 20
240.9382102273
 30
0.0
 11
52.0958806818
 21
240.9382102273
 31
0.0
  0
LINE
  5
370
330
225
100
AcDbEntity
  8
02___PRT_ALL_AXES
  6
Continuous
 62
     7
100
AcDbLine
 10
52.0958806818
 20
240.9382102273
 30
0.0
 11
52.1958806818
 21
240.9382102273
 31
0.0
  0
LINE
  5
371
330
225
100
AcDbEntity
  8
02___PRT_ALL_AXES
  6
Continuous
 62
     7
100
AcDbLine
 10
97.9958806818
 20
240.9382102273
 30
0.0
 11
98.0958806818
 21
240.9382102273
 31
0.0
  0
LINE
  5
372
330
225
100
AcDbEntity
  8
7_ALL_FEATURES
  6
Continuous
 62
     7
100
AcDbLine
 10
98.0958806818
 20
240.9382102273
 30
0.0
 11
100.1958806818
 21
240.9382102273
 31
0.0
  0
LINE
  5
373
330
225
100
AcDbEntity
  8
02___PRT_ALL_AXES
  6
Continuous
 62
     7
100
AcDbLine
 10
107.2958806818
 20
241.9382102273
 30
0.0
 11
97.9958806818
 21
241.9382102273
 31
0.0
  0
LINE
  5
374
330
225
100
AcDbEntity
  8
02___PRT_ALL_AXES
  6
Continuous
 62
     7
100
AcDbLine
 10
42.8958806818
 20
241.9382102273
 30
0.0
 11
52.1958806818
 21
241.9382102273
 31
0.0
  0
LINE
  5
375
330
225
100
AcDbEntity
  8
3_ALL_AXES
  6
Continuous
 62
     7
100
AcDbLine
 10
104.5958806818
 20
241.9382102273
 30
0.0
 11
104.5958806818
 21
239.8882102273
 31
0.0
  0
LINE
  5
376
330
225
100
AcDbEntity
  8
02___PRT_ALL_AXES
  6
Continuous
 62
     7
100
AcDbLine
 10
106.3958806818
 20
210.4382102273
 30
0.0
 11
106.3958806818
 21
211.4382102273
 31
0.0
  0
LINE
  5
377
330
225
100
AcDbEntity
  8
7_ALL_FEATURES
  6
Continuous
 62
     9
100
AcDbLine
 10
106.4958806818
 20
211.4382102273
 30
0.0
 11
106.4958806818
 21
223.4382102273
 31
0.0
  0
LINE
  5
378
330
225
100
AcDbEntity
  8
7_ALL_FEATURES
  6
Continuous
 62
     7
100
AcDbLine
 10
107.9314937614
 20
221.4382102273
 30
0.0
 11
107.9314937614
 21
213.4382102273
 31
0.0
  0
LINE
  5
379
330
225
100
AcDbEntity
  8
02___PRT_ALL_AXES
  6
Continuous
 62
     9
100
AcDbLine
 10
107.9958806818
 20
259.4382102273
 30
0.0
 11
107.9958806818
 21
252.4382102273
 31
0.0
  0
LINE
  5
37A
330
225
100
AcDbEntity
  8
02___PRT_ALL_AXES
  6
Continuous
 62
     9
100
AcDbLine
 10
107.9958806818
 20
242.132115233
 30
0.0
 11
107.9958806818
 21
223.4382102273
 31
0.0
  0
LINE
  5
37B
330
225
100
AcDbEntity
  8
02___PRT_ALL_AXES
  6
Continuous
 62
     9
100
AcDbLine
 10
107.9958806818
 20
211.4382102273
 30
0.0
 11
107.9958806818
 21
210.2443052215
 31
0.0
  0
LINE
  5
37C
330
225
100
AcDbEntity
  8
02___PRT_ALL_AXES
  6
Continuous
 62
     9
100
AcDbLine
 10
107.9958806818
 20
182.4382102273
 30
0.0
 11
107.9958806818
 21
175.4382102273
 31
0.0
  0
LINE
  5
37D
330
225
100
AcDbEntity
  8
7_ALL_FEATURES
  6
Continuous
 62
     7
100
AcDbLine
 10
108.0285303762
 20
213.4382102273
 30
0.0
 11
108.0285303762
 21
221.4382102273
 31
0.0
  0
LINE
  5
37E
330
225
100
AcDbEntity
  8
7_ALL_FEATURES
  6
Continuous
 62
     7
100
AcDbLine
 10
108.5958806818
 20
211.4382102273
 30
0.0
 11
108.5958806818
 21
223.4382102273
 31
0.0
  0
LINE
  5
37F
330
225
100
AcDbEntity
  8
7_ALL_FEATURES
  6
Continuous
 62
     7
100
AcDbLine
 10
108.7958806818
 20
252.4382102273
 30
0.0
 11
108.7958806818
 21
250.3382102273
 31
0.0
  0
LINE
  5
380
330
225
100
AcDbEntity
  8
02___PRT_ALL_AXES
  6
Continuous
 62
     7
100
AcDbLine
 10
108.7958806818
 20
250.3382102273
 30
0.0
 11
108.7958806818
 21
243.4382102273
 31
0.0
  0
LINE
  5
381
330
225
100
AcDbEntity
  8
02___PRT_ALL_AXES
  6
Continuous
 62
     7
100
AcDbLine
 10
108.7958806818
 20
208.9382102273
 30
0.0
 11
108.7958806818
 21
184.5382102273
 31
0.0
  0
LINE
  5
382
330
225
100
AcDbEntity
  8
7_ALL_FEATURES
  6
Continuous
 62
     7
100
AcDbLine
 10
108.7958806818
 20
184.5382102273
 30
0.0
 11
108.7958806818
 21
182.4382102273
 31
0.0
  0
LINE
  5
383
330
225
100
AcDbEntity
  8
02___PRT_ALL_AXES
  6
Continuous
 62
     7
100
AcDbLine
 10
109.0958806818
 20
175.4382102273
 30
0.0
 11
109.0958806818
 21
259.4382102273
 31
0.0
  0
LINE
  5
384
330
225
100
AcDbEntity
  8
7_ALL_FEATURES
  6
Continuous
 62
     9
100
AcDbLine
 10
108.7958806818
 20
250.3382102273
 30
0.0
 11
41.3958806818
 21
250.3382102273
 31
0.0
  0
LINE
  5
385
330
225
100
AcDbEntity
  8
02___PRT_ALL_AXES
  6
Continuous
 62
     7
100
AcDbLine
 10
110.0958806818
 20
175.4382102273
 30
0.0
 11
110.0958806818
 21
259.4382102273
 31
0.0
  0
LINE
  5
386
330
225
100
AcDbEntity
  8
02___PRT_ALL_AXES
  6
Continuous
 62
     7
100
AcDbLine
 10
110.4758806818
 20
213.6382102273
 30
0.0
 11
110.4758806818
 21
221.2382102273
 31
0.0
  0
LINE
  5
387
330
225
100
AcDbEntity
  8
02___PRT_ALL_AXES
  6
Continuous
 62
     7
100
AcDbLine
 10
112.2958806818
 20
215.4732102273
 30
0.0
 11
112.2958806818
 21
219.4032102273
 31
0.0
  0
LINE
  5
388
330
225
100
AcDbEntity
  8
7_ALL_FEATURES
  6
Continuous
 62
     7
100
AcDbLine
 10
108.7958806818
 20
252.4382102273
 30
0.0
 11
41.3958806818
 21
252.4382102273
 31
0.0
  0
LINE
  5
389
330
225
100
AcDbEntity
  8
7_ALL_FEATURES
  6
Continuous
 62
     7
100
AcDbLine
 10
56.7958806818
 20
252.6382102273
 30
0.0
 11
93.3958806818
 21
252.6382102273
 31
0.0
  0
LINE
  5
38A
330
225
100
AcDbEntity
  8
7_ALL_FEATURES
  6
Continuous
 62
     7
100
AcDbLine
 10
93.3958806818
 20
252.6382102273
 30
0.0
 11
93.5958806818
 21
252.4382102273
 31
0.0
  0
LINE
  5
38B
330
225
100
AcDbEntity
  8
02___PRT_ALL_AXES
  6
Continuous
 62
     9
100
AcDbLine
 10
110.0958806818
 20
257.4382102273
 30
0.0
 11
109.0958806818
 21
257.4382102273
 31
0.0
  0
LINE
  5
38C
330
225
100
AcDbEntity
  8
02___PRT_ALL_AXES
  6
Continuous
 62
     9
100
AcDbLine
 10
40.0958806818
 20
257.4382102273
 30
0.0
 11
41.0958806818
 21
257.4382102273
 31
0.0
  0
LINE
  5
38D
330
225
100
AcDbEntity
  8
02___PRT_ALL_AXES
  6
Continuous
 62
     7
100
AcDbLine
 10
40.0958806818
 20
259.4382102273
 30
0.0
 11
110.0958806818
 21
259.4382102273
 31
0.0
  0
LINE
  5
38E
330
225
100
AcDbEntity
  8
02___PRT_ALL_AXES
  6
Continuous
 62
     7
100
AcDbLine
 10
235.0658735795
 20
175.4382102273
 30
0.0
 11
167.0658735795
 21
175.4382102273
 31
0.0
  0
LINE
  5
38F
330
225
100
AcDbEntity
  8
02___PRT_ALL_AXES
  6
Continuous
 62
     7
100
AcDbLine
 10
167.0658735795
 20
175.4382102273
 30
0.0
 11
167.0658735795
 21
259.4382102273
 31
0.0
  0
LINE
  5
390
330
225
100
AcDbEntity
  8
02___PRT_ALL_AXES
  6
Continuous
 62
     9
100
AcDbLine
 10
169.1658735795
 20
175.4382102273
 30
0.0
 11
169.1658735795
 21
259.4382102273
 31
0.0
  0
LINE
  5
391
330
225
100
AcDbEntity
  8
7_ALL_FEATURES
  6
Continuous
 62
     7
100
AcDbLine
 10
227.0658735795
 20
218.8815859002
 30
0.0
 11
225.8158735795
 21
218.1598980638
 31
0.0
  0
LINE
  5
392
330
225
100
AcDbEntity
  8
7_ALL_FEATURES
  6
Continuous
 62
     7
100
AcDbLine
 10
225.8158735795
 20
216.7165223908
 30
0.0
 11
227.0658735795
 21
215.9948345543
 31
0.0
  0
LINE
  5
393
330
225
100
AcDbEntity
  8
7_ALL_FEATURES
  6
Continuous
 62
     7
100
AcDbLine
 10
227.0658735795
 20
215.9948345543
 30
0.0
 11
228.3158735795
 21
216.7165223908
 31
0.0
  0
LINE
  5
394
330
225
100
AcDbEntity
  8
7_ALL_FEATURES
  6
Continuous
 62
     7
100
AcDbLine
 10
228.3158735795
 20
218.1598980638
 30
0.0
 11
227.0658735795
 21
218.8815859002
 31
0.0
  0
LINE
  5
395
330
225
100
AcDbEntity
  8
7_ALL_FEATURES
  6
Continuous
 62
     7
100
AcDbLine
 10
225.8158735795
 20
218.1598980638
 30
0.0
 11
225.8158735795
 21
216.7165223908
 31
0.0
  0
LINE
  5
396
330
225
100
AcDbEntity
  8
7_ALL_FEATURES
  6
Continuous
 62
     7
100
AcDbLine
 10
228.3158735795
 20
216.7165223908
 30
0.0
 11
228.3158735795
 21
218.1598980638
 31
0.0
  0
LINE
  5
397
330
225
100
AcDbEntity
  8
02___PRT_ALL_AXES
  6
Continuous
 62
     7
100
AcDbLine
 10
237.0658735795
 20
257.4382102273
 30
0.0
 11
237.0658735795
 21
177.4382102273
 31
0.0
  0
LINE
  5
398
330
225
100
AcDbEntity
  8
02___PRT_ALL_AXES
  6
Continuous
 62
     7
100
AcDbLine
 10
167.0658735795
 20
259.4382102273
 30
0.0
 11
235.0658735795
 21
259.4382102273
 31
0.0
  0
LINE
  5
399
330
225
100
AcDbEntity
  8
02___PRT_ALL_AXES
  6
Continuous
 62
     7
100
AcDbLine
 10
281.8896324883
 20
168.3854332736
 30
0.0
 11
281.1825257071
 21
168.031879883
 31
0.0
  0
LINE
  5
39A
330
225
100
AcDbEntity
  8
02___PRT_ALL_AXES
  6
Continuous
 62
     7
100
AcDbLine
 10
329.972893609
 20
192.4270638339
 30
0.0
 11
330.6800003901
 21
192.7806172245
 31
0.0
  0
LINE
  5
39B
330
225
100
AcDbEntity
  8
02___PRT_ALL_AXES
  6
Continuous
 62
     9
100
AcDbLine
 10
331.5744275811
 20
192.7238136501
 30
0.0
 11
330.8673208
 21
192.3702602595
 31
0.0
  0
LINE
  5
39C
330
225
100
AcDbEntity
  8
02___PRT_ALL_AXES
  6
Continuous
 62
     9
100
AcDbLine
 10
282.0769528981
 20
167.9750763086
 30
0.0
 11
282.7840596793
 21
168.3286296992
 31
0.0
  0
LINE
  5
39D
330
225
100
AcDbEntity
  8
02___PRT_ALL_AXES
  6
Continuous
 62
     7
100
AcDbLine
 10
282.0769528981
 20
95.2289423907
 30
0.0
 11
328.6752897783
 21
71.9297739506
 31
0.0
  0
LINE
  5
39E
330
225
100
AcDbEntity
  8
02___PRT_ALL_AXES
  6
Continuous
 62
     7
100
AcDbLine
 10
280.6627393357
 20
97.6680999794
 30
0.0
 11
280.6627393357
 21
166.9501322822
 31
0.0
  0
LINE
  5
39F
330
225
100
AcDbEntity
  8
7_ALL_FEATURES
  6
Continuous
 62
     7
100
AcDbLine
 10
288.3877301555
 20
165.5267944611
 30
0.0
 11
329.7867508932
 21
186.2263048299
 31
0.0
  0
LINE
  5
3A0
330
225
100
AcDbEntity
  8
7_ALL_FEATURES
  6
Continuous
 62
     9
100
AcDbLine
 10
288.9169481839
 20
165.2621854469
 30
0.0
 11
330.7258994437
 21
186.1666610768
 31
0.0
  0
LINE
  5
3A1
330
225
100
AcDbEntity
  8
7_ALL_FEATURES
  6
Continuous
 62
     7
100
AcDbLine
 10
285.2942887525
 20
129.0627065038
 30
0.0
 11
285.2942887525
 21
127.8127065038
 31
0.0
  0
LINE
  5
3A2
330
225
100
AcDbEntity
  8
7_ALL_FEATURES
  6
Continuous
 62
     7
100
AcDbLine
 10
286.7085023149
 20
128.6055997226
 30
0.0
 11
286.7085023149
 21
128.519813285
 31
0.0
  0
LINE
  5
3A3
330
225
100
AcDbEntity
  8
7_ALL_FEATURES
  6
Continuous
 62
     7
100
AcDbLine
 10
287.0620557054
 20
126.9288230273
 30
0.0
 11
287.0620557054
 21
128.1788230273
 31
0.0
  0
LINE
  5
3A4
330
225
100
AcDbEntity
  8
7_ALL_FEATURES
  6
Continuous
 62
     7
100
AcDbLine
 10
285.2942887525
 20
127.8127065038
 30
0.0
 11
286.178172229
 21
126.7457647656
 31
0.0
  0
LINE
  5
3A5
330
225
100
AcDbEntity
  8
7_ALL_FEATURES
  6
Continuous
 62
     7
100
AcDbLine
 10
286.7085023149
 20
128.519813285
 30
0.0
 11
287.0620557054
 21
128.0930365897
 31
0.0
  0
LINE
  5
3A6
330
225
100
AcDbEntity
  8
7_ALL_FEATURES
  6
Continuous
 62
     7
100
AcDbLine
 10
287.0620557054
 20
128.1788230273
 30
0.0
 11
286.178172229
 21
129.2457647656
 31
0.0
  0
LINE
  5
3A7
330
225
100
AcDbEntity
  8
3_ALL_AXES
  6
Continuous
 62
     7
100
AcDbLine
 10
311.4834373235
 20
162.7083936109
 30
0.0
 11
311.4834373235
 21
161.3824111519
 31
0.0
  0
LINE
  5
3A8
330
225
100
AcDbEntity
  8
02___PRT_ALL_AXES
  6
Continuous
 62
     7
100
AcDbLine
 10
286.0343954847
 20
132.1724055507
 30
0.0
 11
285.7656949078
 21
132.0380552623
 31
0.0
  0
LINE
  5
3A9
330
225
100
AcDbEntity
  8
7_ALL_FEATURES
  6
Continuous
 62
     7
100
AcDbLine
 10
285.2942887525
 20
127.8127065038
 30
0.0
 11
286.7085023149
 21
128.519813285
 31
0.0
  0
LINE
  5
3AA
330
225
100
AcDbEntity
  8
02___PRT_ALL_AXES
  6
Continuous
 62
     9
100
AcDbLine
 10
316.7251851762
 20
169.3375196845
 30
0.0
 11
316.7251851762
 21
169.156343698
 31
0.0
  0
LINE
  5
3AB
330
225
100
AcDbEntity
  8
7_ALL_FEATURES
  6
Continuous
 62
     7
100
AcDbLine
 10
286.178172229
 20
126.7457647656
 30
0.0
 11
287.0620557054
 21
127.1877065038
 31
0.0
  0
LINE
  5
3AC
330
225
100
AcDbEntity
  8
02___PRT_ALL_AXES
  6
Continuous
 62
     7
100
AcDbLine
 10
289.4332188105
 20
125.3747588991
 30
0.0
 11
289.1645182336
 21
125.2404086107
 31
0.0
  0
LINE
  5
3AD
330
225
100
AcDbEntity
  8
02___PRT_ALL_AXES
  6
Continuous
 62
     9
100
AcDbLine
 10
378.1727644613
 20
169.42464521
 30
0.0
 11
377.4656576801
 21
169.0710918194
 31
0.0
  0
LINE
  5
3AE
330
225
100
AcDbEntity
  8
02___PRT_ALL_AXES
  6
Continuous
 62
     9
100
AcDbLine
 10
328.6752897783
 20
144.6759078685
 30
0.0
 11
329.3823965595
 21
145.0294612591
 31
0.0
  0
LINE
  5
3AF
330
225
100
AcDbEntity
  8
02___PRT_ALL_AXES
  6
Continuous
 62
     7
100
AcDbLine
 10
330.9380314781
 20
145.0294612591
 30
0.0
 11
377.4656576801
 21
168.2932743601
 31
0.0
  0
LINE
  5
3B0
330
225
100
AcDbEntity
  8
02___PRT_ALL_AXES
  6
Continuous
 62
     7
100
AcDbLine
 10
331.6451382593
 20
144.6759078685
 30
0.0
 11
378.1727644613
 21
167.9397209695
 31
0.0
  0
LINE
  5
3B1
330
225
100
AcDbEntity
  8
02___PRT_ALL_AXES
  6
Continuous
 62
     9
100
AcDbLine
 10
328.6752897783
 20
144.6759078685
 30
0.0
 11
328.6752897783
 21
71.9297739506
 31
0.0
  0
LINE
  5
3B2
330
225
100
AcDbEntity
  8
02___PRT_ALL_AXES
  6
Continuous
 62
     7
100
AcDbLine
 10
329.4531072376
 20
191.3453162331
 30
0.0
 11
329.4531072376
 21
186.0594830021
 31
0.0
  0
LINE
  5
3B3
330
225
100
AcDbEntity
  8
02___PRT_ALL_AXES
  6
Continuous
 62
     9
100
AcDbLine
 10
331.6451382593
 20
144.6759078685
 30
0.0
 11
331.6451382593
 21
71.9297739506
 31
0.0
  0
LINE
  5
3B4
330
225
100
AcDbEntity
  8
7_ALL_FEATURES
  6
Continuous
 62
     7
100
AcDbLine
 10
286.178172229
 20
126.7457647656
 30
0.0
 11
287.0620557054
 21
126.9288230273
 31
0.0
  0
LINE
  5
3B5
330
225
100
AcDbEntity
  8
7_ALL_FEATURES
  6
Continuous
 62
     7
100
AcDbLine
 10
286.178172229
 20
129.2457647656
 30
0.0
 11
285.2942887525
 21
129.0627065038
 31
0.0
  0
LINE
  5
3B6
330
225
100
AcDbEntity
  8
02___PRT_ALL_AXES
  6
Continuous
 62
     7
100
AcDbLine
 10
328.6752897783
 20
144.6759078685
 30
0.0
 11
282.0769528981
 21
167.9750763086
 31
0.0
  0
LINE
  5
3B7
330
225
100
AcDbEntity
  8
02___PRT_ALL_AXES
  6
Continuous
 62
     7
100
AcDbLine
 10
329.3823965595
 20
145.0294612591
 30
0.0
 11
282.7840596793
 21
168.3286296992
 31
0.0
  0
LINE
  5
3B8
330
225
100
AcDbEntity
  8
02___PRT_ALL_AXES
  6
Continuous
 62
     9
100
AcDbLine
 10
331.6451382593
 20
144.6759078685
 30
0.0
 11
330.9380314781
 21
145.0294612591
 31
0.0
  0
LINE
  5
3B9
330
225
100
AcDbEntity
  8
3_ALL_AXES
  6
Continuous
 62
     7
100
AcDbLine
 10
348.4834373235
 20
162.7083936109
 30
0.0
 11
348.4834373235
 21
161.2959806814
 31
0.0
  0
LINE
  5
3BA
330
225
100
AcDbEntity
  8
02___PRT_ALL_AXES
  6
Continuous
 62
     9
100
AcDbLine
 10
377.4656576801
 20
168.2932743601
 30
0.0
 11
377.4656576801
 21
169.0710918194
 31
0.0
  0
LINE
  5
3BB
330
225
100
AcDbEntity
  8
02___PRT_ALL_AXES
  6
Continuous
 62
     9
100
AcDbLine
 10
378.1727644613
 20
95.1935870516
 30
0.0
 11
378.1727644613
 21
167.9397209695
 31
0.0
  0
LINE
  5
3BC
330
225
100
AcDbEntity
  8
02___PRT_ALL_AXES
  6
Continuous
 62
     7
100
AcDbLine
 10
378.7878402208
 20
95.9360491719
 30
0.0
 11
378.7878402208
 21
168.6821830898
 31
0.0
  0
LINE
  5
3BD
330
225
100
AcDbEntity
  8
02___PRT_ALL_AXES
  6
Continuous
 62
     7
100
AcDbLine
 10
330.7258994437
 20
186.1666610768
 30
0.0
 11
371.9691652786
 21
165.5450281593
 31
0.0
  0
LINE
  5
3BE
330
225
100
AcDbEntity
  8
02___PRT_ALL_AXES
  6
Continuous
 62
     7
100
AcDbLine
 10
378.1727644613
 20
95.1935870516
 30
0.0
 11
331.6451382593
 21
71.9297739506
 31
0.0
  0
LINE
  5
3BF
330
225
100
AcDbEntity
  8
02___PRT_ALL_AXES
  6
Continuous
 62
     9
100
AcDbLine
 10
378.1727644613
 20
167.9397209695
 30
0.0
 11
377.4656576801
 21
168.2932743601
 31
0.0
  0
LINE
  5
3C0
330
225
100
AcDbEntity
  8
02___PRT_ALL_AXES
  6
Continuous
 62
     7
100
AcDbLine
 10
377.4656576801
 20
169.0710918194
 30
0.0
 11
330.8673208
 21
192.3702602595
 31
0.0
  0
LINE
  5
3C1
330
225
100
AcDbEntity
  8
02___PRT_ALL_AXES
  6
Continuous
 62
     7
100
AcDbLine
 10
378.1727644613
 20
169.42464521
 30
0.0
 11
331.5744275811
 21
192.7238136501
 31
0.0
  0
CIRCLE
  5
3C2
330
225
100
AcDbEntity
  8
02___PRT_ALL_AXES
  6
Continuous
 62
     7
100
AcDbCircle
 10
75.0958806818
 20
77.8735795455
 30
0.0
 40
18.75
  0
CIRCLE
  5
3C3
330
225
100
AcDbEntity
  8
3_ALL_AXES
  6
Continuous
 62
     7
100
AcDbCircle
 10
75.0958806818
 20
77.8735795455
 30
0.0
 40
18.65
  0
CIRCLE
  5
3C4
330
225
100
AcDbEntity
  8
7_ALL_FEATURES
  6
Continuous
 62
     7
100
AcDbCircle
 10
75.0958806818
 20
77.8735795455
 30
0.0
 40
18.5
  0
CIRCLE
  5
3C5
330
225
100
AcDbEntity
  8
7_ALL_FEATURES
  6
Continuous
 62
     7
100
AcDbCircle
 10
75.0958806818
 20
77.8735795455
 30
0.0
 40
18.3
  0
ARC
  5
3C6
330
225
100
AcDbEntity
  8
02___PRT_ALL_AXES
  6
Continuous
 62
     7
100
AcDbCircle
 10
41.5685207735
 20
52.9811367481
 30
0.0
 40
4.1
100
AcDbArc
 50
206.3930257743
 51
243.1366968699
  0
ARC
  5
3C7
330
225
100
AcDbEntity
  8
02___PRT_ALL_AXES
  6
Continuous
 62
     7
100
AcDbCircle
 10
41.5685207735
 20
53.2660223428
 30
0.0
 40
4.1
100
AcDbArc
 50
116.8633031301
 51
153.6069742257
  0
ARC
  5
3C8
330
225
100
AcDbEntity
  8
02___PRT_ALL_AXES
  6
Continuous
 62
     7
100
AcDbCircle
 10
108.6232405901
 20
52.9811367481
 30
0.0
 40
4.1
100
AcDbArc
 50
296.8633031301
 51
333.6069742257001
  0
ARC
  5
3C9
330
225
100
AcDbEntity
  8
02___PRT_ALL_AXES
  6
Continuous
 62
     7
100
AcDbCircle
 10
108.6232405901
 20
53.2660223428
 30
0.0
 40
4.1
100
AcDbArc
 50
26.3930257743
 51
63.13669686989999
  0
ARC
  5
3CA
330
225
100
AcDbEntity
  8
02___PRT_ALL_AXES
  6
Continuous
 62
     7
100
AcDbCircle
 10
107.9958806818
 20
111.0235795455
 30
0.0
 40
2.1
100
AcDbArc
 50
0.0
 51
90.0
  0
ARC
  5
3CB
330
225
100
AcDbEntity
  8
02___PRT_ALL_AXES
  6
Continuous
 62
     7
100
AcDbCircle
 10
42.1958806818
 20
111.0235795455
 30
0.0
 40
2.1
100
AcDbArc
 50
90.0
 51
180.0
  0
ARC
  5
3CC
330
225
100
AcDbEntity
  8
02___PRT_ALL_AXES
  6
Continuous
 62
     7
100
AcDbCircle
 10
42.8958806818
 20
110.3735795455
 30
0.0
 40
1.5
100
AcDbArc
 50
90.0
 51
180.0
  0
ARC
  5
3CD
330
225
100
AcDbEntity
  8
02___PRT_ALL_AXES
  6
Continuous
 62
     7
100
AcDbCircle
 10
107.2958806818
 20
110.3735795455
 30
0.0
 40
1.5
100
AcDbArc
 50
0.0
 51
90.0
  0
ARC
  5
3CE
330
225
100
AcDbEntity
  8
02___PRT_ALL_AXES
  6
Continuous
 62
     7
100
AcDbCircle
 10
107.9958806818
 20
111.0235795455
 30
0.0
 40
1.1
100
AcDbArc
 50
0.0
 51
90.0
  0
ARC
  5
3CF
330
225
100
AcDbEntity
  8
02___PRT_ALL_AXES
  6
Continuous
 62
     7
100
AcDbCircle
 10
42.1958806818
 20
111.0235795455
 30
0.0
 40
1.1
100
AcDbArc
 50
90.0
 51
180.0
  0
ARC
  5
3D0
330
225
100
AcDbEntity
  8
02___PRT_ALL_AXES
  6
Continuous
 62
     7
100
AcDbCircle
 10
52.0283014286
 20
219.4465315551
 30
0.0
 40
5.2
100
AcDbArc
 50
119.1438519995
 51
129.7160113862
  0
ARC
  5
3D1
330
225
100
AcDbEntity
  8
02___PRT_ALL_AXES
  6
Continuous
 62
     7
100
AcDbCircle
 10
41.5685207735
 20
217.5806530246
 30
0.0
 40
4.1
100
AcDbArc
 50
116.8633031301
 51
153.6069742257
  0
ARC
  5
3D2
330
225
100
AcDbEntity
  8
02___PRT_ALL_AXES
  6
Continuous
 62
     7
100
AcDbCircle
 10
41.5685207735
 20
217.2957674299
 30
0.0
 40
4.1
100
AcDbArc
 50
206.3930257743
 51
243.1366968699
  0
ARC
  5
3D3
330
225
100
AcDbEntity
  8
02___PRT_ALL_AXES
  6
Continuous
 62
     7
100
AcDbCircle
 10
71.5958806818
 20
196.7382102273
 30
0.0
 40
3.5
100
AcDbArc
 50
180.0
 51
201.1767215689
  0
ARC
  5
3D4
330
225
100
AcDbEntity
  8
7_ALL_FEATURES
  6
Continuous
 62
     7
100
AcDbCircle
 10
71.5958806818
 20
196.7382102273
 30
0.0
 40
3.5
100
AcDbArc
 50
180.0
 51
201.190861551
  0
ARC
  5
3D5
330
225
100
AcDbEntity
  8
02___PRT_ALL_AXES
  6
Continuous
 62
     7
100
AcDbCircle
 10
50.0958806818
 20
208.1882102273
 30
0.0
 40
2.75
100
AcDbArc
 50
180.0
 51
360.0
  0
ARC
  5
3D6
330
225
100
AcDbEntity
  8
02___PRT_ALL_AXES
  6
Continuous
 62
     7
100
AcDbCircle
 10
50.0958806818
 20
212.6882102273
 30
0.0
 40
2.75
100
AcDbArc
 50
0.0
 51
180.0
  0
ARC
  5
3D7
330
225
100
AcDbEntity
  8
02___PRT_ALL_AXES
  6
Continuous
 62
     7
100
AcDbCircle
 10
42.8958806818
 20
208.9382102273
 30
0.0
 40
1.5
100
AcDbArc
 50
90.0
 51
180.0
  0
ARC
  5
3D8
330
225
100
AcDbEntity
  8
02___PRT_ALL_AXES
  6
Continuous
 62
     7
100
AcDbCircle
 10
42.8958806818
 20
243.4382102273
 30
0.0
 40
1.5
100
AcDbArc
 50
180.0
 51
270.0
  0
CIRCLE
  5
3D9
330
225
100
AcDbEntity
  8
02___PRT_ALL_AXES
  6
Continuous
 62
     7
100
AcDbCircle
 10
75.0958806818
 20
207.4382102273
 30
0.0
 40
13.75
  0
ARC
  5
3DA
330
225
100
AcDbEntity
  8
02___PRT_ALL_AXES
  6
Continuous
 62
     7
100
AcDbCircle
 10
98.163459935
 20
219.4465315551
 30
0.0
 40
5.2
100
AcDbArc
 50
50.2839886138
 51
60.85614800050001
  0
ARC
  5
3DB
330
225
100
AcDbEntity
  8
02___PRT_ALL_AXES
  6
Continuous
 62
     7
100
AcDbCircle
 10
108.6232405901
 20
217.2957674299
 30
0.0
 40
4.1
100
AcDbArc
 50
296.8633031301
 51
333.6069742257001
  0
ARC
  5
3DC
330
225
100
AcDbEntity
  8
02___PRT_ALL_AXES
  6
Continuous
 62
     7
100
AcDbCircle
 10
108.6232405901
 20
217.5806530246
 30
0.0
 40
4.1
100
AcDbArc
 50
26.3930257743
 51
63.13669686989999
  0
ARC
  5
3DD
330
225
100
AcDbEntity
  8
02___PRT_ALL_AXES
  6
Continuous
 62
     7
100
AcDbCircle
 10
78.5958806818
 20
196.7382102273
 30
0.0
 40
3.5
100
AcDbArc
 50
338.8232784310999
 51
360.0
  0
ARC
  5
3DE
330
225
100
AcDbEntity
  8
7_ALL_FEATURES
  6
Continuous
 62
     7
100
AcDbCircle
 10
78.5958806818
 20
196.7382102273
 30
0.0
 40
3.5
100
AcDbArc
 50
338.809138449
 51
360.0
  0
ARC
  5
3DF
330
225
100
AcDbEntity
  8
02___PRT_ALL_AXES
  6
Continuous
 62
     7
100
AcDbCircle
 10
102.3458806818
 20
205.4382102273
 30
0.0
 40
2.75
100
AcDbArc
 50
270.0
 51
90.0
  0
ARC
  5
3E0
330
225
100
AcDbEntity
  8
02___PRT_ALL_AXES
  6
Continuous
 62
     7
100
AcDbCircle
 10
97.8458806818
 20
205.4382102273
 30
0.0
 40
2.75
100
AcDbArc
 50
90.0
 51
270.0
  0
ARC
  5
3E1
330
225
100
AcDbEntity
  8
02___PRT_ALL_AXES
  6
Continuous
 62
     7
100
AcDbCircle
 10
107.2958806818
 20
208.9382102273
 30
0.0
 40
1.5
100
AcDbArc
 50
0.0
 51
90.0
  0
ARC
  5
3E2
330
225
100
AcDbEntity
  8
02___PRT_ALL_AXES
  6
Continuous
 62
     7
100
AcDbCircle
 10
107.2958806818
 20
243.4382102273
 30
0.0
 40
1.5
100
AcDbArc
 50
270.0
 51
360.0
  0
CIRCLE
  5
3E3
330
225
100
AcDbEntity
  8
02___PRT_ALL_AXES
  6
Continuous
 62
     7
100
AcDbCircle
 10
227.0658735795
 20
217.4382102273
 30
0.0
 40
3.8
  0
ARC
  5
3E4
330
225
100
AcDbEntity
  8
02___PRT_ALL_AXES
  6
Continuous
 62
     7
100
AcDbCircle
 10
235.0658735795
 20
177.4382102273
 30
0.0
 40
2.0
100
AcDbArc
 50
270.0
 51
360.0
  0
ARC
  5
3E5
330
225
100
AcDbEntity
  8
02___PRT_ALL_AXES
  6
Continuous
 62
     7
100
AcDbCircle
 10
235.0658735795
 20
257.4382102273
 30
0.0
 40
2.0
100
AcDbArc
 50
0.0
 51
90.0
  0
CIRCLE
  5
3E6
330
225
100
AcDbEntity
  8
02___PRT_ALL_AXES
  6
Continuous
 62
     7
100
AcDbCircle
 10
227.0658735795
 20
217.4382102273
 30
0.0
 40
1.965
  0
ARC
  5
3E7
330
225
100
AcDbEntity
  8
02___PRT_ALL_AXES
  6
Continuous
 62
     7
100
AcDbCircle
 10
322.5991601657
 20
156.9052373727
 30
0.0
 40
13.7332188327
100
AcDbArc
 50
123.8900998953
 51
124.6819796914
  0
ARC
  5
3E8
330
225
100
AcDbEntity
  8
02___PRT_ALL_AXES
  6
Continuous
 62
     7
100
AcDbCircle
 10
337.3924305666
 20
156.9434766011
 30
0.0
 40
13.6876877897
100
AcDbArc
 50
55.14055761309999
 51
55.9864347319
  0
ARC
  5
3E9
330
225
100
AcDbEntity
  8
02___PRT_ALL_AXES
  6
Continuous
 62
     7
100
AcDbCircle
 10
322.4302696192
 20
157.150025583
 30
0.0
 40
13.4358215979
100
AcDbArc
 50
124.6837154055
 51
125.0001305266
  0
ARC
  5
3EA
330
225
100
AcDbEntity
  8
7_ALL_FEATURES
  6
Continuous
 62
     7
100
AcDbCircle
 10
322.3915150821
 20
157.7685593067
 30
0.0
 40
12.7316203706
100
AcDbArc
 50
125.2628216429
 51
126.1732928501
  0
ARC
  5
3EB
330
225
100
AcDbEntity
  8
7_ALL_FEATURES
  6
Continuous
 62
     7
100
AcDbCircle
 10
337.5871738554
 20
157.7855512674
 30
0.0
 40
12.7109449839
100
AcDbArc
 50
53.80226897010001
 51
54.7412149291
  0
ARC
  5
3EC
330
225
100
AcDbEntity
  8
7_ALL_FEATURES
  6
Continuous
 62
     7
100
AcDbCircle
 10
339.5041071202
 20
159.8053365096
 30
0.0
 40
9.9462769296
100
AcDbArc
 50
46.5880878917
 51
47.28094549549999
  0
ARC
  5
3ED
330
225
100
AcDbEntity
  8
7_ALL_FEATURES
  6
Continuous
 62
     7
100
AcDbCircle
 10
339.5349640504
 20
160.1514824197
 30
0.0
 40
9.6439776227
100
AcDbArc
 50
46.0490800006
 51
46.5875012479
  0
ARC
  5
3EE
330
225
100
AcDbEntity
  8
02___PRT_ALL_AXES
  6
Continuous
 62
     7
100
AcDbCircle
 10
316.4318165572
 20
160.1769078362
 30
0.0
 40
5.2106830756
100
AcDbArc
 50
161.7914064137
 51
163.1399399403
  0
ARC
  5
3EF
330
225
100
AcDbEntity
  8
02___PRT_ALL_AXES
  6
Continuous
 62
     7
100
AcDbCircle
 10
343.5438756913
 20
160.1791169865
 30
0.0
 40
5.2016040148
100
AcDbArc
 50
16.8310959864
 51
17.8795998324
  0
ARC
  5
3F0
330
225
100
AcDbEntity
  8
02___PRT_ALL_AXES
  6
Continuous
 62
     7
100
AcDbCircle
 10
316.3436604948
 20
160.2035128973
 30
0.0
 40
5.1185999122
100
AcDbArc
 50
163.1387434832
 51
164.9871686761
  0
ARC
  5
3F1
330
225
100
AcDbEntity
  8
02___PRT_ALL_AXES
  6
Continuous
 62
     7
100
AcDbCircle
 10
343.6424477999
 20
160.2085570432
 30
0.0
 40
5.0987300955
100
AcDbArc
 50
14.4455909709
 51
16.8351724838
  0
ARC
  5
3F2
330
225
100
AcDbEntity
  8
3_ALL_AXES
  6
Continuous
 62
     7
100
AcDbCircle
 10
316.3253271
 20
161.7884655411
 30
0.0
 40
4.9966964603
100
AcDbArc
 50
163.3589316648
 51
169.2985470287
  0
ARC
  5
3F3
330
225
100
AcDbEntity
  8
7_ALL_FEATURES
  6
Continuous
 62
     9
100
AcDbCircle
 10
343.6775877587
 20
161.103654816
 30
0.0
 40
4.9598031443
100
AcDbArc
 50
11.6904442147
 51
15.5321757746
  0
ARC
  5
3F4
330
225
100
AcDbEntity
  8
02___PRT_ALL_AXES
  6
Continuous
 62
     7
100
AcDbCircle
 10
316.1469341948
 20
161.9843209737
 30
0.0
 40
4.9158850024
100
AcDbArc
 50
167.2539400609
 51
169.4803531599
  0
ARC
  5
3F5
330
225
100
AcDbEntity
  8
3_ALL_AXES
  6
Continuous
 62
     7
100
AcDbCircle
 10
343.7296563611
 20
161.8078466434
 30
0.0
 40
4.9065311489
100
AcDbArc
 50
10.7837269337
 51
13.5579104419
  0
ARC
  5
3F6
330
225
100
AcDbEntity
  8
02___PRT_ALL_AXES
  6
Continuous
 62
     7
100
AcDbCircle
 10
343.8629192004
 20
161.8192866488
 30
0.0
 40
4.8721330629
100
AcDbArc
 50
10.1712097027
 51
10.8691376175
  0
ARC
  5
3F7
330
225
100
AcDbEntity
  8
7_ALL_FEATURES
  6
Continuous
 62
     9
100
AcDbCircle
 10
316.1903396486
 20
161.1259016037
 30
0.0
 40
4.8584174684
100
AcDbArc
 50
166.2477625328
 51
172.9074360387
  0
ARC
  5
3F8
330
225
100
AcDbEntity
  8
02___PRT_ALL_AXES
  6
Continuous
 62
     7
100
AcDbCircle
 10
316.0767040374
 20
161.9975276003
 30
0.0
 40
4.8444240818
100
AcDbArc
 50
169.4822756255
 51
171.1329002807
  0
ARC
  5
3F9
330
225
100
AcDbEntity
  8
02___PRT_ALL_AXES
  6
Continuous
 62
     7
100
AcDbCircle
 10
316.0401656502
 20
162.0033459912
 30
0.0
 40
4.8074255185
100
AcDbArc
 50
171.1342912994
 51
171.7907768528
  0
ARC
  5
3FA
330
225
100
AcDbEntity
  8
02___PRT_ALL_AXES
  6
Continuous
 62
     7
100
AcDbCircle
 10
343.9357979696
 20
161.8317460573
 30
0.0
 40
4.7981994516
100
AcDbArc
 50
6.1645999359
 51
10.1784468726
  0
ARC
  5
3FB
330
225
100
AcDbEntity
  8
02___PRT_ALL_AXES
  6
Continuous
 62
     7
100
AcDbCircle
 10
316.0212665232
 20
161.8340201842
 30
0.0
 40
4.7881515819
100
AcDbArc
 50
169.629987449
 51
175.5582029179
  0
ARC
  5
3FC
330
225
100
AcDbEntity
  8
7_ALL_FEATURES
  6
Continuous
 62
     9
100
AcDbCircle
 10
343.8611720741
 20
161.1395452586
 30
0.0
 40
4.7727551657
100
AcDbArc
 50
5.5980416886
 51
11.7150855554
  0
ARC
  5
3FD
330
225
100
AcDbEntity
  8
02___PRT_ALL_AXES
  6
Continuous
 62
     7
100
AcDbCircle
 10
343.9730288934
 20
162.0102478551
 30
0.0
 40
4.7605937756
100
AcDbArc
 50
4.4567821832
 51
8.3481044362
  0
ARC
  5
3FE
330
225
100
AcDbEntity
  8
02___PRT_ALL_AXES
  6
Continuous
 62
     7
100
AcDbCircle
 10
315.9841603711
 20
162.0109850156
 30
0.0
 40
4.750903368
100
AcDbArc
 50
171.7855169291
 51
175.6649812239
  0
ARC
  5
3FF
330
225
100
AcDbEntity
  8
3_ALL_AXES
  6
Continuous
 62
     7
100
AcDbCircle
 10
316.0788785458
 20
161.8367849872
 30
0.0
 40
4.7455619158
100
AcDbArc
 50
169.3192612404
 51
178.4007530738
  0
ARC
  5
400
330
225
100
AcDbEntity
  8
3_ALL_AXES
  6
Continuous
 62
     7
100
AcDbCircle
 10
343.8951877886
 20
161.8380279727
 30
0.0
 40
4.7382761231
100
AcDbArc
 50
0.4840815487
 51
10.7997244873
  0
ARC
  5
401
330
225
100
AcDbEntity
  8
02___PRT_ALL_AXES
  6
Continuous
 62
     7
100
AcDbCircle
 10
288.8173270248
 20
129.2527176992
 30
0.0
 40
4.1920731183
100
AcDbArc
 50
243.4192125174
 51
261.6924933361
  0
ARC
  5
402
330
225
100
AcDbEntity
  8
7_ALL_FEATURES
  6
Continuous
 62
     7
100
AcDbCircle
 10
315.4749494799
 20
161.118731168
 30
0.0
 40
4.1437506323
100
AcDbArc
 50
167.0559870423
 51
170.2515576775
  0
ARC
  5
403
330
225
100
AcDbEntity
  8
7_ALL_FEATURES
  6
Continuous
 62
     7
100
AcDbCircle
 10
344.5053313849
 20
161.1212590349
 30
0.0
 40
4.1301167289
100
AcDbArc
 50
9.7101891087
 51
12.3957149693
  0
ARC
  5
404
330
225
100
AcDbEntity
  8
7_ALL_FEATURES
  6
Continuous
 62
     7
100
AcDbCircle
 10
315.3753154015
 20
161.1361948106
 30
0.0
 40
4.0425982271
100
AcDbArc
 50
170.2563930408
 51
172.7548277041
  0
ARC
  5
405
330
225
100
AcDbEntity
  8
7_ALL_FEATURES
  6
Continuous
 62
     7
100
AcDbCircle
 10
344.6117242141
 20
161.1394385513
 30
0.0
 40
4.0221818956
100
AcDbArc
 50
5.1745879771
 51
9.7105544045
  0
ARC
  5
406
330
225
100
AcDbEntity
  8
02___PRT_ALL_AXES
  6
Continuous
 62
     7
100
AcDbCircle
 10
286.1244859389
 20
129.2495634823
 30
0.0
 40
2.9971140012
100
AcDbArc
 50
63.4291670937
 51
64.8220165581
  0
ARC
  5
407
330
225
100
AcDbEntity
  8
02___PRT_ALL_AXES
  6
Continuous
 62
     7
100
AcDbCircle
 10
287.3396483215
 20
127.1587944274
 30
0.0
 40
2.801957454
100
AcDbArc
 50
344.775548973
 51
348.2317402758
  0
ARC
  5
408
330
225
100
AcDbEntity
  8
02___PRT_ALL_AXES
  6
Continuous
 62
     7
100
AcDbCircle
 10
287.7320597567
 20
127.2600567385
 30
0.0
 40
2.6738994114
100
AcDbArc
 50
344.0116722482999
 51
344.7635525466
  0
ARC
  5
409
330
225
100
AcDbEntity
  8
02___PRT_ALL_AXES
  6
Continuous
 62
     7
100
AcDbCircle
 10
286.4084151281
 20
130.7518106254
 30
0.0
 40
1.4378835838
100
AcDbArc
 50
104.8917806583
 51
116.5507201948
  0
ARC
  5
40A
330
225
100
AcDbEntity
  8
02___PRT_ALL_AXES
  6
Continuous
 62
     7
100
AcDbCircle
 10
288.5216322287
 20
126.5255989874
 30
0.0
 40
1.4370147447
100
AcDbArc
 50
296.5754222965999
 51
308.4120634604
  0
SPLINE
  5
40B
330
225
100
AcDbEntity
  8
02___PRT_ALL_AXES
  6
Continuous
 62
     7
100
AcDbSpline
 70
     0
 71
     3
 72
    19
 73
    15
 74
     0
 42
0.000000001
 43
0.0000001
 40
0.0
 40
0.0
 40
0.0
 40
0.0
 40
0.1683075029
 40
0.2404576968
 40
0.3036660769
 40
0.4090527407
 40
0.4554823394
 40
0.5000445236
 40
0.5446094138
 40
0.5910415449
 40
0.6964181475
 40
0.7596236278
 40
0.8317654351
 40
1.0
 40
1.0
 40
1.0
 40
1.0
 10
80.5958806818
 20
196.7382102273
 30
0.0
 10
80.5958806818
 20
196.631599895
 30
0.0
 10
80.6200556088
 20
196.4772686976
 30
0.0
 10
80.6988787111
 20
196.300870776
 30
0.0
 10
80.7848303185
 20
196.1743354553
 30
0.0
 10
80.8922747051
 20
196.0833540574
 30
0.0
 10
81.009908723
 20
196.0398837773
 30
0.0
 10
81.0959695309
 20
196.0295095987
 30
0.0
 10
81.1820302823
 20
196.0399157293
 30
0.0
 10
81.2996316116
 20
196.0834643847
 30
0.0
 10
81.4070446972
 20
196.1744585361
 30
0.0
 10
81.4929599744
 20
196.3010046328
 30
0.0
 10
81.5717188191
 20
196.4773711698
 30
0.0
 10
81.5958806818
 20
196.6316460958
 30
0.0
 10
81.5958806818
 20
196.7382102273
 30
0.0
  0
SPLINE
  5
40C
330
225
100
AcDbEntity
  8
02___PRT_ALL_AXES
  6
Continuous
 62
     7
100
AcDbSpline
 70
     0
 71
     3
 72
    11
 73
     7
 74
     0
 42
0.000000001
 43
0.0000001
 40
0.0
 40
0.0
 40
0.0
 40
0.0
 40
0.2699449571
 40
0.5270499909
 40
0.7701654741
 40
1.0
 40
1.0
 40
1.0
 40
1.0
 10
67.0958806818
 20
198.2382102273
 30
0.0
 10
67.2117066467
 20
198.1223842624
 30
0.0
 10
67.4452412614
 20
197.903383951
 30
0.0
 10
67.8137518627
 20
197.6146253053
 30
0.0
 10
68.1937526333
 20
197.3844383052
 30
0.0
 10
68.4617830585
 20
197.2765238339
 30
0.0
 10
68.5958806818
 20
197.2382102273
 30
0.0
  0
SPLINE
  5
40D
330
225
100
AcDbEntity
  8
02___PRT_ALL_AXES
  6
Continuous
 62
     7
100
AcDbSpline
 70
     0
 71
     3
 72
    11
 73
     7
 74
     0
 42
0.000000001
 43
0.0000001
 40
0.0
 40
0.0
 40
0.0
 40
0.0
 40
0.2500103617
 40
0.5000189242
 40
0.7500124732
 40
1.0
 40
1.0
 40
1.0
 40
1.0
 10
71.0958806818
 20
198.2382102273
 30
0.0
 10
71.3325533595
 20
198.1198738884
 30
0.0
 10
71.8123208719
 20
197.8956891529
 30
0.0
 10
72.552611589
 20
197.607252155
 30
0.0
 10
73.3138288587
 20
197.3789017519
 30
0.0
 10
73.8339559547
 20
197.2756280454
 30
0.0
 10
74.0958806818
 20
197.2382102273
 30
0.0
  0
SPLINE
  5
40E
330
225
100
AcDbEntity
  8
02___PRT_ALL_AXES
  6
Continuous
 62
     7
100
AcDbSpline
 70
     0
 71
     3
 72
    11
 73
     7
 74
     0
 42
0.000000001
 43
0.0000001
 40
0.0
 40
0.0
 40
0.0
 40
0.0
 40
0.2499875457
 40
0.4999810974
 40
0.7499896465
 40
1.0
 40
1.0
 40
1.0
 40
1.0
 10
76.0958806818
 20
197.2382102273
 30
0.0
 10
76.3578054288
 20
197.2756280483
 30
0.0
 10
76.877932547
 20
197.3789017609
 30
0.0
 10
77.6391498227
 20
197.6072521741
 30
0.0
 10
78.3794405193
 20
197.8956891687
 30
0.0
 10
78.8592080119
 20
198.1198738923
 30
0.0
 10
79.0958806818
 20
198.2382102273
 30
0.0
  0
SPLINE
  5
40F
330
225
100
AcDbEntity
  8
02___PRT_ALL_AXES
  6
Continuous
 62
     7
100
AcDbSpline
 70
     0
 71
     3
 72
    19
 73
    15
 74
     0
 42
0.000000001
 43
0.0000001
 40
0.0
 40
0.0
 40
0.0
 40
0.0
 40
0.062499569
 40
0.1250450196
 40
0.1876243679
 40
0.2502137548
 40
0.3750836247
 40
0.5000591496
 40
0.6250261711
 40
0.7498800617
 40
0.8124624827
 40
0.8750225901
 40
0.9375286272
 40
1.0
 40
1.0
 40
1.0
 40
1.0
 10
74.0958806818
 20
196.7382102273
 30
0.0
 10
74.0958806818
 20
196.6821366155
 30
0.0
 10
74.1153897968
 20
196.5691475216
 30
0.0
 10
74.195173767
 20
196.4184251384
 30
0.0
 10
74.3102332215
 20
196.2933754295
 30
0.0
 10
74.4936769211
 20
196.1622095635
 30
0.0
 10
74.7590768585
 20
196.0590788122
 30
0.0
 10
75.0960345696
 20
196.0198223897
 30
0.0
 10
75.4329664027
 20
196.0591601018
 30
0.0
 10
75.6983205895
 20
196.1623284195
 30
0.0
 10
75.8817022167
 20
196.2935195758
 30
0.0
 10
75.9966729867
 20
196.418569605
 30
0.0
 10
76.0763907624
 20
196.5692337083
 30
0.0
 10
76.0958806818
 20
196.6821619127
 30
0.0
 10
76.0958806818
 20
196.7382102273
 30
0.0
  0
SPLINE
  5
410
330
225
100
AcDbEntity
  8
02___PRT_ALL_AXES
  6
Continuous
 62
     7
100
AcDbSpline
 70
     0
 71
     3
 72
    11
 73
     7
 74
     0
 42
0.000000001
 43
0.0000001
 40
0.0
 40
0.0
 40
0.0
 40
0.0
 40
0.2699449571
 40
0.5270499909
 40
0.7701654741
 40
1.0
 40
1.0
 40
1.0
 40
1.0
 10
79.0958806818
 20
198.2382102273
 30
0.0
 10
79.2117066467
 20
198.1223842624
 30
0.0
 10
79.4452412614
 20
197.903383951
 30
0.0
 10
79.8137518627
 20
197.6146253053
 30
0.0
 10
80.1937526333
 20
197.3844383052
 30
0.0
 10
80.4617830585
 20
197.2765238339
 30
0.0
 10
80.5958806818
 20
197.2382102273
 30
0.0
  0
SPLINE
  5
411
330
225
100
AcDbEntity
  8
02___PRT_ALL_AXES
  6
Continuous
 62
     7
100
AcDbSpline
 70
     0
 71
     3
 72
    11
 73
     7
 74
     0
 42
0.000000001
 43
0.0000001
 40
0.0
 40
0.0
 40
0.0
 40
0.0
 40
0.2298345438
 40
0.4729500311
 40
0.7300550521
 40
1.0
 40
1.0
 40
1.0
 40
1.0
 10
69.5958806818
 20
197.2382102273
 30
0.0
 10
69.7299783155
 20
197.2765238369
 30
0.0
 10
69.9980087526
 20
197.384438315
 30
0.0
 10
70.3780095242
 20
197.6146253242
 30
0.0
 10
70.7465201147
 20
197.9033839655
 30
0.0
 10
70.9800547209
 20
198.1223842663
 30
0.0
 10
71.0958806818
 20
198.2382102273
 30
0.0
  0
SPLINE
  5
412
330
225
100
AcDbEntity
  8
02___PRT_ALL_AXES
  6
Continuous
 62
     7
100
AcDbSpline
 70
     0
 71
     3
 72
    19
 73
    15
 74
     0
 42
0.000000001
 43
0.0000001
 40
0.0
 40
0.0
 40
0.0
 40
0.0
 40
0.1683000113
 40
0.2404505744
 40
0.3036556532
 40
0.4090388234
 40
0.4554737865
 40
0.5000393211
 40
0.5446067335
 40
0.591042408
 40
0.696430429
 40
0.7596418824
 40
0.8317824151
 40
1.0
 40
1.0
 40
1.0
 40
1.0
 10
68.5958806818
 20
196.7382102273
 30
0.0
 10
68.5958806818
 20
196.631604552
 30
0.0
 10
68.6200535466
 20
196.4772781255
 30
0.0
 10
68.698870623
 20
196.3008844025
 30
0.0
 10
68.7848183763
 20
196.1743515387
 30
0.0
 10
68.892255247
 20
196.0833638822
 30
0.0
 10
69.0098908082
 20
196.0398861808
 30
0.0
 10
69.0959586183
 20
196.0295101016
 30
0.0
 10
69.1820259039
 20
196.0399131893
 30
0.0
 10
69.299637947
 20
196.0834661992
 30
0.0
 10
69.4070607358
 20
196.1744713347
 30
0.0
 10
69.4929749607
 20
196.3010309541
 30
0.0
 10
69.5717210849
 20
196.4773944715
 30
0.0
 10
69.5958806818
 20
196.6316567631
 30
0.0
 10
69.5958806818
 20
196.7382102273
 30
0.0
  0
SPLINE
  5
413
330
225
100
AcDbEntity
  8
02___PRT_ALL_AXES
  6
Continuous
 62
     7
100
AcDbSpline
 70
     0
 71
     3
 72
    11
 73
     7
 74
     0
 42
0.000000001
 43
0.0000001
 40
0.0
 40
0.0
 40
0.0
 40
0.0
 40
0.2298345438
 40
0.4729500311
 40
0.7300550521
 40
1.0
 40
1.0
 40
1.0
 40
1.0
 10
81.5958806818
 20
197.2382102273
 30
0.0
 10
81.7299783155
 20
197.2765238369
 30
0.0
 10
81.9980087526
 20
197.384438315
 30
0.0
 10
82.3780095242
 20
197.6146253242
 30
0.0
 10
82.7465201147
 20
197.9033839655
 30
0.0
 10
82.9800547209
 20
198.1223842663
 30
0.0
 10
83.0958806818
 20
198.2382102273
 30
0.0
  0
SPLINE
  5
414
330
225
100
AcDbEntity
  8
02___PRT_ALL_AXES
  6
Continuous
 62
     7
100
AcDbSpline
 70
     0
 71
     3
 72
    13
 73
     9
 74
     0
 42
0.000000001
 43
0.0000001
 40
0.0
 40
0.0
 40
0.0
 40
0.0
 40
0.1130318083
 40
0.2274217246
 40
0.3444445056
 40
0.4652191182
 40
0.7210476959
 40
1.0
 40
1.0
 40
1.0
 40
1.0
 10
286.0342990921
 20
132.1723552759
 30
0.0
 10
286.0937550135
 20
132.2020859413
 30
0.0
 10
286.2177550424
 20
132.2535721425
 30
0.0
 10
286.4143705308
 20
132.3047545905
 30
0.0
 10
286.6205814849
 20
132.3298145678
 30
0.0
 10
286.9115553333
 20
132.3281773243
 30
0.0
 10
287.2937543055
 20
132.2564946832
 30
0.0
 10
287.5870726282
 20
132.137846019
 30
0.0
 10
287.7338071476
 20
132.0644787593
 30
0.0
  0
SPLINE
  5
415
330
225
100
AcDbEntity
  8
02___PRT_ALL_AXES
  6
Continuous
 62
     7
100
AcDbSpline
 70
     0
 71
     3
 72
    11
 73
     7
 74
     0
 42
0.000000001
 43
0.0000001
 40
0.0
 40
0.0
 40
0.0
 40
0.0
 40
0.2628149639
 40
0.5149612138
 40
0.7594745018
 40
1.0
 40
1.0
 40
1.0
 40
1.0
 10
285.0853445134
 20
131.357209118
 30
0.0
 10
285.1262775122
 20
131.4323592182
 30
0.0
 10
285.2160383951
 20
131.5747114052
 30
0.0
 10
285.3771454326
 20
131.7635102628
 30
0.0
 10
285.5599980342
 20
131.9205141241
 30
0.0
 10
285.6956453379
 20
132.0030318917
 30
0.0
 10
285.7656957393
 20
132.0380535993
 30
0.0
  0
SPLINE
  5
416
330
225
100
AcDbEntity
  8
02___PRT_ALL_AXES
  6
Continuous
 62
     7
100
AcDbSpline
 70
     0
 71
     3
 72
    15
 73
    11
 74
     0
 42
0.000000001
 43
0.0000001
 40
0.0
 40
0.0
 40
0.0
 40
0.0
 40
0.1250014395
 40
0.2500131645
 40
0.3750241634
 40
0.5000289747
 40
0.6250377494
 40
0.7500358608
 40
0.8750156828
 40
1.0
 40
1.0
 40
1.0
 40
1.0
 10
285.0853422091
 20
131.3572117498
 30
0.0
 10
284.9491055115
 20
131.1070802394
 30
0.0
 10
284.7273703421
 20
130.5772169307
 30
0.0
 10
284.5631431305
 20
129.7328891484
 30
0.0
 10
284.5718028194
 20
128.8725418697
 30
0.0
 10
284.7513429531
 20
128.031319143
 30
0.0
 10
285.0927779243
 20
127.2419458848
 30
0.0
 10
285.5824857435
 20
126.5348692636
 30
0.0
 10
286.2019106392
 20
125.9385431925
 30
0.0
 10
286.6868234124
 20
125.6310894526
 30
0.0
 10
286.9415452011
 20
125.5037285582
 30
0.0
  0
SPLINE
  5
417
330
225
100
AcDbEntity
  8
02___PRT_ALL_AXES
  6
Continuous
 62
     7
100
AcDbSpline
 70
     0
 71
     3
 72
    11
 73
     7
 74
     0
 42
0.000000001
 43
0.0000001
 40
0.0
 40
0.0
 40
0.0
 40
0.0
 40
0.2319342464
 40
0.4718691243
 40
0.7264155721
 40
1.0
 40
1.0
 40
1.0
 40
1.0
 10
289.4333152031
 20
125.3748091738
 30
0.0
 10
289.5357018763
 20
125.4260071679
 30
0.0
 10
289.7320076745
 20
125.5561608528
 30
0.0
 10
289.9784397275
 20
125.8205191147
 30
0.0
 10
290.1742451826
 20
126.1479580482
 30
0.0
 10
290.265331302
 20
126.3937470277
 30
0.0
 10
290.3025269328
 20
126.5235538132
 30
0.0
  0
SPLINE
  5
418
330
225
100
AcDbEntity
  8
02___PRT_ALL_AXES
  6
Continuous
 62
     7
100
AcDbSpline
 70
     0
 71
     3
 72
    17
 73
    13
 74
     0
 42
0.000000001
 43
0.0000001
 40
0.0
 40
0.0
 40
0.0
 40
0.0
 40
0.1091319744
 40
0.1681975598
 40
0.2298934127
 40
0.3595316514
 40
0.4944035581
 40
0.6301013213
 40
0.7621207714
 40
0.8255021468
 40
0.8865077126
 40
1.0
 40
1.0
 40
1.0
 40
1.0
 10
290.3119703025
 20
126.5573479525
 30
0.0
 10
290.3738527216
 20
126.7845243707
 30
0.0
 10
290.424046979
 20
127.1478102206
 30
0.0
 10
290.4211300862
 20
127.6440802079
 30
0.0
 10
290.3694541154
 20
128.182570114
 30
0.0
 10
290.214283215
 20
128.8722265312
 30
0.0
 10
289.9026850274
 20
129.6805388548
 30
0.0
 10
289.4786643847
 20
130.4418129801
 30
0.0
 10
289.0437957866
 20
131.0122196926
 30
0.0
 10
288.6579059573
 20
131.4095101795
 30
0.0
 10
288.2702718978
 20
131.7462964948
 30
0.0
 10
287.9528178289
 20
131.9549734186
 30
0.0
 10
287.7338071476
 20
132.0644787593
 30
0.0
  0
SPLINE
  5
419
330
225
100
AcDbEntity
  8
02___PRT_ALL_AXES
  6
Continuous
 62
     7
100
AcDbSpline
 70
     0
 71
     3
 72
    11
 73
     7
 74
     0
 42
0.000000001
 43
0.0000001
 40
0.0
 40
0.0
 40
0.0
 40
0.0
 40
0.2628101541
 40
0.5149601561
 40
0.7594739372
 40
1.0
 40
1.0
 40
1.0
 40
1.0
 10
288.2116318482
 20
125.1046323518
 30
0.0
 10
288.2963100448
 20
125.0922887373
 30
0.0
 10
288.4640488137
 20
125.078697134
 30
0.0
 10
288.7117504389
 20
125.0942980596
 30
0.0
 10
288.9470706032
 20
125.1463670542
 30
0.0
 10
289.094466923
 20
125.2053885271
 30
0.0
 10
289.1645174022
 20
125.2404102736
 30
0.0
  0
SPLINE
  5
41A
330
225
100
AcDbEntity
  8
02___PRT_ALL_AXES
  6
Continuous
 62
     7
100
AcDbSpline
 70
     0
 71
     3
 72
    11
 73
     7
 74
     0
 42
0.000000001
 43
0.0000001
 40
0.0
 40
0.0
 40
0.0
 40
0.0
 40
0.2289811959
 40
0.4695489333
 40
0.7257514972
 40
1.0
 40
1.0
 40
1.0
 40
1.0
 10
286.0388874451
 20
132.1413999504
 30
0.0
 10
286.1420654616
 20
132.1689507523
 30
0.0
 10
286.3603583431
 20
132.2024276422
 30
0.0
 10
286.7003428033
 20
132.1866966929
 30
0.0
 10
287.0526911773
 20
132.1073104652
 30
0.0
 10
287.2837982241
 20
132.0163343135
 30
0.0
 10
287.3995528539
 20
131.9619234692
 30
0.0
  0
SPLINE
  5
41B
330
225
100
AcDbEntity
  8
02___PRT_ALL_AXES
  6
Continuous
 62
     7
100
AcDbSpline
 70
     0
 71
     3
 72
    26
 73
    22
 74
     0
 42
0.000000001
 43
0.0000001
 40
0.0
 40
0.0
 40
0.0
 40
0.0
 40
0.0632647468
 40
0.1318235424
 40
0.2045852783
 40
0.2800325945
 40
0.3564173132
 40
0.4319112073
 40
0.504760785
 40
0.5734449702
 40
0.6368519666
 40
0.6944887079
 40
0.7467237011
 40
0.7712872296
 40
0.7951337712
 40
0.8186017946
 40
0.8420602105
 40
0.8658792758
 40
0.8903991154
 40
0.942507939
 40
1.0
 40
1.0
 40
1.0
 40
1.0
 10
286.178172229
 20
126.2940248471
 30
0.0
 10
286.0830521357
 20
126.3415848938
 30
0.0
 10
285.8945217083
 20
126.4606087524
 30
0.0
 10
285.6356209548
 20
126.6886885258
 30
0.0
 10
285.3972244727
 20
126.9656851183
 30
0.0
 10
285.1882575017
 20
127.2812365841
 30
0.0
 10
285.0164353595
 20
127.6235770782
 30
0.0
 10
284.8881966348
 20
127.9799057794
 30
0.0
 10
284.808346087
 20
128.3369479393
 30
0.0
 10
284.7799063345
 20
128.6815084777
 30
0.0
 10
284.8042229418
 20
129.0011101215
 30
0.0
 10
284.8809151387
 20
129.2841870833
 30
0.0
 10
284.9900802973
 20
129.485256872
 30
0.0
 10
285.1010602273
 20
129.6136983565
 30
0.0
 10
285.1932991603
 20
129.6925042883
 30
0.0
 10
285.2952492038
 20
129.7548062775
 30
0.0
 10
285.4058517419
 20
129.7998814203
 30
0.0
 10
285.5238955051
 20
129.8272914049
 30
0.0
 10
285.6928225741
 20
129.8402531929
 30
0.0
 10
285.9188281663
 20
129.8085460009
 30
0.0
 10
286.0917315099
 20
129.7407250436
 30
0.0
 10
286.178172229
 20
129.697504684
 30
0.0
  0
SPLINE
  5
41C
330
225
100
AcDbEntity
  8
02___PRT_ALL_AXES
  6
Continuous
 62
     7
100
AcDbSpline
 70
     0
 71
     3
 72
    11
 73
     7
 74
     0
 42
0.000000001
 43
0.0000001
 40
0.0
 40
0.0
 40
0.0
 40
0.0
 40
0.2319225105
 40
0.4738059963
 40
0.7290844434
 40
1.0
 40
1.0
 40
1.0
 40
1.0
 10
289.4144678415
 20
125.3996078929
 30
0.0
 10
289.4884640332
 20
125.4581352138
 30
0.0
 10
289.6284108038
 20
125.5925267101
 30
0.0
 10
289.8035945325
 20
125.8334959169
 30
0.0
 10
289.9453421221
 20
126.1132472224
 30
0.0
 10
290.0143050333
 20
126.316665443
 30
0.0
 10
290.0432697257
 20
126.4229976641
 30
0.0
  0
SPLINE
  5
41D
330
225
100
AcDbEntity
  8
02___PRT_ALL_AXES
  6
Continuous
 62
     7
100
AcDbSpline
 70
     0
 71
     3
 72
    17
 73
    13
 74
     0
 42
0.000000001
 43
0.0000001
 40
0.0
 40
0.0
 40
0.0
 40
0.0
 40
0.1113759969
 40
0.1712707349
 40
0.233567797
 40
0.3637217454
 40
0.4982869639
 40
0.6331018449
 40
0.7639780494
 40
0.8267886845
 40
0.8872744198
 40
1.0
 40
1.0
 40
1.0
 40
1.0
 10
290.0827100972
 20
126.5873246832
 30
0.0
 10
290.1305973779
 20
126.816419718
 30
0.0
 10
290.1628074821
 20
127.1781340183
 30
0.0
 10
290.1409824994
 20
127.6687302807
 30
0.0
 10
290.0729018832
 20
128.1952449864
 30
0.0
 10
289.9041638416
 20
128.8642259442
 30
0.0
 10
289.585786569
 20
129.6438825552
 30
0.0
 10
289.1639787358
 20
130.3745314906
 30
0.0
 10
288.7373655854
 20
130.9206607344
 30
0.0
 10
288.3613629808
 20
131.3008511204
 30
0.0
 10
287.9844970391
 20
131.6236866932
 30
0.0
 10
287.6769806706
 20
131.8241914209
 30
0.0
 10
287.4651065707
 20
131.9301284708
 30
0.0
  0
SPLINE
  5
41E
330
225
100
AcDbEntity
  8
02___PRT_ALL_AXES
  6
Continuous
 62
     7
100
AcDbSpline
 70
     0
 71
     3
 72
    26
 73
    22
 74
     0
 42
0.000000001
 43
0.0000001
 40
0.0
 40
0.0
 40
0.0
 40
0.0
 40
0.057492061
 40
0.1096008846
 40
0.1341207242
 40
0.1579397895
 40
0.1813982054
 40
0.2048662288
 40
0.2287127704
 40
0.2532762989
 40
0.3055112921
 40
0.3631480334
 40
0.4265550298
 40
0.495239215
 40
0.5680887927
 40
0.6435826868
 40
0.7199674055
 40
0.7954147217
 40
0.8681764576
 40
0.9367352532
 40
1.0
 40
1.0
 40
1.0
 40
1.0
 10
286.178172229
 20
126.2940248471
 30
0.0
 10
286.2646129481
 20
126.2508044876
 30
0.0
 10
286.4375162916
 20
126.1829835303
 30
0.0
 10
286.6635218838
 20
126.1512763382
 30
0.0
 10
286.8324489529
 20
126.1642381263
 30
0.0
 10
286.950492716
 20
126.1916481108
 30
0.0
 10
287.0610952542
 20
126.2367232537
 30
0.0
 10
287.1630452976
 20
126.2990252429
 30
0.0
 10
287.2552842306
 20
126.3778311746
 30
0.0
 10
287.3662641606
 20
126.5062726591
 30
0.0
 10
287.4754293192
 20
126.7073424479
 30
0.0
 10
287.5521215161
 20
126.9904194097
 30
0.0
 10
287.5764381235
 20
127.3100210534
 30
0.0
 10
287.547998371
 20
127.6545815918
 30
0.0
 10
287.4681478232
 20
128.0116237517
 30
0.0
 10
287.3399090984
 20
128.367952453
 30
0.0
 10
287.1680869563
 20
128.710292947
 30
0.0
 10
286.9591199853
 20
129.0258444129
 30
0.0
 10
286.7207235031
 20
129.3028410054
 30
0.0
 10
286.4618227497
 20
129.5309207788
 30
0.0
 10
286.2732923223
 20
129.6499446374
 30
0.0
 10
286.178172229
 20
129.697504684
 30
0.0
  0
SPLINE
  5
41F
330
225
100
AcDbEntity
  8
02___PRT_ALL_AXES
  6
Continuous
 62
     7
100
AcDbSpline
 70
     0
 71
     3
 72
     9
 73
     5
 74
     0
 42
0.000000001
 43
0.0000001
 40
0.0
 40
0.0
 40
0.0
 40
0.0
 40
0.2548256727
 40
1.0
 40
1.0
 40
1.0
 40
1.0
 10
311.679109402
 20
164.0474285552
 30
0.0
 10
311.6435119813
 20
163.9672660953
 30
0.0
 10
311.5110651272
 20
163.6495413891
 30
0.0
 10
311.4087639558
 20
163.3190857692
 30
0.0
 10
311.3521889135
 20
163.0689144668
 30
0.0
  0
SPLINE
  5
420
330
225
100
AcDbEntity
  8
02___PRT_ALL_AXES
  6
Continuous
 62
     7
100
AcDbSpline
 70
     0
 71
     3
 72
     9
 73
     5
 74
     0
 42
0.000000001
 43
0.0000001
 40
0.0
 40
0.0
 40
0.0
 40
0.0
 40
0.4927721041
 40
1.0
 40
1.0
 40
1.0
 40
1.0
 10
348.6831805676
 20
162.7014238831
 30
0.0
 10
348.6500236991
 20
162.9275089003
 30
0.0
 10
348.5496824237
 20
163.381987036
 30
0.0
 10
348.3887227986
 20
163.8184326872
 30
0.0
 10
348.2938498374
 20
164.0336565729
 30
0.0
  0
SPLINE
  5
421
330
225
100
AcDbEntity
  8
7_ALL_FEATURES
  6
Continuous
 62
     7
100
AcDbSpline
 70
     0
 71
     3
 72
    14
 73
    10
 74
     0
 42
0.000000001
 43
0.0000001
 40
0.0
 40
0.0
 40
0.0
 40
0.0
 40
0.2894143561
 40
0.4222696615
 40
0.5478488472
 40
0.6670541279
 40
0.7810984665
 40
0.8914952302
 40
1.0
 40
1.0
 40
1.0
 40
1.0
 10
314.8782675678
 20
168.0488775933
 30
0.0
 10
314.3606251977
 20
167.6828628751
 30
0.0
 10
313.6406513047
 20
167.0922279154
 30
0.0
 10
312.8336378417
 20
166.2016576504
 30
0.0
 10
312.346450049
 20
165.5308081096
 30
0.0
 10
311.9634305896
 20
164.8420267374
 30
0.0
 10
311.6874256811
 20
164.1390315693
 30
0.0
 10
311.5207201731
 20
163.4263811802
 30
0.0
 10
311.4834629613
 20
162.9460769732
 30
0.0
 10
311.4834505817
 20
162.7083936108
 30
0.0
  0
SPLINE
  5
422
330
225
100
AcDbEntity
  8
7_ALL_FEATURES
  6
Continuous
 62
     7
100
AcDbSpline
 70
     0
 71
     3
 72
     9
 73
     5
 74
     0
 42
0.000000001
 43
0.0000001
 40
0.0
 40
0.0
 40
0.0
 40
0.0
 40
0.2582917151
 40
1.0
 40
1.0
 40
1.0
 40
1.0
 10
345.088629767
 20
168.0488856149
 30
0.0
 10
345.1936263294
 20
167.9746424508
 30
0.0
 10
345.5958420034
 20
167.6812326401
 30
0.0
 10
345.980409938
 20
167.363276489
 30
0.0
 10
346.2517015562
 20
167.1127569908
 30
0.0
  0
SPLINE
  5
423
330
225
100
AcDbEntity
  8
7_ALL_FEATURES
  6
Continuous
 62
     7
100
AcDbSpline
 70
     0
 71
     3
 72
    11
 73
     7
 74
     0
 42
0.000000001
 43
0.0000001
 40
0.0
 40
0.0
 40
0.0
 40
0.0
 40
0.2787827374
 40
0.5342316103
 40
0.7719498257
 40
1.0
 40
1.0
 40
1.0
 40
1.0
 10
346.3395721033
 20
167.0306284225
 30
0.0
 10
346.674011948
 20
166.7142178221
 30
0.0
 10
347.2742137148
 20
166.0616872712
 30
0.0
 10
347.9642479978
 20
164.9806147899
 30
0.0
 10
348.3874205179
 20
163.8571666295
 30
0.0
 10
348.4834436811
 20
163.0850083409
 30
0.0
 10
348.4834240653
 20
162.7083936111
 30
0.0
  0
SPLINE
  5
424
330
225
100
AcDbEntity
  8
7_ALL_FEATURES
  6
Continuous
 62
     7
100
AcDbSpline
 70
     0
 71
     3
 72
     9
 73
     5
 74
     0
 42
0.000000001
 43
0.0000001
 40
0.0
 40
0.0
 40
0.0
 40
0.0
 40
0.2603612796
 40
1.0
 40
1.0
 40
1.0
 40
1.0
 10
342.9234914192
 20
169.3516257395
 30
0.0
 10
343.1042045863
 20
169.261269156
 30
0.0
 10
343.7923271852
 20
168.9025911169
 30
0.0
 10
344.456165687
 20
168.496068829
 30
0.0
 10
344.9248261202
 20
168.164712198
 30
0.0
  0
SPLINE
  5
425
330
225
100
AcDbEntity
  8
7_ALL_FEATURES
  6
Continuous
 62
     7
100
AcDbSpline
 70
     0
 71
     3
 72
    19
 73
    15
 74
     0
 42
0.000000001
 43
0.0000001
 40
0.0
 40
0.0
 40
0.0
 40
0.0
 40
0.0560381099
 40
0.1153445797
 40
0.1775061832
 40
0.2420805176
 40
0.3762826312
 40
0.5134279131
 40
0.6486812839
 40
0.777368304
 40
0.8379733649
 40
0.8954837136
 40
0.9495664928
 40
1.0
 40
1.0
 40
1.0
 40
1.0
 10
342.9234914192
 20
169.3516257395
 30
0.0
 10
342.4394591318
 20
169.5936418832
 30
0.0
 10
341.4205578111
 20
170.0474114229
 30
0.0
 10
339.8046192623
 20
170.6235409941
 30
0.0
 10
338.0733842746
 20
171.1089691358
 30
0.0
 10
335.6074368501
 20
171.6342284416
 30
0.0
 10
332.3792167351
 20
172.0241841936
 30
0.0
 10
328.4455431715
 20
172.0702870466
 30
0.0
 10
324.5826091726
 20
171.6979810065
 30
0.0
 10
321.5089845212
 20
171.0411051316
 30
0.0
 10
319.2385391378
 20
170.3104853863
 30
0.0
 10
317.6953908393
 20
169.686165399
 30
0.0
 10
316.2960369273
 20
168.9820638326
 30
0.0
 10
315.4388570749
 20
168.4452848586
 30
0.0
 10
315.0411951302
 20
168.1640849724
 30
0.0
  0
SPLINE
  5
426
330
225
100
AcDbEntity
  8
7_ALL_FEATURES
  6
Continuous
 62
     7
100
AcDbSpline
 70
     0
 71
     3
 72
     9
 73
     5
 74
     0
 42
0.000000001
 43
0.0000001
 40
0.0
 40
0.0
 40
0.0
 40
0.0
 40
0.5238668616
 40
1.0
 40
1.0
 40
1.0
 40
1.0
 10
314.8769377051
 20
168.0459755241
 30
0.0
 10
314.4567636823
 20
167.7387262086
 30
0.0
 10
313.6896511901
 20
167.1016943985
 30
0.0
 10
313.0300479837
 20
166.3507341405
 30
0.0
 10
312.7546016691
 20
165.9660905911
 30
0.0
  0
SPLINE
  5
427
330
225
100
AcDbEntity
  8
7_ALL_FEATURES
  6
Continuous
 62
     7
100
AcDbSpline
 70
     0
 71
     3
 72
    14
 73
    10
 74
     0
 42
0.000000001
 43
0.0000001
 40
0.0
 40
0.0
 40
0.0
 40
0.0
 40
0.2630858712
 40
0.3868927636
 40
0.5076372087
 40
0.627306439
 40
0.7479635311
 40
0.8715977397
 40
1.0
 40
1.0
 40
1.0
 40
1.0
 10
312.7546016691
 20
165.9660905911
 30
0.0
 10
312.4578026276
 20
165.5516292942
 30
0.0
 10
312.0842356552
 20
164.8893823397
 30
0.0
 10
311.790181511
 20
163.9478295977
 30
0.0
 10
311.6802784461
 20
163.2479072018
 30
0.0
 10
311.6779000224
 20
162.5455685782
 30
0.0
 10
311.7832469018
 20
161.8455219289
 30
0.0
 10
311.9949738736
 20
161.1526222302
 30
0.0
 10
312.2014218042
 20
160.7082022876
 30
0.0
 10
312.3199287377
 20
160.4894379363
 30
0.0
  0
SPLINE
  5
428
330
225
100
AcDbEntity
  8
7_ALL_FEATURES
  6
Continuous
 62
     7
100
AcDbSpline
 70
     0
 71
     3
 72
     9
 73
     5
 74
     0
 42
0.000000001
 43
0.0000001
 40
0.0
 40
0.0
 40
0.0
 40
0.0
 40
0.2425284139
 40
1.0
 40
1.0
 40
1.0
 40
1.0
 10
312.3199287377
 20
160.4894379363
 30
0.0
 10
312.3679409592
 20
160.4008071519
 30
0.0
 10
312.5750063288
 20
160.040319591
 30
0.0
 10
312.8170223264
 20
159.7002901682
 30
0.0
 10
313.0148415259
 20
159.4553828657
 30
0.0
  0
SPLINE
  5
429
330
225
100
AcDbEntity
  8
7_ALL_FEATURES
  6
Continuous
 62
     7
100
AcDbSpline
 70
     0
 71
     3
 72
    10
 73
     6
 74
     0
 42
0.000000001
 43
0.0000001
 40
0.0
 40
0.0
 40
0.0
 40
0.0
 40
0.463783847
 40
0.7229683059
 40
1.0
 40
1.0
 40
1.0
 40
1.0
 10
313.0148415259
 20
159.4553828657
 30
0.0
 10
313.5083185421
 20
158.8444405242
 30
0.0
 10
314.4219251608
 20
158.0058713491
 30
0.0
 10
315.8265513549
 20
157.0594418456
 30
0.0
 10
316.6237977078
 20
156.6213644038
 30
0.0
 10
317.0433832278
 20
156.4115716438
 30
0.0
  0
SPLINE
  5
42A
330
225
100
AcDbEntity
  8
7_ALL_FEATURES
  6
Continuous
 62
     7
100
AcDbSpline
 70
     0
 71
     3
 72
    15
 73
    11
 74
     0
 42
0.000000001
 43
0.0000001
 40
0.0
 40
0.0
 40
0.0
 40
0.0
 40
0.1024288435
 40
0.2076652187
 40
0.3182024651
 40
0.4360195778
 40
0.5625076206
 40
0.6984980331
 40
0.8443457904
 40
1.0
 40
1.0
 40
1.0
 40
1.0
 10
348.4834240653
 20
162.7083936111
 30
0.0
 10
348.4834084473
 20
162.408536809
 30
0.0
 10
348.4235272876
 20
161.7990420397
 30
0.0
 10
348.1568372769
 20
160.9013030705
 30
0.0
 10
347.717757572
 20
160.0239321098
 30
0.0
 10
347.1122813139
 20
159.1753825477
 30
0.0
 10
346.3472803754
 20
158.3625309346
 30
0.0
 10
345.4303815731
 20
157.5919353502
 30
0.0
 10
344.3701854619
 20
156.8701428537
 30
0.0
 10
343.5985769018
 20
156.4391537177
 30
0.0
 10
343.1926317539
 20
156.2321617728
 30
0.0
  0
SPLINE
  5
42B
330
225
100
AcDbEntity
  8
7_ALL_FEATURES
  6
Continuous
 62
     7
100
AcDbSpline
 70
     0
 71
     3
 72
    15
 73
    11
 74
     0
 42
0.000000001
 43
0.0000001
 40
0.0
 40
0.0
 40
0.0
 40
0.0
 40
0.1120821678
 40
0.2347646808
 40
0.365034522
 40
0.4992883809
 40
0.6336400037
 40
0.7641965623
 40
0.887329513
 40
1.0
 40
1.0
 40
1.0
 40
1.0
 10
343.1926317539
 20
156.2321617728
 30
0.0
 10
342.2915780521
 20
155.7727133495
 30
0.0
 10
340.3229965989
 20
154.9667050396
 30
0.0
 10
337.1344214896
 20
154.1132959714
 30
0.0
 10
333.6739623126
 20
153.5839122377
 30
0.0
 10
330.0734654884
 20
153.3993113899
 30
0.0
 10
326.4695335537
 20
153.5664703629
 30
0.0
 10
322.9989914327
 20
154.0791583459
 30
0.0
 10
319.7940151231
 20
154.9170844806
 30
0.0
 10
317.8113608669
 20
155.7129563872
 30
0.0
 10
316.9019618715
 20
156.1676558849
 30
0.0
  0
SPLINE
  5
42C
330
225
100
AcDbEntity
  8
7_ALL_FEATURES
  6
Continuous
 62
     7
100
AcDbSpline
 70
     0
 71
     3
 72
     9
 73
     5
 74
     0
 42
0.000000001
 43
0.0000001
 40
0.0
 40
0.0
 40
0.0
 40
0.0
 40
0.4885577967
 40
1.0
 40
1.0
 40
1.0
 40
1.0
 10
311.4834505817
 20
162.7083936108
 30
0.0
 10
311.4834299032
 20
162.3113762645
 30
0.0
 10
311.5904863476
 20
161.4956343816
 30
0.0
 10
311.8941416487
 20
160.7331648353
 30
0.0
 10
312.086979625
 20
160.3649957778
 30
0.0
  0
SPLINE
  5
42D
330
225
100
AcDbEntity
  8
7_ALL_FEATURES
  6
Continuous
 62
     7
100
AcDbSpline
 70
     0
 71
     3
 72
     9
 73
     5
 74
     0
 42
0.000000001
 43
0.0000001
 40
0.0
 40
0.0
 40
0.0
 40
0.0
 40
0.2422932976
 40
1.0
 40
1.0
 40
1.0
 40
1.0
 10
312.086979625
 20
160.3649957778
 30
0.0
 10
312.1360305298
 20
160.2713470798
 30
0.0
 10
312.3486170908
 20
159.8901804315
 30
0.0
 10
312.6001126269
 20
159.531169324
 30
0.0
 10
312.8066497827
 20
159.273023077
 30
0.0
  0
SPLINE
  5
42E
330
225
100
AcDbEntity
  8
7_ALL_FEATURES
  6
Continuous
 62
     7
100
AcDbSpline
 70
     0
 71
     3
 72
    10
 73
     6
 74
     0
 42
0.000000001
 43
0.0000001
 40
0.0
 40
0.0
 40
0.0
 40
0.0
 40
0.4634556545
 40
0.7227171567
 40
1.0
 40
1.0
 40
1.0
 40
1.0
 10
312.8066497827
 20
159.273023077
 30
0.0
 10
313.3057759125
 20
158.6491763086
 30
0.0
 10
314.2335533287
 20
157.7930554734
 30
0.0
 10
315.662408848
 20
156.8279401943
 30
0.0
 10
316.474422412
 20
156.3814256147
 30
0.0
 10
316.9019618715
 20
156.1676558849
 30
0.0
  0
SPLINE
  5
42F
330
225
100
AcDbEntity
  8
7_ALL_FEATURES
  6
Continuous
 62
     7
100
AcDbSpline
 70
     0
 71
     3
 72
     9
 73
     5
 74
     0
 42
0.000000001
 43
0.0000001
 40
0.0
 40
0.0
 40
0.0
 40
0.0
 40
0.2579109375
 40
1.0
 40
1.0
 40
1.0
 40
1.0
 10
345.0939238013
 20
168.043076682
 30
0.0
 10
345.1902698978
 20
167.9725609931
 30
0.0
 10
345.5598771034
 20
167.6938229071
 30
0.0
 10
345.9132001474
 20
167.3932026419
 30
0.0
 10
346.1627490246
 20
167.1571066404
 30
0.0
  0
SPLINE
  5
430
330
225
100
AcDbEntity
  8
7_ALL_FEATURES
  6
Continuous
 62
     7
100
AcDbSpline
 70
     0
 71
     3
 72
    29
 73
    25
 74
     0
 42
0.000000001
 43
0.0000001
 40
0.0
 40
0.0
 40
0.0
 40
0.0
 40
0.0248885667
 40
0.0482119028
 40
0.0701910111
 40
0.091137346
 40
0.1114442278
 40
0.1315622553
 40
0.1519607521
 40
0.1730821533
 40
0.2188137949
 40
0.2440307434
 40
0.2709707257
 40
0.2996870026
 40
0.3301716748
 40
0.3961414615
 40
0.4680176147
 40
0.5444391678
 40
0.623751706
 40
0.7041314108
 40
0.7836946272
 40
0.860604576
 40
0.9331735229
 40
1.0
 40
1.0
 40
1.0
 40
1.0
 10
346.228288832
 20
167.0945154568
 30
0.0
 10
346.4688704403
 20
166.8625803096
 30
0.0
 10
346.912008268
 20
166.3884106513
 30
0.0
 10
347.4674897415
 20
165.6238230156
 30
0.0
 10
347.8861773556
 20
164.8352723665
 30
0.0
 10
348.1634571792
 20
164.0287862083
 30
0.0
 10
348.2959191101
 20
163.2111916468
 30
0.0
 10
348.2813647395
 20
162.3903088054
 30
0.0
 10
348.120158146
 20
161.5742488373
 30
0.0
 10
347.7021973066
 20
160.4747827263
 30
0.0
 10
346.9940018951
 20
159.4388497896
 30
0.0
 10
346.0742080173
 20
158.4984439266
 30
0.0
 10
345.2363920744
 20
157.8043535881
 30
0.0
 10
344.2803881495
 20
157.1509527175
 30
0.0
 10
342.8189445393
 20
156.3178637183
 30
0.0
 10
340.736885514
 20
155.4198220418
 30
0.0
 10
337.9744007549
 20
154.5976032287
 30
0.0
 10
334.966815228
 20
154.0283233482
 30
0.0
 10
331.8063695361
 20
153.7296295545
 30
0.0
 10
328.5898196857
 20
153.710801845
 30
0.0
 10
325.4161767923
 20
153.97238141
 30
0.0
 10
322.3826494902
 20
154.5063531869
 30
0.0
 10
319.5824994267
 20
155.2958187606
 30
0.0
 10
317.8459267395
 20
156.0102998879
 30
0.0
 10
317.0433832278
 20
156.4115716438
 30
0.0
  0
SPLINE
  5
431
330
225
100
AcDbEntity
  8
02___PRT_ALL_AXES
  6
Continuous
 62
     7
100
AcDbSpline
 70
     0
 71
     3
 72
     9
 73
     5
 74
     0
 42
0.000000001
 43
0.0000001
 40
0.0
 40
0.0
 40
0.0
 40
0.0
 40
0.2457496831
 40
1.0
 40
1.0
 40
1.0
 40
1.0
 10
348.6476482743
 20
162.7380076468
 30
0.0
 10
348.6299072164
 20
162.8304062865
 30
0.0
 10
348.5468886587
 20
163.2042691113
 30
0.0
 10
348.4209303256
 20
163.568303612
 30
0.0
 10
348.305822541
 20
163.8331381042
 30
0.0
  0
SPLINE
  5
432
330
225
100
AcDbEntity
  8
02___PRT_ALL_AXES
  6
Continuous
 62
     7
100
AcDbSpline
 70
     0
 71
     3
 72
     9
 73
     5
 74
     0
 42
0.000000001
 43
0.0000001
 40
0.0
 40
0.0
 40
0.0
 40
0.0
 40
0.2531018508
 40
1.0
 40
1.0
 40
1.0
 40
1.0
 10
311.5144344706
 20
163.4592801016
 30
0.0
 10
311.4923921511
 20
163.3963464517
 30
0.0
 10
311.4099660788
 20
163.1460949126
 30
0.0
 10
311.3467047486
 20
162.889479222
 30
0.0
 10
311.3113254895
 20
162.6959082457
 30
0.0
  0
SPLINE
  5
433
330
225
100
AcDbEntity
  8
02___PRT_ALL_AXES
  6
Continuous
 62
     7
100
AcDbSpline
 70
     0
 71
     3
 72
    10
 73
     6
 74
     0
 42
0.000000001
 43
0.0000001
 40
0.0
 40
0.0
 40
0.0
 40
0.0
 40
0.5341393245
 40
0.7722951201
 40
1.0
 40
1.0
 40
1.0
 40
1.0
 10
282.7840596793
 20
168.3286296992
 30
0.0
 10
282.6367021434
 20
168.4023084671
 30
0.0
 10
282.401651163
 20
168.4785443694
 30
0.0
 10
282.090722742
 20
168.4628758236
 30
0.0
 10
281.9522809346
 20
168.4167332435
 30
0.0
 10
281.8894645611
 20
168.3853188105
 30
0.0
  0
SPLINE
  5
434
330
225
100
AcDbEntity
  8
02___PRT_ALL_AXES
  6
Continuous
 62
     7
100
AcDbSpline
 70
     0
 71
     3
 72
    11
 73
     7
 74
     0
 42
0.000000001
 43
0.0000001
 40
0.0
 40
0.0
 40
0.0
 40
0.0
 40
0.3024673256
 40
0.5655230414
 40
0.7934184043
 40
1.0
 40
1.0
 40
1.0
 40
1.0
 10
377.4656576801
 20
168.2932743601
 30
0.0
 10
377.5133994901
 20
168.3171452651
 30
0.0
 10
377.5997078426
 20
168.3683853448
 30
0.0
 10
377.7045125573
 20
168.463037904
 30
0.0
 10
377.7717193238
 20
168.5684712741
 30
0.0
 10
377.7878402208
 20
168.6457272549
 30
0.0
 10
377.7878402208
 20
168.6821830898
 30
0.0
  0
SPLINE
  5
435
330
225
100
AcDbEntity
  8
02___PRT_ALL_AXES
  6
Continuous
 62
     7
100
AcDbSpline
 70
     0
 71
     3
 72
    11
 73
     7
 74
     0
 42
0.000000001
 43
0.0000001
 40
0.0
 40
0.0
 40
0.0
 40
0.0
 40
0.2353891693
 40
0.5
 40
0.7646108307
 40
1.0
 40
1.0
 40
1.0
 40
1.0
 10
329.3823965595
 20
145.0294612591
 30
0.0
 10
329.4945831461
 20
144.9733679657
 30
0.0
 10
329.7523922317
 20
144.8933617897
 30
0.0
 10
330.1602140188
 20
144.8551437863
 30
0.0
 10
330.5680358059
 20
144.8933617897
 30
0.0
 10
330.8258448914
 20
144.9733679657
 30
0.0
 10
330.9380314781
 20
145.0294612591
 30
0.0
  0
SPLINE
  5
436
330
225
100
AcDbEntity
  8
02___PRT_ALL_AXES
  6
Continuous
 62
     7
100
AcDbSpline
 70
     0
 71
     3
 72
    11
 73
     7
 74
     0
 42
0.000000001
 43
0.0000001
 40
0.0
 40
0.0
 40
0.0
 40
0.0
 40
0.2896875982
 40
0.5496054903
 40
0.7828341432
 40
1.0
 40
1.0
 40
1.0
 40
1.0
 10
329.4531072376
 20
191.3453162331
 30
0.0
 10
329.4531072376
 20
191.4669104061
 30
0.0
 10
329.4727630877
 20
191.6984711716
 30
0.0
 10
329.5716538948
 20
192.0151981722
 30
0.0
 10
329.7369858655
 20
192.2687497525
 30
0.0
 10
329.8911985573
 20
192.3861777018
 30
0.0
 10
329.9727256817
 20
192.4269493708
 30
0.0
  0
SPLINE
  5
437
330
225
100
AcDbEntity
  8
02___PRT_ALL_AXES
  6
Continuous
 62
     7
100
AcDbSpline
 70
     0
 71
     3
 72
    10
 73
     6
 74
     0
 42
0.000000001
 43
0.0000001
 40
0.0
 40
0.0
 40
0.0
 40
0.0
 40
0.2277048799
 40
0.4658606755
 40
1.0
 40
1.0
 40
1.0
 40
1.0
 10
329.9727256817
 20
192.4269493708
 30
0.0
 10
330.0355420553
 20
192.4583638038
 30
0.0
 10
330.1739838627
 20
192.5045063839
 30
0.0
 10
330.4849122836
 20
192.5201749298
 30
0.0
 10
330.7199632641
 20
192.4439390274
 30
0.0
 10
330.8673208
 20
192.3702602595
 30
0.0
  0
SPLINE
  5
438
330
225
100
AcDbEntity
  8
02___PRT_ALL_AXES
  6
Continuous
 62
     7
100
AcDbSpline
 70
     0
 71
     3
 72
    11
 73
     7
 74
     0
 42
0.000000001
 43
0.0000001
 40
0.0
 40
0.0
 40
0.0
 40
0.0
 40
0.2065815957
 40
0.4344769586
 40
0.6975326744
 40
1.0
 40
1.0
 40
1.0
 40
1.0
 10
377.7878402208
 20
168.6821830898
 30
0.0
 10
377.7878402208
 20
168.7186389246
 30
0.0
 10
377.7717193238
 20
168.7958949054
 30
0.0
 10
377.7045125573
 20
168.9013282756
 30
0.0
 10
377.5997078426
 20
168.9959808347
 30
0.0
 10
377.5133994901
 20
169.0472209144
 30
0.0
 10
377.4656576801
 20
169.0710918194
 30
0.0
  0
SPLINE
  5
439
330
225
100
AcDbEntity
  8
02___PRT_ALL_AXES
  6
Continuous
 62
     7
100
AcDbSpline
 70
     0
 71
     3
 72
    12
 73
     8
 74
     0
 42
0.000000001
 43
0.0000001
 40
0.0
 40
0.0
 40
0.0
 40
0.0
 40
0.3023020232
 40
0.5649536733
 40
0.7926869334
 40
0.8977778867
 40
1.0
 40
1.0
 40
1.0
 40
1.0
 10
343.2416894707
 20
156.0792675373
 30
0.0
 10
344.0558585104
 20
156.4863520571
 30
0.0
 10
345.527277589
 20
157.3601021537
 30
0.0
 10
347.3135089708
 20
158.9716377191
 30
0.0
 10
348.2920682529
 20
160.5141299893
 30
0.0
 10
348.6711771621
 20
161.7753428363
 30
0.0
 10
348.7334363428
 20
162.4012535422
 30
0.0
 10
348.7334155831
 20
162.7090569262
 30
0.0
  0
SPLINE
  5
43A
330
225
100
AcDbEntity
  8
02___PRT_ALL_AXES
  6
Continuous
 62
     7
100
AcDbSpline
 70
     0
 71
     3
 72
    20
 73
    16
 74
     0
 42
0.000000001
 43
0.0000001
 40
0.0
 40
0.0
 40
0.0
 40
0.0
 40
0.0382795645
 40
0.07889534
 40
0.1236425094
 40
0.173572073
 40
0.2290639752
 40
0.2899818566
 40
0.3558110306
 40
0.4257625103
 40
0.5738482008
 40
0.7251872547
 40
0.8700716377
 40
0.9373764365
 40
1.0
 40
1.0
 40
1.0
 40
1.0
 10
311.2334590638
 20
162.7077302956
 30
0.0
 10
311.2334903235
 20
162.244241654
 30
0.0
 10
311.3798903996
 20
161.2839170324
 30
0.0
 10
312.0156438484
 20
159.9109231151
 30
0.0
 10
313.0387822372
 20
158.6159594328
 30
0.0
 10
314.4196663033
 20
157.4201850582
 30
0.0
 10
316.1281873282
 20
156.3421220831
 30
0.0
 10
318.1293330368
 20
155.4015028163
 30
0.0
 10
320.3819880641
 20
154.6167339108
 30
0.0
 10
323.7207283423
 20
153.7849588089
 30
0.0
 10
328.1804088752
 20
153.2456801092
 30
0.0
 10
333.5750394708
 20
153.3741173691
 30
0.0
 10
337.9337639631
 20
154.1261327885
 30
0.0
 10
341.1128519992
 20
155.1218264409
 30
0.0
 10
342.5634940097
 20
155.7401698068
 30
0.0
 10
343.2416894707
 20
156.0792675373
 30
0.0
  0
SPLINE
  5
43B
330
225
100
AcDbEntity
  8
7_ALL_FEATURES
  6
Continuous
 62
     7
100
AcDbSpline
 70
     0
 71
     3
 72
     9
 73
     5
 74
     0
 42
0.000000001
 43
0.0000001
 40
0.0
 40
0.0
 40
0.0
 40
0.0
 40
0.4636666175
 40
1.0
 40
1.0
 40
1.0
 40
1.0
 10
329.7874481972
 20
186.2266023993
 30
0.0
 10
329.9210942514
 20
186.2933841986
 30
0.0
 10
330.2566149373
 20
186.3488818299
 30
0.0
 10
330.571327182
 20
186.2439472076
 30
0.0
 10
330.7258994437
 20
186.1666610768
 30
0.0
  0
SPLINE
  5
43C
330
225
100
AcDbEntity
  8
02___PRT_ALL_AXES
  6
Continuous
 62
     7
100
AcDbSpline
 70
     0
 71
     3
 72
    11
 73
     7
 74
     0
 42
0.000000001
 43
0.0000001
 40
0.0
 40
0.0
 40
0.0
 40
0.0
 40
0.2180933712
 40
0.4509445973
 40
0.7095699433
 40
1.0
 40
1.0
 40
1.0
 40
1.0
 10
348.7334155831
 20
162.7090569262
 30
0.0
 10
348.7333825212
 20
163.1992665461
 30
0.0
 10
348.5685250299
 20
164.218689041
 30
0.0
 10
347.8564209314
 20
165.6664761421
 30
0.0
 10
346.7164443792
 20
167.0216414482
 30
0.0
 10
345.7514820933
 20
167.801860928
 30
0.0
 10
345.2158362233
 20
168.175000138
 30
0.0
  0
SPLINE
  5
43D
330
225
100
AcDbEntity
  8
02___PRT_ALL_AXES
  6
Continuous
 62
     7
100
AcDbSpline
 70
     0
 71
     3
 72
     9
 73
     5
 74
     0
 42
0.000000001
 43
0.0000001
 40
0.0
 40
0.0
 40
0.0
 40
0.0
 40
0.2400310025
 40
1.0
 40
1.0
 40
1.0
 40
1.0
 10
345.0491748725
 20
168.2892715782
 30
0.0
 10
344.8931348213
 20
168.3945844534
 30
0.0
 10
344.2341587792
 20
168.8201125409
 30
0.0
 10
343.5425869759
 20
169.1942785063
 30
0.0
 10
343.0058126329
 20
169.4533729706
 30
0.0
  0
SPLINE
  5
43E
330
225
100
AcDbEntity
  8
02___PRT_ALL_AXES
  6
Continuous
 62
     7
100
AcDbSpline
 70
     0
 71
     3
 72
    15
 73
    11
 74
     0
 42
0.000000001
 43
0.0000001
 40
0.0
 40
0.0
 40
0.0
 40
0.0
 40
0.1133174084
 40
0.236709478
 40
0.3671925246
 40
0.5012573883
 40
0.6351496096
 40
0.7651291366
 40
0.8877147974
 40
1.0
 40
1.0
 40
1.0
 40
1.0
 10
343.0058126329
 20
169.4533729706
 30
0.0
 10
342.0862999737
 20
169.8972105775
 30
0.0
 10
340.0910839121
 20
170.6732343213
 30
0.0
 10
336.8780937284
 20
171.488806454
 30
0.0
 10
333.4116283048
 20
171.9843272506
 30
0.0
 10
329.8194229812
 20
172.1409876378
 30
0.0
 10
326.2332381923
 20
171.9531180126
 30
0.0
 10
322.7846444341
 20
171.4275185331
 30
0.0
 10
319.6005264229
 20
170.5842572582
 30
0.0
 10
317.6301005161
 20
169.7899773545
 30
0.0
 10
316.7251851762
 20
169.3375196845
 30
0.0
  0
SPLINE
  5
43F
330
225
100
AcDbEntity
  8
02___PRT_ALL_AXES
  6
Continuous
 62
     7
100
AcDbSpline
 70
     0
 71
     3
 72
     9
 73
     5
 74
     0
 42
0.000000001
 43
0.0000001
 40
0.0
 40
0.0
 40
0.0
 40
0.0
 40
0.2587104523
 40
1.0
 40
1.0
 40
1.0
 40
1.0
 10
316.7251851762
 20
169.3375196845
 30
0.0
 10
316.5661687169
 20
169.2580114549
 30
0.0
 10
315.9560346801
 20
168.9418221529
 30
0.0
 10
315.3643531121
 20
168.5893663946
 30
0.0
 10
314.9414942273
 20
168.3053010516
 30
0.0
  0
SPLINE
  5
440
330
225
100
AcDbEntity
  8
02___PRT_ALL_AXES
  6
Continuous
 62
     7
100
AcDbSpline
 70
     0
 71
     3
 72
    11
 73
     7
 74
     0
 42
0.000000001
 43
0.0000001
 40
0.0
 40
0.0
 40
0.0
 40
0.0
 40
0.2902339127
 40
0.5487922076
 40
0.7817242902
 40
1.0
 40
1.0
 40
1.0
 40
1.0
 10
314.7237738747
 20
168.1559887553
 30
0.0
 10
314.1919103174
 20
167.7835675211
 30
0.0
 10
313.2338963647
 20
167.0049889125
 30
0.0
 10
312.1027440062
 20
165.6538997417
 30
0.0
 10
311.3965104098
 20
164.2112751582
 30
0.0
 10
311.23342613
 20
163.196040058
 30
0.0
 10
311.2334590638
 20
162.7077302956
 30
0.0
  0
SPLINE
  5
441
330
225
100
AcDbEntity
  8
02___PRT_ALL_AXES
  6
Continuous
 62
     7
100
AcDbSpline
 70
     0
 71
     3
 72
    11
 73
     7
 74
     0
 42
0.000000001
 43
0.0000001
 40
0.0
 40
0.0
 40
0.0
 40
0.0
 40
0.2171658568
 40
0.4503945097
 40
0.7103124018
 40
1.0
 40
1.0
 40
1.0
 40
1.0
 10
281.1823577799
 20
168.0317654199
 30
0.0
 10
281.1008306554
 20
167.9909937509
 30
0.0
 10
280.9466179637
 20
167.8735658015
 30
0.0
 10
280.7812859929
 20
167.6200142213
 30
0.0
 10
280.6823951858
 20
167.3032872206
 30
0.0
 10
280.6627393357
 20
167.0717264551
 30
0.0
 10
280.6627393357
 20
166.9501322822
 30
0.0
  0
SPLINE
  5
442
330
225
100
AcDbEntity
  8
02___PRT_ALL_AXES
  6
Continuous
 62
     7
100
AcDbSpline
 70
     0
 71
     3
 72
    11
 73
     7
 74
     0
 42
0.000000001
 43
0.0000001
 40
0.0
 40
0.0
 40
0.0
 40
0.0
 40
0.2468124806
 40
0.5117852459
 40
0.7703059488
 40
1.0
 40
1.0
 40
1.0
 40
1.0
 10
280.6627393357
 20
97.6680999794
 30
0.0
 10
280.6627393357
 20
97.4265168846
 30
0.0
 10
280.7461100651
 20
96.9247143716
 30
0.0
 10
281.0479818095
 20
96.2268528556
 30
0.0
 10
281.4916416412
 20
95.630088851
 30
0.0
 10
281.8758611892
 20
95.3294882451
 30
0.0
 10
282.0769528981
 20
95.2289423907
 30
0.0
  0
SPLINE
  5
443
330
225
100
AcDbEntity
  8
02___PRT_ALL_AXES
  6
Continuous
 62
     7
100
AcDbSpline
 70
     0
 71
     3
 72
    10
 73
     6
 74
     0
 42
0.000000001
 43
0.0000001
 40
0.0
 40
0.0
 40
0.0
 40
0.0
 40
0.2277048799
 40
0.4658606755
 40
1.0
 40
1.0
 40
1.0
 40
1.0
 10
330.6798324629
 20
192.7805027614
 30
0.0
 10
330.7426488365
 20
192.8119171944
 30
0.0
 10
330.8810906439
 20
192.8580597745
 30
0.0
 10
331.1920190648
 20
192.8737283204
 30
0.0
 10
331.4270700453
 20
192.797492418
 30
0.0
 10
331.5744275811
 20
192.7238136501
 30
0.0
  0
SPLINE
  5
444
330
225
100
AcDbEntity
  8
02___PRT_ALL_AXES
  6
Continuous
 62
     7
100
AcDbSpline
 70
     0
 71
     3
 72
    11
 73
     7
 74
     0
 42
0.000000001
 43
0.0000001
 40
0.0
 40
0.0
 40
0.0
 40
0.0
 40
0.2065815957
 40
0.4344769586
 40
0.6975326744
 40
1.0
 40
1.0
 40
1.0
 40
1.0
 10
378.7878402208
 20
168.6821830898
 30
0.0
 10
378.7878402208
 20
168.7517805926
 30
0.0
 10
378.7570639628
 20
168.8992692832
 30
0.0
 10
378.6287601358
 20
169.1005511717
 30
0.0
 10
378.4286784077
 20
169.281251512
 30
0.0
 10
378.2639079168
 20
169.3790734823
 30
0.0
 10
378.1727644613
 20
169.42464521
 30
0.0
  0
SPLINE
  5
445
330
225
100
AcDbEntity
  8
02___PRT_ALL_AXES
  6
Continuous
 62
     7
100
AcDbSpline
 70
     0
 71
     3
 72
    11
 73
     7
 74
     0
 42
0.000000001
 43
0.0000001
 40
0.0
 40
0.0
 40
0.0
 40
0.0
 40
0.2065815957
 40
0.4344769586
 40
0.6975326744
 40
1.0
 40
1.0
 40
1.0
 40
1.0
 10
378.7878402208
 20
95.9360491719
 30
0.0
 10
378.7878402208
 20
95.866451669
 30
0.0
 10
378.7570639628
 20
95.7189629784
 30
0.0
 10
378.6287601358
 20
95.5176810899
 30
0.0
 10
378.4286784077
 20
95.3369807497
 30
0.0
 10
378.2639079168
 20
95.2391587793
 30
0.0
 10
378.1727644613
 20
95.1935870516
 30
0.0
  0
SPLINE
  5
446
330
225
100
AcDbEntity
  8
02___PRT_ALL_AXES
  6
Continuous
 62
     7
100
AcDbSpline
 70
     0
 71
     3
 72
    11
 73
     7
 74
     0
 42
0.000000001
 43
0.0000001
 40
0.0
 40
0.0
 40
0.0
 40
0.0
 40
0.2353891693
 40
0.5
 40
0.7646108307
 40
1.0
 40
1.0
 40
1.0
 40
1.0
 10
331.6451382593
 20
71.9297739506
 30
0.0
 10
331.4309638666
 20
71.8226867542
 30
0.0
 10
330.9387828851
 20
71.669947691
 30
0.0
 10
330.1602140188
 20
71.596986048
 30
0.0
 10
329.3816451525
 20
71.669947691
 30
0.0
 10
328.889464171
 20
71.8226867542
 30
0.0
 10
328.6752897783
 20
71.9297739506
 30
0.0
  0
SPLINE
  5
447
330
225
100
AcDbEntity
  8
02___PRT_ALL_AXES
  6
Continuous
 62
     7
100
AcDbSpline
 70
     0
 71
     3
 72
    10
 73
     6
 74
     0
 42
0.000000001
 43
0.0000001
 40
0.0
 40
0.0
 40
0.0
 40
0.0
 40
0.5341393245
 40
0.7722951201
 40
1.0
 40
1.0
 40
1.0
 40
1.0
 10
282.0769528981
 20
167.9750763086
 30
0.0
 10
281.9295953622
 20
168.0487550765
 30
0.0
 10
281.6945443818
 20
168.1249909788
 30
0.0
 10
281.3836159608
 20
168.109322433
 30
0.0
 10
281.2451741534
 20
168.0631798529
 30
0.0
 10
281.1823577799
 20
168.0317654199
 30
0.0
  0
SPLINE
  5
448
330
225
100
AcDbEntity
  8
02___PRT_ALL_AXES
  6
Continuous
 62
     7
100
AcDbSpline
 70
     0
 71
     3
 72
    11
 73
     7
 74
     0
 42
0.000000001
 43
0.0000001
 40
0.0
 40
0.0
 40
0.0
 40
0.0
 40
0.3024673256
 40
0.5655230414
 40
0.7934184043
 40
1.0
 40
1.0
 40
1.0
 40
1.0
 10
378.1727644613
 20
167.9397209695
 30
0.0
 10
378.2639079168
 20
167.9852926972
 30
0.0
 10
378.4286784077
 20
168.0831146676
 30
0.0
 10
378.6287601358
 20
168.2638150078
 30
0.0
 10
378.7570639628
 20
168.4650968963
 30
0.0
 10
378.7878402208
 20
168.6125855869
 30
0.0
 10
378.7878402208
 20
168.6821830898
 30
0.0
  0
SPLINE
  5
449
330
225
100
AcDbEntity
  8
02___PRT_ALL_AXES
  6
Continuous
 62
     7
100
AcDbSpline
 70
     0
 71
     3
 72
    11
 73
     7
 74
     0
 42
0.000000001
 43
0.0000001
 40
0.0
 40
0.0
 40
0.0
 40
0.0
 40
0.2353891693
 40
0.5
 40
0.7646108307
 40
1.0
 40
1.0
 40
1.0
 40
1.0
 10
328.6752897783
 20
144.6759078685
 30
0.0
 10
328.889464171
 20
144.5688206721
 30
0.0
 10
329.3816451525
 20
144.4160816088
 30
0.0
 10
330.1602140188
 20
144.3431199659
 30
0.0
 10
330.9387828851
 20
144.4160816088
 30
0.0
 10
331.4309638666
 20
144.5688206721
 30
0.0
 10
331.6451382593
 20
144.6759078685
 30
0.0
  0
ENDSEC
  0
SECTION
  2
OBJECTS
  0
DICTIONARY
  5
C
330
0
100
AcDbDictionary
281
     1
  3
ACAD_GROUP
350
D
  3
ACAD_IMAGE_VARS
350
493
  3
ACAD_LAYOUT
350
1A
  3
ACAD_MLINESTYLE
350
17
  3
ACAD_PLOTSETTINGS
350
19
  3
ACAD_PLOTSTYLENAME
350
E
  3
ACAD_SCALELIST
350
44F
  3
APPDATA
350
491
  3
DWGPROPS
350
4B6
  0
DICTIONARY
  5
D
102
{ACAD_REACTORS
330
C
102
}
330
C
100
AcDbDictionary
281
     1
  0
RASTERVARIABLES
  5
493
102
{ACAD_REACTORS
330
C
102
}
330
C
100
AcDbRasterVariables
 90
        0
 70
     1
 71
     1
 72
     1
  0
DICTIONARY
  5
1A
102
{ACAD_REACTORS
330
C
102
}
330
C
100
AcDbDictionary
281
     1
  3
Layout1
350
44C
  3
Model
350
44B
  0
DICTIONARY
  5
17
102
{ACAD_REACTORS
330
C
102
}
330
C
100
AcDbDictionary
281
     1
  3
Standard
350
18
  0
DICTIONARY
  5
19
102
{ACAD_REACTORS
330
C
102
}
330
C
100
AcDbDictionary
281
     1
  0
ACDBDICTIONARYWDFLT
  5
E
102
{ACAD_REACTORS
330
C
102
}
330
C
100
AcDbDictionary
281
     1
  3
Normal
350
F
100
AcDbDictionaryWithDefault
340
F
  0
DICTIONARY
  5
44F
102
{ACAD_REACTORS
330
C
102
}
330
C
100
AcDbDictionary
281
     1
  3
A0
350
450
  3
A1
350
451
  3
A2
350
452
  3
A3
350
453
  3
A4
350
454
  3
A5
350
455
  3
A6
350
456
  3
A7
350
457
  3
A8
350
458
  3
A9
350
459
  3
B0
350
45A
  3
B1
350
45B
  3
B2
350
45C
  3
B3
350
45D
  3
B4
350
45E
  3
B5
350
45F
  3
B6
350
460
  3
B7
350
461
  3
B8
350
462
  3
B9
350
463
  3
C0
350
464
  3
C1
350
465
  3
C2
350
466
  3
C3
350
467
  3
C4
350
468
  3
C5
350
469
  3
C6
350
46A
  3
C7
350
46B
  3
C8
350
46C
  3
C9
350
46D
  3
D0
350
46E
  3
D1
350
46F
  3
D2
350
470
  0
DICTIONARY
  5
491
102
{ACAD_REACTORS
330
C
102
}
330
C
100
AcDbDictionary
281
     1
  0
XRECORD
  5
4B6
102
{ACAD_REACTORS
330
C
102
}
330
C
100
AcDbXrecord
280
     1
  1
DWGPROPS COOKIE
  2

  3

  4

  6

  7

  8
andrea.faggionato
  9

300
=
301
=
302
=
303
=
304
=
305
=
306
=
307
=
308
=
309
=
 40
0.0
 41
0.0
 42
2456748.43751985
  1

 90
        0
  0
LAYOUT
  5
44C
102
{ACAD_REACTORS
330
1A
102
}
330
1A
100
AcDbPlotSettings
  1

  2
none_device
  4
ISO_A3_(420.00_x_297.00_MM)
  6

 40
0.0
 41
0.0
 42
0.0
 43
0.0
 44
420.0
 45
297.0
 46
0.0
 47
0.0
 48
0.0
 49
0.0
140
0.0
141
0.0
142
1.0
143
1.0
 70
     0
 72
     1
 73
     0
 74
     0
  7

 75
     0
147
1.0
148
0.0
149
0.0
100
AcDbLayout
  1
Layout1
 70
     0
 71
     1
 10
0.0
 20
0.0
 11
420.0
 21
297.0
 12
0.0
 22
0.0
 32
0.0
 14
0.0
 24
0.0
 34
0.0
 15
0.0
 25
0.0
 35
0.0
146
0.0
 13
0.0
 23
0.0
 33
0.0
 16
1.0
 26
0.0
 36
0.0
 17
0.0
 27
1.0
 37
0.0
 76
     0
330
226
  0
LAYOUT
  5
44B
102
{ACAD_REACTORS
330
1A
102
}
330
1A
100
AcDbPlotSettings
  1

  2
none_device
  4
ISO_A3_(420.00_x_297.00_MM)
  6

 40
0.0
 41
0.0
 42
0.0
 43
0.0
 44
420.0
 45
297.0
 46
0.0
 47
0.0
 48
0.0
 49
0.0
140
0.0
141
0.0
142
1.0
143
1.0
 70
  1024
 72
     1
 73
     0
 74
     0
  7

 75
     0
147
1.0
148
0.0
149
0.0
100
AcDbLayout
  1
Model
 70
     0
 71
     0
 10
0.0
 20
0.0
 11
420.0
 21
297.0
 12
0.0
 22
0.0
 32
0.0
 14
0.0
 24
0.0
 34
0.0
 15
0.0
 25
0.0
 35
0.0
146
0.0
 13
0.0
 23
0.0
 33
0.0
 16
1.0
 26
0.0
 36
0.0
 17
0.0
 27
1.0
 37
0.0
 76
     0
330
225
331
1F4
  0
MLINESTYLE
  5
18
102
{ACAD_REACTORS
330
17
102
}
330
17
100
AcDbMlineStyle
  2
STANDARD
 70
     0
  3

 62
   256
 51
90.0
 52
90.0
 71
     2
 49
0.5
 62
   256
  6
BYLAYER
 49
-0.5
 62
   256
  6
BYLAYER
  0
ACDBPLACEHOLDER
  5
F
102
{ACAD_REACTORS
330
E
102
}
330
E
  0
SCALE
  5
450
102
{ACAD_REACTORS
330
44F
102
}
330
44F
100
AcDbScale
 70
     0
300
1:1
140
1.0
141
1.0
290
     1
  0
SCALE
  5
451
102
{ACAD_REACTORS
330
44F
102
}
330
44F
100
AcDbScale
 70
     0
300
1:2
140
1.0
141
2.0
290
     0
  0
SCALE
  5
452
102
{ACAD_REACTORS
330
44F
102
}
330
44F
100
AcDbScale
 70
     0
300
1:4
140
1.0
141
4.0
290
     0
  0
SCALE
  5
453
102
{ACAD_REACTORS
330
44F
102
}
330
44F
100
AcDbScale
 70
     0
300
1:5
140
1.0
141
5.0
290
     0
  0
SCALE
  5
454
102
{ACAD_REACTORS
330
44F
102
}
330
44F
100
AcDbScale
 70
     0
300
1:8
140
1.0
141
8.0
290
     0
  0
SCALE
  5
455
102
{ACAD_REACTORS
330
44F
102
}
330
44F
100
AcDbScale
 70
     0
300
1:10
140
1.0
141
10.0
290
     0
  0
SCALE
  5
456
102
{ACAD_REACTORS
330
44F
102
}
330
44F
100
AcDbScale
 70
     0
300
1:16
140
1.0
141
16.0
290
     0
  0
SCALE
  5
457
102
{ACAD_REACTORS
330
44F
102
}
330
44F
100
AcDbScale
 70
     0
300
1:20
140
1.0
141
20.0
290
     0
  0
SCALE
  5
458
102
{ACAD_REACTORS
330
44F
102
}
330
44F
100
AcDbScale
 70
     0
300
1:30
140
1.0
141
30.0
290
     0
  0
SCALE
  5
459
102
{ACAD_REACTORS
330
44F
102
}
330
44F
100
AcDbScale
 70
     0
300
1:40
140
1.0
141
40.0
290
     0
  0
SCALE
  5
45A
102
{ACAD_REACTORS
330
44F
102
}
330
44F
100
AcDbScale
 70
     0
300
1:50
140
1.0
141
50.0
290
     0
  0
SCALE
  5
45B
102
{ACAD_REACTORS
330
44F
102
}
330
44F
100
AcDbScale
 70
     0
300
1:100
140
1.0
141
100.0
290
     0
  0
SCALE
  5
45C
102
{ACAD_REACTORS
330
44F
102
}
330
44F
100
AcDbScale
 70
     0
300
2:1
140
2.0
141
1.0
290
     0
  0
SCALE
  5
45D
102
{ACAD_REACTORS
330
44F
102
}
330
44F
100
AcDbScale
 70
     0
300
4:1
140
4.0
141
1.0
290
     0
  0
SCALE
  5
45E
102
{ACAD_REACTORS
330
44F
102
}
330
44F
100
AcDbScale
 70
     0
300
8:1
140
8.0
141
1.0
290
     0
  0
SCALE
  5
45F
102
{ACAD_REACTORS
330
44F
102
}
330
44F
100
AcDbScale
 70
     0
300
10:1
140
10.0
141
1.0
290
     0
  0
SCALE
  5
460
102
{ACAD_REACTORS
330
44F
102
}
330
44F
100
AcDbScale
 70
     0
300
100:1
140
100.0
141
1.0
290
     0
  0
SCALE
  5
461
102
{ACAD_REACTORS
330
44F
102
}
330
44F
100
AcDbScale
 70
     0
300
1/128" = 1'-0"
140
0.0078125
141
12.0
290
     0
  0
SCALE
  5
462
102
{ACAD_REACTORS
330
44F
102
}
330
44F
100
AcDbScale
 70
     0
300
1/64" = 1'-0"
140
0.015625
141
12.0
290
     0
  0
SCALE
  5
463
102
{ACAD_REACTORS
330
44F
102
}
330
44F
100
AcDbScale
 70
     0
300
1/32" = 1'-0"
140
0.03125
141
12.0
290
     0
  0
SCALE
  5
464
102
{ACAD_REACTORS
330
44F
102
}
330
44F
100
AcDbScale
 70
     0
300
1/16" = 1'-0"
140
0.0625
141
12.0
290
     0
  0
SCALE
  5
465
102
{ACAD_REACTORS
330
44F
102
}
330
44F
100
AcDbScale
 70
     0
300
3/32" = 1'-0"
140
0.09375
141
12.0
290
     0
  0
SCALE
  5
466
102
{ACAD_REACTORS
330
44F
102
}
330
44F
100
AcDbScale
 70
     0
300
1/8" = 1'-0"
140
0.125
141
12.0
290
     0
  0
SCALE
  5
467
102
{ACAD_REACTORS
330
44F
102
}
330
44F
100
AcDbScale
 70
     0
300
3/16" = 1'-0"
140
0.1875
141
12.0
290
     0
  0
SCALE
  5
468
102
{ACAD_REACTORS
330
44F
102
}
330
44F
100
AcDbScale
 70
     0
300
1/4" = 1'-0"
140
0.25
141
12.0
290
     0
  0
SCALE
  5
469
102
{ACAD_REACTORS
330
44F
102
}
330
44F
100
AcDbScale
 70
     0
300
3/8" = 1'-0"
140
0.375
141
12.0
290
     0
  0
SCALE
  5
46A
102
{ACAD_REACTORS
330
44F
102
}
330
44F
100
AcDbScale
 70
     0
300
1/2" = 1'-0"
140
0.5
141
12.0
290
     0
  0
SCALE
  5
46B
102
{ACAD_REACTORS
330
44F
102
}
330
44F
100
AcDbScale
 70
     0
300
3/4" = 1'-0"
140
0.75
141
12.0
290
     0
  0
SCALE
  5
46C
102
{ACAD_REACTORS
330
44F
102
}
330
44F
100
AcDbScale
 70
     0
300
1" = 1'-0"
140
1.0
141
12.0
290
     0
  0
SCALE
  5
46D
102
{ACAD_REACTORS
330
44F
102
}
330
44F
100
AcDbScale
 70
     0
300
1-1/2" = 1'-0"
140
1.5
141
12.0
290
     0
  0
SCALE
  5
46E
102
{ACAD_REACTORS
330
44F
102
}
330
44F
100
AcDbScale
 70
     0
300
3" = 1'-0"
140
3.0
141
12.0
290
     0
  0
SCALE
  5
46F
102
{ACAD_REACTORS
330
44F
102
}
330
44F
100
AcDbScale
 70
     0
300
6" = 1'-0"
140
6.0
141
12.0
290
     0
  0
SCALE
  5
470
102
{ACAD_REACTORS
330
44F
102
}
330
44F
100
AcDbScale
 70
     0
300
1'-0" = 1'-0"
140
12.0
141
12.0
290
     0
  0
ENDSEC
  0
EOF
