999
DXF file: 241_c_050.dxf
999
Pro/ENGINEER 2011490 by Parametric Technology Corporation
  0
SECTION
  2
HEADER
  9
$ACADVER
  1
AC1021
  9
$DWGCODEPAGE
  3
ANSI_1252
  9
$EXTMAX
 10
297.0
 20
210.0
 30
0.0
  9
$EXTMIN
 10
0.0
 20
0.0
 30
0.0
  9
$LIMMIN
 10
0.0
 20
0.0
  9
$LIMMAX
 10
297.0
 20
210.0
  9
$VIEWCTR
 10
148.5
 20
105.0
  9
$VIEWSIZE
 40
210.0
  9
$CLAYER
  8
0
  9
$LTSCALE
 40
16.335
  9
$CELTYPE
  6
BYLAYER
  9
$DIMSCALE
 40
1.0
  9
$DIMASZ
 40
2.5
  9
$DIMEXO
 40
1.85625
  9
$DIMDLI
 40
11.286
  9
$DIMEXE
 40
5.346
  9
$DIMCEN
 40
2.673
  9
$DIMLFAC
 40
1.0
  9
$DIMBLK
  1
_CLOSED
  9
$DIMTXT
 40
3.0
  9
$DIMTOL
 70
1
  9
$DIMLIM
 70
0
  9
$DIMTFAC
 40
1.0
  9
$DIMTP
 40
0.01
  9
$DIMTM
 40
0.01
  9
$PDMODE
 70
3
  9
$PDSIZE
 40
0.3125
  9
$HANDSEED
  5
42D
  9
$TILEMODE
 70
1
  9
$MEASUREMENT
 70
1
  9
$INSUNITS
 70
4
  0
ENDSEC
  0
SECTION
  2
CLASSES
  0
CLASS
  1
ACDBDICTIONARYWDFLT
  2
AcDbDictionaryWithDefault
  3
AutoCAD 2000
 90
0
 91
1
280
0
281
0
  0
CLASS
  1
ACDBPLACEHOLDER
  2
AcDbPlaceHolder
  3
AutoCAD 2000
 90
0
 91
1
280
0
281
0
  0
CLASS
  1
LAYOUT
  2
AcDbLayout
  3
AutoCAD 2000
 90
0
 91
0
280
0
281
0
  0
CLASS
  1
TABLESTYLE
  2
AcDbTableStyle
  3
ObjectDBX Classes
 90
2047
 91
1
280
0
281
0
  0
CLASS
  1
ACAD_TABLE
  2
AcDbTable
  3
ObjectDBX Classes
 90
1025
 91
1
280
0
281
1
  0
ENDSEC
  0
SECTION
  2
TABLES
  0
TABLE
  2
VPORT
  5
8
100
AcDbSymbolTable
 70
2
  0
VPORT
  5
1F4
100
AcDbSymbolTableRecord
100
AcDbViewportTableRecord
  2
*ACTIVE
 70
0
 10
0.0
 20
0.0
 11
1.0
 21
1.0
 12
148.5
 22
105.0
 13
0.0
 23
0.0
 14
1.0
 24
1.0
 15
0.0
 25
0.0
 16
0.0
 26
0.0
 36
1.0
 17
0.0
 27
0.0
 37
0.0
 40
210.0
 41
1.4142857143
 42
50.0
 43
0.0
 44
0.0
 50
0.0
 51
0.0
 71
0
 72
100
 73
1
 74
1
 75
0
 76
0
 77
0
 78
0
  0
ENDTAB
  0
TABLE
  2
LTYPE
  5
5
100
AcDbSymbolTable
 70
6
  0
LTYPE
  5
14
100
AcDbSymbolTableRecord
100
AcDbLinetypeTableRecord
  2
BYBLOCK
 70
0
  3

 72
65
 73
0
 40
0.0
  0
LTYPE
  5
15
100
AcDbSymbolTableRecord
100
AcDbLinetypeTableRecord
  2
BYLAYER
 70
0
  3

 72
65
 73
0
 40
0.0
  0
LTYPE
  5
16
100
AcDbSymbolTableRecord
100
AcDbLinetypeTableRecord
  2
CONTINUOUS
 70
64
  3
Solid line
 72
65
 73
0
 40
0.0
  0
LTYPE
  5
1F5
100
AcDbSymbolTableRecord
100
AcDbLinetypeTableRecord
  2
CENTER
 70
64
  3
____ _ ____ _ ____ _ ____ _ ____ _ ____ _ ____
 72
65
 73
4
 40
0.6
 49
0.375
 74
0
 49
-0.075
 74
0
 49
0.075
 74
0
 49
-0.075
 74
0
  0
LTYPE
  5
1F6
100
AcDbSymbolTableRecord
100
AcDbLinetypeTableRecord
  2
HIDDEN
 70
64
  3
- - - - - - - - - - - - - - - - - - - -
 72
65
 73
2
 40
0.2
 49
0.1
 74
0
 49
-0.1
 74
0
  0
LTYPE
  5
1F7
100
AcDbSymbolTableRecord
100
AcDbLinetypeTableRecord
  2
PHANTOM
 70
64
  3
_____ _ _ _____ _ _ _____ _ _ _____
 72
65
 73
6
 40
0.8
 49
0.45
 74
0
 49
-0.05
 74
0
 49
0.1
 74
0
 49
-0.05
 74
0
 49
0.1
 74
0
 49
-0.05
 74
0
  0
LTYPE
  5
1F8
100
AcDbSymbolTableRecord
100
AcDbLinetypeTableRecord
  2
DOT
 70
64
  3
. . . . . . . . . . . . . . . . . . . .
 72
65
 73
2
 40
0.2
 49
0.1
 74
0
 49
-0.1
 74
0
  0
LTYPE
  5
1F9
100
AcDbSymbolTableRecord
100
AcDbLinetypeTableRecord
  2
DASHED
 70
64
  3
- - - - - - - - - - - - - - - - - - - -
 72
65
 73
2
 40
0.2
 49
0.1
 74
0
 49
-0.1
 74
0
  0
ENDTAB
  0
TABLE
  2
LAYER
  5
2
100
AcDbSymbolTable
 70
36
  0
LAYER
  5
10
100
AcDbSymbolTableRecord
100
AcDbLayerTableRecord
  2
0
 70
0
 62
7
  6
CONTINUOUS
370
-3
390
F
  0
LAYER
  5
1FA
100
AcDbSymbolTableRecord
100
AcDbLayerTableRecord
  2
DEFAULT_1
 70
0
 62
7
  6
CENTER
370
-3
390
F
  0
LAYER
  5
1FB
100
AcDbSymbolTableRecord
100
AcDbLayerTableRecord
  2
DEFAULT_2
 70
0
 62
8
  6
HIDDEN
370
-3
390
F
  0
LAYER
  5
1FC
100
AcDbSymbolTableRecord
100
AcDbLayerTableRecord
  2
DEFAULT_3
 70
0
 62
7
  6
PHANTOM
370
-3
390
F
  0
LAYER
  5
1FD
100
AcDbSymbolTableRecord
100
AcDbLayerTableRecord
  2
01_ALL_DTM_PLN
 70
0
 62
7
  6
CONTINUOUS
370
-3
390
F
  0
LAYER
  5
1FE
100
AcDbSymbolTableRecord
100
AcDbLayerTableRecord
  2
01__ASM_ALL_DTM_PLN
 70
0
 62
7
  6
CONTINUOUS
370
-3
390
F
  0
LAYER
  5
1FF
100
AcDbSymbolTableRecord
100
AcDbLayerTableRecord
  2
01__ASM_DEF_DTM_PLN
 70
0
 62
7
  6
CONTINUOUS
370
-3
390
F
  0
LAYER
  5
200
100
AcDbSymbolTableRecord
100
AcDbLayerTableRecord
  2
01___PRT_ALL_DTM_PLN
 70
0
 62
7
  6
CONTINUOUS
370
-3
390
F
  0
LAYER
  5
201
100
AcDbSymbolTableRecord
100
AcDbLayerTableRecord
  2
01___PRT_DEF_DTM_PLN
 70
0
 62
7
  6
CONTINUOUS
370
-3
390
F
  0
LAYER
  5
202
100
AcDbSymbolTableRecord
100
AcDbLayerTableRecord
  2
02_ALL_AXES
 70
0
 62
7
  6
CONTINUOUS
370
-3
390
F
  0
LAYER
  5
203
100
AcDbSymbolTableRecord
100
AcDbLayerTableRecord
  2
02__ASM_ALL_AXES
 70
0
 62
7
  6
CONTINUOUS
370
-3
390
F
  0
LAYER
  5
204
100
AcDbSymbolTableRecord
100
AcDbLayerTableRecord
  2
02___PRT_ALL_AXES
 70
0
 62
7
  6
CONTINUOUS
370
-3
390
F
  0
LAYER
  5
205
100
AcDbSymbolTableRecord
100
AcDbLayerTableRecord
  2
03_ALL_CURVES
 70
0
 62
7
  6
CONTINUOUS
370
-3
390
F
  0
LAYER
  5
206
100
AcDbSymbolTableRecord
100
AcDbLayerTableRecord
  2
03__ASM_ALL_CURVES
 70
0
 62
7
  6
CONTINUOUS
370
-3
390
F
  0
LAYER
  5
207
100
AcDbSymbolTableRecord
100
AcDbLayerTableRecord
  2
03___PRT_ALL_CURVES
 70
0
 62
7
  6
CONTINUOUS
370
-3
390
F
  0
LAYER
  5
208
100
AcDbSymbolTableRecord
100
AcDbLayerTableRecord
  2
04_ALL_DTM_PNT
 70
0
 62
7
  6
CONTINUOUS
370
-3
390
F
  0
LAYER
  5
209
100
AcDbSymbolTableRecord
100
AcDbLayerTableRecord
  2
04__ASM_ALL_DTM_PNT
 70
0
 62
7
  6
CONTINUOUS
370
-3
390
F
  0
LAYER
  5
20A
100
AcDbSymbolTableRecord
100
AcDbLayerTableRecord
  2
04___PRT_ALL_DTM_PNT
 70
0
 62
7
  6
CONTINUOUS
370
-3
390
F
  0
LAYER
  5
20B
100
AcDbSymbolTableRecord
100
AcDbLayerTableRecord
  2
05_ALL_DTM_CSYS
 70
0
 62
7
  6
CONTINUOUS
370
-3
390
F
  0
LAYER
  5
20C
100
AcDbSymbolTableRecord
100
AcDbLayerTableRecord
  2
05__ASM_ALL_DTM_CSYS
 70
0
 62
7
  6
CONTINUOUS
370
-3
390
F
  0
LAYER
  5
20D
100
AcDbSymbolTableRecord
100
AcDbLayerTableRecord
  2
05__ASM_DEF_DTM_CSYS
 70
0
 62
7
  6
CONTINUOUS
370
-3
390
F
  0
LAYER
  5
20E
100
AcDbSymbolTableRecord
100
AcDbLayerTableRecord
  2
05___PRT_ALL_DTM_CSYS
 70
0
 62
7
  6
CONTINUOUS
370
-3
390
F
  0
LAYER
  5
20F
100
AcDbSymbolTableRecord
100
AcDbLayerTableRecord
  2
05___PRT_DEF_DTM_CSYS
 70
0
 62
7
  6
CONTINUOUS
370
-3
390
F
  0
LAYER
  5
210
100
AcDbSymbolTableRecord
100
AcDbLayerTableRecord
  2
06_ALL_SURFS
 70
0
 62
7
  6
CONTINUOUS
370
-3
390
F
  0
LAYER
  5
211
100
AcDbSymbolTableRecord
100
AcDbLayerTableRecord
  2
06__ASM_ALL_SURFS
 70
0
 62
7
  6
CONTINUOUS
370
-3
390
F
  0
LAYER
  5
212
100
AcDbSymbolTableRecord
100
AcDbLayerTableRecord
  2
06___PRT_ALL_SURFS
 70
0
 62
7
  6
CONTINUOUS
370
-3
390
F
  0
LAYER
  5
213
100
AcDbSymbolTableRecord
100
AcDbLayerTableRecord
  2
07__ASM_ALL_SKELETONS
 70
0
 62
7
  6
CONTINUOUS
370
-3
390
F
  0
LAYER
  5
214
100
AcDbSymbolTableRecord
100
AcDbLayerTableRecord
  2
1_ALL_PLANES
 70
0
 62
7
  6
CONTINUOUS
370
-3
390
F
  0
LAYER
  5
215
100
AcDbSymbolTableRecord
100
AcDbLayerTableRecord
  2
2_ALL_CSYS
 70
0
 62
7
  6
CONTINUOUS
370
-3
390
F
  0
LAYER
  5
216
100
AcDbSymbolTableRecord
100
AcDbLayerTableRecord
  2
3_ALL_AXES
 70
0
 62
7
  6
CONTINUOUS
370
-3
390
F
  0
LAYER
  5
217
100
AcDbSymbolTableRecord
100
AcDbLayerTableRecord
  2
4_ALL_POINTS
 70
0
 62
7
  6
CONTINUOUS
370
-3
390
F
  0
LAYER
  5
218
100
AcDbSymbolTableRecord
100
AcDbLayerTableRecord
  2
5_ALL_CURVES
 70
0
 62
7
  6
CONTINUOUS
370
-3
390
F
  0
LAYER
  5
219
100
AcDbSymbolTableRecord
100
AcDbLayerTableRecord
  2
5__COSTRUZIONE
 70
0
 62
7
  6
CONTINUOUS
370
-3
390
F
  0
LAYER
  5
21A
100
AcDbSymbolTableRecord
100
AcDbLayerTableRecord
  2
7_ALL_FEATURES
 70
0
 62
7
  6
CONTINUOUS
370
-3
390
F
  0
LAYER
  5
21B
100
AcDbSymbolTableRecord
100
AcDbLayerTableRecord
  2
8_ALL_NOTES_BALLOONS_SYMBOLS_GT
 70
0
 62
7
  6
CONTINUOUS
370
-3
390
F
  0
LAYER
  5
21C
100
AcDbSymbolTableRecord
100
AcDbLayerTableRecord
  2
INTFCLR_2
 70
0
 62
7
  6
CONTINUOUS
370
-3
390
F
  0
LAYER
  5
21D
100
AcDbSymbolTableRecord
100
AcDbLayerTableRecord
  2
XSEC_DATUMS
 70
0
 62
7
  6
CONTINUOUS
370
-3
390
F
  0
LAYER
  5
21E
100
AcDbSymbolTableRecord
100
AcDbLayerTableRecord
  2
XXX_SOLIDO
 70
0
 62
7
  6
CONTINUOUS
370
-3
390
F
  0
ENDTAB
  0
TABLE
  2
STYLE
  5
3
100
AcDbSymbolTable
 70
1
  0
STYLE
  5
11
100
AcDbSymbolTableRecord
100
AcDbTextStyleTableRecord
  2
STANDARD
 70
0
 40
0.0
 41
0.85
 50
0.0
 71
0
 42
0.2
  3
txt
  4

  0
STYLE
  5
21F
100
AcDbSymbolTableRecord
100
AcDbTextStyleTableRecord
  2
TEXTSTYLE_1
 70
0
 40
0.0
 41
0.8
 50
0.0
 71
0
 42
0.2
  3
gdt
  4

  0
ENDTAB
  0
TABLE
  2
VIEW
  5
6
100
AcDbSymbolTable
 70
0
  0
ENDTAB
  0
TABLE
  2
UCS
  5
7
100
AcDbSymbolTable
 70
0
  0
ENDTAB
  0
TABLE
  2
APPID
  5
9
100
AcDbSymbolTable
 70
1
  0
APPID
  5
220
100
AcDbSymbolTableRecord
100
AcDbRegAppTableRecord
  2
ACAD
 70
0
  0
ENDTAB
  0
TABLE
  2
BLOCK_RECORD
  5
1
100
AcDbSymbolTable
 70
0
  0
BLOCK_RECORD
  5
221
100
AcDbSymbolTableRecord
100
AcDbBlockTableRecord
  2
*Model_Space
  0
BLOCK_RECORD
  5
222
100
AcDbSymbolTableRecord
100
AcDbBlockTableRecord
  2
*Paper_Space
  0
BLOCK_RECORD
  5
223
100
AcDbSymbolTableRecord
100
AcDbBlockTableRecord
  2
_CLOSED
  0
BLOCK_RECORD
  5
224
100
AcDbSymbolTableRecord
100
AcDbBlockTableRecord
  2
*D0
  0
BLOCK_RECORD
  5
225
100
AcDbSymbolTableRecord
100
AcDbBlockTableRecord
  2
*D1
  0
BLOCK_RECORD
  5
226
100
AcDbSymbolTableRecord
100
AcDbBlockTableRecord
  2
*D2
  0
BLOCK_RECORD
  5
227
100
AcDbSymbolTableRecord
100
AcDbBlockTableRecord
  2
*D3
  0
BLOCK_RECORD
  5
228
100
AcDbSymbolTableRecord
100
AcDbBlockTableRecord
  2
*D4
  0
BLOCK_RECORD
  5
229
100
AcDbSymbolTableRecord
100
AcDbBlockTableRecord
  2
LOGO2_BL0
  0
BLOCK_RECORD
  5
22A
100
AcDbSymbolTableRecord
100
AcDbBlockTableRecord
  2
*T1
  0
ENDTAB
  0
TABLE
  2
DIMSTYLE
  5
A
100
AcDbSymbolTable
 70
1
100
AcDbDimStyleTable
 71
0
  0
DIMSTYLE
105
22B
100
AcDbSymbolTableRecord
100
AcDbDimStyleTableRecord
  2
STANDARD
 70
0
  3

  4

 40
1.0
 41
2.5
 42
0.0625
 43
0.38
 44
0.18
 45
0.0
 46
0.0
 47
0.01
 48
0.01
140
3.0
141
0.09
142
0.0
143
25.4
144
1.0
145
0.0
146
1.0
147
0.09
 71
1.0
 72
0.0
 73
0
 74
0
 75
0
 76
0
 77
1
 78
8
170
0
171
2
172
0
173
0
174
0
175
0
176
0
177
0
178
0
270
2
271
2
272
2
273
2
274
2
275
0
280
0
281
0
282
0
283
1
284
8
285
0
286
0
287
3
288
0
340
11
341
223
342
223
343
223
344
223
  0
DIMSTYLE
105
22C
100
AcDbSymbolTableRecord
100
AcDbDimStyleTableRecord
  2
DIMSTYLE_1
 70
0
  3

  4

 40
1.0
 41
2.5
 42
0.0625
 43
0.38
 44
0.18
 45
0.0
 46
0.0
 47
0.3
 48
0.3
140
3.0
141
0.09
142
0.0
143
25.4
144
1.0
145
0.0
146
1.0
147
0.09
 71
0.0
 72
0.0
 73
0
 74
0
 75
0
 76
0
 77
1
 78
8
170
0
171
2
172
0
173
0
174
0
175
0
176
0
177
0
178
0
270
2
271
2
272
2
273
2
274
2
275
0
280
0
281
0
282
0
283
1
284
8
285
0
286
0
287
3
288
0
340
11
341
223
342
223
343
223
344
223
  0
DIMSTYLE
105
22D
100
AcDbSymbolTableRecord
100
AcDbDimStyleTableRecord
  2
DIMSTYLE_2
 70
0
  3

  4

 40
1.0
 41
2.5
 42
0.0625
 43
0.38
 44
0.18
 45
0.0
 46
0.0
 47
0.2
 48
0.2
140
3.0
141
0.09
142
0.0
143
25.4
144
1.0
145
0.0
146
1.0
147
0.09
 71
0.0
 72
0.0
 73
0
 74
0
 75
0
 76
0
 77
1
 78
8
170
0
171
2
172
0
173
0
174
0
175
0
176
0
177
0
178
0
270
2
271
0
272
0
273
2
274
2
275
0
280
0
281
0
282
0
283
1
284
8
285
0
286
0
287
3
288
0
340
11
341
223
342
223
343
223
344
223
  0
DIMSTYLE
105
22E
100
AcDbSymbolTableRecord
100
AcDbDimStyleTableRecord
  2
DIMSTYLE_3
 70
0
  3

  4

 40
1.0
 41
2.5
 42
0.0625
 43
0.38
 44
0.18
 45
0.0
 46
0.0
 47
0.3
 48
0.3
140
3.0
141
0.09
142
0.0
143
25.4
144
1.0
145
0.0
146
1.0
147
0.09
 71
0.0
 72
0.0
 73
0
 74
0
 75
0
 76
0
 77
1
 78
8
170
0
171
2
172
0
173
0
174
0
175
0
176
0
177
0
178
0
270
2
271
0
272
0
273
2
274
2
275
0
280
0
281
0
282
0
283
1
284
8
285
0
286
0
287
3
288
0
340
11
341
223
342
223
343
223
344
223
  0
DIMSTYLE
105
22F
100
AcDbSymbolTableRecord
100
AcDbDimStyleTableRecord
  2
DIMSTYLE_4
 70
0
  3

  4

 40
1.0
 41
2.5
 42
0.0625
 43
0.38
 44
0.18
 45
0.0
 46
0.0
 47
0.3
 48
0.3
140
3.0
141
0.09
142
0.0
143
25.4
144
1.0
145
0.0
146
1.0
147
0.09
 71
0.0
 72
0.0
 73
0
 74
0
 75
0
 76
0
 77
1
 78
8
170
0
171
2
172
0
173
0
174
0
175
0
176
0
177
0
178
0
270
2
271
2
272
2
273
2
274
2
275
0
280
0
281
0
282
0
283
1
284
8
285
0
286
0
287
3
288
0
340
11
341
223
342
223
343
223
344
223
  0
ENDTAB
  0
ENDSEC
  0
SECTION
  2
BLOCKS
  0
BLOCK
  5
20
100
AcDbEntity
  8
0
100
AcDbBlockBegin
  2
*Model_Space
 70
0
 10
0.0
 20
0.0
 30
0.0
  3
*Model_Space
  1

  0
ENDBLK
  5
21
100
AcDbEntity
  8
0
100
AcDbBlockEnd
  0
BLOCK
  5
1C
100
AcDbEntity
  8
0
100
AcDbBlockBegin
  2
*Paper_Space
 70
0
 10
0.0
 20
0.0
 30
0.0
  3
*Paper_Space
  1

  0
ENDBLK
  5
1D
100
AcDbEntity
  8
0
100
AcDbBlockEnd
  0
BLOCK
  5
230
100
AcDbEntity
  8
0
100
AcDbBlockBegin
 62
2
  6
CONTINUOUS
  2
LOGO2_BL0
 70
64
 10
207.6164605391
 20
39.6725198453
  3
LOGO2_BL0
  1

  0
LINE
  5
231
100
AcDbEntity
  8
0
100
AcDbLine
 62
7
  6
CONTINUOUS
 10
199.3593857673
 20
42.8680111841
 11
198.055044838
 21
42.8680111841
  0
LINE
  5
232
100
AcDbEntity
  8
0
100
AcDbLine
 62
7
  6
CONTINUOUS
 10
198.055044838
 20
42.8680111841
 11
198.055044838
 21
32.4089451242
  0
LINE
  5
233
100
AcDbEntity
  8
0
100
AcDbLine
 62
7
  6
CONTINUOUS
 10
198.055044838
 20
32.4089451242
 11
202.5360997262
 21
32.4089451242
  0
LINE
  5
234
100
AcDbEntity
  8
0
100
AcDbLine
 62
7
  6
CONTINUOUS
 10
202.5360997262
 20
32.4089451242
 11
202.5360997262
 21
33.6017994493
  0
LINE
  5
235
100
AcDbEntity
  8
0
100
AcDbLine
 62
7
  6
CONTINUOUS
 10
202.5360997262
 20
33.6017994493
 11
199.3593857673
 21
33.6017994493
  0
LINE
  5
236
100
AcDbEntity
  8
0
100
AcDbLine
 62
7
  6
CONTINUOUS
 10
199.3593857673
 20
33.6017994493
 11
199.3593857673
 21
42.8680111841
  0
LINE
  5
237
100
AcDbEntity
  8
0
100
AcDbLine
 62
7
  6
CONTINUOUS
 10
214.2957119836
 20
42.8680111841
 11
212.9918944656
 21
42.8680111841
  0
LINE
  5
238
100
AcDbEntity
  8
0
100
AcDbLine
 62
7
  6
CONTINUOUS
 10
212.9918944656
 20
42.8680111841
 11
212.9918944656
 21
32.4089451242
  0
LINE
  5
239
100
AcDbEntity
  8
0
100
AcDbLine
 62
7
  6
CONTINUOUS
 10
212.9918944656
 20
32.4089451242
 11
217.4730802067
 21
32.4089451242
  0
LINE
  5
23A
100
AcDbEntity
  8
0
100
AcDbLine
 62
7
  6
CONTINUOUS
 10
217.4730802067
 20
32.4089451242
 11
217.4730802067
 21
33.6017994493
  0
LINE
  5
23B
100
AcDbEntity
  8
0
100
AcDbLine
 62
7
  6
CONTINUOUS
 10
217.4730802067
 20
33.6017994493
 11
214.2957119836
 21
33.6017994493
  0
LINE
  5
23C
100
AcDbEntity
  8
0
100
AcDbLine
 62
7
  6
CONTINUOUS
 10
214.2957119836
 20
33.6017994493
 11
214.2957119836
 21
42.8680111841
  0
LWPOLYLINE
  5
23D
100
AcDbEntity
  8
0
100
AcDbPolyline
 62
7
  6
CONTINUOUS
 90
2
 70
0
 43
0.2
 10
196.4094397489
 20
29.0653938173
 10
196.4094397489
 20
27.208330568
  0
LWPOLYLINE
  5
23E
100
AcDbEntity
  8
0
100
AcDbPolyline
 62
7
  6
CONTINUOUS
 90
2
 70
0
 43
0.2
 10
196.4094397489
 20
27.208330568
 10
197.2051557593
 20
27.208330568
  0
LWPOLYLINE
  5
23F
100
AcDbEntity
  8
0
100
AcDbPolyline
 62
7
  6
CONTINUOUS
 90
2
 70
0
 43
0.2
 10
197.2051557593
 20
27.208330568
 10
197.2051557593
 20
27.4203121396
  0
LWPOLYLINE
  5
240
100
AcDbEntity
  8
0
100
AcDbPolyline
 62
7
  6
CONTINUOUS
 90
2
 70
0
 43
0.2
 10
197.2051557593
 20
27.4203121396
 10
196.6410492438
 20
27.4203121396
  0
LWPOLYLINE
  5
241
100
AcDbEntity
  8
0
100
AcDbPolyline
 62
7
  6
CONTINUOUS
 90
2
 70
0
 43
0.2
 10
196.6410492438
 20
27.4203121396
 10
196.6410492438
 20
29.0653938173
  0
LWPOLYLINE
  5
242
100
AcDbEntity
  8
0
100
AcDbPolyline
 62
7
  6
CONTINUOUS
 90
2
 70
0
 43
0.2
 10
196.6410492438
 20
29.0653938173
 10
196.4094397489
 20
29.0653938173
  0
SPLINE
  5
243
100
AcDbEntity
  8
0
100
AcDbSpline
 62
7
  6
CONTINUOUS
 70
2
 71
3
 72
35
 73
31
 74
0
 42
0.0000001
 43
0.0000001
 44
0.0000000001
 40
0.0
 40
0.0
 40
0.0
 40
0.0
 40
1.0
 40
1.0
 40
1.0
 40
2.0
 40
2.0
 40
2.0
 40
3.0
 40
3.0
 40
3.0
 40
4.0
 40
4.0
 40
4.0
 40
5.0
 40
5.0
 40
5.0
 40
6.0
 40
6.0
 40
6.0
 40
7.0
 40
7.0
 40
7.0
 40
8.0
 40
8.0
 40
8.0
 40
9.0
 40
9.0
 40
9.0
 40
10.0
 40
10.0
 40
10.0
 40
10.0
 10
198.6034490148
 20
28.3608822239
 30
0.0
 10
198.6034490148
 20
28.3608822239
 30
0.0
 10
198.6034490148
 20
27.6987669447
 30
0.0
 10
198.6034490148
 20
27.6987669447
 30
0.0
 10
198.6034490148
 20
27.3836733494
 30
0.0
 10
198.7513127037
 20
27.1690747214
 30
0.0
 10
199.0913991879
 20
27.1690747214
 30
0.0
 10
199.430962261
 20
27.1690747214
 30
0.0
 10
199.5790876554
 20
27.3836733494
 30
0.0
 10
199.5790876554
 20
27.6987669447
 30
0.0
 10
199.5790876554
 20
27.6987669447
 30
0.0
 10
199.5790876554
 20
28.3608822239
 30
0.0
 10
199.5790876554
 20
28.3608822239
 30
0.0
 10
199.5790876554
 20
28.3608822239
 30
0.0
 10
199.3570304165
 20
28.3608822239
 30
0.0
 10
199.3570304165
 20
28.3608822239
 30
0.0
 10
199.3570304165
 20
28.3608822239
 30
0.0
 10
199.3570304165
 20
27.7238906865
 30
0.0
 10
199.3570304165
 20
27.7238906865
 30
0.0
 10
199.3570304165
 20
27.5380796793
 30
0.0
 10
199.3103159591
 20
27.3752987688
 30
0.0
 10
199.0913991879
 20
27.3752987688
 30
0.0
 10
198.8719590055
 20
27.3752987688
 30
0.0
 10
198.8252445481
 20
27.5380796793
 30
0.0
 10
198.8252445481
 20
27.7238906865
 30
0.0
 10
198.8252445481
 20
27.7238906865
 30
0.0
 10
198.8252445481
 20
28.3608822239
 30
0.0
 10
198.8252445481
 20
28.3608822239
 30
0.0
 10
198.8252445481
 20
28.3608822239
 30
0.0
 10
198.6034490148
 20
28.3608822239
 30
0.0
 10
198.6034490148
 20
28.3608822239
 30
0.0
  0
SPLINE
  5
244
100
AcDbEntity
  8
0
100
AcDbSpline
 62
7
  6
CONTINUOUS
 70
2
 71
3
 72
35
 73
31
 74
0
 42
0.0000001
 43
0.0000001
 44
0.0000000001
 40
0.0
 40
0.0
 40
0.0
 40
0.0
 40
1.0
 40
1.0
 40
1.0
 40
2.0
 40
2.0
 40
2.0
 40
3.0
 40
3.0
 40
3.0
 40
4.0
 40
4.0
 40
4.0
 40
5.0
 40
5.0
 40
5.0
 40
6.0
 40
6.0
 40
6.0
 40
7.0
 40
7.0
 40
7.0
 40
8.0
 40
8.0
 40
8.0
 40
9.0
 40
9.0
 40
9.0
 40
10.0
 40
10.0
 40
10.0
 40
10.0
 10
202.0022202126
 20
28.3195327321
 30
0.0
 10
201.913763705
 20
28.3708270383
 30
0.0
 10
201.8003143083
 20
28.3959507801
 30
0.0
 10
201.6966788733
 20
28.3959507801
 30
0.0
 10
201.3418060201
 20
28.3959507801
 30
0.0
 10
201.0663608299
 20
28.1321514911
 30
0.0
 10
201.0663608299
 20
27.7746615814
 30
0.0
 10
201.0663608299
 20
27.4297335427
 30
0.0
 10
201.344815635
 20
27.1695981327
 30
0.0
 10
201.6843787081
 20
27.1695981327
 30
0.0
 10
201.8003143083
 20
27.1695981327
 30
0.0
 10
201.9010709812
 20
27.1915814068
 30
0.0
 10
202.0022202126
 20
27.2454927694
 30
0.0
 10
202.0022202126
 20
27.2454927694
 30
0.0
 10
202.0022202126
 20
27.5281348649
 30
0.0
 10
202.0022202126
 20
27.5281348649
 30
0.0
 10
201.9183435537
 20
27.4349676556
 30
0.0
 10
201.8148389716
 20
27.3758221801
 30
0.0
 10
201.6867340588
 20
27.3758221801
 30
0.0
 10
201.4530309188
 20
27.3758221801
 30
0.0
 10
201.2877638047
 20
27.5480244938
 30
0.0
 10
201.2877638047
 20
27.7846063959
 30
0.0
 10
201.2877638047
 20
27.9965879675
 30
0.0
 10
201.4555171224
 20
28.1886799102
 30
0.0
 10
201.6723402484
 20
28.1886799102
 30
0.0
 10
201.8051558627
 20
28.1886799102
 30
0.0
 10
201.913763705
 20
28.1347685475
 30
0.0
 10
202.0022202126
 20
28.0337501689
 30
0.0
 10
202.0022202126
 20
28.0337501689
 30
0.0
 10
202.0022202126
 20
28.3195327321
 30
0.0
 10
202.0022202126
 20
28.3195327321
 30
0.0
  0
SPLINE
  5
245
100
AcDbEntity
  8
0
100
AcDbSpline
 62
7
  6
CONTINUOUS
 70
2
 71
3
 72
32
 73
28
 74
0
 42
0.0000001
 43
0.0000001
 44
0.0000000001
 40
0.0
 40
0.0
 40
0.0
 40
0.0
 40
1.0
 40
1.0
 40
1.0
 40
2.0
 40
2.0
 40
2.0
 40
3.0
 40
3.0
 40
3.0
 40
4.0
 40
4.0
 40
4.0
 40
5.0
 40
5.0
 40
5.0
 40
6.0
 40
6.0
 40
6.0
 40
7.0
 40
7.0
 40
7.0
 40
8.0
 40
8.0
 40
8.0
 40
9.0
 40
9.0
 40
9.0
 40
9.0
 10
204.5340914649
 20
27.7479676058
 30
0.0
 10
204.5340914649
 20
27.7479676058
 30
0.0
 10
204.5340914649
 20
27.7819893395
 30
0.0
 10
204.5340914649
 20
27.7819893395
 30
0.0
 10
204.5340914649
 20
28.1243003217
 30
0.0
 10
204.361234887
 20
28.3959507801
 30
0.0
 10
203.9945852799
 20
28.3959507801
 30
0.0
 10
203.6229632655
 20
28.3959507801
 30
0.0
 10
203.4332266736
 20
28.1295344346
 30
0.0
 10
203.4332266736
 20
27.7746615814
 30
0.0
 10
203.4332266736
 20
27.4349676556
 30
0.0
 10
203.6473018904
 20
27.1690747214
 30
0.0
 10
203.9994268343
 20
27.1690747214
 30
0.0
 10
204.2234468655
 20
27.1690747214
 30
0.0
 10
204.4256144755
 20
27.284748616
 30
0.0
 10
204.5340914649
 20
27.4841683167
 30
0.0
 10
204.5340914649
 20
27.4841683167
 30
0.0
 10
204.3464485182
 20
27.5909442194
 30
0.0
 10
204.3464485182
 20
27.5909442194
 30
0.0
 10
204.2629644177
 20
27.4522402281
 30
0.0
 10
204.1717600008
 20
27.3664007769
 30
0.0
 10
204.0021747436
 20
27.3664007769
 30
0.0
 10
203.790193172
 20
27.3664007769
 30
0.0
 10
203.6572467049
 20
27.5511649615
 30
0.0
 10
203.6548913541
 20
27.7479676058
 30
0.0
 10
203.6548913541
 20
27.7479676058
 30
0.0
 10
204.5340914649
 20
27.7479676058
 30
0.0
 10
204.5340914649
 20
27.7479676058
 30
0.0
  0
SPLINE
  5
246
100
AcDbEntity
  8
0
100
AcDbSpline
 62
7
  6
CONTINUOUS
 70
2
 71
3
 72
14
 73
10
 74
0
 42
0.0000001
 43
0.0000001
 44
0.0000000001
 40
0.0
 40
0.0
 40
0.0
 40
0.0
 40
1.0
 40
1.0
 40
1.0
 40
2.0
 40
2.0
 40
2.0
 40
3.0
 40
3.0
 40
3.0
 40
3.0
 10
203.6669298137
 20
27.9154592179
 30
0.0
 10
203.6945397591
 20
28.0803337736
 30
0.0
 10
203.8223829662
 20
28.2033354262
 30
0.0
 10
203.9945852799
 20
28.2033354262
 30
0.0
 10
204.1717600008
 20
28.2033354262
 30
0.0
 10
204.2852093975
 20
28.0876615316
 30
0.0
 10
204.3124267844
 20
27.9154592179
 30
0.0
 10
204.3124267844
 20
27.9154592179
 30
0.0
 10
203.6669298137
 20
27.9154592179
 30
0.0
 10
203.6669298137
 20
27.9154592179
 30
0.0
  0
SPLINE
  5
247
100
AcDbEntity
  8
0
100
AcDbSpline
 62
7
  6
CONTINUOUS
 70
2
 71
3
 72
20
 73
16
 74
0
 42
0.0000001
 43
0.0000001
 44
0.0000000001
 40
0.0
 40
0.0
 40
0.0
 40
0.0
 40
1.0
 40
1.0
 40
1.0
 40
2.0
 40
2.0
 40
2.0
 40
3.0
 40
3.0
 40
3.0
 40
4.0
 40
4.0
 40
4.0
 40
5.0
 40
5.0
 40
5.0
 40
5.0
 10
206.5581229151
 20
28.124823733
 30
0.0
 10
206.5581229151
 20
28.124823733
 30
0.0
 10
206.9692624817
 20
27.6223488967
 30
0.0
 10
206.9692624817
 20
27.6223488967
 30
0.0
 10
206.8531960286
 20
27.5066750021
 30
0.0
 10
206.7154080071
 20
27.3763455914
 30
0.0
 10
206.543467399
 20
27.3763455914
 30
0.0
 10
206.3660309724
 20
27.3763455914
 30
0.0
 10
206.1985393603
 20
27.5406967358
 30
0.0
 10
206.1985393603
 20
27.7176097511
 30
0.0
 10
206.1985393603
 20
27.8955695889
 30
0.0
 10
206.4082964339
 20
28.0217117093
 30
0.0
 10
206.5358779353
 20
28.1096448057
 30
0.0
 10
206.5358779353
 20
28.1096448057
 30
0.0
 10
206.5581229151
 20
28.124823733
 30
0.0
 10
206.5581229151
 20
28.124823733
 30
0.0
  0
SPLINE
  5
248
100
AcDbEntity
  8
0
100
AcDbSpline
 62
7
  6
CONTINUOUS
 70
2
 71
3
 72
23
 73
19
 74
0
 42
0.0000001
 43
0.0000001
 44
0.0000000001
 40
0.0
 40
0.0
 40
0.0
 40
0.0
 40
1.0
 40
1.0
 40
1.0
 40
2.0
 40
2.0
 40
2.0
 40
3.0
 40
3.0
 40
3.0
 40
4.0
 40
4.0
 40
4.0
 40
5.0
 40
5.0
 40
5.0
 40
6.0
 40
6.0
 40
6.0
 40
6.0
 10
206.6074544289
 20
28.4158404091
 30
0.0
 10
206.6074544289
 20
28.4158404091
 30
0.0
 10
206.5458227498
 20
28.4943521023
 30
0.0
 10
206.5458227498
 20
28.4943521023
 30
0.0
 10
206.4919113871
 20
28.562918981
 30
0.0
 10
206.4351212624
 20
28.632009271
 30
0.0
 10
206.4351212624
 20
28.7256998915
 30
0.0
 10
206.4351212624
 20
28.8445142539
 30
0.0
 10
206.5310363809
 20
28.9219791245
 30
0.0
 10
206.6419995739
 20
28.9219791245
 30
0.0
 10
206.7652629322
 20
28.9219791245
 30
0.0
 10
206.8585609943
 20
28.8507951893
 30
0.0
 10
206.8585609943
 20
28.7204657786
 30
0.0
 10
206.8585609943
 20
28.5854256664
 30
0.0
 10
206.7304560816
 20
28.5090076183
 30
0.0
 10
206.6368963139
 20
28.4352066267
 30
0.0
 10
206.6368963139
 20
28.4352066267
 30
0.0
 10
206.6074544289
 20
28.4158404091
 30
0.0
 10
206.6074544289
 20
28.4158404091
 30
0.0
  0
SPLINE
  5
249
100
AcDbEntity
  8
0
100
AcDbSpline
 62
7
  6
CONTINUOUS
 70
2
 71
3
 72
50
 73
46
 74
0
 42
0.0000001
 43
0.0000001
 44
0.0000000001
 40
0.0
 40
0.0
 40
0.0
 40
0.0
 40
1.0
 40
1.0
 40
1.0
 40
2.0
 40
2.0
 40
2.0
 40
3.0
 40
3.0
 40
3.0
 40
4.0
 40
4.0
 40
4.0
 40
5.0
 40
5.0
 40
5.0
 40
6.0
 40
6.0
 40
6.0
 40
7.0
 40
7.0
 40
7.0
 40
8.0
 40
8.0
 40
8.0
 40
9.0
 40
9.0
 40
9.0
 40
10.0
 40
10.0
 40
10.0
 40
11.0
 40
11.0
 40
11.0
 40
12.0
 40
12.0
 40
12.0
 40
13.0
 40
13.0
 40
13.0
 40
14.0
 40
14.0
 40
14.0
 40
15.0
 40
15.0
 40
15.0
 40
15.0
 10
207.3096106716
 20
27.2088539793
 30
0.0
 10
207.3096106716
 20
27.2088539793
 30
0.0
 10
207.5950006763
 20
27.2088539793
 30
0.0
 10
207.5950006763
 20
27.2088539793
 30
0.0
 10
207.5950006763
 20
27.2088539793
 30
0.0
 10
207.2626345085
 20
27.6197318402
 30
0.0
 10
207.2626345085
 20
27.6197318402
 30
0.0
 10
207.2626345085
 20
27.6197318402
 30
0.0
 10
207.4891407434
 20
27.8856247745
 30
0.0
 10
207.4891407434
 20
27.8856247745
 30
0.0
 10
207.4891407434
 20
27.8856247745
 30
0.0
 10
207.3408844961
 20
28.0384608705
 30
0.0
 10
207.3408844961
 20
28.0384608705
 30
0.0
 10
207.3408844961
 20
28.0384608705
 30
0.0
 10
207.1249773398
 20
27.7872234524
 30
0.0
 10
207.1249773398
 20
27.7872234524
 30
0.0
 10
207.1249773398
 20
27.7872234524
 30
0.0
 10
206.7379146924
 20
28.2551531437
 30
0.0
 10
206.7379146924
 20
28.2551531437
 30
0.0
 10
206.8933678449
 20
28.3692568045
 30
0.0
 10
207.0756458259
 20
28.5090076183
 30
0.0
 10
207.0756458259
 20
28.7183721335
 30
0.0
 10
207.0756458259
 20
28.9622817936
 30
0.0
 10
206.8736090688
 20
29.1056964865
 30
0.0
 10
206.647102834
 20
29.1056964865
 30
0.0
 10
206.4029314682
 20
29.1056964865
 30
0.0
 10
206.2185598421
 20
28.9549540356
 30
0.0
 10
206.2185598421
 20
28.6984825045
 30
0.0
 10
206.2185598421
 20
28.5409357069
 30
0.0
 10
206.3172228698
 20
28.4032785382
 30
0.0
 10
206.4225593915
 20
28.2923153452
 30
0.0
 10
206.4225593915
 20
28.2923153452
 30
0.0
 10
206.3070163497
 20
28.2085695391
 30
0.0
 10
206.3070163497
 20
28.2085695391
 30
0.0
 10
206.1293182175
 20
28.0803337736
 30
0.0
 10
205.9819779399
 20
27.9526214193
 30
0.0
 10
205.9819779399
 20
27.7155161059
 30
0.0
 10
205.9819779399
 20
27.3951883977
 30
0.0
 10
206.2405431161
 20
27.1690747214
 30
0.0
 10
206.5509260098
 20
27.1690747214
 30
0.0
 10
206.769842781
 20
27.1690747214
 30
0.0
 10
206.9670379837
 20
27.2941700192
 30
0.0
 10
207.1073122089
 20
27.4600913974
 30
0.0
 10
207.1073122089
 20
27.4600913974
 30
0.0
 10
207.3096106716
 20
27.2088539793
 30
0.0
 10
207.3096106716
 20
27.2088539793
 30
0.0
  0
LWPOLYLINE
  5
24A
100
AcDbEntity
  8
0
100
AcDbPolyline
 62
7
  6
CONTINUOUS
 90
2
 70
0
 43
0.2
 10
209.2450547613
 20
29.0653938173
 10
209.0137069721
 20
29.0653938173
  0
LWPOLYLINE
  5
24B
100
AcDbEntity
  8
0
100
AcDbPolyline
 62
7
  6
CONTINUOUS
 90
2
 70
0
 43
0.2
 10
209.0137069721
 20
29.0653938173
 10
209.0137069721
 20
27.208330568
  0
LWPOLYLINE
  5
24C
100
AcDbEntity
  8
0
100
AcDbPolyline
 62
7
  6
CONTINUOUS
 90
2
 70
0
 43
0.2
 10
209.0137069721
 20
27.208330568
 10
209.809030424
 20
27.208330568
  0
LWPOLYLINE
  5
24D
100
AcDbEntity
  8
0
100
AcDbPolyline
 62
7
  6
CONTINUOUS
 90
2
 70
0
 43
0.2
 10
209.809030424
 20
27.208330568
 10
209.809030424
 20
27.4203121396
  0
LWPOLYLINE
  5
24E
100
AcDbEntity
  8
0
100
AcDbPolyline
 62
7
  6
CONTINUOUS
 90
2
 70
0
 43
0.2
 10
209.809030424
 20
27.4203121396
 10
209.2450547613
 20
27.4203121396
  0
LWPOLYLINE
  5
24F
100
AcDbEntity
  8
0
100
AcDbPolyline
 62
7
  6
CONTINUOUS
 90
2
 70
0
 43
0.2
 10
209.2450547613
 20
27.4203121396
 10
209.2450547613
 20
29.0653938173
  0
LWPOLYLINE
  5
250
100
AcDbEntity
  8
0
100
AcDbPolyline
 62
7
  6
CONTINUOUS
 90
2
 70
0
 43
0.2
 10
211.4881338355
 20
28.3608822239
 10
211.2669925664
 20
28.3608822239
  0
LWPOLYLINE
  5
251
100
AcDbEntity
  8
0
100
AcDbPolyline
 62
7
  6
CONTINUOUS
 90
2
 70
0
 43
0.2
 10
211.2669925664
 20
28.3608822239
 10
211.2669925664
 20
27.2088539793
  0
LWPOLYLINE
  5
252
100
AcDbEntity
  8
0
100
AcDbPolyline
 62
7
  6
CONTINUOUS
 90
2
 70
0
 43
0.2
 10
211.2669925664
 20
27.2088539793
 10
211.4881338355
 20
27.2088539793
  0
LWPOLYLINE
  5
253
100
AcDbEntity
  8
0
100
AcDbPolyline
 62
7
  6
CONTINUOUS
 90
2
 70
0
 43
0.2
 10
211.4881338355
 20
27.2088539793
 10
211.4881338355
 20
28.3608822239
  0
SPLINE
  5
254
100
AcDbEntity
  8
0
100
AcDbSpline
 62
7
  6
CONTINUOUS
 70
2
 71
3
 72
17
 73
13
 74
0
 42
0.0000001
 43
0.0000001
 44
0.0000000001
 40
0.0
 40
0.0
 40
0.0
 40
0.0
 40
1.0
 40
1.0
 40
1.0
 40
2.0
 40
2.0
 40
2.0
 40
3.0
 40
3.0
 40
3.0
 40
4.0
 40
4.0
 40
4.0
 40
4.0
 10
211.3776940538
 20
29.0434105432
 30
0.0
 10
211.2936865421
 20
29.0434105432
 30
0.0
 10
211.2251196633
 20
28.9743202532
 30
0.0
 10
211.2251196633
 20
28.888480802
 30
0.0
 10
211.2251196633
 20
28.8042115847
 30
0.0
 10
211.2936865421
 20
28.7382617624
 30
0.0
 10
211.3776940538
 20
28.7382617624
 30
0.0
 10
211.4614398598
 20
28.7382617624
 30
0.0
 10
211.5302684442
 20
28.8042115847
 30
0.0
 10
211.5302684442
 20
28.888480802
 30
0.0
 10
211.5302684442
 20
28.9743202532
 30
0.0
 10
211.4614398598
 20
29.0434105432
 30
0.0
 10
211.3776940538
 20
29.0434105432
 30
0.0
  0
SPLINE
  5
255
100
AcDbEntity
  8
0
100
AcDbSpline
 62
7
  6
CONTINUOUS
 70
2
 71
3
 72
17
 73
13
 74
0
 42
0.0000001
 43
0.0000001
 44
0.0000000001
 40
0.0
 40
0.0
 40
0.0
 40
0.0
 40
1.0
 40
1.0
 40
1.0
 40
2.0
 40
2.0
 40
2.0
 40
3.0
 40
3.0
 40
3.0
 40
4.0
 40
4.0
 40
4.0
 40
4.0
 10
213.6184177771
 20
27.3664007769
 30
0.0
 10
213.3844529315
 20
27.3664007769
 30
0.0
 10
213.2541235208
 20
27.568437534
 30
0.0
 10
213.2541235208
 20
27.7846063959
 30
0.0
 10
213.2541235208
 20
27.9992050239
 30
0.0
 10
213.38994875
 20
28.1981013133
 30
0.0
 10
213.6184177771
 20
28.1981013133
 30
0.0
 10
213.8578784413
 20
28.1981013133
 30
0.0
 10
213.9934419649
 20
28.0091498384
 30
0.0
 10
213.9934419649
 20
27.7846063959
 30
0.0
 10
213.9934419649
 20
27.5584927196
 30
0.0
 10
213.8602337921
 20
27.3664007769
 30
0.0
 10
213.6184177771
 20
27.3664007769
 30
0.0
  0
SPLINE
  5
256
100
AcDbEntity
  8
0
100
AcDbSpline
 62
7
  6
CONTINUOUS
 70
2
 71
3
 72
50
 73
46
 74
0
 42
0.0000001
 43
0.0000001
 44
0.0000000001
 40
0.0
 40
0.0
 40
0.0
 40
0.0
 40
1.0
 40
1.0
 40
1.0
 40
2.0
 40
2.0
 40
2.0
 40
3.0
 40
3.0
 40
3.0
 40
4.0
 40
4.0
 40
4.0
 40
5.0
 40
5.0
 40
5.0
 40
6.0
 40
6.0
 40
6.0
 40
7.0
 40
7.0
 40
7.0
 40
8.0
 40
8.0
 40
8.0
 40
9.0
 40
9.0
 40
9.0
 40
10.0
 40
10.0
 40
10.0
 40
11.0
 40
11.0
 40
11.0
 40
12.0
 40
12.0
 40
12.0
 40
13.0
 40
13.0
 40
13.0
 40
14.0
 40
14.0
 40
14.0
 40
15.0
 40
15.0
 40
15.0
 40
15.0
 10
214.2025447744
 20
28.3614056352
 30
0.0
 10
214.2025447744
 20
28.3614056352
 30
0.0
 10
213.980880094
 20
28.3614056352
 30
0.0
 10
213.980880094
 20
28.3614056352
 30
0.0
 10
213.980880094
 20
28.3614056352
 30
0.0
 10
213.980880094
 20
28.1640795796
 30
0.0
 10
213.980880094
 20
28.1640795796
 30
0.0
 10
213.980880094
 20
28.1640795796
 30
0.0
 10
213.9761693924
 20
28.1640795796
 30
0.0
 10
213.9761693924
 20
28.1640795796
 30
0.0
 10
213.8848341227
 20
28.3069708612
 30
0.0
 10
213.7469152483
 20
28.3954273689
 30
0.0
 10
213.5741895233
 20
28.3954273689
 30
0.0
 10
213.2418233555
 20
28.3954273689
 30
0.0
 10
213.032720546
 20
28.1075511605
 30
0.0
 10
213.032720546
 20
27.7919341539
 30
0.0
 10
213.032720546
 20
27.4621850426
 30
0.0
 10
213.2297848959
 20
27.1690747214
 30
0.0
 10
213.5846577491
 20
27.1690747214
 30
0.0
 10
213.7469152483
 20
27.1690747214
 30
0.0
 10
213.8869277678
 20
27.257531229
 30
0.0
 10
213.9761693924
 20
27.388384051
 30
0.0
 10
213.9761693924
 20
27.388384051
 30
0.0
 10
213.980880094
 20
27.388384051
 30
0.0
 10
213.980880094
 20
27.388384051
 30
0.0
 10
213.980880094
 20
27.388384051
 30
0.0
 10
213.980880094
 20
27.1690747214
 30
0.0
 10
213.980880094
 20
27.1690747214
 30
0.0
 10
213.980880094
 20
26.9324928193
 30
0.0
 10
213.9243516749
 20
26.7456349895
 30
0.0
 10
213.6511309826
 20
26.7456349895
 30
0.0
 10
213.4488325199
 20
26.7456349895
 30
0.0
 10
213.3062029439
 20
26.8639259406
 30
0.0
 10
213.3062029439
 20
27.070149988
 30
0.0
 10
213.3062029439
 20
27.070149988
 30
0.0
 10
213.0845382635
 20
27.070149988
 30
0.0
 10
213.0845382635
 20
27.070149988
 30
0.0
 10
213.0895106707
 20
26.7456349895
 30
0.0
 10
213.3205967543
 20
26.5488323453
 30
0.0
 10
213.6409244625
 20
26.5488323453
 30
0.0
 10
214.0889645249
 20
26.5488323453
 30
0.0
 10
214.2025447744
 20
26.8340914971
 30
0.0
 10
214.2025447744
 20
27.2308372534
 30
0.0
 10
214.2025447744
 20
27.2308372534
 30
0.0
 10
214.2025447744
 20
28.3614056352
 30
0.0
 10
214.2025447744
 20
28.3614056352
 30
0.0
  0
SPLINE
  5
257
100
AcDbEntity
  8
0
100
AcDbSpline
 62
7
  6
CONTINUOUS
 70
2
 71
3
 72
44
 73
40
 74
0
 42
0.0000001
 43
0.0000001
 44
0.0000000001
 40
0.0
 40
0.0
 40
0.0
 40
0.0
 40
1.0
 40
1.0
 40
1.0
 40
2.0
 40
2.0
 40
2.0
 40
3.0
 40
3.0
 40
3.0
 40
4.0
 40
4.0
 40
4.0
 40
5.0
 40
5.0
 40
5.0
 40
6.0
 40
6.0
 40
6.0
 40
7.0
 40
7.0
 40
7.0
 40
8.0
 40
8.0
 40
8.0
 40
9.0
 40
9.0
 40
9.0
 40
10.0
 40
10.0
 40
10.0
 40
11.0
 40
11.0
 40
11.0
 40
12.0
 40
12.0
 40
12.0
 40
13.0
 40
13.0
 40
13.0
 40
13.0
 10
215.7714701098
 20
29.3464656789
 30
0.0
 10
215.7714701098
 20
29.3464656789
 30
0.0
 10
215.7714701098
 20
27.208330568
 30
0.0
 10
215.7714701098
 20
27.208330568
 30
0.0
 10
215.7714701098
 20
27.208330568
 30
0.0
 10
215.9928730846
 20
27.208330568
 30
0.0
 10
215.9928730846
 20
27.208330568
 30
0.0
 10
215.9928730846
 20
27.208330568
 30
0.0
 10
215.9928730846
 20
27.7380227913
 30
0.0
 10
215.9928730846
 20
27.7380227913
 30
0.0
 10
215.9928730846
 20
27.9479107177
 30
0.0
 10
215.9928730846
 20
28.1986247246
 30
0.0
 10
216.2781322364
 20
28.1986247246
 30
0.0
 10
216.5050310297
 20
28.1986247246
 30
0.0
 10
216.5319867111
 20
28.0656782575
 30
0.0
 10
216.5319867111
 20
27.8693990246
 30
0.0
 10
216.5319867111
 20
27.8693990246
 30
0.0
 10
216.5319867111
 20
27.208330568
 30
0.0
 10
216.5319867111
 20
27.208330568
 30
0.0
 10
216.5319867111
 20
27.208330568
 30
0.0
 10
216.7539130971
 20
27.208330568
 30
0.0
 10
216.7539130971
 20
27.208330568
 30
0.0
 10
216.7539130971
 20
27.208330568
 30
0.0
 10
216.7539130971
 20
27.8955695889
 30
0.0
 10
216.7539130971
 20
27.8955695889
 30
0.0
 10
216.7539130971
 20
28.1761180392
 30
0.0
 10
216.6699055854
 20
28.3959507801
 30
0.0
 10
216.3448671757
 20
28.3959507801
 30
0.0
 10
216.2051163618
 20
28.3959507801
 30
0.0
 10
216.0669357818
 20
28.3294775466
 30
0.0
 10
215.9975837861
 20
28.2064758939
 30
0.0
 10
215.9975837861
 20
28.2064758939
 30
0.0
 10
215.9928730846
 20
28.2064758939
 30
0.0
 10
215.9928730846
 20
28.2064758939
 30
0.0
 10
215.9928730846
 20
28.2064758939
 30
0.0
 10
215.9928730846
 20
29.3464656789
 30
0.0
 10
215.9928730846
 20
29.3464656789
 30
0.0
 10
215.9928730846
 20
29.3464656789
 30
0.0
 10
215.7714701098
 20
29.3464656789
 30
0.0
 10
215.7714701098
 20
29.3464656789
 30
0.0
  0
LWPOLYLINE
  5
258
100
AcDbEntity
  8
0
100
AcDbPolyline
 62
7
  6
CONTINUOUS
 90
2
 70
0
 43
0.2
 10
218.593703774
 20
28.1541347652
 10
218.8101343415
 20
28.1541347652
  0
LWPOLYLINE
  5
259
100
AcDbEntity
  8
0
100
AcDbPolyline
 62
7
  6
CONTINUOUS
 90
2
 70
0
 43
0.2
 10
218.8101343415
 20
28.1541347652
 10
218.8101343415
 20
28.3608822239
  0
LWPOLYLINE
  5
25A
100
AcDbEntity
  8
0
100
AcDbPolyline
 62
7
  6
CONTINUOUS
 90
2
 70
0
 43
0.2
 10
218.8101343415
 20
28.3608822239
 10
218.593703774
 20
28.3608822239
  0
LWPOLYLINE
  5
25B
100
AcDbEntity
  8
0
100
AcDbPolyline
 62
7
  6
CONTINUOUS
 90
2
 70
0
 43
0.2
 10
218.593703774
 20
28.3608822239
 10
218.593703774
 20
28.8015945282
  0
LWPOLYLINE
  5
25C
100
AcDbEntity
  8
0
100
AcDbPolyline
 62
7
  6
CONTINUOUS
 90
2
 70
0
 43
0.2
 10
218.593703774
 20
28.8015945282
 10
218.3720390936
 20
28.8015945282
  0
LWPOLYLINE
  5
25D
100
AcDbEntity
  8
0
100
AcDbPolyline
 62
7
  6
CONTINUOUS
 90
2
 70
0
 43
0.2
 10
218.3720390936
 20
28.8015945282
 10
218.3720390936
 20
28.3608822239
  0
LWPOLYLINE
  5
25E
100
AcDbEntity
  8
0
100
AcDbPolyline
 62
7
  6
CONTINUOUS
 90
2
 70
0
 43
0.2
 10
218.3720390936
 20
28.3608822239
 10
218.2513927917
 20
28.3608822239
  0
LWPOLYLINE
  5
25F
100
AcDbEntity
  8
0
100
AcDbPolyline
 62
7
  6
CONTINUOUS
 90
2
 70
0
 43
0.2
 10
218.2513927917
 20
28.3608822239
 10
218.2513927917
 20
28.1541347652
  0
LWPOLYLINE
  5
260
100
AcDbEntity
  8
0
100
AcDbPolyline
 62
7
  6
CONTINUOUS
 90
2
 70
0
 43
0.2
 10
218.2513927917
 20
28.1541347652
 10
218.3720390936
 20
28.1541347652
  0
LWPOLYLINE
  5
261
100
AcDbEntity
  8
0
100
AcDbPolyline
 62
7
  6
CONTINUOUS
 90
2
 70
0
 43
0.2
 10
218.3720390936
 20
28.1541347652
 10
218.3720390936
 20
27.208330568
  0
LWPOLYLINE
  5
262
100
AcDbEntity
  8
0
100
AcDbPolyline
 62
7
  6
CONTINUOUS
 90
2
 70
0
 43
0.2
 10
218.3720390936
 20
27.208330568
 10
218.593703774
 20
27.208330568
  0
LWPOLYLINE
  5
263
100
AcDbEntity
  8
0
100
AcDbPolyline
 62
7
  6
CONTINUOUS
 90
2
 70
0
 43
0.2
 10
218.593703774
 20
27.208330568
 10
218.593703774
 20
28.1541347652
  0
SPLINE
  5
264
100
AcDbEntity
  8
0
100
AcDbSpline
 62
7
  6
CONTINUOUS
 70
2
 71
3
 72
20
 73
16
 74
0
 42
0.0000001
 43
0.0000001
 44
0.0000000001
 40
0.0
 40
0.0
 40
0.0
 40
0.0
 40
1.0
 40
1.0
 40
1.0
 40
2.0
 40
2.0
 40
2.0
 40
3.0
 40
3.0
 40
3.0
 40
4.0
 40
4.0
 40
4.0
 40
5.0
 40
5.0
 40
5.0
 40
5.0
 10
206.3757140812
 20
37.5692570114
 30
0.0
 10
206.3757140812
 20
37.5692570114
 30
0.0
 10
208.6920707357
 20
34.7396955891
 30
0.0
 10
208.6920707357
 20
34.7396955891
 30
0.0
 10
208.0404236823
 20
34.0875251244
 30
0.0
 10
207.2635504783
 20
33.3516088537
 30
0.0
 10
206.2923608336
 20
33.3516088537
 30
0.0
 10
205.2938229492
 20
33.3516088537
 30
0.0
 10
204.3505049556
 20
34.281187301
 30
0.0
 10
204.3505049556
 20
35.2803794495
 30
0.0
 10
204.3505049556
 20
36.279571598
 30
0.0
 10
205.5293580287
 20
36.9861768367
 30
0.0
 10
206.2508804891
 20
37.4860346166
 30
0.0
 10
206.2508804891
 20
37.4860346166
 30
0.0
 10
206.3757140812
 20
37.5692570114
 30
0.0
 10
206.3757140812
 20
37.5692570114
 30
0.0
  0
SPLINE
  5
265
100
AcDbEntity
  8
0
100
AcDbSpline
 62
7
  6
CONTINUOUS
 70
2
 71
3
 72
23
 73
19
 74
0
 42
0.0000001
 43
0.0000001
 44
0.0000000001
 40
0.0
 40
0.0
 40
0.0
 40
0.0
 40
1.0
 40
1.0
 40
1.0
 40
2.0
 40
2.0
 40
2.0
 40
3.0
 40
3.0
 40
3.0
 40
4.0
 40
4.0
 40
4.0
 40
5.0
 40
5.0
 40
5.0
 40
6.0
 40
6.0
 40
6.0
 40
6.0
 10
206.6531220638
 20
39.2070109311
 30
0.0
 10
206.6531220638
 20
39.2070109311
 30
0.0
 10
206.3066237912
 20
39.6503402919
 30
0.0
 10
206.3066237912
 20
39.6503402919
 30
0.0
 10
206.0008207463
 20
40.0384497619
 30
0.0
 10
205.6819324192
 20
40.4269517903
 30
0.0
 10
205.6819324192
 20
40.9538961044
 30
0.0
 10
205.6819324192
 20
41.620067821
 30
0.0
 10
206.2232705436
 20
42.0637897403
 30
0.0
 10
206.8471767988
 20
42.0637897403
 30
0.0
 10
207.5409584609
 20
42.0637897403
 30
0.0
 10
208.0681644806
 20
41.6615481656
 30
0.0
 10
208.0681644806
 20
40.9265478646
 30
0.0
 10
208.0681644806
 20
40.163283354
 30
0.0
 10
207.3469037259
 20
39.7331701282
 30
0.0
 10
206.819828559
 20
39.3174507128
 30
0.0
 10
206.819828559
 20
39.3174507128
 30
0.0
 10
206.6531220638
 20
39.2070109311
 30
0.0
 10
206.6531220638
 20
39.2070109311
 30
0.0
  0
SPLINE
  5
266
100
AcDbEntity
  8
0
100
AcDbSpline
 62
7
  6
CONTINUOUS
 70
2
 71
3
 72
50
 73
46
 74
0
 42
0.0000001
 43
0.0000001
 44
0.0000000001
 40
0.0
 40
0.0
 40
0.0
 40
0.0
 40
1.0
 40
1.0
 40
1.0
 40
2.0
 40
2.0
 40
2.0
 40
3.0
 40
3.0
 40
3.0
 40
4.0
 40
4.0
 40
4.0
 40
5.0
 40
5.0
 40
5.0
 40
6.0
 40
6.0
 40
6.0
 40
7.0
 40
7.0
 40
7.0
 40
8.0
 40
8.0
 40
8.0
 40
9.0
 40
9.0
 40
9.0
 40
10.0
 40
10.0
 40
10.0
 40
11.0
 40
11.0
 40
11.0
 40
12.0
 40
12.0
 40
12.0
 40
13.0
 40
13.0
 40
13.0
 40
14.0
 40
14.0
 40
14.0
 40
15.0
 40
15.0
 40
15.0
 40
15.0
 10
210.6067092267
 20
32.408421713
 30
0.0
 10
210.6067092267
 20
32.408421713
 30
0.0
 10
212.2159372313
 20
32.408421713
 30
0.0
 10
212.2159372313
 20
32.408421713
 30
0.0
 10
212.2159372313
 20
32.408421713
 30
0.0
 10
210.3429099376
 20
34.7255634844
 30
0.0
 10
210.3429099376
 20
34.7255634844
 30
0.0
 10
210.3429099376
 20
34.7255634844
 30
0.0
 10
211.6192483631
 20
36.223043179
 30
0.0
 10
211.6192483631
 20
36.223043179
 30
0.0
 10
211.6192483631
 20
36.223043179
 30
0.0
 10
210.7870244154
 20
37.0840547475
 30
0.0
 10
210.7870244154
 20
37.0840547475
 30
0.0
 10
210.7870244154
 20
37.0840547475
 30
0.0
 10
209.5664292921
 20
35.6687506251
 30
0.0
 10
209.5664292921
 20
35.6687506251
 30
0.0
 10
209.5664292921
 20
35.6687506251
 30
0.0
 10
207.3885149233
 20
38.3041264595
 30
0.0
 10
207.3885149233
 20
38.3041264595
 30
0.0
 10
208.2620883627
 20
38.9421648194
 30
0.0
 10
209.2887596039
 20
39.7331701282
 30
0.0
 10
209.2887596039
 20
40.9120232013
 30
0.0
 10
209.2887596039
 20
42.2857161264
 30
0.0
 10
208.150863464
 20
43.0901992758
 30
0.0
 10
206.8755718611
 20
43.0901992758
 30
0.0
 10
205.5021406418
 20
43.0901992758
 30
0.0
 10
204.461206443
 20
42.2439740762
 30
0.0
 10
204.461206443
 20
40.801321714
 30
0.0
 10
204.461206443
 20
39.9137470226
 30
0.0
 10
205.0165458195
 20
39.1368738185
 30
0.0
 10
205.6127112763
 20
38.5124441521
 30
0.0
 10
205.6127112763
 20
38.5124441521
 30
0.0
 10
204.9608025173
 20
38.0408505817
 30
0.0
 10
204.9608025173
 20
38.0408505817
 30
0.0
 10
203.9622646329
 20
37.319589827
 30
0.0
 10
203.129386421
 20
36.5983290724
 30
0.0
 10
203.129386421
 20
35.266770756
 30
0.0
 10
203.129386421
 20
33.463095458
 30
0.0
 10
204.5864325936
 20
32.1864953269
 30
0.0
 10
206.333972031
 20
32.1864953269
 30
0.0
 10
207.5688301119
 20
32.1864953269
 30
0.0
 10
208.6782003366
 20
32.8946707994
 30
0.0
 10
209.4690747925
 20
33.8232024241
 30
0.0
 10
209.4690747925
 20
33.8232024241
 30
0.0
 10
210.6067092267
 20
32.408421713
 30
0.0
 10
210.6067092267
 20
32.408421713
 30
0.0
  0
LINE
  5
267
100
AcDbEntity
  8
0
100
AcDbLine
 62
7
  6
CONTINUOUS
 10
196.4095706017
 20
30.3822966176
 11
218.8234813294
 21
30.3822966176
  0
LINE
  5
268
100
AcDbEntity
  8
0
100
AcDbLine
 62
7
  6
CONTINUOUS
 10
218.8234813294
 20
30.3822966176
 11
218.8234813294
 21
52.7962073453
  0
LINE
  5
269
100
AcDbEntity
  8
0
100
AcDbLine
 62
7
  6
CONTINUOUS
 10
218.8234813294
 20
52.7962073453
 11
196.4095706017
 21
52.7962073453
  0
LINE
  5
26A
100
AcDbEntity
  8
0
100
AcDbLine
 62
7
  6
CONTINUOUS
 10
196.4095706017
 20
52.7962073453
 11
196.4095706017
 21
30.3822966176
  0
ENDBLK
  5
26B
100
AcDbEntity
  8
0
  6
BYBLOCK
 62
0
100
AcDbBlockEnd
  0
BLOCK
  5
26C
100
AcDbEntity
  8
0
100
AcDbBlockBegin
  2
_CLOSED
 70
64
 10
0.0
 20
0.0
  3
_CLOSED
  1

  0
LINE
  5
26D
100
AcDbEntity
  8
0
  6
BYBLOCK
 62
0
100
AcDbLine
 10
0.0
 20
0.0
 11
-1.0
 21
0.2
  0
LINE
  5
26E
100
AcDbEntity
  8
0
  6
BYBLOCK
 62
0
100
AcDbLine
 10
-1.0
 20
0.2
 11
-1.0
 21
-0.2
  0
LINE
  5
26F
100
AcDbEntity
  8
0
  6
BYBLOCK
 62
0
100
AcDbLine
 10
-1.0
 20
-0.2
 11
0.0
 21
0.0
  0
LINE
  5
270
100
AcDbEntity
  8
0
  6
BYBLOCK
 62
0
100
AcDbLine
 10
-1.0
 20
0.0
 11
0.0
 21
0.0
  0
ENDBLK
  5
271
100
AcDbEntity
  8
0
  6
BYBLOCK
 62
0
100
AcDbBlockEnd
  0
BLOCK
  5
272
100
AcDbEntity
  8
0
100
AcDbBlockBegin
 62
2
  6
CONTINUOUS
  2
*D0
 70
65
 10
0.0
 20
0.0
  3
*D0
  1

  0
LINE
  5
273
100
AcDbEntity
  8
0
100
AcDbLine
 62
2
  6
CONTINUOUS
 10
105.4333753181
 20
88.5211950811
 11
115.8801976875
 21
99.189826341
  0
INSERT
  5
274
100
AcDbEntity
  8
0
100
AcDbBlockReference
 62
2
  6
CONTINUOUS
  2
_CLOSED
 10
105.4333753181
 20
88.5211950811
 41
2.5
 42
2.5
 43
2.5
 50
225.6018457425
  0
ENDBLK
  5
275
100
AcDbEntity
  8
0
  6
BYBLOCK
 62
0
100
AcDbBlockEnd
  0
BLOCK
  5
276
100
AcDbEntity
  8
0
100
AcDbBlockBegin
 62
2
  6
CONTINUOUS
  2
*D1
 70
65
 10
0.0
 20
0.0
  3
*D1
  1

  0
LINE
  5
277
100
AcDbEntity
  8
0
100
AcDbLine
 62
2
  6
CONTINUOUS
 10
118.9150729378
 20
172.8640025408
 11
128.2742157949
 21
172.8640025408
  0
LINE
  5
278
100
AcDbEntity
  8
0
100
AcDbLine
 62
2
  6
CONTINUOUS
 10
119.0539300806
 20
160.8640025408
 11
128.2742157949
 21
160.8640025408
  0
LINE
  5
279
100
AcDbEntity
  8
0
100
AcDbLine
 62
2
  6
CONTINUOUS
 10
127.5242157949
 20
172.8640025408
 11
127.5242157949
 21
166.8640025408
  0
LINE
  5
27A
100
AcDbEntity
  8
0
100
AcDbLine
 62
2
  6
CONTINUOUS
 10
127.5242157949
 20
160.8640025408
 11
127.5242157949
 21
166.8640025408
  0
INSERT
  5
27B
100
AcDbEntity
  8
0
100
AcDbBlockReference
 62
2
  6
CONTINUOUS
  2
_CLOSED
 10
127.5242157949
 20
172.8640025408
 41
2.5
 42
2.5
 43
2.5
 50
90.0
  0
INSERT
  5
27C
100
AcDbEntity
  8
0
100
AcDbBlockReference
 62
2
  6
CONTINUOUS
  2
_CLOSED
 10
127.5242157949
 20
160.8640025408
 41
2.5
 42
2.5
 43
2.5
 50
270.0
  0
ENDBLK
  5
27D
100
AcDbEntity
  8
0
  6
BYBLOCK
 62
0
100
AcDbBlockEnd
  0
BLOCK
  5
27E
100
AcDbEntity
  8
0
100
AcDbBlockBegin
 62
2
  6
CONTINUOUS
  2
*D2
 70
65
 10
0.0
 20
0.0
  3
*D2
  1

  0
LINE
  5
27F
100
AcDbEntity
  8
0
100
AcDbLine
 62
2
  6
CONTINUOUS
 10
248.5665586532
 20
172.8640025408
 11
255.8572855103
 21
172.8640025408
  0
LINE
  5
280
100
AcDbEntity
  8
0
100
AcDbLine
 62
2
  6
CONTINUOUS
 10
248.2821792246
 20
147.3640025408
 11
255.8572855103
 21
147.3640025408
  0
LINE
  5
281
100
AcDbEntity
  8
0
100
AcDbLine
 62
2
  6
CONTINUOUS
 10
255.1072855103
 20
172.8640025408
 11
255.1072855103
 21
160.1140025408
  0
LINE
  5
282
100
AcDbEntity
  8
0
100
AcDbLine
 62
2
  6
CONTINUOUS
 10
255.1072855103
 20
147.3640025408
 11
255.1072855103
 21
160.1140025408
  0
INSERT
  5
283
100
AcDbEntity
  8
0
100
AcDbBlockReference
 62
2
  6
CONTINUOUS
  2
_CLOSED
 10
255.1072855103
 20
172.8640025408
 41
2.5
 42
2.5
 43
2.5
 50
90.0
  0
INSERT
  5
284
100
AcDbEntity
  8
0
100
AcDbBlockReference
 62
2
  6
CONTINUOUS
  2
_CLOSED
 10
255.1072855103
 20
147.3640025408
 41
2.5
 42
2.5
 43
2.5
 50
270.0
  0
ENDBLK
  5
285
100
AcDbEntity
  8
0
  6
BYBLOCK
 62
0
100
AcDbBlockEnd
  0
BLOCK
  5
286
100
AcDbEntity
  8
0
100
AcDbBlockBegin
 62
2
  6
CONTINUOUS
  2
*D3
 70
65
 10
0.0
 20
0.0
  3
*D3
  1

  0
LINE
  5
287
100
AcDbEntity
  8
0
100
AcDbLine
 62
2
  6
CONTINUOUS
 10
248.8509380818
 20
172.8640025408
 11
265.170711796
 21
172.8640025408
  0
LINE
  5
288
100
AcDbEntity
  8
0
100
AcDbLine
 62
2
  6
CONTINUOUS
 10
248.4088169389
 20
132.3640025408
 11
265.170711796
 21
132.3640025408
  0
LINE
  5
289
100
AcDbEntity
  8
0
100
AcDbLine
 62
2
  6
CONTINUOUS
 10
264.420711796
 20
172.8640025408
 11
264.420711796
 21
152.6140025408
  0
LINE
  5
28A
100
AcDbEntity
  8
0
100
AcDbLine
 62
2
  6
CONTINUOUS
 10
264.420711796
 20
132.3640025408
 11
264.420711796
 21
152.6140025408
  0
INSERT
  5
28B
100
AcDbEntity
  8
0
100
AcDbBlockReference
 62
2
  6
CONTINUOUS
  2
_CLOSED
 10
264.420711796
 20
172.8640025408
 41
2.5
 42
2.5
 43
2.5
 50
90.0
  0
INSERT
  5
28C
100
AcDbEntity
  8
0
100
AcDbBlockReference
 62
2
  6
CONTINUOUS
  2
_CLOSED
 10
264.420711796
 20
132.3640025408
 41
2.5
 42
2.5
 43
2.5
 50
270.0
  0
ENDBLK
  5
28D
100
AcDbEntity
  8
0
  6
BYBLOCK
 62
0
100
AcDbBlockEnd
  0
BLOCK
  5
28E
100
AcDbEntity
  8
0
100
AcDbBlockBegin
 62
2
  6
CONTINUOUS
  2
*D4
 70
65
 10
0.0
 20
0.0
  3
*D4
  1

  0
LINE
  5
28F
100
AcDbEntity
  8
0
100
AcDbLine
 62
2
  6
CONTINUOUS
 10
43.6474026851
 20
131.5635615944
 11
43.6474026851
 21
120.5728473087
  0
LINE
  5
290
100
AcDbEntity
  8
0
100
AcDbLine
 62
2
  6
CONTINUOUS
 10
112.6474026851
 20
132.4314187372
 11
112.6474026851
 21
120.5728473087
  0
LINE
  5
291
100
AcDbEntity
  8
0
100
AcDbLine
 62
2
  6
CONTINUOUS
 10
43.6474026851
 20
121.3228473087
 11
78.1474026851
 21
121.3228473087
  0
LINE
  5
292
100
AcDbEntity
  8
0
100
AcDbLine
 62
2
  6
CONTINUOUS
 10
112.6474026851
 20
121.3228473087
 11
78.1474026851
 21
121.3228473087
  0
INSERT
  5
293
100
AcDbEntity
  8
0
100
AcDbBlockReference
 62
2
  6
CONTINUOUS
  2
_CLOSED
 10
43.6474026851
 20
121.3228473087
 41
2.5
 42
2.5
 43
2.5
 50
180.0
  0
INSERT
  5
294
100
AcDbEntity
  8
0
100
AcDbBlockReference
 62
2
  6
CONTINUOUS
  2
_CLOSED
 10
112.6474026851
 20
121.3228473087
 41
2.5
 42
2.5
 43
2.5
  0
ENDBLK
  5
295
100
AcDbEntity
  8
0
  6
BYBLOCK
 62
0
100
AcDbBlockEnd
  0
BLOCK
  5
296
100
AcDbEntity
  8
0
100
AcDbBlockBegin
  2
*T1
 70
1
 10
0.0
 20
0.0
  3
*T1
  1

  0
LINE
  5
297
100
AcDbEntity
  8
0
100
AcDbLine
 62
2
  6
CONTINUOUS
 10
0.0
 20
0.0
 11
90.0
 21
0.0
  0
LINE
  5
298
100
AcDbEntity
  8
0
100
AcDbLine
 62
2
  6
CONTINUOUS
 10
0.0
 20
0.0
 11
0.0
 21
-40.0
  0
LINE
  5
299
100
AcDbEntity
  8
0
100
AcDbLine
 62
2
  6
CONTINUOUS
 10
30.0
 20
-6.0
 11
90.0
 21
-6.0
  0
LINE
  5
29A
100
AcDbEntity
  8
0
100
AcDbLine
 62
2
  6
CONTINUOUS
 10
30.0
 20
-12.0
 11
90.0
 21
-12.0
  0
LINE
  5
29B
100
AcDbEntity
  8
0
100
AcDbLine
 62
2
  6
CONTINUOUS
 10
30.0
 20
-22.0
 11
90.0
 21
-22.0
  0
LINE
  5
29C
100
AcDbEntity
  8
0
100
AcDbLine
 62
2
  6
CONTINUOUS
 10
0.0
 20
-27.0
 11
90.0
 21
-27.0
  0
LINE
  5
29D
100
AcDbEntity
  8
0
100
AcDbLine
 62
2
  6
CONTINUOUS
 10
0.0
 20
-40.0
 11
90.0
 21
-40.0
  0
LINE
  5
29E
100
AcDbEntity
  8
0
100
AcDbLine
 62
2
  6
CONTINUOUS
 10
30.0
 20
0.0
 11
30.0
 21
-27.0
  0
LINE
  5
29F
100
AcDbEntity
  8
0
100
AcDbLine
 62
2
  6
CONTINUOUS
 10
70.0
 20
0.0
 11
70.0
 21
-12.0
  0
LINE
  5
2A0
100
AcDbEntity
  8
0
100
AcDbLine
 62
2
  6
CONTINUOUS
 10
90.0
 20
0.0
 11
90.0
 21
-40.0
  0
ENDBLK
  5
2A1
100
AcDbEntity
  8
0
100
AcDbBlockEnd
  0
ENDSEC
  0
SECTION
  2
ENTITIES
  0
DIMENSION
  5
2A2
100
AcDbEntity
  8
0
100
AcDbDimension
 62
2
  6
CONTINUOUS
  2
*D0
 10
105.4333753181
 20
88.5211950811
 11
109.2474605937
 21
93.4882411092
 70
163
 71
1
 42
78.0
  1
<>
  3
DIMSTYLE_1
100
AcDbDiametricDimension
 15
50.8614300521
 25
32.7905680446
  0
DIMENSION
  5
2A3
100
AcDbEntity
  8
0
100
AcDbDimension
 62
2
  6
CONTINUOUS
  2
*D1
 10
127.5242157949
 20
160.8640025408
 11
126.7742157949
 21
164.8282882551
 70
160
 71
2
 42
12.0
  3
DIMSTYLE_2
100
AcDbAlignedDimension
 13
118.9150729378
 23
172.8640025408
 14
119.0539300806
 24
160.8640025408
 50
270.0
100
AcDbRotatedDimension
  0
DIMENSION
  5
2A4
100
AcDbEntity
  8
0
100
AcDbDimension
 62
2
  6
CONTINUOUS
  2
*D2
 10
255.1072855103
 20
147.3640025408
 11
254.3572855103
 21
157.7568596837
 70
160
 71
2
 42
25.5
  3
DIMSTYLE_2
100
AcDbAlignedDimension
 13
248.5665586532
 23
172.8640025408
 14
248.2821792246
 24
147.3640025408
 50
270.0
100
AcDbRotatedDimension
  0
DIMENSION
  5
2A5
100
AcDbEntity
  8
0
100
AcDbDimension
 62
2
  6
CONTINUOUS
  2
*D3
 10
264.420711796
 20
132.3640025408
 11
263.670711796
 21
150.5782882551
 70
160
 71
2
 42
40.5
  3
DIMSTYLE_3
100
AcDbAlignedDimension
 13
248.8509380818
 23
172.8640025408
 14
248.4088169389
 24
132.3640025408
 50
270.0
100
AcDbRotatedDimension
  0
DIMENSION
  5
2A6
100
AcDbEntity
  8
0
100
AcDbDimension
 62
2
  6
CONTINUOUS
  2
*D4
 10
112.6474026851
 20
121.3228473087
 11
73.790259828
 21
122.0728473087
 70
160
 71
2
 42
69.0
  1
%%c<>
  3
DIMSTYLE_4
100
AcDbAlignedDimension
 13
43.6474026851
 23
131.5635615944
 14
112.6474026851
 24
132.4314187372
100
AcDbRotatedDimension
  0
INSERT
  5
2A7
100
AcDbEntity
  8
0
100
AcDbBlockReference
 62
2
  6
CONTINUOUS
  2
LOGO2_BL0
 10
207.6164605391
 20
39.6725198453
  0
LWPOLYLINE
  5
2A8
100
AcDbEntity
  8
0
100
AcDbPolyline
 62
2
  6
CONTINUOUS
 90
7
 70
0
 10
226.7779174805
 20
48.6725197449
 10
225.277907959
 20
48.6725197449
 10
226.7779174805
 20
50.8153781891
 10
226.7779174805
 20
51.2439471588
 10
226.3493485107
 20
51.6725206604
 10
225.7064769287
 20
51.6725206604
 10
225.277907959
 20
51.029662674
  0
LINE
  5
2A9
100
AcDbEntity
  8
0
100
AcDbLine
 62
2
  6
CONTINUOUS
 10
228.6350557251
 20
48.6725197449
 11
228.6350557251
 21
50.1725202026
  0
LWPOLYLINE
  5
2AA
100
AcDbEntity
  8
0
100
AcDbPolyline
 62
2
  6
CONTINUOUS
 90
3
 70
0
 10
229.1350649414
 20
49.3153777313
 10
227.6350554199
 20
49.3153777313
 10
228.2779088745
 20
51.6725206604
  0
LWPOLYLINE
  5
2AB
100
AcDbEntity
  8
0
100
AcDbPolyline
 62
2
  6
CONTINUOUS
 90
3
 70
0
 10
229.9922028809
 20
50.8153781891
 10
230.8493408203
 20
51.6725206604
 10
230.8493408203
 20
48.6725197449
  0
LINE
  5
2AC
100
AcDbEntity
  8
0
100
AcDbLine
 62
2
  6
CONTINUOUS
 10
231.7064787598
 20
48.6725197449
 11
233.4207727661
 21
48.6725197449
  0
LWPOLYLINE
  5
2AD
100
AcDbEntity
  8
0
100
AcDbPolyline
 62
2
  6
CONTINUOUS
 90
6
 70
0
 10
235.3493331299
 20
48.6725197449
 10
234.4921951904
 20
48.6725197449
 10
234.0636262207
 20
49.1010932465
 10
234.0636262207
 20
51.2439471588
 10
234.4921951904
 20
51.6725206604
 10
235.3493331299
 20
51.6725206604
  0
LINE
  5
2AE
100
AcDbEntity
  8
0
100
AcDbLine
 62
2
  6
CONTINUOUS
 10
236.5636360474
 20
48.6725197449
 11
238.2779119263
 21
48.6725197449
  0
LWPOLYLINE
  5
2AF
100
AcDbEntity
  8
0
100
AcDbPolyline
 62
2
  6
CONTINUOUS
 90
13
 70
0
 10
238.9207653809
 20
49.5296622162
 10
238.9207653809
 20
50.8153781891
 10
239.1350498657
 20
51.2439471588
 10
239.5636188354
 20
51.6725206604
 10
239.7779214478
 20
51.6725206604
 10
240.2064904175
 20
51.2439471588
 10
240.4207749023
 20
50.8153781891
 10
240.4207749023
 20
49.5296622162
 10
240.2064904175
 20
49.1010932465
 10
239.7779214478
 20
48.6725197449
 10
239.5636188354
 20
48.6725197449
 10
239.1350498657
 20
49.1010932465
 10
238.9207653809
 20
49.5296622162
  0
LWPOLYLINE
  5
2B0
100
AcDbEntity
  8
0
100
AcDbPolyline
 62
2
  6
CONTINUOUS
 90
8
 70
0
 10
241.2779128418
 20
48.6725197449
 10
242.1350507813
 20
48.6725197449
 10
242.563619751
 20
49.1010932465
 10
242.563619751
 20
49.9582357178
 10
242.1350507813
 20
50.3868046875
 10
241.2779128418
 20
50.3868046875
 10
241.2779128418
 20
51.6725206604
 10
242.563619751
 20
51.6725206604
  0
LWPOLYLINE
  5
2B1
100
AcDbEntity
  8
0
100
AcDbPolyline
 62
2
  6
CONTINUOUS
 90
13
 70
0
 10
243.4207758179
 20
49.5296622162
 10
243.4207758179
 20
50.8153781891
 10
243.6350603027
 20
51.2439471588
 10
244.0636292725
 20
51.6725206604
 10
244.2779137573
 20
51.6725206604
 10
244.7064827271
 20
51.2439471588
 10
244.9207672119
 20
50.8153781891
 10
244.9207672119
 20
49.5296622162
 10
244.7064827271
 20
49.1010932465
 10
244.2779137573
 20
48.6725197449
 10
244.0636292725
 20
48.6725197449
 10
243.6350603027
 20
49.1010932465
 10
243.4207758179
 20
49.5296622162
  0
LWPOLYLINE
  5
2B2
100
AcDbEntity
  8
0
100
AcDbPolyline
 62
2
  6
CONTINUOUS
 90
7
 70
0
 10
265.277920166
 20
48.4225196686
 10
265.277920166
 20
51.9225207367
 10
266.5279160156
 20
51.9225207367
 10
267.0279071045
 20
51.4225205841
 10
267.0279071045
 20
50.4225202789
 10
266.5279160156
 20
49.9225201263
 10
265.277920166
 20
49.9225201263
  0
LINE
  5
2B3
100
AcDbEntity
  8
0
100
AcDbLine
 62
2
  6
CONTINUOUS
 10
266.0279067993
 20
49.9225201263
 11
267.0279071045
 21
48.4225196686
  0
LWPOLYLINE
  5
2B4
100
AcDbEntity
  8
0
100
AcDbPolyline
 62
2
  6
CONTINUOUS
 90
9
 70
0
 10
269.5279169312
 20
48.4225196686
 10
268.527916626
 20
48.4225196686
 10
268.0279074097
 20
48.9225198212
 10
268.0279074097
 20
50.4225202789
 10
268.527916626
 20
50.9225204315
 10
269.0279077148
 20
50.9225204315
 10
269.5279169312
 20
50.4225202789
 10
269.5279169312
 20
49.67252005
 10
268.0279074097
 20
49.67252005
  0
LWPOLYLINE
  5
2B5
100
AcDbEntity
  8
0
100
AcDbPolyline
 62
2
  6
CONTINUOUS
 90
3
 70
0
 10
270.5279172363
 20
50.9225204315
 10
271.2779219971
 20
48.4225196686
 10
272.0279086304
 20
50.9225204315
  0
LWPOLYLINE
  5
2B6
100
AcDbEntity
  8
0
100
AcDbPolyline
 62
2
  6
CONTINUOUS
 90
4
 70
0
 10
273.0279089355
 20
48.4225196686
 10
273.0279089355
 20
48.6725197449
 10
273.1945726318
 20
48.6725197449
 10
273.0279089355
 20
48.4225196686
  0
LWPOLYLINE
  5
2B7
100
AcDbEntity
  8
0
100
AcDbPolyline
 62
2
  6
CONTINUOUS
 90
4
 70
0
 10
273.0279089355
 20
49.9225201263
 10
273.0279089355
 20
50.1725202026
 10
273.1945726318
 20
50.1725202026
 10
273.0279089355
 20
49.9225201263
  0
LWPOLYLINE
  5
2B8
100
AcDbEntity
  8
0
100
AcDbPolyline
 62
2
  6
CONTINUOUS
 90
13
 70
0
 10
274.2779047852
 20
49.4225199738
 10
274.2779047852
 20
50.9225204315
 10
274.527918457
 20
51.4225205841
 10
275.0279095459
 20
51.9225207367
 10
275.2779050903
 20
51.9225207367
 10
275.7779143066
 20
51.4225205841
 10
276.0279098511
 20
50.9225204315
 10
276.0279098511
 20
49.4225199738
 10
275.7779143066
 20
48.9225198212
 10
275.2779050903
 20
48.4225196686
 10
275.0279095459
 20
48.4225196686
 10
274.527918457
 20
48.9225198212
 10
274.2779047852
 20
49.4225199738
  0
LWPOLYLINE
  5
2B9
100
AcDbEntity
  8
0
100
AcDbPolyline
 62
2
  6
CONTINUOUS
 90
3
 70
0
 10
277.0279101563
 20
50.9225204315
 10
278.0279104614
 20
51.9225207367
 10
278.0279104614
 20
48.4225196686
  0
LWPOLYLINE
  5
2BA
100
AcDbEntity
  8
0
100
AcDbPolyline
 62
2
  6
CONTINUOUS
 90
10
 70
0
 10
225.277907959
 20
42.1725177612
 10
225.5279216309
 20
41.9225176849
 10
226.527921936
 20
41.9225176849
 10
227.0279130249
 20
42.4225178375
 10
227.0279130249
 20
42.9225179901
 10
225.277907959
 20
44.4225184479
 10
225.277907959
 20
44.9225186005
 10
225.7779171753
 20
45.4225187531
 10
226.7779174805
 20
45.4225187531
 10
227.0279130249
 20
45.1725186768
  0
LWPOLYLINE
  5
2BB
100
AcDbEntity
  8
0
100
AcDbPolyline
 62
2
  6
CONTINUOUS
 90
6
 70
0
 10
229.2779091797
 20
41.9225176849
 10
228.2779088745
 20
41.9225176849
 10
228.0279133301
 20
42.1725177612
 10
228.0279133301
 20
44.1725183716
 10
228.2779088745
 20
44.4225184479
 10
229.2779091797
 20
44.4225184479
  0
LWPOLYLINE
  5
2BC
100
AcDbEntity
  8
0
100
AcDbPolyline
 62
2
  6
CONTINUOUS
 90
4
 70
0
 10
231.7779190063
 20
41.9225176849
 10
231.7779190063
 20
43.9225182953
 10
231.5279053345
 20
44.4225184479
 10
230.2779094849
 20
44.4225184479
  0
LWPOLYLINE
  5
2BD
100
AcDbEntity
  8
0
100
AcDbPolyline
 62
2
  6
CONTINUOUS
 90
6
 70
0
 10
231.7779190063
 20
41.9225176849
 10
230.7779187012
 20
41.9225176849
 10
230.2779094849
 20
42.1725177612
 10
230.2779094849
 20
42.9225179901
 10
230.7779187012
 20
43.1725180664
 10
231.7779190063
 20
43.1725180664
  0
LWPOLYLINE
  5
2BE
100
AcDbEntity
  8
0
100
AcDbPolyline
 62
2
  6
CONTINUOUS
 90
4
 70
0
 10
233.5279059448
 20
41.9225176849
 10
233.027914856
 20
41.9225176849
 10
232.7779193115
 20
42.1725177612
 10
232.7779193115
 20
45.4225187531
  0
LWPOLYLINE
  5
2BF
100
AcDbEntity
  8
0
100
AcDbPolyline
 62
2
  6
CONTINUOUS
 90
9
 70
0
 10
236.0279157715
 20
41.9225176849
 10
235.0279154663
 20
41.9225176849
 10
234.52790625
 20
42.4225178375
 10
234.52790625
 20
43.9225182953
 10
235.0279154663
 20
44.4225184479
 10
235.5279065552
 20
44.4225184479
 10
236.0279157715
 20
43.9225182953
 10
236.0279157715
 20
43.1725180664
 10
234.52790625
 20
43.1725180664
  0
LWPOLYLINE
  5
2C0
100
AcDbEntity
  8
0
100
AcDbPolyline
 62
2
  6
CONTINUOUS
 90
4
 70
0
 10
237.0279160767
 20
41.9225176849
 10
237.0279160767
 20
42.1725177612
 10
237.1945797729
 20
42.1725177612
 10
237.0279160767
 20
41.9225176849
  0
LWPOLYLINE
  5
2C1
100
AcDbEntity
  8
0
100
AcDbPolyline
 62
2
  6
CONTINUOUS
 90
4
 70
0
 10
237.0279160767
 20
43.4225181427
 10
237.0279160767
 20
43.672518219
 10
237.1945797729
 20
43.672518219
 10
237.0279160767
 20
43.4225181427
  0
LWPOLYLINE
  5
2C2
100
AcDbEntity
  8
0
100
AcDbPolyline
 62
2
  6
CONTINUOUS
 90
3
 70
0
 10
238.2779119263
 20
44.4225184479
 10
239.2779122314
 20
45.4225187531
 10
239.2779122314
 20
41.9225176849
  0
LWPOLYLINE
  5
2C3
100
AcDbEntity
  8
0
100
AcDbPolyline
 62
2
  6
CONTINUOUS
 90
4
 70
0
 10
240.2779125366
 20
41.9225176849
 10
240.2779125366
 20
42.1725177612
 10
240.4445762329
 20
42.1725177612
 10
240.2779125366
 20
41.9225176849
  0
LWPOLYLINE
  5
2C4
100
AcDbEntity
  8
0
100
AcDbPolyline
 62
2
  6
CONTINUOUS
 90
4
 70
0
 10
240.2779125366
 20
43.4225181427
 10
240.2779125366
 20
43.672518219
 10
240.4445762329
 20
43.672518219
 10
240.2779125366
 20
43.4225181427
  0
LWPOLYLINE
  5
2C5
100
AcDbEntity
  8
0
100
AcDbPolyline
 62
2
  6
CONTINUOUS
 90
3
 70
0
 10
241.5279083862
 20
44.4225184479
 10
242.5279086914
 20
45.4225187531
 10
242.5279086914
 20
41.9225176849
  0
LWPOLYLINE
  5
2C6
100
AcDbEntity
  8
0
100
AcDbPolyline
 62
2
  6
CONTINUOUS
 90
3
 70
0
 10
265.277920166
 20
42.4225178375
 10
266.2779204712
 20
45.9225189056
 10
267.2779207764
 20
42.4225178375
  0
LINE
  5
2C7
100
AcDbEntity
  8
0
100
AcDbLine
 62
2
  6
CONTINUOUS
 10
265.6112475586
 20
43.4225181427
 11
266.9445752563
 21
43.4225181427
  0
LINE
  5
2C8
100
AcDbEntity
  8
0
100
AcDbLine
 62
2
  6
CONTINUOUS
 10
269.444585083
 20
42.4225178375
 11
269.444585083
 21
44.1725183716
  0
LWPOLYLINE
  5
2C9
100
AcDbEntity
  8
0
100
AcDbPolyline
 62
2
  6
CONTINUOUS
 90
3
 70
0
 10
270.02790802
 20
43.1725180664
 10
268.2779210815
 20
43.1725180664
 10
269.0279077148
 20
45.9225189056
  0
LWPOLYLINE
  5
2CA
100
AcDbEntity
  8
0
100
AcDbPolyline
 62
2
  6
CONTINUOUS
 90
8
 70
0
 10
225.277907959
 20
34.422519928
 10
225.277907959
 20
37.9225209961
 10
226.0279127197
 20
37.9225209961
 10
226.2779082642
 20
37.8391846161
 10
226.7779174805
 20
37.4225208435
 10
226.7779174805
 20
36.6725206146
 10
226.2779082642
 20
36.172520462
 10
225.277907959
 20
36.172520462
  0
LWPOLYLINE
  5
2CB
100
AcDbEntity
  8
0
100
AcDbPolyline
 62
2
  6
CONTINUOUS
 90
6
 70
0
 10
226.2779082642
 20
36.172520462
 10
226.527921936
 20
36.172520462
 10
227.0279130249
 20
35.6725203094
 10
227.0279130249
 20
34.9225200806
 10
226.527921936
 20
34.422519928
 10
225.277907959
 20
34.422519928
  0
LWPOLYLINE
  5
2CC
100
AcDbEntity
  8
0
100
AcDbPolyline
 62
2
  6
CONTINUOUS
 90
5
 70
0
 10
228.0279133301
 20
34.422519928
 10
228.0279133301
 20
36.9225206909
 10
229.0279136353
 20
36.9225206909
 10
229.1945773315
 20
36.6725206146
 10
229.1945773315
 20
36.172520462
  0
LINE
  5
2CD
100
AcDbEntity
  8
0
100
AcDbLine
 62
2
  6
CONTINUOUS
 10
230.7779187012
 20
34.422519928
 11
230.7779187012
 21
36.9225206909
  0
LWPOLYLINE
  5
2CE
100
AcDbEntity
  8
0
100
AcDbPolyline
 62
2
  6
CONTINUOUS
 90
4
 70
0
 10
230.7779187012
 20
37.6725209198
 10
230.7779187012
 20
37.9225209961
 10
230.8612505493
 20
37.9225209961
 10
230.7779187012
 20
37.6725209198
  0
LWPOLYLINE
  5
2CF
100
AcDbEntity
  8
0
100
AcDbPolyline
 62
2
  6
CONTINUOUS
 90
9
 70
0
 10
232.1112463989
 20
33.589187851
 10
233.3612422485
 20
33.589187851
 10
233.611237793
 20
33.9225197754
 10
233.611237793
 20
36.9225206909
 10
232.3612419434
 20
36.9225206909
 10
232.1112463989
 20
36.6725206146
 10
232.1112463989
 20
34.6725200043
 10
232.3612419434
 20
34.422519928
 10
233.611237793
 20
34.422519928
  0
LINE
  5
2D0
100
AcDbEntity
  8
0
100
AcDbLine
 62
2
  6
CONTINUOUS
 10
234.6112380981
 20
34.422519928
 11
234.6112380981
 21
37.9225209961
  0
LWPOLYLINE
  5
2D1
100
AcDbEntity
  8
0
100
AcDbPolyline
 62
2
  6
CONTINUOUS
 90
4
 70
0
 10
234.6112380981
 20
36.9225206909
 10
235.8612520752
 20
36.9225206909
 10
236.1112476196
 20
36.6725206146
 10
236.1112476196
 20
34.422519928
  0
LINE
  5
2D2
100
AcDbEntity
  8
0
100
AcDbLine
 62
2
  6
CONTINUOUS
 10
237.5279071655
 20
34.422519928
 11
237.5279071655
 21
37.9225209961
  0
LINE
  5
2D3
100
AcDbEntity
  8
0
100
AcDbLine
 62
2
  6
CONTINUOUS
 10
237.1112479248
 20
36.9225206909
 11
238.11124823
 21
36.9225206909
  0
LINE
  5
2D4
100
AcDbEntity
  8
0
100
AcDbLine
 62
2
  6
CONTINUOUS
 10
243.0279179077
 20
34.422519928
 11
243.0279179077
 21
36.172520462
  0
LWPOLYLINE
  5
2D5
100
AcDbEntity
  8
0
100
AcDbPolyline
 62
2
  6
CONTINUOUS
 90
3
 70
0
 10
243.6112408447
 20
35.1725201569
 10
241.8612539063
 20
35.1725201569
 10
242.6112405396
 20
37.9225209961
  0
LWPOLYLINE
  5
2D6
100
AcDbEntity
  8
0
100
AcDbPolyline
 62
2
  6
CONTINUOUS
 90
9
 70
0
 10
245.3612459106
 20
35.0058519287
 10
245.4445777588
 20
34.8391882324
 10
245.4445777588
 20
34.7558518524
 10
245.3612459106
 20
34.5891881561
 10
245.1945822144
 20
34.5891881561
 10
245.1112503662
 20
34.7558518524
 10
245.1112503662
 20
34.8391882324
 10
245.1945822144
 20
35.0058519287
 10
245.3612459106
 20
35.0058519287
  0
LWPOLYLINE
  5
2D7
100
AcDbEntity
  8
0
100
AcDbPolyline
 62
2
  6
CONTINUOUS
 90
4
 70
0
 10
246.6112417603
 20
37.1725207672
 10
246.6112417603
 20
37.9225209961
 10
248.3612468262
 20
37.9225209961
 10
247.361246521
 20
34.422519928
  0
LWPOLYLINE
  5
2D8
100
AcDbEntity
  8
0
100
AcDbPolyline
 62
2
  6
CONTINUOUS
 90
7
 70
0
 10
225.277907959
 20
27.4225177917
 10
225.277907959
 20
29.9225185547
 10
226.1707750854
 20
29.9225185547
 10
226.527921936
 20
29.565376236
 10
226.527921936
 20
27.7796646423
 10
226.1707750854
 20
27.4225177917
 10
225.277907959
 20
27.4225177917
  0
LWPOLYLINE
  5
2D9
100
AcDbEntity
  8
0
100
AcDbPolyline
 62
2
  6
CONTINUOUS
 90
3
 70
0
 10
227.5398138428
 20
27.4225177917
 10
228.2541075439
 20
29.9225185547
 10
228.9683831177
 20
27.4225177917
  0
LINE
  5
2DA
100
AcDbEntity
  8
0
100
AcDbLine
 62
2
  6
CONTINUOUS
 10
227.7779177856
 20
28.1368069611
 11
228.7302973022
 21
28.1368069611
  0
LINE
  5
2DB
100
AcDbEntity
  8
0
100
AcDbLine
 62
2
  6
CONTINUOUS
 10
230.3969523926
 20
27.4225177917
 11
230.3969523926
 21
29.9225185547
  0
LINE
  5
2DC
100
AcDbEntity
  8
0
100
AcDbLine
 62
2
  6
CONTINUOUS
 10
229.6826768188
 20
29.9225185547
 11
231.1112460938
 21
29.9225185547
  0
LWPOLYLINE
  5
2DD
100
AcDbEntity
  8
0
100
AcDbPolyline
 62
2
  6
CONTINUOUS
 90
3
 70
0
 10
231.8255397949
 20
27.4225177917
 10
231.8255397949
 20
29.9225185547
 10
232.8969622192
 20
29.9225185547
  0
LINE
  5
2DE
100
AcDbEntity
  8
0
100
AcDbLine
 62
2
  6
CONTINUOUS
 10
232.5398153687
 20
28.8510915985
 11
231.8255397949
 21
28.8510915985
  0
LINE
  5
2DF
100
AcDbEntity
  8
0
100
AcDbLine
 62
2
  6
CONTINUOUS
 10
231.8255397949
 20
27.4225177917
 11
232.8969622192
 21
27.4225177917
  0
LWPOLYLINE
  5
2E0
100
AcDbEntity
  8
0
100
AcDbPolyline
 62
2
  6
CONTINUOUS
 90
4
 70
0
 10
233.611237793
 20
27.4225177917
 10
233.611237793
 20
27.601091217
 10
233.7302988281
 20
27.601091217
 10
233.611237793
 20
27.4225177917
  0
LWPOLYLINE
  5
2E1
100
AcDbEntity
  8
0
100
AcDbPolyline
 62
2
  6
CONTINUOUS
 90
4
 70
0
 10
233.611237793
 20
28.4939492798
 10
233.611237793
 20
28.6725181732
 10
233.7302988281
 20
28.6725181732
 10
233.611237793
 20
28.4939492798
  0
LWPOLYLINE
  5
2E2
100
AcDbEntity
  8
0
100
AcDbPolyline
 62
2
  6
CONTINUOUS
 90
3
 70
0
 10
234.5041049194
 20
29.2082339172
 10
235.2183986206
 20
29.9225185547
 10
235.2183986206
 20
27.4225177917
  0
LWPOLYLINE
  5
2E3
100
AcDbEntity
  8
0
100
AcDbPolyline
 62
2
  6
CONTINUOUS
 90
4
 70
0
 10
235.9326741943
 20
29.3868073425
 10
235.9326741943
 20
29.9225185547
 10
237.1826700439
 20
29.9225185547
 10
236.4683944702
 20
27.4225177917
  0
LINE
  5
2E4
100
AcDbEntity
  8
0
100
AcDbLine
 62
2
  6
CONTINUOUS
 10
239.32553302
 20
29.6844236755
 11
237.8969637451
 21
27.4820437775
  0
LWPOLYLINE
  5
2E5
100
AcDbEntity
  8
0
100
AcDbPolyline
 62
2
  6
CONTINUOUS
 90
13
 70
0
 10
239.8017227783
 20
28.1368069611
 10
239.8017227783
 20
29.2082339172
 10
239.9802962036
 20
29.565376236
 10
240.3374430542
 20
29.9225185547
 10
240.5160164795
 20
29.9225185547
 10
240.8731452026
 20
29.565376236
 10
241.0517186279
 20
29.2082339172
 10
241.0517186279
 20
28.1368069611
 10
240.8731452026
 20
27.7796646423
 10
240.5160164795
 20
27.4225177917
 10
240.3374430542
 20
27.4225177917
 10
239.9802962036
 20
27.7796646423
 10
239.8017227783
 20
28.1368069611
  0
LWPOLYLINE
  5
2E6
100
AcDbEntity
  8
0
100
AcDbPolyline
 62
2
  6
CONTINUOUS
 90
8
 70
0
 10
241.7660123291
 20
27.4225177917
 10
242.4802879028
 20
27.4225177917
 10
242.8374347534
 20
27.7796646423
 10
242.8374347534
 20
28.4939492798
 10
242.4802879028
 20
28.8510915985
 10
241.7660123291
 20
28.8510915985
 10
241.7660123291
 20
29.9225185547
 10
242.8374347534
 20
29.9225185547
  0
LINE
  5
2E7
100
AcDbEntity
  8
0
100
AcDbLine
 62
2
  6
CONTINUOUS
 10
244.9802977295
 20
29.6844236755
 11
243.5517284546
 21
27.4820437775
  0
LWPOLYLINE
  5
2E8
100
AcDbEntity
  8
0
100
AcDbPolyline
 62
2
  6
CONTINUOUS
 90
7
 70
0
 10
246.7064833374
 20
27.4225177917
 10
245.4564874878
 20
27.4225177917
 10
246.7064833374
 20
29.2082339172
 10
246.7064833374
 20
29.565376236
 10
246.3493364868
 20
29.9225185547
 10
245.8136343384
 20
29.9225185547
 10
245.4564874878
 20
29.3868073425
  0
LWPOLYLINE
  5
2E9
100
AcDbEntity
  8
0
100
AcDbPolyline
 62
2
  6
CONTINUOUS
 90
13
 70
0
 10
247.4207770386
 20
28.1368069611
 10
247.4207770386
 20
29.2082339172
 10
247.5993504639
 20
29.565376236
 10
247.956479187
 20
29.9225185547
 10
248.1350526123
 20
29.9225185547
 10
248.4921994629
 20
29.565376236
 10
248.6707728882
 20
29.2082339172
 10
248.6707728882
 20
28.1368069611
 10
248.4921994629
 20
27.7796646423
 10
248.1350526123
 20
27.4225177917
 10
247.956479187
 20
27.4225177917
 10
247.5993504639
 20
27.7796646423
 10
247.4207770386
 20
28.1368069611
  0
LWPOLYLINE
  5
2EA
100
AcDbEntity
  8
0
100
AcDbPolyline
 62
2
  6
CONTINUOUS
 90
3
 70
0
 10
249.3850484619
 20
29.2082339172
 10
250.0993421631
 20
29.9225185547
 10
250.0993421631
 20
27.4225177917
  0
LWPOLYLINE
  5
2EB
100
AcDbEntity
  8
0
100
AcDbPolyline
 62
2
  6
CONTINUOUS
 90
4
 70
0
 10
250.8136358643
 20
29.3868073425
 10
250.8136358643
 20
29.9225185547
 10
252.0636317139
 20
29.9225185547
 10
251.3493380127
 20
27.4225177917
  0
LWPOLYLINE
  5
2EC
100
AcDbEntity
  8
0
100
AcDbPolyline
 62
2
  6
CONTINUOUS
 90
3
 70
0
 10
195.2779169312
 20
23.6100177612
 10
195.9207703857
 20
25.8600184479
 10
196.5636238403
 20
23.6100177612
  0
LINE
  5
2ED
100
AcDbEntity
  8
0
100
AcDbLine
 62
2
  6
CONTINUOUS
 10
195.492201416
 20
24.2528757477
 11
196.3493393555
 21
24.2528757477
  0
LWPOLYLINE
  5
2EE
100
AcDbEntity
  8
0
100
AcDbPolyline
 62
2
  6
CONTINUOUS
 90
5
 70
0
 10
197.2064772949
 20
23.6100177612
 10
197.2064772949
 20
25.2171604614
 10
198.010048645
 20
25.2171604614
 10
198.1707665405
 20
25.0564470978
 10
198.1707665405
 20
23.6100177612
  0
LWPOLYLINE
  5
2EF
100
AcDbEntity
  8
0
100
AcDbPolyline
 62
2
  6
CONTINUOUS
 90
3
 70
0
 10
198.8136199951
 20
23.0743065491
 10
199.1350557861
 20
23.0743065491
 10
199.7779092407
 20
25.2171604614
  0
LINE
  5
2F0
100
AcDbEntity
  8
0
100
AcDbLine
 62
2
  6
CONTINUOUS
 10
198.8136199951
 20
25.2171604614
 11
199.2957736816
 21
23.6100177612
  0
LINE
  5
2F1
100
AcDbEntity
  8
0
100
AcDbLine
 62
2
  6
CONTINUOUS
 10
202.2957745972
 20
23.6100177612
 11
202.2957745972
 21
25.2171604614
  0
LWPOLYLINE
  5
2F2
100
AcDbEntity
  8
0
100
AcDbPolyline
 62
2
  6
CONTINUOUS
 90
4
 70
0
 10
202.2957745972
 20
25.6993050842
 10
202.2957745972
 20
25.8600184479
 10
202.3493411865
 20
25.8600184479
 10
202.2957745972
 20
25.6993050842
  0
LWPOLYLINE
  5
2F3
100
AcDbEntity
  8
0
100
AcDbPolyline
 62
2
  6
CONTINUOUS
 90
5
 70
0
 10
203.1529125366
 20
23.6100177612
 10
203.1529125366
 20
25.2171604614
 10
203.9564838867
 20
25.2171604614
 10
204.1172017822
 20
25.0564470978
 10
204.1172017822
 20
23.6100177612
  0
LINE
  5
2F4
100
AcDbEntity
  8
0
100
AcDbLine
 62
2
  6
CONTINUOUS
 10
205.027906311
 20
23.6100177612
 11
205.027906311
 21
25.8600184479
  0
LINE
  5
2F5
100
AcDbEntity
  8
0
100
AcDbLine
 62
2
  6
CONTINUOUS
 10
204.7600552368
 20
25.2171604614
 11
205.4029086914
 21
25.2171604614
  0
LWPOLYLINE
  5
2F6
100
AcDbEntity
  8
0
100
AcDbPolyline
 62
2
  6
CONTINUOUS
 90
9
 70
0
 10
207.0100513916
 20
23.6100177612
 10
206.367197937
 20
23.6100177612
 10
206.045762146
 20
23.9314490204
 10
206.045762146
 20
24.8957337341
 10
206.367197937
 20
25.2171604614
 10
206.688633728
 20
25.2171604614
 10
207.0100513916
 20
24.8957337341
 10
207.0100513916
 20
24.4135891113
 10
206.045762146
 20
24.4135891113
  0
LWPOLYLINE
  5
2F7
100
AcDbEntity
  8
0
100
AcDbPolyline
 62
2
  6
CONTINUOUS
 90
9
 70
0
 10
207.6529048462
 20
23.0743065491
 10
208.4564761963
 20
23.0743065491
 10
208.6171940918
 20
23.2885910339
 10
208.6171940918
 20
25.2171604614
 10
207.8136227417
 20
25.2171604614
 10
207.6529048462
 20
25.0564470978
 10
207.6529048462
 20
23.7707356567
 10
207.8136227417
 20
23.6100177612
 10
208.6171940918
 20
23.6100177612
  0
LWPOLYLINE
  5
2F8
100
AcDbEntity
  8
0
100
AcDbPolyline
 62
2
  6
CONTINUOUS
 90
5
 70
0
 10
209.2600475464
 20
23.6100177612
 10
209.2600475464
 20
25.2171604614
 10
209.9029191284
 20
25.2171604614
 10
210.0100523071
 20
25.0564470978
 10
210.0100523071
 20
24.7350203705
  0
LWPOLYLINE
  5
2F9
100
AcDbEntity
  8
0
100
AcDbPolyline
 62
2
  6
CONTINUOUS
 90
4
 70
0
 10
211.6707615967
 20
23.6100177612
 10
211.6707615967
 20
24.8957337341
 10
211.5100618286
 20
25.2171604614
 10
210.7064904785
 20
25.2171604614
  0
LWPOLYLINE
  5
2FA
100
AcDbEntity
  8
0
100
AcDbPolyline
 62
2
  6
CONTINUOUS
 90
6
 70
0
 10
211.6707615967
 20
23.6100177612
 10
211.0279081421
 20
23.6100177612
 10
210.7064904785
 20
23.7707356567
 10
210.7064904785
 20
24.2528757477
 10
211.0279081421
 20
24.4135891113
 10
211.6707615967
 20
24.4135891113
  0
LWPOLYLINE
  5
2FB
100
AcDbEntity
  8
0
100
AcDbPolyline
 62
2
  6
CONTINUOUS
 90
4
 70
0
 10
212.7957687378
 20
23.6100177612
 10
212.4743510742
 20
23.6100177612
 10
212.3136331787
 20
23.7707356567
 10
212.3136331787
 20
25.8600184479
  0
LWPOLYLINE
  5
2FC
100
AcDbEntity
  8
0
100
AcDbPolyline
 62
2
  6
CONTINUOUS
 90
9
 70
0
 10
215.2064827881
 20
23.9314490204
 10
215.2064827881
 20
24.8957337341
 10
215.5279185791
 20
25.2171604614
 10
215.8493362427
 20
25.2171604614
 10
216.1707720337
 20
24.8957337341
 10
216.1707720337
 20
23.9314490204
 10
215.8493362427
 20
23.6100177612
 10
215.5279185791
 20
23.6100177612
 10
215.2064827881
 20
23.9314490204
  0
LWPOLYLINE
  5
2FD
100
AcDbEntity
  8
0
100
AcDbPolyline
 62
2
  6
CONTINUOUS
 90
5
 70
0
 10
216.8136254883
 20
23.6100177612
 10
216.8136254883
 20
25.2171604614
 10
217.4564789429
 20
25.2171604614
 10
217.563630249
 20
25.0564470978
 10
217.563630249
 20
24.7350203705
  0
LWPOLYLINE
  5
2FE
100
AcDbEntity
  8
0
100
AcDbPolyline
 62
2
  6
CONTINUOUS
 90
7
 70
0
 10
220.0279108887
 20
23.0743065491
 10
220.0279108887
 20
25.2171604614
 10
220.8314822388
 20
25.2171604614
 10
220.9922001343
 20
25.0564470978
 10
220.9922001343
 20
23.7707356567
 10
220.8314822388
 20
23.6100177612
 10
220.0279108887
 20
23.6100177612
  0
LWPOLYLINE
  5
2FF
100
AcDbEntity
  8
0
100
AcDbPolyline
 62
2
  6
CONTINUOUS
 90
4
 70
0
 10
222.5993428345
 20
23.6100177612
 10
222.5993428345
 20
24.8957337341
 10
222.438624939
 20
25.2171604614
 10
221.6350535889
 20
25.2171604614
  0
LWPOLYLINE
  5
300
100
AcDbEntity
  8
0
100
AcDbPolyline
 62
2
  6
CONTINUOUS
 90
6
 70
0
 10
222.5993428345
 20
23.6100177612
 10
221.9564893799
 20
23.6100177612
 10
221.6350535889
 20
23.7707356567
 10
221.6350535889
 20
24.2528757477
 10
221.9564893799
 20
24.4135891113
 10
222.5993428345
 20
24.4135891113
  0
LWPOLYLINE
  5
301
100
AcDbEntity
  8
0
100
AcDbPolyline
 62
2
  6
CONTINUOUS
 90
5
 70
0
 10
223.2421962891
 20
23.6100177612
 10
223.2421962891
 20
25.2171604614
 10
223.8850497437
 20
25.2171604614
 10
223.9922010498
 20
25.0564470978
 10
223.9922010498
 20
24.7350203705
  0
LINE
  5
302
100
AcDbEntity
  8
0
100
AcDbLine
 62
2
  6
CONTINUOUS
 10
224.9564902954
 20
23.6100177612
 11
224.9564902954
 21
25.8600184479
  0
LINE
  5
303
100
AcDbEntity
  8
0
100
AcDbLine
 62
2
  6
CONTINUOUS
 10
224.6886210938
 20
25.2171604614
 11
225.3314926758
 21
25.2171604614
  0
LINE
  5
304
100
AcDbEntity
  8
0
100
AcDbLine
 62
2
  6
CONTINUOUS
 10
226.2957637939
 20
23.6100177612
 11
226.2957637939
 21
25.2171604614
  0
LWPOLYLINE
  5
305
100
AcDbEntity
  8
0
100
AcDbPolyline
 62
2
  6
CONTINUOUS
 90
4
 70
0
 10
226.2957637939
 20
25.6993050842
 10
226.2957637939
 20
25.8600184479
 10
226.3493485107
 20
25.8600184479
 10
226.2957637939
 20
25.6993050842
  0
LWPOLYLINE
  5
306
100
AcDbEntity
  8
0
100
AcDbPolyline
 62
2
  6
CONTINUOUS
 90
4
 70
0
 10
228.117190979
 20
23.6100177612
 10
228.117190979
 20
24.8957337341
 10
227.9564912109
 20
25.2171604614
 10
227.1529198608
 20
25.2171604614
  0
LWPOLYLINE
  5
307
100
AcDbEntity
  8
0
100
AcDbPolyline
 62
2
  6
CONTINUOUS
 90
6
 70
0
 10
228.117190979
 20
23.6100177612
 10
227.4743375244
 20
23.6100177612
 10
227.1529198608
 20
23.7707356567
 10
227.1529198608
 20
24.2528757477
 10
227.4743375244
 20
24.4135891113
 10
228.117190979
 20
24.4135891113
  0
LWPOLYLINE
  5
308
100
AcDbEntity
  8
0
100
AcDbPolyline
 62
2
  6
CONTINUOUS
 90
4
 70
0
 10
229.2421981201
 20
23.6100177612
 10
228.9207623291
 20
23.6100177612
 10
228.760062561
 20
23.7707356567
 10
228.760062561
 20
25.8600184479
  0
LWPOLYLINE
  5
309
100
AcDbEntity
  8
0
100
AcDbPolyline
 62
2
  6
CONTINUOUS
 90
5
 70
0
 10
231.6529121704
 20
23.6100177612
 10
231.6529121704
 20
25.2171604614
 10
232.295765625
 20
25.2171604614
 10
232.4029169312
 20
25.0564470978
 10
232.4029169312
 20
24.7350203705
  0
LWPOLYLINE
  5
30A
100
AcDbEntity
  8
0
100
AcDbPolyline
 62
2
  6
CONTINUOUS
 90
9
 70
0
 10
234.0636262207
 20
23.6100177612
 10
233.4207727661
 20
23.6100177612
 10
233.0993369751
 20
23.9314490204
 10
233.0993369751
 20
24.8957337341
 10
233.4207727661
 20
25.2171604614
 10
233.7421904297
 20
25.2171604614
 10
234.0636262207
 20
24.8957337341
 10
234.0636262207
 20
24.4135891113
 10
233.0993369751
 20
24.4135891113
  0
LWPOLYLINE
  5
30B
100
AcDbEntity
  8
0
100
AcDbPolyline
 62
2
  6
CONTINUOUS
 90
7
 70
0
 10
234.7064796753
 20
23.0743065491
 10
234.7064796753
 20
25.2171604614
 10
235.5100510254
 20
25.2171604614
 10
235.6707689209
 20
25.0564470978
 10
235.6707689209
 20
23.7707356567
 10
235.5100510254
 20
23.6100177612
 10
234.7064796753
 20
23.6100177612
  0
LWPOLYLINE
  5
30C
100
AcDbEntity
  8
0
100
AcDbPolyline
 62
2
  6
CONTINUOUS
 90
5
 70
0
 10
236.3136223755
 20
23.6100177612
 10
236.3136223755
 20
25.2171604614
 10
236.9564939575
 20
25.2171604614
 10
237.0636271362
 20
25.0564470978
 10
237.0636271362
 20
24.7350203705
  0
LWPOLYLINE
  5
30D
100
AcDbEntity
  8
0
100
AcDbPolyline
 62
2
  6
CONTINUOUS
 90
9
 70
0
 10
237.7600653076
 20
23.9314490204
 10
237.7600653076
 20
24.8957337341
 10
238.0814829712
 20
25.2171604614
 10
238.4029187622
 20
25.2171604614
 10
238.7243364258
 20
24.8957337341
 10
238.7243364258
 20
23.9314490204
 10
238.4029187622
 20
23.6100177612
 10
238.0814829712
 20
23.6100177612
 10
237.7600653076
 20
23.9314490204
  0
LWPOLYLINE
  5
30E
100
AcDbEntity
  8
0
100
AcDbPolyline
 62
2
  6
CONTINUOUS
 90
7
 70
0
 10
240.331479126
 20
25.8600184479
 10
240.331479126
 20
23.6100177612
 10
239.6886256714
 20
23.6100177612
 10
239.3672080078
 20
23.7707356567
 10
239.3672080078
 20
25.0564470978
 10
239.6886256714
 20
25.2171604614
 10
240.331479126
 20
25.2171604614
  0
LWPOLYLINE
  5
30F
100
AcDbEntity
  8
0
100
AcDbPolyline
 62
2
  6
CONTINUOUS
 90
5
 70
0
 10
240.974350708
 20
25.2171604614
 10
240.974350708
 20
23.7707356567
 10
241.1350504761
 20
23.6100177612
 10
241.9386218262
 20
23.6100177612
 10
241.9386218262
 20
25.2171604614
  0
LWPOLYLINE
  5
310
100
AcDbEntity
  8
0
100
AcDbPolyline
 62
2
  6
CONTINUOUS
 90
6
 70
0
 10
243.3850647583
 20
23.6100177612
 10
242.7421931763
 20
23.6100177612
 10
242.5814934082
 20
23.7707356567
 10
242.5814934082
 20
25.0564470978
 10
242.7421931763
 20
25.2171604614
 10
243.3850647583
 20
25.2171604614
  0
LINE
  5
311
100
AcDbEntity
  8
0
100
AcDbLine
 62
2
  6
CONTINUOUS
 10
244.2957692871
 20
23.6100177612
 11
244.2957692871
 21
25.8600184479
  0
LINE
  5
312
100
AcDbEntity
  8
0
100
AcDbLine
 62
2
  6
CONTINUOUS
 10
244.0279182129
 20
25.2171604614
 11
244.6707716675
 21
25.2171604614
  0
LINE
  5
313
100
AcDbEntity
  8
0
100
AcDbLine
 62
2
  6
CONTINUOUS
 10
245.6350609131
 20
23.6100177612
 11
245.6350609131
 21
25.2171604614
  0
LWPOLYLINE
  5
314
100
AcDbEntity
  8
0
100
AcDbPolyline
 62
2
  6
CONTINUOUS
 90
4
 70
0
 10
245.6350609131
 20
25.6993050842
 10
245.6350609131
 20
25.8600184479
 10
245.6886275024
 20
25.8600184479
 10
245.6350609131
 20
25.6993050842
  0
LWPOLYLINE
  5
315
100
AcDbEntity
  8
0
100
AcDbPolyline
 62
2
  6
CONTINUOUS
 90
9
 70
0
 10
246.4921988525
 20
23.9314490204
 10
246.4921988525
 20
24.8957337341
 10
246.8136346436
 20
25.2171604614
 10
247.1350523071
 20
25.2171604614
 10
247.4564880981
 20
24.8957337341
 10
247.4564880981
 20
23.9314490204
 10
247.1350523071
 20
23.6100177612
 10
246.8136346436
 20
23.6100177612
 10
246.4921988525
 20
23.9314490204
  0
LWPOLYLINE
  5
316
100
AcDbEntity
  8
0
100
AcDbPolyline
 62
2
  6
CONTINUOUS
 90
5
 70
0
 10
248.0993415527
 20
23.6100177612
 10
248.0993415527
 20
25.2171604614
 10
248.9029129028
 20
25.2171604614
 10
249.0636307983
 20
25.0564470978
 10
249.0636307983
 20
23.6100177612
  0
LWPOLYLINE
  5
317
100
AcDbEntity
  8
0
100
AcDbPolyline
 62
2
  6
CONTINUOUS
 90
12
 70
0
 10
249.7064842529
 20
23.7707356567
 10
249.8672021484
 20
23.6100177612
 10
250.510055603
 20
23.6100177612
 10
250.6707734985
 20
23.7707356567
 10
250.6707734985
 20
24.2528757477
 10
250.510055603
 20
24.3600179901
 10
249.8672021484
 20
24.4671647644
 10
249.7064842529
 20
24.5743070068
 10
249.7064842529
 20
25.0564470978
 10
249.8672021484
 20
25.2171604614
 10
250.510055603
 20
25.2171604614
 10
250.6707734985
 20
25.0564470978
  0
LWPOLYLINE
  5
318
100
AcDbEntity
  8
0
100
AcDbPolyline
 62
2
  6
CONTINUOUS
 90
4
 70
0
 10
254.0457767944
 20
23.6100177612
 10
254.0457767944
 20
24.8957337341
 10
253.8850588989
 20
25.2171604614
 10
253.0814875488
 20
25.2171604614
  0
LWPOLYLINE
  5
319
100
AcDbEntity
  8
0
100
AcDbPolyline
 62
2
  6
CONTINUOUS
 90
6
 70
0
 10
254.0457767944
 20
23.6100177612
 10
253.4029052124
 20
23.6100177612
 10
253.0814875488
 20
23.7707356567
 10
253.0814875488
 20
24.2528757477
 10
253.4029052124
 20
24.4135891113
 10
254.0457767944
 20
24.4135891113
  0
LWPOLYLINE
  5
31A
100
AcDbEntity
  8
0
100
AcDbPolyline
 62
2
  6
CONTINUOUS
 90
5
 70
0
 10
254.688630249
 20
23.6100177612
 10
254.688630249
 20
25.2171604614
 10
255.3314837036
 20
25.2171604614
 10
255.4386350098
 20
25.0564470978
 10
255.4386350098
 20
24.7350203705
  0
LWPOLYLINE
  5
31B
100
AcDbEntity
  8
0
100
AcDbPolyline
 62
2
  6
CONTINUOUS
 90
9
 70
0
 10
257.0993442993
 20
23.6100177612
 10
256.4564908447
 20
23.6100177612
 10
256.1350550537
 20
23.9314490204
 10
256.1350550537
 20
24.8957337341
 10
256.4564908447
 20
25.2171604614
 10
256.7779085083
 20
25.2171604614
 10
257.0993442993
 20
24.8957337341
 10
257.0993442993
 20
24.4135891113
 10
256.1350550537
 20
24.4135891113
  0
LWPOLYLINE
  5
31C
100
AcDbEntity
  8
0
100
AcDbPolyline
 62
2
  6
CONTINUOUS
 90
7
 70
0
 10
259.5100583496
 20
23.0743065491
 10
259.5100583496
 20
25.2171604614
 10
260.3136296997
 20
25.2171604614
 10
260.4743475952
 20
25.0564470978
 10
260.4743475952
 20
23.7707356567
 10
260.3136296997
 20
23.6100177612
 10
259.5100583496
 20
23.6100177612
  0
LWPOLYLINE
  5
31D
100
AcDbEntity
  8
0
100
AcDbPolyline
 62
2
  6
CONTINUOUS
 90
5
 70
0
 10
261.1172010498
 20
23.6100177612
 10
261.1172010498
 20
25.2171604614
 10
261.7600545044
 20
25.2171604614
 10
261.8672058105
 20
25.0564470978
 10
261.8672058105
 20
24.7350203705
  0
LWPOLYLINE
  5
31E
100
AcDbEntity
  8
0
100
AcDbPolyline
 62
2
  6
CONTINUOUS
 90
9
 70
0
 10
262.5636258545
 20
23.9314490204
 10
262.5636258545
 20
24.8957337341
 10
262.8850616455
 20
25.2171604614
 10
263.2064793091
 20
25.2171604614
 10
263.5279151001
 20
24.8957337341
 10
263.5279151001
 20
23.9314490204
 10
263.2064793091
 20
23.6100177612
 10
262.8850616455
 20
23.6100177612
 10
262.5636258545
 20
23.9314490204
  0
LINE
  5
31F
100
AcDbEntity
  8
0
100
AcDbLine
 62
2
  6
CONTINUOUS
 10
264.1707685547
 20
23.6100177612
 11
264.1707685547
 21
25.8600184479
  0
LWPOLYLINE
  5
320
100
AcDbEntity
  8
0
100
AcDbPolyline
 62
2
  6
CONTINUOUS
 90
4
 70
0
 10
264.1707685547
 20
25.2171604614
 10
264.9743399048
 20
25.2171604614
 10
265.1350578003
 20
25.0564470978
 10
265.1350578003
 20
23.6100177612
  0
LINE
  5
321
100
AcDbEntity
  8
0
100
AcDbLine
 62
2
  6
CONTINUOUS
 10
266.0993470459
 20
23.6100177612
 11
266.0993470459
 21
25.2171604614
  0
LWPOLYLINE
  5
322
100
AcDbEntity
  8
0
100
AcDbPolyline
 62
2
  6
CONTINUOUS
 90
4
 70
0
 10
266.0993470459
 20
25.6993050842
 10
266.0993470459
 20
25.8600184479
 10
266.1529136353
 20
25.8600184479
 10
266.0993470459
 20
25.6993050842
  0
LINE
  5
323
100
AcDbEntity
  8
0
100
AcDbLine
 62
2
  6
CONTINUOUS
 10
266.9564849854
 20
23.6100177612
 11
266.9564849854
 21
25.8600184479
  0
LWPOLYLINE
  5
324
100
AcDbEntity
  8
0
100
AcDbPolyline
 62
2
  6
CONTINUOUS
 90
6
 70
0
 10
266.9564849854
 20
25.2171604614
 10
267.7600563354
 20
25.2171604614
 10
267.920774231
 20
25.0564470978
 10
267.920774231
 20
23.7707356567
 10
267.7600563354
 20
23.6100177612
 10
266.9564849854
 20
23.6100177612
  0
LINE
  5
325
100
AcDbEntity
  8
0
100
AcDbLine
 62
2
  6
CONTINUOUS
 10
268.8850634766
 20
23.6100177612
 11
268.8850634766
 21
25.2171604614
  0
LWPOLYLINE
  5
326
100
AcDbEntity
  8
0
100
AcDbPolyline
 62
2
  6
CONTINUOUS
 90
4
 70
0
 10
268.8850634766
 20
25.6993050842
 10
268.8850634766
 20
25.8600184479
 10
268.9386300659
 20
25.8600184479
 10
268.8850634766
 20
25.6993050842
  0
LINE
  5
327
100
AcDbEntity
  8
0
100
AcDbLine
 62
2
  6
CONTINUOUS
 10
270.0100524902
 20
23.6100177612
 11
270.0100524902
 21
25.8600184479
  0
LINE
  5
328
100
AcDbEntity
  8
0
100
AcDbLine
 62
2
  6
CONTINUOUS
 10
269.742201416
 20
25.2171604614
 11
270.3850548706
 21
25.2171604614
  0
LWPOLYLINE
  5
329
100
AcDbEntity
  8
0
100
AcDbPolyline
 62
2
  6
CONTINUOUS
 90
9
 70
0
 10
271.9921975708
 20
23.6100177612
 10
271.3493441162
 20
23.6100177612
 10
271.0279083252
 20
23.9314490204
 10
271.0279083252
 20
24.8957337341
 10
271.3493441162
 20
25.2171604614
 10
271.6707617798
 20
25.2171604614
 10
271.9921975708
 20
24.8957337341
 10
271.9921975708
 20
24.4135891113
 10
271.0279083252
 20
24.4135891113
  0
LWPOLYLINE
  5
32A
100
AcDbEntity
  8
0
100
AcDbPolyline
 62
2
  6
CONTINUOUS
 90
7
 70
0
 10
273.599340271
 20
25.8600184479
 10
273.599340271
 20
23.6100177612
 10
272.9564868164
 20
23.6100177612
 10
272.6350510254
 20
23.7707356567
 10
272.6350510254
 20
25.0564470978
 10
272.9564868164
 20
25.2171604614
 10
273.599340271
 20
25.2171604614
  0
LWPOLYLINE
  5
32B
100
AcDbEntity
  8
0
100
AcDbPolyline
 62
2
  6
CONTINUOUS
 90
5
 70
0
 10
195.2779169312
 20
21.8421616974
 10
195.7064859009
 20
20.2350189972
 10
196.0814882813
 20
21.5207349701
 10
196.4564906616
 20
20.2350189972
 10
196.8850596313
 20
21.8421616974
  0
LINE
  5
32C
100
AcDbEntity
  8
0
100
AcDbLine
 62
2
  6
CONTINUOUS
 10
197.849348877
 20
20.2350189972
 11
197.849348877
 21
21.8421616974
  0
LWPOLYLINE
  5
32D
100
AcDbEntity
  8
0
100
AcDbPolyline
 62
2
  6
CONTINUOUS
 90
4
 70
0
 10
197.849348877
 20
22.3243063202
 10
197.849348877
 20
22.4850196838
 10
197.9029154663
 20
22.4850196838
 10
197.849348877
 20
22.3243063202
  0
LINE
  5
32E
100
AcDbEntity
  8
0
100
AcDbLine
 62
2
  6
CONTINUOUS
 10
198.9743378906
 20
20.2350189972
 11
198.9743378906
 21
22.4850196838
  0
LINE
  5
32F
100
AcDbEntity
  8
0
100
AcDbLine
 62
2
  6
CONTINUOUS
 10
198.7064868164
 20
21.8421616974
 11
199.349340271
 21
21.8421616974
  0
LINE
  5
330
100
AcDbEntity
  8
0
100
AcDbLine
 62
2
  6
CONTINUOUS
 10
199.9921937256
 20
20.2350189972
 11
199.9921937256
 21
22.4850196838
  0
LWPOLYLINE
  5
331
100
AcDbEntity
  8
0
100
AcDbPolyline
 62
2
  6
CONTINUOUS
 90
4
 70
0
 10
199.9921937256
 20
21.8421616974
 10
200.7957650757
 20
21.8421616974
 10
200.9564829712
 20
21.6814483337
 10
200.9564829712
 20
20.2350189972
  0
LWPOLYLINE
  5
332
100
AcDbEntity
  8
0
100
AcDbPolyline
 62
2
  6
CONTINUOUS
 90
9
 70
0
 10
201.5993364258
 20
20.5564502563
 10
201.5993364258
 20
21.5207349701
 10
201.9207722168
 20
21.8421616974
 10
202.2422080078
 20
21.8421616974
 10
202.5636256714
 20
21.5207349701
 10
202.5636256714
 20
20.5564502563
 10
202.2422080078
 20
20.2350189972
 10
201.9207722168
 20
20.2350189972
 10
201.5993364258
 20
20.5564502563
  0
LWPOLYLINE
  5
333
100
AcDbEntity
  8
0
100
AcDbPolyline
 62
2
  6
CONTINUOUS
 90
5
 70
0
 10
203.206479126
 20
21.8421616974
 10
203.206479126
 20
20.3957323608
 10
203.3671970215
 20
20.2350189972
 10
204.1707683716
 20
20.2350189972
 10
204.1707683716
 20
21.8421616974
  0
LINE
  5
334
100
AcDbEntity
  8
0
100
AcDbLine
 62
2
  6
CONTINUOUS
 10
205.0814910278
 20
20.2350189972
 11
205.0814910278
 21
22.4850196838
  0
LINE
  5
335
100
AcDbEntity
  8
0
100
AcDbLine
 62
2
  6
CONTINUOUS
 10
204.8136218262
 20
21.8421616974
 11
205.4564934082
 21
21.8421616974
  0
LWPOLYLINE
  5
336
100
AcDbEntity
  8
0
100
AcDbPolyline
 62
2
  6
CONTINUOUS
 90
7
 70
0
 10
207.8672074585
 20
19.699307785
 10
207.8672074585
 20
21.8421616974
 10
208.6707788086
 20
21.8421616974
 10
208.8314785767
 20
21.6814483337
 10
208.8314785767
 20
20.3957323608
 10
208.6707788086
 20
20.2350189972
 10
207.8672074585
 20
20.2350189972
  0
LWPOLYLINE
  5
337
100
AcDbEntity
  8
0
100
AcDbPolyline
 62
2
  6
CONTINUOUS
 90
5
 70
0
 10
209.4743501587
 20
20.2350189972
 10
209.4743501587
 20
21.8421616974
 10
210.1172036133
 20
21.8421616974
 10
210.224336792
 20
21.6814483337
 10
210.224336792
 20
21.3600216064
  0
LINE
  5
338
100
AcDbEntity
  8
0
100
AcDbLine
 62
2
  6
CONTINUOUS
 10
211.242192627
 20
20.2350189972
 11
211.242192627
 21
21.8421616974
  0
LWPOLYLINE
  5
339
100
AcDbEntity
  8
0
100
AcDbPolyline
 62
2
  6
CONTINUOUS
 90
4
 70
0
 10
211.242192627
 20
22.3243063202
 10
211.242192627
 20
22.4850196838
 10
211.2957773438
 20
22.4850196838
 10
211.242192627
 20
22.3243063202
  0
LWPOLYLINE
  5
33A
100
AcDbEntity
  8
0
100
AcDbPolyline
 62
2
  6
CONTINUOUS
 90
9
 70
0
 10
212.0993486938
 20
20.5564502563
 10
212.0993486938
 20
21.5207349701
 10
212.4207663574
 20
21.8421616974
 10
212.7422021484
 20
21.8421616974
 10
213.063619812
 20
21.5207349701
 10
213.063619812
 20
20.5564502563
 10
212.7422021484
 20
20.2350189972
 10
212.4207663574
 20
20.2350189972
 10
212.0993486938
 20
20.5564502563
  0
LWPOLYLINE
  5
33B
100
AcDbEntity
  8
0
100
AcDbPolyline
 62
2
  6
CONTINUOUS
 90
5
 70
0
 10
213.706491394
 20
20.2350189972
 10
213.706491394
 20
21.8421616974
 10
214.3493448486
 20
21.8421616974
 10
214.4564780273
 20
21.6814483337
 10
214.4564780273
 20
21.3600216064
  0
LWPOLYLINE
  5
33C
100
AcDbEntity
  8
0
100
AcDbPolyline
 62
2
  6
CONTINUOUS
 90
4
 70
0
 10
217.8850479126
 20
20.2350189972
 10
217.8850479126
 20
21.5207349701
 10
217.7243481445
 20
21.8421616974
 10
216.9207767944
 20
21.8421616974
  0
LWPOLYLINE
  5
33D
100
AcDbEntity
  8
0
100
AcDbPolyline
 62
2
  6
CONTINUOUS
 90
6
 70
0
 10
217.8850479126
 20
20.2350189972
 10
217.242194458
 20
20.2350189972
 10
216.9207767944
 20
20.3957323608
 10
216.9207767944
 20
20.8778769836
 10
217.242194458
 20
21.0385903473
 10
217.8850479126
 20
21.0385903473
  0
LWPOLYLINE
  5
33E
100
AcDbEntity
  8
0
100
AcDbPolyline
 62
2
  6
CONTINUOUS
 90
5
 70
0
 10
218.5279194946
 20
21.8421616974
 10
218.5279194946
 20
20.3957323608
 10
218.6886192627
 20
20.2350189972
 10
219.4921906128
 20
20.2350189972
 10
219.4921906128
 20
21.8421616974
  0
LINE
  5
33F
100
AcDbEntity
  8
0
100
AcDbLine
 62
2
  6
CONTINUOUS
 10
220.402913269
 20
20.2350189972
 11
220.402913269
 21
22.4850196838
  0
LINE
  5
340
100
AcDbEntity
  8
0
100
AcDbLine
 62
2
  6
CONTINUOUS
 10
220.1350621948
 20
21.8421616974
 11
220.7779156494
 21
21.8421616974
  0
LINE
  5
341
100
AcDbEntity
  8
0
100
AcDbLine
 62
2
  6
CONTINUOUS
 10
221.420769104
 20
20.2350189972
 11
221.420769104
 21
22.4850196838
  0
LWPOLYLINE
  5
342
100
AcDbEntity
  8
0
100
AcDbPolyline
 62
2
  6
CONTINUOUS
 90
4
 70
0
 10
221.420769104
 20
21.8421616974
 10
222.2243404541
 20
21.8421616974
 10
222.3850583496
 20
21.6814483337
 10
222.3850583496
 20
20.2350189972
  0
LWPOLYLINE
  5
343
100
AcDbEntity
  8
0
100
AcDbPolyline
 62
2
  6
CONTINUOUS
 90
9
 70
0
 10
223.0279118042
 20
20.5564502563
 10
223.0279118042
 20
21.5207349701
 10
223.3493475952
 20
21.8421616974
 10
223.6707652588
 20
21.8421616974
 10
223.9922010498
 20
21.5207349701
 10
223.9922010498
 20
20.5564502563
 10
223.6707652588
 20
20.2350189972
 10
223.3493475952
 20
20.2350189972
 10
223.0279118042
 20
20.5564502563
  0
LWPOLYLINE
  5
344
100
AcDbEntity
  8
0
100
AcDbPolyline
 62
2
  6
CONTINUOUS
 90
5
 70
0
 10
224.6350545044
 20
20.2350189972
 10
224.6350545044
 20
21.8421616974
 10
225.277907959
 20
21.8421616974
 10
225.3850592651
 20
21.6814483337
 10
225.3850592651
 20
21.3600216064
  0
LINE
  5
345
100
AcDbEntity
  8
0
100
AcDbLine
 62
2
  6
CONTINUOUS
 10
226.4029151001
 20
20.2350189972
 11
226.4029151001
 21
21.8421616974
  0
LWPOLYLINE
  5
346
100
AcDbEntity
  8
0
100
AcDbPolyline
 62
2
  6
CONTINUOUS
 90
4
 70
0
 10
226.4029151001
 20
22.3243063202
 10
226.4029151001
 20
22.4850196838
 10
226.4564816895
 20
22.4850196838
 10
226.4029151001
 20
22.3243063202
  0
LWPOLYLINE
  5
347
100
AcDbEntity
  8
0
100
AcDbPolyline
 62
2
  6
CONTINUOUS
 90
12
 70
0
 10
227.2600530396
 20
20.3957323608
 10
227.4207709351
 20
20.2350189972
 10
228.0636243896
 20
20.2350189972
 10
228.2243422852
 20
20.3957323608
 10
228.2243422852
 20
20.8778769836
 10
228.0636243896
 20
20.9850192261
 10
227.4207709351
 20
21.0921614685
 10
227.2600530396
 20
21.1993037109
 10
227.2600530396
 20
21.6814483337
 10
227.4207709351
 20
21.8421616974
 10
228.0636243896
 20
21.8421616974
 10
228.2243422852
 20
21.6814483337
  0
LWPOLYLINE
  5
348
100
AcDbEntity
  8
0
100
AcDbPolyline
 62
2
  6
CONTINUOUS
 90
4
 70
0
 10
229.8314849854
 20
20.2350189972
 10
229.8314849854
 20
21.5207349701
 10
229.6707670898
 20
21.8421616974
 10
228.8671957397
 20
21.8421616974
  0
LWPOLYLINE
  5
349
100
AcDbEntity
  8
0
100
AcDbPolyline
 62
2
  6
CONTINUOUS
 90
6
 70
0
 10
229.8314849854
 20
20.2350189972
 10
229.1886315308
 20
20.2350189972
 10
228.8671957397
 20
20.3957323608
 10
228.8671957397
 20
20.8778769836
 10
229.1886315308
 20
21.0385903473
 10
229.8314849854
 20
21.0385903473
  0
LINE
  5
34A
100
AcDbEntity
  8
0
100
AcDbLine
 62
2
  6
CONTINUOUS
 10
230.7422076416
 20
20.2350189972
 11
230.7422076416
 21
22.4850196838
  0
LINE
  5
34B
100
AcDbEntity
  8
0
100
AcDbLine
 62
2
  6
CONTINUOUS
 10
230.4743384399
 20
21.8421616974
 11
231.1171918945
 21
21.8421616974
  0
LINE
  5
34C
100
AcDbEntity
  8
0
100
AcDbLine
 62
2
  6
CONTINUOUS
 10
232.0814811401
 20
20.2350189972
 11
232.0814811401
 21
21.8421616974
  0
LWPOLYLINE
  5
34D
100
AcDbEntity
  8
0
100
AcDbPolyline
 62
2
  6
CONTINUOUS
 90
4
 70
0
 10
232.0814811401
 20
22.3243063202
 10
232.0814811401
 20
22.4850196838
 10
232.1350477295
 20
22.4850196838
 10
232.0814811401
 20
22.3243063202
  0
LWPOLYLINE
  5
34E
100
AcDbEntity
  8
0
100
AcDbPolyline
 62
2
  6
CONTINUOUS
 90
9
 70
0
 10
232.9386190796
 20
20.5564502563
 10
232.9386190796
 20
21.5207349701
 10
233.2600548706
 20
21.8421616974
 10
233.5814906616
 20
21.8421616974
 10
233.9029083252
 20
21.5207349701
 10
233.9029083252
 20
20.5564502563
 10
233.5814906616
 20
20.2350189972
 10
233.2600548706
 20
20.2350189972
 10
232.9386190796
 20
20.5564502563
  0
LWPOLYLINE
  5
34F
100
AcDbEntity
  8
0
100
AcDbPolyline
 62
2
  6
CONTINUOUS
 90
5
 70
0
 10
234.5457617798
 20
20.2350189972
 10
234.5457617798
 20
21.8421616974
 10
235.3493331299
 20
21.8421616974
 10
235.5100510254
 20
21.6814483337
 10
235.5100510254
 20
20.2350189972
  0
LWPOLYLINE
  5
350
100
AcDbEntity
  8
0
100
AcDbPolyline
 62
2
  6
CONTINUOUS
 90
9
 70
0
 10
237.9207650757
 20
20.5564502563
 10
237.9207650757
 20
21.5207349701
 10
238.2422008667
 20
21.8421616974
 10
238.5636366577
 20
21.8421616974
 10
238.8850543213
 20
21.5207349701
 10
238.8850543213
 20
20.5564502563
 10
238.5636366577
 20
20.2350189972
 10
238.2422008667
 20
20.2350189972
 10
237.9207650757
 20
20.5564502563
  0
LWPOLYLINE
  5
351
100
AcDbEntity
  8
0
100
AcDbPolyline
 62
2
  6
CONTINUOUS
 90
4
 70
0
 10
239.7957769775
 20
20.2350189972
 10
239.7957769775
 20
22.3243063202
 10
239.9564767456
 20
22.4850196838
 10
240.2779125366
 20
22.4850196838
  0
LINE
  5
352
100
AcDbEntity
  8
0
100
AcDbLine
 62
2
  6
CONTINUOUS
 10
240.2779125366
 20
21.8421616974
 11
239.5279077759
 21
21.8421616974
  0
LWPOLYLINE
  5
353
100
AcDbEntity
  8
0
100
AcDbPolyline
 62
2
  6
CONTINUOUS
 90
3
 70
0
 10
242.5814934082
 20
22.4850196838
 10
242.5814934082
 20
20.2350189972
 10
243.3850647583
 20
20.2350189972
  0
LWPOLYLINE
  5
354
100
AcDbEntity
  8
0
100
AcDbPolyline
 62
2
  6
CONTINUOUS
 90
12
 70
0
 10
247.2422036133
 20
21.0385903473
 10
246.5993501587
 20
20.2350189972
 10
246.1171964722
 20
20.2350189972
 10
245.7957788086
 20
20.5564502563
 10
245.7957788086
 20
21.0385903473
 10
246.9207678223
 20
21.8421616974
 10
246.9207678223
 20
22.1635929565
 10
246.5993501587
 20
22.4850196838
 10
246.2779143677
 20
22.4850196838
 10
245.9564785767
 20
22.1635929565
 10
245.9564785767
 20
21.8421616974
 10
247.0814857178
 20
20.2350189972
  0
LWPOLYLINE
  5
355
100
AcDbEntity
  8
0
100
AcDbPolyline
 62
2
  6
CONTINUOUS
 90
3
 70
0
 10
249.6529176636
 20
22.4850196838
 10
249.6529176636
 20
20.2350189972
 10
250.4564890137
 20
20.2350189972
  0
LWPOLYLINE
  5
356
100
AcDbEntity
  8
0
100
AcDbPolyline
 62
2
  6
CONTINUOUS
 90
3
 70
0
 10
252.867203064
 20
22.4850196838
 10
252.867203064
 20
20.2350189972
 10
253.6707744141
 20
20.2350189972
  0
LWPOLYLINE
  5
357
100
AcDbEntity
  8
0
100
AcDbPolyline
 62
2
  6
CONTINUOUS
 90
5
 70
0
 10
254.3136278687
 20
21.8421616974
 10
254.3136278687
 20
20.3957323608
 10
254.4743457642
 20
20.2350189972
 10
255.2779171143
 20
20.2350189972
 10
255.2779171143
 20
21.8421616974
  0
LWPOLYLINE
  5
358
100
AcDbEntity
  8
0
100
AcDbPolyline
 62
2
  6
CONTINUOUS
 90
6
 70
0
 10
256.7243419189
 20
20.2350189972
 10
256.0814884644
 20
20.2350189972
 10
255.9207705688
 20
20.3957323608
 10
255.9207705688
 20
21.6814483337
 10
256.0814884644
 20
21.8421616974
 10
256.7243419189
 20
21.8421616974
  0
LWPOLYLINE
  5
359
100
AcDbEntity
  8
0
100
AcDbPolyline
 62
2
  6
CONTINUOUS
 90
9
 70
0
 10
258.3314846191
 20
20.2350189972
 10
257.6886311646
 20
20.2350189972
 10
257.3671953735
 20
20.5564502563
 10
257.3671953735
 20
21.5207349701
 10
257.6886311646
 20
21.8421616974
 10
258.0100488281
 20
21.8421616974
 10
258.3314846191
 20
21.5207349701
 10
258.3314846191
 20
21.0385903473
 10
257.3671953735
 20
21.0385903473
  0
LWPOLYLINE
  5
35A
100
AcDbEntity
  8
0
100
AcDbPolyline
 62
2
  6
CONTINUOUS
 90
12
 70
0
 10
262.1886234741
 20
21.0385903473
 10
261.5457700195
 20
20.2350189972
 10
261.0636344604
 20
20.2350189972
 10
260.7421986694
 20
20.5564502563
 10
260.7421986694
 20
21.0385903473
 10
261.8672058105
 20
21.8421616974
 10
261.8672058105
 20
22.1635929565
 10
261.5457700195
 20
22.4850196838
 10
261.2243342285
 20
22.4850196838
 10
260.9029165649
 20
22.1635929565
 10
260.9029165649
 20
21.8421616974
 10
262.0279055786
 20
20.2350189972
  0
LWPOLYLINE
  5
35B
100
AcDbEntity
  8
0
100
AcDbPolyline
 62
2
  6
CONTINUOUS
 90
3
 70
0
 10
264.5993375244
 20
22.4850196838
 10
264.5993375244
 20
20.2350189972
 10
265.4029088745
 20
20.2350189972
  0
LINE
  5
35C
100
AcDbEntity
  8
0
100
AcDbLine
 62
2
  6
CONTINUOUS
 10
266.3671981201
 20
20.2350189972
 11
266.3671981201
 21
21.8421616974
  0
LWPOLYLINE
  5
35D
100
AcDbEntity
  8
0
100
AcDbPolyline
 62
2
  6
CONTINUOUS
 90
4
 70
0
 10
266.3671981201
 20
22.3243063202
 10
266.3671981201
 20
22.4850196838
 10
266.4207647095
 20
22.4850196838
 10
266.3671981201
 20
22.3243063202
  0
LWPOLYLINE
  5
35E
100
AcDbEntity
  8
0
100
AcDbPolyline
 62
2
  6
CONTINUOUS
 90
9
 70
0
 10
267.2243360596
 20
19.699307785
 10
268.0279074097
 20
19.699307785
 10
268.1886253052
 20
19.9135922699
 10
268.1886253052
 20
21.8421616974
 10
267.3850539551
 20
21.8421616974
 10
267.2243360596
 20
21.6814483337
 10
267.2243360596
 20
20.3957323608
 10
267.3850539551
 20
20.2350189972
 10
268.1886253052
 20
20.2350189972
  0
LINE
  5
35F
100
AcDbEntity
  8
0
100
AcDbLine
 62
2
  6
CONTINUOUS
 10
268.8314787598
 20
20.2350189972
 11
268.8314787598
 21
22.4850196838
  0
LWPOLYLINE
  5
360
100
AcDbEntity
  8
0
100
AcDbPolyline
 62
2
  6
CONTINUOUS
 90
4
 70
0
 10
268.8314787598
 20
21.8421616974
 10
269.6350501099
 20
21.8421616974
 10
269.7957680054
 20
21.6814483337
 10
269.7957680054
 20
20.2350189972
  0
LINE
  5
361
100
AcDbEntity
  8
0
100
AcDbLine
 62
2
  6
CONTINUOUS
 10
270.7064906616
 20
20.2350189972
 11
270.7064906616
 21
22.4850196838
  0
LINE
  5
362
100
AcDbEntity
  8
0
100
AcDbLine
 62
2
  6
CONTINUOUS
 10
270.43862146
 20
21.8421616974
 11
271.081493042
 21
21.8421616974
  0
LWPOLYLINE
  5
363
100
AcDbEntity
  8
0
100
AcDbPolyline
 62
2
  6
CONTINUOUS
 90
12
 70
0
 10
273.4922070923
 20
20.3957323608
 10
273.6529068604
 20
20.2350189972
 10
274.2957784424
 20
20.2350189972
 10
274.4564782104
 20
20.3957323608
 10
274.4564782104
 20
20.8778769836
 10
274.2957784424
 20
20.9850192261
 10
273.6529068604
 20
21.0921614685
 10
273.4922070923
 20
21.1993037109
 10
273.4922070923
 20
21.6814483337
 10
273.6529068604
 20
21.8421616974
 10
274.2957784424
 20
21.8421616974
 10
274.4564782104
 20
21.6814483337
  0
LWPOLYLINE
  5
364
100
AcDbEntity
  8
0
100
AcDbPolyline
 62
2
  6
CONTINUOUS
 90
9
 70
0
 10
275.5814853516
 20
20.6100213776
 10
275.6350519409
 20
20.5028791351
 10
275.6350519409
 20
20.4493034821
 10
275.5814853516
 20
20.3421612396
 10
275.4743340454
 20
20.3421612396
 10
275.4207674561
 20
20.4493034821
 10
275.4207674561
 20
20.5028791351
 10
275.4743340454
 20
20.6100213776
 10
275.5814853516
 20
20.6100213776
  0
LWPOLYLINE
  5
365
100
AcDbEntity
  8
0
100
AcDbPolyline
 62
2
  6
CONTINUOUS
 90
5
 70
0
 10
276.3850567017
 20
20.2350189972
 10
276.3850567017
 20
21.8421616974
 10
277.0279101563
 20
21.8421616974
 10
277.1350614624
 20
21.6814483337
 10
277.1350614624
 20
21.3600216064
  0
LWPOLYLINE
  5
366
100
AcDbEntity
  8
0
100
AcDbPolyline
 62
2
  6
CONTINUOUS
 90
9
 70
0
 10
278.3136351929
 20
20.6100213776
 10
278.3672017822
 20
20.5028791351
 10
278.3672017822
 20
20.4493034821
 10
278.3136351929
 20
20.3421612396
 10
278.2064838867
 20
20.3421612396
 10
278.1529172974
 20
20.4493034821
 10
278.1529172974
 20
20.5028791351
 10
278.2064838867
 20
20.6100213776
 10
278.3136351929
 20
20.6100213776
  0
LWPOLYLINE
  5
367
100
AcDbEntity
  8
0
100
AcDbPolyline
 62
2
  6
CONTINUOUS
 90
4
 70
0
 10
279.5993421021
 20
20.2350189972
 10
279.277906311
 20
20.2350189972
 10
279.117206543
 20
20.3957323608
 10
279.117206543
 20
22.4850196838
  0
LWPOLYLINE
  5
368
100
AcDbEntity
  8
0
100
AcDbPolyline
 62
2
  6
CONTINUOUS
 90
9
 70
0
 10
280.7243492432
 20
20.6100213776
 10
280.7779158325
 20
20.5028791351
 10
280.7779158325
 20
20.4493034821
 10
280.7243492432
 20
20.3421612396
 10
280.617197937
 20
20.3421612396
 10
280.5636313477
 20
20.4493034821
 10
280.5636313477
 20
20.5028791351
 10
280.617197937
 20
20.6100213776
 10
280.7243492432
 20
20.6100213776
  0
LWPOLYLINE
  5
369
100
AcDbEntity
  8
0
100
AcDbPolyline
 62
2
  6
CONTINUOUS
 90
10
 70
0
 10
282.0100561523
 20
20.6100213776
 10
282.0636227417
 20
20.5028791351
 10
282.0636227417
 20
20.4493034821
 10
281.956489563
 20
20.3421612396
 10
281.9029048462
 20
20.3421612396
 10
281.8493382568
 20
20.3957323608
 10
281.8493382568
 20
20.4493034821
 10
281.9029048462
 20
20.5564502563
 10
281.956489563
 20
20.6100213776
 10
282.0100561523
 20
20.6100213776
  0
LWPOLYLINE
  5
36A
100
AcDbEntity
  8
0
100
AcDbPolyline
 62
2
  6
CONTINUOUS
 90
3
 70
0
 10
282.0636227417
 20
20.4493034821
 10
282.0100561523
 20
20.2885901184
 10
281.9029048462
 20
20.0743056335
  0
LINE
  5
36B
100
AcDbEntity
  8
0
100
AcDbLine
 62
2
  6
CONTINUOUS
 10
195.5993345947
 20
16.8600202332
 11
195.5993345947
 21
18.4671629333
  0
LWPOLYLINE
  5
36C
100
AcDbEntity
  8
0
100
AcDbPolyline
 62
2
  6
CONTINUOUS
 90
4
 70
0
 10
195.5993345947
 20
18.9493075562
 10
195.5993345947
 20
19.1100209198
 10
195.6529193115
 20
19.1100209198
 10
195.5993345947
 20
18.9493075562
  0
LWPOLYLINE
  5
36D
100
AcDbEntity
  8
0
100
AcDbPolyline
 62
2
  6
CONTINUOUS
 90
5
 70
0
 10
196.4564906616
 20
16.8600202332
 10
196.4564906616
 20
18.4671629333
 10
197.2600620117
 20
18.4671629333
 10
197.4207617798
 20
18.3064495697
 10
197.4207617798
 20
16.8600202332
  0
LWPOLYLINE
  5
36E
100
AcDbEntity
  8
0
100
AcDbPolyline
 62
2
  6
CONTINUOUS
 90
4
 70
0
 10
200.7957650757
 20
16.8600202332
 10
200.7957650757
 20
18.1457362061
 10
200.6350653076
 20
18.4671629333
 10
199.8314939575
 20
18.4671629333
  0
LWPOLYLINE
  5
36F
100
AcDbEntity
  8
0
100
AcDbPolyline
 62
2
  6
CONTINUOUS
 90
6
 70
0
 10
200.7957650757
 20
16.8600202332
 10
200.1529116211
 20
16.8600202332
 10
199.8314939575
 20
17.0207335968
 10
199.8314939575
 20
17.5028759537
 10
200.1529116211
 20
17.6635915833
 10
200.7957650757
 20
17.6635915833
  0
LWPOLYLINE
  5
370
100
AcDbEntity
  8
0
100
AcDbPolyline
 62
2
  6
CONTINUOUS
 90
6
 70
0
 10
202.2422080078
 20
16.8600202332
 10
201.5993364258
 20
16.8600202332
 10
201.4386366577
 20
17.0207335968
 10
201.4386366577
 20
18.3064495697
 10
201.5993364258
 20
18.4671629333
 10
202.2422080078
 20
18.4671629333
  0
LWPOLYLINE
  5
371
100
AcDbEntity
  8
0
100
AcDbPolyline
 62
2
  6
CONTINUOUS
 90
6
 70
0
 10
203.6886328125
 20
16.8600202332
 10
203.0457793579
 20
16.8600202332
 10
202.8850614624
 20
17.0207335968
 10
202.8850614624
 20
18.3064495697
 10
203.0457793579
 20
18.4671629333
 10
203.6886328125
 20
18.4671629333
  0
LWPOLYLINE
  5
372
100
AcDbEntity
  8
0
100
AcDbPolyline
 62
2
  6
CONTINUOUS
 90
9
 70
0
 10
204.3314862671
 20
17.1814492264
 10
204.3314862671
 20
18.1457362061
 10
204.6529220581
 20
18.4671629333
 10
204.9743397217
 20
18.4671629333
 10
205.2957755127
 20
18.1457362061
 10
205.2957755127
 20
17.1814492264
 10
204.9743397217
 20
16.8600202332
 10
204.6529220581
 20
16.8600202332
 10
204.3314862671
 20
17.1814492264
  0
LWPOLYLINE
  5
373
100
AcDbEntity
  8
0
100
AcDbPolyline
 62
2
  6
CONTINUOUS
 90
5
 70
0
 10
205.9386289673
 20
16.8600202332
 10
205.9386289673
 20
18.4671629333
 10
206.5814824219
 20
18.4671629333
 10
206.688633728
 20
18.3064495697
 10
206.688633728
 20
17.9850183105
  0
LWPOLYLINE
  5
374
100
AcDbEntity
  8
0
100
AcDbPolyline
 62
2
  6
CONTINUOUS
 90
7
 70
0
 10
208.3493430176
 20
19.1100209198
 10
208.3493430176
 20
16.8600202332
 10
207.706489563
 20
16.8600202332
 10
207.385053772
 20
17.0207335968
 10
207.385053772
 20
18.3064495697
 10
207.706489563
 20
18.4671629333
 10
208.3493430176
 20
18.4671629333
  0
LWPOLYLINE
  5
375
100
AcDbEntity
  8
0
100
AcDbPolyline
 62
2
  6
CONTINUOUS
 90
4
 70
0
 10
209.9564857178
 20
16.8600202332
 10
209.9564857178
 20
18.1457362061
 10
209.7957678223
 20
18.4671629333
 10
208.9921964722
 20
18.4671629333
  0
LWPOLYLINE
  5
376
100
AcDbEntity
  8
0
100
AcDbPolyline
 62
2
  6
CONTINUOUS
 90
6
 70
0
 10
209.9564857178
 20
16.8600202332
 10
209.3136322632
 20
16.8600202332
 10
208.9921964722
 20
17.0207335968
 10
208.9921964722
 20
17.5028759537
 10
209.3136322632
 20
17.6635915833
 10
209.9564857178
 20
17.6635915833
  0
LWPOLYLINE
  5
377
100
AcDbEntity
  8
0
100
AcDbPolyline
 62
2
  6
CONTINUOUS
 90
5
 70
0
 10
210.5993391724
 20
16.8600202332
 10
210.5993391724
 20
18.4671629333
 10
211.4029105225
 20
18.4671629333
 10
211.563628418
 20
18.3064495697
 10
211.563628418
 20
16.8600202332
  0
LWPOLYLINE
  5
378
100
AcDbEntity
  8
0
100
AcDbPolyline
 62
2
  6
CONTINUOUS
 90
6
 70
0
 10
213.0100532227
 20
16.8600202332
 10
212.3671997681
 20
16.8600202332
 10
212.2064818726
 20
17.0207335968
 10
212.2064818726
 20
18.3064495697
 10
212.3671997681
 20
18.4671629333
 10
213.0100532227
 20
18.4671629333
  0
LWPOLYLINE
  5
379
100
AcDbEntity
  8
0
100
AcDbPolyline
 62
2
  6
CONTINUOUS
 90
9
 70
0
 10
214.6171959229
 20
16.8600202332
 10
213.9743424683
 20
16.8600202332
 10
213.6529066772
 20
17.1814492264
 10
213.6529066772
 20
18.1457362061
 10
213.9743424683
 20
18.4671629333
 10
214.2957782593
 20
18.4671629333
 10
214.6171959229
 20
18.1457362061
 10
214.6171959229
 20
17.6635915833
 10
213.6529066772
 20
17.6635915833
  0
LWPOLYLINE
  5
37A
100
AcDbEntity
  8
0
100
AcDbPolyline
 62
2
  6
CONTINUOUS
 90
5
 70
0
 10
217.0279099731
 20
18.4671629333
 10
217.4564789429
 20
16.8600202332
 10
217.8314813232
 20
18.1457362061
 10
218.2064837036
 20
16.8600202332
 10
218.6350526733
 20
18.4671629333
  0
LINE
  5
37B
100
AcDbEntity
  8
0
100
AcDbLine
 62
2
  6
CONTINUOUS
 10
219.5993419189
 20
16.8600202332
 11
219.5993419189
 21
18.4671629333
  0
LWPOLYLINE
  5
37C
100
AcDbEntity
  8
0
100
AcDbPolyline
 62
2
  6
CONTINUOUS
 90
4
 70
0
 10
219.5993419189
 20
18.9493075562
 10
219.5993419189
 20
19.1100209198
 10
219.6529085083
 20
19.1100209198
 10
219.5993419189
 20
18.9493075562
  0
LINE
  5
37D
100
AcDbEntity
  8
0
100
AcDbLine
 62
2
  6
CONTINUOUS
 10
220.7243490601
 20
16.8600202332
 11
220.7243490601
 21
19.1100209198
  0
LINE
  5
37E
100
AcDbEntity
  8
0
100
AcDbLine
 62
2
  6
CONTINUOUS
 10
220.4564798584
 20
18.4671629333
 11
221.099333313
 21
18.4671629333
  0
LINE
  5
37F
100
AcDbEntity
  8
0
100
AcDbLine
 62
2
  6
CONTINUOUS
 10
221.742204895
 20
16.8600202332
 11
221.742204895
 21
19.1100209198
  0
LWPOLYLINE
  5
380
100
AcDbEntity
  8
0
100
AcDbPolyline
 62
2
  6
CONTINUOUS
 90
4
 70
0
 10
221.742204895
 20
18.4671629333
 10
222.5457762451
 20
18.4671629333
 10
222.7064760132
 20
18.3064495697
 10
222.7064760132
 20
16.8600202332
  0
LINE
  5
381
100
AcDbEntity
  8
0
100
AcDbLine
 62
2
  6
CONTINUOUS
 10
225.3850592651
 20
16.8600202332
 11
225.3850592651
 21
19.1100209198
  0
LINE
  5
382
100
AcDbEntity
  8
0
100
AcDbLine
 62
2
  6
CONTINUOUS
 10
225.1172081909
 20
18.4671629333
 11
225.7600616455
 21
18.4671629333
  0
LINE
  5
383
100
AcDbEntity
  8
0
100
AcDbLine
 62
2
  6
CONTINUOUS
 10
226.4029151001
 20
16.8600202332
 11
226.4029151001
 21
19.1100209198
  0
LWPOLYLINE
  5
384
100
AcDbEntity
  8
0
100
AcDbPolyline
 62
2
  6
CONTINUOUS
 90
4
 70
0
 10
226.4029151001
 20
18.4671629333
 10
227.2064864502
 20
18.4671629333
 10
227.3672043457
 20
18.3064495697
 10
227.3672043457
 20
16.8600202332
  0
LWPOLYLINE
  5
385
100
AcDbEntity
  8
0
100
AcDbPolyline
 62
2
  6
CONTINUOUS
 90
9
 70
0
 10
228.9743470459
 20
16.8600202332
 10
228.3314935913
 20
16.8600202332
 10
228.0100578003
 20
17.1814492264
 10
228.0100578003
 20
18.1457362061
 10
228.3314935913
 20
18.4671629333
 10
228.6529112549
 20
18.4671629333
 10
228.9743470459
 20
18.1457362061
 10
228.9743470459
 20
17.6635915833
 10
228.0100578003
 20
17.6635915833
  0
LWPOLYLINE
  5
386
100
AcDbEntity
  8
0
100
AcDbPolyline
 62
2
  6
CONTINUOUS
 90
4
 70
0
 10
231.8671966553
 20
16.8600202332
 10
231.5457789917
 20
16.8600202332
 10
231.3850610962
 20
17.0207335968
 10
231.3850610962
 20
19.1100209198
  0
LWPOLYLINE
  5
387
100
AcDbEntity
  8
0
100
AcDbPolyline
 62
2
  6
CONTINUOUS
 90
4
 70
0
 10
233.4743393555
 20
16.8600202332
 10
233.4743393555
 20
18.1457362061
 10
233.31362146
 20
18.4671629333
 10
232.5100501099
 20
18.4671629333
  0
LWPOLYLINE
  5
388
100
AcDbEntity
  8
0
100
AcDbPolyline
 62
2
  6
CONTINUOUS
 90
6
 70
0
 10
233.4743393555
 20
16.8600202332
 10
232.8314859009
 20
16.8600202332
 10
232.5100501099
 20
17.0207335968
 10
232.5100501099
 20
17.5028759537
 10
232.8314859009
 20
17.6635915833
 10
233.4743393555
 20
17.6635915833
  0
LWPOLYLINE
  5
389
100
AcDbEntity
  8
0
100
AcDbPolyline
 62
2
  6
CONTINUOUS
 90
5
 70
0
 10
234.1171928101
 20
18.4671629333
 10
234.5457617798
 20
16.8600202332
 10
234.9207641602
 20
18.1457362061
 10
235.2957665405
 20
16.8600202332
 10
235.7243355103
 20
18.4671629333
  0
LINE
  5
38A
100
AcDbEntity
  8
0
100
AcDbLine
 62
2
  6
CONTINUOUS
 10
238.4564853516
 20
16.8600202332
 11
238.4564853516
 21
18.4671629333
  0
LWPOLYLINE
  5
38B
100
AcDbEntity
  8
0
100
AcDbPolyline
 62
2
  6
CONTINUOUS
 90
4
 70
0
 10
238.4564853516
 20
18.9493075562
 10
238.4564853516
 20
19.1100209198
 10
238.5100519409
 20
19.1100209198
 10
238.4564853516
 20
18.9493075562
  0
LWPOLYLINE
  5
38C
100
AcDbEntity
  8
0
100
AcDbPolyline
 62
2
  6
CONTINUOUS
 90
5
 70
0
 10
239.313623291
 20
16.8600202332
 10
239.313623291
 20
18.4671629333
 10
240.1171946411
 20
18.4671629333
 10
240.2779125366
 20
18.3064495697
 10
240.2779125366
 20
16.8600202332
  0
LWPOLYLINE
  5
38D
100
AcDbEntity
  8
0
100
AcDbPolyline
 62
2
  6
CONTINUOUS
 90
4
 70
0
 10
242.9564776611
 20
16.8600202332
 10
242.9564776611
 20
18.9493075562
 10
243.1171955566
 20
19.1100209198
 10
243.4386313477
 20
19.1100209198
  0
LINE
  5
38E
100
AcDbEntity
  8
0
100
AcDbLine
 62
2
  6
CONTINUOUS
 10
243.4386313477
 20
18.4671629333
 11
242.6886265869
 21
18.4671629333
  0
LWPOLYLINE
  5
38F
100
AcDbEntity
  8
0
100
AcDbPolyline
 62
2
  6
CONTINUOUS
 90
9
 70
0
 10
243.9743334961
 20
17.1814492264
 10
243.9743334961
 20
18.1457362061
 10
244.2957692871
 20
18.4671629333
 10
244.6172050781
 20
18.4671629333
 10
244.9386227417
 20
18.1457362061
 10
244.9386227417
 20
17.1814492264
 10
244.6172050781
 20
16.8600202332
 10
244.2957692871
 20
16.8600202332
 10
243.9743334961
 20
17.1814492264
  0
LWPOLYLINE
  5
390
100
AcDbEntity
  8
0
100
AcDbPolyline
 62
2
  6
CONTINUOUS
 90
5
 70
0
 10
245.5814761963
 20
16.8600202332
 10
245.5814761963
 20
18.4671629333
 10
246.2243477783
 20
18.4671629333
 10
246.331480957
 20
18.3064495697
 10
246.331480957
 20
17.9850183105
  0
LWPOLYLINE
  5
391
100
AcDbEntity
  8
0
100
AcDbPolyline
 62
2
  6
CONTINUOUS
 90
6
 70
0
 10
247.8314904785
 20
16.8600202332
 10
247.1886188965
 20
16.8600202332
 10
247.0279191284
 20
17.0207335968
 10
247.0279191284
 20
18.3064495697
 10
247.1886188965
 20
18.4671629333
 10
247.8314904785
 20
18.4671629333
  0
LWPOLYLINE
  5
392
100
AcDbEntity
  8
0
100
AcDbPolyline
 62
2
  6
CONTINUOUS
 90
9
 70
0
 10
249.4386331787
 20
16.8600202332
 10
248.7957615967
 20
16.8600202332
 10
248.4743439331
 20
17.1814492264
 10
248.4743439331
 20
18.1457362061
 10
248.7957615967
 20
18.4671629333
 10
249.1171973877
 20
18.4671629333
 10
249.4386331787
 20
18.1457362061
 10
249.4386331787
 20
17.6635915833
 10
248.4743439331
 20
17.6635915833
  0
LWPOLYLINE
  5
393
100
AcDbEntity
  8
0
100
AcDbPolyline
 62
2
  6
CONTINUOUS
 90
9
 70
0
 10
250.5636221924
 20
17.2350203476
 10
250.6172069092
 20
17.1278781052
 10
250.6172069092
 20
17.074304718
 10
250.5636221924
 20
16.9671624756
 10
250.4564890137
 20
16.9671624756
 10
250.4029224243
 20
17.074304718
 10
250.4029224243
 20
17.1278781052
 10
250.4564890137
 20
17.2350203476
 10
250.5636221924
 20
17.2350203476
  0
LWPOLYLINE
  5
394
100
AcDbEntity
  8
0
100
AcDbPolyline
 62
2
  6
CONTINUOUS
 90
3
 70
0
 10
195.2779169312
 20
13.4850192032
 10
195.9207703857
 20
15.7350198898
 10
196.5636238403
 20
13.4850192032
  0
LINE
  5
395
100
AcDbEntity
  8
0
100
AcDbLine
 62
2
  6
CONTINUOUS
 10
195.492201416
 20
14.1278771896
 11
196.3493393555
 21
14.1278771896
  0
LWPOLYLINE
  5
396
100
AcDbEntity
  8
0
100
AcDbPolyline
 62
2
  6
CONTINUOUS
 90
4
 70
0
 10
197.6886309814
 20
13.4850192032
 10
197.3671951904
 20
13.4850192032
 10
197.2064772949
 20
13.6457348328
 10
197.2064772949
 20
15.7350198898
  0
LWPOLYLINE
  5
397
100
AcDbEntity
  8
0
100
AcDbPolyline
 62
2
  6
CONTINUOUS
 90
4
 70
0
 10
198.8136199951
 20
13.4850192032
 10
198.4922023315
 20
13.4850192032
 10
198.331484436
 20
13.6457348328
 10
198.331484436
 20
15.7350198898
  0
LWPOLYLINE
  5
398
100
AcDbEntity
  8
0
100
AcDbPolyline
 62
2
  6
CONTINUOUS
 90
5
 70
0
 10
201.2243340454
 20
13.4850192032
 10
201.2243340454
 20
15.0921619034
 10
201.8672056274
 20
15.0921619034
 10
201.9743388062
 20
14.9314485397
 10
201.9743388062
 20
14.6100195465
  0
LINE
  5
399
100
AcDbEntity
  8
0
100
AcDbLine
 62
2
  6
CONTINUOUS
 10
202.9921946411
 20
13.4850192032
 11
202.9921946411
 21
15.0921619034
  0
LWPOLYLINE
  5
39A
100
AcDbEntity
  8
0
100
AcDbPolyline
 62
2
  6
CONTINUOUS
 90
4
 70
0
 10
202.9921946411
 20
15.5743065262
 10
202.9921946411
 20
15.7350198898
 10
203.0457793579
 20
15.7350198898
 10
202.9921946411
 20
15.5743065262
  0
LWPOLYLINE
  5
39B
100
AcDbEntity
  8
0
100
AcDbPolyline
 62
2
  6
CONTINUOUS
 90
9
 70
0
 10
203.849350708
 20
12.9493057251
 10
204.6529220581
 20
12.9493057251
 10
204.8136218262
 20
13.16359021
 10
204.8136218262
 20
15.0921619034
 10
204.0100504761
 20
15.0921619034
 10
203.849350708
 20
14.9314485397
 10
203.849350708
 20
13.6457348328
 10
204.0100504761
 20
13.4850192032
 10
204.8136218262
 20
13.4850192032
  0
LINE
  5
39C
100
AcDbEntity
  8
0
100
AcDbLine
 62
2
  6
CONTINUOUS
 10
205.4564934082
 20
13.4850192032
 11
205.4564934082
 21
15.7350198898
  0
LWPOLYLINE
  5
39D
100
AcDbEntity
  8
0
100
AcDbPolyline
 62
2
  6
CONTINUOUS
 90
4
 70
0
 10
205.4564934082
 20
15.0921619034
 10
206.2600647583
 20
15.0921619034
 10
206.4207645264
 20
14.9314485397
 10
206.4207645264
 20
13.4850192032
  0
LINE
  5
39E
100
AcDbEntity
  8
0
100
AcDbLine
 62
2
  6
CONTINUOUS
 10
207.3314871826
 20
13.4850192032
 11
207.3314871826
 21
15.7350198898
  0
LINE
  5
39F
100
AcDbEntity
  8
0
100
AcDbLine
 62
2
  6
CONTINUOUS
 10
207.0636361084
 20
15.0921619034
 11
207.706489563
 21
15.0921619034
  0
LWPOLYLINE
  5
3A0
100
AcDbEntity
  8
0
100
AcDbPolyline
 62
2
  6
CONTINUOUS
 90
12
 70
0
 10
208.3493430176
 20
13.6457348328
 10
208.5100609131
 20
13.4850192032
 10
209.1529143677
 20
13.4850192032
 10
209.3136322632
 20
13.6457348328
 10
209.3136322632
 20
14.1278771896
 10
209.1529143677
 20
14.2350194321
 10
208.5100609131
 20
14.3421616745
 10
208.3493430176
 20
14.4493061829
 10
208.3493430176
 20
14.9314485397
 10
208.5100609131
 20
15.0921619034
 10
209.1529143677
 20
15.0921619034
 10
209.3136322632
 20
14.9314485397
  0
LWPOLYLINE
  5
3A1
100
AcDbEntity
  8
0
100
AcDbPolyline
 62
2
  6
CONTINUOUS
 90
5
 70
0
 10
211.7243463135
 20
13.4850192032
 10
211.7243463135
 20
15.0921619034
 10
212.3671997681
 20
15.0921619034
 10
212.4743510742
 20
14.9314485397
 10
212.4743510742
 20
14.6100195465
  0
LWPOLYLINE
  5
3A2
100
AcDbEntity
  8
0
100
AcDbPolyline
 62
2
  6
CONTINUOUS
 90
9
 70
0
 10
214.1350603638
 20
13.4850192032
 10
213.4922069092
 20
13.4850192032
 10
213.1707711182
 20
13.8064481964
 10
213.1707711182
 20
14.7707351761
 10
213.4922069092
 20
15.0921619034
 10
213.8136245728
 20
15.0921619034
 10
214.1350603638
 20
14.7707351761
 10
214.1350603638
 20
14.2885905533
 10
213.1707711182
 20
14.2885905533
  0
LWPOLYLINE
  5
3A3
100
AcDbEntity
  8
0
100
AcDbPolyline
 62
2
  6
CONTINUOUS
 90
12
 70
0
 10
214.7779138184
 20
13.6457348328
 10
214.9386317139
 20
13.4850192032
 10
215.5814851685
 20
13.4850192032
 10
215.742203064
 20
13.6457348328
 10
215.742203064
 20
14.1278771896
 10
215.5814851685
 20
14.2350194321
 10
214.9386317139
 20
14.3421616745
 10
214.7779138184
 20
14.4493061829
 10
214.7779138184
 20
14.9314485397
 10
214.9386317139
 20
15.0921619034
 10
215.5814851685
 20
15.0921619034
 10
215.742203064
 20
14.9314485397
  0
LWPOLYLINE
  5
3A4
100
AcDbEntity
  8
0
100
AcDbPolyline
 62
2
  6
CONTINUOUS
 90
9
 70
0
 10
217.3493457642
 20
13.4850192032
 10
216.7064923096
 20
13.4850192032
 10
216.3850565186
 20
13.8064481964
 10
216.3850565186
 20
14.7707351761
 10
216.7064923096
 20
15.0921619034
 10
217.0279099731
 20
15.0921619034
 10
217.3493457642
 20
14.7707351761
 10
217.3493457642
 20
14.2885905533
 10
216.3850565186
 20
14.2885905533
  0
LWPOLYLINE
  5
3A5
100
AcDbEntity
  8
0
100
AcDbPolyline
 62
2
  6
CONTINUOUS
 90
5
 70
0
 10
217.9921992188
 20
13.4850192032
 10
217.9921992188
 20
15.0921619034
 10
218.6350526733
 20
15.0921619034
 10
218.7422039795
 20
14.9314485397
 10
218.7422039795
 20
14.6100195465
  0
LWPOLYLINE
  5
3A6
100
AcDbEntity
  8
0
100
AcDbPolyline
 62
2
  6
CONTINUOUS
 90
3
 70
0
 10
219.4386240234
 20
15.0921619034
 10
219.92077771
 20
13.4850192032
 10
220.402913269
 20
15.0921619034
  0
LWPOLYLINE
  5
3A7
100
AcDbEntity
  8
0
100
AcDbPolyline
 62
2
  6
CONTINUOUS
 90
9
 70
0
 10
222.0100559692
 20
13.4850192032
 10
221.3672025146
 20
13.4850192032
 10
221.0457667236
 20
13.8064481964
 10
221.0457667236
 20
14.7707351761
 10
221.3672025146
 20
15.0921619034
 10
221.6886201782
 20
15.0921619034
 10
222.0100559692
 20
14.7707351761
 10
222.0100559692
 20
14.2885905533
 10
221.0457667236
 20
14.2885905533
  0
LWPOLYLINE
  5
3A8
100
AcDbEntity
  8
0
100
AcDbPolyline
 62
2
  6
CONTINUOUS
 90
7
 70
0
 10
223.6171986694
 20
15.7350198898
 10
223.6171986694
 20
13.4850192032
 10
222.9743452148
 20
13.4850192032
 10
222.6529094238
 20
13.6457348328
 10
222.6529094238
 20
14.9314485397
 10
222.9743452148
 20
15.0921619034
 10
223.6171986694
 20
15.0921619034
  0
LWPOLYLINE
  5
3A9
100
AcDbEntity
  8
0
100
AcDbPolyline
 62
2
  6
CONTINUOUS
 90
9
 70
0
 10
224.7422058105
 20
13.8600193176
 10
224.7957723999
 20
13.7528770752
 10
224.7957723999
 20
13.699305954
 10
224.7422058105
 20
13.5921637115
 10
224.6350545044
 20
13.5921637115
 10
224.581487915
 20
13.699305954
 10
224.581487915
 20
13.7528770752
 10
224.6350545044
 20
13.8600193176
 10
224.7422058105
 20
13.8600193176
  0
ACAD_TABLE
  5
3AA
100
AcDbEntity
  8
0
 62
2
  6
CONTINUOUS
100
AcDbBlockReference
  2
*T1
 10
193.7904134944
 20
53.1725198453
 30
0.0
100
AcDbTable
342
       42B
343
22A
 11
1.0
 21
0.0
 31
0.0
 90
22
 91
5
 92
5
 93
0
 94
0
 95
0
 96
0
141
6.0
141
6.0
141
10.0
141
5.0
141
13.0
142
10.0
142
10.0
142
10.0
142
40.0
142
20.0
171
1
172
0
173
0
174
0
175
3
176
4
 91
1
178
0
145
0.0
170
5
171
1
172
0
173
1
174
0
175
1
176
1
 91
1
178
0
145
0.0
170
1
171
1
172
0
173
1
174
0
175
1
176
1
 91
1
178
0
145
0.0
170
1
171
1
172
0
173
0
174
0
175
1
176
1
 91
33
178
0
145
0.0
301
CELL_VALUE
 90
4
  1
{\Ftxt.shx;\W6.833333;\H3.000000; }
304
ACVALUE_END
170
4
140
3.0
171
1
172
0
173
0
174
0
175
1
176
1
 91
33
178
0
145
0.0
301
CELL_VALUE
 90
4
  1
{\Ftxt.shx;\W2.571429;\H3.500000; }{\Ftxt.shx;\W1.357143;\H3.500000; }
304
ACVALUE_END
170
4
140
3.5
171
1
172
0
173
1
174
0
175
1
176
1
 91
1
178
0
145
0.0
170
1
171
1
172
0
173
1
174
0
175
1
176
1
 91
1
178
0
145
0.0
170
1
171
1
172
0
173
1
174
0
175
1
176
1
 91
1
178
0
145
0.0
170
1
171
1
172
0
173
0
174
0
175
1
176
1
 91
33
178
0
145
0.0
301
CELL_VALUE
 90
4
  1
{\Ftxt.shx;\W3.714286;\H3.500000; }{\Ftxt.shx;\W1.500000;\H3.500000; }
304
ACVALUE_END
170
1
140
3.5
171
1
172
0
173
0
174
0
175
1
176
1
 91
33
178
0
145
0.0
301
CELL_VALUE
 90
4
  1
{\Ftxt.shx;\W1.642857;\H3.500000; }
304
ACVALUE_END
170
4
140
3.5
171
1
172
0
173
1
174
0
175
1
176
1
 91
1
178
0
145
0.0
170
1
171
1
172
0
173
1
174
0
175
1
176
1
 91
1
178
0
145
0.0
170
1
171
1
172
0
173
1
174
0
175
1
176
1
 91
1
178
0
145
0.0
170
1
171
1
172
0
173
0
174
0
175
2
176
1
 91
33
178
0
145
0.0
301
CELL_VALUE
 90
4
  1
{\Ftxt.shx;\W6.880952;\H3.500000; }
304
ACVALUE_END
170
4
140
3.5
171
1
172
0
173
1
174
0
175
1
176
1
 91
1
178
0
145
0.0
170
1
171
1
172
0
173
1
174
0
175
1
176
1
 91
1
178
0
145
0.0
170
1
171
1
172
0
173
1
174
0
175
1
176
1
 91
1
178
0
145
0.0
170
1
171
1
172
0
173
1
174
0
175
1
176
1
 91
1
178
0
145
0.0
170
1
171
1
172
0
173
0
174
0
175
2
176
1
 91
33
178
0
145
0.0
301
CELL_VALUE
 90
4
  1
{\Ftxt.shx;\W3.690476;\H2.500000; }{\Ftxt.shx;\W7.309524;\H2.500000; }
304
ACVALUE_END
170
4
140
2.5
171
1
172
0
173
1
174
0
175
1
176
1
 91
1
178
0
145
0.0
170
1
171
1
172
0
173
0
174
0
175
5
176
1
 91
33
178
0
145
0.0
301
CELL_VALUE
 90
4
  1
{\Ftxt.shx;\W35.880952;\H2.250000; }\P{\Ftxt.shx;\W22.452381;\H2.250000; }{\Ftxt.shx;\W6.642857;\H2.250000; }{\Ftxt.shx;\W10.595238;\H2.250000; }\P{\Ftxt.shx;\W25.714286;\H2.250000; }\P{\Ftxt.shx;\W13.452381;\H2.250000; }
304
ACVALUE_END
170
4
140
2.25
171
1
172
0
173
1
174
0
175
1
176
1
 91
1
178
0
145
0.0
170
1
171
1
172
0
173
1
174
0
175
1
176
1
 91
1
178
0
145
0.0
170
1
171
1
172
0
173
1
174
0
175
1
176
1
 91
1
178
0
145
0.0
170
1
171
1
172
0
173
1
174
0
175
1
176
1
 91
1
178
0
145
0.0
170
1
  0
LWPOLYLINE
  5
3AB
100
AcDbEntity
  8
0
100
AcDbPolyline
 62
7
  6
CONTINUOUS
 90
2
 70
0
 43
0.100000004
 10
10.0
 20
10.0
 10
10.0
 20
200.0
  0
LWPOLYLINE
  5
3AC
100
AcDbEntity
  8
0
100
AcDbPolyline
 62
7
  6
CONTINUOUS
 90
2
 70
0
 43
0.100000004
 10
10.0
 20
10.0
 10
287.0
 20
10.0
  0
LWPOLYLINE
  5
3AD
100
AcDbEntity
  8
0
100
AcDbPolyline
 62
7
  6
CONTINUOUS
 90
2
 70
0
 43
0.100000004
 10
10.0
 20
200.0
 10
287.0
 20
200.0
  0
LWPOLYLINE
  5
3AE
100
AcDbEntity
  8
0
100
AcDbPolyline
 62
7
  6
CONTINUOUS
 90
2
 70
0
 43
0.100000004
 10
287.0
 20
10.0
 10
287.0
 20
200.0
  0
LINE
  5
3AF
100
AcDbEntity
  8
3_ALL_AXES
100
AcDbLine
 62
7
  6
CONTINUOUS
 10
39.1474026851
 20
162.5640025408
 11
39.1474026851
 21
161.1640025408
  0
LINE
  5
3B0
100
AcDbEntity
  8
7_ALL_FEATURES
100
AcDbLine
 62
7
  6
CONTINUOUS
 10
39.6474026851
 20
167.8640025408
 11
39.6474026851
 21
170.8640025408
  0
LINE
  5
3B1
100
AcDbEntity
  8
3_ALL_AXES
100
AcDbLine
 62
7
  6
CONTINUOUS
 10
39.5929985049
 20
162.8640025408
 11
39.9426325646
 21
167.8640025408
  0
LINE
  5
3B2
100
AcDbEntity
  8
3_ALL_AXES
100
AcDbLine
 62
7
  6
CONTINUOUS
 10
43.6474026851
 20
160.8640025408
 11
43.6474026851
 21
148.3640025408
  0
LINE
  5
3B3
100
AcDbEntity
  8
7_ALL_FEATURES
100
AcDbLine
 62
7
  6
CONTINUOUS
 10
39.4474026851
 20
162.8640025408
 11
39.1474026851
 21
162.5640025408
  0
LINE
  5
3B4
100
AcDbEntity
  8
7_ALL_FEATURES
100
AcDbLine
 62
7
  6
CONTINUOUS
 10
44.6474026851
 20
147.3640025408
 11
43.6474026851
 21
148.3640025408
  0
LINE
  5
3B5
100
AcDbEntity
  8
02___PRT_ALL_AXES
100
AcDbLine
 62
7
  6
CONTINUOUS
 10
57.796549724
 20
147.3640025408
 11
57.796549724
 21
143.8640025408
  0
LINE
  5
3B6
100
AcDbEntity
  8
02___PRT_ALL_AXES
100
AcDbLine
 62
7
  6
CONTINUOUS
 10
57.796549724
 20
138.8640025408
 11
57.796549724
 21
135.3640025408
  0
LINE
  5
3B7
100
AcDbEntity
  8
7_ALL_FEATURES
100
AcDbLine
 62
7
  6
CONTINUOUS
 10
67.1474026851
 20
132.3640025408
 11
61.1474026851
 21
132.3640025408
  0
LINE
  5
3B8
100
AcDbEntity
  8
7_ALL_FEATURES
100
AcDbLine
 62
7
  6
CONTINUOUS
 10
39.4474026851
 20
160.8640025408
 11
39.1474026851
 21
161.1640025408
  0
LINE
  5
3B9
100
AcDbEntity
  8
02___PRT_ALL_AXES
100
AcDbLine
 62
7
  6
CONTINUOUS
 10
59.1474026851
 20
135.3640025408
 11
59.1474026851
 21
134.3640025408
  0
LINE
  5
3BA
100
AcDbEntity
  8
02___PRT_ALL_AXES
100
AcDbLine
 62
7
  6
CONTINUOUS
 10
59.3974026851
 20
138.8640025408
 11
59.3974026851
 21
143.8640025408
  0
LINE
  5
3BB
100
AcDbEntity
  8
02___PRT_ALL_AXES
100
AcDbLine
 62
7
  6
CONTINUOUS
 10
60.9719762046
 20
147.3640025408
 11
60.9719762046
 21
143.8640025408
  0
LINE
  5
3BC
100
AcDbEntity
  8
02___PRT_ALL_AXES
100
AcDbLine
 62
7
  6
CONTINUOUS
 10
60.9719762046
 20
138.8640025408
 11
60.9719762046
 21
135.3640025408
  0
LINE
  5
3BD
100
AcDbEntity
  8
7_ALL_FEATURES
100
AcDbLine
 62
9
  6
CONTINUOUS
 10
69.1474026851
 20
134.3640025408
 11
59.1474026851
 21
134.3640025408
  0
LINE
  5
3BE
100
AcDbEntity
  8
7_ALL_FEATURES
100
AcDbLine
 62
7
  6
CONTINUOUS
 10
70.4982556462
 20
135.3640025408
 11
57.796549724
 21
135.3640025408
  0
LINE
  5
3BF
100
AcDbEntity
  8
02___PRT_ALL_AXES
100
AcDbLine
 62
7
  6
CONTINUOUS
 10
70.4982556462
 20
138.8640025408
 11
57.796549724
 21
138.8640025408
  0
LINE
  5
3C0
100
AcDbEntity
  8
02___PRT_ALL_AXES
100
AcDbLine
 62
7
  6
CONTINUOUS
 10
67.3228291656
 20
147.3640025408
 11
67.3228291656
 21
143.8640025408
  0
LINE
  5
3C1
100
AcDbEntity
  8
02___PRT_ALL_AXES
100
AcDbLine
 62
7
  6
CONTINUOUS
 10
67.3228291656
 20
138.8640025408
 11
67.3228291656
 21
135.3640025408
  0
LINE
  5
3C2
100
AcDbEntity
  8
02___PRT_ALL_AXES
100
AcDbLine
 62
7
  6
CONTINUOUS
 10
68.8974026851
 20
138.8640025408
 11
68.8974026851
 21
143.8640025408
  0
LINE
  5
3C3
100
AcDbEntity
  8
02___PRT_ALL_AXES
100
AcDbLine
 62
7
  6
CONTINUOUS
 10
69.1474026851
 20
135.3640025408
 11
69.1474026851
 21
134.3640025408
  0
LINE
  5
3C4
100
AcDbEntity
  8
02___PRT_ALL_AXES
100
AcDbLine
 62
7
  6
CONTINUOUS
 10
70.4982556462
 20
143.8640025408
 11
57.796549724
 21
143.8640025408
  0
LINE
  5
3C5
100
AcDbEntity
  8
02___PRT_ALL_AXES
100
AcDbLine
 62
7
  6
CONTINUOUS
 10
70.4982556462
 20
147.3640025408
 11
70.4982556462
 21
143.8640025408
  0
LINE
  5
3C6
100
AcDbEntity
  8
02___PRT_ALL_AXES
100
AcDbLine
 62
7
  6
CONTINUOUS
 10
70.4982556462
 20
138.8640025408
 11
70.4982556462
 21
135.3640025408
  0
LINE
  5
3C7
100
AcDbEntity
  8
3_ALL_AXES
100
AcDbLine
 62
7
  6
CONTINUOUS
 10
72.6474026851
 20
147.3640025408
 11
72.6474026851
 21
154.3640025408
  0
LINE
  5
3C8
100
AcDbEntity
  8
3_ALL_AXES
100
AcDbLine
 62
7
  6
CONTINUOUS
 10
44.6474026851
 20
147.3640025408
 11
111.6474026851
 21
147.3640025408
  0
LINE
  5
3C9
100
AcDbEntity
  8
3_ALL_AXES
100
AcDbLine
 62
7
  6
CONTINUOUS
 10
43.6474026851
 20
148.3640025408
 11
72.6474026851
 21
148.3640025408
  0
LINE
  5
3CA
100
AcDbEntity
  8
3_ALL_AXES
100
AcDbLine
 62
7
  6
CONTINUOUS
 10
83.6474026851
 20
148.3640025408
 11
112.6474026851
 21
148.3640025408
  0
LINE
  5
3CB
100
AcDbEntity
  8
3_ALL_AXES
100
AcDbLine
 62
7
  6
CONTINUOUS
 10
83.6474026851
 20
154.3640025408
 11
72.6474026851
 21
154.3640025408
  0
LINE
  5
3CC
100
AcDbEntity
  8
3_ALL_AXES
100
AcDbLine
 62
7
  6
CONTINUOUS
 10
83.6474026851
 20
154.3640025408
 11
83.6474026851
 21
147.3640025408
  0
LWPOLYLINE
  5
3CD
100
AcDbEntity
  8
0
100
AcDbPolyline
 62
2
  6
CONTINUOUS
 90
13
 70
0
 43
0.1499999927
 10
73.7902608948
 20
123.572850769
 10
74.0402609711
 20
124.3228464661
 10
74.5402611237
 20
124.8228466187
 10
75.2902613525
 20
125.0728512268
 10
76.0402570496
 20
124.8228466187
 10
76.5402572021
 20
124.3228464661
 10
76.7902618103
 20
123.572850769
 10
76.5402572021
 20
122.8228460083
 10
76.0402570496
 20
122.3228458557
 10
75.2902613525
 20
122.0728503113
 10
74.5402611237
 20
122.3228458557
 10
74.0402609711
 20
122.8228460083
 10
73.7902608948
 20
123.572850769
  0
LINE
  5
3CE
100
AcDbEntity
  8
7_ALL_FEATURES
100
AcDbLine
 62
7
  6
CONTINUOUS
 10
39.4477179869
 20
160.8640025408
 11
116.8470873833
 21
160.8640025408
  0
LINE
  5
3CF
100
AcDbEntity
  8
7_ALL_FEATURES
100
AcDbLine
 62
7
  6
CONTINUOUS
 10
39.1474026851
 20
161.1640025408
 11
117.1474026851
 21
161.1640025408
  0
LWPOLYLINE
  5
3D0
100
AcDbEntity
  8
0
100
AcDbPolyline
 62
2
  6
CONTINUOUS
 90
2
 70
0
 43
0.1499999927
 10
74.0402609711
 20
121.3228455505
 10
76.5402572021
 20
125.8228469238
  0
LINE
  5
3D1
100
AcDbEntity
  8
7_ALL_FEATURES
100
AcDbLine
 62
7
  6
CONTINUOUS
 10
39.1474026851
 20
162.5640025408
 11
117.1474026851
 21
162.5640025408
  0
LINE
  5
3D2
100
AcDbEntity
  8
7_ALL_FEATURES
100
AcDbLine
 62
7
  6
CONTINUOUS
 10
39.4477179869
 20
162.8640025408
 11
116.8470873833
 21
162.8640025408
  0
LINE
  5
3D3
100
AcDbEntity
  8
3_ALL_AXES
100
AcDbLine
 62
7
  6
CONTINUOUS
 10
39.6474026851
 20
167.8640025408
 11
116.6474026851
 21
167.8640025408
  0
LWPOLYLINE
  5
3D4
100
AcDbEntity
  8
0
100
AcDbPolyline
 62
2
  6
CONTINUOUS
 90
10
 70
0
 43
0.1499999927
 10
78.8616845398
 20
125.0728512268
 10
78.2188310852
 20
124.4299887085
 10
77.7902621155
 20
123.572850769
 10
77.7902621155
 20
122.501419281
 10
78.2188310852
 20
122.0728503113
 10
78.8616845398
 20
122.0728503113
 10
79.2902625732
 20
122.501419281
 10
79.2902625732
 20
123.3585572205
 10
78.8616845398
 20
123.7871352539
 10
77.9331154175
 20
123.7871352539
  0
LINE
  5
3D5
100
AcDbEntity
  8
7_ALL_FEATURES
100
AcDbLine
 62
9
  6
CONTINUOUS
 10
39.6474026851
 20
170.8640025408
 11
116.6474026851
 21
170.8640025408
  0
LINE
  5
3D6
100
AcDbEntity
  8
7_ALL_FEATURES
100
AcDbLine
 62
7
  6
CONTINUOUS
 10
41.6474026851
 20
172.8640025408
 11
114.6474026851
 21
172.8640025408
  0
LINE
  5
3D7
100
AcDbEntity
  8
7_ALL_FEATURES
100
AcDbLine
 62
7
  6
CONTINUOUS
 10
116.8474026851
 20
160.8640025408
 11
117.1474026851
 21
161.1640025408
  0
LWPOLYLINE
  5
3D8
100
AcDbEntity
  8
0
100
AcDbPolyline
 62
2
  6
CONTINUOUS
 90
10
 70
0
 43
0.1499999927
 10
80.5759785461
 20
122.0728503113
 10
81.4331164856
 20
122.9299882507
 10
81.6474009705
 20
123.7871352539
 10
81.6474009705
 20
124.6442731934
 10
81.2188320007
 20
125.0728512268
 10
80.5759785461
 20
125.0728512268
 10
80.1474005127
 20
124.6442731934
 10
80.1474005127
 20
123.7871352539
 10
80.5759785461
 20
123.3585572205
 10
81.5045476685
 20
123.3585572205
  0
LINE
  5
3D9
100
AcDbEntity
  8
7_ALL_FEATURES
100
AcDbLine
 62
7
  6
CONTINUOUS
 10
111.6474026851
 20
147.3640025408
 11
112.6474026851
 21
148.3640025408
  0
LINE
  5
3DA
100
AcDbEntity
  8
3_ALL_AXES
100
AcDbLine
 62
7
  6
CONTINUOUS
 10
112.6474026851
 20
160.8640025408
 11
112.6474026851
 21
148.3640025408
  0
LINE
  5
3DB
100
AcDbEntity
  8
7_ALL_FEATURES
100
AcDbLine
 62
7
  6
CONTINUOUS
 10
116.8474026851
 20
162.8640025408
 11
117.1474026851
 21
162.5640025408
  0
LINE
  5
3DC
100
AcDbEntity
  8
3_ALL_AXES
100
AcDbLine
 62
7
  6
CONTINUOUS
 10
116.7018068653
 20
162.8640025408
 11
116.3521728056
 21
167.8640025408
  0
LINE
  5
3DD
100
AcDbEntity
  8
7_ALL_FEATURES
100
AcDbLine
 62
7
  6
CONTINUOUS
 10
116.6474026851
 20
167.8640025408
 11
116.6474026851
 21
170.8640025408
  0
LINE
  5
3DE
100
AcDbEntity
  8
3_ALL_AXES
100
AcDbLine
 62
7
  6
CONTINUOUS
 10
116.6474026851
 20
167.8640025408
 11
116.6474026851
 21
170.8640025408
  0
LINE
  5
3DF
100
AcDbEntity
  8
3_ALL_AXES
100
AcDbLine
 62
7
  6
CONTINUOUS
 10
117.1474026851
 20
162.5640025408
 11
117.1474026851
 21
161.1640025408
  0
LWPOLYLINE
  5
3E0
100
AcDbEntity
  8
0
100
AcDbPolyline
 62
2
  6
CONTINUOUS
 90
7
 70
0
 43
0.1499999927
 10
126.774216156
 20
168.0425824585
 10
126.774216156
 20
166.542572937
 10
124.6313622437
 20
168.0425824585
 10
124.2027842102
 20
168.0425824585
 10
123.7742152405
 20
167.6139953613
 10
123.7742152405
 20
166.9711419067
 10
124.4170686951
 20
166.542572937
  0
LWPOLYLINE
  5
3E1
100
AcDbEntity
  8
0
100
AcDbPolyline
 62
2
  6
CONTINUOUS
 90
3
 70
0
 43
0.1499999927
 10
124.6313622437
 20
164.8282970581
 10
123.7742152405
 20
165.6854349976
 10
126.774216156
 20
165.6854349976
  0
LINE
  5
3E2
100
AcDbEntity
  8
3_ALL_AXES
100
AcDbLine
 62
7
  6
CONTINUOUS
 10
169.1733309389
 20
162.5640025408
 11
169.1733309389
 21
161.1640025408
  0
LINE
  5
3E3
100
AcDbEntity
  8
3_ALL_AXES
100
AcDbLine
 62
7
  6
CONTINUOUS
 10
169.6733309389
 20
167.8640025408
 11
169.6733309389
 21
170.8640025408
  0
LINE
  5
3E4
100
AcDbEntity
  8
3_ALL_AXES
100
AcDbLine
 62
7
  6
CONTINUOUS
 10
169.6189267587
 20
162.8640025408
 11
169.9685608184
 21
167.8640025408
  0
LINE
  5
3E5
100
AcDbEntity
  8
3_ALL_AXES
100
AcDbLine
 62
7
  6
CONTINUOUS
 10
173.6733309389
 20
160.8640025408
 11
173.6733309389
 21
154.3640025408
  0
LINE
  5
3E6
100
AcDbEntity
  8
3_ALL_AXES
100
AcDbLine
 62
7
  6
CONTINUOUS
 10
174.1145582071
 20
154.3640025408
 11
174.1145582071
 21
148.3640025408
  0
LINE
  5
3E7
100
AcDbEntity
  8
7_ALL_FEATURES
100
AcDbLine
 62
7
  6
CONTINUOUS
 10
169.4733309391
 20
162.864002541
 11
169.1733309391
 21
162.564002541
  0
LINE
  5
3E8
100
AcDbEntity
  8
7_ALL_FEATURES
100
AcDbLine
 62
7
  6
CONTINUOUS
 10
211.1733309389
 20
132.3640025408
 11
205.1733309389
 21
132.3640025408
  0
LINE
  5
3E9
100
AcDbEntity
  8
7_ALL_FEATURES
100
AcDbLine
 62
7
  6
CONTINUOUS
 10
169.4733309391
 20
160.8640025407
 11
169.1733309391
 21
161.1640025407
  0
LINE
  5
3EA
100
AcDbEntity
  8
7_ALL_FEATURES
100
AcDbLine
 62
9
  6
CONTINUOUS
 10
213.1733309389
 20
134.3640025408
 11
203.1733309389
 21
134.3640025408
  0
LINE
  5
3EB
100
AcDbEntity
  8
7_ALL_FEATURES
100
AcDbLine
 62
7
  6
CONTINUOUS
 10
213.6733309389
 20
135.3640025408
 11
202.6733309389
 21
135.3640025408
  0
LINE
  5
3EC
100
AcDbEntity
  8
02___PRT_ALL_AXES
100
AcDbLine
 62
7
  6
CONTINUOUS
 10
213.6733309389
 20
138.8640025408
 11
202.6733309389
 21
138.8640025408
  0
LINE
  5
3ED
100
AcDbEntity
  8
02___PRT_ALL_AXES
100
AcDbLine
 62
7
  6
CONTINUOUS
 10
213.6733309389
 20
143.8640025408
 11
202.6733309389
 21
143.8640025408
  0
LINE
  5
3EE
100
AcDbEntity
  8
02___PRT_ALL_AXES
100
AcDbLine
 62
7
  6
CONTINUOUS
 10
202.6733309389
 20
147.3640025408
 11
202.6733309389
 21
143.8640025408
  0
LINE
  5
3EF
100
AcDbEntity
  8
02___PRT_ALL_AXES
100
AcDbLine
 62
7
  6
CONTINUOUS
 10
202.6733309389
 20
138.8640025408
 11
202.6733309389
 21
135.3640025408
  0
LINE
  5
3F0
100
AcDbEntity
  8
02___PRT_ALL_AXES
100
AcDbLine
 62
7
  6
CONTINUOUS
 10
203.1733309389
 20
135.3640025408
 11
203.1733309389
 21
134.3640025408
  0
LINE
  5
3F1
100
AcDbEntity
  8
7_ALL_FEATURES
100
AcDbLine
 62
7
  6
CONTINUOUS
 10
203.1733309389
 20
135.3640025408
 11
203.1733309389
 21
134.3640025408
  0
LINE
  5
3F2
100
AcDbEntity
  8
02___PRT_ALL_AXES
100
AcDbLine
 62
7
  6
CONTINUOUS
 10
203.4233309389
 20
138.8640025408
 11
203.4233309389
 21
143.8640025408
  0
LINE
  5
3F3
100
AcDbEntity
  8
3_ALL_AXES
100
AcDbLine
 62
7
  6
CONTINUOUS
 10
175.1279076552
 20
147.3640025408
 11
241.2187542226
 21
147.3640025408
  0
LINE
  5
3F4
100
AcDbEntity
  8
3_ALL_AXES
100
AcDbLine
 62
7
  6
CONTINUOUS
 10
174.1145582071
 20
148.3640025408
 11
242.2321036708
 21
148.3640025408
  0
LINE
  5
3F5
100
AcDbEntity
  8
02___PRT_ALL_AXES
100
AcDbLine
 62
7
  6
CONTINUOUS
 10
208.1733309389
 20
147.3640025408
 11
208.1733309389
 21
143.8640025408
  0
LINE
  5
3F6
100
AcDbEntity
  8
02___PRT_ALL_AXES
100
AcDbLine
 62
7
  6
CONTINUOUS
 10
208.1733309389
 20
138.8640025408
 11
208.1733309389
 21
135.3640025408
  0
LWPOLYLINE
  5
3F7
100
AcDbEntity
  8
0
100
AcDbPolyline
 62
2
  6
CONTINUOUS
 90
2
 70
0
 43
0.1499999927
 10
263.6707049561
 20
151.5782794189
 10
262.170713562
 20
151.5782794189
  0
LINE
  5
3F8
100
AcDbEntity
  8
3_ALL_AXES
100
AcDbLine
 62
7
  6
CONTINUOUS
 10
242.6733309389
 20
154.3640025408
 11
242.2321036708
 21
154.3640025408
  0
LINE
  5
3F9
100
AcDbEntity
  8
3_ALL_AXES
100
AcDbLine
 62
7
  6
CONTINUOUS
 10
174.1145582071
 20
154.3640025408
 11
173.6733309389
 21
154.3640025408
  0
LINE
  5
3FA
100
AcDbEntity
  8
02___PRT_ALL_AXES
100
AcDbLine
 62
7
  6
CONTINUOUS
 10
212.9233309389
 20
138.8640025408
 11
212.9233309389
 21
143.8640025408
  0
LINE
  5
3FB
100
AcDbEntity
  8
02___PRT_ALL_AXES
100
AcDbLine
 62
7
  6
CONTINUOUS
 10
213.1733309389
 20
135.3640025408
 11
213.1733309389
 21
134.3640025408
  0
LINE
  5
3FC
100
AcDbEntity
  8
7_ALL_FEATURES
100
AcDbLine
 62
7
  6
CONTINUOUS
 10
213.1733309389
 20
135.3640025408
 11
213.1733309389
 21
134.3640025408
  0
LINE
  5
3FD
100
AcDbEntity
  8
02___PRT_ALL_AXES
100
AcDbLine
 62
7
  6
CONTINUOUS
 10
213.6733309389
 20
147.3640025408
 11
213.6733309389
 21
143.8640025408
  0
LINE
  5
3FE
100
AcDbEntity
  8
02___PRT_ALL_AXES
100
AcDbLine
 62
7
  6
CONTINUOUS
 10
213.6733309389
 20
138.8640025408
 11
213.6733309389
 21
135.3640025408
  0
LINE
  5
3FF
100
AcDbEntity
  8
7_ALL_FEATURES
100
AcDbLine
 62
7
  6
CONTINUOUS
 10
169.473330939
 20
160.8640025408
 11
246.8733309389
 21
160.8640025408
  0
LINE
  5
400
100
AcDbEntity
  8
7_ALL_FEATURES
100
AcDbLine
 62
7
  6
CONTINUOUS
 10
169.1733309389
 20
161.1640025408
 11
247.1733309389
 21
161.1640025408
  0
LINE
  5
401
100
AcDbEntity
  8
7_ALL_FEATURES
100
AcDbLine
 62
7
  6
CONTINUOUS
 10
169.1733309389
 20
162.5640025408
 11
247.1733309389
 21
162.5640025408
  0
LINE
  5
402
100
AcDbEntity
  8
7_ALL_FEATURES
100
AcDbLine
 62
7
  6
CONTINUOUS
 10
169.473330939
 20
162.8640025408
 11
246.8733309389
 21
162.8640025408
  0
LINE
  5
403
100
AcDbEntity
  8
3_ALL_AXES
100
AcDbLine
 62
7
  6
CONTINUOUS
 10
169.6733309389
 20
167.8640025408
 11
246.6733309389
 21
167.8640025408
  0
LINE
  5
404
100
AcDbEntity
  8
7_ALL_FEATURES
100
AcDbLine
 62
9
  6
CONTINUOUS
 10
169.6733309389
 20
170.8640025408
 11
246.6733309389
 21
170.8640025408
  0
LINE
  5
405
100
AcDbEntity
  8
7_ALL_FEATURES
100
AcDbLine
 62
7
  6
CONTINUOUS
 10
171.6736398047
 20
172.8640025408
 11
244.6730220732
 21
172.8640025408
  0
LINE
  5
406
100
AcDbEntity
  8
7_ALL_FEATURES
100
AcDbLine
 62
7
  6
CONTINUOUS
 10
246.8733309388
 20
160.8640025407
 11
247.1733309388
 21
161.1640025407
  0
LINE
  5
407
100
AcDbEntity
  8
3_ALL_AXES
100
AcDbLine
 62
7
  6
CONTINUOUS
 10
242.2321036708
 20
154.3640025408
 11
242.2321036708
 21
148.3640025408
  0
LINE
  5
408
100
AcDbEntity
  8
3_ALL_AXES
100
AcDbLine
 62
7
  6
CONTINUOUS
 10
242.6733309389
 20
160.8640025408
 11
242.6733309389
 21
154.3640025408
  0
LINE
  5
409
100
AcDbEntity
  8
7_ALL_FEATURES
100
AcDbLine
 62
7
  6
CONTINUOUS
 10
246.8733309386
 20
162.8640025411
 11
247.1733309386
 21
162.5640025411
  0
LWPOLYLINE
  5
40A
100
AcDbEntity
  8
0
100
AcDbPolyline
 62
2
  6
CONTINUOUS
 90
10
 70
0
 43
0.1499999927
 10
251.357277832
 20
161.1854245605
 10
252.0001494141
 20
160.542571106
 10
252.8572873535
 20
160.1140021362
 10
253.9287097778
 20
160.1140021362
 10
254.3572787476
 20
160.542571106
 10
254.3572787476
 20
161.1854245605
 10
253.9287097778
 20
161.6139935303
 10
253.0715718384
 20
161.6139935303
 10
252.6430028687
 20
161.1854245605
 10
252.6430028687
 20
160.256864502
  0
LWPOLYLINE
  5
40B
100
AcDbEntity
  8
0
100
AcDbPolyline
 62
2
  6
CONTINUOUS
 90
3
 70
0
 43
0.1499999927
 10
261.5278601074
 20
152.9354265747
 10
260.6707040405
 20
153.7925826416
 10
263.6707049561
 20
153.7925826416
  0
LINE
  5
40C
100
AcDbEntity
  8
3_ALL_AXES
100
AcDbLine
 62
7
  6
CONTINUOUS
 10
246.7277351191
 20
162.8640025408
 11
246.3781010594
 21
167.8640025408
  0
LINE
  5
40D
100
AcDbEntity
  8
3_ALL_AXES
100
AcDbLine
 62
7
  6
CONTINUOUS
 10
246.6733309389
 20
167.8640025408
 11
246.6733309389
 21
170.8640025408
  0
LINE
  5
40E
100
AcDbEntity
  8
3_ALL_AXES
100
AcDbLine
 62
7
  6
CONTINUOUS
 10
247.1733309389
 20
162.5640025408
 11
247.1733309389
 21
161.1640025408
  0
LINE
  5
40F
100
AcDbEntity
  8
7_ALL_FEATURES
100
AcDbLine
 62
7
  6
CONTINUOUS
 10
247.1733309389
 20
161.1640025408
 11
247.1733309389
 21
162.5640025408
  0
LWPOLYLINE
  5
410
100
AcDbEntity
  8
0
100
AcDbPolyline
 62
2
  6
CONTINUOUS
 90
7
 70
0
 43
0.1499999927
 10
254.3572787476
 20
159.2568641968
 10
254.3572787476
 20
157.7568546753
 10
252.2144338989
 20
159.2568641968
 10
251.7858649292
 20
159.2568641968
 10
251.357277832
 20
158.8282952271
 10
251.357277832
 20
158.185423645
 10
252.0001494141
 20
157.7568546753
  0
LWPOLYLINE
  5
411
100
AcDbEntity
  8
0
100
AcDbPolyline
 62
2
  6
CONTINUOUS
 90
3
 70
0
 43
0.1499999927
 10
263.0278515015
 20
152.0782886353
 10
263.0278515015
 20
150.5782972412
 10
260.6707040405
 20
151.2211506958
  0
LWPOLYLINE
  5
412
100
AcDbEntity
  8
0
100
AcDbPolyline
 62
2
  6
CONTINUOUS
 90
13
 70
0
 43
0.1499999927
 10
112.7701694641
 20
99.5359812927
 10
112.4171647339
 20
99.4817621155
 10
111.9578516235
 20
99.9315311279
 10
111.8515341797
 20
100.4355193176
 10
112.3013031921
 20
100.8948414917
 10
112.8074122925
 20
100.7991376648
 10
113.2667344666
 20
100.3493686523
 10
113.2199384766
 20
99.9953034668
 10
113.8260022888
 20
100.0016661987
 10
114.4384197693
 20
99.4019741821
 10
114.4447915649
 20
98.7959194336
 10
113.9950225525
 20
98.3365972595
 10
113.3889587402
 20
98.3302345276
  0
LWPOLYLINE
  5
413
100
AcDbEntity
  8
0
100
AcDbPolyline
 62
2
  6
CONTINUOUS
 90
2
 70
0
 43
0.1499999927
 10
109.9582407532
 20
93.142133606
 10
108.4921114197
 20
98.0767585144
  0
LWPOLYLINE
  5
414
100
AcDbEntity
  8
0
100
AcDbPolyline
 62
2
  6
CONTINUOUS
 90
13
 70
0
 43
0.1499999927
 10
108.1757150574
 20
94.5377018738
 10
107.8147523804
 20
95.2410556641
 10
107.8073291931
 20
95.9481255798
 10
108.1534364319
 20
96.6589025574
 10
108.8567902222
 20
97.0198652344
 10
109.5638601379
 20
97.0272974854
 10
110.2746371155
 20
96.6811902466
 10
110.6355997925
 20
95.9778364563
 10
110.6430320435
 20
95.2707665405
 10
110.2969248047
 20
94.5599804993
 10
109.5935710144
 20
94.199026886
 10
108.8865010986
 20
94.191594635
 10
108.1757150574
 20
94.5377018738
  0
LWPOLYLINE
  5
415
100
AcDbEntity
  8
0
100
AcDbPolyline
 62
2
  6
CONTINUOUS
 90
4
 70
0
 43
0.1499999927
 10
110.3618572998
 20
97.9953753662
 10
109.9025351257
 20
98.4451443787
 10
110.9519961548
 20
99.5168840332
 10
112.495792511
 20
96.8055444946
  0
LWPOLYLINE
  5
416
100
AcDbEntity
  8
0
100
AcDbPolyline
 62
2
  6
CONTINUOUS
 90
4
 70
0
 43
0.1499999927
 10
113.3889587402
 20
98.3302345276
 10
112.7765412598
 20
98.9299265442
 10
112.7701694641
 20
99.5359812927
 10
113.2199384766
 20
99.9953034668
  0
ARC
  5
417
100
AcDbEntity
  8
7_ALL_FEATURES
100
AcDbCircle
 62
7
  6
CONTINUOUS
 10
61.1474026851
 20
134.3640025408
 40
2.0
100
AcDbArc
 50
180.0
 51
270.0
  0
ARC
  5
418
100
AcDbEntity
  8
7_ALL_FEATURES
100
AcDbCircle
 62
7
  6
CONTINUOUS
 10
67.1474026851
 20
134.3640025408
 40
2.0
100
AcDbArc
 50
270.0
 51
360.0
  0
ARC
  5
419
100
AcDbEntity
  8
7_ALL_FEATURES
100
AcDbCircle
 62
7
  6
CONTINUOUS
 10
41.6474026851
 20
170.8640025408
 40
2.0
100
AcDbArc
 50
90.0
 51
180.0
  0
ARC
  5
41A
100
AcDbEntity
  8
7_ALL_FEATURES
100
AcDbCircle
 62
7
  6
CONTINUOUS
 10
114.6474026851
 20
170.8640025408
 40
2.0
100
AcDbArc
 50
0.0
 51
90.0
  0
CIRCLE
  5
41B
100
AcDbEntity
  8
7_ALL_FEATURES
100
AcDbCircle
 62
7
  6
CONTINUOUS
 10
78.1474026851
 20
60.6558815629
 40
39.0
  0
CIRCLE
  5
41C
100
AcDbEntity
  8
7_ALL_FEATURES
100
AcDbCircle
 62
7
  6
CONTINUOUS
 10
78.1474026851
 20
60.6558815629
 40
38.7
  0
CIRCLE
  5
41D
100
AcDbEntity
  8
3_ALL_AXES
100
AcDbCircle
 62
7
  6
CONTINUOUS
 10
78.1474026851
 20
60.6558815629
 40
38.5544041802
  0
CIRCLE
  5
41E
100
AcDbEntity
  8
7_ALL_FEATURES
100
AcDbCircle
 62
7
  6
CONTINUOUS
 10
78.1474026851
 20
60.6558815629
 40
38.5
  0
CIRCLE
  5
41F
100
AcDbEntity
  8
7_ALL_FEATURES
100
AcDbCircle
 62
9
  6
CONTINUOUS
 10
78.1474026851
 20
60.6558815629
 40
36.4999999648
  0
CIRCLE
  5
420
100
AcDbEntity
  8
7_ALL_FEATURES
100
AcDbCircle
 62
7
  6
CONTINUOUS
 10
78.1474026851
 20
60.6558815629
 40
6.25
  0
CIRCLE
  5
421
100
AcDbEntity
  8
7_ALL_FEATURES
100
AcDbCircle
 62
7
  6
CONTINUOUS
 10
78.1474026851
 20
60.6558815629
 40
3.25
  0
ARC
  5
422
100
AcDbEntity
  8
7_ALL_FEATURES
100
AcDbCircle
 62
7
  6
CONTINUOUS
 10
211.1733309389
 20
134.3640025408
 40
2.0
100
AcDbArc
 50
270.0
 51
360.0
  0
ARC
  5
423
100
AcDbEntity
  8
7_ALL_FEATURES
100
AcDbCircle
 62
7
  6
CONTINUOUS
 10
205.1733309389
 20
134.3640025408
 40
2.0
100
AcDbArc
 50
180.0
 51
270.0
  0
ARC
  5
424
100
AcDbEntity
  8
7_ALL_FEATURES
100
AcDbCircle
 62
7
  6
CONTINUOUS
 10
244.6733309389
 20
170.8640025408
 40
2.0
100
AcDbArc
 50
0.0
 51
90.0000007688
  0
ARC
  5
425
100
AcDbEntity
  8
7_ALL_FEATURES
100
AcDbCircle
 62
7
  6
CONTINUOUS
 10
171.6733309389
 20
170.8640025408
 40
2.0
100
AcDbArc
 50
89.9999992312
 51
180.0
  0
LINE
  5
426
100
AcDbEntity
  8
3_ALL_AXES
100
AcDbLine
 62
7
  6
CONTINUOUS
 10
174.1145582071
 20
148.3640025408
 11
175.1279076552
 21
147.3640025408
  0
LINE
  5
427
100
AcDbEntity
  8
3_ALL_AXES
100
AcDbLine
 62
7
  6
CONTINUOUS
 10
241.2187542226
 20
147.3640025408
 11
242.2321036708
 21
148.3640025408
  0
ENDSEC
  0
SECTION
  2
OBJECTS
  0
DICTIONARY
  5
C
100
AcDbDictionary
280
0
281
1
  3
ACAD_GROUP
350
D
  3
ACAD_MLINESTYLE
350
17
  3
ACAD_LAYOUT
350
1A
  3
ACAD_PLOTSETTINGS
350
19
  3
ACAD_PLOTSTYLENAME
350
E
  3
ACAD_TABLESTYLE
350
       428
  0
DICTIONARY
  5
D
102
{ACAD_REACTORS
330
C
102
}
100
AcDbDictionary
280
0
281
1
  0
ACDBDICTIONARYWDFLT
  5
E
102
{ACAD_REACTORS
330
C
102
}
100
AcDbDictionary
281
1
  3
Normal
350
F
100
AcDbDictionaryWithDefault
340
F
  0
DICTIONARY
  5
17
102
{ACAD_REACTORS
330
C
102
}
100
AcDbDictionary
280
0
281
1
  3
Standard
350
18
  0
DICTIONARY
  5
428
330
C
100
AcDbDictionary
281
1
  3
Standard
350
       42B
  3
Standard1
350
       42C
  0
DICTIONARY
  5
19
102
{ACAD_REACTORS
330
C
102
}
100
AcDbDictionary
281
1
  0
DICTIONARY
  5
1A
102
{ACAD_REACTORS
330
C
102
}
100
AcDbDictionary
281
1
  3
Model
350
429
  3
Layout1
350
42A
  0
ACDBPLACEHOLDER
  5
F
102
{ACAD_REACTORS
330
E
102
}
  0
MLINESTYLE
  5
18
102
{ACAD_REACTORS
330
17
102
}
100
AcDbMlineStyle
  2
STANDARD
 70
0
  3

 62
256
 51
90.0
 52
90.0
 71
2
 49
0.5
 62
256
  6
BYLAYER
 49
-0.5
 62
256
  6
BYLAYER
  0
LAYOUT
  5
429
102
{ACAD_REACTORS
330
1A
102
}
100
AcDbPlotSettings
  1

  2
none_device
  4
ISO_A4_(297.00_x_210.00_MM)
  6

 40
0.0
 41
0.0
 42
0.0
 43
0.0
 44
297.0
 45
210.0
 46
0.0
 47
0.0
 48
0.0
 49
0.0
140
0.0
141
0.0
142
1.0
143
1.0
 70
1024
 72
1
 73
0
 74
0
  7

 75
0
147
1.0
148
0.0
149
0.0
100
AcDbLayout
  1
Model
 70
0
 71
0
 10
0.0
 20
0.0
 11
297.0
 21
210.0
 12
0.0
 22
0.0
 32
0.0
 14
0.0
 24
0.0
 34
0.0
 15
0.0
 25
0.0
 35
0.0
146
0.0
 13
0.0
 23
0.0
 33
0.0
 16
1.0
 26
0.0
 36
0.0
 17
0.0
 27
1.0
 37
0.0
 76
0
330
221
345
0
346
0
  0
LAYOUT
  5
42A
102
{ACAD_REACTORS
330
1A
102
}
100
AcDbPlotSettings
  1

  2
none_device
  4
ISO_A4_(297.00_x_210.00_MM)
  6

 40
0.0
 41
0.0
 42
0.0
 43
0.0
 44
297.0
 45
210.0
 46
0.0
 47
0.0
 48
0.0
 49
0.0
140
0.0
141
0.0
142
1.0
143
1.0
 70
0
 72
1
 73
0
 74
0
  7

 75
0
147
1.0
148
0.0
149
0.0
100
AcDbLayout
  1
Layout1
 70
0
 71
1
 10
0.0
 20
0.0
 11
297.0
 21
210.0
 12
0.0
 22
0.0
 32
0.0
 14
0.0
 24
0.0
 34
0.0
 15
0.0
 25
0.0
 35
0.0
146
0.0
 13
0.0
 23
0.0
 33
0.0
 16
1.0
 26
0.0
 36
0.0
 17
0.0
 27
1.0
 37
0.0
 76
0
330
222
345
0
346
0
  0
TABLESTYLE
  5
42B
102
{ACAD_REACTORS
330
428
330
3AA
102
}
330
428
100
AcDbTableStyle
  3
Standard
 70
0
 71
0
 40
0.06
 41
0.06
280
1
281
1
  7
Standard
140
0.18
170
1
 62
0
 63
7
283
0
  7
Standard
140
0.18
170
1
 62
0
 63
7
283
0
  7
Standard
140
0.18
170
1
 62
0
 63
7
283
0
  0
TABLESTYLE
  5
42C
102
{ACAD_REACTORS
330
428
102
}
330
428
100
AcDbTableStyle
  3
Standard1
 70
1
 71
0
 40
0.06
 41
0.06
280
1
281
1
  7
Standard
140
0.18
170
1
 62
0
 63
7
283
0
  7
Standard
140
0.18
170
1
 62
0
 63
7
283
0
  7
Standard
140
0.18
170
1
 62
0
 63
7
283
0
  0
ENDSEC
  0
EOF
