999
DXF file: 6e3_c_001.dxf
999
Pro/ENGINEER 2016360 by Parametric Technology Corporation
  0
SECTION
  2
HEADER
  9
$ACADVER
  1
AC1014
  9
$DWGCODEPAGE
  3
ANSI_1252
  9
$EXTMAX
 10
594.0
 20
420.0
 30
0.0
  9
$EXTMIN
 10
0.0
 20
0.0
 30
0.0
  9
$LIMMIN
 10
0.0
 20
0.0
  9
$LIMMAX
 10
594.0
 20
420.0
  9
$VIEWCTR
 10
297.0
 20
210.0
  9
$VIEWSIZE
 40
420.0
  9
$CLAYER
  8
0
  9
$LTSCALE
 40
32.67
  9
$CELTYPE
  6
BYLAYER
  9
$DIMSCALE
 40
1.0
  9
$DIMASZ
 40
2.5
  9
$DIMEXO
 40
0.75
  9
$DIMDLI
 40
22.572
  9
$DIMEXE
 40
0.75
  9
$DIMCEN
 40
5.346
  9
$DIMLFAC
 40
1.0
  9
$DIMBLK
  1
_CLOSED
  9
$DIMALT
 70
0
  9
$DIMALTF
 40
25.4
  9
$DIMTXT
 40
3.0
  9
$DIMTOL
 70
1
  9
$DIMLIM
 70
0
  9
$DIMTFAC
 40
1.0
  9
$DIMTP
 40
0.01
  9
$DIMTM
 40
0.01
  9
$DIMGAP
 40
0.625
  9
$AUNITS
 70
0
  9
$PDMODE
 70
3
  9
$PDSIZE
 40
0.3125
  9
$HANDSEED
  5
667
  9
$TILEMODE
 70
1
  9
$MEASUREMENT
 70
1
  0
ENDSEC
  0
SECTION
  2
CLASSES
  0
ENDSEC
  0
SECTION
  2
TABLES
  0
TABLE
  2
VPORT
  5
8
100
AcDbSymbolTable
 70
2
  0
VPORT
  5
1F4
100
AcDbSymbolTableRecord
100
AcDbViewportTableRecord
  2
*ACTIVE
 70
0
 10
0.0
 20
0.0
 11
1.0
 21
1.0
 12
297.0
 22
210.0
 13
0.0
 23
0.0
 14
1.0
 24
1.0
 15
0.0
 25
0.0
 16
0.0
 26
0.0
 36
1.0
 17
0.0
 27
0.0
 37
0.0
 40
420.0
 41
1.4142857143
 42
50.0
 43
0.0
 44
0.0
 50
0.0
 51
0.0
 71
0
 72
100
 73
1
 74
1
 75
0
 76
0
 77
0
 78
0
  0
ENDTAB
  0
TABLE
  2
LTYPE
  5
5
100
AcDbSymbolTable
 70
6
  0
LTYPE
  5
14
100
AcDbSymbolTableRecord
100
AcDbLinetypeTableRecord
  2
BYBLOCK
 70
0
  3

 72
65
 73
0
 40
0.0
  0
LTYPE
  5
15
100
AcDbSymbolTableRecord
100
AcDbLinetypeTableRecord
  2
BYLAYER
 70
0
  3

 72
65
 73
0
 40
0.0
  0
LTYPE
  5
16
100
AcDbSymbolTableRecord
100
AcDbLinetypeTableRecord
  2
CONTINUOUS
 70
64
  3
Solid line
 72
65
 73
0
 40
0.0
  0
LTYPE
  5
1F5
100
AcDbSymbolTableRecord
100
AcDbLinetypeTableRecord
  2
CENTER
 70
64
  3
____ _ ____ _ ____ _ ____ _ ____ _ ____ _ ____
 72
65
 73
4
 40
0.6
 49
0.375
 74
0
 49
-0.075
 74
0
 49
0.075
 74
0
 49
-0.075
 74
0
  0
LTYPE
  5
1F6
100
AcDbSymbolTableRecord
100
AcDbLinetypeTableRecord
  2
HIDDEN
 70
64
  3
- - - - - - - - - - - - - - - - - - - -
 72
65
 73
2
 40
0.2
 49
0.1
 74
0
 49
-0.1
 74
0
  0
LTYPE
  5
1F7
100
AcDbSymbolTableRecord
100
AcDbLinetypeTableRecord
  2
PHANTOM
 70
64
  3
_____ _ _ _____ _ _ _____ _ _ _____
 72
65
 73
6
 40
0.8
 49
0.45
 74
0
 49
-0.05
 74
0
 49
0.1
 74
0
 49
-0.05
 74
0
 49
0.1
 74
0
 49
-0.05
 74
0
  0
LTYPE
  5
1F8
100
AcDbSymbolTableRecord
100
AcDbLinetypeTableRecord
  2
DOT
 70
64
  3
. . . . . . . . . . . . . . . . . . . .
 72
65
 73
2
 40
0.2
 49
0.1
 74
0
 49
-0.1
 74
0
  0
LTYPE
  5
1F9
100
AcDbSymbolTableRecord
100
AcDbLinetypeTableRecord
  2
DASHED
 70
64
  3
- - - - - - - - - - - - - - - - - - - -
 72
65
 73
2
 40
0.2
 49
0.1
 74
0
 49
-0.1
 74
0
  0
ENDTAB
  0
TABLE
  2
LAYER
  5
2
100
AcDbSymbolTable
 70
36
  0
LAYER
  5
10
100
AcDbSymbolTableRecord
100
AcDbLayerTableRecord
  2
0
 70
0
 62
7
  6
CONTINUOUS
  0
LAYER
  5
1FA
100
AcDbSymbolTableRecord
100
AcDbLayerTableRecord
  2
DEFAULT_1
 70
0
 62
7
  6
CENTER
  0
LAYER
  5
1FB
100
AcDbSymbolTableRecord
100
AcDbLayerTableRecord
  2
DEFAULT_2
 70
0
 62
8
  6
HIDDEN
  0
LAYER
  5
1FC
100
AcDbSymbolTableRecord
100
AcDbLayerTableRecord
  2
DEFAULT_3
 70
0
 62
7
  6
PHANTOM
  0
LAYER
  5
1FD
100
AcDbSymbolTableRecord
100
AcDbLayerTableRecord
  2
01_ALL_DTM_PLN
 70
0
 62
7
  6
CONTINUOUS
  0
LAYER
  5
1FE
100
AcDbSymbolTableRecord
100
AcDbLayerTableRecord
  2
01__ASM_ALL_DTM_PLN
 70
0
 62
7
  6
CONTINUOUS
  0
LAYER
  5
1FF
100
AcDbSymbolTableRecord
100
AcDbLayerTableRecord
  2
01__ASM_DEF_DTM_PLN
 70
0
 62
7
  6
CONTINUOUS
  0
LAYER
  5
200
100
AcDbSymbolTableRecord
100
AcDbLayerTableRecord
  2
01___PRT_ALL_DTM_PLN
 70
0
 62
7
  6
CONTINUOUS
  0
LAYER
  5
201
100
AcDbSymbolTableRecord
100
AcDbLayerTableRecord
  2
01___PRT_DEF_DTM_PLN
 70
0
 62
7
  6
CONTINUOUS
  0
LAYER
  5
202
100
AcDbSymbolTableRecord
100
AcDbLayerTableRecord
  2
02_ALL_AXES
 70
0
 62
7
  6
CONTINUOUS
  0
LAYER
  5
203
100
AcDbSymbolTableRecord
100
AcDbLayerTableRecord
  2
02__ASM_ALL_AXES
 70
0
 62
7
  6
CONTINUOUS
  0
LAYER
  5
204
100
AcDbSymbolTableRecord
100
AcDbLayerTableRecord
  2
02___PRT_ALL_AXES
 70
0
 62
7
  6
CONTINUOUS
  0
LAYER
  5
205
100
AcDbSymbolTableRecord
100
AcDbLayerTableRecord
  2
03_ALL_CURVES
 70
0
 62
7
  6
CONTINUOUS
  0
LAYER
  5
206
100
AcDbSymbolTableRecord
100
AcDbLayerTableRecord
  2
03__ASM_ALL_CURVES
 70
0
 62
7
  6
CONTINUOUS
  0
LAYER
  5
207
100
AcDbSymbolTableRecord
100
AcDbLayerTableRecord
  2
03___PRT_ALL_CURVES
 70
0
 62
7
  6
CONTINUOUS
  0
LAYER
  5
208
100
AcDbSymbolTableRecord
100
AcDbLayerTableRecord
  2
04_ALL_DTM_PNT
 70
0
 62
7
  6
CONTINUOUS
  0
LAYER
  5
209
100
AcDbSymbolTableRecord
100
AcDbLayerTableRecord
  2
04__ASM_ALL_DTM_PNT
 70
0
 62
7
  6
CONTINUOUS
  0
LAYER
  5
20A
100
AcDbSymbolTableRecord
100
AcDbLayerTableRecord
  2
04___PRT_ALL_DTM_PNT
 70
0
 62
7
  6
CONTINUOUS
  0
LAYER
  5
20B
100
AcDbSymbolTableRecord
100
AcDbLayerTableRecord
  2
05_ALL_DTM_CSYS
 70
0
 62
7
  6
CONTINUOUS
  0
LAYER
  5
20C
100
AcDbSymbolTableRecord
100
AcDbLayerTableRecord
  2
05__ASM_ALL_DTM_CSYS
 70
0
 62
7
  6
CONTINUOUS
  0
LAYER
  5
20D
100
AcDbSymbolTableRecord
100
AcDbLayerTableRecord
  2
05__ASM_DEF_DTM_CSYS
 70
0
 62
7
  6
CONTINUOUS
  0
LAYER
  5
20E
100
AcDbSymbolTableRecord
100
AcDbLayerTableRecord
  2
05___PRT_ALL_DTM_CSYS
 70
0
 62
7
  6
CONTINUOUS
  0
LAYER
  5
20F
100
AcDbSymbolTableRecord
100
AcDbLayerTableRecord
  2
05___PRT_DEF_DTM_CSYS
 70
0
 62
7
  6
CONTINUOUS
  0
LAYER
  5
210
100
AcDbSymbolTableRecord
100
AcDbLayerTableRecord
  2
06_ALL_SURFS
 70
0
 62
7
  6
CONTINUOUS
  0
LAYER
  5
211
100
AcDbSymbolTableRecord
100
AcDbLayerTableRecord
  2
06__ASM_ALL_SURFS
 70
0
 62
7
  6
CONTINUOUS
  0
LAYER
  5
212
100
AcDbSymbolTableRecord
100
AcDbLayerTableRecord
  2
06___PRT_ALL_SURFS
 70
0
 62
7
  6
CONTINUOUS
  0
LAYER
  5
213
100
AcDbSymbolTableRecord
100
AcDbLayerTableRecord
  2
07__ASM_ALL_SKELETONS
 70
0
 62
7
  6
CONTINUOUS
  0
LAYER
  5
214
100
AcDbSymbolTableRecord
100
AcDbLayerTableRecord
  2
1_ALL_PLANES
 70
0
 62
7
  6
CONTINUOUS
  0
LAYER
  5
215
100
AcDbSymbolTableRecord
100
AcDbLayerTableRecord
  2
2_ALL_CSYS
 70
0
 62
7
  6
CONTINUOUS
  0
LAYER
  5
216
100
AcDbSymbolTableRecord
100
AcDbLayerTableRecord
  2
3_ALL_AXES
 70
0
 62
7
  6
CONTINUOUS
  0
LAYER
  5
217
100
AcDbSymbolTableRecord
100
AcDbLayerTableRecord
  2
4_ALL_POINTS
 70
0
 62
7
  6
CONTINUOUS
  0
LAYER
  5
218
100
AcDbSymbolTableRecord
100
AcDbLayerTableRecord
  2
5_ALL_CURVES
 70
0
 62
7
  6
CONTINUOUS
  0
LAYER
  5
219
100
AcDbSymbolTableRecord
100
AcDbLayerTableRecord
  2
5__COSTRUZIONE
 70
0
 62
7
  6
CONTINUOUS
  0
LAYER
  5
21A
100
AcDbSymbolTableRecord
100
AcDbLayerTableRecord
  2
6_ALL_SURFS
 70
0
 62
7
  6
CONTINUOUS
  0
LAYER
  5
21B
100
AcDbSymbolTableRecord
100
AcDbLayerTableRecord
  2
7_ALL_FEATURES
 70
0
 62
7
  6
CONTINUOUS
  0
LAYER
  5
21C
100
AcDbSymbolTableRecord
100
AcDbLayerTableRecord
  2
9_SOLID
 70
0
 62
7
  6
CONTINUOUS
  0
LAYER
  5
21D
100
AcDbSymbolTableRecord
100
AcDbLayerTableRecord
  2
CLOSED_SHELL
 70
0
 62
7
  6
CONTINUOUS
  0
LAYER
  5
21E
100
AcDbSymbolTableRecord
100
AcDbLayerTableRecord
  2
INTFCLR_2
 70
0
 62
7
  6
CONTINUOUS
  0
LAYER
  5
21F
100
AcDbSymbolTableRecord
100
AcDbLayerTableRecord
  2
INTFCLR_4
 70
0
 62
7
  6
CONTINUOUS
  0
LAYER
  5
220
100
AcDbSymbolTableRecord
100
AcDbLayerTableRecord
  2
XXX_SOLIDO
 70
0
 62
7
  6
CONTINUOUS
  0
ENDTAB
  0
TABLE
  2
STYLE
  5
3
100
AcDbSymbolTable
 70
1
  0
STYLE
  5
11
100
AcDbSymbolTableRecord
100
AcDbTextStyleTableRecord
  2
STANDARD
 70
0
 40
0.0
 41
1.0
 50
0.0
 71
0
 42
0.2
  3
arial.ttf
  4

  0
STYLE
  5
221
100
AcDbSymbolTableRecord
100
AcDbTextStyleTableRecord
  2
TEXTSTYLE_1
 70
0
 40
0.0
 41
0.8
 50
0.0
 71
0
 42
0.2
  3
gdt
  4

  0
STYLE
  5
222
100
AcDbSymbolTableRecord
100
AcDbTextStyleTableRecord
  2
TEXTSTYLE_2
 70
0
 40
0.0
 41
0.85
 50
0.0
 71
0
 42
0.2
  3
txt
  4

  0
ENDTAB
  0
TABLE
  2
VIEW
  5
6
100
AcDbSymbolTable
 70
0
  0
ENDTAB
  0
TABLE
  2
UCS
  5
7
100
AcDbSymbolTable
 70
0
  0
ENDTAB
  0
TABLE
  2
APPID
  5
9
100
AcDbSymbolTable
 70
1
  0
APPID
  5
223
100
AcDbSymbolTableRecord
100
AcDbRegAppTableRecord
  2
ACAD
 70
0
  0
ENDTAB
  0
TABLE
  2
BLOCK_RECORD
  5
1
100
AcDbSymbolTable
 70
0
  0
BLOCK_RECORD
  5
1F
100
AcDbSymbolTableRecord
100
AcDbBlockTableRecord
  2
*MODEL_SPACE
  0
BLOCK_RECORD
  5
1B
100
AcDbSymbolTableRecord
100
AcDbBlockTableRecord
  2
*PAPER_SPACE
  0
BLOCK_RECORD
  5
224
100
AcDbSymbolTableRecord
100
AcDbBlockTableRecord
  2
_CLOSED
  0
BLOCK_RECORD
  5
225
100
AcDbSymbolTableRecord
100
AcDbBlockTableRecord
  2
*D0
  0
BLOCK_RECORD
  5
226
100
AcDbSymbolTableRecord
100
AcDbBlockTableRecord
  2
*D1
  0
BLOCK_RECORD
  5
227
100
AcDbSymbolTableRecord
100
AcDbBlockTableRecord
  2
*D2
  0
BLOCK_RECORD
  5
228
100
AcDbSymbolTableRecord
100
AcDbBlockTableRecord
  2
*D3
  0
BLOCK_RECORD
  5
229
100
AcDbSymbolTableRecord
100
AcDbBlockTableRecord
  2
*D4
  0
BLOCK_RECORD
  5
22A
100
AcDbSymbolTableRecord
100
AcDbBlockTableRecord
  2
*D5
  0
BLOCK_RECORD
  5
22B
100
AcDbSymbolTableRecord
100
AcDbBlockTableRecord
  2
LOGO2_BL0
  0
ENDTAB
  0
TABLE
  2
DIMSTYLE
  5
A
100
AcDbSymbolTable
 70
1
  0
DIMSTYLE
105
22C
100
AcDbSymbolTableRecord
100
AcDbDimStyleTableRecord
  2
STANDARD
 70
0
  3

  4

  5
_CLOSED
  6
_CLOSED
  7
_CLOSED
 40
1.0
 41
2.5
 42
0.75
 43
0.38
 44
0.75
 45
0.0
 46
0.0
 47
0.01
 48
0.01
140
3.0
141
0.09
142
0.0
143
25.4
144
1.0
145
0.0
146
1.0
147
0.625
 71
1.0
 72
0.0
 73
0
 74
0
 75
0
 76
0
 77
1
 78
8
 79
2
170
0
171
1
172
0
173
0
174
0
175
0
176
0
177
0
178
0
270
2
179
2
271
2
272
2
273
2
274
2
275
0
280
0
281
0
282
0
283
1
284
8
285
0
286
0
287
3
288
0
340
11
  0
DIMSTYLE
105
22D
100
AcDbSymbolTableRecord
100
AcDbDimStyleTableRecord
  2
DIMSTYLE_1
 70
0
  3

  4

  5
_CLOSED
  6
_CLOSED
  7
_CLOSED
 40
1.0
 41
2.5
 42
0.75
 43
0.38
 44
0.75
 45
0.0
 46
0.0
 47
0.5
 48
0.5
140
3.0
141
0.09
142
0.0
143
25.4
144
1.0
145
0.0
146
1.0
147
0.75
 71
0.0
 72
0.0
 73
0
 74
0
 75
0
 76
0
 77
1
 78
8
 79
2
170
0
171
1
172
0
173
0
174
0
175
0
176
0
177
0
178
0
270
2
179
2
271
2
272
2
273
2
274
2
275
0
280
0
281
0
282
0
283
1
284
8
285
0
286
0
287
3
288
0
340
11
  0
DIMSTYLE
105
22E
100
AcDbSymbolTableRecord
100
AcDbDimStyleTableRecord
  2
DIMSTYLE_2
 70
0
  3

  4

  5
_CLOSED
  6
_CLOSED
  7
_CLOSED
 40
1.0
 41
2.5
 42
0.75
 43
0.38
 44
0.75
 45
0.0
 46
0.0
 47
0.3
 48
0.3
140
3.0
141
0.09
142
0.0
143
25.4
144
1.0
145
0.0
146
1.0
147
0.75
 71
0.0
 72
0.0
 73
0
 74
0
 75
0
 76
0
 77
1
 78
8
 79
2
170
0
171
1
172
0
173
0
174
0
175
0
176
0
177
0
178
0
270
2
179
2
271
2
272
2
273
2
274
2
275
0
280
0
281
0
282
0
283
1
284
8
285
0
286
0
287
3
288
0
340
11
  0
DIMSTYLE
105
22F
100
AcDbSymbolTableRecord
100
AcDbDimStyleTableRecord
  2
DIMSTYLE_3
 70
0
  3

  4

  5
_CLOSED
  6
_CLOSED
  7
_CLOSED
 40
1.0
 41
2.5
 42
0.75
 43
0.38
 44
0.75
 45
0.0
 46
0.0
 47
0.1
 48
0.1
140
3.0
141
0.09
142
0.0
143
25.4
144
1.0
145
0.0
146
1.0
147
0.75
 71
0.0
 72
0.0
 73
0
 74
0
 75
0
 76
0
 77
1
 78
8
 79
2
170
0
171
1
172
0
173
0
174
0
175
0
176
0
177
0
178
0
270
2
179
2
271
2
272
2
273
2
274
2
275
0
280
0
281
0
282
0
283
1
284
8
285
0
286
0
287
3
288
0
340
11
  0
ENDTAB
  0
ENDSEC
  0
SECTION
  2
BLOCKS
  0
BLOCK
  5
20
100
AcDbEntity
  8
0
100
AcDbBlockBegin
  2
*MODEL_SPACE
 70
0
 10
0.0
 20
0.0
 30
0.0
  3
*MODEL_SPACE
  1

  0
ENDBLK
  5
21
100
AcDbEntity
  8
0
100
AcDbBlockEnd
  0
BLOCK
  5
1C
100
AcDbEntity
  8
0
100
AcDbBlockBegin
  2
*PAPER_SPACE
 70
0
 10
0.0
 20
0.0
 30
0.0
  3
*PAPER_SPACE
  1

  0
ENDBLK
  5
1D
100
AcDbEntity
  8
0
100
AcDbBlockEnd
  0
BLOCK
  5
230
100
AcDbEntity
  8
0
100
AcDbBlockBegin
 62
2
  6
CONTINUOUS
  2
LOGO2_BL0
 70
64
 10
507.9229349966
 20
36.8800379518
  3
LOGO2_BL0
  1

  0
LINE
  5
231
100
AcDbEntity
  8
0
100
AcDbLine
 62
7
  6
CONTINUOUS
 10
499.6658602248
 20
40.0755292907
 11
498.3615192954
 21
40.0755292907
  0
LINE
  5
232
100
AcDbEntity
  8
0
100
AcDbLine
 62
7
  6
CONTINUOUS
 10
498.3615192954
 20
40.0755292907
 11
498.3615192954
 21
29.6164632308
  0
LINE
  5
233
100
AcDbEntity
  8
0
100
AcDbLine
 62
7
  6
CONTINUOUS
 10
498.3615192954
 20
29.6164632308
 11
502.8425741837
 21
29.6164632308
  0
LINE
  5
234
100
AcDbEntity
  8
0
100
AcDbLine
 62
7
  6
CONTINUOUS
 10
502.8425741837
 20
29.6164632308
 11
502.8425741837
 21
30.8093175559
  0
LINE
  5
235
100
AcDbEntity
  8
0
100
AcDbLine
 62
7
  6
CONTINUOUS
 10
502.8425741837
 20
30.8093175559
 11
499.6658602248
 21
30.8093175559
  0
LINE
  5
236
100
AcDbEntity
  8
0
100
AcDbLine
 62
7
  6
CONTINUOUS
 10
499.6658602248
 20
30.8093175559
 11
499.6658602248
 21
40.0755292907
  0
LINE
  5
237
100
AcDbEntity
  8
0
100
AcDbLine
 62
7
  6
CONTINUOUS
 10
514.6021864411
 20
40.0755292907
 11
513.298368923
 21
40.0755292907
  0
LINE
  5
238
100
AcDbEntity
  8
0
100
AcDbLine
 62
7
  6
CONTINUOUS
 10
513.298368923
 20
40.0755292907
 11
513.298368923
 21
29.6164632308
  0
LINE
  5
239
100
AcDbEntity
  8
0
100
AcDbLine
 62
7
  6
CONTINUOUS
 10
513.298368923
 20
29.6164632308
 11
517.7795546641
 21
29.6164632308
  0
LINE
  5
23A
100
AcDbEntity
  8
0
100
AcDbLine
 62
7
  6
CONTINUOUS
 10
517.7795546641
 20
29.6164632308
 11
517.7795546641
 21
30.8093175559
  0
LINE
  5
23B
100
AcDbEntity
  8
0
100
AcDbLine
 62
7
  6
CONTINUOUS
 10
517.7795546641
 20
30.8093175559
 11
514.6021864411
 21
30.8093175559
  0
LINE
  5
23C
100
AcDbEntity
  8
0
100
AcDbLine
 62
7
  6
CONTINUOUS
 10
514.6021864411
 20
30.8093175559
 11
514.6021864411
 21
40.0755292907
  0
LWPOLYLINE
  5
23D
100
AcDbEntity
  8
0
100
AcDbPolyline
 62
7
  6
CONTINUOUS
 90
2
 70
0
 43
0.2
 10
496.7159142064
 20
26.2729119239
 10
496.7159142064
 20
24.4158486745
  0
LWPOLYLINE
  5
23E
100
AcDbEntity
  8
0
100
AcDbPolyline
 62
7
  6
CONTINUOUS
 90
2
 70
0
 43
0.2
 10
496.7159142064
 20
24.4158486745
 10
497.5116302167
 20
24.4158486745
  0
LWPOLYLINE
  5
23F
100
AcDbEntity
  8
0
100
AcDbPolyline
 62
7
  6
CONTINUOUS
 90
2
 70
0
 43
0.2
 10
497.5116302167
 20
24.4158486745
 10
497.5116302167
 20
24.6278302461
  0
LWPOLYLINE
  5
240
100
AcDbEntity
  8
0
100
AcDbPolyline
 62
7
  6
CONTINUOUS
 90
2
 70
0
 43
0.2
 10
497.5116302167
 20
24.6278302461
 10
496.9475237012
 20
24.6278302461
  0
LWPOLYLINE
  5
241
100
AcDbEntity
  8
0
100
AcDbPolyline
 62
7
  6
CONTINUOUS
 90
2
 70
0
 43
0.2
 10
496.9475237012
 20
24.6278302461
 10
496.9475237012
 20
26.2729119239
  0
LWPOLYLINE
  5
242
100
AcDbEntity
  8
0
100
AcDbPolyline
 62
7
  6
CONTINUOUS
 90
2
 70
0
 43
0.2
 10
496.9475237012
 20
26.2729119239
 10
496.7159142064
 20
26.2729119239
  0
SPLINE
  5
243
100
AcDbEntity
  8
0
100
AcDbSpline
 62
7
  6
CONTINUOUS
 70
2
 71
3
 72
35
 73
31
 74
0
 42
0.0000001
 43
0.0000001
 44
0.0000000001
 40
0.0
 40
0.0
 40
0.0
 40
0.0
 40
1.0
 40
1.0
 40
1.0
 40
2.0
 40
2.0
 40
2.0
 40
3.0
 40
3.0
 40
3.0
 40
4.0
 40
4.0
 40
4.0
 40
5.0
 40
5.0
 40
5.0
 40
6.0
 40
6.0
 40
6.0
 40
7.0
 40
7.0
 40
7.0
 40
8.0
 40
8.0
 40
8.0
 40
9.0
 40
9.0
 40
9.0
 40
10.0
 40
10.0
 40
10.0
 40
10.0
 10
498.9099234723
 20
25.5684003304
 30
0.0
 10
498.9099234723
 20
25.5684003304
 30
0.0
 10
498.9099234723
 20
24.9062850513
 30
0.0
 10
498.9099234723
 20
24.9062850513
 30
0.0
 10
498.9099234723
 20
24.591191456
 30
0.0
 10
499.0577871611
 20
24.3765928279
 30
0.0
 10
499.3978736454
 20
24.3765928279
 30
0.0
 10
499.7374367184
 20
24.3765928279
 30
0.0
 10
499.8855621129
 20
24.591191456
 30
0.0
 10
499.8855621129
 20
24.9062850513
 30
0.0
 10
499.8855621129
 20
24.9062850513
 30
0.0
 10
499.8855621129
 20
25.5684003304
 30
0.0
 10
499.8855621129
 20
25.5684003304
 30
0.0
 10
499.8855621129
 20
25.5684003304
 30
0.0
 10
499.663504874
 20
25.5684003304
 30
0.0
 10
499.663504874
 20
25.5684003304
 30
0.0
 10
499.663504874
 20
25.5684003304
 30
0.0
 10
499.663504874
 20
24.9314087931
 30
0.0
 10
499.663504874
 20
24.9314087931
 30
0.0
 10
499.663504874
 20
24.7455977859
 30
0.0
 10
499.6167904166
 20
24.5828168754
 30
0.0
 10
499.3978736454
 20
24.5828168754
 30
0.0
 10
499.178433463
 20
24.5828168754
 30
0.0
 10
499.1317190055
 20
24.7455977859
 30
0.0
 10
499.1317190055
 20
24.9314087931
 30
0.0
 10
499.1317190055
 20
24.9314087931
 30
0.0
 10
499.1317190055
 20
25.5684003304
 30
0.0
 10
499.1317190055
 20
25.5684003304
 30
0.0
 10
499.1317190055
 20
25.5684003304
 30
0.0
 10
498.9099234723
 20
25.5684003304
 30
0.0
 10
498.9099234723
 20
25.5684003304
 30
0.0
  0
SPLINE
  5
244
100
AcDbEntity
  8
0
100
AcDbSpline
 62
7
  6
CONTINUOUS
 70
2
 71
3
 72
35
 73
31
 74
0
 42
0.0000001
 43
0.0000001
 44
0.0000000001
 40
0.0
 40
0.0
 40
0.0
 40
0.0
 40
1.0
 40
1.0
 40
1.0
 40
2.0
 40
2.0
 40
2.0
 40
3.0
 40
3.0
 40
3.0
 40
4.0
 40
4.0
 40
4.0
 40
5.0
 40
5.0
 40
5.0
 40
6.0
 40
6.0
 40
6.0
 40
7.0
 40
7.0
 40
7.0
 40
8.0
 40
8.0
 40
8.0
 40
9.0
 40
9.0
 40
9.0
 40
10.0
 40
10.0
 40
10.0
 40
10.0
 10
502.3086946701
 20
25.5270508387
 30
0.0
 10
502.2202381624
 20
25.5783451449
 30
0.0
 10
502.1067887658
 20
25.6034688867
 30
0.0
 10
502.0031533308
 20
25.6034688867
 30
0.0
 10
501.6482804776
 20
25.6034688867
 30
0.0
 10
501.3728352874
 20
25.3396695976
 30
0.0
 10
501.3728352874
 20
24.982179688
 30
0.0
 10
501.3728352874
 20
24.6372516493
 30
0.0
 10
501.6512900925
 20
24.3771162392
 30
0.0
 10
501.9908531655
 20
24.3771162392
 30
0.0
 10
502.1067887658
 20
24.3771162392
 30
0.0
 10
502.2075454387
 20
24.3990995133
 30
0.0
 10
502.3086946701
 20
24.453010876
 30
0.0
 10
502.3086946701
 20
24.453010876
 30
0.0
 10
502.3086946701
 20
24.7356529714
 30
0.0
 10
502.3086946701
 20
24.7356529714
 30
0.0
 10
502.2248180112
 20
24.6424857622
 30
0.0
 10
502.121313429
 20
24.5833402866
 30
0.0
 10
501.9932085163
 20
24.5833402866
 30
0.0
 10
501.7595053763
 20
24.5833402866
 30
0.0
 10
501.5942382621
 20
24.7555426004
 30
0.0
 10
501.5942382621
 20
24.9921245025
 30
0.0
 10
501.5942382621
 20
25.2041060741
 30
0.0
 10
501.7619915799
 20
25.3961980167
 30
0.0
 10
501.9788147059
 20
25.3961980167
 30
0.0
 10
502.1116303202
 20
25.3961980167
 30
0.0
 10
502.2202381624
 20
25.3422866541
 30
0.0
 10
502.3086946701
 20
25.2412682755
 30
0.0
 10
502.3086946701
 20
25.2412682755
 30
0.0
 10
502.3086946701
 20
25.5270508387
 30
0.0
 10
502.3086946701
 20
25.5270508387
 30
0.0
  0
SPLINE
  5
245
100
AcDbEntity
  8
0
100
AcDbSpline
 62
7
  6
CONTINUOUS
 70
2
 71
3
 72
32
 73
28
 74
0
 42
0.0000001
 43
0.0000001
 44
0.0000000001
 40
0.0
 40
0.0
 40
0.0
 40
0.0
 40
1.0
 40
1.0
 40
1.0
 40
2.0
 40
2.0
 40
2.0
 40
3.0
 40
3.0
 40
3.0
 40
4.0
 40
4.0
 40
4.0
 40
5.0
 40
5.0
 40
5.0
 40
6.0
 40
6.0
 40
6.0
 40
7.0
 40
7.0
 40
7.0
 40
8.0
 40
8.0
 40
8.0
 40
9.0
 40
9.0
 40
9.0
 40
9.0
 10
504.8405659223
 20
24.9554857123
 30
0.0
 10
504.8405659223
 20
24.9554857123
 30
0.0
 10
504.8405659223
 20
24.989507446
 30
0.0
 10
504.8405659223
 20
24.989507446
 30
0.0
 10
504.8405659223
 20
25.3318184283
 30
0.0
 10
504.6677093445
 20
25.6034688867
 30
0.0
 10
504.3010597373
 20
25.6034688867
 30
0.0
 10
503.929437723
 20
25.6034688867
 30
0.0
 10
503.7397011311
 20
25.3370525412
 30
0.0
 10
503.7397011311
 20
24.982179688
 30
0.0
 10
503.7397011311
 20
24.6424857622
 30
0.0
 10
503.9537763478
 20
24.3765928279
 30
0.0
 10
504.3059012918
 20
24.3765928279
 30
0.0
 10
504.529921323
 20
24.3765928279
 30
0.0
 10
504.7320889329
 20
24.4922667226
 30
0.0
 10
504.8405659223
 20
24.6916864232
 30
0.0
 10
504.8405659223
 20
24.6916864232
 30
0.0
 10
504.6529229756
 20
24.798462326
 30
0.0
 10
504.6529229756
 20
24.798462326
 30
0.0
 10
504.5694388752
 20
24.6597583347
 30
0.0
 10
504.4782344583
 20
24.5739188835
 30
0.0
 10
504.308649201
 20
24.5739188835
 30
0.0
 10
504.0966676294
 20
24.5739188835
 30
0.0
 10
503.9637211623
 20
24.7586830681
 30
0.0
 10
503.9613658115
 20
24.9554857123
 30
0.0
 10
503.9613658115
 20
24.9554857123
 30
0.0
 10
504.8405659223
 20
24.9554857123
 30
0.0
 10
504.8405659223
 20
24.9554857123
 30
0.0
  0
SPLINE
  5
246
100
AcDbEntity
  8
0
100
AcDbSpline
 62
7
  6
CONTINUOUS
 70
2
 71
3
 72
14
 73
10
 74
0
 42
0.0000001
 43
0.0000001
 44
0.0000000001
 40
0.0
 40
0.0
 40
0.0
 40
0.0
 40
1.0
 40
1.0
 40
1.0
 40
2.0
 40
2.0
 40
2.0
 40
3.0
 40
3.0
 40
3.0
 40
3.0
 10
503.9734042711
 20
25.1229773244
 30
0.0
 10
504.0010142166
 20
25.2878518801
 30
0.0
 10
504.1288574236
 20
25.4108535328
 30
0.0
 10
504.3010597373
 20
25.4108535328
 30
0.0
 10
504.4782344583
 20
25.4108535328
 30
0.0
 10
504.5916838549
 20
25.2951796381
 30
0.0
 10
504.6189012419
 20
25.1229773244
 30
0.0
 10
504.6189012419
 20
25.1229773244
 30
0.0
 10
503.9734042711
 20
25.1229773244
 30
0.0
 10
503.9734042711
 20
25.1229773244
 30
0.0
  0
SPLINE
  5
247
100
AcDbEntity
  8
0
100
AcDbSpline
 62
7
  6
CONTINUOUS
 70
2
 71
3
 72
20
 73
16
 74
0
 42
0.0000001
 43
0.0000001
 44
0.0000000001
 40
0.0
 40
0.0
 40
0.0
 40
0.0
 40
1.0
 40
1.0
 40
1.0
 40
2.0
 40
2.0
 40
2.0
 40
3.0
 40
3.0
 40
3.0
 40
4.0
 40
4.0
 40
4.0
 40
5.0
 40
5.0
 40
5.0
 40
5.0
 10
506.8645973725
 20
25.3323418396
 30
0.0
 10
506.8645973725
 20
25.3323418396
 30
0.0
 10
507.2757369391
 20
24.8298670032
 30
0.0
 10
507.2757369391
 20
24.8298670032
 30
0.0
 10
507.159670486
 20
24.7141931086
 30
0.0
 10
507.0218824645
 20
24.5838636979
 30
0.0
 10
506.8499418565
 20
24.5838636979
 30
0.0
 10
506.6725054299
 20
24.5838636979
 30
0.0
 10
506.5050138177
 20
24.7482148423
 30
0.0
 10
506.5050138177
 20
24.9251278576
 30
0.0
 10
506.5050138177
 20
25.1030876955
 30
0.0
 10
506.7147708914
 20
25.2292298159
 30
0.0
 10
506.8423523928
 20
25.3171629122
 30
0.0
 10
506.8423523928
 20
25.3171629122
 30
0.0
 10
506.8645973725
 20
25.3323418396
 30
0.0
 10
506.8645973725
 20
25.3323418396
 30
0.0
  0
SPLINE
  5
248
100
AcDbEntity
  8
0
100
AcDbSpline
 62
7
  6
CONTINUOUS
 70
2
 71
3
 72
23
 73
19
 74
0
 42
0.0000001
 43
0.0000001
 44
0.0000000001
 40
0.0
 40
0.0
 40
0.0
 40
0.0
 40
1.0
 40
1.0
 40
1.0
 40
2.0
 40
2.0
 40
2.0
 40
3.0
 40
3.0
 40
3.0
 40
4.0
 40
4.0
 40
4.0
 40
5.0
 40
5.0
 40
5.0
 40
6.0
 40
6.0
 40
6.0
 40
6.0
 10
506.9139288864
 20
25.6233585156
 30
0.0
 10
506.9139288864
 20
25.6233585156
 30
0.0
 10
506.8522972072
 20
25.7018702088
 30
0.0
 10
506.8522972072
 20
25.7018702088
 30
0.0
 10
506.7983858446
 20
25.7704370875
 30
0.0
 10
506.7415957199
 20
25.8395273775
 30
0.0
 10
506.7415957199
 20
25.9332179981
 30
0.0
 10
506.7415957199
 20
26.0520323604
 30
0.0
 10
506.8375108384
 20
26.129497231
 30
0.0
 10
506.9484740314
 20
26.129497231
 30
0.0
 10
507.0717373897
 20
26.129497231
 30
0.0
 10
507.1650354517
 20
26.0583132959
 30
0.0
 10
507.1650354517
 20
25.9279838852
 30
0.0
 10
507.1650354517
 20
25.7929437729
 30
0.0
 10
507.036930539
 20
25.7165257249
 30
0.0
 10
506.9433707713
 20
25.6427247333
 30
0.0
 10
506.9433707713
 20
25.6427247333
 30
0.0
 10
506.9139288864
 20
25.6233585156
 30
0.0
 10
506.9139288864
 20
25.6233585156
 30
0.0
  0
SPLINE
  5
249
100
AcDbEntity
  8
0
100
AcDbSpline
 62
7
  6
CONTINUOUS
 70
2
 71
3
 72
50
 73
46
 74
0
 42
0.0000001
 43
0.0000001
 44
0.0000000001
 40
0.0
 40
0.0
 40
0.0
 40
0.0
 40
1.0
 40
1.0
 40
1.0
 40
2.0
 40
2.0
 40
2.0
 40
3.0
 40
3.0
 40
3.0
 40
4.0
 40
4.0
 40
4.0
 40
5.0
 40
5.0
 40
5.0
 40
6.0
 40
6.0
 40
6.0
 40
7.0
 40
7.0
 40
7.0
 40
8.0
 40
8.0
 40
8.0
 40
9.0
 40
9.0
 40
9.0
 40
10.0
 40
10.0
 40
10.0
 40
11.0
 40
11.0
 40
11.0
 40
12.0
 40
12.0
 40
12.0
 40
13.0
 40
13.0
 40
13.0
 40
14.0
 40
14.0
 40
14.0
 40
15.0
 40
15.0
 40
15.0
 40
15.0
 10
507.6160851291
 20
24.4163720858
 30
0.0
 10
507.6160851291
 20
24.4163720858
 30
0.0
 10
507.9014751338
 20
24.4163720858
 30
0.0
 10
507.9014751338
 20
24.4163720858
 30
0.0
 10
507.9014751338
 20
24.4163720858
 30
0.0
 10
507.569108966
 20
24.8272499468
 30
0.0
 10
507.569108966
 20
24.8272499468
 30
0.0
 10
507.569108966
 20
24.8272499468
 30
0.0
 10
507.7956152008
 20
25.093142881
 30
0.0
 10
507.7956152008
 20
25.093142881
 30
0.0
 10
507.7956152008
 20
25.093142881
 30
0.0
 10
507.6473589535
 20
25.2459789771
 30
0.0
 10
507.6473589535
 20
25.2459789771
 30
0.0
 10
507.6473589535
 20
25.2459789771
 30
0.0
 10
507.4314517973
 20
24.9947415589
 30
0.0
 10
507.4314517973
 20
24.9947415589
 30
0.0
 10
507.4314517973
 20
24.9947415589
 30
0.0
 10
507.0443891499
 20
25.4626712503
 30
0.0
 10
507.0443891499
 20
25.4626712503
 30
0.0
 10
507.1998423024
 20
25.576774911
 30
0.0
 10
507.3821202834
 20
25.7165257249
 30
0.0
 10
507.3821202834
 20
25.92589024
 30
0.0
 10
507.3821202834
 20
26.1697999002
 30
0.0
 10
507.1800835263
 20
26.3132145931
 30
0.0
 10
506.9535772914
 20
26.3132145931
 30
0.0
 10
506.7094059257
 20
26.3132145931
 30
0.0
 10
506.5250342995
 20
26.1624721421
 30
0.0
 10
506.5250342995
 20
25.9060006111
 30
0.0
 10
506.5250342995
 20
25.7484538134
 30
0.0
 10
506.6236973273
 20
25.6107966447
 30
0.0
 10
506.729033849
 20
25.4998334517
 30
0.0
 10
506.729033849
 20
25.4998334517
 30
0.0
 10
506.6134908072
 20
25.4160876456
 30
0.0
 10
506.6134908072
 20
25.4160876456
 30
0.0
 10
506.4357926749
 20
25.2878518801
 30
0.0
 10
506.2884523974
 20
25.1601395259
 30
0.0
 10
506.2884523974
 20
24.9230342125
 30
0.0
 10
506.2884523974
 20
24.6027065043
 30
0.0
 10
506.5470175736
 20
24.3765928279
 30
0.0
 10
506.8574004673
 20
24.3765928279
 30
0.0
 10
507.0763172385
 20
24.3765928279
 30
0.0
 10
507.2735124412
 20
24.5016881257
 30
0.0
 10
507.4137866663
 20
24.667609504
 30
0.0
 10
507.4137866663
 20
24.667609504
 30
0.0
 10
507.6160851291
 20
24.4163720858
 30
0.0
 10
507.6160851291
 20
24.4163720858
 30
0.0
  0
LWPOLYLINE
  5
24A
100
AcDbEntity
  8
0
100
AcDbPolyline
 62
7
  6
CONTINUOUS
 90
2
 70
0
 43
0.2
 10
509.5515292188
 20
26.2729119239
 10
509.3201814296
 20
26.2729119239
  0
LWPOLYLINE
  5
24B
100
AcDbEntity
  8
0
100
AcDbPolyline
 62
7
  6
CONTINUOUS
 90
2
 70
0
 43
0.2
 10
509.3201814296
 20
26.2729119239
 10
509.3201814296
 20
24.4158486745
  0
LWPOLYLINE
  5
24C
100
AcDbEntity
  8
0
100
AcDbPolyline
 62
7
  6
CONTINUOUS
 90
2
 70
0
 43
0.2
 10
509.3201814296
 20
24.4158486745
 10
510.1155048815
 20
24.4158486745
  0
LWPOLYLINE
  5
24D
100
AcDbEntity
  8
0
100
AcDbPolyline
 62
7
  6
CONTINUOUS
 90
2
 70
0
 43
0.2
 10
510.1155048815
 20
24.4158486745
 10
510.1155048815
 20
24.6278302461
  0
LWPOLYLINE
  5
24E
100
AcDbEntity
  8
0
100
AcDbPolyline
 62
7
  6
CONTINUOUS
 90
2
 70
0
 43
0.2
 10
510.1155048815
 20
24.6278302461
 10
509.5515292188
 20
24.6278302461
  0
LWPOLYLINE
  5
24F
100
AcDbEntity
  8
0
100
AcDbPolyline
 62
7
  6
CONTINUOUS
 90
2
 70
0
 43
0.2
 10
509.5515292188
 20
24.6278302461
 10
509.5515292188
 20
26.2729119239
  0
LWPOLYLINE
  5
250
100
AcDbEntity
  8
0
100
AcDbPolyline
 62
7
  6
CONTINUOUS
 90
2
 70
0
 43
0.2
 10
511.794608293
 20
25.5684003304
 10
511.5734670238
 20
25.5684003304
  0
LWPOLYLINE
  5
251
100
AcDbEntity
  8
0
100
AcDbPolyline
 62
7
  6
CONTINUOUS
 90
2
 70
0
 43
0.2
 10
511.5734670238
 20
25.5684003304
 10
511.5734670238
 20
24.4163720858
  0
LWPOLYLINE
  5
252
100
AcDbEntity
  8
0
100
AcDbPolyline
 62
7
  6
CONTINUOUS
 90
2
 70
0
 43
0.2
 10
511.5734670238
 20
24.4163720858
 10
511.794608293
 20
24.4163720858
  0
LWPOLYLINE
  5
253
100
AcDbEntity
  8
0
100
AcDbPolyline
 62
7
  6
CONTINUOUS
 90
2
 70
0
 43
0.2
 10
511.794608293
 20
24.4163720858
 10
511.794608293
 20
25.5684003304
  0
LWPOLYLINE
  5
254
100
AcDbEntity
  8
0
100
AcDbPolyline
 62
7
  6
CONTINUOUS
 90
2
 70
1
 43
0.2
 10
511.5315850158
 20
26.0983542594
 42
1.0
 10
511.8367520067
 20
26.0983542594
 42
1.0
  0
SPLINE
  5
255
100
AcDbEntity
  8
0
100
AcDbSpline
 62
7
  6
CONTINUOUS
 70
2
 71
3
 72
17
 73
13
 74
0
 42
0.0000001
 43
0.0000001
 44
0.0000000001
 40
0.0
 40
0.0
 40
0.0
 40
0.0
 40
1.0
 40
1.0
 40
1.0
 40
2.0
 40
2.0
 40
2.0
 40
3.0
 40
3.0
 40
3.0
 40
4.0
 40
4.0
 40
4.0
 40
4.0
 10
513.9248922346
 20
24.5739188835
 30
0.0
 10
513.6909273889
 20
24.5739188835
 30
0.0
 10
513.5605979782
 20
24.7759556406
 30
0.0
 10
513.5605979782
 20
24.9921245025
 30
0.0
 10
513.5605979782
 20
25.2067231305
 30
0.0
 10
513.6964232074
 20
25.4056194199
 30
0.0
 10
513.9248922346
 20
25.4056194199
 30
0.0
 10
514.1643528988
 20
25.4056194199
 30
0.0
 10
514.2999164223
 20
25.216667945
 30
0.0
 10
514.2999164223
 20
24.9921245025
 30
0.0
 10
514.2999164223
 20
24.7660108261
 30
0.0
 10
514.1667082496
 20
24.5739188835
 30
0.0
 10
513.9248922346
 20
24.5739188835
 30
0.0
  0
SPLINE
  5
256
100
AcDbEntity
  8
0
100
AcDbSpline
 62
7
  6
CONTINUOUS
 70
2
 71
3
 72
50
 73
46
 74
0
 42
0.0000001
 43
0.0000001
 44
0.0000000001
 40
0.0
 40
0.0
 40
0.0
 40
0.0
 40
1.0
 40
1.0
 40
1.0
 40
2.0
 40
2.0
 40
2.0
 40
3.0
 40
3.0
 40
3.0
 40
4.0
 40
4.0
 40
4.0
 40
5.0
 40
5.0
 40
5.0
 40
6.0
 40
6.0
 40
6.0
 40
7.0
 40
7.0
 40
7.0
 40
8.0
 40
8.0
 40
8.0
 40
9.0
 40
9.0
 40
9.0
 40
10.0
 40
10.0
 40
10.0
 40
11.0
 40
11.0
 40
11.0
 40
12.0
 40
12.0
 40
12.0
 40
13.0
 40
13.0
 40
13.0
 40
14.0
 40
14.0
 40
14.0
 40
15.0
 40
15.0
 40
15.0
 40
15.0
 10
514.5090192319
 20
25.5689237417
 30
0.0
 10
514.5090192319
 20
25.5689237417
 30
0.0
 10
514.2873545514
 20
25.5689237417
 30
0.0
 10
514.2873545514
 20
25.5689237417
 30
0.0
 10
514.2873545514
 20
25.5689237417
 30
0.0
 10
514.2873545514
 20
25.3715976862
 30
0.0
 10
514.2873545514
 20
25.3715976862
 30
0.0
 10
514.2873545514
 20
25.3715976862
 30
0.0
 10
514.2826438499
 20
25.3715976862
 30
0.0
 10
514.2826438499
 20
25.3715976862
 30
0.0
 10
514.1913085801
 20
25.5144889678
 30
0.0
 10
514.0533897058
 20
25.6029454754
 30
0.0
 10
513.8806639808
 20
25.6029454754
 30
0.0
 10
513.548297813
 20
25.6029454754
 30
0.0
 10
513.3391950035
 20
25.3150692671
 30
0.0
 10
513.3391950035
 20
24.9994522605
 30
0.0
 10
513.3391950035
 20
24.6697031491
 30
0.0
 10
513.5362593533
 20
24.3765928279
 30
0.0
 10
513.8911322065
 20
24.3765928279
 30
0.0
 10
514.0533897058
 20
24.3765928279
 30
0.0
 10
514.1934022253
 20
24.4650493356
 30
0.0
 10
514.2826438499
 20
24.5959021576
 30
0.0
 10
514.2826438499
 20
24.5959021576
 30
0.0
 10
514.2873545514
 20
24.5959021576
 30
0.0
 10
514.2873545514
 20
24.5959021576
 30
0.0
 10
514.2873545514
 20
24.5959021576
 30
0.0
 10
514.2873545514
 20
24.3765928279
 30
0.0
 10
514.2873545514
 20
24.3765928279
 30
0.0
 10
514.2873545514
 20
24.1400109258
 30
0.0
 10
514.2308261324
 20
23.953153096
 30
0.0
 10
513.9576054401
 20
23.953153096
 30
0.0
 10
513.7553069773
 20
23.953153096
 30
0.0
 10
513.6126774014
 20
24.0714440471
 30
0.0
 10
513.6126774014
 20
24.2776680945
 30
0.0
 10
513.6126774014
 20
24.2776680945
 30
0.0
 10
513.391012721
 20
24.2776680945
 30
0.0
 10
513.391012721
 20
24.2776680945
 30
0.0
 10
513.3959851282
 20
23.953153096
 30
0.0
 10
513.6270712118
 20
23.7563504518
 30
0.0
 10
513.94739892
 20
23.7563504518
 30
0.0
 10
514.3954389824
 20
23.7563504518
 30
0.0
 10
514.5090192319
 20
24.0416096037
 30
0.0
 10
514.5090192319
 20
24.4383553599
 30
0.0
 10
514.5090192319
 20
24.4383553599
 30
0.0
 10
514.5090192319
 20
25.5689237417
 30
0.0
 10
514.5090192319
 20
25.5689237417
 30
0.0
  0
SPLINE
  5
257
100
AcDbEntity
  8
0
100
AcDbSpline
 62
7
  6
CONTINUOUS
 70
2
 71
3
 72
44
 73
40
 74
0
 42
0.0000001
 43
0.0000001
 44
0.0000000001
 40
0.0
 40
0.0
 40
0.0
 40
0.0
 40
1.0
 40
1.0
 40
1.0
 40
2.0
 40
2.0
 40
2.0
 40
3.0
 40
3.0
 40
3.0
 40
4.0
 40
4.0
 40
4.0
 40
5.0
 40
5.0
 40
5.0
 40
6.0
 40
6.0
 40
6.0
 40
7.0
 40
7.0
 40
7.0
 40
8.0
 40
8.0
 40
8.0
 40
9.0
 40
9.0
 40
9.0
 40
10.0
 40
10.0
 40
10.0
 40
11.0
 40
11.0
 40
11.0
 40
12.0
 40
12.0
 40
12.0
 40
13.0
 40
13.0
 40
13.0
 40
13.0
 10
516.0779445672
 20
26.5539837855
 30
0.0
 10
516.0779445672
 20
26.5539837855
 30
0.0
 10
516.0779445672
 20
24.4158486745
 30
0.0
 10
516.0779445672
 20
24.4158486745
 30
0.0
 10
516.0779445672
 20
24.4158486745
 30
0.0
 10
516.299347542
 20
24.4158486745
 30
0.0
 10
516.299347542
 20
24.4158486745
 30
0.0
 10
516.299347542
 20
24.4158486745
 30
0.0
 10
516.299347542
 20
24.9455408978
 30
0.0
 10
516.299347542
 20
24.9455408978
 30
0.0
 10
516.299347542
 20
25.1554288243
 30
0.0
 10
516.299347542
 20
25.4061428312
 30
0.0
 10
516.5846066939
 20
25.4061428312
 30
0.0
 10
516.8115054872
 20
25.4061428312
 30
0.0
 10
516.8384611685
 20
25.2731963641
 30
0.0
 10
516.8384611685
 20
25.0769171311
 30
0.0
 10
516.8384611685
 20
25.0769171311
 30
0.0
 10
516.8384611685
 20
24.4158486745
 30
0.0
 10
516.8384611685
 20
24.4158486745
 30
0.0
 10
516.8384611685
 20
24.4158486745
 30
0.0
 10
517.0603875546
 20
24.4158486745
 30
0.0
 10
517.0603875546
 20
24.4158486745
 30
0.0
 10
517.0603875546
 20
24.4158486745
 30
0.0
 10
517.0603875546
 20
25.1030876955
 30
0.0
 10
517.0603875546
 20
25.1030876955
 30
0.0
 10
517.0603875546
 20
25.3836361458
 30
0.0
 10
516.9763800429
 20
25.6034688867
 30
0.0
 10
516.6513416331
 20
25.6034688867
 30
0.0
 10
516.5115908192
 20
25.6034688867
 30
0.0
 10
516.3734102392
 20
25.5369956531
 30
0.0
 10
516.3040582436
 20
25.4139940005
 30
0.0
 10
516.3040582436
 20
25.4139940005
 30
0.0
 10
516.299347542
 20
25.4139940005
 30
0.0
 10
516.299347542
 20
25.4139940005
 30
0.0
 10
516.299347542
 20
25.4139940005
 30
0.0
 10
516.299347542
 20
26.5539837855
 30
0.0
 10
516.299347542
 20
26.5539837855
 30
0.0
 10
516.299347542
 20
26.5539837855
 30
0.0
 10
516.0779445672
 20
26.5539837855
 30
0.0
 10
516.0779445672
 20
26.5539837855
 30
0.0
  0
LWPOLYLINE
  5
258
100
AcDbEntity
  8
0
100
AcDbPolyline
 62
7
  6
CONTINUOUS
 90
2
 70
0
 43
0.2
 10
518.9001782314
 20
25.3616528717
 10
519.116608799
 20
25.3616528717
  0
LWPOLYLINE
  5
259
100
AcDbEntity
  8
0
100
AcDbPolyline
 62
7
  6
CONTINUOUS
 90
2
 70
0
 43
0.2
 10
519.116608799
 20
25.3616528717
 10
519.116608799
 20
25.5684003304
  0
LWPOLYLINE
  5
25A
100
AcDbEntity
  8
0
100
AcDbPolyline
 62
7
  6
CONTINUOUS
 90
2
 70
0
 43
0.2
 10
519.116608799
 20
25.5684003304
 10
518.9001782314
 20
25.5684003304
  0
LWPOLYLINE
  5
25B
100
AcDbEntity
  8
0
100
AcDbPolyline
 62
7
  6
CONTINUOUS
 90
2
 70
0
 43
0.2
 10
518.9001782314
 20
25.5684003304
 10
518.9001782314
 20
26.0091126348
  0
LWPOLYLINE
  5
25C
100
AcDbEntity
  8
0
100
AcDbPolyline
 62
7
  6
CONTINUOUS
 90
2
 70
0
 43
0.2
 10
518.9001782314
 20
26.0091126348
 10
518.678513551
 20
26.0091126348
  0
LWPOLYLINE
  5
25D
100
AcDbEntity
  8
0
100
AcDbPolyline
 62
7
  6
CONTINUOUS
 90
2
 70
0
 43
0.2
 10
518.678513551
 20
26.0091126348
 10
518.678513551
 20
25.5684003304
  0
LWPOLYLINE
  5
25E
100
AcDbEntity
  8
0
100
AcDbPolyline
 62
7
  6
CONTINUOUS
 90
2
 70
0
 43
0.2
 10
518.678513551
 20
25.5684003304
 10
518.5578672492
 20
25.5684003304
  0
LWPOLYLINE
  5
25F
100
AcDbEntity
  8
0
100
AcDbPolyline
 62
7
  6
CONTINUOUS
 90
2
 70
0
 43
0.2
 10
518.5578672492
 20
25.5684003304
 10
518.5578672492
 20
25.3616528717
  0
LWPOLYLINE
  5
260
100
AcDbEntity
  8
0
100
AcDbPolyline
 62
7
  6
CONTINUOUS
 90
2
 70
0
 43
0.2
 10
518.5578672492
 20
25.3616528717
 10
518.678513551
 20
25.3616528717
  0
LWPOLYLINE
  5
261
100
AcDbEntity
  8
0
100
AcDbPolyline
 62
7
  6
CONTINUOUS
 90
2
 70
0
 43
0.2
 10
518.678513551
 20
25.3616528717
 10
518.678513551
 20
24.4158486745
  0
LWPOLYLINE
  5
262
100
AcDbEntity
  8
0
100
AcDbPolyline
 62
7
  6
CONTINUOUS
 90
2
 70
0
 43
0.2
 10
518.678513551
 20
24.4158486745
 10
518.9001782314
 20
24.4158486745
  0
LWPOLYLINE
  5
263
100
AcDbEntity
  8
0
100
AcDbPolyline
 62
7
  6
CONTINUOUS
 90
2
 70
0
 43
0.2
 10
518.9001782314
 20
24.4158486745
 10
518.9001782314
 20
25.3616528717
  0
SPLINE
  5
264
100
AcDbEntity
  8
0
100
AcDbSpline
 62
7
  6
CONTINUOUS
 70
2
 71
3
 72
20
 73
16
 74
0
 42
0.0000001
 43
0.0000001
 44
0.0000000001
 40
0.0
 40
0.0
 40
0.0
 40
0.0
 40
1.0
 40
1.0
 40
1.0
 40
2.0
 40
2.0
 40
2.0
 40
3.0
 40
3.0
 40
3.0
 40
4.0
 40
4.0
 40
4.0
 40
5.0
 40
5.0
 40
5.0
 40
5.0
 10
506.6821885387
 20
34.7767751179
 30
0.0
 10
506.6821885387
 20
34.7767751179
 30
0.0
 10
508.9985451932
 20
31.9472136957
 30
0.0
 10
508.9985451932
 20
31.9472136957
 30
0.0
 10
508.3468981398
 20
31.295043231
 30
0.0
 10
507.5700249357
 20
30.5591269603
 30
0.0
 10
506.5988352911
 20
30.5591269603
 30
0.0
 10
505.6002974067
 20
30.5591269603
 30
0.0
 10
504.6569794131
 20
31.4887054075
 30
0.0
 10
504.6569794131
 20
32.4878975561
 30
0.0
 10
504.6569794131
 20
33.4870897046
 30
0.0
 10
505.8358324862
 20
34.1936949432
 30
0.0
 10
506.5573549465
 20
34.6935527231
 30
0.0
 10
506.5573549465
 20
34.6935527231
 30
0.0
 10
506.6821885387
 20
34.7767751179
 30
0.0
 10
506.6821885387
 20
34.7767751179
 30
0.0
  0
SPLINE
  5
265
100
AcDbEntity
  8
0
100
AcDbSpline
 62
7
  6
CONTINUOUS
 70
2
 71
3
 72
23
 73
19
 74
0
 42
0.0000001
 43
0.0000001
 44
0.0000000001
 40
0.0
 40
0.0
 40
0.0
 40
0.0
 40
1.0
 40
1.0
 40
1.0
 40
2.0
 40
2.0
 40
2.0
 40
3.0
 40
3.0
 40
3.0
 40
4.0
 40
4.0
 40
4.0
 40
5.0
 40
5.0
 40
5.0
 40
6.0
 40
6.0
 40
6.0
 40
6.0
 10
506.9595965213
 20
36.4145290377
 30
0.0
 10
506.9595965213
 20
36.4145290377
 30
0.0
 10
506.6130982487
 20
36.8578583985
 30
0.0
 10
506.6130982487
 20
36.8578583985
 30
0.0
 10
506.3072952038
 20
37.2459678684
 30
0.0
 10
505.9884068766
 20
37.6344698969
 30
0.0
 10
505.9884068766
 20
38.1614142109
 30
0.0
 10
505.9884068766
 20
38.8275859276
 30
0.0
 10
506.5297450011
 20
39.2713078469
 30
0.0
 10
507.1536512562
 20
39.2713078469
 30
0.0
 10
507.8474329183
 20
39.2713078469
 30
0.0
 10
508.374638938
 20
38.8690662721
 30
0.0
 10
508.374638938
 20
38.1340659711
 30
0.0
 10
508.374638938
 20
37.3708014606
 30
0.0
 10
507.6533781833
 20
36.9406882348
 30
0.0
 10
507.1263030164
 20
36.5249688194
 30
0.0
 10
507.1263030164
 20
36.5249688194
 30
0.0
 10
506.9595965213
 20
36.4145290377
 30
0.0
 10
506.9595965213
 20
36.4145290377
 30
0.0
  0
SPLINE
  5
266
100
AcDbEntity
  8
0
100
AcDbSpline
 62
7
  6
CONTINUOUS
 70
2
 71
3
 72
50
 73
46
 74
0
 42
0.0000001
 43
0.0000001
 44
0.0000000001
 40
0.0
 40
0.0
 40
0.0
 40
0.0
 40
1.0
 40
1.0
 40
1.0
 40
2.0
 40
2.0
 40
2.0
 40
3.0
 40
3.0
 40
3.0
 40
4.0
 40
4.0
 40
4.0
 40
5.0
 40
5.0
 40
5.0
 40
6.0
 40
6.0
 40
6.0
 40
7.0
 40
7.0
 40
7.0
 40
8.0
 40
8.0
 40
8.0
 40
9.0
 40
9.0
 40
9.0
 40
10.0
 40
10.0
 40
10.0
 40
11.0
 40
11.0
 40
11.0
 40
12.0
 40
12.0
 40
12.0
 40
13.0
 40
13.0
 40
13.0
 40
14.0
 40
14.0
 40
14.0
 40
15.0
 40
15.0
 40
15.0
 40
15.0
 10
510.9131836842
 20
29.6159398195
 30
0.0
 10
510.9131836842
 20
29.6159398195
 30
0.0
 10
512.5224116887
 20
29.6159398195
 30
0.0
 10
512.5224116887
 20
29.6159398195
 30
0.0
 10
512.5224116887
 20
29.6159398195
 30
0.0
 10
510.6493843951
 20
31.9330815909
 30
0.0
 10
510.6493843951
 20
31.9330815909
 30
0.0
 10
510.6493843951
 20
31.9330815909
 30
0.0
 10
511.9257228206
 20
33.4305612855
 30
0.0
 10
511.9257228206
 20
33.4305612855
 30
0.0
 10
511.9257228206
 20
33.4305612855
 30
0.0
 10
511.0934988729
 20
34.2915728541
 30
0.0
 10
511.0934988729
 20
34.2915728541
 30
0.0
 10
511.0934988729
 20
34.2915728541
 30
0.0
 10
509.8729037495
 20
32.8762687317
 30
0.0
 10
509.8729037495
 20
32.8762687317
 30
0.0
 10
509.8729037495
 20
32.8762687317
 30
0.0
 10
507.6949893807
 20
35.5116445661
 30
0.0
 10
507.6949893807
 20
35.5116445661
 30
0.0
 10
508.5685628202
 20
36.149682926
 30
0.0
 10
509.5952340613
 20
36.9406882348
 30
0.0
 10
509.5952340613
 20
38.1195413079
 30
0.0
 10
509.5952340613
 20
39.4932342329
 30
0.0
 10
508.4573379215
 20
40.2977173824
 30
0.0
 10
507.1820463186
 20
40.2977173824
 30
0.0
 10
505.8086150992
 20
40.2977173824
 30
0.0
 10
504.7676809005
 20
39.4514921827
 30
0.0
 10
504.7676809005
 20
38.0088398205
 30
0.0
 10
504.7676809005
 20
37.1212651291
 30
0.0
 10
505.3230202769
 20
36.3443919251
 30
0.0
 10
505.9191857338
 20
35.7199622587
 30
0.0
 10
505.9191857338
 20
35.7199622587
 30
0.0
 10
505.2672769748
 20
35.2483686883
 30
0.0
 10
505.2672769748
 20
35.2483686883
 30
0.0
 10
504.2687390903
 20
34.5271079336
 30
0.0
 10
503.4358608785
 20
33.8058471789
 30
0.0
 10
503.4358608785
 20
32.4742888626
 30
0.0
 10
503.4358608785
 20
30.6706135646
 30
0.0
 10
504.8929070511
 20
29.3940134335
 30
0.0
 10
506.6404464885
 20
29.3940134335
 30
0.0
 10
507.8753045694
 20
29.3940134335
 30
0.0
 10
508.984674794
 20
30.1021889059
 30
0.0
 10
509.77554925
 20
31.0307205306
 30
0.0
 10
509.77554925
 20
31.0307205306
 30
0.0
 10
510.9131836842
 20
29.6159398195
 30
0.0
 10
510.9131836842
 20
29.6159398195
 30
0.0
  0
LINE
  5
267
100
AcDbEntity
  8
0
100
AcDbLine
 62
7
  6
CONTINUOUS
 10
496.7160450592
 20
27.5898147242
 11
519.1299557868
 21
27.5898147242
  0
LINE
  5
268
100
AcDbEntity
  8
0
100
AcDbLine
 62
7
  6
CONTINUOUS
 10
519.1299557868
 20
27.5898147242
 11
519.1299557868
 21
50.0037254518
  0
LINE
  5
269
100
AcDbEntity
  8
0
100
AcDbLine
 62
7
  6
CONTINUOUS
 10
519.1299557868
 20
50.0037254518
 11
496.7160450592
 21
50.0037254518
  0
LINE
  5
26A
100
AcDbEntity
  8
0
100
AcDbLine
 62
7
  6
CONTINUOUS
 10
496.7160450592
 20
50.0037254518
 11
496.7160450592
 21
27.5898147242
  0
ENDBLK
  5
26B
100
AcDbEntity
  8
0
  6
BYBLOCK
 62
0
100
AcDbBlockEnd
  0
BLOCK
  5
26C
100
AcDbEntity
  8
0
100
AcDbBlockBegin
  2
_CLOSED
 70
64
 10
0.0
 20
0.0
  3
_CLOSED
  1

  0
LINE
  5
26D
100
AcDbEntity
  8
0
  6
BYBLOCK
 62
0
100
AcDbLine
 10
0.0
 20
0.0
 11
-1.0
 21
0.2
  0
LINE
  5
26E
100
AcDbEntity
  8
0
  6
BYBLOCK
 62
0
100
AcDbLine
 10
-1.0
 20
0.2
 11
-1.0
 21
-0.2
  0
LINE
  5
26F
100
AcDbEntity
  8
0
  6
BYBLOCK
 62
0
100
AcDbLine
 10
-1.0
 20
-0.2
 11
0.0
 21
0.0
  0
LINE
  5
270
100
AcDbEntity
  8
0
  6
BYBLOCK
 62
0
100
AcDbLine
 10
-1.0
 20
0.0
 11
0.0
 21
0.0
  0
ENDBLK
  5
271
100
AcDbEntity
  8
0
  6
BYBLOCK
 62
0
100
AcDbBlockEnd
  0
BLOCK
  5
272
100
AcDbEntity
  8
0
100
AcDbBlockBegin
 62
2
  6
CONTINUOUS
  2
*D0
 70
65
 10
0.0
 20
0.0
  3
*D0
  1

  0
MTEXT
  5
273
100
AcDbEntity
  8
0
100
AcDbMText
 62
2
  6
CONTINUOUS
  7
STANDARD
 71
2
 72
1
 10
227.7998211902
 20
383.2683575164
 30
0.0
 11
1.0
 21
0.0
 31
0.0
  1
329
 40
3.0
 41
6.9925650558
  0
LINE
  5
274
100
AcDbEntity
  8
0
100
AcDbLine
 62
2
  6
CONTINUOUS
 10
63.2998211902
 20
370.2931184438
 11
63.2998211902
 21
380.2683575164
  0
LINE
  5
275
100
AcDbEntity
  8
0
100
AcDbLine
 62
2
  6
CONTINUOUS
 10
392.2998211902
 20
369.2049846132
 11
392.2998211902
 21
380.2683575164
  0
LINE
  5
276
100
AcDbEntity
  8
0
100
AcDbLine
 62
2
  6
CONTINUOUS
 10
63.2998211902
 20
379.5183575164
 11
227.7998211902
 21
379.5183575164
  0
LINE
  5
277
100
AcDbEntity
  8
0
100
AcDbLine
 62
2
  6
CONTINUOUS
 10
392.2998211902
 20
379.5183575164
 11
227.7998211902
 21
379.5183575164
  0
INSERT
  5
278
100
AcDbEntity
  8
0
100
AcDbBlockReference
 62
2
  6
CONTINUOUS
  2
_CLOSED
 10
63.2998211902
 20
379.5183575164
 41
2.5
 42
2.5
 43
2.5
 50
180.0
  0
INSERT
  5
279
100
AcDbEntity
  8
0
100
AcDbBlockReference
 62
2
  6
CONTINUOUS
  2
_CLOSED
 10
392.2998211902
 20
379.5183575164
 41
2.5
 42
2.5
 43
2.5
  0
ENDBLK
  5
27A
100
AcDbEntity
  8
0
  6
BYBLOCK
 62
0
100
AcDbBlockEnd
  0
BLOCK
  5
27B
100
AcDbEntity
  8
0
100
AcDbBlockBegin
 62
2
  6
CONTINUOUS
  2
*D1
 70
65
 10
0.0
 20
0.0
  3
*D1
  1

  0
MTEXT
  5
27C
100
AcDbEntity
  8
0
100
AcDbMText
 62
2
  6
CONTINUOUS
  7
STANDARD
 71
2
 72
1
 10
43.3319546438
 20
341.0771808954
 30
0.0
 11
0.0
 21
1.0
 31
0.0
  1
49
 40
3.0
 41
4.6617100372
  0
LINE
  5
27D
100
AcDbEntity
  8
0
100
AcDbLine
 62
2
  6
CONTINUOUS
 10
58.5171897406
 20
365.5771808954
 11
46.3319546438
 21
365.5771808954
  0
LINE
  5
27E
100
AcDbEntity
  8
0
100
AcDbLine
 62
2
  6
CONTINUOUS
 10
58.5171897406
 20
316.5771808954
 11
46.3319546438
 21
316.5771808954
  0
LINE
  5
27F
100
AcDbEntity
  8
0
100
AcDbLine
 62
2
  6
CONTINUOUS
 10
47.0819546438
 20
365.5771808954
 11
47.0819546438
 21
341.0771808954
  0
LINE
  5
280
100
AcDbEntity
  8
0
100
AcDbLine
 62
2
  6
CONTINUOUS
 10
47.0819546438
 20
316.5771808954
 11
47.0819546438
 21
341.0771808954
  0
INSERT
  5
281
100
AcDbEntity
  8
0
100
AcDbBlockReference
 62
2
  6
CONTINUOUS
  2
_CLOSED
 10
47.0819546438
 20
365.5771808954
 41
2.5
 42
2.5
 43
2.5
 50
90.0
  0
INSERT
  5
282
100
AcDbEntity
  8
0
100
AcDbBlockReference
 62
2
  6
CONTINUOUS
  2
_CLOSED
 10
47.0819546438
 20
316.5771808954
 41
2.5
 42
2.5
 43
2.5
 50
270.0
  0
ENDBLK
  5
283
100
AcDbEntity
  8
0
  6
BYBLOCK
 62
0
100
AcDbBlockEnd
  0
BLOCK
  5
284
100
AcDbEntity
  8
0
100
AcDbBlockBegin
 62
2
  6
CONTINUOUS
  2
*D2
 70
65
 10
0.0
 20
0.0
  3
*D2
  1

  0
MTEXT
  5
285
100
AcDbEntity
  8
0
100
AcDbMText
 62
2
  6
CONTINUOUS
  7
STANDARD
 71
2
 72
1
 10
42.2994693426
 20
206.1205632981
 30
0.0
 11
0.0
 21
1.0
 31
0.0
  1
71,3
 40
3.0
 41
8.1524163569
  0
LINE
  5
286
100
AcDbEntity
  8
0
100
AcDbLine
 62
2
  6
CONTINUOUS
 10
60.8206340934
 20
241.7705632981
 11
45.2994693426
 21
241.7705632981
  0
LINE
  5
287
100
AcDbEntity
  8
0
100
AcDbLine
 62
2
  6
CONTINUOUS
 10
59.0235760289
 20
170.4705632981
 11
45.2994693426
 21
170.4705632981
  0
LINE
  5
288
100
AcDbEntity
  8
0
100
AcDbLine
 62
2
  6
CONTINUOUS
 10
46.0494693426
 20
241.7705632981
 11
46.0494693426
 21
206.1205632981
  0
LINE
  5
289
100
AcDbEntity
  8
0
100
AcDbLine
 62
2
  6
CONTINUOUS
 10
46.0494693426
 20
170.4705632981
 11
46.0494693426
 21
206.1205632981
  0
INSERT
  5
28A
100
AcDbEntity
  8
0
100
AcDbBlockReference
 62
2
  6
CONTINUOUS
  2
_CLOSED
 10
46.0494693426
 20
241.7705632981
 41
2.5
 42
2.5
 43
2.5
 50
90.0
  0
INSERT
  5
28B
100
AcDbEntity
  8
0
100
AcDbBlockReference
 62
2
  6
CONTINUOUS
  2
_CLOSED
 10
46.0494693426
 20
170.4705632981
 41
2.5
 42
2.5
 43
2.5
 50
270.0
  0
ENDBLK
  5
28C
100
AcDbEntity
  8
0
  6
BYBLOCK
 62
0
100
AcDbBlockEnd
  0
BLOCK
  5
28D
100
AcDbEntity
  8
0
100
AcDbBlockBegin
 62
2
  6
CONTINUOUS
  2
*D3
 70
65
 10
0.0
 20
0.0
  3
*D3
  1

  0
MTEXT
  5
28E
100
AcDbEntity
  8
0
100
AcDbMText
 62
2
  6
CONTINUOUS
  7
STANDARD
 71
3
 72
1
 10
401.6442455994
 20
163.904663591
 30
0.0
 11
0.0
 21
1.0
 31
0.0
  1
1
 40
3.0
 41
2.3308550186
  0
LINE
  5
28F
100
AcDbEntity
  8
0
100
AcDbLine
 62
2
  6
CONTINUOUS
 10
397.2874212315
 20
171.4705632981
 11
406.1442455994
 21
171.4705632981
  0
LINE
  5
290
100
AcDbEntity
  8
0
100
AcDbLine
 62
2
  6
CONTINUOUS
 10
397.4198462328
 20
170.4705632981
 11
406.1442455994
 21
170.4705632981
  0
LINE
  5
291
100
AcDbEntity
  8
0
100
AcDbLine
 62
2
  6
CONTINUOUS
 10
405.3942455994
 20
171.4705632981
 11
405.3942455994
 21
172.4705632981
  0
LINE
  5
292
100
AcDbEntity
  8
0
100
AcDbLine
 62
2
  6
CONTINUOUS
 10
405.3942455994
 20
172.4705632981
 11
405.3942455994
 21
170.9705632981
  0
LINE
  5
293
100
AcDbEntity
  8
0
100
AcDbLine
 62
2
  6
CONTINUOUS
 10
405.3942455994
 20
170.4705632981
 11
405.3942455994
 21
161.5738085724
  0
LINE
  5
294
100
AcDbEntity
  8
0
100
AcDbLine
 62
2
  6
CONTINUOUS
 10
405.3942455994
 20
161.5738085724
 11
405.3942455994
 21
170.9705632981
  0
INSERT
  5
295
100
AcDbEntity
  8
0
100
AcDbBlockReference
 62
2
  6
CONTINUOUS
  2
_CLOSED
 10
405.3942455994
 20
171.4705632981
 41
2.5
 42
2.5
 43
2.5
 50
270.0
  0
INSERT
  5
296
100
AcDbEntity
  8
0
100
AcDbBlockReference
 62
2
  6
CONTINUOUS
  2
_CLOSED
 10
405.3942455994
 20
170.4705632981
 41
2.5
 42
2.5
 43
2.5
 50
90.0
  0
ENDBLK
  5
297
100
AcDbEntity
  8
0
  6
BYBLOCK
 62
0
100
AcDbBlockEnd
  0
BLOCK
  5
298
100
AcDbEntity
  8
0
100
AcDbBlockBegin
 62
2
  6
CONTINUOUS
  2
*D4
 70
65
 10
0.0
 20
0.0
  3
*D4
  1

  0
MTEXT
  5
299
100
AcDbEntity
  8
0
100
AcDbMText
 62
2
  6
CONTINUOUS
  7
STANDARD
 71
2
 72
1
 10
487.5053370827
 20
259.2862001352
 30
0.0
 11
1.0
 21
0.0
 31
0.0
  1
39
 40
3.0
 41
4.6617100372
  0
LINE
  5
29A
100
AcDbEntity
  8
0
100
AcDbLine
 62
2
  6
CONTINUOUS
 10
467.6012080504
 20
246.8701116852
 11
467.6012080504
 21
256.2862001352
  0
LINE
  5
29B
100
AcDbEntity
  8
0
100
AcDbLine
 62
2
  6
CONTINUOUS
 10
506.6012080504
 20
247.6783697497
 11
506.6012080504
 21
256.2862001352
  0
LINE
  5
29C
100
AcDbEntity
  8
0
100
AcDbLine
 62
2
  6
CONTINUOUS
 10
467.6012080504
 20
255.5362001352
 11
487.1012080504
 21
255.5362001352
  0
LINE
  5
29D
100
AcDbEntity
  8
0
100
AcDbLine
 62
2
  6
CONTINUOUS
 10
506.6012080504
 20
255.5362001352
 11
487.1012080504
 21
255.5362001352
  0
INSERT
  5
29E
100
AcDbEntity
  8
0
100
AcDbBlockReference
 62
2
  6
CONTINUOUS
  2
_CLOSED
 10
467.6012080504
 20
255.5362001352
 41
2.5
 42
2.5
 43
2.5
 50
180.0
  0
INSERT
  5
29F
100
AcDbEntity
  8
0
100
AcDbBlockReference
 62
2
  6
CONTINUOUS
  2
_CLOSED
 10
506.6012080504
 20
255.5362001352
 41
2.5
 42
2.5
 43
2.5
  0
ENDBLK
  5
2A0
100
AcDbEntity
  8
0
  6
BYBLOCK
 62
0
100
AcDbBlockEnd
  0
BLOCK
  5
2A1
100
AcDbEntity
  8
0
100
AcDbBlockBegin
 62
2
  6
CONTINUOUS
  2
*D5
 70
65
 10
0.0
 20
0.0
  3
*D5
  1

  0
MTEXT
  5
2A2
100
AcDbEntity
  8
0
100
AcDbMText
 62
2
  6
CONTINUOUS
  7
STANDARD
 71
2
 72
1
 10
227.7998211902
 20
262.4260088115
 30
0.0
 11
1.0
 21
0.0
 31
0.0
  1
315
 40
3.0
 41
6.9925650558
  0
LINE
  5
2A3
100
AcDbEntity
  8
0
100
AcDbLine
 62
2
  6
CONTINUOUS
 10
70.2998211902
 20
247.6783697497
 11
70.2998211902
 21
259.4260088115
  0
LINE
  5
2A4
100
AcDbEntity
  8
0
100
AcDbLine
 62
2
  6
CONTINUOUS
 10
385.2998211902
 20
247.6783697497
 11
385.2998211902
 21
259.4260088115
  0
LINE
  5
2A5
100
AcDbEntity
  8
0
100
AcDbLine
 62
2
  6
CONTINUOUS
 10
70.2998211902
 20
258.6760088115
 11
227.7998211902
 21
258.6760088115
  0
LINE
  5
2A6
100
AcDbEntity
  8
0
100
AcDbLine
 62
2
  6
CONTINUOUS
 10
385.2998211902
 20
258.6760088115
 11
227.7998211902
 21
258.6760088115
  0
INSERT
  5
2A7
100
AcDbEntity
  8
0
100
AcDbBlockReference
 62
2
  6
CONTINUOUS
  2
_CLOSED
 10
70.2998211902
 20
258.6760088115
 41
2.5
 42
2.5
 43
2.5
 50
180.0
  0
INSERT
  5
2A8
100
AcDbEntity
  8
0
100
AcDbBlockReference
 62
2
  6
CONTINUOUS
  2
_CLOSED
 10
385.2998211902
 20
258.6760088115
 41
2.5
 42
2.5
 43
2.5
  0
ENDBLK
  5
2A9
100
AcDbEntity
  8
0
  6
BYBLOCK
 62
0
100
AcDbBlockEnd
  0
ENDSEC
  0
SECTION
  2
ENTITIES
  0
DIMENSION
  5
2AA
100
AcDbEntity
  8
0
100
AcDbDimension
 62
2
  6
CONTINUOUS
  2
*D0
 10
392.2998211902
 20
379.5183575164
 11
227.7948850708
 21
379.5183575164
 70
160
  3
DIMSTYLE_1
100
AcDbAlignedDimension
 13
63.2998211902
 23
369.5431184438
 14
392.2998211902
 24
368.4549846132
100
AcDbRotatedDimension
  0
DIMENSION
  5
2AB
100
AcDbEntity
  8
0
100
AcDbDimension
 62
2
  6
CONTINUOUS
  2
*D1
 10
47.0819546438
 20
316.5771808954
 11
47.0819546438
 21
341.0022225514
 70
160
  3
DIMSTYLE_2
100
AcDbAlignedDimension
 13
59.2671897406
 23
365.5771808954
 14
59.2671897406
 24
316.5771808954
 50
270.0
100
AcDbRotatedDimension
  0
DIMENSION
  5
2AC
100
AcDbEntity
  8
0
100
AcDbDimension
 62
2
  6
CONTINUOUS
  2
*D2
 10
46.0494693426
 20
170.4705632981
 11
46.0494693426
 21
206.1222438169
 70
160
  3
DIMSTYLE_2
100
AcDbAlignedDimension
 13
61.5706340934
 23
241.7705632981
 14
59.7735760289
 24
170.4705632981
 50
270.0
100
AcDbRotatedDimension
  0
DIMENSION
  5
2AD
100
AcDbEntity
  8
0
100
AcDbDimension
 62
2
  6
CONTINUOUS
  2
*D3
 10
405.3942455994
 20
170.4705632981
 11
405.3942455994
 21
162.583108322
 70
160
  3
DIMSTYLE_3
100
AcDbAlignedDimension
 13
396.5374212315
 23
171.4705632981
 14
396.6698462328
 24
170.4705632981
 50
270.0
100
AcDbRotatedDimension
  0
DIMENSION
  5
2AE
100
AcDbEntity
  8
0
100
AcDbDimension
 62
2
  6
CONTINUOUS
  2
*D4
 10
506.6012080504
 20
255.5362001352
 11
487.5028588257
 21
255.5362001352
 70
160
  3
DIMSTYLE_2
100
AcDbAlignedDimension
 13
467.6012080504
 23
246.1201116852
 14
506.6012080504
 24
246.9283697497
100
AcDbRotatedDimension
  0
DIMENSION
  5
2AF
100
AcDbEntity
  8
0
100
AcDbDimension
 62
2
  6
CONTINUOUS
  2
*D5
 10
385.2998211902
 20
258.6760088115
 11
227.8060334473
 21
258.6760088115
 70
160
  3
DIMSTYLE_1
100
AcDbAlignedDimension
 13
70.2998211902
 23
246.9283697497
 14
385.2998211902
 24
246.9283697497
100
AcDbRotatedDimension
  0
LINE
  5
2B0
100
AcDbEntity
  8
0
100
AcDbLine
 62
2
  6
CONTINUOUS
 10
494.0968879518
 20
50.3800379518
 11
584.0968879518
 21
50.3800379518
  0
LINE
  5
2B1
100
AcDbEntity
  8
0
100
AcDbLine
 62
2
  6
CONTINUOUS
 10
494.0968879518
 20
50.3800379518
 11
494.0968879518
 21
10.3800379518
  0
LINE
  5
2B2
100
AcDbEntity
  8
0
100
AcDbLine
 62
2
  6
CONTINUOUS
 10
524.0968879518
 20
44.3800379518
 11
584.0968879518
 21
44.3800379518
  0
LINE
  5
2B3
100
AcDbEntity
  8
0
100
AcDbLine
 62
2
  6
CONTINUOUS
 10
524.0968879518
 20
38.3800379518
 11
584.0968879518
 21
38.3800379518
  0
LINE
  5
2B4
100
AcDbEntity
  8
0
100
AcDbLine
 62
2
  6
CONTINUOUS
 10
524.0968879518
 20
28.3800379518
 11
584.0968879518
 21
28.3800379518
  0
LINE
  5
2B5
100
AcDbEntity
  8
0
100
AcDbLine
 62
2
  6
CONTINUOUS
 10
494.0968879518
 20
23.3800379518
 11
584.0968879518
 21
23.3800379518
  0
LINE
  5
2B6
100
AcDbEntity
  8
0
100
AcDbLine
 62
2
  6
CONTINUOUS
 10
494.0968879518
 20
10.3800379518
 11
584.0968879518
 21
10.3800379518
  0
LINE
  5
2B7
100
AcDbEntity
  8
0
100
AcDbLine
 62
2
  6
CONTINUOUS
 10
524.0968879518
 20
50.3800379518
 11
524.0968879518
 21
23.3800379518
  0
LINE
  5
2B8
100
AcDbEntity
  8
0
100
AcDbLine
 62
2
  6
CONTINUOUS
 10
564.0968879518
 20
50.3800379518
 11
564.0968879518
 21
38.3800379518
  0
LINE
  5
2B9
100
AcDbEntity
  8
0
100
AcDbLine
 62
2
  6
CONTINUOUS
 10
584.0968879518
 20
50.3800379518
 11
584.0968879518
 21
10.3800379518
  0
INSERT
  5
2BA
100
AcDbEntity
  8
0
100
AcDbBlockReference
 62
2
  6
CONTINUOUS
  2
LOGO2_BL0
 10
507.9229349966
 20
36.8800379518
  0
MTEXT
  5
2BB
100
AcDbEntity
  8
9_SOLID
100
AcDbMText
 62
2
  6
CONTINUOUS
  7
TEXTSTYLE_2
 71
1
 72
1
 10
525.5843879518
 20
48.8800379518
 30
0.0
 11
1.0
 21
0.0
 31
0.0
  1
6E3_C_001
 40
3.0
 41
31.2857142857
  0
MTEXT
  5
2BC
100
AcDbEntity
  8
0
100
AcDbMText
 62
2
  6
CONTINUOUS
  7
TEXTSTYLE_2
 71
1
 72
1
 10
565.5843879518
 20
48.6300379518
 30
0.0
 11
1.0
 21
0.0
 31
0.0
  1
Rev: 00
 40
3.5
 41
26.875
  0
MTEXT
  5
2BD
100
AcDbEntity
  8
9_SOLID
100
AcDbMText
 62
2
  6
CONTINUOUS
  7
TEXTSTYLE_2
 71
1
 72
1
 10
525.5843879518
 20
42.6300379518
 30
0.0
 11
1.0
 21
0.0
 31
0.0
  1
Scale:1:1
 40
3.5
 41
28.375
  0
MTEXT
  5
2BE
100
AcDbEntity
  8
9_SOLID
100
AcDbMText
 62
2
  6
CONTINUOUS
  7
TEXTSTYLE_2
 71
1
 72
1
 10
565.5843879518
 20
43.1300379518
 30
0.0
 11
1.0
 21
0.0
 31
0.0
  1
A2
 40
3.5
 41
9.625
  0
MTEXT
  5
2BF
100
AcDbEntity
  8
0
100
AcDbMText
 62
2
  6
CONTINUOUS
  7
TEXTSTYLE_2
 71
1
 72
1
 10
525.5843879518
 20
35.1300379518
 30
0.0
 11
1.0
 21
0.0
 31
0.0
  1
BITPOP 8.1 
 40
3.5
 41
43.75
  0
MTEXT
  5
2C0
100
AcDbEntity
  8
0
100
AcDbMText
 62
2
  6
CONTINUOUS
  7
TEXTSTYLE_2
 71
1
 72
1
 10
525.5843879518
 20
27.1300379518
 30
0.0
 11
1.0
 21
0.0
 31
0.0
  1
DATE: 06/07/2018 
 40
2.5
 41
48.9285714286
  0
MTEXT
  5
2C1
100
AcDbEntity
  8
9_SOLID
100
AcDbMText
 62
2
  6
CONTINUOUS
  7
TEXTSTYLE_2
 71
1
 72
1
 10
495.5843879518
 20
23.0675379518
 30
0.0
 11
1.0
 21
0.0
 31
0.0
  1
Any integral or partial reproductions are prohibited \Pwithout prior authorisation of L {\Ftxt.shx;\W0.190476;\H2.250000; }& L Luce & Light s.r.l., \Pin accordance with the law in force. \PAll rights reserved.
 40
2.25
 41
134.5982142857
  0
LINE
  5
2C2
100
AcDbEntity
  8
0
100
AcDbLine
 62
7
  6
CONTINUOUS
 10
0.0
 20
0.0
 11
0.0
 21
420.0
  0
LINE
  5
2C3
100
AcDbEntity
  8
0
100
AcDbLine
 62
7
  6
CONTINUOUS
 10
0.0
 20
0.0
 11
594.0
 21
0.0
  0
LINE
  5
2C4
100
AcDbEntity
  8
0
100
AcDbLine
 62
7
  6
CONTINUOUS
 10
0.0
 20
420.0
 11
594.0
 21
420.0
  0
LINE
  5
2C5
100
AcDbEntity
  8
0
100
AcDbLine
 62
7
  6
CONTINUOUS
 10
594.0
 20
0.0
 11
594.0
 21
420.0
  0
LINE
  5
2C6
100
AcDbEntity
  8
7_ALL_FEATURES
100
AcDbLine
 62
3
  6
CONTINUOUS
 10
60.8213284913
 20
356.0771808954
 11
60.8213284913
 21
326.0771808954
  0
LINE
  5
2C7
100
AcDbEntity
  8
7_ALL_FEATURES
100
AcDbLine
 62
9
  6
CONTINUOUS
 10
61.0857030762
 20
356.0771808954
 11
61.0857030762
 21
326.0771808954
  0
LINE
  5
2C8
100
AcDbEntity
  8
7_ALL_FEATURES
100
AcDbLine
 62
7
  6
CONTINUOUS
 10
63.2998211902
 20
317.5771808954
 11
63.2998211902
 21
364.5771808954
  0
LINE
  5
2C9
100
AcDbEntity
  8
7_ALL_FEATURES
100
AcDbLine
 62
7
  6
CONTINUOUS
 10
72.1998211902
 20
355.4771808954
 11
72.1998211902
 21
326.6771808954
  0
LINE
  5
2CA
100
AcDbEntity
  8
7_ALL_FEATURES
100
AcDbLine
 62
7
  6
CONTINUOUS
 10
72.4408028144
 20
355.4372727854
 11
72.439972863
 21
326.717976742
  0
LINE
  5
2CB
100
AcDbEntity
  8
7_ALL_FEATURES
100
AcDbLine
 62
7
  6
CONTINUOUS
 10
72.4582573744
 20
355.4198007018
 11
72.4574284324
 21
326.7354346303
  0
LINE
  5
2CC
100
AcDbEntity
  8
7_ALL_FEATURES
100
AcDbLine
 62
7
  6
CONTINUOUS
 10
72.9699399151
 20
326.7404840094
 11
72.9707685648
 21
355.4147348873
  0
LINE
  5
2CD
100
AcDbEntity
  8
7_ALL_FEATURES
100
AcDbLine
 62
9
  6
CONTINUOUS
 10
75.6868221946
 20
352.6985242718
 11
75.6861505305
 21
329.4565376393
  0
LINE
  5
2CE
100
AcDbEntity
  8
7_ALL_FEATURES
100
AcDbLine
 62
9
  6
CONTINUOUS
 10
76.178540177
 20
328.9641195331
 11
76.1792403008
 21
353.1909139182
  0
LINE
  5
2CF
100
AcDbEntity
  8
7_ALL_FEATURES
100
AcDbLine
 62
9
  6
CONTINUOUS
 10
99.4212269333
 20
353.1902422541
 11
99.4205268095
 21
328.963447869
  0
LINE
  5
2D0
100
AcDbEntity
  8
7_ALL_FEATURES
100
AcDbLine
 62
9
  6
CONTINUOUS
 10
99.9129449156
 20
329.4558375155
 11
99.9136165797
 21
352.697824148
  0
LINE
  5
2D1
100
AcDbEntity
  8
7_ALL_FEATURES
100
AcDbLine
 62
7
  6
CONTINUOUS
 10
102.6289985455
 20
326.7396269
 11
102.6298271952
 21
355.4138777778
  0
LINE
  5
2D2
100
AcDbEntity
  8
7_ALL_FEATURES
100
AcDbLine
 62
7
  6
CONTINUOUS
 10
103.1415097358
 20
326.734560896
 11
103.1423386774
 21
355.418914202
  0
LINE
  5
2D3
100
AcDbEntity
  8
7_ALL_FEATURES
100
AcDbLine
 62
7
  6
CONTINUOUS
 10
103.1589642958
 20
326.7170890019
 11
103.1597942473
 21
355.4363850452
  0
LINE
  5
2D4
100
AcDbEntity
  8
7_ALL_FEATURES
100
AcDbLine
 62
7
  6
CONTINUOUS
 10
103.3998211902
 20
326.6771808954
 11
103.3998211902
 21
355.4771808954
  0
LINE
  5
2D5
100
AcDbEntity
  8
7_ALL_FEATURES
100
AcDbLine
 62
7
  6
CONTINUOUS
 10
112.1998211902
 20
355.4771808954
 11
112.1998211902
 21
326.6771808954
  0
LINE
  5
2D6
100
AcDbEntity
  8
7_ALL_FEATURES
100
AcDbLine
 62
7
  6
CONTINUOUS
 10
112.4408028144
 20
355.4372727854
 11
112.439972863
 21
326.717976742
  0
LINE
  5
2D7
100
AcDbEntity
  8
7_ALL_FEATURES
100
AcDbLine
 62
7
  6
CONTINUOUS
 10
112.4582573744
 20
355.4198007018
 11
112.4574284324
 21
326.7354346303
  0
LINE
  5
2D8
100
AcDbEntity
  8
7_ALL_FEATURES
100
AcDbLine
 62
7
  6
CONTINUOUS
 10
112.9699399151
 20
326.7404840094
 11
112.9707685648
 21
355.4147348873
  0
LINE
  5
2D9
100
AcDbEntity
  8
7_ALL_FEATURES
100
AcDbLine
 62
9
  6
CONTINUOUS
 10
115.6868221946
 20
352.6985242718
 11
115.6861505305
 21
329.4565376393
  0
LINE
  5
2DA
100
AcDbEntity
  8
7_ALL_FEATURES
100
AcDbLine
 62
9
  6
CONTINUOUS
 10
116.178540177
 20
328.9641195331
 11
116.1792403008
 21
353.1909139182
  0
LINE
  5
2DB
100
AcDbEntity
  8
7_ALL_FEATURES
100
AcDbLine
 62
9
  6
CONTINUOUS
 10
72.439972863
 20
326.717976742
 11
72.4574284323
 21
326.7354313025
  0
LINE
  5
2DC
100
AcDbEntity
  8
7_ALL_FEATURES
100
AcDbLine
 62
9
  6
CONTINUOUS
 10
102.1425198776
 20
356.4188070738
 11
102.1599754469
 21
356.4362616343
  0
LINE
  5
2DD
100
AcDbEntity
  8
7_ALL_FEATURES
100
AcDbLine
 62
9
  6
CONTINUOUS
 10
72.969939915
 20
326.7404840094
 11
75.6861505305
 21
329.4565376393
  0
LINE
  5
2DE
100
AcDbEntity
  8
7_ALL_FEATURES
100
AcDbLine
 62
9
  6
CONTINUOUS
 10
99.4212269333
 20
353.1902422541
 11
102.1374375487
 21
355.906295884
  0
LINE
  5
2DF
100
AcDbEntity
  8
7_ALL_FEATURES
100
AcDbLine
 62
9
  6
CONTINUOUS
 10
102.6298271952
 20
355.4138777778
 11
99.9136165797
 21
352.697824148
  0
LINE
  5
2E0
100
AcDbEntity
  8
7_ALL_FEATURES
100
AcDbLine
 62
9
  6
CONTINUOUS
 10
76.178540177
 20
328.9641195332
 11
73.4623295615
 21
326.2480659033
  0
LINE
  5
2E1
100
AcDbEntity
  8
7_ALL_FEATURES
100
AcDbLine
 62
9
  6
CONTINUOUS
 10
103.1597942473
 20
355.4363850452
 11
103.1423386779
 21
355.4189304847
  0
LINE
  5
2E2
100
AcDbEntity
  8
7_ALL_FEATURES
100
AcDbLine
 62
9
  6
CONTINUOUS
 10
73.4572472327
 20
325.7355547134
 11
73.4397916634
 21
325.7181001529
  0
LINE
  5
2E3
100
AcDbEntity
  8
7_ALL_FEATURES
100
AcDbLine
 62
9
  6
CONTINUOUS
 10
102.1590877067
 20
325.7172702015
 11
102.1416331462
 21
325.7347257708
  0
LINE
  5
2E4
100
AcDbEntity
  8
7_ALL_FEATURES
100
AcDbLine
 62
9
  6
CONTINUOUS
 10
72.4582573749
 20
355.419817216
 11
72.4408028144
 21
355.4372727854
  0
LINE
  5
2E5
100
AcDbEntity
  8
7_ALL_FEATURES
100
AcDbLine
 62
9
  6
CONTINUOUS
 10
102.1365804393
 20
326.2472372536
 11
99.4205268094
 21
328.9634478691
  0
LINE
  5
2E6
100
AcDbEntity
  8
7_ALL_FEATURES
100
AcDbLine
 62
9
  6
CONTINUOUS
 10
75.6868221946
 20
352.6985242718
 11
72.9707685647
 21
355.4147348873
  0
LINE
  5
2E7
100
AcDbEntity
  8
7_ALL_FEATURES
100
AcDbLine
 62
9
  6
CONTINUOUS
 10
73.4631866709
 20
355.9071245337
 11
76.1792403008
 21
353.1909139182
  0
LINE
  5
2E8
100
AcDbEntity
  8
7_ALL_FEATURES
100
AcDbLine
 62
9
  6
CONTINUOUS
 10
99.9129449156
 20
329.4558375155
 11
102.6289985455
 21
326.7396269
  0
LINE
  5
2E9
100
AcDbEntity
  8
7_ALL_FEATURES
100
AcDbLine
 62
9
  6
CONTINUOUS
 10
73.4406794035
 20
356.4370915858
 11
73.458133964
 21
356.4196360164
  0
LINE
  5
2EA
100
AcDbEntity
  8
7_ALL_FEATURES
100
AcDbLine
 62
9
  6
CONTINUOUS
 10
103.1415097353
 20
326.7345445713
 11
103.1589642958
 21
326.7170890019
  0
LINE
  5
2EB
100
AcDbEntity
  8
7_ALL_FEATURES
100
AcDbLine
 62
9
  6
CONTINUOUS
 10
139.4212269333
 20
353.1902422541
 11
139.4205268095
 21
328.963447869
  0
LINE
  5
2EC
100
AcDbEntity
  8
7_ALL_FEATURES
100
AcDbLine
 62
9
  6
CONTINUOUS
 10
139.9129449156
 20
329.4558375155
 11
139.9136165797
 21
352.697824148
  0
LINE
  5
2ED
100
AcDbEntity
  8
7_ALL_FEATURES
100
AcDbLine
 62
7
  6
CONTINUOUS
 10
142.6289985455
 20
326.7396269
 11
142.6298271952
 21
355.4138777778
  0
LINE
  5
2EE
100
AcDbEntity
  8
7_ALL_FEATURES
100
AcDbLine
 62
7
  6
CONTINUOUS
 10
143.1415097358
 20
326.734560896
 11
143.1423386774
 21
355.418914202
  0
LINE
  5
2EF
100
AcDbEntity
  8
7_ALL_FEATURES
100
AcDbLine
 62
7
  6
CONTINUOUS
 10
143.1589642958
 20
326.7170890019
 11
143.1597942473
 21
355.4363850452
  0
LINE
  5
2F0
100
AcDbEntity
  8
7_ALL_FEATURES
100
AcDbLine
 62
7
  6
CONTINUOUS
 10
143.3998211902
 20
326.6771808954
 11
143.3998211902
 21
355.4771808954
  0
LINE
  5
2F1
100
AcDbEntity
  8
7_ALL_FEATURES
100
AcDbLine
 62
7
  6
CONTINUOUS
 10
152.1998211902
 20
355.4771808954
 11
152.1998211902
 21
326.6771808954
  0
LINE
  5
2F2
100
AcDbEntity
  8
7_ALL_FEATURES
100
AcDbLine
 62
7
  6
CONTINUOUS
 10
152.4408028144
 20
355.4372727854
 11
152.439972863
 21
326.717976742
  0
LINE
  5
2F3
100
AcDbEntity
  8
7_ALL_FEATURES
100
AcDbLine
 62
7
  6
CONTINUOUS
 10
152.4582573744
 20
355.4198007018
 11
152.4574284324
 21
326.7354346303
  0
LINE
  5
2F4
100
AcDbEntity
  8
7_ALL_FEATURES
100
AcDbLine
 62
7
  6
CONTINUOUS
 10
152.9699399151
 20
326.7404840094
 11
152.9707685648
 21
355.4147348873
  0
LINE
  5
2F5
100
AcDbEntity
  8
7_ALL_FEATURES
100
AcDbLine
 62
9
  6
CONTINUOUS
 10
155.6868221946
 20
352.6985242718
 11
155.6861505305
 21
329.4565376393
  0
LINE
  5
2F6
100
AcDbEntity
  8
7_ALL_FEATURES
100
AcDbLine
 62
9
  6
CONTINUOUS
 10
156.178540177
 20
328.9641195331
 11
156.1792403008
 21
353.1909139182
  0
LINE
  5
2F7
100
AcDbEntity
  8
7_ALL_FEATURES
100
AcDbLine
 62
9
  6
CONTINUOUS
 10
112.439972863
 20
326.717976742
 11
112.4574284323
 21
326.7354313025
  0
LINE
  5
2F8
100
AcDbEntity
  8
7_ALL_FEATURES
100
AcDbLine
 62
9
  6
CONTINUOUS
 10
142.1425198776
 20
356.4188070738
 11
142.1599754469
 21
356.4362616343
  0
LINE
  5
2F9
100
AcDbEntity
  8
7_ALL_FEATURES
100
AcDbLine
 62
9
  6
CONTINUOUS
 10
112.969939915
 20
326.7404840094
 11
115.6861505305
 21
329.4565376393
  0
LINE
  5
2FA
100
AcDbEntity
  8
7_ALL_FEATURES
100
AcDbLine
 62
9
  6
CONTINUOUS
 10
139.4212269333
 20
353.1902422541
 11
142.1374375487
 21
355.906295884
  0
LINE
  5
2FB
100
AcDbEntity
  8
7_ALL_FEATURES
100
AcDbLine
 62
9
  6
CONTINUOUS
 10
142.6298271952
 20
355.4138777778
 11
139.9136165797
 21
352.697824148
  0
LINE
  5
2FC
100
AcDbEntity
  8
7_ALL_FEATURES
100
AcDbLine
 62
9
  6
CONTINUOUS
 10
116.178540177
 20
328.9641195332
 11
113.4623295615
 21
326.2480659033
  0
LINE
  5
2FD
100
AcDbEntity
  8
7_ALL_FEATURES
100
AcDbLine
 62
9
  6
CONTINUOUS
 10
143.1597942473
 20
355.4363850452
 11
143.1423386779
 21
355.4189304847
  0
LINE
  5
2FE
100
AcDbEntity
  8
7_ALL_FEATURES
100
AcDbLine
 62
9
  6
CONTINUOUS
 10
113.4572472327
 20
325.7355547134
 11
113.4397916634
 21
325.7181001529
  0
LINE
  5
2FF
100
AcDbEntity
  8
7_ALL_FEATURES
100
AcDbLine
 62
9
  6
CONTINUOUS
 10
142.1590877067
 20
325.7172702015
 11
142.1416331462
 21
325.7347257708
  0
LINE
  5
300
100
AcDbEntity
  8
7_ALL_FEATURES
100
AcDbLine
 62
9
  6
CONTINUOUS
 10
112.4582573749
 20
355.419817216
 11
112.4408028144
 21
355.4372727854
  0
LINE
  5
301
100
AcDbEntity
  8
7_ALL_FEATURES
100
AcDbLine
 62
9
  6
CONTINUOUS
 10
142.1365804393
 20
326.2472372536
 11
139.4205268094
 21
328.9634478691
  0
LINE
  5
302
100
AcDbEntity
  8
7_ALL_FEATURES
100
AcDbLine
 62
9
  6
CONTINUOUS
 10
115.6868221946
 20
352.6985242718
 11
112.9707685647
 21
355.4147348873
  0
LINE
  5
303
100
AcDbEntity
  8
7_ALL_FEATURES
100
AcDbLine
 62
9
  6
CONTINUOUS
 10
113.4631866709
 20
355.9071245337
 11
116.1792403008
 21
353.1909139182
  0
LINE
  5
304
100
AcDbEntity
  8
7_ALL_FEATURES
100
AcDbLine
 62
9
  6
CONTINUOUS
 10
139.9129449156
 20
329.4558375155
 11
142.6289985455
 21
326.7396269
  0
LINE
  5
305
100
AcDbEntity
  8
7_ALL_FEATURES
100
AcDbLine
 62
9
  6
CONTINUOUS
 10
113.4406794035
 20
356.4370915858
 11
113.458133964
 21
356.4196360164
  0
LINE
  5
306
100
AcDbEntity
  8
7_ALL_FEATURES
100
AcDbLine
 62
9
  6
CONTINUOUS
 10
143.1415097353
 20
326.7345445713
 11
143.1589642958
 21
326.7170890019
  0
LINE
  5
307
100
AcDbEntity
  8
7_ALL_FEATURES
100
AcDbLine
 62
9
  6
CONTINUOUS
 10
179.4212269333
 20
353.1902422541
 11
179.4205268095
 21
328.963447869
  0
LINE
  5
308
100
AcDbEntity
  8
7_ALL_FEATURES
100
AcDbLine
 62
9
  6
CONTINUOUS
 10
179.9129449156
 20
329.4558375155
 11
179.9136165797
 21
352.697824148
  0
LINE
  5
309
100
AcDbEntity
  8
7_ALL_FEATURES
100
AcDbLine
 62
7
  6
CONTINUOUS
 10
182.6289985455
 20
326.7396269
 11
182.6298271952
 21
355.4138777778
  0
LINE
  5
30A
100
AcDbEntity
  8
7_ALL_FEATURES
100
AcDbLine
 62
7
  6
CONTINUOUS
 10
183.1415097358
 20
326.734560896
 11
183.1423386774
 21
355.418914202
  0
LINE
  5
30B
100
AcDbEntity
  8
7_ALL_FEATURES
100
AcDbLine
 62
7
  6
CONTINUOUS
 10
183.1589642958
 20
326.7170890019
 11
183.1597942473
 21
355.4363850452
  0
LINE
  5
30C
100
AcDbEntity
  8
7_ALL_FEATURES
100
AcDbLine
 62
7
  6
CONTINUOUS
 10
183.3998211902
 20
326.6771808954
 11
183.3998211902
 21
355.4771808954
  0
LINE
  5
30D
100
AcDbEntity
  8
7_ALL_FEATURES
100
AcDbLine
 62
7
  6
CONTINUOUS
 10
192.1998211902
 20
355.4771808954
 11
192.1998211902
 21
326.6771808954
  0
LINE
  5
30E
100
AcDbEntity
  8
7_ALL_FEATURES
100
AcDbLine
 62
7
  6
CONTINUOUS
 10
192.4408028144
 20
355.4372727854
 11
192.439972863
 21
326.717976742
  0
LINE
  5
30F
100
AcDbEntity
  8
7_ALL_FEATURES
100
AcDbLine
 62
7
  6
CONTINUOUS
 10
192.4582573744
 20
355.4198007018
 11
192.4574284324
 21
326.7354346303
  0
LINE
  5
310
100
AcDbEntity
  8
7_ALL_FEATURES
100
AcDbLine
 62
7
  6
CONTINUOUS
 10
192.9699399151
 20
326.7404840094
 11
192.9707685648
 21
355.4147348873
  0
LINE
  5
311
100
AcDbEntity
  8
7_ALL_FEATURES
100
AcDbLine
 62
9
  6
CONTINUOUS
 10
152.439972863
 20
326.717976742
 11
152.4574284323
 21
326.7354313025
  0
LINE
  5
312
100
AcDbEntity
  8
7_ALL_FEATURES
100
AcDbLine
 62
9
  6
CONTINUOUS
 10
182.1425198776
 20
356.4188070738
 11
182.1599754469
 21
356.4362616343
  0
LINE
  5
313
100
AcDbEntity
  8
7_ALL_FEATURES
100
AcDbLine
 62
9
  6
CONTINUOUS
 10
152.969939915
 20
326.7404840094
 11
155.6861505305
 21
329.4565376393
  0
LINE
  5
314
100
AcDbEntity
  8
7_ALL_FEATURES
100
AcDbLine
 62
9
  6
CONTINUOUS
 10
179.4212269333
 20
353.1902422541
 11
182.1374375487
 21
355.906295884
  0
LINE
  5
315
100
AcDbEntity
  8
7_ALL_FEATURES
100
AcDbLine
 62
9
  6
CONTINUOUS
 10
182.6298271952
 20
355.4138777778
 11
179.9136165797
 21
352.697824148
  0
LINE
  5
316
100
AcDbEntity
  8
7_ALL_FEATURES
100
AcDbLine
 62
9
  6
CONTINUOUS
 10
156.178540177
 20
328.9641195332
 11
153.4623295615
 21
326.2480659033
  0
LINE
  5
317
100
AcDbEntity
  8
7_ALL_FEATURES
100
AcDbLine
 62
9
  6
CONTINUOUS
 10
183.1597942473
 20
355.4363850452
 11
183.1423386779
 21
355.4189304847
  0
LINE
  5
318
100
AcDbEntity
  8
7_ALL_FEATURES
100
AcDbLine
 62
9
  6
CONTINUOUS
 10
153.4572472327
 20
325.7355547134
 11
153.4397916634
 21
325.7181001529
  0
LINE
  5
319
100
AcDbEntity
  8
7_ALL_FEATURES
100
AcDbLine
 62
9
  6
CONTINUOUS
 10
182.1590877067
 20
325.7172702015
 11
182.1416331462
 21
325.7347257708
  0
LINE
  5
31A
100
AcDbEntity
  8
7_ALL_FEATURES
100
AcDbLine
 62
9
  6
CONTINUOUS
 10
152.4582573749
 20
355.419817216
 11
152.4408028144
 21
355.4372727854
  0
LINE
  5
31B
100
AcDbEntity
  8
7_ALL_FEATURES
100
AcDbLine
 62
9
  6
CONTINUOUS
 10
182.1365804393
 20
326.2472372536
 11
179.4205268094
 21
328.9634478691
  0
LINE
  5
31C
100
AcDbEntity
  8
7_ALL_FEATURES
100
AcDbLine
 62
9
  6
CONTINUOUS
 10
155.6868221946
 20
352.6985242718
 11
152.9707685647
 21
355.4147348873
  0
LINE
  5
31D
100
AcDbEntity
  8
7_ALL_FEATURES
100
AcDbLine
 62
9
  6
CONTINUOUS
 10
153.4631866709
 20
355.9071245337
 11
156.1792403008
 21
353.1909139182
  0
LINE
  5
31E
100
AcDbEntity
  8
7_ALL_FEATURES
100
AcDbLine
 62
9
  6
CONTINUOUS
 10
179.9129449156
 20
329.4558375155
 11
182.6289985455
 21
326.7396269
  0
LINE
  5
31F
100
AcDbEntity
  8
7_ALL_FEATURES
100
AcDbLine
 62
9
  6
CONTINUOUS
 10
153.4406794035
 20
356.4370915858
 11
153.458133964
 21
356.4196360164
  0
LINE
  5
320
100
AcDbEntity
  8
7_ALL_FEATURES
100
AcDbLine
 62
9
  6
CONTINUOUS
 10
183.1415097353
 20
326.7345445713
 11
183.1589642958
 21
326.7170890019
  0
LINE
  5
321
100
AcDbEntity
  8
7_ALL_FEATURES
100
AcDbLine
 62
9
  6
CONTINUOUS
 10
195.6868221946
 20
352.6985242718
 11
195.6861505305
 21
329.4565376393
  0
LINE
  5
322
100
AcDbEntity
  8
7_ALL_FEATURES
100
AcDbLine
 62
9
  6
CONTINUOUS
 10
196.178540177
 20
328.9641195331
 11
196.1792403008
 21
353.1909139182
  0
LINE
  5
323
100
AcDbEntity
  8
7_ALL_FEATURES
100
AcDbLine
 62
7
  6
CONTINUOUS
 10
391.2998211902
 20
316.5771808954
 11
64.2998211902
 21
316.5771808954
  0
LINE
  5
324
100
AcDbEntity
  8
7_ALL_FEATURES
100
AcDbLine
 62
9
  6
CONTINUOUS
 10
192.439972863
 20
326.717976742
 11
192.4574284323
 21
326.7354313025
  0
LINE
  5
325
100
AcDbEntity
  8
7_ALL_FEATURES
100
AcDbLine
 62
9
  6
CONTINUOUS
 10
222.1425198776
 20
356.4188070738
 11
222.1599754469
 21
356.4362616343
  0
LINE
  5
326
100
AcDbEntity
  8
7_ALL_FEATURES
100
AcDbLine
 62
9
  6
CONTINUOUS
 10
192.969939915
 20
326.7404840094
 11
195.6861505305
 21
329.4565376393
  0
LINE
  5
327
100
AcDbEntity
  8
7_ALL_FEATURES
100
AcDbLine
 62
9
  6
CONTINUOUS
 10
219.4212269333
 20
353.1902422541
 11
222.1374375487
 21
355.906295884
  0
LINE
  5
328
100
AcDbEntity
  8
7_ALL_FEATURES
100
AcDbLine
 62
9
  6
CONTINUOUS
 10
222.6298271952
 20
355.4138777778
 11
219.9136165797
 21
352.697824148
  0
LINE
  5
329
100
AcDbEntity
  8
7_ALL_FEATURES
100
AcDbLine
 62
9
  6
CONTINUOUS
 10
196.178540177
 20
328.9641195332
 11
193.4623295615
 21
326.2480659033
  0
LINE
  5
32A
100
AcDbEntity
  8
7_ALL_FEATURES
100
AcDbLine
 62
9
  6
CONTINUOUS
 10
223.1597942473
 20
355.4363850452
 11
223.1423386779
 21
355.4189304847
  0
LINE
  5
32B
100
AcDbEntity
  8
7_ALL_FEATURES
100
AcDbLine
 62
9
  6
CONTINUOUS
 10
193.4572472327
 20
325.7355547134
 11
193.4397916634
 21
325.7181001529
  0
LINE
  5
32C
100
AcDbEntity
  8
7_ALL_FEATURES
100
AcDbLine
 62
7
  6
CONTINUOUS
 10
73.3998211902
 20
325.4771808954
 11
102.1998211902
 21
325.4771808954
  0
LINE
  5
32D
100
AcDbEntity
  8
7_ALL_FEATURES
100
AcDbLine
 62
7
  6
CONTINUOUS
 10
113.3998211902
 20
325.4771808954
 11
142.1998211902
 21
325.4771808954
  0
LINE
  5
32E
100
AcDbEntity
  8
7_ALL_FEATURES
100
AcDbLine
 62
7
  6
CONTINUOUS
 10
153.3998211902
 20
325.4771808954
 11
182.1998211902
 21
325.4771808954
  0
LINE
  5
32F
100
AcDbEntity
  8
7_ALL_FEATURES
100
AcDbLine
 62
7
  6
CONTINUOUS
 10
193.3998211902
 20
325.4771808954
 11
222.1998211902
 21
325.4771808954
  0
LINE
  5
330
100
AcDbEntity
  8
7_ALL_FEATURES
100
AcDbLine
 62
7
  6
CONTINUOUS
 10
233.3998211902
 20
325.4771808954
 11
262.1998211902
 21
325.4771808954
  0
LINE
  5
331
100
AcDbEntity
  8
7_ALL_FEATURES
100
AcDbLine
 62
7
  6
CONTINUOUS
 10
273.3998211902
 20
325.4771808954
 11
302.1998211902
 21
325.4771808954
  0
LINE
  5
332
100
AcDbEntity
  8
7_ALL_FEATURES
100
AcDbLine
 62
7
  6
CONTINUOUS
 10
313.3998211902
 20
325.4771808954
 11
342.1998211902
 21
325.4771808954
  0
LINE
  5
333
100
AcDbEntity
  8
7_ALL_FEATURES
100
AcDbLine
 62
7
  6
CONTINUOUS
 10
353.3998211902
 20
325.4771808954
 11
382.1998211902
 21
325.4771808954
  0
LINE
  5
334
100
AcDbEntity
  8
7_ALL_FEATURES
100
AcDbLine
 62
7
  6
CONTINUOUS
 10
102.1590877068
 20
325.7172702014
 11
73.4397916633
 21
325.7181001529
  0
LINE
  5
335
100
AcDbEntity
  8
7_ALL_FEATURES
100
AcDbLine
 62
7
  6
CONTINUOUS
 10
142.1590877068
 20
325.7172702014
 11
113.4397916633
 21
325.7181001529
  0
LINE
  5
336
100
AcDbEntity
  8
7_ALL_FEATURES
100
AcDbLine
 62
7
  6
CONTINUOUS
 10
182.1590877068
 20
325.7172702014
 11
153.4397916633
 21
325.7181001529
  0
LINE
  5
337
100
AcDbEntity
  8
7_ALL_FEATURES
100
AcDbLine
 62
7
  6
CONTINUOUS
 10
222.1590877068
 20
325.7172702014
 11
193.4397916633
 21
325.7181001529
  0
LINE
  5
338
100
AcDbEntity
  8
7_ALL_FEATURES
100
AcDbLine
 62
7
  6
CONTINUOUS
 10
262.1590877068
 20
325.7172702014
 11
233.4397916633
 21
325.7181001529
  0
LINE
  5
339
100
AcDbEntity
  8
7_ALL_FEATURES
100
AcDbLine
 62
7
  6
CONTINUOUS
 10
302.1590877068
 20
325.7172702014
 11
273.4397916633
 21
325.7181001529
  0
LINE
  5
33A
100
AcDbEntity
  8
7_ALL_FEATURES
100
AcDbLine
 62
7
  6
CONTINUOUS
 10
342.1590877068
 20
325.7172702014
 11
313.4397916633
 21
325.7181001529
  0
LINE
  5
33B
100
AcDbEntity
  8
7_ALL_FEATURES
100
AcDbLine
 62
7
  6
CONTINUOUS
 10
382.1590877068
 20
325.7172702014
 11
353.4397916633
 21
325.7181001529
  0
LINE
  5
33C
100
AcDbEntity
  8
7_ALL_FEATURES
100
AcDbLine
 62
7
  6
CONTINUOUS
 10
102.1416331462
 20
325.7347257708
 11
73.4572472327
 21
325.7355547134
  0
LINE
  5
33D
100
AcDbEntity
  8
7_ALL_FEATURES
100
AcDbLine
 62
7
  6
CONTINUOUS
 10
142.1416331462
 20
325.7347257708
 11
113.4572472327
 21
325.7355547134
  0
LINE
  5
33E
100
AcDbEntity
  8
7_ALL_FEATURES
100
AcDbLine
 62
7
  6
CONTINUOUS
 10
182.1416331462
 20
325.7347257708
 11
153.4572472327
 21
325.7355547134
  0
LINE
  5
33F
100
AcDbEntity
  8
7_ALL_FEATURES
100
AcDbLine
 62
7
  6
CONTINUOUS
 10
222.1416331462
 20
325.7347257708
 11
193.4572472327
 21
325.7355547134
  0
LINE
  5
340
100
AcDbEntity
  8
7_ALL_FEATURES
100
AcDbLine
 62
7
  6
CONTINUOUS
 10
262.1416331462
 20
325.7347257708
 11
233.4572472327
 21
325.7355547134
  0
LINE
  5
341
100
AcDbEntity
  8
7_ALL_FEATURES
100
AcDbLine
 62
7
  6
CONTINUOUS
 10
302.1416331462
 20
325.7347257708
 11
273.4572472327
 21
325.7355547134
  0
LINE
  5
342
100
AcDbEntity
  8
7_ALL_FEATURES
100
AcDbLine
 62
7
  6
CONTINUOUS
 10
342.1416331462
 20
325.7347257708
 11
313.4572472327
 21
325.7355547134
  0
LINE
  5
343
100
AcDbEntity
  8
7_ALL_FEATURES
100
AcDbLine
 62
7
  6
CONTINUOUS
 10
382.1416331462
 20
325.7347257708
 11
353.4572472327
 21
325.7355547134
  0
LINE
  5
344
100
AcDbEntity
  8
7_ALL_FEATURES
100
AcDbLine
 62
3
  6
CONTINUOUS
 10
60.821393416
 20
326.0771808954
 11
63.2821132196
 21
326.0771808954
  0
LINE
  5
345
100
AcDbEntity
  8
7_ALL_FEATURES
100
AcDbLine
 62
3
  6
CONTINUOUS
 10
392.3175291608
 20
326.0771808954
 11
394.7782489644
 21
326.0771808954
  0
LINE
  5
346
100
AcDbEntity
  8
7_ALL_FEATURES
100
AcDbLine
 62
7
  6
CONTINUOUS
 10
102.1365804393
 20
326.2472372536
 11
73.4623295615
 21
326.2480659033
  0
LINE
  5
347
100
AcDbEntity
  8
7_ALL_FEATURES
100
AcDbLine
 62
7
  6
CONTINUOUS
 10
142.1365804393
 20
326.2472372536
 11
113.4623295615
 21
326.2480659033
  0
LINE
  5
348
100
AcDbEntity
  8
7_ALL_FEATURES
100
AcDbLine
 62
7
  6
CONTINUOUS
 10
182.1365804393
 20
326.2472372536
 11
153.4623295615
 21
326.2480659033
  0
LINE
  5
349
100
AcDbEntity
  8
7_ALL_FEATURES
100
AcDbLine
 62
7
  6
CONTINUOUS
 10
222.1365804393
 20
326.2472372536
 11
193.4623295615
 21
326.2480659033
  0
LINE
  5
34A
100
AcDbEntity
  8
7_ALL_FEATURES
100
AcDbLine
 62
7
  6
CONTINUOUS
 10
262.1365804393
 20
326.2472372536
 11
233.4623295615
 21
326.2480659033
  0
LINE
  5
34B
100
AcDbEntity
  8
7_ALL_FEATURES
100
AcDbLine
 62
7
  6
CONTINUOUS
 10
302.1365804393
 20
326.2472372536
 11
273.4623295615
 21
326.2480659033
  0
LINE
  5
34C
100
AcDbEntity
  8
7_ALL_FEATURES
100
AcDbLine
 62
7
  6
CONTINUOUS
 10
342.1365804393
 20
326.2472372536
 11
313.4623295615
 21
326.2480659033
  0
LINE
  5
34D
100
AcDbEntity
  8
7_ALL_FEATURES
100
AcDbLine
 62
7
  6
CONTINUOUS
 10
382.1365804393
 20
326.2472372536
 11
353.4623295615
 21
326.2480659033
  0
LINE
  5
34E
100
AcDbEntity
  8
7_ALL_FEATURES
100
AcDbLine
 62
9
  6
CONTINUOUS
 10
76.178540177
 20
328.9641195332
 11
99.4205268094
 21
328.9634478691
  0
LINE
  5
34F
100
AcDbEntity
  8
7_ALL_FEATURES
100
AcDbLine
 62
9
  6
CONTINUOUS
 10
116.178540177
 20
328.9641195332
 11
139.4205268094
 21
328.9634478691
  0
LINE
  5
350
100
AcDbEntity
  8
7_ALL_FEATURES
100
AcDbLine
 62
9
  6
CONTINUOUS
 10
156.178540177
 20
328.9641195332
 11
179.4205268094
 21
328.9634478691
  0
LINE
  5
351
100
AcDbEntity
  8
7_ALL_FEATURES
100
AcDbLine
 62
9
  6
CONTINUOUS
 10
196.178540177
 20
328.9641195332
 11
219.4205268094
 21
328.9634478691
  0
LINE
  5
352
100
AcDbEntity
  8
7_ALL_FEATURES
100
AcDbLine
 62
9
  6
CONTINUOUS
 10
236.178540177
 20
328.9641195332
 11
259.4205268094
 21
328.9634478691
  0
LINE
  5
353
100
AcDbEntity
  8
7_ALL_FEATURES
100
AcDbLine
 62
9
  6
CONTINUOUS
 10
276.178540177
 20
328.9641195332
 11
299.4205268094
 21
328.9634478691
  0
LINE
  5
354
100
AcDbEntity
  8
7_ALL_FEATURES
100
AcDbLine
 62
9
  6
CONTINUOUS
 10
316.178540177
 20
328.9641195332
 11
339.4205268094
 21
328.9634478691
  0
LINE
  5
355
100
AcDbEntity
  8
7_ALL_FEATURES
100
AcDbLine
 62
9
  6
CONTINUOUS
 10
356.178540177
 20
328.9641195332
 11
379.4205268094
 21
328.9634478691
  0
LINE
  5
356
100
AcDbEntity
  8
7_ALL_FEATURES
100
AcDbLine
 62
9
  6
CONTINUOUS
 10
99.9129449156
 20
329.4558375155
 11
75.6861505305
 21
329.4565376393
  0
LINE
  5
357
100
AcDbEntity
  8
7_ALL_FEATURES
100
AcDbLine
 62
9
  6
CONTINUOUS
 10
139.9129449156
 20
329.4558375155
 11
115.6861505305
 21
329.4565376393
  0
LINE
  5
358
100
AcDbEntity
  8
7_ALL_FEATURES
100
AcDbLine
 62
9
  6
CONTINUOUS
 10
179.9129449156
 20
329.4558375155
 11
155.6861505305
 21
329.4565376393
  0
LINE
  5
359
100
AcDbEntity
  8
7_ALL_FEATURES
100
AcDbLine
 62
9
  6
CONTINUOUS
 10
219.9129449156
 20
329.4558375155
 11
195.6861505305
 21
329.4565376393
  0
LINE
  5
35A
100
AcDbEntity
  8
7_ALL_FEATURES
100
AcDbLine
 62
9
  6
CONTINUOUS
 10
259.9129449156
 20
329.4558375155
 11
235.6861505305
 21
329.4565376393
  0
LINE
  5
35B
100
AcDbEntity
  8
7_ALL_FEATURES
100
AcDbLine
 62
9
  6
CONTINUOUS
 10
299.9129449156
 20
329.4558375155
 11
275.6861505305
 21
329.4565376393
  0
LINE
  5
35C
100
AcDbEntity
  8
7_ALL_FEATURES
100
AcDbLine
 62
9
  6
CONTINUOUS
 10
339.9129449156
 20
329.4558375155
 11
315.6861505305
 21
329.4565376393
  0
LINE
  5
35D
100
AcDbEntity
  8
7_ALL_FEATURES
100
AcDbLine
 62
9
  6
CONTINUOUS
 10
379.9129449156
 20
329.4558375155
 11
355.6861505305
 21
329.4565376393
  0
LINE
  5
35E
100
AcDbEntity
  8
7_ALL_FEATURES
100
AcDbLine
 62
9
  6
CONTINUOUS
 10
222.1590877067
 20
325.7172702015
 11
222.1416331462
 21
325.7347257708
  0
LINE
  5
35F
100
AcDbEntity
  8
7_ALL_FEATURES
100
AcDbLine
 62
9
  6
CONTINUOUS
 10
192.4582573749
 20
355.419817216
 11
192.4408028144
 21
355.4372727854
  0
LINE
  5
360
100
AcDbEntity
  8
7_ALL_FEATURES
100
AcDbLine
 62
9
  6
CONTINUOUS
 10
222.1365804393
 20
326.2472372536
 11
219.4205268094
 21
328.9634478691
  0
LINE
  5
361
100
AcDbEntity
  8
7_ALL_FEATURES
100
AcDbLine
 62
9
  6
CONTINUOUS
 10
195.6868221946
 20
352.6985242718
 11
192.9707685647
 21
355.4147348873
  0
LINE
  5
362
100
AcDbEntity
  8
7_ALL_FEATURES
100
AcDbLine
 62
9
  6
CONTINUOUS
 10
193.4631866709
 20
355.9071245337
 11
196.1792403008
 21
353.1909139182
  0
LINE
  5
363
100
AcDbEntity
  8
7_ALL_FEATURES
100
AcDbLine
 62
9
  6
CONTINUOUS
 10
219.9129449156
 20
329.4558375155
 11
222.6289985455
 21
326.7396269
  0
LINE
  5
364
100
AcDbEntity
  8
7_ALL_FEATURES
100
AcDbLine
 62
9
  6
CONTINUOUS
 10
193.4406794035
 20
356.4370915858
 11
193.458133964
 21
356.4196360164
  0
LINE
  5
365
100
AcDbEntity
  8
7_ALL_FEATURES
100
AcDbLine
 62
9
  6
CONTINUOUS
 10
223.1415097353
 20
326.7345445713
 11
223.1589642958
 21
326.7170890019
  0
LINE
  5
366
100
AcDbEntity
  8
7_ALL_FEATURES
100
AcDbLine
 62
9
  6
CONTINUOUS
 10
219.4212269333
 20
353.1902422541
 11
219.4205268095
 21
328.963447869
  0
LINE
  5
367
100
AcDbEntity
  8
7_ALL_FEATURES
100
AcDbLine
 62
9
  6
CONTINUOUS
 10
219.9129449156
 20
329.4558375155
 11
219.9136165797
 21
352.697824148
  0
LINE
  5
368
100
AcDbEntity
  8
7_ALL_FEATURES
100
AcDbLine
 62
7
  6
CONTINUOUS
 10
222.6289985455
 20
326.7396269
 11
222.6298271952
 21
355.4138777778
  0
LINE
  5
369
100
AcDbEntity
  8
7_ALL_FEATURES
100
AcDbLine
 62
7
  6
CONTINUOUS
 10
223.1415097358
 20
326.734560896
 11
223.1423386774
 21
355.418914202
  0
LINE
  5
36A
100
AcDbEntity
  8
7_ALL_FEATURES
100
AcDbLine
 62
7
  6
CONTINUOUS
 10
223.1589642958
 20
326.7170890019
 11
223.1597942473
 21
355.4363850452
  0
LINE
  5
36B
100
AcDbEntity
  8
7_ALL_FEATURES
100
AcDbLine
 62
7
  6
CONTINUOUS
 10
223.3998211902
 20
326.6771808954
 11
223.3998211902
 21
355.4771808954
  0
LINE
  5
36C
100
AcDbEntity
  8
7_ALL_FEATURES
100
AcDbLine
 62
7
  6
CONTINUOUS
 10
232.1998211902
 20
355.4771808954
 11
232.1998211902
 21
326.6771808954
  0
LINE
  5
36D
100
AcDbEntity
  8
7_ALL_FEATURES
100
AcDbLine
 62
7
  6
CONTINUOUS
 10
232.4408028144
 20
355.4372727854
 11
232.439972863
 21
326.717976742
  0
LINE
  5
36E
100
AcDbEntity
  8
7_ALL_FEATURES
100
AcDbLine
 62
7
  6
CONTINUOUS
 10
232.4582573744
 20
355.4198007018
 11
232.4574284324
 21
326.7354346303
  0
LINE
  5
36F
100
AcDbEntity
  8
7_ALL_FEATURES
100
AcDbLine
 62
7
  6
CONTINUOUS
 10
232.9699399151
 20
326.7404840094
 11
232.9707685648
 21
355.4147348873
  0
LINE
  5
370
100
AcDbEntity
  8
7_ALL_FEATURES
100
AcDbLine
 62
9
  6
CONTINUOUS
 10
235.6868221946
 20
352.6985242718
 11
235.6861505305
 21
329.4565376393
  0
LINE
  5
371
100
AcDbEntity
  8
7_ALL_FEATURES
100
AcDbLine
 62
9
  6
CONTINUOUS
 10
236.178540177
 20
328.9641195331
 11
236.1792403008
 21
353.1909139182
  0
LINE
  5
372
100
AcDbEntity
  8
7_ALL_FEATURES
100
AcDbLine
 62
9
  6
CONTINUOUS
 10
75.6868221946
 20
352.6985242718
 11
99.9136165797
 21
352.697824148
  0
LINE
  5
373
100
AcDbEntity
  8
7_ALL_FEATURES
100
AcDbLine
 62
9
  6
CONTINUOUS
 10
115.6868221946
 20
352.6985242718
 11
139.9136165797
 21
352.697824148
  0
LINE
  5
374
100
AcDbEntity
  8
7_ALL_FEATURES
100
AcDbLine
 62
9
  6
CONTINUOUS
 10
155.6868221946
 20
352.6985242718
 11
179.9136165797
 21
352.697824148
  0
LINE
  5
375
100
AcDbEntity
  8
7_ALL_FEATURES
100
AcDbLine
 62
9
  6
CONTINUOUS
 10
195.6868221946
 20
352.6985242718
 11
219.9136165797
 21
352.697824148
  0
LINE
  5
376
100
AcDbEntity
  8
7_ALL_FEATURES
100
AcDbLine
 62
9
  6
CONTINUOUS
 10
235.6868221946
 20
352.6985242718
 11
259.9136165797
 21
352.697824148
  0
LINE
  5
377
100
AcDbEntity
  8
7_ALL_FEATURES
100
AcDbLine
 62
9
  6
CONTINUOUS
 10
275.6868221946
 20
352.6985242718
 11
299.9136165797
 21
352.697824148
  0
LINE
  5
378
100
AcDbEntity
  8
7_ALL_FEATURES
100
AcDbLine
 62
9
  6
CONTINUOUS
 10
315.6868221946
 20
352.6985242718
 11
339.9136165797
 21
352.697824148
  0
LINE
  5
379
100
AcDbEntity
  8
7_ALL_FEATURES
100
AcDbLine
 62
9
  6
CONTINUOUS
 10
355.6868221946
 20
352.6985242718
 11
379.9136165797
 21
352.697824148
  0
LINE
  5
37A
100
AcDbEntity
  8
7_ALL_FEATURES
100
AcDbLine
 62
9
  6
CONTINUOUS
 10
99.4212269333
 20
353.1902422541
 11
76.1792403008
 21
353.1909139182
  0
LINE
  5
37B
100
AcDbEntity
  8
7_ALL_FEATURES
100
AcDbLine
 62
9
  6
CONTINUOUS
 10
139.4212269333
 20
353.1902422541
 11
116.1792403008
 21
353.1909139182
  0
LINE
  5
37C
100
AcDbEntity
  8
7_ALL_FEATURES
100
AcDbLine
 62
9
  6
CONTINUOUS
 10
179.4212269333
 20
353.1902422541
 11
156.1792403008
 21
353.1909139182
  0
LINE
  5
37D
100
AcDbEntity
  8
7_ALL_FEATURES
100
AcDbLine
 62
9
  6
CONTINUOUS
 10
219.4212269333
 20
353.1902422541
 11
196.1792403008
 21
353.1909139182
  0
LINE
  5
37E
100
AcDbEntity
  8
7_ALL_FEATURES
100
AcDbLine
 62
9
  6
CONTINUOUS
 10
259.4212269333
 20
353.1902422541
 11
236.1792403008
 21
353.1909139182
  0
LINE
  5
37F
100
AcDbEntity
  8
7_ALL_FEATURES
100
AcDbLine
 62
9
  6
CONTINUOUS
 10
299.4212269333
 20
353.1902422541
 11
276.1792403008
 21
353.1909139182
  0
LINE
  5
380
100
AcDbEntity
  8
7_ALL_FEATURES
100
AcDbLine
 62
9
  6
CONTINUOUS
 10
339.4212269333
 20
353.1902422541
 11
316.1792403008
 21
353.1909139182
  0
LINE
  5
381
100
AcDbEntity
  8
7_ALL_FEATURES
100
AcDbLine
 62
9
  6
CONTINUOUS
 10
379.4212269333
 20
353.1902422541
 11
356.1792403008
 21
353.1909139182
  0
LINE
  5
382
100
AcDbEntity
  8
7_ALL_FEATURES
100
AcDbLine
 62
9
  6
CONTINUOUS
 10
232.439972863
 20
326.717976742
 11
232.4574284323
 21
326.7354313025
  0
LINE
  5
383
100
AcDbEntity
  8
7_ALL_FEATURES
100
AcDbLine
 62
9
  6
CONTINUOUS
 10
262.1425198776
 20
356.4188070738
 11
262.1599754469
 21
356.4362616343
  0
LINE
  5
384
100
AcDbEntity
  8
7_ALL_FEATURES
100
AcDbLine
 62
9
  6
CONTINUOUS
 10
232.969939915
 20
326.7404840094
 11
235.6861505305
 21
329.4565376393
  0
LINE
  5
385
100
AcDbEntity
  8
7_ALL_FEATURES
100
AcDbLine
 62
9
  6
CONTINUOUS
 10
259.4212269333
 20
353.1902422541
 11
262.1374375487
 21
355.906295884
  0
LINE
  5
386
100
AcDbEntity
  8
7_ALL_FEATURES
100
AcDbLine
 62
9
  6
CONTINUOUS
 10
262.6298271952
 20
355.4138777778
 11
259.9136165797
 21
352.697824148
  0
LINE
  5
387
100
AcDbEntity
  8
7_ALL_FEATURES
100
AcDbLine
 62
9
  6
CONTINUOUS
 10
236.178540177
 20
328.9641195332
 11
233.4623295615
 21
326.2480659033
  0
LINE
  5
388
100
AcDbEntity
  8
7_ALL_FEATURES
100
AcDbLine
 62
9
  6
CONTINUOUS
 10
263.1597942473
 20
355.4363850452
 11
263.1423386779
 21
355.4189304847
  0
LINE
  5
389
100
AcDbEntity
  8
7_ALL_FEATURES
100
AcDbLine
 62
9
  6
CONTINUOUS
 10
233.4572472327
 20
325.7355547134
 11
233.4397916634
 21
325.7181001529
  0
LINE
  5
38A
100
AcDbEntity
  8
7_ALL_FEATURES
100
AcDbLine
 62
7
  6
CONTINUOUS
 10
102.1374375487
 20
355.906295884
 11
73.4631866709
 21
355.9071245337
  0
LINE
  5
38B
100
AcDbEntity
  8
7_ALL_FEATURES
100
AcDbLine
 62
7
  6
CONTINUOUS
 10
142.1374375487
 20
355.906295884
 11
113.4631866709
 21
355.9071245337
  0
LINE
  5
38C
100
AcDbEntity
  8
7_ALL_FEATURES
100
AcDbLine
 62
7
  6
CONTINUOUS
 10
182.1374375487
 20
355.906295884
 11
153.4631866709
 21
355.9071245337
  0
LINE
  5
38D
100
AcDbEntity
  8
7_ALL_FEATURES
100
AcDbLine
 62
7
  6
CONTINUOUS
 10
222.1374375487
 20
355.906295884
 11
193.4631866709
 21
355.9071245337
  0
LINE
  5
38E
100
AcDbEntity
  8
7_ALL_FEATURES
100
AcDbLine
 62
7
  6
CONTINUOUS
 10
262.1374375487
 20
355.906295884
 11
233.4631866709
 21
355.9071245337
  0
LINE
  5
38F
100
AcDbEntity
  8
7_ALL_FEATURES
100
AcDbLine
 62
7
  6
CONTINUOUS
 10
302.1374375487
 20
355.906295884
 11
273.4631866709
 21
355.9071245337
  0
LINE
  5
390
100
AcDbEntity
  8
7_ALL_FEATURES
100
AcDbLine
 62
7
  6
CONTINUOUS
 10
342.1374375487
 20
355.906295884
 11
313.4631866709
 21
355.9071245337
  0
LINE
  5
391
100
AcDbEntity
  8
7_ALL_FEATURES
100
AcDbLine
 62
7
  6
CONTINUOUS
 10
382.1374375487
 20
355.906295884
 11
353.4631866709
 21
355.9071245337
  0
LINE
  5
392
100
AcDbEntity
  8
7_ALL_FEATURES
100
AcDbLine
 62
3
  6
CONTINUOUS
 10
63.2821132196
 20
356.0771808954
 11
60.821393416
 21
356.0771808954
  0
LINE
  5
393
100
AcDbEntity
  8
7_ALL_FEATURES
100
AcDbLine
 62
3
  6
CONTINUOUS
 10
392.3175291608
 20
356.0771808954
 11
394.7782489644
 21
356.0771808954
  0
LINE
  5
394
100
AcDbEntity
  8
7_ALL_FEATURES
100
AcDbLine
 62
7
  6
CONTINUOUS
 10
102.1425165585
 20
356.4188070739
 11
73.458137059
 21
356.4196360163
  0
LINE
  5
395
100
AcDbEntity
  8
7_ALL_FEATURES
100
AcDbLine
 62
7
  6
CONTINUOUS
 10
142.1425165585
 20
356.4188070739
 11
113.458137059
 21
356.4196360163
  0
LINE
  5
396
100
AcDbEntity
  8
7_ALL_FEATURES
100
AcDbLine
 62
7
  6
CONTINUOUS
 10
182.1425165585
 20
356.4188070739
 11
153.458137059
 21
356.4196360163
  0
LINE
  5
397
100
AcDbEntity
  8
7_ALL_FEATURES
100
AcDbLine
 62
7
  6
CONTINUOUS
 10
222.1425165585
 20
356.4188070739
 11
193.458137059
 21
356.4196360163
  0
LINE
  5
398
100
AcDbEntity
  8
7_ALL_FEATURES
100
AcDbLine
 62
7
  6
CONTINUOUS
 10
262.1425165585
 20
356.4188070739
 11
233.458137059
 21
356.4196360163
  0
LINE
  5
399
100
AcDbEntity
  8
7_ALL_FEATURES
100
AcDbLine
 62
7
  6
CONTINUOUS
 10
302.1425165585
 20
356.4188070739
 11
273.458137059
 21
356.4196360163
  0
LINE
  5
39A
100
AcDbEntity
  8
7_ALL_FEATURES
100
AcDbLine
 62
7
  6
CONTINUOUS
 10
342.1425165585
 20
356.4188070739
 11
313.458137059
 21
356.4196360163
  0
LINE
  5
39B
100
AcDbEntity
  8
7_ALL_FEATURES
100
AcDbLine
 62
7
  6
CONTINUOUS
 10
382.1425165585
 20
356.4188070739
 11
353.458137059
 21
356.4196360163
  0
LINE
  5
39C
100
AcDbEntity
  8
7_ALL_FEATURES
100
AcDbLine
 62
7
  6
CONTINUOUS
 10
102.1599754469
 20
356.4362616343
 11
73.4406794035
 21
356.4370915858
  0
LINE
  5
39D
100
AcDbEntity
  8
7_ALL_FEATURES
100
AcDbLine
 62
7
  6
CONTINUOUS
 10
142.1599754469
 20
356.4362616343
 11
113.4406794035
 21
356.4370915858
  0
LINE
  5
39E
100
AcDbEntity
  8
7_ALL_FEATURES
100
AcDbLine
 62
7
  6
CONTINUOUS
 10
182.1599754469
 20
356.4362616343
 11
153.4406794035
 21
356.4370915858
  0
LINE
  5
39F
100
AcDbEntity
  8
7_ALL_FEATURES
100
AcDbLine
 62
7
  6
CONTINUOUS
 10
222.1599754469
 20
356.4362616343
 11
193.4406794035
 21
356.4370915858
  0
LINE
  5
3A0
100
AcDbEntity
  8
7_ALL_FEATURES
100
AcDbLine
 62
7
  6
CONTINUOUS
 10
262.1599754469
 20
356.4362616343
 11
233.4406794035
 21
356.4370915858
  0
LINE
  5
3A1
100
AcDbEntity
  8
7_ALL_FEATURES
100
AcDbLine
 62
7
  6
CONTINUOUS
 10
302.1599754469
 20
356.4362616343
 11
273.4406794035
 21
356.4370915858
  0
LINE
  5
3A2
100
AcDbEntity
  8
7_ALL_FEATURES
100
AcDbLine
 62
7
  6
CONTINUOUS
 10
342.1599754469
 20
356.4362616343
 11
313.4406794035
 21
356.4370915858
  0
LINE
  5
3A3
100
AcDbEntity
  8
7_ALL_FEATURES
100
AcDbLine
 62
7
  6
CONTINUOUS
 10
382.1599754469
 20
356.4362616343
 11
353.4406794035
 21
356.4370915858
  0
LINE
  5
3A4
100
AcDbEntity
  8
7_ALL_FEATURES
100
AcDbLine
 62
7
  6
CONTINUOUS
 10
382.1998211902
 20
356.6771808954
 11
353.3998211902
 21
356.6771808954
  0
LINE
  5
3A5
100
AcDbEntity
  8
7_ALL_FEATURES
100
AcDbLine
 62
7
  6
CONTINUOUS
 10
342.1998211902
 20
356.6771808954
 11
313.3998211902
 21
356.6771808954
  0
LINE
  5
3A6
100
AcDbEntity
  8
7_ALL_FEATURES
100
AcDbLine
 62
7
  6
CONTINUOUS
 10
302.1998211902
 20
356.6771808954
 11
273.3998211902
 21
356.6771808954
  0
LINE
  5
3A7
100
AcDbEntity
  8
7_ALL_FEATURES
100
AcDbLine
 62
7
  6
CONTINUOUS
 10
262.1998211902
 20
356.6771808954
 11
233.3998211902
 21
356.6771808954
  0
LINE
  5
3A8
100
AcDbEntity
  8
7_ALL_FEATURES
100
AcDbLine
 62
7
  6
CONTINUOUS
 10
222.1998211902
 20
356.6771808954
 11
193.3998211902
 21
356.6771808954
  0
LINE
  5
3A9
100
AcDbEntity
  8
7_ALL_FEATURES
100
AcDbLine
 62
7
  6
CONTINUOUS
 10
182.1998211902
 20
356.6771808954
 11
153.3998211902
 21
356.6771808954
  0
LINE
  5
3AA
100
AcDbEntity
  8
7_ALL_FEATURES
100
AcDbLine
 62
7
  6
CONTINUOUS
 10
142.1998211902
 20
356.6771808954
 11
113.3998211902
 21
356.6771808954
  0
LINE
  5
3AB
100
AcDbEntity
  8
7_ALL_FEATURES
100
AcDbLine
 62
7
  6
CONTINUOUS
 10
102.1998211902
 20
356.6771808954
 11
73.3998211902
 21
356.6771808954
  0
LINE
  5
3AC
100
AcDbEntity
  8
7_ALL_FEATURES
100
AcDbLine
 62
9
  6
CONTINUOUS
 10
262.1590877067
 20
325.7172702015
 11
262.1416331462
 21
325.7347257708
  0
LINE
  5
3AD
100
AcDbEntity
  8
7_ALL_FEATURES
100
AcDbLine
 62
9
  6
CONTINUOUS
 10
232.4582573749
 20
355.419817216
 11
232.4408028144
 21
355.4372727854
  0
LINE
  5
3AE
100
AcDbEntity
  8
7_ALL_FEATURES
100
AcDbLine
 62
9
  6
CONTINUOUS
 10
262.1365804393
 20
326.2472372536
 11
259.4205268094
 21
328.9634478691
  0
LINE
  5
3AF
100
AcDbEntity
  8
7_ALL_FEATURES
100
AcDbLine
 62
9
  6
CONTINUOUS
 10
235.6868221946
 20
352.6985242718
 11
232.9707685647
 21
355.4147348873
  0
LINE
  5
3B0
100
AcDbEntity
  8
7_ALL_FEATURES
100
AcDbLine
 62
9
  6
CONTINUOUS
 10
233.4631866709
 20
355.9071245337
 11
236.1792403008
 21
353.1909139182
  0
LINE
  5
3B1
100
AcDbEntity
  8
7_ALL_FEATURES
100
AcDbLine
 62
9
  6
CONTINUOUS
 10
259.9129449156
 20
329.4558375155
 11
262.6289985455
 21
326.7396269
  0
LINE
  5
3B2
100
AcDbEntity
  8
7_ALL_FEATURES
100
AcDbLine
 62
9
  6
CONTINUOUS
 10
233.4406794035
 20
356.4370915858
 11
233.458133964
 21
356.4196360164
  0
LINE
  5
3B3
100
AcDbEntity
  8
7_ALL_FEATURES
100
AcDbLine
 62
9
  6
CONTINUOUS
 10
263.1415097353
 20
326.7345445713
 11
263.1589642958
 21
326.7170890019
  0
LINE
  5
3B4
100
AcDbEntity
  8
7_ALL_FEATURES
100
AcDbLine
 62
9
  6
CONTINUOUS
 10
259.4212269333
 20
353.1902422541
 11
259.4205268095
 21
328.963447869
  0
LINE
  5
3B5
100
AcDbEntity
  8
7_ALL_FEATURES
100
AcDbLine
 62
9
  6
CONTINUOUS
 10
259.9129449156
 20
329.4558375155
 11
259.9136165797
 21
352.697824148
  0
LINE
  5
3B6
100
AcDbEntity
  8
7_ALL_FEATURES
100
AcDbLine
 62
7
  6
CONTINUOUS
 10
262.6289985455
 20
326.7396269
 11
262.6298271952
 21
355.4138777778
  0
LINE
  5
3B7
100
AcDbEntity
  8
7_ALL_FEATURES
100
AcDbLine
 62
7
  6
CONTINUOUS
 10
64.2998211902
 20
365.5771808954
 11
391.2998211902
 21
365.5771808954
  0
LINE
  5
3B8
100
AcDbEntity
  8
7_ALL_FEATURES
100
AcDbLine
 62
7
  6
CONTINUOUS
 10
263.1415097358
 20
326.734560896
 11
263.1423386774
 21
355.418914202
  0
LINE
  5
3B9
100
AcDbEntity
  8
7_ALL_FEATURES
100
AcDbLine
 62
7
  6
CONTINUOUS
 10
263.1589642958
 20
326.7170890019
 11
263.1597942473
 21
355.4363850452
  0
LINE
  5
3BA
100
AcDbEntity
  8
7_ALL_FEATURES
100
AcDbLine
 62
7
  6
CONTINUOUS
 10
263.3998211902
 20
326.6771808954
 11
263.3998211902
 21
355.4771808954
  0
LINE
  5
3BB
100
AcDbEntity
  8
7_ALL_FEATURES
100
AcDbLine
 62
7
  6
CONTINUOUS
 10
272.1998211902
 20
355.4771808954
 11
272.1998211902
 21
326.6771808954
  0
LINE
  5
3BC
100
AcDbEntity
  8
7_ALL_FEATURES
100
AcDbLine
 62
7
  6
CONTINUOUS
 10
272.4408028144
 20
355.4372727854
 11
272.439972863
 21
326.717976742
  0
LINE
  5
3BD
100
AcDbEntity
  8
7_ALL_FEATURES
100
AcDbLine
 62
7
  6
CONTINUOUS
 10
272.4582573744
 20
355.4198007018
 11
272.4574284324
 21
326.7354346303
  0
LINE
  5
3BE
100
AcDbEntity
  8
7_ALL_FEATURES
100
AcDbLine
 62
7
  6
CONTINUOUS
 10
272.9699399151
 20
326.7404840094
 11
272.9707685648
 21
355.4147348873
  0
LINE
  5
3BF
100
AcDbEntity
  8
7_ALL_FEATURES
100
AcDbLine
 62
9
  6
CONTINUOUS
 10
272.439972863
 20
326.717976742
 11
272.4574284323
 21
326.7354313025
  0
LINE
  5
3C0
100
AcDbEntity
  8
7_ALL_FEATURES
100
AcDbLine
 62
9
  6
CONTINUOUS
 10
302.1425198776
 20
356.4188070738
 11
302.1599754469
 21
356.4362616343
  0
LINE
  5
3C1
100
AcDbEntity
  8
7_ALL_FEATURES
100
AcDbLine
 62
9
  6
CONTINUOUS
 10
272.969939915
 20
326.7404840094
 11
275.6861505305
 21
329.4565376393
  0
LINE
  5
3C2
100
AcDbEntity
  8
7_ALL_FEATURES
100
AcDbLine
 62
9
  6
CONTINUOUS
 10
299.4212269333
 20
353.1902422541
 11
302.1374375487
 21
355.906295884
  0
LINE
  5
3C3
100
AcDbEntity
  8
7_ALL_FEATURES
100
AcDbLine
 62
9
  6
CONTINUOUS
 10
302.6298271952
 20
355.4138777778
 11
299.9136165797
 21
352.697824148
  0
LINE
  5
3C4
100
AcDbEntity
  8
7_ALL_FEATURES
100
AcDbLine
 62
9
  6
CONTINUOUS
 10
276.178540177
 20
328.9641195332
 11
273.4623295615
 21
326.2480659033
  0
LINE
  5
3C5
100
AcDbEntity
  8
7_ALL_FEATURES
100
AcDbLine
 62
9
  6
CONTINUOUS
 10
303.1597942473
 20
355.4363850452
 11
303.1423386779
 21
355.4189304847
  0
LINE
  5
3C6
100
AcDbEntity
  8
7_ALL_FEATURES
100
AcDbLine
 62
9
  6
CONTINUOUS
 10
273.4572472327
 20
325.7355547134
 11
273.4397916634
 21
325.7181001529
  0
LINE
  5
3C7
100
AcDbEntity
  8
7_ALL_FEATURES
100
AcDbLine
 62
9
  6
CONTINUOUS
 10
302.1590877067
 20
325.7172702015
 11
302.1416331462
 21
325.7347257708
  0
LINE
  5
3C8
100
AcDbEntity
  8
7_ALL_FEATURES
100
AcDbLine
 62
9
  6
CONTINUOUS
 10
272.4582573749
 20
355.419817216
 11
272.4408028144
 21
355.4372727854
  0
LINE
  5
3C9
100
AcDbEntity
  8
7_ALL_FEATURES
100
AcDbLine
 62
9
  6
CONTINUOUS
 10
302.1365804393
 20
326.2472372536
 11
299.4205268094
 21
328.9634478691
  0
LINE
  5
3CA
100
AcDbEntity
  8
7_ALL_FEATURES
100
AcDbLine
 62
9
  6
CONTINUOUS
 10
275.6868221946
 20
352.6985242718
 11
272.9707685647
 21
355.4147348873
  0
LINE
  5
3CB
100
AcDbEntity
  8
7_ALL_FEATURES
100
AcDbLine
 62
9
  6
CONTINUOUS
 10
273.4631866709
 20
355.9071245337
 11
276.1792403008
 21
353.1909139182
  0
LINE
  5
3CC
100
AcDbEntity
  8
7_ALL_FEATURES
100
AcDbLine
 62
9
  6
CONTINUOUS
 10
299.9129449156
 20
329.4558375155
 11
302.6289985455
 21
326.7396269
  0
LINE
  5
3CD
100
AcDbEntity
  8
7_ALL_FEATURES
100
AcDbLine
 62
9
  6
CONTINUOUS
 10
273.4406794035
 20
356.4370915858
 11
273.458133964
 21
356.4196360164
  0
LINE
  5
3CE
100
AcDbEntity
  8
7_ALL_FEATURES
100
AcDbLine
 62
9
  6
CONTINUOUS
 10
303.1415097353
 20
326.7345445713
 11
303.1589642958
 21
326.7170890019
  0
LINE
  5
3CF
100
AcDbEntity
  8
7_ALL_FEATURES
100
AcDbLine
 62
9
  6
CONTINUOUS
 10
275.6868221946
 20
352.6985242718
 11
275.6861505305
 21
329.4565376393
  0
LINE
  5
3D0
100
AcDbEntity
  8
7_ALL_FEATURES
100
AcDbLine
 62
9
  6
CONTINUOUS
 10
276.178540177
 20
328.9641195331
 11
276.1792403008
 21
353.1909139182
  0
LINE
  5
3D1
100
AcDbEntity
  8
7_ALL_FEATURES
100
AcDbLine
 62
9
  6
CONTINUOUS
 10
299.4212269333
 20
353.1902422541
 11
299.4205268095
 21
328.963447869
  0
LINE
  5
3D2
100
AcDbEntity
  8
7_ALL_FEATURES
100
AcDbLine
 62
9
  6
CONTINUOUS
 10
299.9129449156
 20
329.4558375155
 11
299.9136165797
 21
352.697824148
  0
LINE
  5
3D3
100
AcDbEntity
  8
7_ALL_FEATURES
100
AcDbLine
 62
7
  6
CONTINUOUS
 10
302.6289985455
 20
326.7396269
 11
302.6298271952
 21
355.4138777778
  0
LINE
  5
3D4
100
AcDbEntity
  8
7_ALL_FEATURES
100
AcDbLine
 62
7
  6
CONTINUOUS
 10
303.1415097358
 20
326.734560896
 11
303.1423386774
 21
355.418914202
  0
LINE
  5
3D5
100
AcDbEntity
  8
7_ALL_FEATURES
100
AcDbLine
 62
7
  6
CONTINUOUS
 10
303.1589642958
 20
326.7170890019
 11
303.1597942473
 21
355.4363850452
  0
LINE
  5
3D6
100
AcDbEntity
  8
7_ALL_FEATURES
100
AcDbLine
 62
7
  6
CONTINUOUS
 10
303.3998211902
 20
326.6771808954
 11
303.3998211902
 21
355.4771808954
  0
LINE
  5
3D7
100
AcDbEntity
  8
7_ALL_FEATURES
100
AcDbLine
 62
9
  6
CONTINUOUS
 10
312.439972863
 20
326.717976742
 11
312.4574284323
 21
326.7354313025
  0
LINE
  5
3D8
100
AcDbEntity
  8
7_ALL_FEATURES
100
AcDbLine
 62
9
  6
CONTINUOUS
 10
342.1425198776
 20
356.4188070738
 11
342.1599754469
 21
356.4362616343
  0
LINE
  5
3D9
100
AcDbEntity
  8
7_ALL_FEATURES
100
AcDbLine
 62
9
  6
CONTINUOUS
 10
312.969939915
 20
326.7404840094
 11
315.6861505305
 21
329.4565376393
  0
LINE
  5
3DA
100
AcDbEntity
  8
7_ALL_FEATURES
100
AcDbLine
 62
9
  6
CONTINUOUS
 10
339.4212269333
 20
353.1902422541
 11
342.1374375487
 21
355.906295884
  0
LINE
  5
3DB
100
AcDbEntity
  8
7_ALL_FEATURES
100
AcDbLine
 62
9
  6
CONTINUOUS
 10
342.6298271952
 20
355.4138777778
 11
339.9136165797
 21
352.697824148
  0
LINE
  5
3DC
100
AcDbEntity
  8
7_ALL_FEATURES
100
AcDbLine
 62
9
  6
CONTINUOUS
 10
316.178540177
 20
328.9641195332
 11
313.4623295615
 21
326.2480659033
  0
LINE
  5
3DD
100
AcDbEntity
  8
7_ALL_FEATURES
100
AcDbLine
 62
9
  6
CONTINUOUS
 10
343.1597942473
 20
355.4363850452
 11
343.1423386779
 21
355.4189304847
  0
LINE
  5
3DE
100
AcDbEntity
  8
7_ALL_FEATURES
100
AcDbLine
 62
9
  6
CONTINUOUS
 10
313.4572472327
 20
325.7355547134
 11
313.4397916634
 21
325.7181001529
  0
LINE
  5
3DF
100
AcDbEntity
  8
7_ALL_FEATURES
100
AcDbLine
 62
9
  6
CONTINUOUS
 10
342.1590877067
 20
325.7172702015
 11
342.1416331462
 21
325.7347257708
  0
LINE
  5
3E0
100
AcDbEntity
  8
7_ALL_FEATURES
100
AcDbLine
 62
9
  6
CONTINUOUS
 10
312.4582573749
 20
355.419817216
 11
312.4408028144
 21
355.4372727854
  0
LINE
  5
3E1
100
AcDbEntity
  8
7_ALL_FEATURES
100
AcDbLine
 62
9
  6
CONTINUOUS
 10
342.1365804393
 20
326.2472372536
 11
339.4205268094
 21
328.9634478691
  0
LINE
  5
3E2
100
AcDbEntity
  8
7_ALL_FEATURES
100
AcDbLine
 62
9
  6
CONTINUOUS
 10
315.6868221946
 20
352.6985242718
 11
312.9707685647
 21
355.4147348873
  0
LINE
  5
3E3
100
AcDbEntity
  8
7_ALL_FEATURES
100
AcDbLine
 62
9
  6
CONTINUOUS
 10
313.4631866709
 20
355.9071245337
 11
316.1792403008
 21
353.1909139182
  0
LINE
  5
3E4
100
AcDbEntity
  8
7_ALL_FEATURES
100
AcDbLine
 62
9
  6
CONTINUOUS
 10
339.9129449156
 20
329.4558375155
 11
342.6289985455
 21
326.7396269
  0
LINE
  5
3E5
100
AcDbEntity
  8
7_ALL_FEATURES
100
AcDbLine
 62
9
  6
CONTINUOUS
 10
313.4406794035
 20
356.4370915858
 11
313.458133964
 21
356.4196360164
  0
LINE
  5
3E6
100
AcDbEntity
  8
7_ALL_FEATURES
100
AcDbLine
 62
9
  6
CONTINUOUS
 10
343.1415097353
 20
326.7345445713
 11
343.1589642958
 21
326.7170890019
  0
LINE
  5
3E7
100
AcDbEntity
  8
7_ALL_FEATURES
100
AcDbLine
 62
7
  6
CONTINUOUS
 10
312.1998211902
 20
355.4771808954
 11
312.1998211902
 21
326.6771808954
  0
LINE
  5
3E8
100
AcDbEntity
  8
7_ALL_FEATURES
100
AcDbLine
 62
7
  6
CONTINUOUS
 10
312.4408028144
 20
355.4372727854
 11
312.439972863
 21
326.717976742
  0
LINE
  5
3E9
100
AcDbEntity
  8
7_ALL_FEATURES
100
AcDbLine
 62
7
  6
CONTINUOUS
 10
312.4582573744
 20
355.4198007018
 11
312.4574284324
 21
326.7354346303
  0
LINE
  5
3EA
100
AcDbEntity
  8
7_ALL_FEATURES
100
AcDbLine
 62
7
  6
CONTINUOUS
 10
312.9699399151
 20
326.7404840094
 11
312.9707685648
 21
355.4147348873
  0
LINE
  5
3EB
100
AcDbEntity
  8
7_ALL_FEATURES
100
AcDbLine
 62
9
  6
CONTINUOUS
 10
315.6868221946
 20
352.6985242718
 11
315.6861505305
 21
329.4565376393
  0
LINE
  5
3EC
100
AcDbEntity
  8
7_ALL_FEATURES
100
AcDbLine
 62
9
  6
CONTINUOUS
 10
316.178540177
 20
328.9641195331
 11
316.1792403008
 21
353.1909139182
  0
LINE
  5
3ED
100
AcDbEntity
  8
7_ALL_FEATURES
100
AcDbLine
 62
9
  6
CONTINUOUS
 10
352.439972863
 20
326.717976742
 11
352.4574284323
 21
326.7354313025
  0
LINE
  5
3EE
100
AcDbEntity
  8
7_ALL_FEATURES
100
AcDbLine
 62
9
  6
CONTINUOUS
 10
382.1425198776
 20
356.4188070738
 11
382.1599754469
 21
356.4362616343
  0
LINE
  5
3EF
100
AcDbEntity
  8
7_ALL_FEATURES
100
AcDbLine
 62
9
  6
CONTINUOUS
 10
352.969939915
 20
326.7404840094
 11
355.6861505305
 21
329.4565376393
  0
LINE
  5
3F0
100
AcDbEntity
  8
7_ALL_FEATURES
100
AcDbLine
 62
9
  6
CONTINUOUS
 10
379.4212269333
 20
353.1902422541
 11
382.1374375487
 21
355.906295884
  0
LINE
  5
3F1
100
AcDbEntity
  8
7_ALL_FEATURES
100
AcDbLine
 62
9
  6
CONTINUOUS
 10
382.6298271952
 20
355.4138777778
 11
379.9136165797
 21
352.697824148
  0
LINE
  5
3F2
100
AcDbEntity
  8
7_ALL_FEATURES
100
AcDbLine
 62
9
  6
CONTINUOUS
 10
356.178540177
 20
328.9641195332
 11
353.4623295615
 21
326.2480659033
  0
LINE
  5
3F3
100
AcDbEntity
  8
7_ALL_FEATURES
100
AcDbLine
 62
9
  6
CONTINUOUS
 10
383.1597942473
 20
355.4363850452
 11
383.1423386779
 21
355.4189304847
  0
LINE
  5
3F4
100
AcDbEntity
  8
7_ALL_FEATURES
100
AcDbLine
 62
9
  6
CONTINUOUS
 10
353.4572472327
 20
325.7355547134
 11
353.4397916634
 21
325.7181001529
  0
LINE
  5
3F5
100
AcDbEntity
  8
7_ALL_FEATURES
100
AcDbLine
 62
9
  6
CONTINUOUS
 10
382.1590877067
 20
325.7172702015
 11
382.1416331462
 21
325.7347257708
  0
LINE
  5
3F6
100
AcDbEntity
  8
7_ALL_FEATURES
100
AcDbLine
 62
9
  6
CONTINUOUS
 10
352.4582573749
 20
355.419817216
 11
352.4408028144
 21
355.4372727854
  0
LINE
  5
3F7
100
AcDbEntity
  8
7_ALL_FEATURES
100
AcDbLine
 62
9
  6
CONTINUOUS
 10
382.1365804393
 20
326.2472372536
 11
379.4205268094
 21
328.9634478691
  0
LINE
  5
3F8
100
AcDbEntity
  8
7_ALL_FEATURES
100
AcDbLine
 62
9
  6
CONTINUOUS
 10
355.6868221946
 20
352.6985242718
 11
352.9707685647
 21
355.4147348873
  0
LINE
  5
3F9
100
AcDbEntity
  8
7_ALL_FEATURES
100
AcDbLine
 62
9
  6
CONTINUOUS
 10
353.4631866709
 20
355.9071245337
 11
356.1792403008
 21
353.1909139182
  0
LINE
  5
3FA
100
AcDbEntity
  8
7_ALL_FEATURES
100
AcDbLine
 62
9
  6
CONTINUOUS
 10
379.9129449156
 20
329.4558375155
 11
382.6289985455
 21
326.7396269
  0
LINE
  5
3FB
100
AcDbEntity
  8
7_ALL_FEATURES
100
AcDbLine
 62
9
  6
CONTINUOUS
 10
353.4406794035
 20
356.4370915858
 11
353.458133964
 21
356.4196360164
  0
LINE
  5
3FC
100
AcDbEntity
  8
7_ALL_FEATURES
100
AcDbLine
 62
9
  6
CONTINUOUS
 10
383.1415097353
 20
326.7345445713
 11
383.1589642958
 21
326.7170890019
  0
LINE
  5
3FD
100
AcDbEntity
  8
7_ALL_FEATURES
100
AcDbLine
 62
9
  6
CONTINUOUS
 10
339.4212269333
 20
353.1902422541
 11
339.4205268095
 21
328.963447869
  0
LINE
  5
3FE
100
AcDbEntity
  8
7_ALL_FEATURES
100
AcDbLine
 62
9
  6
CONTINUOUS
 10
339.9129449156
 20
329.4558375155
 11
339.9136165797
 21
352.697824148
  0
LINE
  5
3FF
100
AcDbEntity
  8
7_ALL_FEATURES
100
AcDbLine
 62
7
  6
CONTINUOUS
 10
342.6289985455
 20
326.7396269
 11
342.6298271952
 21
355.4138777778
  0
LINE
  5
400
100
AcDbEntity
  8
7_ALL_FEATURES
100
AcDbLine
 62
7
  6
CONTINUOUS
 10
343.1415097358
 20
326.734560896
 11
343.1423386774
 21
355.418914202
  0
LINE
  5
401
100
AcDbEntity
  8
7_ALL_FEATURES
100
AcDbLine
 62
7
  6
CONTINUOUS
 10
343.1589642958
 20
326.7170890019
 11
343.1597942473
 21
355.4363850452
  0
LINE
  5
402
100
AcDbEntity
  8
7_ALL_FEATURES
100
AcDbLine
 62
7
  6
CONTINUOUS
 10
343.3998211902
 20
326.6771808954
 11
343.3998211902
 21
355.4771808954
  0
LINE
  5
403
100
AcDbEntity
  8
7_ALL_FEATURES
100
AcDbLine
 62
7
  6
CONTINUOUS
 10
352.1998211902
 20
355.4771808954
 11
352.1998211902
 21
326.6771808954
  0
LINE
  5
404
100
AcDbEntity
  8
7_ALL_FEATURES
100
AcDbLine
 62
7
  6
CONTINUOUS
 10
352.4408028144
 20
355.4372727854
 11
352.439972863
 21
326.717976742
  0
LINE
  5
405
100
AcDbEntity
  8
7_ALL_FEATURES
100
AcDbLine
 62
7
  6
CONTINUOUS
 10
352.4582573744
 20
355.4198007018
 11
352.4574284324
 21
326.7354346303
  0
LINE
  5
406
100
AcDbEntity
  8
7_ALL_FEATURES
100
AcDbLine
 62
7
  6
CONTINUOUS
 10
352.9699399151
 20
326.7404840094
 11
352.9707685648
 21
355.4147348873
  0
LINE
  5
407
100
AcDbEntity
  8
7_ALL_FEATURES
100
AcDbLine
 62
9
  6
CONTINUOUS
 10
355.6868221946
 20
352.6985242718
 11
355.6861505305
 21
329.4565376393
  0
LINE
  5
408
100
AcDbEntity
  8
7_ALL_FEATURES
100
AcDbLine
 62
9
  6
CONTINUOUS
 10
356.178540177
 20
328.9641195331
 11
356.1792403008
 21
353.1909139182
  0
LINE
  5
409
100
AcDbEntity
  8
7_ALL_FEATURES
100
AcDbLine
 62
9
  6
CONTINUOUS
 10
379.4212269333
 20
353.1902422541
 11
379.4205268095
 21
328.963447869
  0
LINE
  5
40A
100
AcDbEntity
  8
7_ALL_FEATURES
100
AcDbLine
 62
9
  6
CONTINUOUS
 10
379.9129449156
 20
329.4558375155
 11
379.9136165797
 21
352.697824148
  0
LINE
  5
40B
100
AcDbEntity
  8
7_ALL_FEATURES
100
AcDbLine
 62
7
  6
CONTINUOUS
 10
382.6289985455
 20
326.7396269
 11
382.6298271952
 21
355.4138777778
  0
LINE
  5
40C
100
AcDbEntity
  8
7_ALL_FEATURES
100
AcDbLine
 62
7
  6
CONTINUOUS
 10
383.1415097358
 20
326.734560896
 11
383.1423386774
 21
355.418914202
  0
LINE
  5
40D
100
AcDbEntity
  8
7_ALL_FEATURES
100
AcDbLine
 62
7
  6
CONTINUOUS
 10
383.1589642958
 20
326.7170890019
 11
383.1597942473
 21
355.4363850452
  0
LINE
  5
40E
100
AcDbEntity
  8
7_ALL_FEATURES
100
AcDbLine
 62
7
  6
CONTINUOUS
 10
383.3998211902
 20
326.6771808954
 11
383.3998211902
 21
355.4771808954
  0
LINE
  5
40F
100
AcDbEntity
  8
7_ALL_FEATURES
100
AcDbLine
 62
7
  6
CONTINUOUS
 10
392.2998211902
 20
364.5771808954
 11
392.2998211902
 21
317.5771808954
  0
LINE
  5
410
100
AcDbEntity
  8
7_ALL_FEATURES
100
AcDbLine
 62
9
  6
CONTINUOUS
 10
394.5139393043
 20
326.0771808954
 11
394.5139393043
 21
356.0771808954
  0
LINE
  5
411
100
AcDbEntity
  8
7_ALL_FEATURES
100
AcDbLine
 62
3
  6
CONTINUOUS
 10
394.7783138891
 20
326.0771808954
 11
394.7783138891
 21
356.0771808954
  0
LINE
  5
412
100
AcDbEntity
  8
7_ALL_FEATURES
100
AcDbLine
 62
7
  6
CONTINUOUS
 10
63.2998211902
 20
170.4705632981
 11
63.2998211902
 21
171.4705632981
  0
LINE
  5
413
100
AcDbEntity
  8
7_ALL_FEATURES
100
AcDbLine
 62
9
  6
CONTINUOUS
 10
64.2998211902
 20
170.4705632981
 11
64.2998211902
 21
171.4705632981
  0
LINE
  5
414
100
AcDbEntity
  8
02___PRT_ALL_AXES
100
AcDbLine
 62
7
  6
CONTINUOUS
 10
68.2998211902
 20
204.8205632981
 11
68.2998211902
 21
210.8205632981
  0
LINE
  5
415
100
AcDbEntity
  8
02___PRT_ALL_AXES
100
AcDbLine
 62
7
  6
CONTINUOUS
 10
68.6101291995
 20
204.8205632981
 11
68.6101291995
 21
210.8205632981
  0
LINE
  5
416
100
AcDbEntity
  8
06___PRT_ALL_SURFS
100
AcDbLine
 62
2
  6
CONTINUOUS
 10
68.6101291995
 20
204.8205632981
 11
68.6101291995
 21
210.8205632981
  0
LINE
  5
417
100
AcDbEntity
  8
7_ALL_FEATURES
100
AcDbLine
 62
3
  6
CONTINUOUS
 10
68.7998211902
 20
203.3014767888
 11
68.7998211902
 21
211.8014767888
  0
LINE
  5
418
100
AcDbEntity
  8
7_ALL_FEATURES
100
AcDbLine
 62
7
  6
CONTINUOUS
 10
69.0998211902
 20
212.1705632981
 11
69.0998211902
 21
171.4705632981
  0
LINE
  5
419
100
AcDbEntity
  8
7_ALL_FEATURES
100
AcDbLine
 62
3
  6
CONTINUOUS
 10
63.5324932237
 20
174.6251704546
 11
61.0857030762
 21
184.0862059584
  0
LINE
  5
41A
100
AcDbEntity
  8
7_ALL_FEATURES
100
AcDbLine
 62
7
  6
CONTINUOUS
 10
63.8229375158
 20
174.7002844558
 11
61.3761473683
 21
184.1613199596
  0
LINE
  5
41B
100
AcDbEntity
  8
7_ALL_FEATURES
100
AcDbLine
 62
3
  6
CONTINUOUS
 10
70.0998211902
 20
212.1705632981
 11
70.0998211902
 21
171.4705632981
  0
LINE
  5
41C
100
AcDbEntity
  8
02___PRT_ALL_AXES
100
AcDbLine
 62
7
  6
CONTINUOUS
 10
70.2998211902
 20
171.4705632981
 11
70.2998211902
 21
241.7705632981
  0
LINE
  5
41D
100
AcDbEntity
  8
7_ALL_FEATURES
100
AcDbLine
 62
3
  6
CONTINUOUS
 10
68.7705580884
 20
203.1841088981
 11
61.7928634706
 21
190.0609739632
  0
LINE
  5
41E
100
AcDbEntity
  8
7_ALL_FEATURES
100
AcDbLine
 62
7
  6
CONTINUOUS
 10
69.0354423663
 20
203.0432674293
 11
62.0577477484
 21
189.9201324943
  0
LINE
  5
41F
100
AcDbEntity
  8
02___PRT_ALL_AXES
100
AcDbLine
 62
7
  6
CONTINUOUS
 10
68.7998211902
 20
204.9797337775
 11
68.6101291995
 21
204.8205632981
  0
LINE
  5
420
100
AcDbEntity
  8
06___PRT_ALL_SURFS
100
AcDbLine
 62
6
  6
CONTINUOUS
 10
68.7998211902
 20
204.9797337775
 11
68.6101291995
 21
204.8205632981
  0
LINE
  5
421
100
AcDbEntity
  8
7_ALL_FEATURES
100
AcDbLine
 62
9
  6
CONTINUOUS
 10
61.7928634706
 20
190.0609739632
 11
62.0577477484
 21
189.9201324943
  0
LINE
  5
422
100
AcDbEntity
  8
02___PRT_ALL_AXES
100
AcDbLine
 62
7
  6
CONTINUOUS
 10
68.7998211902
 20
210.6613928186
 11
68.6101291995
 21
210.8205632981
  0
LINE
  5
423
100
AcDbEntity
  8
06___PRT_ALL_SURFS
100
AcDbLine
 62
6
  6
CONTINUOUS
 10
68.7998211902
 20
210.6613928186
 11
68.6101291995
 21
210.8205632981
  0
LINE
  5
424
100
AcDbEntity
  8
7_ALL_FEATURES
100
AcDbLine
 62
9
  6
CONTINUOUS
 10
69.0354423663
 20
203.0432674293
 11
68.7705580884
 21
203.1841088981
  0
LINE
  5
425
100
AcDbEntity
  8
7_ALL_FEATURES
100
AcDbLine
 62
7
  6
CONTINUOUS
 10
63.2998211902
 20
170.4705632981
 11
392.2998211902
 21
170.4705632981
  0
LINE
  5
426
100
AcDbEntity
  8
7_ALL_FEATURES
100
AcDbLine
 62
3
  6
CONTINUOUS
 10
63.2998211902
 20
171.4705632981
 11
392.2998211902
 21
171.4705632981
  0
LINE
  5
427
100
AcDbEntity
  8
02___PRT_ALL_AXES
100
AcDbLine
 62
9
  6
CONTINUOUS
 10
70.2998211902
 20
171.9705632981
 11
385.2998211902
 21
171.9705632981
  0
LINE
  5
428
100
AcDbEntity
  8
7_ALL_FEATURES
100
AcDbLine
 62
7
  6
CONTINUOUS
 10
385.4998211902
 20
181.4705632981
 11
385.2998211902
 21
181.4705632981
  0
LINE
  5
429
100
AcDbEntity
  8
7_ALL_FEATURES
100
AcDbLine
 62
7
  6
CONTINUOUS
 10
70.2998211902
 20
181.4705632981
 11
70.0998211902
 21
181.4705632981
  0
LINE
  5
42A
100
AcDbEntity
  8
7_ALL_FEATURES
100
AcDbLine
 62
9
  6
CONTINUOUS
 10
69.0998211902
 20
203.3014767888
 11
68.7998211902
 21
203.3014767888
  0
LINE
  5
42B
100
AcDbEntity
  8
7_ALL_FEATURES
100
AcDbLine
 62
9
  6
CONTINUOUS
 10
386.4998211902
 20
203.3014767888
 11
386.7998211902
 21
203.3014767888
  0
LINE
  5
42C
100
AcDbEntity
  8
02___PRT_ALL_AXES
100
AcDbLine
 62
7
  6
CONTINUOUS
 10
68.6101291995
 20
204.8205632981
 11
68.2998211902
 21
204.8205632981
  0
LINE
  5
42D
100
AcDbEntity
  8
02___PRT_ALL_AXES
100
AcDbLine
 62
7
  6
CONTINUOUS
 10
386.989513181
 20
204.8205632981
 11
387.2998211902
 21
204.8205632981
  0
LINE
  5
42E
100
AcDbEntity
  8
06___PRT_ALL_SURFS
100
AcDbLine
 62
6
  6
CONTINUOUS
 10
70.2998211902
 20
206.0705632981
 11
70.0998211902
 21
206.0705632981
  0
LINE
  5
42F
100
AcDbEntity
  8
06___PRT_ALL_SURFS
100
AcDbLine
 62
6
  6
CONTINUOUS
 10
385.2998211902
 20
206.0705632981
 11
385.4998211902
 21
206.0705632981
  0
LINE
  5
430
100
AcDbEntity
  8
7_ALL_FEATURES
100
AcDbLine
 62
7
  6
CONTINUOUS
 10
63.8229375158
 20
174.7002844558
 11
63.5324932237
 21
174.6251704546
  0
LINE
  5
431
100
AcDbEntity
  8
7_ALL_FEATURES
100
AcDbLine
 62
9
  6
CONTINUOUS
 10
63.5725575117
 20
175.6684320962
 11
63.2821132196
 21
175.593318095
  0
LINE
  5
432
100
AcDbEntity
  8
03___PRT_ALL_CURVES
100
AcDbLine
 62
40
  6
CONTINUOUS
 10
387.4998211902
 20
207.8205632981
 11
387.2998211902
 21
207.8205632981
  0
LINE
  5
433
100
AcDbEntity
  8
03___PRT_ALL_CURVES
100
AcDbLine
 62
40
  6
CONTINUOUS
 10
68.0998211902
 20
207.8205632981
 11
68.2998211902
 21
207.8205632981
  0
LINE
  5
434
100
AcDbEntity
  8
06___PRT_ALL_SURFS
100
AcDbLine
 62
6
  6
CONTINUOUS
 10
70.2998211902
 20
209.5705632981
 11
70.0998211902
 21
209.5705632981
  0
LINE
  5
435
100
AcDbEntity
  8
06___PRT_ALL_SURFS
100
AcDbLine
 62
6
  6
CONTINUOUS
 10
385.2998211902
 20
209.5705632981
 11
385.4998211902
 21
209.5705632981
  0
LINE
  5
436
100
AcDbEntity
  8
7_ALL_FEATURES
100
AcDbLine
 62
9
  6
CONTINUOUS
 10
69.0998211902
 20
210.8014767888
 11
68.7998211902
 21
210.8014767888
  0
LINE
  5
437
100
AcDbEntity
  8
7_ALL_FEATURES
100
AcDbLine
 62
9
  6
CONTINUOUS
 10
386.4998211902
 20
210.8014767888
 11
386.7998211902
 21
210.8014767888
  0
LINE
  5
438
100
AcDbEntity
  8
02___PRT_ALL_AXES
100
AcDbLine
 62
7
  6
CONTINUOUS
 10
68.6101291995
 20
210.8205632981
 11
68.2998211902
 21
210.8205632981
  0
LINE
  5
439
100
AcDbEntity
  8
02___PRT_ALL_AXES
100
AcDbLine
 62
7
  6
CONTINUOUS
 10
386.989513181
 20
210.8205632981
 11
387.2998211902
 21
210.8205632981
  0
LINE
  5
43A
100
AcDbEntity
  8
7_ALL_FEATURES
100
AcDbLine
 62
9
  6
CONTINUOUS
 10
70.0998211902
 20
211.6705632981
 11
69.0998211902
 21
211.6705632981
  0
LINE
  5
43B
100
AcDbEntity
  8
7_ALL_FEATURES
100
AcDbLine
 62
9
  6
CONTINUOUS
 10
385.4998211902
 20
211.6705632981
 11
386.4998211902
 21
211.6705632981
  0
LINE
  5
43C
100
AcDbEntity
  8
7_ALL_FEATURES
100
AcDbLine
 62
7
  6
CONTINUOUS
 10
69.0998211902
 20
211.8014767888
 11
68.7998211902
 21
211.8014767888
  0
LINE
  5
43D
100
AcDbEntity
  8
7_ALL_FEATURES
100
AcDbLine
 62
7
  6
CONTINUOUS
 10
386.4998211902
 20
211.8014767888
 11
386.7998211902
 21
211.8014767888
  0
LINE
  5
43E
100
AcDbEntity
  8
7_ALL_FEATURES
100
AcDbLine
 62
7
  6
CONTINUOUS
 10
70.0998211902
 20
212.1705632981
 11
69.0998211902
 21
212.1705632981
  0
LINE
  5
43F
100
AcDbEntity
  8
7_ALL_FEATURES
100
AcDbLine
 62
7
  6
CONTINUOUS
 10
385.4998211902
 20
212.1705632981
 11
386.4998211902
 21
212.1705632981
  0
LINE
  5
440
100
AcDbEntity
  8
7_ALL_FEATURES
100
AcDbLine
 62
7
  6
CONTINUOUS
 10
391.7767048646
 20
174.7002844558
 11
392.0671491568
 21
174.6251704546
  0
LINE
  5
441
100
AcDbEntity
  8
7_ALL_FEATURES
100
AcDbLine
 62
9
  6
CONTINUOUS
 10
392.0270848687
 20
175.6684320962
 11
392.3175291608
 21
175.593318095
  0
LINE
  5
442
100
AcDbEntity
  8
7_ALL_FEATURES
100
AcDbLine
 62
9
  6
CONTINUOUS
 10
61.0857030762
 20
184.0862059584
 11
61.3761473683
 21
184.1613199596
  0
LINE
  5
443
100
AcDbEntity
  8
7_ALL_FEATURES
100
AcDbLine
 62
9
  6
CONTINUOUS
 10
394.5139393043
 20
184.0862059584
 11
394.2234950122
 21
184.1613199596
  0
LINE
  5
444
100
AcDbEntity
  8
02___PRT_ALL_AXES
100
AcDbLine
 62
9
  6
CONTINUOUS
 10
70.2998211902
 20
241.2705632981
 11
385.2998211902
 21
241.2705632981
  0
LINE
  5
445
100
AcDbEntity
  8
02___PRT_ALL_AXES
100
AcDbLine
 62
7
  6
CONTINUOUS
 10
70.2998211902
 20
241.7705632981
 11
385.2998211902
 21
241.7705632981
  0
LINE
  5
446
100
AcDbEntity
  8
7_ALL_FEATURES
100
AcDbLine
 62
9
  6
CONTINUOUS
 10
386.5642000141
 20
203.0432674293
 11
386.829084292
 21
203.1841088981
  0
LINE
  5
447
100
AcDbEntity
  8
7_ALL_FEATURES
100
AcDbLine
 62
9
  6
CONTINUOUS
 10
393.8067789099
 20
190.0609739632
 11
393.541894632
 21
189.9201324943
  0
LINE
  5
448
100
AcDbEntity
  8
02___PRT_ALL_AXES
100
AcDbLine
 62
7
  6
CONTINUOUS
 10
386.7998211902
 20
210.6613928186
 11
386.989513181
 21
210.8205632981
  0
LINE
  5
449
100
AcDbEntity
  8
06___PRT_ALL_SURFS
100
AcDbLine
 62
6
  6
CONTINUOUS
 10
386.7998211902
 20
210.6613928186
 11
386.989513181
 21
210.8205632981
  0
LINE
  5
44A
100
AcDbEntity
  8
02___PRT_ALL_AXES
100
AcDbLine
 62
7
  6
CONTINUOUS
 10
386.7998211902
 20
204.9797337775
 11
386.989513181
 21
204.8205632981
  0
LINE
  5
44B
100
AcDbEntity
  8
06___PRT_ALL_SURFS
100
AcDbLine
 62
6
  6
CONTINUOUS
 10
386.7998211902
 20
204.9797337775
 11
386.989513181
 21
204.8205632981
  0
LINE
  5
44C
100
AcDbEntity
  8
7_ALL_FEATURES
100
AcDbLine
 62
7
  6
CONTINUOUS
 10
393.541894632
 20
189.9201324943
 11
386.5642000141
 21
203.0432674293
  0
LINE
  5
44D
100
AcDbEntity
  8
7_ALL_FEATURES
100
AcDbLine
 62
3
  6
CONTINUOUS
 10
393.8067789099
 20
190.0609739632
 11
386.829084292
 21
203.1841088981
  0
LINE
  5
44E
100
AcDbEntity
  8
02___PRT_ALL_AXES
100
AcDbLine
 62
7
  6
CONTINUOUS
 10
385.2998211902
 20
171.4705632981
 11
385.2998211902
 21
241.7705632981
  0
LINE
  5
44F
100
AcDbEntity
  8
7_ALL_FEATURES
100
AcDbLine
 62
3
  6
CONTINUOUS
 10
385.4998211902
 20
171.4705632981
 11
385.4998211902
 21
212.1705632981
  0
LINE
  5
450
100
AcDbEntity
  8
7_ALL_FEATURES
100
AcDbLine
 62
7
  6
CONTINUOUS
 10
386.4998211902
 20
171.4705632981
 11
386.4998211902
 21
212.1705632981
  0
LINE
  5
451
100
AcDbEntity
  8
7_ALL_FEATURES
100
AcDbLine
 62
3
  6
CONTINUOUS
 10
386.7998211902
 20
211.8014767888
 11
386.7998211902
 21
203.3014767888
  0
LINE
  5
452
100
AcDbEntity
  8
02___PRT_ALL_AXES
100
AcDbLine
 62
7
  6
CONTINUOUS
 10
386.989513181
 20
204.8205632981
 11
386.989513181
 21
210.8205632981
  0
LINE
  5
453
100
AcDbEntity
  8
06___PRT_ALL_SURFS
100
AcDbLine
 62
2
  6
CONTINUOUS
 10
386.989513181
 20
204.8205632981
 11
386.989513181
 21
210.8205632981
  0
LINE
  5
454
100
AcDbEntity
  8
02___PRT_ALL_AXES
100
AcDbLine
 62
7
  6
CONTINUOUS
 10
387.2998211902
 20
204.8205632981
 11
387.2998211902
 21
210.8205632981
  0
LINE
  5
455
100
AcDbEntity
  8
7_ALL_FEATURES
100
AcDbLine
 62
9
  6
CONTINUOUS
 10
391.2998211902
 20
170.4705632981
 11
391.2998211902
 21
171.4705632981
  0
LINE
  5
456
100
AcDbEntity
  8
7_ALL_FEATURES
100
AcDbLine
 62
7
  6
CONTINUOUS
 10
392.2998211902
 20
170.4705632981
 11
392.2998211902
 21
171.4705632981
  0
LINE
  5
457
100
AcDbEntity
  8
7_ALL_FEATURES
100
AcDbLine
 62
7
  6
CONTINUOUS
 10
391.7767048646
 20
174.7002844558
 11
394.2234950122
 21
184.1613199596
  0
LINE
  5
458
100
AcDbEntity
  8
7_ALL_FEATURES
100
AcDbLine
 62
3
  6
CONTINUOUS
 10
394.5139393043
 20
184.0862059584
 11
392.0671491568
 21
174.6251704546
  0
LINE
  5
459
100
AcDbEntity
  8
7_ALL_FEATURES
100
AcDbLine
 62
7
  6
CONTINUOUS
 10
462.6012080504
 20
170.4705632981
 11
511.6012080504
 21
170.4705632981
  0
LINE
  5
45A
100
AcDbEntity
  8
7_ALL_FEATURES
100
AcDbLine
 62
3
  6
CONTINUOUS
 10
462.6012080504
 20
171.4705632981
 11
511.6012080504
 21
171.4705632981
  0
LINE
  5
45B
100
AcDbEntity
  8
7_ALL_FEATURES
100
AcDbLine
 62
3
  6
CONTINUOUS
 10
473.1012080504
 20
174.6251704546
 11
501.1012080504
 21
174.6251704546
  0
LINE
  5
45C
100
AcDbEntity
  8
02___PRT_ALL_AXES
100
AcDbLine
 62
7
  6
CONTINUOUS
 10
469.6228604525
 20
237.9587745632
 11
470.0092687486
 21
238.6629936486
  0
LINE
  5
45D
100
AcDbEntity
  8
02___PRT_ALL_AXES
100
AcDbLine
 62
7
  6
CONTINUOUS
 10
469.7576881685
 20
235.9633243666
 11
470.1440964643
 21
236.6675434515
  0
LINE
  5
45E
100
AcDbEntity
  8
02___PRT_ALL_AXES
100
AcDbLine
 62
7
  6
CONTINUOUS
 10
469.8925158845
 20
233.96787417
 11
470.2789241805
 21
234.6720932555
  0
LINE
  5
45F
100
AcDbEntity
  8
02___PRT_ALL_AXES
100
AcDbLine
 62
7
  6
CONTINUOUS
 10
470.0273436005
 20
231.9724239735
 11
470.4137518965
 21
232.6766430589
  0
LINE
  5
460
100
AcDbEntity
  8
02___PRT_ALL_AXES
100
AcDbLine
 62
7
  6
CONTINUOUS
 10
470.1621713165
 20
229.9769737769
 11
470.5485796125
 21
230.6811928623
  0
LINE
  5
461
100
AcDbEntity
  8
7_ALL_FEATURES
100
AcDbLine
 62
7
  6
CONTINUOUS
 10
462.6012080504
 20
170.4705632981
 11
462.6012080504
 21
171.4705632981
  0
LINE
  5
462
100
AcDbEntity
  8
7_ALL_FEATURES
100
AcDbLine
 62
9
  6
CONTINUOUS
 10
463.6012080504
 20
170.4705632981
 11
463.6012080504
 21
171.4705632981
  0
LINE
  5
463
100
AcDbEntity
  8
02___PRT_ALL_AXES
100
AcDbLine
 62
7
  6
CONTINUOUS
 10
470.2969990324
 20
227.9815235803
 11
470.6834073285
 21
228.6857426658
  0
LINE
  5
464
100
AcDbEntity
  8
02___PRT_ALL_AXES
100
AcDbLine
 62
7
  6
CONTINUOUS
 10
470.4318267484
 20
225.9860733837
 11
470.8182350445
 21
226.6902924692
  0
LINE
  5
465
100
AcDbEntity
  8
02___PRT_ALL_AXES
100
AcDbLine
 62
7
  6
CONTINUOUS
 10
470.5666544644
 20
223.9906231872
 11
470.9530627605
 21
224.6948422726
  0
LINE
  5
466
100
AcDbEntity
  8
02___PRT_ALL_AXES
100
AcDbLine
 62
7
  6
CONTINUOUS
 10
470.7014821804
 20
221.9951729906
 11
471.0878904764
 21
222.699392076
  0
LINE
  5
467
100
AcDbEntity
  8
02___PRT_ALL_AXES
100
AcDbLine
 62
7
  6
CONTINUOUS
 10
470.8363098964
 20
219.999722794
 11
471.2227181924
 21
220.7039418795
  0
LINE
  5
468
100
AcDbEntity
  8
02___PRT_ALL_AXES
100
AcDbLine
 62
7
  6
CONTINUOUS
 10
470.9711376121
 20
218.0042725969
 11
471.3575459084
 21
218.7084916829
  0
LINE
  5
469
100
AcDbEntity
  8
02___PRT_ALL_AXES
100
AcDbLine
 62
7
  6
CONTINUOUS
 10
476.5401774204
 20
227.7426209823
 11
476.0005794643
 21
227.0129889102
  0
LINE
  5
46A
100
AcDbEntity
  8
02___PRT_ALL_AXES
100
AcDbLine
 62
7
  6
CONTINUOUS
 10
476.3433801336
 20
225.6633769428
 11
475.8657517487
 21
225.0175387143
  0
LINE
  5
46B
100
AcDbEntity
  8
7_ALL_FEATURES
100
AcDbLine
 62
9
  6
CONTINUOUS
 10
502.1012080504
 20
184.0862059584
 11
472.1012080504
 21
184.0862059584
  0
LINE
  5
46C
100
AcDbEntity
  8
02___PRT_ALL_AXES
100
AcDbLine
 62
7
  6
CONTINUOUS
 10
467.6012080504
 20
241.2705632981
 11
467.6012080504
 21
211.6705632981
  0
LINE
  5
46D
100
AcDbEntity
  8
7_ALL_FEATURES
100
AcDbLine
 62
7
  6
CONTINUOUS
 10
467.6012080504
 20
171.4705632981
 11
467.6012080504
 21
211.6705632981
  0
LINE
  5
46E
100
AcDbEntity
  8
02___PRT_ALL_AXES
100
AcDbLine
 62
7
  6
CONTINUOUS
 10
471.1059653289
 20
216.0088224021
 11
471.4923736244
 21
216.7130414863
  0
LINE
  5
46F
100
AcDbEntity
  8
02___PRT_ALL_AXES
100
AcDbLine
 62
7
  6
CONTINUOUS
 10
471.2407930443
 20
214.0133722043
 11
471.6272013407
 21
214.7175912903
  0
LINE
  5
470
100
AcDbEntity
  8
02___PRT_ALL_AXES
100
AcDbLine
 62
7
  6
CONTINUOUS
 10
476.2085524172
 20
223.6679267456
 11
475.7309240327
 21
223.0220885177
  0
LINE
  5
471
100
AcDbEntity
  8
02___PRT_ALL_AXES
100
AcDbLine
 62
7
  6
CONTINUOUS
 10
476.0737247012
 20
221.672476549
 11
475.5960963164
 21
221.0266383205
  0
LINE
  5
472
100
AcDbEntity
  8
02___PRT_ALL_AXES
100
AcDbLine
 62
7
  6
CONTINUOUS
 10
475.9388969856
 20
219.6770263531
 11
475.4612686004
 21
219.0311881239
  0
LINE
  5
473
100
AcDbEntity
  8
02___PRT_ALL_AXES
100
AcDbLine
 62
7
  6
CONTINUOUS
 10
469.2132646576
 20
240.1121255115
 11
469.1327143391
 21
241.3042702261
  0
LINE
  5
474
100
AcDbEntity
  8
7_ALL_FEATURES
100
AcDbLine
 62
3
  6
CONTINUOUS
 10
472.1012080504
 20
175.593318095
 11
472.1012080504
 21
210.8014767888
  0
LINE
  5
475
100
AcDbEntity
  8
02___PRT_ALL_AXES
100
AcDbLine
 62
7
  6
CONTINUOUS
 10
478.9047997214
 20
225.9860733837
 11
479.2912080169
 21
226.6902924681
  0
LINE
  5
476
100
AcDbEntity
  8
02___PRT_ALL_AXES
100
AcDbLine
 62
7
  6
CONTINUOUS
 10
471.4593757481
 20
212.1705632981
 11
471.7620290564
 21
212.7221410932
  0
LINE
  5
477
100
AcDbEntity
  8
02___PRT_ALL_AXES
100
AcDbLine
 62
7
  6
CONTINUOUS
 10
479.0396274374
 20
223.9906231873
 11
479.4260357334
 21
224.6948422726
  0
LINE
  5
478
100
AcDbEntity
  8
02___PRT_ALL_AXES
100
AcDbLine
 62
7
  6
CONTINUOUS
 10
479.1744551534
 20
221.9951729906
 11
479.5608634494
 21
222.699392076
  0
LINE
  5
479
100
AcDbEntity
  8
02___PRT_ALL_AXES
100
AcDbLine
 62
7
  6
CONTINUOUS
 10
475.8040692692
 20
217.6815761559
 11
475.3264408848
 21
217.035737928
  0
LINE
  5
47A
100
AcDbEntity
  8
02___PRT_ALL_AXES
100
AcDbLine
 62
7
  6
CONTINUOUS
 10
475.6692415532
 20
215.6861259593
 11
475.1916131688
 21
215.0402877314
  0
LINE
  5
47B
100
AcDbEntity
  8
7_ALL_FEATURES
100
AcDbLine
 62
9
  6
CONTINUOUS
 10
502.1012080504
 20
190.0609739632
 11
472.1012080504
 21
190.0609739632
  0
LINE
  5
47C
100
AcDbEntity
  8
02___PRT_ALL_AXES
100
AcDbLine
 62
7
  6
CONTINUOUS
 10
476.6931207315
 20
229.3042702278
 11
476.5982902615
 21
227.9007792734
  0
LINE
  5
47D
100
AcDbEntity
  8
02___PRT_ALL_AXES
100
AcDbLine
 62
7
  6
CONTINUOUS
 10
479.3092828694
 20
219.999722794
 11
479.6956911654
 21
220.7039418795
  0
LINE
  5
47E
100
AcDbEntity
  8
02___PRT_ALL_AXES
100
AcDbLine
 62
7
  6
CONTINUOUS
 10
479.444110585
 20
218.0042725969
 11
479.8305188814
 21
218.7084916829
  0
LINE
  5
47F
100
AcDbEntity
  8
02___PRT_ALL_AXES
100
AcDbLine
 62
7
  6
CONTINUOUS
 10
479.5789383013
 20
216.008822401
 11
479.9653465974
 21
216.7130414863
  0
LINE
  5
480
100
AcDbEntity
  8
02___PRT_ALL_AXES
100
AcDbLine
 62
7
  6
CONTINUOUS
 10
475.5344138376
 20
213.6906757634
 11
475.0567854524
 21
213.0448375342
  0
LINE
  5
481
100
AcDbEntity
  8
02___PRT_ALL_AXES
100
AcDbLine
 62
7
  6
CONTINUOUS
 10
479.5208491838
 20
213.661786285
 11
480.1001743137
 21
214.7175912903
  0
LINE
  5
482
100
AcDbEntity
  8
02___PRT_ALL_AXES
100
AcDbLine
 62
7
  6
CONTINUOUS
 10
479.5741810233
 20
212.1705632981
 11
479.4845401559
 21
213.4972481363
  0
LINE
  5
483
100
AcDbEntity
  8
02___PRT_ALL_AXES
100
AcDbLine
 62
7
  6
CONTINUOUS
 10
478.6716934067
 20
227.9007792748
 11
478.5768629369
 21
229.3042702278
  0
LINE
  5
484
100
AcDbEntity
  8
7_ALL_FEATURES
100
AcDbLine
 62
7
  6
CONTINUOUS
 10
478.8512080504
 20
207.4455632981
 11
478.8512080504
 21
208.1955632981
  0
LINE
  5
485
100
AcDbEntity
  8
7_ALL_FEATURES
100
AcDbLine
 62
7
  6
CONTINUOUS
 10
480.4762080504
 20
209.8205632981
 11
480.4762080504
 21
208.1955632981
  0
LINE
  5
486
100
AcDbEntity
  8
7_ALL_FEATURES
100
AcDbLine
 62
7
  6
CONTINUOUS
 10
480.4762080504
 20
207.4455632981
 11
480.4762080504
 21
205.8205632981
  0
LINE
  5
487
100
AcDbEntity
  8
7_ALL_FEATURES
100
AcDbLine
 62
7
  6
CONTINUOUS
 10
481.2262080504
 20
205.8205632981
 11
481.2262080504
 21
207.4455632981
  0
LINE
  5
488
100
AcDbEntity
  8
7_ALL_FEATURES
100
AcDbLine
 62
7
  6
CONTINUOUS
 10
481.2262080504
 20
208.1955632981
 11
481.2262080504
 21
209.8205632981
  0
LINE
  5
489
100
AcDbEntity
  8
02___PRT_ALL_AXES
100
AcDbLine
 62
7
  6
CONTINUOUS
 10
495.4726098528
 20
227.7426209823
 11
494.9330118967
 21
227.0129889102
  0
LINE
  5
48A
100
AcDbEntity
  8
02___PRT_ALL_AXES
100
AcDbLine
 62
7
  6
CONTINUOUS
 10
504.9310386019
 20
239.953967219
 11
504.214951166
 21
238.9856900903
  0
LINE
  5
48B
100
AcDbEntity
  8
02___PRT_ALL_AXES
100
AcDbLine
 62
7
  6
CONTINUOUS
 10
471.740225243
 20
213.0448375342
 11
471.2625968577
 21
213.6906757634
  0
LINE
  5
48C
100
AcDbEntity
  8
02___PRT_ALL_AXES
100
AcDbLine
 62
7
  6
CONTINUOUS
 10
471.6053975266
 20
215.0402877314
 11
471.1277691422
 21
215.6861259593
  0
LINE
  5
48D
100
AcDbEntity
  8
02___PRT_ALL_AXES
100
AcDbLine
 62
7
  6
CONTINUOUS
 10
471.4705698106
 20
217.035737928
 11
470.9929414262
 21
217.6815761559
  0
LINE
  5
48E
100
AcDbEntity
  8
02___PRT_ALL_AXES
100
AcDbLine
 62
7
  6
CONTINUOUS
 10
475.034981639
 20
212.7221410932
 11
475.3376349473
 21
212.1705632981
  0
LINE
  5
48F
100
AcDbEntity
  8
02___PRT_ALL_AXES
100
AcDbLine
 62
7
  6
CONTINUOUS
 10
475.1698093547
 20
214.7175912903
 11
475.556217651
 21
214.0133722043
  0
LINE
  5
490
100
AcDbEntity
  8
7_ALL_FEATURES
100
AcDbLine
 62
7
  6
CONTINUOUS
 10
482.8512080504
 20
208.1955632981
 11
482.8512080504
 21
207.4455632981
  0
LINE
  5
491
100
AcDbEntity
  8
3_ALL_AXES
100
AcDbLine
 62
7
  6
CONTINUOUS
 10
483.1012080504
 20
219.2705632981
 11
483.1012080504
 21
212.1705632981
  0
LINE
  5
492
100
AcDbEntity
  8
02___PRT_ALL_AXES
100
AcDbLine
 62
7
  6
CONTINUOUS
 10
495.275812566
 20
225.6633769428
 11
494.7981841812
 21
225.0175387143
  0
LINE
  5
493
100
AcDbEntity
  8
02___PRT_ALL_AXES
100
AcDbLine
 62
7
  6
CONTINUOUS
 10
504.5577518345
 20
237.6360781216
 11
504.08012345
 21
236.9902398937
  0
LINE
  5
494
100
AcDbEntity
  8
02___PRT_ALL_AXES
100
AcDbLine
 62
7
  6
CONTINUOUS
 10
495.1409848496
 20
223.6679267456
 11
494.6633564652
 21
223.0220885177
  0
LINE
  5
495
100
AcDbEntity
  8
02___PRT_ALL_AXES
100
AcDbLine
 62
7
  6
CONTINUOUS
 10
504.4229241189
 20
235.6406279257
 11
503.9452957337
 21
234.9947896965
  0
LINE
  5
496
100
AcDbEntity
  8
02___PRT_ALL_AXES
100
AcDbLine
 62
7
  6
CONTINUOUS
 10
495.0061571336
 20
221.672476549
 11
494.5285287488
 21
221.0266383205
  0
LINE
  5
497
100
AcDbEntity
  8
02___PRT_ALL_AXES
100
AcDbLine
 62
7
  6
CONTINUOUS
 10
504.2880964029
 20
233.6451777291
 11
503.8104680181
 21
232.9993395006
  0
LINE
  5
498
100
AcDbEntity
  8
7_ALL_FEATURES
100
AcDbLine
 62
9
  6
CONTINUOUS
 10
472.1012080504
 20
203.1841088981
 11
502.1012080504
 21
203.1841088981
  0
LINE
  5
499
100
AcDbEntity
  8
7_ALL_FEATURES
100
AcDbLine
 62
9
  6
CONTINUOUS
 10
472.1012080504
 20
203.3014767888
 11
502.1012080504
 21
203.3014767888
  0
LINE
  5
49A
100
AcDbEntity
  8
02___PRT_ALL_AXES
100
AcDbLine
 62
7
  6
CONTINUOUS
 10
471.335742095
 20
219.0311881239
 11
470.8581137098
 21
219.6770263531
  0
LINE
  5
49B
100
AcDbEntity
  8
02___PRT_ALL_AXES
100
AcDbLine
 62
7
  6
CONTINUOUS
 10
471.200914379
 20
221.0266383205
 11
470.7232859942
 21
221.672476549
  0
LINE
  5
49C
100
AcDbEntity
  8
02___PRT_ALL_AXES
100
AcDbLine
 62
7
  6
CONTINUOUS
 10
471.0660866626
 20
223.0220885177
 11
470.5884582782
 21
223.6679267456
  0
LINE
  5
49D
100
AcDbEntity
  8
02___PRT_ALL_AXES
100
AcDbLine
 62
7
  6
CONTINUOUS
 10
475.304637071
 20
216.7130414863
 11
475.691045367
 21
216.0088224009
  0
LINE
  5
49E
100
AcDbEntity
  8
02___PRT_ALL_AXES
100
AcDbLine
 62
7
  6
CONTINUOUS
 10
475.439464787
 20
218.7084916829
 11
475.8258730833
 21
218.0042725969
  0
LINE
  5
49F
100
AcDbEntity
  8
02___PRT_ALL_AXES
100
AcDbLine
 62
7
  6
CONTINUOUS
 10
475.5742925035
 20
220.7039418784
 11
475.960700799
 21
219.999722794
  0
LINE
  5
4A0
100
AcDbEntity
  8
02___PRT_ALL_AXES
100
AcDbLine
 62
7
  6
CONTINUOUS
 10
497.8372321538
 20
225.9860733837
 11
498.2236404499
 21
226.6902924692
  0
LINE
  5
4A1
100
AcDbEntity
  8
02___PRT_ALL_AXES
100
AcDbLine
 62
7
  6
CONTINUOUS
 10
494.871329418
 20
219.6770263531
 11
494.3937010328
 21
219.0311881239
  0
LINE
  5
4A2
100
AcDbEntity
  8
02___PRT_ALL_AXES
100
AcDbLine
 62
7
  6
CONTINUOUS
 10
504.1532686865
 20
231.6497275319
 11
503.6756403021
 21
231.003889304
  0
LINE
  5
4A3
100
AcDbEntity
  8
02___PRT_ALL_AXES
100
AcDbLine
 62
7
  6
CONTINUOUS
 10
494.7365017016
 20
217.6815761559
 11
494.2588733172
 21
217.035737928
  0
LINE
  5
4A4
100
AcDbEntity
  8
02___PRT_ALL_AXES
100
AcDbLine
 62
7
  6
CONTINUOUS
 10
504.0184409705
 20
229.6542773353
 11
503.5408125857
 21
229.0084391068
  0
LINE
  5
4A5
100
AcDbEntity
  8
02___PRT_ALL_AXES
100
AcDbLine
 62
7
  6
CONTINUOUS
 10
494.6016739857
 20
215.6861259593
 11
494.1240456012
 21
215.0402877314
  0
LINE
  5
4A6
100
AcDbEntity
  8
7_ALL_FEATURES
100
AcDbLine
 62
7
  6
CONTINUOUS
 10
493.7262080504
 20
205.8205632981
 11
492.9762080504
 21
205.8205632981
  0
LINE
  5
4A7
100
AcDbEntity
  8
7_ALL_FEATURES
100
AcDbLine
 62
7
  6
CONTINUOUS
 10
481.2262080504
 20
205.8205632981
 11
480.4762080504
 21
205.8205632981
  0
LINE
  5
4A8
100
AcDbEntity
  8
02___PRT_ALL_AXES
100
AcDbLine
 62
7
  6
CONTINUOUS
 10
470.9312589467
 20
225.0175387143
 11
470.4536305618
 21
225.6633769428
  0
LINE
  5
4A9
100
AcDbEntity
  8
02___PRT_ALL_AXES
100
AcDbLine
 62
7
  6
CONTINUOUS
 10
470.7964312311
 20
227.0129889102
 11
470.3188028458
 21
227.6588271394
  0
LINE
  5
4AA
100
AcDbEntity
  8
02___PRT_ALL_AXES
100
AcDbLine
 62
7
  6
CONTINUOUS
 10
480.0783704996
 20
215.0402877314
 11
479.6007421151
 21
215.6861259593
  0
LINE
  5
4AB
100
AcDbEntity
  8
02___PRT_ALL_AXES
100
AcDbLine
 62
7
  6
CONTINUOUS
 10
475.7091202189
 20
222.699392076
 11
476.095528515
 21
221.9951729906
  0
LINE
  5
4AC
100
AcDbEntity
  8
02___PRT_ALL_AXES
100
AcDbLine
 62
7
  6
CONTINUOUS
 10
475.8439479349
 20
224.6948422726
 11
476.230356231
 21
223.9906231872
  0
LINE
  5
4AD
100
AcDbEntity
  8
02___PRT_ALL_AXES
100
AcDbLine
 62
7
  6
CONTINUOUS
 10
475.9787756509
 20
226.6902924692
 11
476.365183947
 21
225.9860733837
  0
LINE
  5
4AE
100
AcDbEntity
  8
02___PRT_ALL_AXES
100
AcDbLine
 62
7
  6
CONTINUOUS
 10
497.9720598698
 20
223.9906231872
 11
498.3584681659
 21
224.6948422726
  0
LINE
  5
4AF
100
AcDbEntity
  8
02___PRT_ALL_AXES
100
AcDbLine
 62
7
  6
CONTINUOUS
 10
498.1068875858
 20
221.9951729906
 11
498.4932958813
 21
222.6993920749
  0
LINE
  5
4B0
100
AcDbEntity
  8
02___PRT_ALL_AXES
100
AcDbLine
 62
7
  6
CONTINUOUS
 10
498.2417153018
 20
219.999722794
 11
498.6281235978
 21
220.7039418795
  0
LINE
  5
4B1
100
AcDbEntity
  8
02___PRT_ALL_AXES
100
AcDbLine
 62
7
  6
CONTINUOUS
 10
503.8836132549
 20
227.6588271394
 11
503.4059848697
 21
227.0129889102
  0
LINE
  5
4B2
100
AcDbEntity
  8
02___PRT_ALL_AXES
100
AcDbLine
 62
7
  6
CONTINUOUS
 10
503.748785539
 20
225.6633769428
 11
503.2711571541
 21
225.0175387143
  0
LINE
  5
4B3
100
AcDbEntity
  8
02___PRT_ALL_AXES
100
AcDbLine
 62
7
  6
CONTINUOUS
 10
503.6139578226
 20
223.6679267456
 11
503.1363294381
 21
223.0220885177
  0
LINE
  5
4B4
100
AcDbEntity
  8
7_ALL_FEATURES
100
AcDbLine
 62
7
  6
CONTINUOUS
 10
478.8512080504
 20
207.4455632981
 11
480.4762080504
 21
207.4455632981
  0
LINE
  5
4B5
100
AcDbEntity
  8
7_ALL_FEATURES
100
AcDbLine
 62
7
  6
CONTINUOUS
 10
481.2262080504
 20
207.4455632981
 11
482.8512080504
 21
207.4455632981
  0
LINE
  5
4B6
100
AcDbEntity
  8
7_ALL_FEATURES
100
AcDbLine
 62
7
  6
CONTINUOUS
 10
491.3512080504
 20
207.4455632981
 11
492.9762080504
 21
207.4455632981
  0
LINE
  5
4B7
100
AcDbEntity
  8
7_ALL_FEATURES
100
AcDbLine
 62
7
  6
CONTINUOUS
 10
493.7262080504
 20
207.4455632981
 11
495.3512080504
 21
207.4455632981
  0
LINE
  5
4B8
100
AcDbEntity
  8
7_ALL_FEATURES
100
AcDbLine
 62
7
  6
CONTINUOUS
 10
495.3512080504
 20
208.1955632981
 11
493.7262080504
 21
208.1955632981
  0
LINE
  5
4B9
100
AcDbEntity
  8
7_ALL_FEATURES
100
AcDbLine
 62
7
  6
CONTINUOUS
 10
492.9762080504
 20
208.1955632981
 11
491.3512080504
 21
208.1955632981
  0
LINE
  5
4BA
100
AcDbEntity
  8
7_ALL_FEATURES
100
AcDbLine
 62
7
  6
CONTINUOUS
 10
482.8512080504
 20
208.1955632981
 11
481.2262080504
 21
208.1955632981
  0
LINE
  5
4BB
100
AcDbEntity
  8
7_ALL_FEATURES
100
AcDbLine
 62
7
  6
CONTINUOUS
 10
480.4762080504
 20
208.1955632981
 11
478.8512080504
 21
208.1955632981
  0
LINE
  5
4BC
100
AcDbEntity
  8
02___PRT_ALL_AXES
100
AcDbLine
 62
7
  6
CONTINUOUS
 10
470.6616035151
 20
229.0084391068
 11
470.1839751303
 21
229.6542773353
  0
LINE
  5
4BD
100
AcDbEntity
  8
02___PRT_ALL_AXES
100
AcDbLine
 62
7
  6
CONTINUOUS
 10
479.9435427836
 20
217.035737928
 11
479.4659143991
 21
217.6815761559
  0
LINE
  5
4BE
100
AcDbEntity
  8
02___PRT_ALL_AXES
100
AcDbLine
 62
7
  6
CONTINUOUS
 10
470.5267757987
 20
231.003889304
 11
470.0491474143
 21
231.6497275319
  0
LINE
  5
4BF
100
AcDbEntity
  8
02___PRT_ALL_AXES
100
AcDbLine
 62
7
  6
CONTINUOUS
 10
479.808715068
 20
219.0311881239
 11
479.3310866828
 21
219.6770263531
  0
LINE
  5
4C0
100
AcDbEntity
  8
02___PRT_ALL_AXES
100
AcDbLine
 62
7
  6
CONTINUOUS
 10
470.3919480827
 20
232.9993395006
 11
469.9143196979
 21
233.6451777291
  0
LINE
  5
4C1
100
AcDbEntity
  8
02___PRT_ALL_AXES
100
AcDbLine
 62
7
  6
CONTINUOUS
 10
479.673887352
 20
221.0266383205
 11
479.1962589672
 21
221.672476549
  0
LINE
  5
4C2
100
AcDbEntity
  8
3_ALL_AXES
100
AcDbLine
 62
7
  6
CONTINUOUS
 10
491.1012080504
 20
219.2705632981
 11
491.1012080504
 21
212.1705632981
  0
LINE
  5
4C3
100
AcDbEntity
  8
7_ALL_FEATURES
100
AcDbLine
 62
7
  6
CONTINUOUS
 10
491.3512080504
 20
207.4455632981
 11
491.3512080504
 21
208.1955632981
  0
LINE
  5
4C4
100
AcDbEntity
  8
7_ALL_FEATURES
100
AcDbLine
 62
7
  6
CONTINUOUS
 10
492.9762080504
 20
209.8205632981
 11
492.9762080504
 21
208.1955632981
  0
LINE
  5
4C5
100
AcDbEntity
  8
7_ALL_FEATURES
100
AcDbLine
 62
7
  6
CONTINUOUS
 10
492.9762080504
 20
207.4455632981
 11
492.9762080504
 21
205.8205632981
  0
LINE
  5
4C6
100
AcDbEntity
  8
02___PRT_ALL_AXES
100
AcDbLine
 62
7
  6
CONTINUOUS
 10
498.3765430175
 20
218.0042725969
 11
498.7629513138
 21
218.7084916829
  0
LINE
  5
4C7
100
AcDbEntity
  8
02___PRT_ALL_AXES
100
AcDbLine
 62
7
  6
CONTINUOUS
 10
498.5113707338
 20
216.0088224009
 11
498.8977790298
 21
216.7130414863
  0
LINE
  5
4C8
100
AcDbEntity
  8
02___PRT_ALL_AXES
100
AcDbLine
 62
7
  6
CONTINUOUS
 10
503.4791301066
 20
221.672476549
 11
503.0015017218
 21
221.0266383205
  0
LINE
  5
4C9
100
AcDbEntity
  8
02___PRT_ALL_AXES
100
AcDbLine
 62
7
  6
CONTINUOUS
 10
503.344302391
 20
219.6770263531
 11
502.8666740058
 21
219.0311881239
  0
LINE
  5
4CA
100
AcDbEntity
  8
02___PRT_ALL_AXES
100
AcDbLine
 62
7
  6
CONTINUOUS
 10
503.2094746746
 20
217.6815761559
 11
502.7318462902
 21
217.035737928
  0
LINE
  5
4CB
100
AcDbEntity
  8
7_ALL_FEATURES
100
AcDbLine
 62
7
  6
CONTINUOUS
 10
480.4762080504
 20
209.8205632981
 11
481.2262080504
 21
209.8205632981
  0
LINE
  5
4CC
100
AcDbEntity
  8
7_ALL_FEATURES
100
AcDbLine
 62
7
  6
CONTINUOUS
 10
492.9762080504
 20
209.8205632981
 11
493.7262080504
 21
209.8205632981
  0
LINE
  5
4CD
100
AcDbEntity
  8
7_ALL_FEATURES
100
AcDbLine
 62
3
  6
CONTINUOUS
 10
501.1012080504
 20
211.8014767888
 11
473.1012080504
 21
211.8014767888
  0
LINE
  5
4CE
100
AcDbEntity
  8
7_ALL_FEATURES
100
AcDbLine
 62
7
  6
CONTINUOUS
 10
468.1012080504
 20
212.1705632981
 11
506.1012080504
 21
212.1705632981
  0
LINE
  5
4CF
100
AcDbEntity
  8
02___PRT_ALL_AXES
100
AcDbLine
 62
7
  6
CONTINUOUS
 10
470.2571203671
 20
234.9947896965
 11
469.7794919819
 21
235.6406279257
  0
LINE
  5
4D0
100
AcDbEntity
  8
02___PRT_ALL_AXES
100
AcDbLine
 62
7
  6
CONTINUOUS
 10
479.5390596356
 20
223.0220885177
 11
479.0614312512
 21
223.6679267456
  0
LINE
  5
4D1
100
AcDbEntity
  8
02___PRT_ALL_AXES
100
AcDbLine
 62
7
  6
CONTINUOUS
 10
470.1222926501
 20
236.9902398946
 11
469.6446642663
 21
237.6360781216
  0
LINE
  5
4D2
100
AcDbEntity
  8
02___PRT_ALL_AXES
100
AcDbLine
 62
7
  6
CONTINUOUS
 10
479.4042319196
 20
225.0175387143
 11
478.9266035348
 21
225.6633769428
  0
LINE
  5
4D3
100
AcDbEntity
  8
02___PRT_ALL_AXES
100
AcDbLine
 62
7
  6
CONTINUOUS
 10
469.9874649348
 20
238.9856900903
 11
469.2713774989
 21
239.953967219
  0
LINE
  5
4D4
100
AcDbEntity
  8
02___PRT_ALL_AXES
100
AcDbLine
 62
7
  6
CONTINUOUS
 10
479.269404204
 20
227.0129889102
 11
478.729806248
 21
227.7426209823
  0
LINE
  5
4D5
100
AcDbEntity
  8
7_ALL_FEATURES
100
AcDbLine
 62
7
  6
CONTINUOUS
 10
493.7262080504
 20
205.8205632981
 11
493.7262080504
 21
207.4455632981
  0
LINE
  5
4D6
100
AcDbEntity
  8
7_ALL_FEATURES
100
AcDbLine
 62
7
  6
CONTINUOUS
 10
493.7262080504
 20
208.1955632981
 11
493.7262080504
 21
209.8205632981
  0
LINE
  5
4D7
100
AcDbEntity
  8
7_ALL_FEATURES
100
AcDbLine
 62
7
  6
CONTINUOUS
 10
495.3512080504
 20
208.1955632981
 11
495.3512080504
 21
207.4455632981
  0
LINE
  5
4D8
100
AcDbEntity
  8
02___PRT_ALL_AXES
100
AcDbLine
 62
7
  6
CONTINUOUS
 10
495.6255531637
 20
229.3042702261
 11
495.5307226941
 21
227.9007792748
  0
LINE
  5
4D9
100
AcDbEntity
  8
02___PRT_ALL_AXES
100
AcDbLine
 62
7
  6
CONTINUOUS
 10
494.717875945
 20
213.4972481361
 11
494.6282350775
 21
212.1705632981
  0
LINE
  5
4DA
100
AcDbEntity
  8
02___PRT_ALL_AXES
100
AcDbLine
 62
7
  6
CONTINUOUS
 10
498.6461984497
 20
214.0133722043
 11
499.0326067461
 21
214.7175912903
  0
LINE
  5
4DB
100
AcDbEntity
  8
02___PRT_ALL_AXES
100
AcDbLine
 62
7
  6
CONTINUOUS
 10
498.8647811535
 20
212.1705632981
 11
499.1674344618
 21
212.7221410932
  0
LINE
  5
4DC
100
AcDbEntity
  8
02___PRT_ALL_AXES
100
AcDbLine
 62
7
  6
CONTINUOUS
 10
503.0746469586
 20
215.6861259593
 11
502.5970185742
 21
215.0402877314
  0
LINE
  5
4DD
100
AcDbEntity
  8
02___PRT_ALL_AXES
100
AcDbLine
 62
7
  6
CONTINUOUS
 10
502.939819243
 20
213.6906757634
 11
502.4621908578
 21
213.0448375342
  0
LINE
  5
4DE
100
AcDbEntity
  8
3_ALL_AXES
100
AcDbLine
 62
7
  6
CONTINUOUS
 10
483.1012080504
 20
214.6205632981
 11
491.1012080504
 21
214.6205632981
  0
LINE
  5
4DF
100
AcDbEntity
  8
3_ALL_AXES
100
AcDbLine
 62
7
  6
CONTINUOUS
 10
483.1012080504
 20
216.4205632981
 11
491.1012080504
 21
216.4205632981
  0
LINE
  5
4E0
100
AcDbEntity
  8
02___PRT_ALL_AXES
100
AcDbLine
 62
7
  6
CONTINUOUS
 10
494.1022417871
 20
214.7175912903
 11
494.6815669171
 21
213.6617862848
  0
LINE
  5
4E1
100
AcDbEntity
  8
02___PRT_ALL_AXES
100
AcDbLine
 62
7
  6
CONTINUOUS
 10
494.2370695034
 20
216.7130414863
 11
494.6234777995
 21
216.008822401
  0
LINE
  5
4E2
100
AcDbEntity
  8
02___PRT_ALL_AXES
100
AcDbLine
 62
7
  6
CONTINUOUS
 10
497.6041258391
 20
227.9007792748
 11
497.5092953695
 21
229.3042702261
  0
LINE
  5
4E3
100
AcDbEntity
  8
7_ALL_FEATURES
100
AcDbLine
 62
7
  6
CONTINUOUS
 10
483.1012080504
 20
219.2705632981
 11
491.1012080504
 21
219.2705632981
  0
LINE
  5
4E4
100
AcDbEntity
  8
02___PRT_ALL_AXES
100
AcDbLine
 62
7
  6
CONTINUOUS
 10
499.1456306484
 20
213.0448375342
 11
498.6680022631
 21
213.6906757634
  0
LINE
  5
4E5
100
AcDbEntity
  8
02___PRT_ALL_AXES
100
AcDbLine
 62
7
  6
CONTINUOUS
 10
494.3718972194
 20
218.7084916829
 11
494.7583055157
 21
218.0042725969
  0
LINE
  5
4E6
100
AcDbEntity
  8
02___PRT_ALL_AXES
100
AcDbLine
 62
7
  6
CONTINUOUS
 10
494.5067249354
 20
220.7039418795
 11
494.8931332314
 21
219.9997227941
  0
LINE
  5
4E7
100
AcDbEntity
  8
02___PRT_ALL_AXES
100
AcDbLine
 62
7
  6
CONTINUOUS
 10
494.6415526514
 20
222.699392076
 11
495.0279609474
 21
221.9951729906
  0
LINE
  5
4E8
100
AcDbEntity
  8
7_ALL_FEATURES
100
AcDbLine
 62
3
  6
CONTINUOUS
 10
502.1012080504
 20
175.593318095
 11
502.1012080504
 21
210.8014767888
  0
LINE
  5
4E9
100
AcDbEntity
  8
02___PRT_ALL_AXES
100
AcDbLine
 62
7
  6
CONTINUOUS
 10
505.0697017617
 20
241.3042702261
 11
504.9891514432
 21
240.1121255115
  0
LINE
  5
4EA
100
AcDbEntity
  8
02___PRT_ALL_AXES
100
AcDbLine
 62
7
  6
CONTINUOUS
 10
499.010802932
 20
215.0402877314
 11
498.5331745476
 21
215.6861259593
  0
LINE
  5
4EB
100
AcDbEntity
  8
02___PRT_ALL_AXES
100
AcDbLine
 62
7
  6
CONTINUOUS
 10
498.875975216
 20
217.035737928
 11
498.3983468316
 21
217.6815761559
  0
LINE
  5
4EC
100
AcDbEntity
  8
02___PRT_ALL_AXES
100
AcDbLine
 62
7
  6
CONTINUOUS
 10
498.7411475004
 20
219.0311881239
 11
498.2635191152
 21
219.6770263531
  0
LINE
  5
4ED
100
AcDbEntity
  8
02___PRT_ALL_AXES
100
AcDbLine
 62
7
  6
CONTINUOUS
 10
494.7763803679
 20
224.6948422715
 11
495.1627886634
 21
223.9906231873
  0
LINE
  5
4EE
100
AcDbEntity
  8
02___PRT_ALL_AXES
100
AcDbLine
 62
7
  6
CONTINUOUS
 10
502.4403870444
 20
212.7221410932
 11
502.7430403527
 21
212.1705632981
  0
LINE
  5
4EF
100
AcDbEntity
  8
02___PRT_ALL_AXES
100
AcDbLine
 62
7
  6
CONTINUOUS
 10
494.9112080833
 20
226.6902924692
 11
495.2976163794
 21
225.9860733837
  0
LINE
  5
4F0
100
AcDbEntity
  8
7_ALL_FEATURES
100
AcDbLine
 62
7
  6
CONTINUOUS
 10
506.6012080504
 20
211.6705632981
 11
506.6012080504
 21
171.4705632981
  0
LINE
  5
4F1
100
AcDbEntity
  8
02___PRT_ALL_AXES
100
AcDbLine
 62
7
  6
CONTINUOUS
 10
506.6012080504
 20
211.6705632981
 11
506.6012080504
 21
241.2705632981
  0
LINE
  5
4F2
100
AcDbEntity
  8
02___PRT_ALL_AXES
100
AcDbLine
 62
7
  6
CONTINUOUS
 10
498.6063197844
 20
221.0266383205
 11
498.1286913996
 21
221.672476549
  0
LINE
  5
4F3
100
AcDbEntity
  8
02___PRT_ALL_AXES
100
AcDbLine
 62
7
  6
CONTINUOUS
 10
498.471492068
 20
223.0220885177
 11
497.9938636836
 21
223.6679267456
  0
LINE
  5
4F4
100
AcDbEntity
  8
02___PRT_ALL_AXES
100
AcDbLine
 62
7
  6
CONTINUOUS
 10
498.3366643521
 20
225.0175387143
 11
497.8590359672
 21
225.6633769428
  0
LINE
  5
4F5
100
AcDbEntity
  8
02___PRT_ALL_AXES
100
AcDbLine
 62
7
  6
CONTINUOUS
 10
502.5752147601
 20
214.7175912903
 11
502.9616230559
 21
214.0133722055
  0
LINE
  5
4F6
100
AcDbEntity
  8
02___PRT_ALL_AXES
100
AcDbLine
 62
7
  6
CONTINUOUS
 10
502.7100424764
 20
216.7130414863
 11
503.0964507724
 21
216.0088224009
  0
LINE
  5
4F7
100
AcDbEntity
  8
02___PRT_ALL_AXES
100
AcDbLine
 62
7
  6
CONTINUOUS
 10
502.8448701924
 20
218.7084916829
 11
503.2312784887
 21
218.0042725969
  0
LINE
  5
4F8
100
AcDbEntity
  8
02___PRT_ALL_AXES
100
AcDbLine
 62
7
  6
CONTINUOUS
 10
498.2018366365
 20
227.0129889102
 11
497.6622386804
 21
227.7426209823
  0
LINE
  5
4F9
100
AcDbEntity
  8
02___PRT_ALL_AXES
100
AcDbLine
 62
7
  6
CONTINUOUS
 10
502.9796979084
 20
220.7039418795
 11
503.3661062044
 21
219.999722794
  0
LINE
  5
4FA
100
AcDbEntity
  8
02___PRT_ALL_AXES
100
AcDbLine
 62
7
  6
CONTINUOUS
 10
503.1145256243
 20
222.699392076
 11
503.5009339204
 21
221.9951729906
  0
LINE
  5
4FB
100
AcDbEntity
  8
02___PRT_ALL_AXES
100
AcDbLine
 62
7
  6
CONTINUOUS
 10
503.2493533403
 20
224.6948422726
 11
503.6357616364
 21
223.9906231872
  0
LINE
  5
4FC
100
AcDbEntity
  8
7_ALL_FEATURES
100
AcDbLine
 62
9
  6
CONTINUOUS
 10
510.6012080504
 20
170.4705632981
 11
510.6012080504
 21
171.4705632981
  0
LINE
  5
4FD
100
AcDbEntity
  8
7_ALL_FEATURES
100
AcDbLine
 62
7
  6
CONTINUOUS
 10
511.6012080504
 20
170.4705632981
 11
511.6012080504
 21
171.4705632981
  0
LINE
  5
4FE
100
AcDbEntity
  8
02___PRT_ALL_AXES
100
AcDbLine
 62
7
  6
CONTINUOUS
 10
497.0104328202
 20
229.7705632981
 11
496.124415713
 21
229.7705632981
  0
LINE
  5
4FF
100
AcDbEntity
  8
02___PRT_ALL_AXES
100
AcDbLine
 62
7
  6
CONTINUOUS
 10
478.0780003878
 20
229.7705632981
 11
477.1919832805
 21
229.7705632981
  0
LINE
  5
500
100
AcDbEntity
  8
02___PRT_ALL_AXES
100
AcDbLine
 62
7
  6
CONTINUOUS
 10
503.3841810563
 20
226.6902924692
 11
503.7705893524
 21
225.9860733837
  0
LINE
  5
501
100
AcDbEntity
  8
02___PRT_ALL_AXES
100
AcDbLine
 62
7
  6
CONTINUOUS
 10
503.5190087723
 20
228.6857426658
 11
503.9054170683
 21
227.9815235803
  0
LINE
  5
502
100
AcDbEntity
  8
02___PRT_ALL_AXES
100
AcDbLine
 62
7
  6
CONTINUOUS
 10
503.6538364883
 20
230.6811928623
 11
504.0402447843
 21
229.9769737769
  0
LINE
  5
503
100
AcDbEntity
  8
02___PRT_ALL_AXES
100
AcDbLine
 62
7
  6
CONTINUOUS
 10
503.7886642043
 20
232.6766430589
 11
504.1750725003
 21
231.9724239735
  0
LINE
  5
504
100
AcDbEntity
  8
02___PRT_ALL_AXES
100
AcDbLine
 62
7
  6
CONTINUOUS
 10
503.9234919208
 20
234.6720932544
 11
504.3099002163
 21
233.96787417
  0
LINE
  5
505
100
AcDbEntity
  8
02___PRT_ALL_AXES
100
AcDbLine
 62
7
  6
CONTINUOUS
 10
504.0583196359
 20
236.6675434526
 11
504.4447279323
 21
235.9633243666
  0
LINE
  5
506
100
AcDbEntity
  8
02___PRT_ALL_AXES
100
AcDbLine
 62
7
  6
CONTINUOUS
 10
504.1931473522
 20
238.6629936486
 11
504.5795556483
 21
237.9587745632
  0
LINE
  5
507
100
AcDbEntity
  8
02___PRT_ALL_AXES
100
AcDbLine
 62
7
  6
CONTINUOUS
 10
506.1012080504
 20
241.7705632981
 11
505.568564311
 21
241.7705632981
  0
LINE
  5
508
100
AcDbEntity
  8
02___PRT_ALL_AXES
100
AcDbLine
 62
7
  6
CONTINUOUS
 10
468.6338517898
 20
241.7705632981
 11
468.1012080504
 21
241.7705632981
  0
ARC
  5
509
100
AcDbEntity
  8
7_ALL_FEATURES
100
AcDbCircle
 62
7
  6
CONTINUOUS
 10
222.1998211902
 20
326.6771808954
 40
1.2
100
AcDbArc
 50
270.0
 51
360.0
  0
ARC
  5
50A
100
AcDbEntity
  8
7_ALL_FEATURES
100
AcDbCircle
 62
7
  6
CONTINUOUS
 10
193.3998211902
 20
326.6771808954
 40
1.2
100
AcDbArc
 50
180.0
 51
270.0
  0
ARC
  5
50B
100
AcDbEntity
  8
7_ALL_FEATURES
100
AcDbCircle
 62
7
  6
CONTINUOUS
 10
182.1998211902
 20
326.6771808954
 40
1.2
100
AcDbArc
 50
270.0
 51
360.0
  0
ARC
  5
50C
100
AcDbEntity
  8
7_ALL_FEATURES
100
AcDbCircle
 62
7
  6
CONTINUOUS
 10
153.3998211902
 20
326.6771808954
 40
1.2
100
AcDbArc
 50
180.0
 51
270.0
  0
ARC
  5
50D
100
AcDbEntity
  8
7_ALL_FEATURES
100
AcDbCircle
 62
7
  6
CONTINUOUS
 10
142.1998211902
 20
326.6771808954
 40
1.2
100
AcDbArc
 50
270.0
 51
360.0
  0
ARC
  5
50E
100
AcDbEntity
  8
7_ALL_FEATURES
100
AcDbCircle
 62
7
  6
CONTINUOUS
 10
113.3998211902
 20
326.6771808954
 40
1.2
100
AcDbArc
 50
180.0
 51
270.0
  0
ARC
  5
50F
100
AcDbEntity
  8
7_ALL_FEATURES
100
AcDbCircle
 62
7
  6
CONTINUOUS
 10
102.1998211902
 20
326.6771808954
 40
1.2
100
AcDbArc
 50
270.0
 51
360.0
  0
ARC
  5
510
100
AcDbEntity
  8
7_ALL_FEATURES
100
AcDbCircle
 62
7
  6
CONTINUOUS
 10
73.3998211902
 20
326.6771808954
 40
1.2
100
AcDbArc
 50
180.0
 51
270.0
  0
ARC
  5
511
100
AcDbEntity
  8
7_ALL_FEATURES
100
AcDbCircle
 62
7
  6
CONTINUOUS
 10
64.2998211902
 20
317.5771808954
 40
1.0
100
AcDbArc
 50
180.0
 51
270.0
  0
CIRCLE
  5
512
100
AcDbEntity
  8
7_ALL_FEATURES
100
AcDbCircle
 62
7
  6
CONTINUOUS
 10
127.7998835551
 20
341.0771808936
 40
10.7
  0
CIRCLE
  5
513
100
AcDbEntity
  8
7_ALL_FEATURES
100
AcDbCircle
 62
7
  6
CONTINUOUS
 10
87.7998835551
 20
341.0771808936
 40
10.7
  0
ARC
  5
514
100
AcDbEntity
  8
7_ALL_FEATURES
100
AcDbCircle
 62
7
  6
CONTINUOUS
 10
142.1998211902
 20
355.4771808954
 40
1.2
100
AcDbArc
 50
0.0
 51
90.0
  0
ARC
  5
515
100
AcDbEntity
  8
7_ALL_FEATURES
100
AcDbCircle
 62
7
  6
CONTINUOUS
 10
113.3998211902
 20
355.4771808954
 40
1.2
100
AcDbArc
 50
90.0
 51
180.0
  0
ARC
  5
516
100
AcDbEntity
  8
7_ALL_FEATURES
100
AcDbCircle
 62
7
  6
CONTINUOUS
 10
102.1998211902
 20
355.4771808954
 40
1.2
100
AcDbArc
 50
0.0
 51
90.0
  0
ARC
  5
517
100
AcDbEntity
  8
7_ALL_FEATURES
100
AcDbCircle
 62
7
  6
CONTINUOUS
 10
73.3998211902
 20
355.4771808954
 40
1.2
100
AcDbArc
 50
90.0
 51
180.0
  0
ARC
  5
518
100
AcDbEntity
  8
7_ALL_FEATURES
100
AcDbCircle
 62
7
  6
CONTINUOUS
 10
64.2998211902
 20
364.5771808954
 40
1.0
100
AcDbArc
 50
90.0
 51
180.0
  0
CIRCLE
  5
519
100
AcDbEntity
  8
7_ALL_FEATURES
100
AcDbCircle
 62
7
  6
CONTINUOUS
 10
207.7998835551
 20
341.0771808936
 40
10.7
  0
CIRCLE
  5
51A
100
AcDbEntity
  8
7_ALL_FEATURES
100
AcDbCircle
 62
7
  6
CONTINUOUS
 10
167.7998835551
 20
341.0771808936
 40
10.7
  0
ARC
  5
51B
100
AcDbEntity
  8
7_ALL_FEATURES
100
AcDbCircle
 62
7
  6
CONTINUOUS
 10
222.1998211902
 20
355.4771808954
 40
1.2
100
AcDbArc
 50
0.0
 51
90.0
  0
ARC
  5
51C
100
AcDbEntity
  8
7_ALL_FEATURES
100
AcDbCircle
 62
7
  6
CONTINUOUS
 10
193.3998211902
 20
355.4771808954
 40
1.2
100
AcDbArc
 50
90.0
 51
180.0
  0
ARC
  5
51D
100
AcDbEntity
  8
7_ALL_FEATURES
100
AcDbCircle
 62
7
  6
CONTINUOUS
 10
182.1998211902
 20
355.4771808954
 40
1.2
100
AcDbArc
 50
0.0
 51
90.0
  0
ARC
  5
51E
100
AcDbEntity
  8
7_ALL_FEATURES
100
AcDbCircle
 62
7
  6
CONTINUOUS
 10
153.3998211902
 20
355.4771808954
 40
1.2
100
AcDbArc
 50
90.0
 51
180.0
  0
ARC
  5
51F
100
AcDbEntity
  8
7_ALL_FEATURES
100
AcDbCircle
 62
7
  6
CONTINUOUS
 10
382.1998211902
 20
326.6771808954
 40
1.2
100
AcDbArc
 50
270.0
 51
360.0
  0
ARC
  5
520
100
AcDbEntity
  8
7_ALL_FEATURES
100
AcDbCircle
 62
7
  6
CONTINUOUS
 10
353.3998211902
 20
326.6771808954
 40
1.2
100
AcDbArc
 50
180.0
 51
270.0
  0
ARC
  5
521
100
AcDbEntity
  8
7_ALL_FEATURES
100
AcDbCircle
 62
7
  6
CONTINUOUS
 10
342.1998211902
 20
326.6771808954
 40
1.2
100
AcDbArc
 50
270.0
 51
360.0
  0
ARC
  5
522
100
AcDbEntity
  8
7_ALL_FEATURES
100
AcDbCircle
 62
7
  6
CONTINUOUS
 10
313.3998211902
 20
326.6771808954
 40
1.2
100
AcDbArc
 50
180.0
 51
270.0
  0
ARC
  5
523
100
AcDbEntity
  8
7_ALL_FEATURES
100
AcDbCircle
 62
7
  6
CONTINUOUS
 10
302.1998211902
 20
326.6771808954
 40
1.2
100
AcDbArc
 50
270.0
 51
360.0
  0
ARC
  5
524
100
AcDbEntity
  8
7_ALL_FEATURES
100
AcDbCircle
 62
7
  6
CONTINUOUS
 10
273.3998211902
 20
326.6771808954
 40
1.2
100
AcDbArc
 50
180.0
 51
270.0
  0
ARC
  5
525
100
AcDbEntity
  8
7_ALL_FEATURES
100
AcDbCircle
 62
7
  6
CONTINUOUS
 10
262.1998211902
 20
326.6771808954
 40
1.2
100
AcDbArc
 50
270.0
 51
360.0
  0
ARC
  5
526
100
AcDbEntity
  8
7_ALL_FEATURES
100
AcDbCircle
 62
7
  6
CONTINUOUS
 10
233.3998211902
 20
326.6771808954
 40
1.2
100
AcDbArc
 50
180.0
 51
270.0
  0
ARC
  5
527
100
AcDbEntity
  8
7_ALL_FEATURES
100
AcDbCircle
 62
7
  6
CONTINUOUS
 10
391.2998211902
 20
317.5771808954
 40
1.0
100
AcDbArc
 50
270.0
 51
360.0
  0
CIRCLE
  5
528
100
AcDbEntity
  8
7_ALL_FEATURES
100
AcDbCircle
 62
7
  6
CONTINUOUS
 10
247.7998835551
 20
341.0771808936
 40
10.7
  0
CIRCLE
  5
529
100
AcDbEntity
  8
7_ALL_FEATURES
100
AcDbCircle
 62
7
  6
CONTINUOUS
 10
287.7998835551
 20
341.0771808936
 40
10.7
  0
ARC
  5
52A
100
AcDbEntity
  8
7_ALL_FEATURES
100
AcDbCircle
 62
7
  6
CONTINUOUS
 10
302.1998211902
 20
355.4771808954
 40
1.2
100
AcDbArc
 50
0.0
 51
90.0
  0
ARC
  5
52B
100
AcDbEntity
  8
7_ALL_FEATURES
100
AcDbCircle
 62
7
  6
CONTINUOUS
 10
273.3998211902
 20
355.4771808954
 40
1.2
100
AcDbArc
 50
90.0
 51
180.0
  0
ARC
  5
52C
100
AcDbEntity
  8
7_ALL_FEATURES
100
AcDbCircle
 62
7
  6
CONTINUOUS
 10
262.1998211902
 20
355.4771808954
 40
1.2
100
AcDbArc
 50
0.0
 51
90.0
  0
ARC
  5
52D
100
AcDbEntity
  8
7_ALL_FEATURES
100
AcDbCircle
 62
7
  6
CONTINUOUS
 10
233.3998211902
 20
355.4771808954
 40
1.2
100
AcDbArc
 50
90.0
 51
180.0
  0
CIRCLE
  5
52E
100
AcDbEntity
  8
7_ALL_FEATURES
100
AcDbCircle
 62
7
  6
CONTINUOUS
 10
327.7998835551
 20
341.0771808936
 40
10.7
  0
CIRCLE
  5
52F
100
AcDbEntity
  8
7_ALL_FEATURES
100
AcDbCircle
 62
7
  6
CONTINUOUS
 10
367.7998835551
 20
341.0771808936
 40
10.7
  0
ARC
  5
530
100
AcDbEntity
  8
7_ALL_FEATURES
100
AcDbCircle
 62
7
  6
CONTINUOUS
 10
382.1998211902
 20
355.4771808954
 40
1.2
100
AcDbArc
 50
0.0
 51
90.0
  0
ARC
  5
531
100
AcDbEntity
  8
7_ALL_FEATURES
100
AcDbCircle
 62
7
  6
CONTINUOUS
 10
353.3998211902
 20
355.4771808954
 40
1.2
100
AcDbArc
 50
90.0
 51
180.0
  0
ARC
  5
532
100
AcDbEntity
  8
7_ALL_FEATURES
100
AcDbCircle
 62
7
  6
CONTINUOUS
 10
342.1998211902
 20
355.4771808954
 40
1.2
100
AcDbArc
 50
0.0
 51
90.0
  0
ARC
  5
533
100
AcDbEntity
  8
7_ALL_FEATURES
100
AcDbCircle
 62
7
  6
CONTINUOUS
 10
313.3998211902
 20
355.4771808954
 40
1.2
100
AcDbArc
 50
90.0
 51
180.0
  0
ARC
  5
534
100
AcDbEntity
  8
7_ALL_FEATURES
100
AcDbCircle
 62
7
  6
CONTINUOUS
 10
391.2998211902
 20
364.5771808954
 40
1.0
100
AcDbArc
 50
0.0
 51
90.0
  0
ARC
  5
535
100
AcDbEntity
  8
7_ALL_FEATURES
100
AcDbCircle
 62
3
  6
CONTINUOUS
 10
69.1213284913
 20
186.1643599921
 40
8.3
100
AcDbArc
 50
152.0
 51
194.5
  0
ARC
  5
536
100
AcDbEntity
  8
7_ALL_FEATURES
100
AcDbCircle
 62
3
  6
CONTINUOUS
 10
386.4783138891
 20
186.1643599921
 40
8.3
100
AcDbArc
 50
345.5
 51
28.0
  0
ARC
  5
537
100
AcDbEntity
  8
7_ALL_FEATURES
100
AcDbCircle
 62
7
  6
CONTINUOUS
 10
69.1213284913
 20
186.1643599921
 40
8.0
100
AcDbArc
 50
152.0
 51
194.5
  0
ARC
  5
538
100
AcDbEntity
  8
7_ALL_FEATURES
100
AcDbCircle
 62
7
  6
CONTINUOUS
 10
386.4783138891
 20
186.1643599921
 40
8.0
100
AcDbArc
 50
345.5
 51
28.0
  0
ARC
  5
539
100
AcDbEntity
  8
7_ALL_FEATURES
100
AcDbCircle
 62
7
  6
CONTINUOUS
 10
68.5498211902
 20
203.3014767888
 40
0.55
100
AcDbArc
 50
332.0
 51
360.0
  0
ARC
  5
53A
100
AcDbEntity
  8
7_ALL_FEATURES
100
AcDbCircle
 62
7
  6
CONTINUOUS
 10
387.0498211902
 20
203.3014767888
 40
0.55
100
AcDbArc
 50
180.0
 51
208.0
  0
ARC
  5
53B
100
AcDbEntity
  8
7_ALL_FEATURES
100
AcDbCircle
 62
3
  6
CONTINUOUS
 10
68.5498211902
 20
203.3014767888
 40
0.25
100
AcDbArc
 50
332.0
 51
360.0
  0
ARC
  5
53C
100
AcDbEntity
  8
7_ALL_FEATURES
100
AcDbCircle
 62
3
  6
CONTINUOUS
 10
387.0498211902
 20
203.3014767888
 40
0.25
100
AcDbArc
 50
180.0
 51
208.0
  0
CIRCLE
  5
53D
100
AcDbEntity
  8
02___PRT_ALL_AXES
100
AcDbCircle
 62
7
  6
CONTINUOUS
 10
480.8512080504
 20
207.8205632981
 40
3.0
  0
ARC
  5
53E
100
AcDbEntity
  8
7_ALL_FEATURES
100
AcDbCircle
 62
3
  6
CONTINUOUS
 10
473.1012080504
 20
210.8014767888
 40
1.0
100
AcDbArc
 50
90.0
 51
180.0
  0
ARC
  5
53F
100
AcDbEntity
  8
7_ALL_FEATURES
100
AcDbCircle
 62
7
  6
CONTINUOUS
 10
468.1012080504
 20
211.6705632981
 40
0.5
100
AcDbArc
 50
90.0
 51
180.0
  0
ARC
  5
540
100
AcDbEntity
  8
02___PRT_ALL_AXES
100
AcDbCircle
 62
7
  6
CONTINUOUS
 10
479.7838576854
 20
213.5174722937
 40
0.3
100
AcDbArc
 50
151.2462180984
 51
183.8654611692
  0
ARC
  5
541
100
AcDbEntity
  8
02___PRT_ALL_AXES
100
AcDbCircle
 62
7
  6
CONTINUOUS
 10
479.8371658118
 20
214.861905281
 40
0.3
100
AcDbArc
 50
331.2462182331
 51
36.4847043159
  0
ARC
  5
542
100
AcDbEntity
  8
02___PRT_ALL_AXES
100
AcDbCircle
 62
7
  6
CONTINUOUS
 10
479.8419468029
 20
215.8645084097
 40
0.3
100
AcDbArc
 50
151.2462181023
 51
216.4847043182
  0
ARC
  5
543
100
AcDbEntity
  8
02___PRT_ALL_AXES
100
AcDbCircle
 62
7
  6
CONTINUOUS
 10
479.7023380958
 20
216.8573554776
 40
0.3
100
AcDbArc
 50
331.2462181045
 51
36.4847043163
  0
ARC
  5
544
100
AcDbEntity
  8
02___PRT_ALL_AXES
100
AcDbCircle
 62
7
  6
CONTINUOUS
 10
479.7071190869
 20
217.8599586063
 40
0.3
100
AcDbArc
 50
151.2462182331
 51
216.4847043159
  0
ARC
  5
545
100
AcDbEntity
  8
02___PRT_ALL_AXES
100
AcDbCircle
 62
7
  6
CONTINUOUS
 10
479.5675103798
 20
218.8528056742
 40
0.3
100
AcDbArc
 50
331.2462181045
 51
36.4847041569
  0
ARC
  5
546
100
AcDbEntity
  8
02___PRT_ALL_AXES
100
AcDbCircle
 62
7
  6
CONTINUOUS
 10
479.572291371
 20
219.8554088028
 40
0.3
100
AcDbArc
 50
151.2462181045
 51
216.4847041571
  0
ARC
  5
547
100
AcDbEntity
  8
02___PRT_ALL_AXES
100
AcDbCircle
 62
7
  6
CONTINUOUS
 10
479.4326826638
 20
220.8482558708
 40
0.3
100
AcDbArc
 50
331.2462181042
 51
36.4847041569
  0
ARC
  5
548
100
AcDbEntity
  8
02___PRT_ALL_AXES
100
AcDbCircle
 62
7
  6
CONTINUOUS
 10
479.437463655
 20
221.8508589994
 40
0.3
100
AcDbArc
 50
151.2462181045
 51
216.4847043159
  0
ARC
  5
549
100
AcDbEntity
  8
02___PRT_ALL_AXES
100
AcDbCircle
 62
7
  6
CONTINUOUS
 10
479.2978549478
 20
222.8437060673
 40
0.3
100
AcDbArc
 50
331.2462181042
 51
36.4847043161
  0
ARC
  5
54A
100
AcDbEntity
  8
02___PRT_ALL_AXES
100
AcDbCircle
 62
7
  6
CONTINUOUS
 10
479.302635939
 20
223.846309196
 40
0.3
100
AcDbArc
 50
151.246218102
 51
216.4847043179
  0
ARC
  5
54B
100
AcDbEntity
  8
02___PRT_ALL_AXES
100
AcDbCircle
 62
7
  6
CONTINUOUS
 10
475.9673477294
 20
223.846309196
 40
0.3
100
AcDbArc
 50
323.5152956841
 51
28.7537818958
  0
ARC
  5
54C
100
AcDbEntity
  8
02___PRT_ALL_AXES
100
AcDbCircle
 62
7
  6
CONTINUOUS
 10
475.9721287205
 20
222.8437060673
 40
0.3
100
AcDbArc
 50
143.5152956841
 51
208.7537818958
  0
ARC
  5
54D
100
AcDbEntity
  8
02___PRT_ALL_AXES
100
AcDbCircle
 62
7
  6
CONTINUOUS
 10
475.8325200134
 20
221.8508589994
 40
0.3
100
AcDbArc
 50
323.5152956841
 51
28.7537818955
  0
ARC
  5
54E
100
AcDbEntity
  8
02___PRT_ALL_AXES
100
AcDbCircle
 62
7
  6
CONTINUOUS
 10
475.8373010046
 20
220.8482558708
 40
0.3
100
AcDbArc
 50
143.5152958431
 51
208.7537821308
  0
ARC
  5
54F
100
AcDbEntity
  8
02___PRT_ALL_AXES
100
AcDbCircle
 62
7
  6
CONTINUOUS
 10
475.6976922974
 20
219.8554088028
 40
0.3
100
AcDbArc
 50
323.5152958431
 51
28.7537818955
  0
ARC
  5
550
100
AcDbEntity
  8
02___PRT_ALL_AXES
100
AcDbCircle
 62
7
  6
CONTINUOUS
 10
475.7024732886
 20
218.8528056742
 40
0.3
100
AcDbArc
 50
143.5152958429
 51
208.7537818955
  0
ARC
  5
551
100
AcDbEntity
  8
02___PRT_ALL_AXES
100
AcDbCircle
 62
7
  6
CONTINUOUS
 10
475.5628645814
 20
217.8599586063
 40
0.3
100
AcDbArc
 50
323.5152956841
 51
28.7537817669
  0
ARC
  5
552
100
AcDbEntity
  8
02___PRT_ALL_AXES
100
AcDbCircle
 62
7
  6
CONTINUOUS
 10
475.5676455726
 20
216.8573554776
 40
0.3
100
AcDbArc
 50
143.5152956837
 51
208.7537818955
  0
ARC
  5
553
100
AcDbEntity
  8
02___PRT_ALL_AXES
100
AcDbCircle
 62
7
  6
CONTINUOUS
 10
475.4280368654
 20
215.8645084097
 40
0.3
100
AcDbArc
 50
323.5152956837
 51
28.7537818955
  0
ARC
  5
554
100
AcDbEntity
  8
02___PRT_ALL_AXES
100
AcDbCircle
 62
7
  6
CONTINUOUS
 10
475.4328178566
 20
214.861905281
 40
0.3
100
AcDbArc
 50
143.5152956841
 51
208.7537817669
  0
ARC
  5
555
100
AcDbEntity
  8
02___PRT_ALL_AXES
100
AcDbCircle
 62
7
  6
CONTINUOUS
 10
475.2932091494
 20
213.8690582131
 40
0.3
100
AcDbArc
 50
323.5152958435
 51
28.7537818958
  0
ARC
  5
556
100
AcDbEntity
  8
02___PRT_ALL_AXES
100
AcDbCircle
 62
7
  6
CONTINUOUS
 10
475.2979901406
 20
212.8664550845
 40
0.3
100
AcDbArc
 50
143.5152958431
 51
208.7537818955
  0
ARC
  5
557
100
AcDbEntity
  8
02___PRT_ALL_AXES
100
AcDbCircle
 62
7
  6
CONTINUOUS
 10
471.4990205548
 20
212.8664550845
 40
0.3
100
AcDbArc
 50
331.2462181045
 51
36.4847041571
  0
ARC
  5
558
100
AcDbEntity
  8
02___PRT_ALL_AXES
100
AcDbCircle
 62
7
  6
CONTINUOUS
 10
471.5038015459
 20
213.8690582131
 40
0.3
100
AcDbArc
 50
151.2462181042
 51
216.4847041565
  0
ARC
  5
559
100
AcDbEntity
  8
02___PRT_ALL_AXES
100
AcDbCircle
 62
7
  6
CONTINUOUS
 10
471.3641928388
 20
214.861905281
 40
0.3
100
AcDbArc
 50
331.246218231
 51
36.4847043178
  0
ARC
  5
55A
100
AcDbEntity
  8
02___PRT_ALL_AXES
100
AcDbCircle
 62
7
  6
CONTINUOUS
 10
471.36897383
 20
215.8645084097
 40
0.3
100
AcDbArc
 50
151.2462178695
 51
216.4847043165
  0
ARC
  5
55B
100
AcDbEntity
  8
02___PRT_ALL_AXES
100
AcDbCircle
 62
7
  6
CONTINUOUS
 10
471.2293651228
 20
216.8573554776
 40
0.3
100
AcDbArc
 50
331.2462181045
 51
36.4847043163
  0
ARC
  5
55C
100
AcDbEntity
  8
02___PRT_ALL_AXES
100
AcDbCircle
 62
7
  6
CONTINUOUS
 10
471.234146114
 20
217.8599586063
 40
0.3
100
AcDbArc
 50
151.2462182331
 51
216.4847043159
  0
ARC
  5
55D
100
AcDbEntity
  8
02___PRT_ALL_AXES
100
AcDbCircle
 62
7
  6
CONTINUOUS
 10
471.0945374068
 20
218.8528056742
 40
0.3
100
AcDbArc
 50
331.2462181045
 51
36.4847041571
  0
ARC
  5
55E
100
AcDbEntity
  8
02___PRT_ALL_AXES
100
AcDbCircle
 62
7
  6
CONTINUOUS
 10
471.099318398
 20
219.8554088028
 40
0.3
100
AcDbArc
 50
151.2462181043
 51
216.4847041569
  0
ARC
  5
55F
100
AcDbEntity
  8
02___PRT_ALL_AXES
100
AcDbCircle
 62
7
  6
CONTINUOUS
 10
470.9597096908
 20
220.8482558708
 40
0.3
100
AcDbArc
 50
331.2462181042
 51
36.4847041569
  0
ARC
  5
560
100
AcDbEntity
  8
02___PRT_ALL_AXES
100
AcDbCircle
 62
7
  6
CONTINUOUS
 10
470.964490682
 20
221.8508589994
 40
0.3
100
AcDbArc
 50
151.2462181045
 51
216.4847043159
  0
ARC
  5
561
100
AcDbEntity
  8
02___PRT_ALL_AXES
100
AcDbCircle
 62
7
  6
CONTINUOUS
 10
470.8248819748
 20
222.8437060673
 40
0.3
100
AcDbArc
 50
331.2462181042
 51
36.4847043159
  0
ARC
  5
562
100
AcDbEntity
  8
02___PRT_ALL_AXES
100
AcDbCircle
 62
7
  6
CONTINUOUS
 10
470.829662966
 20
223.846309196
 40
0.3
100
AcDbArc
 50
151.246218104
 51
216.4847043159
  0
ARC
  5
563
100
AcDbEntity
  8
02___PRT_ALL_AXES
100
AcDbCircle
 62
7
  6
CONTINUOUS
 10
478.0780003878
 20
229.2705632981
 40
0.5
100
AcDbArc
 50
3.8654612536
 51
90.0
  0
ARC
  5
564
100
AcDbEntity
  8
02___PRT_ALL_AXES
100
AcDbCircle
 62
7
  6
CONTINUOUS
 10
477.1919832805
 20
229.2705632981
 40
0.5
100
AcDbArc
 50
90.0
 51
176.1345387446
  0
ARC
  5
565
100
AcDbEntity
  8
02___PRT_ALL_AXES
100
AcDbCircle
 62
7
  6
CONTINUOUS
 10
468.1012080504
 20
241.2705632981
 40
0.5
100
AcDbArc
 50
90.0
 51
180.0
  0
ARC
  5
566
100
AcDbEntity
  8
02___PRT_ALL_AXES
100
AcDbCircle
 62
7
  6
CONTINUOUS
 10
468.6338517898
 20
241.2705632981
 40
0.5
100
AcDbArc
 50
3.8654610579
 51
90.0
  0
ARC
  5
567
100
AcDbEntity
  8
02___PRT_ALL_AXES
100
AcDbCircle
 62
7
  6
CONTINUOUS
 10
479.1630272318
 20
224.8391562639
 40
0.3
100
AcDbArc
 50
331.2462181023
 51
36.4847043159
  0
ARC
  5
568
100
AcDbEntity
  8
02___PRT_ALL_AXES
100
AcDbCircle
 62
7
  6
CONTINUOUS
 10
479.167808223
 20
225.8417593925
 40
0.3
100
AcDbArc
 50
151.2462181042
 51
216.4847041569
  0
ARC
  5
569
100
AcDbEntity
  8
02___PRT_ALL_AXES
100
AcDbCircle
 62
7
  6
CONTINUOUS
 10
479.0281995158
 20
226.8346064605
 40
0.3
100
AcDbArc
 50
331.2462178695
 51
36.4847041569
  0
ARC
  5
56A
100
AcDbEntity
  8
02___PRT_ALL_AXES
100
AcDbCircle
 62
7
  6
CONTINUOUS
 10
478.9710109362
 20
227.921003432
 40
0.3
100
AcDbArc
 50
183.8654611305
 51
216.4847041569
  0
ARC
  5
56B
100
AcDbEntity
  8
02___PRT_ALL_AXES
100
AcDbCircle
 62
7
  6
CONTINUOUS
 10
476.2989727322
 20
227.921003432
 40
0.3
100
AcDbArc
 50
323.5152958431
 51
356.1345385997
  0
ARC
  5
56C
100
AcDbEntity
  8
02___PRT_ALL_AXES
100
AcDbCircle
 62
7
  6
CONTINUOUS
 10
476.2417841525
 20
226.8346064605
 40
0.3
100
AcDbArc
 50
143.5152958431
 51
208.7537818955
  0
ARC
  5
56D
100
AcDbEntity
  8
02___PRT_ALL_AXES
100
AcDbCircle
 62
7
  6
CONTINUOUS
 10
476.1021754454
 20
225.8417593925
 40
0.3
100
AcDbArc
 50
323.5152958431
 51
28.7537818958
  0
ARC
  5
56E
100
AcDbEntity
  8
02___PRT_ALL_AXES
100
AcDbCircle
 62
7
  6
CONTINUOUS
 10
476.1069564365
 20
224.8391562639
 40
0.3
100
AcDbArc
 50
143.5152956841
 51
208.7537818955
  0
ARC
  5
56F
100
AcDbEntity
  8
02___PRT_ALL_AXES
100
AcDbCircle
 62
7
  6
CONTINUOUS
 10
470.6900542589
 20
224.8391562639
 40
0.3
100
AcDbArc
 50
331.2462181045
 51
36.4847043159
  0
ARC
  5
570
100
AcDbEntity
  8
02___PRT_ALL_AXES
100
AcDbCircle
 62
7
  6
CONTINUOUS
 10
470.69483525
 20
225.8417593925
 40
0.3
100
AcDbArc
 50
151.2462181042
 51
216.4847041569
  0
ARC
  5
571
100
AcDbEntity
  8
02___PRT_ALL_AXES
100
AcDbCircle
 62
7
  6
CONTINUOUS
 10
470.5552265429
 20
226.8346064605
 40
0.3
100
AcDbArc
 50
331.2462181045
 51
36.4847041569
  0
ARC
  5
572
100
AcDbEntity
  8
02___PRT_ALL_AXES
100
AcDbCircle
 62
7
  6
CONTINUOUS
 10
470.560007534
 20
227.8372095891
 40
0.3
100
AcDbArc
 50
151.2462181045
 51
216.4847041569
  0
ARC
  5
573
100
AcDbEntity
  8
02___PRT_ALL_AXES
100
AcDbCircle
 62
7
  6
CONTINUOUS
 10
470.4203988269
 20
228.8300566571
 40
0.3
100
AcDbArc
 50
331.2462181042
 51
36.4847041569
  0
ARC
  5
574
100
AcDbEntity
  8
02___PRT_ALL_AXES
100
AcDbCircle
 62
7
  6
CONTINUOUS
 10
470.4251798181
 20
229.8326597857
 40
0.3
100
AcDbArc
 50
151.2462181045
 51
216.4847043159
  0
ARC
  5
575
100
AcDbEntity
  8
02___PRT_ALL_AXES
100
AcDbCircle
 62
7
  6
CONTINUOUS
 10
470.2855711109
 20
230.8255068536
 40
0.3
100
AcDbArc
 50
331.2462181045
 51
36.4847043163
  0
ARC
  5
576
100
AcDbEntity
  8
02___PRT_ALL_AXES
100
AcDbCircle
 62
7
  6
CONTINUOUS
 10
470.2903521021
 20
231.8281099823
 40
0.3
100
AcDbArc
 50
151.2462181042
 51
216.4847043161
  0
ARC
  5
577
100
AcDbEntity
  8
02___PRT_ALL_AXES
100
AcDbCircle
 62
7
  6
CONTINUOUS
 10
470.1507433949
 20
232.8209570502
 40
0.3
100
AcDbArc
 50
331.2462181042
 51
36.4847043161
  0
ARC
  5
578
100
AcDbEntity
  8
02___PRT_ALL_AXES
100
AcDbCircle
 62
7
  6
CONTINUOUS
 10
469.5125821871
 20
240.1323496687
 40
0.3
100
AcDbArc
 50
183.8654611329
 51
216.4847041565
  0
ARC
  5
579
100
AcDbEntity
  8
02___PRT_ALL_AXES
100
AcDbCircle
 62
7
  6
CONTINUOUS
 10
469.746260247
 20
238.8073076399
 40
0.3
100
AcDbArc
 50
331.2462181043
 51
36.4847043163
  0
ARC
  5
57A
100
AcDbEntity
  8
02___PRT_ALL_AXES
100
AcDbCircle
 62
7
  6
CONTINUOUS
 10
469.8858689541
 20
237.814460572
 40
0.3
100
AcDbArc
 50
151.2462181045
 51
216.4847043165
  0
ARC
  5
57B
100
AcDbEntity
  8
02___PRT_ALL_AXES
100
AcDbCircle
 62
7
  6
CONTINUOUS
 10
469.8810879629
 20
236.8118574433
 40
0.3
100
AcDbArc
 50
331.2462179981
 51
36.4847045314
  0
ARC
  5
57C
100
AcDbEntity
  8
02___PRT_ALL_AXES
100
AcDbCircle
 62
7
  6
CONTINUOUS
 10
470.0206966701
 20
235.8190103754
 40
0.3
100
AcDbArc
 50
151.2462181045
 51
216.4847041569
  0
ARC
  5
57D
100
AcDbEntity
  8
02___PRT_ALL_AXES
100
AcDbCircle
 62
7
  6
CONTINUOUS
 10
470.0159156789
 20
234.8164072468
 40
0.3
100
AcDbArc
 50
331.2462181045
 51
36.4847041571
  0
ARC
  5
57E
100
AcDbEntity
  8
02___PRT_ALL_AXES
100
AcDbCircle
 62
7
  6
CONTINUOUS
 10
470.1555243861
 20
233.8235601788
 40
0.3
100
AcDbArc
 50
151.2462181042
 51
216.4847041569
  0
CIRCLE
  5
57F
100
AcDbEntity
  8
02___PRT_ALL_AXES
100
AcDbCircle
 62
7
  6
CONTINUOUS
 10
493.3512080504
 20
207.8205632981
 40
3.0
  0
ARC
  5
580
100
AcDbEntity
  8
7_ALL_FEATURES
100
AcDbCircle
 62
3
  6
CONTINUOUS
 10
501.1012080504
 20
210.8014767888
 40
1.0
100
AcDbArc
 50
0.0
 51
90.0
  0
ARC
  5
581
100
AcDbEntity
  8
7_ALL_FEATURES
100
AcDbCircle
 62
7
  6
CONTINUOUS
 10
506.1012080504
 20
211.6705632981
 40
0.5
100
AcDbArc
 50
0.0
 51
90.0
  0
ARC
  5
582
100
AcDbEntity
  8
02___PRT_ALL_AXES
100
AcDbCircle
 62
7
  6
CONTINUOUS
 10
503.3727531348
 20
223.846309196
 40
0.3
100
AcDbArc
 50
323.5152956839
 51
28.7537818958
  0
ARC
  5
583
100
AcDbEntity
  8
02___PRT_ALL_AXES
100
AcDbCircle
 62
7
  6
CONTINUOUS
 10
503.3775341259
 20
222.8437060673
 40
0.3
100
AcDbArc
 50
143.5152956841
 51
208.7537818958
  0
ARC
  5
584
100
AcDbEntity
  8
02___PRT_ALL_AXES
100
AcDbCircle
 62
7
  6
CONTINUOUS
 10
503.2379254188
 20
221.8508589994
 40
0.3
100
AcDbArc
 50
323.5152956841
 51
28.7537818955
  0
ARC
  5
585
100
AcDbEntity
  8
02___PRT_ALL_AXES
100
AcDbCircle
 62
7
  6
CONTINUOUS
 10
503.24270641
 20
220.8482558708
 40
0.3
100
AcDbArc
 50
143.5152958431
 51
208.7537818958
  0
ARC
  5
586
100
AcDbEntity
  8
02___PRT_ALL_AXES
100
AcDbCircle
 62
7
  6
CONTINUOUS
 10
503.1030977028
 20
219.8554088028
 40
0.3
100
AcDbArc
 50
323.515295843
 51
28.7537818955
  0
ARC
  5
587
100
AcDbEntity
  8
02___PRT_ALL_AXES
100
AcDbCircle
 62
7
  6
CONTINUOUS
 10
503.107878694
 20
218.8528056742
 40
0.3
100
AcDbArc
 50
143.5152958429
 51
208.7537818955
  0
ARC
  5
588
100
AcDbEntity
  8
02___PRT_ALL_AXES
100
AcDbCircle
 62
7
  6
CONTINUOUS
 10
502.9682699868
 20
217.8599586063
 40
0.3
100
AcDbArc
 50
323.5152956839
 51
28.7537817669
  0
ARC
  5
589
100
AcDbEntity
  8
02___PRT_ALL_AXES
100
AcDbCircle
 62
7
  6
CONTINUOUS
 10
502.973050978
 20
216.8573554776
 40
0.3
100
AcDbArc
 50
143.5152956837
 51
208.7537818955
  0
ARC
  5
58A
100
AcDbEntity
  8
02___PRT_ALL_AXES
100
AcDbCircle
 62
7
  6
CONTINUOUS
 10
502.8334422708
 20
215.8645084097
 40
0.3
100
AcDbArc
 50
323.5152956835
 51
28.7537818955
  0
ARC
  5
58B
100
AcDbEntity
  8
02___PRT_ALL_AXES
100
AcDbCircle
 62
7
  6
CONTINUOUS
 10
502.838223262
 20
214.861905281
 40
0.3
100
AcDbArc
 50
143.5152956841
 51
208.7537817669
  0
ARC
  5
58C
100
AcDbEntity
  8
02___PRT_ALL_AXES
100
AcDbCircle
 62
7
  6
CONTINUOUS
 10
502.6986145548
 20
213.8690582131
 40
0.3
100
AcDbArc
 50
323.5152958435
 51
28.7537821308
  0
ARC
  5
58D
100
AcDbEntity
  8
02___PRT_ALL_AXES
100
AcDbCircle
 62
7
  6
CONTINUOUS
 10
502.703395546
 20
212.8664550845
 40
0.3
100
AcDbArc
 50
143.5152958429
 51
208.7537818955
  0
ARC
  5
58E
100
AcDbEntity
  8
02___PRT_ALL_AXES
100
AcDbCircle
 62
7
  6
CONTINUOUS
 10
498.9044259602
 20
212.8664550845
 40
0.3
100
AcDbArc
 50
331.2462181022
 51
36.484704159
  0
ARC
  5
58F
100
AcDbEntity
  8
02___PRT_ALL_AXES
100
AcDbCircle
 62
7
  6
CONTINUOUS
 10
498.9092069513
 20
213.8690582131
 40
0.3
100
AcDbArc
 50
151.2462181042
 51
216.4847041565
  0
ARC
  5
590
100
AcDbEntity
  8
02___PRT_ALL_AXES
100
AcDbCircle
 62
7
  6
CONTINUOUS
 10
498.7695982442
 20
214.861905281
 40
0.3
100
AcDbArc
 50
331.2462182331
 51
36.4847043159
  0
ARC
  5
591
100
AcDbEntity
  8
02___PRT_ALL_AXES
100
AcDbCircle
 62
7
  6
CONTINUOUS
 10
498.7743792354
 20
215.8645084097
 40
0.3
100
AcDbArc
 50
151.2462181045
 51
216.4847043163
  0
ARC
  5
592
100
AcDbEntity
  8
02___PRT_ALL_AXES
100
AcDbCircle
 62
7
  6
CONTINUOUS
 10
498.6347705282
 20
216.8573554776
 40
0.3
100
AcDbArc
 50
331.2462181045
 51
36.4847043163
  0
ARC
  5
593
100
AcDbEntity
  8
02___PRT_ALL_AXES
100
AcDbCircle
 62
7
  6
CONTINUOUS
 10
498.6395515194
 20
217.8599586063
 40
0.3
100
AcDbArc
 50
151.2462182331
 51
216.4847043159
  0
ARC
  5
594
100
AcDbEntity
  8
02___PRT_ALL_AXES
100
AcDbCircle
 62
7
  6
CONTINUOUS
 10
498.4999428122
 20
218.8528056742
 40
0.3
100
AcDbArc
 50
331.2462181045
 51
36.4847041569
  0
ARC
  5
595
100
AcDbEntity
  8
02___PRT_ALL_AXES
100
AcDbCircle
 62
7
  6
CONTINUOUS
 10
498.5047238034
 20
219.8554088028
 40
0.3
100
AcDbArc
 50
151.2462181045
 51
216.4847041569
  0
ARC
  5
596
100
AcDbEntity
  8
02___PRT_ALL_AXES
100
AcDbCircle
 62
7
  6
CONTINUOUS
 10
498.3651150962
 20
220.8482558708
 40
0.3
100
AcDbArc
 50
331.2462181042
 51
36.4847041569
  0
ARC
  5
597
100
AcDbEntity
  8
02___PRT_ALL_AXES
100
AcDbCircle
 62
7
  6
CONTINUOUS
 10
498.3698960874
 20
221.8508589994
 40
0.3
100
AcDbArc
 50
151.2462181045
 51
216.4847043159
  0
ARC
  5
598
100
AcDbEntity
  8
02___PRT_ALL_AXES
100
AcDbCircle
 62
7
  6
CONTINUOUS
 10
498.2302873802
 20
222.8437060673
 40
0.3
100
AcDbArc
 50
331.2462178692
 51
36.4847043159
  0
ARC
  5
599
100
AcDbEntity
  8
02___PRT_ALL_AXES
100
AcDbCircle
 62
7
  6
CONTINUOUS
 10
498.2350683714
 20
223.846309196
 40
0.3
100
AcDbArc
 50
151.2462181042
 51
216.4847043159
  0
ARC
  5
59A
100
AcDbEntity
  8
02___PRT_ALL_AXES
100
AcDbCircle
 62
7
  6
CONTINUOUS
 10
494.8997801618
 20
223.846309196
 40
0.3
100
AcDbArc
 50
323.5152956841
 51
28.753781898
  0
ARC
  5
59B
100
AcDbEntity
  8
02___PRT_ALL_AXES
100
AcDbCircle
 62
7
  6
CONTINUOUS
 10
494.904561153
 20
222.8437060673
 40
0.3
100
AcDbArc
 50
143.5152956839
 51
208.7537818958
  0
ARC
  5
59C
100
AcDbEntity
  8
02___PRT_ALL_AXES
100
AcDbCircle
 62
7
  6
CONTINUOUS
 10
494.7649524458
 20
221.8508589994
 40
0.3
100
AcDbArc
 50
323.5152956841
 51
28.7537818955
  0
ARC
  5
59D
100
AcDbEntity
  8
02___PRT_ALL_AXES
100
AcDbCircle
 62
7
  6
CONTINUOUS
 10
494.769733437
 20
220.8482558708
 40
0.3
100
AcDbArc
 50
143.5152958431
 51
208.753781898
  0
ARC
  5
59E
100
AcDbEntity
  8
02___PRT_ALL_AXES
100
AcDbCircle
 62
7
  6
CONTINUOUS
 10
494.6301247298
 20
219.8554088028
 40
0.3
100
AcDbArc
 50
323.515295841
 51
28.7537818977
  0
ARC
  5
59F
100
AcDbEntity
  8
02___PRT_ALL_AXES
100
AcDbCircle
 62
7
  6
CONTINUOUS
 10
494.634905721
 20
218.8528056742
 40
0.3
100
AcDbArc
 50
143.5152958431
 51
208.7537818955
  0
ARC
  5
5A0
100
AcDbEntity
  8
02___PRT_ALL_AXES
100
AcDbCircle
 62
7
  6
CONTINUOUS
 10
494.4952970138
 20
217.8599586063
 40
0.3
100
AcDbArc
 50
323.5152956841
 51
28.7537817669
  0
ARC
  5
5A1
100
AcDbEntity
  8
02___PRT_ALL_AXES
100
AcDbCircle
 62
7
  6
CONTINUOUS
 10
494.500078005
 20
216.8573554776
 40
0.3
100
AcDbArc
 50
143.5152956837
 51
208.7537818955
  0
ARC
  5
5A2
100
AcDbEntity
  8
02___PRT_ALL_AXES
100
AcDbCircle
 62
7
  6
CONTINUOUS
 10
494.3604692979
 20
215.8645084097
 40
0.3
100
AcDbArc
 50
323.5152956818
 51
28.7537818977
  0
ARC
  5
5A3
100
AcDbEntity
  8
02___PRT_ALL_AXES
100
AcDbCircle
 62
7
  6
CONTINUOUS
 10
494.365250289
 20
214.861905281
 40
0.3
100
AcDbArc
 50
143.5152956841
 51
208.7537817669
  0
ARC
  5
5A4
100
AcDbEntity
  8
02___PRT_ALL_AXES
100
AcDbCircle
 62
7
  6
CONTINUOUS
 10
494.4185584155
 20
213.5174722936
 40
0.3
100
AcDbArc
 50
356.1345388281
 51
28.7537819013
  0
ARC
  5
5A5
100
AcDbEntity
  8
02___PRT_ALL_AXES
100
AcDbCircle
 62
7
  6
CONTINUOUS
 10
506.1012080504
 20
241.2705632981
 40
0.5
100
AcDbArc
 50
0.0
 51
90.0
  0
ARC
  5
5A6
100
AcDbEntity
  8
02___PRT_ALL_AXES
100
AcDbCircle
 62
7
  6
CONTINUOUS
 10
505.568564311
 20
241.2705632981
 40
0.5
100
AcDbArc
 50
90.0
 51
176.1345389421
  0
ARC
  5
5A7
100
AcDbEntity
  8
02___PRT_ALL_AXES
100
AcDbCircle
 62
7
  6
CONTINUOUS
 10
497.0104328202
 20
229.2705632981
 40
0.5
100
AcDbArc
 50
3.8654610579
 51
90.0
  0
ARC
  5
5A8
100
AcDbEntity
  8
02___PRT_ALL_AXES
100
AcDbCircle
 62
7
  6
CONTINUOUS
 10
496.124415713
 20
229.2705632981
 40
0.5
100
AcDbArc
 50
90.0
 51
176.134538944
  0
ARC
  5
5A9
100
AcDbEntity
  8
02___PRT_ALL_AXES
100
AcDbCircle
 62
7
  6
CONTINUOUS
 10
504.6898339137
 20
240.1323496687
 40
0.3
100
AcDbArc
 50
323.5152958435
 51
356.1345388671
  0
ARC
  5
5AA
100
AcDbEntity
  8
02___PRT_ALL_AXES
100
AcDbCircle
 62
7
  6
CONTINUOUS
 10
504.4561558538
 20
238.8073076399
 40
0.3
100
AcDbArc
 50
143.5152956837
 51
208.7537818957
  0
ARC
  5
5AB
100
AcDbEntity
  8
02___PRT_ALL_AXES
100
AcDbCircle
 62
7
  6
CONTINUOUS
 10
504.3165471467
 20
237.814460572
 40
0.3
100
AcDbArc
 50
323.5152956837
 51
28.7537818955
  0
ARC
  5
5AC
100
AcDbEntity
  8
02___PRT_ALL_AXES
100
AcDbCircle
 62
7
  6
CONTINUOUS
 10
504.3213281378
 20
236.8118574433
 40
0.3
100
AcDbArc
 50
143.5152956841
 51
208.7537817669
  0
ARC
  5
5AD
100
AcDbEntity
  8
02___PRT_ALL_AXES
100
AcDbCircle
 62
7
  6
CONTINUOUS
 10
504.1817194307
 20
235.8190103754
 40
0.3
100
AcDbArc
 50
323.5152958431
 51
28.7537818955
  0
ARC
  5
5AE
100
AcDbEntity
  8
02___PRT_ALL_AXES
100
AcDbCircle
 62
7
  6
CONTINUOUS
 10
504.1865004219
 20
234.8164072468
 40
0.3
100
AcDbArc
 50
143.5152958431
 51
208.7537821305
  0
ARC
  5
5AF
100
AcDbEntity
  8
02___PRT_ALL_AXES
100
AcDbCircle
 62
7
  6
CONTINUOUS
 10
504.0468917147
 20
233.8235601788
 40
0.3
100
AcDbArc
 50
323.5152958431
 51
28.7537818958
  0
ARC
  5
5B0
100
AcDbEntity
  8
02___PRT_ALL_AXES
100
AcDbCircle
 62
7
  6
CONTINUOUS
 10
504.0516727059
 20
232.8209570502
 40
0.3
100
AcDbArc
 50
143.5152956839
 51
208.7537818958
  0
ARC
  5
5B1
100
AcDbEntity
  8
02___PRT_ALL_AXES
100
AcDbCircle
 62
7
  6
CONTINUOUS
 10
503.9120639987
 20
231.8281099823
 40
0.3
100
AcDbArc
 50
323.5152956839
 51
28.7537818958
  0
ARC
  5
5B2
100
AcDbEntity
  8
02___PRT_ALL_AXES
100
AcDbCircle
 62
7
  6
CONTINUOUS
 10
503.9168449899
 20
230.8255068536
 40
0.3
100
AcDbArc
 50
143.5152956837
 51
208.7537818955
  0
ARC
  5
5B3
100
AcDbEntity
  8
02___PRT_ALL_AXES
100
AcDbCircle
 62
7
  6
CONTINUOUS
 10
503.7772362827
 20
229.8326597857
 40
0.3
100
AcDbArc
 50
323.5152956841
 51
28.7537818955
  0
ARC
  5
5B4
100
AcDbEntity
  8
02___PRT_ALL_AXES
100
AcDbCircle
 62
7
  6
CONTINUOUS
 10
503.7820172739
 20
228.8300566571
 40
0.3
100
AcDbArc
 50
143.5152958431
 51
208.7537818958
  0
ARC
  5
5B5
100
AcDbEntity
  8
02___PRT_ALL_AXES
100
AcDbCircle
 62
7
  6
CONTINUOUS
 10
503.6424085667
 20
227.8372095891
 40
0.3
100
AcDbArc
 50
323.5152958431
 51
28.7537818955
  0
ARC
  5
5B6
100
AcDbEntity
  8
02___PRT_ALL_AXES
100
AcDbCircle
 62
7
  6
CONTINUOUS
 10
503.6471895579
 20
226.8346064605
 40
0.3
100
AcDbArc
 50
143.5152958429
 51
208.7537818955
  0
ARC
  5
5B7
100
AcDbEntity
  8
02___PRT_ALL_AXES
100
AcDbCircle
 62
7
  6
CONTINUOUS
 10
503.5075808508
 20
225.8417593925
 40
0.3
100
AcDbArc
 50
323.5152958431
 51
28.7537818958
  0
ARC
  5
5B8
100
AcDbEntity
  8
02___PRT_ALL_AXES
100
AcDbCircle
 62
7
  6
CONTINUOUS
 10
503.5123618419
 20
224.8391562639
 40
0.3
100
AcDbArc
 50
143.5152956841
 51
208.7537818955
  0
ARC
  5
5B9
100
AcDbEntity
  8
02___PRT_ALL_AXES
100
AcDbCircle
 62
7
  6
CONTINUOUS
 10
498.0954596643
 20
224.8391562639
 40
0.3
100
AcDbArc
 50
331.2462181044
 51
36.4847043159
  0
ARC
  5
5BA
100
AcDbEntity
  8
02___PRT_ALL_AXES
100
AcDbCircle
 62
7
  6
CONTINUOUS
 10
498.1002406554
 20
225.8417593925
 40
0.3
100
AcDbArc
 50
151.2462181042
 51
216.4847041569
  0
ARC
  5
5BB
100
AcDbEntity
  8
02___PRT_ALL_AXES
100
AcDbCircle
 62
7
  6
CONTINUOUS
 10
497.9606319483
 20
226.8346064605
 40
0.3
100
AcDbArc
 50
331.2462181045
 51
36.4847041569
  0
ARC
  5
5BC
100
AcDbEntity
  8
02___PRT_ALL_AXES
100
AcDbCircle
 62
7
  6
CONTINUOUS
 10
497.9034433686
 20
227.921003432
 40
0.3
100
AcDbArc
 50
183.8654611329
 51
216.4847041569
  0
ARC
  5
5BD
100
AcDbEntity
  8
02___PRT_ALL_AXES
100
AcDbCircle
 62
7
  6
CONTINUOUS
 10
495.2314051646
 20
227.921003432
 40
0.3
100
AcDbArc
 50
323.5152958429
 51
356.1345388695
  0
ARC
  5
5BE
100
AcDbEntity
  8
02___PRT_ALL_AXES
100
AcDbCircle
 62
7
  6
CONTINUOUS
 10
495.1742165849
 20
226.8346064605
 40
0.3
100
AcDbArc
 50
143.5152958431
 51
208.7537818955
  0
ARC
  5
5BF
100
AcDbEntity
  8
02___PRT_ALL_AXES
100
AcDbCircle
 62
7
  6
CONTINUOUS
 10
495.0346078778
 20
225.8417593925
 40
0.3
100
AcDbArc
 50
323.5152958431
 51
28.7537818958
  0
ARC
  5
5C0
100
AcDbEntity
  8
02___PRT_ALL_AXES
100
AcDbCircle
 62
7
  6
CONTINUOUS
 10
495.039388869
 20
224.8391562639
 40
0.3
100
AcDbArc
 50
143.5152956821
 51
208.7537821327
  0
SPLINE
  5
5C1
100
AcDbEntity
  8
7_ALL_FEATURES
100
AcDbSpline
 62
9
  6
CONTINUOUS
 70
0
 71
3
 72
9
 73
5
 74
0
 42
0.0000001
 43
0.0000001
 44
0.0000000001
 40
0.0
 40
0.0
 40
0.0
 40
0.0
 40
0.4980601845
 40
1.0
 40
1.0
 40
1.0
 40
1.0
 10
219.9136165797
 20
352.697824148
 30
0.0
 10
219.9117124349
 20
352.761032769
 30
0.0
 10
219.8830250331
 20
352.8883065375
 30
0.0
 10
219.8093335902
 20
352.9958117749
 30
0.0
 10
219.7642710613
 20
353.0408769084
 30
0.0
  0
SPLINE
  5
5C2
100
AcDbEntity
  8
7_ALL_FEATURES
100
AcDbSpline
 62
9
  6
CONTINUOUS
 70
0
 71
3
 72
9
 73
5
 74
0
 42
0.0000001
 43
0.0000001
 44
0.0000000001
 40
0.0
 40
0.0
 40
0.0
 40
0.0
 40
0.5019397361
 40
1.0
 40
1.0
 40
1.0
 40
1.0
 10
219.7642710613
 20
353.0408769084
 30
0.0
 10
219.7192085395
 20
353.0859420348
 30
0.0
 10
219.6117075649
 20
353.1596396934
 30
0.0
 10
219.4844354542
 20
353.1883344557
 30
0.0
 10
219.4212269332
 20
353.1902422541
 30
0.0
  0
SPLINE
  5
5C3
100
AcDbEntity
  8
7_ALL_FEATURES
100
AcDbSpline
 62
9
  6
CONTINUOUS
 70
0
 71
3
 72
9
 73
5
 74
0
 42
0.0000001
 43
0.0000001
 44
0.0000000001
 40
0.0
 40
0.0
 40
0.0
 40
0.0
 40
0.4980663713
 40
1.0
 40
1.0
 40
1.0
 40
1.0
 10
219.4205268094
 20
328.9634478691
 30
0.0
 10
219.4837362079
 20
328.9653520373
 30
0.0
 10
219.611009924
 20
328.9940400027
 30
0.0
 10
219.7185149974
 20
329.0677314195
 30
0.0
 10
219.7635795699
 20
329.1127933874
 30
0.0
  0
SPLINE
  5
5C4
100
AcDbEntity
  8
7_ALL_FEATURES
100
AcDbSpline
 62
9
  6
CONTINUOUS
 70
0
 71
3
 72
9
 73
5
 74
0
 42
0.0000001
 43
0.0000001
 44
0.0000000001
 40
0.0
 40
0.0
 40
0.0
 40
0.0
 40
0.5019336287
 40
1.0
 40
1.0
 40
1.0
 40
1.0
 10
219.7635795699
 20
329.1127933874
 30
0.0
 10
219.8086441424
 20
329.1578553554
 30
0.0
 10
219.8823417725
 20
329.2653561694
 30
0.0
 10
219.911037094
 20
329.3926282272
 30
0.0
 10
219.9129449156
 20
329.4558375155
 30
0.0
  0
SPLINE
  5
5C5
100
AcDbEntity
  8
7_ALL_FEATURES
100
AcDbSpline
 62
9
  6
CONTINUOUS
 70
0
 71
3
 72
9
 73
5
 74
0
 42
0.0000001
 43
0.0000001
 44
0.0000000001
 40
0.0
 40
0.0
 40
0.0
 40
0.0
 40
0.4980601845
 40
1.0
 40
1.0
 40
1.0
 40
1.0
 10
195.6861505305
 20
329.4565376393
 30
0.0
 10
195.6880546754
 20
329.3933290183
 30
0.0
 10
195.7167420771
 20
329.2660552498
 30
0.0
 10
195.79043352
 20
329.1585500124
 30
0.0
 10
195.8354960489
 20
329.1134848789
 30
0.0
  0
SPLINE
  5
5C6
100
AcDbEntity
  8
7_ALL_FEATURES
100
AcDbSpline
 62
9
  6
CONTINUOUS
 70
0
 71
3
 72
9
 73
5
 74
0
 42
0.0000001
 43
0.0000001
 44
0.0000000001
 40
0.0
 40
0.0
 40
0.0
 40
0.0
 40
0.5019397361
 40
1.0
 40
1.0
 40
1.0
 40
1.0
 10
195.8354960489
 20
329.1134848789
 30
0.0
 10
195.8805585707
 20
329.0684197525
 30
0.0
 10
195.9880595453
 20
328.9947220938
 30
0.0
 10
196.115331656
 20
328.9660273316
 30
0.0
 10
196.178540177
 20
328.9641195332
 30
0.0
  0
SPLINE
  5
5C7
100
AcDbEntity
  8
7_ALL_FEATURES
100
AcDbSpline
 62
9
  6
CONTINUOUS
 70
0
 71
3
 72
9
 73
5
 74
0
 42
0.0000001
 43
0.0000001
 44
0.0000000001
 40
0.0
 40
0.0
 40
0.0
 40
0.0
 40
0.4980601845
 40
1.0
 40
1.0
 40
1.0
 40
1.0
 10
196.1792403008
 20
353.1909139182
 30
0.0
 10
196.1160316797
 20
353.1890097734
 30
0.0
 10
195.9887579113
 20
353.1603223716
 30
0.0
 10
195.8812526739
 20
353.0866309288
 30
0.0
 10
195.8361875404
 20
353.0415683998
 30
0.0
  0
SPLINE
  5
5C8
100
AcDbEntity
  8
7_ALL_FEATURES
100
AcDbSpline
 62
9
  6
CONTINUOUS
 70
0
 71
3
 72
9
 73
5
 74
0
 42
0.0000001
 43
0.0000001
 44
0.0000000001
 40
0.0
 40
0.0
 40
0.0
 40
0.0
 40
0.5019397361
 40
1.0
 40
1.0
 40
1.0
 40
1.0
 10
195.8361875404
 20
353.0415683998
 30
0.0
 10
195.791122414
 20
352.996505878
 30
0.0
 10
195.7174247553
 20
352.8890049034
 30
0.0
 10
195.6887299931
 20
352.7617327927
 30
0.0
 10
195.6868221947
 20
352.6985242718
 30
0.0
  0
SPLINE
  5
5C9
100
AcDbEntity
  8
7_ALL_FEATURES
100
AcDbSpline
 62
9
  6
CONTINUOUS
 70
0
 71
3
 72
9
 73
5
 74
0
 42
0.0000001
 43
0.0000001
 44
0.0000000001
 40
0.0
 40
0.0
 40
0.0
 40
0.0
 40
0.4980601845
 40
1.0
 40
1.0
 40
1.0
 40
1.0
 10
179.9136165797
 20
352.697824148
 30
0.0
 10
179.9117124349
 20
352.761032769
 30
0.0
 10
179.8830250331
 20
352.8883065375
 30
0.0
 10
179.8093335902
 20
352.9958117749
 30
0.0
 10
179.7642710613
 20
353.0408769084
 30
0.0
  0
SPLINE
  5
5CA
100
AcDbEntity
  8
7_ALL_FEATURES
100
AcDbSpline
 62
9
  6
CONTINUOUS
 70
0
 71
3
 72
9
 73
5
 74
0
 42
0.0000001
 43
0.0000001
 44
0.0000000001
 40
0.0
 40
0.0
 40
0.0
 40
0.0
 40
0.5019397361
 40
1.0
 40
1.0
 40
1.0
 40
1.0
 10
179.7642710613
 20
353.0408769084
 30
0.0
 10
179.7192085395
 20
353.0859420348
 30
0.0
 10
179.6117075649
 20
353.1596396934
 30
0.0
 10
179.4844354542
 20
353.1883344557
 30
0.0
 10
179.4212269332
 20
353.1902422541
 30
0.0
  0
SPLINE
  5
5CB
100
AcDbEntity
  8
7_ALL_FEATURES
100
AcDbSpline
 62
9
  6
CONTINUOUS
 70
0
 71
3
 72
9
 73
5
 74
0
 42
0.0000001
 43
0.0000001
 44
0.0000000001
 40
0.0
 40
0.0
 40
0.0
 40
0.0
 40
0.4980663713
 40
1.0
 40
1.0
 40
1.0
 40
1.0
 10
179.4205268094
 20
328.9634478691
 30
0.0
 10
179.4837362079
 20
328.9653520373
 30
0.0
 10
179.611009924
 20
328.9940400027
 30
0.0
 10
179.7185149974
 20
329.0677314195
 30
0.0
 10
179.7635795699
 20
329.1127933874
 30
0.0
  0
SPLINE
  5
5CC
100
AcDbEntity
  8
7_ALL_FEATURES
100
AcDbSpline
 62
9
  6
CONTINUOUS
 70
0
 71
3
 72
9
 73
5
 74
0
 42
0.0000001
 43
0.0000001
 44
0.0000000001
 40
0.0
 40
0.0
 40
0.0
 40
0.0
 40
0.5019336287
 40
1.0
 40
1.0
 40
1.0
 40
1.0
 10
179.7635795699
 20
329.1127933874
 30
0.0
 10
179.8086441424
 20
329.1578553554
 30
0.0
 10
179.8823417725
 20
329.2653561694
 30
0.0
 10
179.911037094
 20
329.3926282272
 30
0.0
 10
179.9129449156
 20
329.4558375155
 30
0.0
  0
SPLINE
  5
5CD
100
AcDbEntity
  8
7_ALL_FEATURES
100
AcDbSpline
 62
9
  6
CONTINUOUS
 70
0
 71
3
 72
9
 73
5
 74
0
 42
0.0000001
 43
0.0000001
 44
0.0000000001
 40
0.0
 40
0.0
 40
0.0
 40
0.0
 40
0.4980601845
 40
1.0
 40
1.0
 40
1.0
 40
1.0
 10
155.6861505305
 20
329.4565376393
 30
0.0
 10
155.6880546754
 20
329.3933290183
 30
0.0
 10
155.7167420771
 20
329.2660552498
 30
0.0
 10
155.79043352
 20
329.1585500124
 30
0.0
 10
155.8354960489
 20
329.1134848789
 30
0.0
  0
SPLINE
  5
5CE
100
AcDbEntity
  8
7_ALL_FEATURES
100
AcDbSpline
 62
9
  6
CONTINUOUS
 70
0
 71
3
 72
9
 73
5
 74
0
 42
0.0000001
 43
0.0000001
 44
0.0000000001
 40
0.0
 40
0.0
 40
0.0
 40
0.0
 40
0.5019397361
 40
1.0
 40
1.0
 40
1.0
 40
1.0
 10
155.8354960489
 20
329.1134848789
 30
0.0
 10
155.8805585707
 20
329.0684197525
 30
0.0
 10
155.9880595453
 20
328.9947220938
 30
0.0
 10
156.115331656
 20
328.9660273316
 30
0.0
 10
156.178540177
 20
328.9641195332
 30
0.0
  0
SPLINE
  5
5CF
100
AcDbEntity
  8
7_ALL_FEATURES
100
AcDbSpline
 62
9
  6
CONTINUOUS
 70
0
 71
3
 72
9
 73
5
 74
0
 42
0.0000001
 43
0.0000001
 44
0.0000000001
 40
0.0
 40
0.0
 40
0.0
 40
0.0
 40
0.4980601845
 40
1.0
 40
1.0
 40
1.0
 40
1.0
 10
156.1792403008
 20
353.1909139182
 30
0.0
 10
156.1160316797
 20
353.1890097734
 30
0.0
 10
155.9887579113
 20
353.1603223716
 30
0.0
 10
155.8812526739
 20
353.0866309288
 30
0.0
 10
155.8361875404
 20
353.0415683998
 30
0.0
  0
SPLINE
  5
5D0
100
AcDbEntity
  8
7_ALL_FEATURES
100
AcDbSpline
 62
9
  6
CONTINUOUS
 70
0
 71
3
 72
9
 73
5
 74
0
 42
0.0000001
 43
0.0000001
 44
0.0000000001
 40
0.0
 40
0.0
 40
0.0
 40
0.0
 40
0.5019397361
 40
1.0
 40
1.0
 40
1.0
 40
1.0
 10
155.8361875404
 20
353.0415683998
 30
0.0
 10
155.791122414
 20
352.996505878
 30
0.0
 10
155.7174247553
 20
352.8890049034
 30
0.0
 10
155.6887299931
 20
352.7617327927
 30
0.0
 10
155.6868221947
 20
352.6985242718
 30
0.0
  0
SPLINE
  5
5D1
100
AcDbEntity
  8
7_ALL_FEATURES
100
AcDbSpline
 62
9
  6
CONTINUOUS
 70
0
 71
3
 72
9
 73
5
 74
0
 42
0.0000001
 43
0.0000001
 44
0.0000000001
 40
0.0
 40
0.0
 40
0.0
 40
0.0
 40
0.4980601845
 40
1.0
 40
1.0
 40
1.0
 40
1.0
 10
139.9136165797
 20
352.697824148
 30
0.0
 10
139.9117124349
 20
352.761032769
 30
0.0
 10
139.8830250331
 20
352.8883065375
 30
0.0
 10
139.8093335902
 20
352.9958117749
 30
0.0
 10
139.7642710613
 20
353.0408769084
 30
0.0
  0
SPLINE
  5
5D2
100
AcDbEntity
  8
7_ALL_FEATURES
100
AcDbSpline
 62
9
  6
CONTINUOUS
 70
0
 71
3
 72
9
 73
5
 74
0
 42
0.0000001
 43
0.0000001
 44
0.0000000001
 40
0.0
 40
0.0
 40
0.0
 40
0.0
 40
0.5019397361
 40
1.0
 40
1.0
 40
1.0
 40
1.0
 10
139.7642710613
 20
353.0408769084
 30
0.0
 10
139.7192085395
 20
353.0859420348
 30
0.0
 10
139.6117075649
 20
353.1596396934
 30
0.0
 10
139.4844354542
 20
353.1883344557
 30
0.0
 10
139.4212269332
 20
353.1902422541
 30
0.0
  0
SPLINE
  5
5D3
100
AcDbEntity
  8
7_ALL_FEATURES
100
AcDbSpline
 62
9
  6
CONTINUOUS
 70
0
 71
3
 72
9
 73
5
 74
0
 42
0.0000001
 43
0.0000001
 44
0.0000000001
 40
0.0
 40
0.0
 40
0.0
 40
0.0
 40
0.4980663713
 40
1.0
 40
1.0
 40
1.0
 40
1.0
 10
139.4205268094
 20
328.9634478691
 30
0.0
 10
139.4837362079
 20
328.9653520373
 30
0.0
 10
139.611009924
 20
328.9940400027
 30
0.0
 10
139.7185149974
 20
329.0677314195
 30
0.0
 10
139.7635795699
 20
329.1127933874
 30
0.0
  0
SPLINE
  5
5D4
100
AcDbEntity
  8
7_ALL_FEATURES
100
AcDbSpline
 62
9
  6
CONTINUOUS
 70
0
 71
3
 72
9
 73
5
 74
0
 42
0.0000001
 43
0.0000001
 44
0.0000000001
 40
0.0
 40
0.0
 40
0.0
 40
0.0
 40
0.5019336287
 40
1.0
 40
1.0
 40
1.0
 40
1.0
 10
139.7635795699
 20
329.1127933874
 30
0.0
 10
139.8086441424
 20
329.1578553554
 30
0.0
 10
139.8823417725
 20
329.2653561694
 30
0.0
 10
139.911037094
 20
329.3926282272
 30
0.0
 10
139.9129449156
 20
329.4558375155
 30
0.0
  0
SPLINE
  5
5D5
100
AcDbEntity
  8
7_ALL_FEATURES
100
AcDbSpline
 62
9
  6
CONTINUOUS
 70
0
 71
3
 72
9
 73
5
 74
0
 42
0.0000001
 43
0.0000001
 44
0.0000000001
 40
0.0
 40
0.0
 40
0.0
 40
0.0
 40
0.4980601845
 40
1.0
 40
1.0
 40
1.0
 40
1.0
 10
115.6861505305
 20
329.4565376393
 30
0.0
 10
115.6880546754
 20
329.3933290183
 30
0.0
 10
115.7167420771
 20
329.2660552498
 30
0.0
 10
115.79043352
 20
329.1585500124
 30
0.0
 10
115.8354960489
 20
329.1134848789
 30
0.0
  0
SPLINE
  5
5D6
100
AcDbEntity
  8
7_ALL_FEATURES
100
AcDbSpline
 62
9
  6
CONTINUOUS
 70
0
 71
3
 72
9
 73
5
 74
0
 42
0.0000001
 43
0.0000001
 44
0.0000000001
 40
0.0
 40
0.0
 40
0.0
 40
0.0
 40
0.5019397361
 40
1.0
 40
1.0
 40
1.0
 40
1.0
 10
115.8354960489
 20
329.1134848789
 30
0.0
 10
115.8805585707
 20
329.0684197525
 30
0.0
 10
115.9880595453
 20
328.9947220938
 30
0.0
 10
116.115331656
 20
328.9660273316
 30
0.0
 10
116.178540177
 20
328.9641195332
 30
0.0
  0
SPLINE
  5
5D7
100
AcDbEntity
  8
7_ALL_FEATURES
100
AcDbSpline
 62
9
  6
CONTINUOUS
 70
0
 71
3
 72
9
 73
5
 74
0
 42
0.0000001
 43
0.0000001
 44
0.0000000001
 40
0.0
 40
0.0
 40
0.0
 40
0.0
 40
0.4980601845
 40
1.0
 40
1.0
 40
1.0
 40
1.0
 10
116.1792403008
 20
353.1909139182
 30
0.0
 10
116.1160316797
 20
353.1890097734
 30
0.0
 10
115.9887579113
 20
353.1603223716
 30
0.0
 10
115.8812526739
 20
353.0866309288
 30
0.0
 10
115.8361875404
 20
353.0415683998
 30
0.0
  0
SPLINE
  5
5D8
100
AcDbEntity
  8
7_ALL_FEATURES
100
AcDbSpline
 62
9
  6
CONTINUOUS
 70
0
 71
3
 72
9
 73
5
 74
0
 42
0.0000001
 43
0.0000001
 44
0.0000000001
 40
0.0
 40
0.0
 40
0.0
 40
0.0
 40
0.5019397361
 40
1.0
 40
1.0
 40
1.0
 40
1.0
 10
115.8361875404
 20
353.0415683998
 30
0.0
 10
115.791122414
 20
352.996505878
 30
0.0
 10
115.7174247553
 20
352.8890049034
 30
0.0
 10
115.6887299931
 20
352.7617327927
 30
0.0
 10
115.6868221947
 20
352.6985242718
 30
0.0
  0
SPLINE
  5
5D9
100
AcDbEntity
  8
7_ALL_FEATURES
100
AcDbSpline
 62
9
  6
CONTINUOUS
 70
0
 71
3
 72
9
 73
5
 74
0
 42
0.0000001
 43
0.0000001
 44
0.0000000001
 40
0.0
 40
0.0
 40
0.0
 40
0.0
 40
0.4980601845
 40
1.0
 40
1.0
 40
1.0
 40
1.0
 10
99.9136165797
 20
352.697824148
 30
0.0
 10
99.9117124349
 20
352.761032769
 30
0.0
 10
99.8830250331
 20
352.8883065375
 30
0.0
 10
99.8093335902
 20
352.9958117749
 30
0.0
 10
99.7642710613
 20
353.0408769084
 30
0.0
  0
SPLINE
  5
5DA
100
AcDbEntity
  8
7_ALL_FEATURES
100
AcDbSpline
 62
9
  6
CONTINUOUS
 70
0
 71
3
 72
9
 73
5
 74
0
 42
0.0000001
 43
0.0000001
 44
0.0000000001
 40
0.0
 40
0.0
 40
0.0
 40
0.0
 40
0.5019397361
 40
1.0
 40
1.0
 40
1.0
 40
1.0
 10
99.7642710613
 20
353.0408769084
 30
0.0
 10
99.7192085395
 20
353.0859420348
 30
0.0
 10
99.6117075649
 20
353.1596396934
 30
0.0
 10
99.4844354542
 20
353.1883344557
 30
0.0
 10
99.4212269332
 20
353.1902422541
 30
0.0
  0
SPLINE
  5
5DB
100
AcDbEntity
  8
7_ALL_FEATURES
100
AcDbSpline
 62
9
  6
CONTINUOUS
 70
0
 71
3
 72
9
 73
5
 74
0
 42
0.0000001
 43
0.0000001
 44
0.0000000001
 40
0.0
 40
0.0
 40
0.0
 40
0.0
 40
0.4980663713
 40
1.0
 40
1.0
 40
1.0
 40
1.0
 10
99.4205268094
 20
328.9634478691
 30
0.0
 10
99.4837362079
 20
328.9653520373
 30
0.0
 10
99.611009924
 20
328.9940400027
 30
0.0
 10
99.7185149974
 20
329.0677314195
 30
0.0
 10
99.7635795699
 20
329.1127933874
 30
0.0
  0
SPLINE
  5
5DC
100
AcDbEntity
  8
7_ALL_FEATURES
100
AcDbSpline
 62
9
  6
CONTINUOUS
 70
0
 71
3
 72
9
 73
5
 74
0
 42
0.0000001
 43
0.0000001
 44
0.0000000001
 40
0.0
 40
0.0
 40
0.0
 40
0.0
 40
0.5019336287
 40
1.0
 40
1.0
 40
1.0
 40
1.0
 10
99.7635795699
 20
329.1127933874
 30
0.0
 10
99.8086441424
 20
329.1578553554
 30
0.0
 10
99.8823417725
 20
329.2653561694
 30
0.0
 10
99.911037094
 20
329.3926282272
 30
0.0
 10
99.9129449156
 20
329.4558375155
 30
0.0
  0
SPLINE
  5
5DD
100
AcDbEntity
  8
7_ALL_FEATURES
100
AcDbSpline
 62
9
  6
CONTINUOUS
 70
0
 71
3
 72
9
 73
5
 74
0
 42
0.0000001
 43
0.0000001
 44
0.0000000001
 40
0.0
 40
0.0
 40
0.0
 40
0.0
 40
0.4980601845
 40
1.0
 40
1.0
 40
1.0
 40
1.0
 10
75.6861505305
 20
329.4565376393
 30
0.0
 10
75.6880546754
 20
329.3933290183
 30
0.0
 10
75.7167420771
 20
329.2660552498
 30
0.0
 10
75.79043352
 20
329.1585500124
 30
0.0
 10
75.8354960489
 20
329.1134848789
 30
0.0
  0
SPLINE
  5
5DE
100
AcDbEntity
  8
7_ALL_FEATURES
100
AcDbSpline
 62
9
  6
CONTINUOUS
 70
0
 71
3
 72
9
 73
5
 74
0
 42
0.0000001
 43
0.0000001
 44
0.0000000001
 40
0.0
 40
0.0
 40
0.0
 40
0.0
 40
0.5019397361
 40
1.0
 40
1.0
 40
1.0
 40
1.0
 10
75.8354960489
 20
329.1134848789
 30
0.0
 10
75.8805585707
 20
329.0684197525
 30
0.0
 10
75.9880595453
 20
328.9947220938
 30
0.0
 10
76.115331656
 20
328.9660273316
 30
0.0
 10
76.178540177
 20
328.9641195332
 30
0.0
  0
SPLINE
  5
5DF
100
AcDbEntity
  8
7_ALL_FEATURES
100
AcDbSpline
 62
9
  6
CONTINUOUS
 70
0
 71
3
 72
9
 73
5
 74
0
 42
0.0000001
 43
0.0000001
 44
0.0000000001
 40
0.0
 40
0.0
 40
0.0
 40
0.0
 40
0.4980601845
 40
1.0
 40
1.0
 40
1.0
 40
1.0
 10
76.1792403008
 20
353.1909139182
 30
0.0
 10
76.1160316797
 20
353.1890097734
 30
0.0
 10
75.9887579113
 20
353.1603223716
 30
0.0
 10
75.8812526739
 20
353.0866309288
 30
0.0
 10
75.8361875404
 20
353.0415683998
 30
0.0
  0
SPLINE
  5
5E0
100
AcDbEntity
  8
7_ALL_FEATURES
100
AcDbSpline
 62
9
  6
CONTINUOUS
 70
0
 71
3
 72
9
 73
5
 74
0
 42
0.0000001
 43
0.0000001
 44
0.0000000001
 40
0.0
 40
0.0
 40
0.0
 40
0.0
 40
0.5019397361
 40
1.0
 40
1.0
 40
1.0
 40
1.0
 10
75.8361875404
 20
353.0415683998
 30
0.0
 10
75.791122414
 20
352.996505878
 30
0.0
 10
75.7174247553
 20
352.8890049034
 30
0.0
 10
75.6887299931
 20
352.7617327927
 30
0.0
 10
75.6868221947
 20
352.6985242718
 30
0.0
  0
SPLINE
  5
5E1
100
AcDbEntity
  8
7_ALL_FEATURES
100
AcDbSpline
 62
9
  6
CONTINUOUS
 70
0
 71
3
 72
9
 73
5
 74
0
 42
0.0000001
 43
0.0000001
 44
0.0000000001
 40
0.0
 40
0.0
 40
0.0
 40
0.0
 40
0.4980601845
 40
1.0
 40
1.0
 40
1.0
 40
1.0
 10
259.9136165797
 20
352.697824148
 30
0.0
 10
259.9117124349
 20
352.761032769
 30
0.0
 10
259.8830250331
 20
352.8883065375
 30
0.0
 10
259.8093335902
 20
352.9958117749
 30
0.0
 10
259.7642710613
 20
353.0408769084
 30
0.0
  0
SPLINE
  5
5E2
100
AcDbEntity
  8
7_ALL_FEATURES
100
AcDbSpline
 62
9
  6
CONTINUOUS
 70
0
 71
3
 72
9
 73
5
 74
0
 42
0.0000001
 43
0.0000001
 44
0.0000000001
 40
0.0
 40
0.0
 40
0.0
 40
0.0
 40
0.5019397361
 40
1.0
 40
1.0
 40
1.0
 40
1.0
 10
259.7642710613
 20
353.0408769084
 30
0.0
 10
259.7192085395
 20
353.0859420348
 30
0.0
 10
259.6117075649
 20
353.1596396934
 30
0.0
 10
259.4844354542
 20
353.1883344557
 30
0.0
 10
259.4212269332
 20
353.1902422541
 30
0.0
  0
SPLINE
  5
5E3
100
AcDbEntity
  8
7_ALL_FEATURES
100
AcDbSpline
 62
9
  6
CONTINUOUS
 70
0
 71
3
 72
9
 73
5
 74
0
 42
0.0000001
 43
0.0000001
 44
0.0000000001
 40
0.0
 40
0.0
 40
0.0
 40
0.0
 40
0.4980663713
 40
1.0
 40
1.0
 40
1.0
 40
1.0
 10
259.4205268094
 20
328.9634478691
 30
0.0
 10
259.4837362079
 20
328.9653520373
 30
0.0
 10
259.611009924
 20
328.9940400027
 30
0.0
 10
259.7185149974
 20
329.0677314195
 30
0.0
 10
259.7635795699
 20
329.1127933874
 30
0.0
  0
SPLINE
  5
5E4
100
AcDbEntity
  8
7_ALL_FEATURES
100
AcDbSpline
 62
9
  6
CONTINUOUS
 70
0
 71
3
 72
9
 73
5
 74
0
 42
0.0000001
 43
0.0000001
 44
0.0000000001
 40
0.0
 40
0.0
 40
0.0
 40
0.0
 40
0.5019336287
 40
1.0
 40
1.0
 40
1.0
 40
1.0
 10
259.7635795699
 20
329.1127933874
 30
0.0
 10
259.8086441424
 20
329.1578553554
 30
0.0
 10
259.8823417725
 20
329.2653561694
 30
0.0
 10
259.911037094
 20
329.3926282272
 30
0.0
 10
259.9129449156
 20
329.4558375155
 30
0.0
  0
SPLINE
  5
5E5
100
AcDbEntity
  8
7_ALL_FEATURES
100
AcDbSpline
 62
9
  6
CONTINUOUS
 70
0
 71
3
 72
9
 73
5
 74
0
 42
0.0000001
 43
0.0000001
 44
0.0000000001
 40
0.0
 40
0.0
 40
0.0
 40
0.0
 40
0.4980601845
 40
1.0
 40
1.0
 40
1.0
 40
1.0
 10
235.6861505305
 20
329.4565376393
 30
0.0
 10
235.6880546754
 20
329.3933290183
 30
0.0
 10
235.7167420771
 20
329.2660552498
 30
0.0
 10
235.79043352
 20
329.1585500124
 30
0.0
 10
235.8354960489
 20
329.1134848789
 30
0.0
  0
SPLINE
  5
5E6
100
AcDbEntity
  8
7_ALL_FEATURES
100
AcDbSpline
 62
9
  6
CONTINUOUS
 70
0
 71
3
 72
9
 73
5
 74
0
 42
0.0000001
 43
0.0000001
 44
0.0000000001
 40
0.0
 40
0.0
 40
0.0
 40
0.0
 40
0.5019397361
 40
1.0
 40
1.0
 40
1.0
 40
1.0
 10
235.8354960489
 20
329.1134848789
 30
0.0
 10
235.8805585707
 20
329.0684197525
 30
0.0
 10
235.9880595453
 20
328.9947220938
 30
0.0
 10
236.115331656
 20
328.9660273316
 30
0.0
 10
236.178540177
 20
328.9641195332
 30
0.0
  0
SPLINE
  5
5E7
100
AcDbEntity
  8
7_ALL_FEATURES
100
AcDbSpline
 62
9
  6
CONTINUOUS
 70
0
 71
3
 72
9
 73
5
 74
0
 42
0.0000001
 43
0.0000001
 44
0.0000000001
 40
0.0
 40
0.0
 40
0.0
 40
0.0
 40
0.4980601845
 40
1.0
 40
1.0
 40
1.0
 40
1.0
 10
236.1792403008
 20
353.1909139182
 30
0.0
 10
236.1160316797
 20
353.1890097734
 30
0.0
 10
235.9887579113
 20
353.1603223716
 30
0.0
 10
235.8812526739
 20
353.0866309288
 30
0.0
 10
235.8361875404
 20
353.0415683998
 30
0.0
  0
SPLINE
  5
5E8
100
AcDbEntity
  8
7_ALL_FEATURES
100
AcDbSpline
 62
9
  6
CONTINUOUS
 70
0
 71
3
 72
9
 73
5
 74
0
 42
0.0000001
 43
0.0000001
 44
0.0000000001
 40
0.0
 40
0.0
 40
0.0
 40
0.0
 40
0.5019397361
 40
1.0
 40
1.0
 40
1.0
 40
1.0
 10
235.8361875404
 20
353.0415683998
 30
0.0
 10
235.791122414
 20
352.996505878
 30
0.0
 10
235.7174247553
 20
352.8890049034
 30
0.0
 10
235.6887299931
 20
352.7617327927
 30
0.0
 10
235.6868221947
 20
352.6985242718
 30
0.0
  0
SPLINE
  5
5E9
100
AcDbEntity
  8
7_ALL_FEATURES
100
AcDbSpline
 62
9
  6
CONTINUOUS
 70
0
 71
3
 72
9
 73
5
 74
0
 42
0.0000001
 43
0.0000001
 44
0.0000000001
 40
0.0
 40
0.0
 40
0.0
 40
0.0
 40
0.4980601845
 40
1.0
 40
1.0
 40
1.0
 40
1.0
 10
299.9136165797
 20
352.697824148
 30
0.0
 10
299.9117124349
 20
352.761032769
 30
0.0
 10
299.8830250331
 20
352.8883065375
 30
0.0
 10
299.8093335902
 20
352.9958117749
 30
0.0
 10
299.7642710613
 20
353.0408769084
 30
0.0
  0
SPLINE
  5
5EA
100
AcDbEntity
  8
7_ALL_FEATURES
100
AcDbSpline
 62
9
  6
CONTINUOUS
 70
0
 71
3
 72
9
 73
5
 74
0
 42
0.0000001
 43
0.0000001
 44
0.0000000001
 40
0.0
 40
0.0
 40
0.0
 40
0.0
 40
0.5019397361
 40
1.0
 40
1.0
 40
1.0
 40
1.0
 10
299.7642710613
 20
353.0408769084
 30
0.0
 10
299.7192085395
 20
353.0859420348
 30
0.0
 10
299.6117075649
 20
353.1596396934
 30
0.0
 10
299.4844354542
 20
353.1883344557
 30
0.0
 10
299.4212269332
 20
353.1902422541
 30
0.0
  0
SPLINE
  5
5EB
100
AcDbEntity
  8
7_ALL_FEATURES
100
AcDbSpline
 62
9
  6
CONTINUOUS
 70
0
 71
3
 72
9
 73
5
 74
0
 42
0.0000001
 43
0.0000001
 44
0.0000000001
 40
0.0
 40
0.0
 40
0.0
 40
0.0
 40
0.4980663713
 40
1.0
 40
1.0
 40
1.0
 40
1.0
 10
299.4205268094
 20
328.9634478691
 30
0.0
 10
299.4837362079
 20
328.9653520373
 30
0.0
 10
299.611009924
 20
328.9940400027
 30
0.0
 10
299.7185149974
 20
329.0677314195
 30
0.0
 10
299.7635795699
 20
329.1127933874
 30
0.0
  0
SPLINE
  5
5EC
100
AcDbEntity
  8
7_ALL_FEATURES
100
AcDbSpline
 62
9
  6
CONTINUOUS
 70
0
 71
3
 72
9
 73
5
 74
0
 42
0.0000001
 43
0.0000001
 44
0.0000000001
 40
0.0
 40
0.0
 40
0.0
 40
0.0
 40
0.5019336287
 40
1.0
 40
1.0
 40
1.0
 40
1.0
 10
299.7635795699
 20
329.1127933874
 30
0.0
 10
299.8086441424
 20
329.1578553554
 30
0.0
 10
299.8823417725
 20
329.2653561694
 30
0.0
 10
299.911037094
 20
329.3926282272
 30
0.0
 10
299.9129449156
 20
329.4558375155
 30
0.0
  0
SPLINE
  5
5ED
100
AcDbEntity
  8
7_ALL_FEATURES
100
AcDbSpline
 62
9
  6
CONTINUOUS
 70
0
 71
3
 72
9
 73
5
 74
0
 42
0.0000001
 43
0.0000001
 44
0.0000000001
 40
0.0
 40
0.0
 40
0.0
 40
0.0
 40
0.4980601845
 40
1.0
 40
1.0
 40
1.0
 40
1.0
 10
275.6861505305
 20
329.4565376393
 30
0.0
 10
275.6880546754
 20
329.3933290183
 30
0.0
 10
275.7167420771
 20
329.2660552498
 30
0.0
 10
275.79043352
 20
329.1585500124
 30
0.0
 10
275.8354960489
 20
329.1134848789
 30
0.0
  0
SPLINE
  5
5EE
100
AcDbEntity
  8
7_ALL_FEATURES
100
AcDbSpline
 62
9
  6
CONTINUOUS
 70
0
 71
3
 72
9
 73
5
 74
0
 42
0.0000001
 43
0.0000001
 44
0.0000000001
 40
0.0
 40
0.0
 40
0.0
 40
0.0
 40
0.5019397361
 40
1.0
 40
1.0
 40
1.0
 40
1.0
 10
275.8354960489
 20
329.1134848789
 30
0.0
 10
275.8805585707
 20
329.0684197525
 30
0.0
 10
275.9880595453
 20
328.9947220938
 30
0.0
 10
276.115331656
 20
328.9660273316
 30
0.0
 10
276.178540177
 20
328.9641195332
 30
0.0
  0
SPLINE
  5
5EF
100
AcDbEntity
  8
7_ALL_FEATURES
100
AcDbSpline
 62
9
  6
CONTINUOUS
 70
0
 71
3
 72
9
 73
5
 74
0
 42
0.0000001
 43
0.0000001
 44
0.0000000001
 40
0.0
 40
0.0
 40
0.0
 40
0.0
 40
0.4980601845
 40
1.0
 40
1.0
 40
1.0
 40
1.0
 10
276.1792403008
 20
353.1909139182
 30
0.0
 10
276.1160316797
 20
353.1890097734
 30
0.0
 10
275.9887579113
 20
353.1603223716
 30
0.0
 10
275.8812526739
 20
353.0866309288
 30
0.0
 10
275.8361875404
 20
353.0415683998
 30
0.0
  0
SPLINE
  5
5F0
100
AcDbEntity
  8
7_ALL_FEATURES
100
AcDbSpline
 62
9
  6
CONTINUOUS
 70
0
 71
3
 72
9
 73
5
 74
0
 42
0.0000001
 43
0.0000001
 44
0.0000000001
 40
0.0
 40
0.0
 40
0.0
 40
0.0
 40
0.5019397361
 40
1.0
 40
1.0
 40
1.0
 40
1.0
 10
275.8361875404
 20
353.0415683998
 30
0.0
 10
275.791122414
 20
352.996505878
 30
0.0
 10
275.7174247553
 20
352.8890049034
 30
0.0
 10
275.6887299931
 20
352.7617327927
 30
0.0
 10
275.6868221947
 20
352.6985242718
 30
0.0
  0
SPLINE
  5
5F1
100
AcDbEntity
  8
7_ALL_FEATURES
100
AcDbSpline
 62
9
  6
CONTINUOUS
 70
0
 71
3
 72
9
 73
5
 74
0
 42
0.0000001
 43
0.0000001
 44
0.0000000001
 40
0.0
 40
0.0
 40
0.0
 40
0.0
 40
0.4980601845
 40
1.0
 40
1.0
 40
1.0
 40
1.0
 10
339.9136165797
 20
352.697824148
 30
0.0
 10
339.9117124349
 20
352.761032769
 30
0.0
 10
339.8830250331
 20
352.8883065375
 30
0.0
 10
339.8093335902
 20
352.9958117749
 30
0.0
 10
339.7642710613
 20
353.0408769084
 30
0.0
  0
SPLINE
  5
5F2
100
AcDbEntity
  8
7_ALL_FEATURES
100
AcDbSpline
 62
9
  6
CONTINUOUS
 70
0
 71
3
 72
9
 73
5
 74
0
 42
0.0000001
 43
0.0000001
 44
0.0000000001
 40
0.0
 40
0.0
 40
0.0
 40
0.0
 40
0.5019397361
 40
1.0
 40
1.0
 40
1.0
 40
1.0
 10
339.7642710613
 20
353.0408769084
 30
0.0
 10
339.7192085395
 20
353.0859420348
 30
0.0
 10
339.6117075649
 20
353.1596396934
 30
0.0
 10
339.4844354542
 20
353.1883344557
 30
0.0
 10
339.4212269332
 20
353.1902422541
 30
0.0
  0
SPLINE
  5
5F3
100
AcDbEntity
  8
7_ALL_FEATURES
100
AcDbSpline
 62
9
  6
CONTINUOUS
 70
0
 71
3
 72
9
 73
5
 74
0
 42
0.0000001
 43
0.0000001
 44
0.0000000001
 40
0.0
 40
0.0
 40
0.0
 40
0.0
 40
0.4980663713
 40
1.0
 40
1.0
 40
1.0
 40
1.0
 10
339.4205268094
 20
328.9634478691
 30
0.0
 10
339.4837362079
 20
328.9653520373
 30
0.0
 10
339.611009924
 20
328.9940400027
 30
0.0
 10
339.7185149974
 20
329.0677314195
 30
0.0
 10
339.7635795699
 20
329.1127933874
 30
0.0
  0
SPLINE
  5
5F4
100
AcDbEntity
  8
7_ALL_FEATURES
100
AcDbSpline
 62
9
  6
CONTINUOUS
 70
0
 71
3
 72
9
 73
5
 74
0
 42
0.0000001
 43
0.0000001
 44
0.0000000001
 40
0.0
 40
0.0
 40
0.0
 40
0.0
 40
0.5019336287
 40
1.0
 40
1.0
 40
1.0
 40
1.0
 10
339.7635795699
 20
329.1127933874
 30
0.0
 10
339.8086441424
 20
329.1578553554
 30
0.0
 10
339.8823417725
 20
329.2653561694
 30
0.0
 10
339.911037094
 20
329.3926282272
 30
0.0
 10
339.9129449156
 20
329.4558375155
 30
0.0
  0
SPLINE
  5
5F5
100
AcDbEntity
  8
7_ALL_FEATURES
100
AcDbSpline
 62
9
  6
CONTINUOUS
 70
0
 71
3
 72
9
 73
5
 74
0
 42
0.0000001
 43
0.0000001
 44
0.0000000001
 40
0.0
 40
0.0
 40
0.0
 40
0.0
 40
0.4980601845
 40
1.0
 40
1.0
 40
1.0
 40
1.0
 10
315.6861505305
 20
329.4565376393
 30
0.0
 10
315.6880546754
 20
329.3933290183
 30
0.0
 10
315.7167420771
 20
329.2660552498
 30
0.0
 10
315.79043352
 20
329.1585500124
 30
0.0
 10
315.8354960489
 20
329.1134848789
 30
0.0
  0
SPLINE
  5
5F6
100
AcDbEntity
  8
7_ALL_FEATURES
100
AcDbSpline
 62
9
  6
CONTINUOUS
 70
0
 71
3
 72
9
 73
5
 74
0
 42
0.0000001
 43
0.0000001
 44
0.0000000001
 40
0.0
 40
0.0
 40
0.0
 40
0.0
 40
0.5019397361
 40
1.0
 40
1.0
 40
1.0
 40
1.0
 10
315.8354960489
 20
329.1134848789
 30
0.0
 10
315.8805585707
 20
329.0684197525
 30
0.0
 10
315.9880595453
 20
328.9947220938
 30
0.0
 10
316.115331656
 20
328.9660273316
 30
0.0
 10
316.178540177
 20
328.9641195332
 30
0.0
  0
SPLINE
  5
5F7
100
AcDbEntity
  8
7_ALL_FEATURES
100
AcDbSpline
 62
9
  6
CONTINUOUS
 70
0
 71
3
 72
9
 73
5
 74
0
 42
0.0000001
 43
0.0000001
 44
0.0000000001
 40
0.0
 40
0.0
 40
0.0
 40
0.0
 40
0.4980601845
 40
1.0
 40
1.0
 40
1.0
 40
1.0
 10
316.1792403008
 20
353.1909139182
 30
0.0
 10
316.1160316797
 20
353.1890097734
 30
0.0
 10
315.9887579113
 20
353.1603223716
 30
0.0
 10
315.8812526739
 20
353.0866309288
 30
0.0
 10
315.8361875404
 20
353.0415683998
 30
0.0
  0
SPLINE
  5
5F8
100
AcDbEntity
  8
7_ALL_FEATURES
100
AcDbSpline
 62
9
  6
CONTINUOUS
 70
0
 71
3
 72
9
 73
5
 74
0
 42
0.0000001
 43
0.0000001
 44
0.0000000001
 40
0.0
 40
0.0
 40
0.0
 40
0.0
 40
0.5019397361
 40
1.0
 40
1.0
 40
1.0
 40
1.0
 10
315.8361875404
 20
353.0415683998
 30
0.0
 10
315.791122414
 20
352.996505878
 30
0.0
 10
315.7174247553
 20
352.8890049034
 30
0.0
 10
315.6887299931
 20
352.7617327927
 30
0.0
 10
315.6868221947
 20
352.6985242718
 30
0.0
  0
SPLINE
  5
5F9
100
AcDbEntity
  8
7_ALL_FEATURES
100
AcDbSpline
 62
9
  6
CONTINUOUS
 70
0
 71
3
 72
9
 73
5
 74
0
 42
0.0000001
 43
0.0000001
 44
0.0000000001
 40
0.0
 40
0.0
 40
0.0
 40
0.0
 40
0.4980601845
 40
1.0
 40
1.0
 40
1.0
 40
1.0
 10
379.9136165797
 20
352.697824148
 30
0.0
 10
379.9117124349
 20
352.761032769
 30
0.0
 10
379.8830250331
 20
352.8883065375
 30
0.0
 10
379.8093335902
 20
352.9958117749
 30
0.0
 10
379.7642710613
 20
353.0408769084
 30
0.0
  0
SPLINE
  5
5FA
100
AcDbEntity
  8
7_ALL_FEATURES
100
AcDbSpline
 62
9
  6
CONTINUOUS
 70
0
 71
3
 72
9
 73
5
 74
0
 42
0.0000001
 43
0.0000001
 44
0.0000000001
 40
0.0
 40
0.0
 40
0.0
 40
0.0
 40
0.5019397361
 40
1.0
 40
1.0
 40
1.0
 40
1.0
 10
379.7642710613
 20
353.0408769084
 30
0.0
 10
379.7192085395
 20
353.0859420348
 30
0.0
 10
379.6117075649
 20
353.1596396934
 30
0.0
 10
379.4844354542
 20
353.1883344557
 30
0.0
 10
379.4212269332
 20
353.1902422541
 30
0.0
  0
SPLINE
  5
5FB
100
AcDbEntity
  8
7_ALL_FEATURES
100
AcDbSpline
 62
9
  6
CONTINUOUS
 70
0
 71
3
 72
9
 73
5
 74
0
 42
0.0000001
 43
0.0000001
 44
0.0000000001
 40
0.0
 40
0.0
 40
0.0
 40
0.0
 40
0.4980663713
 40
1.0
 40
1.0
 40
1.0
 40
1.0
 10
379.4205268094
 20
328.9634478691
 30
0.0
 10
379.4837362079
 20
328.9653520373
 30
0.0
 10
379.611009924
 20
328.9940400027
 30
0.0
 10
379.7185149974
 20
329.0677314195
 30
0.0
 10
379.7635795699
 20
329.1127933874
 30
0.0
  0
SPLINE
  5
5FC
100
AcDbEntity
  8
7_ALL_FEATURES
100
AcDbSpline
 62
9
  6
CONTINUOUS
 70
0
 71
3
 72
9
 73
5
 74
0
 42
0.0000001
 43
0.0000001
 44
0.0000000001
 40
0.0
 40
0.0
 40
0.0
 40
0.0
 40
0.5019336287
 40
1.0
 40
1.0
 40
1.0
 40
1.0
 10
379.7635795699
 20
329.1127933874
 30
0.0
 10
379.8086441424
 20
329.1578553554
 30
0.0
 10
379.8823417725
 20
329.2653561694
 30
0.0
 10
379.911037094
 20
329.3926282272
 30
0.0
 10
379.9129449156
 20
329.4558375155
 30
0.0
  0
SPLINE
  5
5FD
100
AcDbEntity
  8
7_ALL_FEATURES
100
AcDbSpline
 62
9
  6
CONTINUOUS
 70
0
 71
3
 72
9
 73
5
 74
0
 42
0.0000001
 43
0.0000001
 44
0.0000000001
 40
0.0
 40
0.0
 40
0.0
 40
0.0
 40
0.4980601845
 40
1.0
 40
1.0
 40
1.0
 40
1.0
 10
355.6861505305
 20
329.4565376393
 30
0.0
 10
355.6880546754
 20
329.3933290183
 30
0.0
 10
355.7167420771
 20
329.2660552498
 30
0.0
 10
355.79043352
 20
329.1585500124
 30
0.0
 10
355.8354960489
 20
329.1134848789
 30
0.0
  0
SPLINE
  5
5FE
100
AcDbEntity
  8
7_ALL_FEATURES
100
AcDbSpline
 62
9
  6
CONTINUOUS
 70
0
 71
3
 72
9
 73
5
 74
0
 42
0.0000001
 43
0.0000001
 44
0.0000000001
 40
0.0
 40
0.0
 40
0.0
 40
0.0
 40
0.5019397361
 40
1.0
 40
1.0
 40
1.0
 40
1.0
 10
355.8354960489
 20
329.1134848789
 30
0.0
 10
355.8805585707
 20
329.0684197525
 30
0.0
 10
355.9880595453
 20
328.9947220938
 30
0.0
 10
356.115331656
 20
328.9660273316
 30
0.0
 10
356.178540177
 20
328.9641195332
 30
0.0
  0
SPLINE
  5
5FF
100
AcDbEntity
  8
7_ALL_FEATURES
100
AcDbSpline
 62
9
  6
CONTINUOUS
 70
0
 71
3
 72
9
 73
5
 74
0
 42
0.0000001
 43
0.0000001
 44
0.0000000001
 40
0.0
 40
0.0
 40
0.0
 40
0.0
 40
0.4980601845
 40
1.0
 40
1.0
 40
1.0
 40
1.0
 10
356.1792403008
 20
353.1909139182
 30
0.0
 10
356.1160316797
 20
353.1890097734
 30
0.0
 10
355.9887579113
 20
353.1603223716
 30
0.0
 10
355.8812526739
 20
353.0866309288
 30
0.0
 10
355.8361875404
 20
353.0415683998
 30
0.0
  0
SPLINE
  5
600
100
AcDbEntity
  8
7_ALL_FEATURES
100
AcDbSpline
 62
9
  6
CONTINUOUS
 70
0
 71
3
 72
9
 73
5
 74
0
 42
0.0000001
 43
0.0000001
 44
0.0000000001
 40
0.0
 40
0.0
 40
0.0
 40
0.0
 40
0.5019397361
 40
1.0
 40
1.0
 40
1.0
 40
1.0
 10
355.8361875404
 20
353.0415683998
 30
0.0
 10
355.791122414
 20
352.996505878
 30
0.0
 10
355.7174247553
 20
352.8890049034
 30
0.0
 10
355.6887299931
 20
352.7617327927
 30
0.0
 10
355.6868221947
 20
352.6985242718
 30
0.0
  0
SPLINE
  5
601
100
AcDbEntity
  8
7_ALL_FEATURES
100
AcDbSpline
 62
3
  6
CONTINUOUS
 70
0
 71
3
 72
11
 73
7
 74
0
 42
0.0000001
 43
0.0000001
 44
0.0000000001
 40
0.0
 40
0.0
 40
0.0
 40
0.0
 40
0.2462689117
 40
0.4947142437
 40
0.746255277
 40
1.0
 40
1.0
 40
1.0
 40
1.0
 10
472.1012080504
 20
175.593318095
 30
0.0
 10
472.1012080504
 20
175.4672311986
 30
0.0
 10
472.1538598859
 20
175.2110527337
 30
0.0
 10
472.3776264663
 20
174.8892559298
 30
0.0
 10
472.709887015
 20
174.6750083893
 30
0.0
 10
472.9712936232
 20
174.6251704546
 30
0.0
 10
473.1012080504
 20
174.6251704546
 30
0.0
  0
SPLINE
  5
602
100
AcDbEntity
  8
7_ALL_FEATURES
100
AcDbSpline
 62
3
  6
CONTINUOUS
 70
0
 71
3
 72
11
 73
7
 74
0
 42
0.0000001
 43
0.0000001
 44
0.0000000001
 40
0.0
 40
0.0
 40
0.0
 40
0.0
 40
0.253744723
 40
0.5052857563
 40
0.7537310883
 40
1.0
 40
1.0
 40
1.0
 40
1.0
 10
501.1012080504
 20
174.6251704546
 30
0.0
 10
501.2311224776
 20
174.6251704546
 30
0.0
 10
501.4925290858
 20
174.6750083893
 30
0.0
 10
501.8247896345
 20
174.8892559298
 30
0.0
 10
502.0485562149
 20
175.2110527337
 30
0.0
 10
502.1012080504
 20
175.4672311986
 30
0.0
 10
502.1012080504
 20
175.593318095
 30
0.0
  0
ELLIPSE
  5
603
100
AcDbEntity
  8
7_ALL_FEATURES
100
AcDbEllipse
 62
7
  6
CONTINUOUS
 10
193.4575807688
 20
326.7357070323
 30
0.0
 11
0.7073426296
 21
0.7073017482
 31
0.0
 40
0.9996954599
 41
2.3563434562
 42
3.926854846
  0
ELLIPSE
  5
604
100
AcDbEntity
  8
7_ALL_FEATURES
100
AcDbEllipse
 62
7
  6
CONTINUOUS
 10
222.1413574165
 20
326.7348781073
 30
0.0
 11
-0.7073017482
 21
0.7073426296
 31
0.0
 40
0.9996954599
 41
-3.9268418509
 42
-2.3563304611
  0
ELLIPSE
  5
605
100
AcDbEntity
  8
7_ALL_FEATURES
100
AcDbEllipse
 62
7
  6
CONTINUOUS
 10
222.1596419108
 20
355.4361093155
 30
0.0
 11
-0.7073426296
 21
-0.7073017482
 31
0.0
 40
0.9996954599
 41
2.3563467835
 42
3.9268385237
  0
ELLIPSE
  5
606
100
AcDbEntity
  8
7_ALL_FEATURES
100
AcDbEllipse
 62
7
  6
CONTINUOUS
 10
193.4584096937
 20
355.41948368
 30
0.0
 11
-0.7073017482
 21
0.7073426296
 31
0.0
 40
0.9996954599
 41
-0.7852489647
 42
0.7852623818
  0
ELLIPSE
  5
607
100
AcDbEntity
  8
7_ALL_FEATURES
100
AcDbEllipse
 62
7
  6
CONTINUOUS
 10
193.4784814281
 20
355.3994107856
 30
0.0
 11
-0.3643694925
 21
0.3643905528
 31
0.0
 40
0.9702875252
 41
-0.7703190329
 42
0.7703190329
  0
ELLIPSE
  5
608
100
AcDbEntity
  8
7_ALL_FEATURES
100
AcDbEllipse
 62
7
  6
CONTINUOUS
 10
222.122113447
 20
355.3985830207
 30
0.0
 11
0.3643905528
 21
0.3643694925
 31
0.0
 40
0.9702875252
 41
-0.7703190329
 42
0.7703190329
  0
ELLIPSE
  5
609
100
AcDbEntity
  8
7_ALL_FEATURES
100
AcDbEllipse
 62
7
  6
CONTINUOUS
 10
222.1212856822
 20
326.7549510017
 30
0.0
 11
-0.3643694925
 21
0.3643905528
 31
0.0
 40
0.9702875252
 41
-3.9119116865
 42
-2.3712736207
  0
ELLIPSE
  5
60A
100
AcDbEntity
  8
7_ALL_FEATURES
100
AcDbEllipse
 62
7
  6
CONTINUOUS
 10
193.4776536632
 20
326.7557787666
 30
0.0
 11
0.3643905528
 21
0.3643694925
 31
0.0
 40
0.9702875252
 41
2.3712736207
 42
3.9119116865
  0
ELLIPSE
  5
60B
100
AcDbEntity
  8
7_ALL_FEATURES
100
AcDbEllipse
 62
7
  6
CONTINUOUS
 10
222.1421863415
 20
355.418654755
 30
0.0
 11
-0.7073426296
 21
-0.7073017482
 31
0.0
 40
0.9996954599
 41
2.3563305032
 42
3.9268418423
  0
ELLIPSE
  5
60C
100
AcDbEntity
  8
7_ALL_FEATURES
100
AcDbEllipse
 62
7
  6
CONTINUOUS
 10
222.158811977
 20
326.7174225379
 30
0.0
 11
-0.7073017482
 21
0.7073426296
 31
0.0
 40
0.9996954599
 41
-3.9268385237
 42
-2.3563467835
  0
ELLIPSE
  5
60D
100
AcDbEntity
  8
7_ALL_FEATURES
100
AcDbEllipse
 62
7
  6
CONTINUOUS
 10
193.4401251994
 20
326.7182524718
 30
0.0
 11
0.7073426296
 21
0.7073017482
 31
0.0
 40
0.9996954599
 41
2.3563467835
 42
3.9268385237
  0
ELLIPSE
  5
60E
100
AcDbEntity
  8
7_ALL_FEATURES
100
AcDbEllipse
 62
7
  6
CONTINUOUS
 10
193.4409551333
 20
355.4369392493
 30
0.0
 11
-0.7073017482
 21
0.7073426296
 31
0.0
 40
0.9996954599
 41
-0.7852458701
 42
0.7852458701
  0
ELLIPSE
  5
60F
100
AcDbEntity
  8
7_ALL_FEATURES
100
AcDbEllipse
 62
7
  6
CONTINUOUS
 10
153.4575807688
 20
326.7357070323
 30
0.0
 11
0.7073426296
 21
0.7073017482
 31
0.0
 40
0.9996954599
 41
2.3563434562
 42
3.926854846
  0
ELLIPSE
  5
610
100
AcDbEntity
  8
7_ALL_FEATURES
100
AcDbEllipse
 62
7
  6
CONTINUOUS
 10
182.1413574165
 20
326.7348781073
 30
0.0
 11
-0.7073017482
 21
0.7073426296
 31
0.0
 40
0.9996954599
 41
-3.9268418509
 42
-2.3563304611
  0
ELLIPSE
  5
611
100
AcDbEntity
  8
7_ALL_FEATURES
100
AcDbEllipse
 62
7
  6
CONTINUOUS
 10
182.1596419108
 20
355.4361093155
 30
0.0
 11
-0.7073426296
 21
-0.7073017482
 31
0.0
 40
0.9996954599
 41
2.3563467835
 42
3.9268385237
  0
ELLIPSE
  5
612
100
AcDbEntity
  8
7_ALL_FEATURES
100
AcDbEllipse
 62
7
  6
CONTINUOUS
 10
153.4584096937
 20
355.41948368
 30
0.0
 11
-0.7073017482
 21
0.7073426296
 31
0.0
 40
0.9996954599
 41
-0.7852489647
 42
0.7852623818
  0
ELLIPSE
  5
613
100
AcDbEntity
  8
7_ALL_FEATURES
100
AcDbEllipse
 62
7
  6
CONTINUOUS
 10
153.4784814281
 20
355.3994107856
 30
0.0
 11
-0.3643694925
 21
0.3643905528
 31
0.0
 40
0.9702875252
 41
-0.7703190329
 42
0.7703190329
  0
ELLIPSE
  5
614
100
AcDbEntity
  8
7_ALL_FEATURES
100
AcDbEllipse
 62
7
  6
CONTINUOUS
 10
182.122113447
 20
355.3985830207
 30
0.0
 11
0.3643905528
 21
0.3643694925
 31
0.0
 40
0.9702875252
 41
-0.7703190329
 42
0.7703190329
  0
ELLIPSE
  5
615
100
AcDbEntity
  8
7_ALL_FEATURES
100
AcDbEllipse
 62
7
  6
CONTINUOUS
 10
182.1212856822
 20
326.7549510017
 30
0.0
 11
-0.3643694925
 21
0.3643905528
 31
0.0
 40
0.9702875252
 41
-3.9119116865
 42
-2.3712736207
  0
ELLIPSE
  5
616
100
AcDbEntity
  8
7_ALL_FEATURES
100
AcDbEllipse
 62
7
  6
CONTINUOUS
 10
153.4776536632
 20
326.7557787666
 30
0.0
 11
0.3643905528
 21
0.3643694925
 31
0.0
 40
0.9702875252
 41
2.3712736207
 42
3.9119116865
  0
ELLIPSE
  5
617
100
AcDbEntity
  8
7_ALL_FEATURES
100
AcDbEllipse
 62
7
  6
CONTINUOUS
 10
182.1421863415
 20
355.418654755
 30
0.0
 11
-0.7073426296
 21
-0.7073017482
 31
0.0
 40
0.9996954599
 41
2.3563305032
 42
3.9268418423
  0
ELLIPSE
  5
618
100
AcDbEntity
  8
7_ALL_FEATURES
100
AcDbEllipse
 62
7
  6
CONTINUOUS
 10
182.158811977
 20
326.7174225379
 30
0.0
 11
-0.7073017482
 21
0.7073426296
 31
0.0
 40
0.9996954599
 41
-3.9268385237
 42
-2.3563467835
  0
ELLIPSE
  5
619
100
AcDbEntity
  8
7_ALL_FEATURES
100
AcDbEllipse
 62
7
  6
CONTINUOUS
 10
153.4401251994
 20
326.7182524718
 30
0.0
 11
0.7073426296
 21
0.7073017482
 31
0.0
 40
0.9996954599
 41
2.3563467835
 42
3.9268385237
  0
ELLIPSE
  5
61A
100
AcDbEntity
  8
7_ALL_FEATURES
100
AcDbEllipse
 62
7
  6
CONTINUOUS
 10
153.4409551333
 20
355.4369392493
 30
0.0
 11
-0.7073017482
 21
0.7073426296
 31
0.0
 40
0.9996954599
 41
-0.7852458701
 42
0.7852458701
  0
ELLIPSE
  5
61B
100
AcDbEntity
  8
7_ALL_FEATURES
100
AcDbEllipse
 62
7
  6
CONTINUOUS
 10
113.4575807688
 20
326.7357070323
 30
0.0
 11
0.7073426296
 21
0.7073017482
 31
0.0
 40
0.9996954599
 41
2.3563434562
 42
3.926854846
  0
ELLIPSE
  5
61C
100
AcDbEntity
  8
7_ALL_FEATURES
100
AcDbEllipse
 62
7
  6
CONTINUOUS
 10
142.1413574165
 20
326.7348781073
 30
0.0
 11
-0.7073017482
 21
0.7073426296
 31
0.0
 40
0.9996954599
 41
-3.9268418509
 42
-2.3563304611
  0
ELLIPSE
  5
61D
100
AcDbEntity
  8
7_ALL_FEATURES
100
AcDbEllipse
 62
7
  6
CONTINUOUS
 10
142.1596419108
 20
355.4361093155
 30
0.0
 11
-0.7073426296
 21
-0.7073017482
 31
0.0
 40
0.9996954599
 41
2.3563467835
 42
3.9268385237
  0
ELLIPSE
  5
61E
100
AcDbEntity
  8
7_ALL_FEATURES
100
AcDbEllipse
 62
7
  6
CONTINUOUS
 10
113.4584096937
 20
355.41948368
 30
0.0
 11
-0.7073017482
 21
0.7073426296
 31
0.0
 40
0.9996954599
 41
-0.7852489647
 42
0.7852623818
  0
ELLIPSE
  5
61F
100
AcDbEntity
  8
7_ALL_FEATURES
100
AcDbEllipse
 62
7
  6
CONTINUOUS
 10
113.4784814281
 20
355.3994107856
 30
0.0
 11
-0.3643694925
 21
0.3643905528
 31
0.0
 40
0.9702875252
 41
-0.7703190329
 42
0.7703190329
  0
ELLIPSE
  5
620
100
AcDbEntity
  8
7_ALL_FEATURES
100
AcDbEllipse
 62
7
  6
CONTINUOUS
 10
142.122113447
 20
355.3985830207
 30
0.0
 11
0.3643905528
 21
0.3643694925
 31
0.0
 40
0.9702875252
 41
-0.7703190329
 42
0.7703190329
  0
ELLIPSE
  5
621
100
AcDbEntity
  8
7_ALL_FEATURES
100
AcDbEllipse
 62
7
  6
CONTINUOUS
 10
142.1212856822
 20
326.7549510017
 30
0.0
 11
-0.3643694925
 21
0.3643905528
 31
0.0
 40
0.9702875252
 41
-3.9119116865
 42
-2.3712736207
  0
ELLIPSE
  5
622
100
AcDbEntity
  8
7_ALL_FEATURES
100
AcDbEllipse
 62
7
  6
CONTINUOUS
 10
113.4776536632
 20
326.7557787666
 30
0.0
 11
0.3643905528
 21
0.3643694925
 31
0.0
 40
0.9702875252
 41
2.3712736207
 42
3.9119116865
  0
ELLIPSE
  5
623
100
AcDbEntity
  8
7_ALL_FEATURES
100
AcDbEllipse
 62
7
  6
CONTINUOUS
 10
142.1421863415
 20
355.418654755
 30
0.0
 11
-0.7073426296
 21
-0.7073017482
 31
0.0
 40
0.9996954599
 41
2.3563305032
 42
3.9268418423
  0
ELLIPSE
  5
624
100
AcDbEntity
  8
7_ALL_FEATURES
100
AcDbEllipse
 62
7
  6
CONTINUOUS
 10
142.158811977
 20
326.7174225379
 30
0.0
 11
-0.7073017482
 21
0.7073426296
 31
0.0
 40
0.9996954599
 41
-3.9268385237
 42
-2.3563467835
  0
ELLIPSE
  5
625
100
AcDbEntity
  8
7_ALL_FEATURES
100
AcDbEllipse
 62
7
  6
CONTINUOUS
 10
113.4401251994
 20
326.7182524718
 30
0.0
 11
0.7073426296
 21
0.7073017482
 31
0.0
 40
0.9996954599
 41
2.3563467835
 42
3.9268385237
  0
ELLIPSE
  5
626
100
AcDbEntity
  8
7_ALL_FEATURES
100
AcDbEllipse
 62
7
  6
CONTINUOUS
 10
113.4409551333
 20
355.4369392493
 30
0.0
 11
-0.7073017482
 21
0.7073426296
 31
0.0
 40
0.9996954599
 41
-0.7852458701
 42
0.7852458701
  0
ELLIPSE
  5
627
100
AcDbEntity
  8
7_ALL_FEATURES
100
AcDbEllipse
 62
7
  6
CONTINUOUS
 10
73.4575807688
 20
326.7357070323
 30
0.0
 11
0.7073426296
 21
0.7073017482
 31
0.0
 40
0.9996954599
 41
2.3563434562
 42
3.926854846
  0
ELLIPSE
  5
628
100
AcDbEntity
  8
7_ALL_FEATURES
100
AcDbEllipse
 62
7
  6
CONTINUOUS
 10
102.1413574165
 20
326.7348781073
 30
0.0
 11
-0.7073017482
 21
0.7073426296
 31
0.0
 40
0.9996954599
 41
-3.9268418509
 42
-2.3563304611
  0
ELLIPSE
  5
629
100
AcDbEntity
  8
7_ALL_FEATURES
100
AcDbEllipse
 62
7
  6
CONTINUOUS
 10
102.1596419108
 20
355.4361093155
 30
0.0
 11
-0.7073426296
 21
-0.7073017482
 31
0.0
 40
0.9996954599
 41
2.3563467835
 42
3.9268385237
  0
ELLIPSE
  5
62A
100
AcDbEntity
  8
7_ALL_FEATURES
100
AcDbEllipse
 62
7
  6
CONTINUOUS
 10
73.4584096937
 20
355.41948368
 30
0.0
 11
-0.7073017482
 21
0.7073426296
 31
0.0
 40
0.9996954599
 41
-0.7852489647
 42
0.7852623818
  0
ELLIPSE
  5
62B
100
AcDbEntity
  8
7_ALL_FEATURES
100
AcDbEllipse
 62
7
  6
CONTINUOUS
 10
73.4784814281
 20
355.3994107856
 30
0.0
 11
-0.3643694925
 21
0.3643905528
 31
0.0
 40
0.9702875252
 41
-0.7703190329
 42
0.7703190329
  0
ELLIPSE
  5
62C
100
AcDbEntity
  8
7_ALL_FEATURES
100
AcDbEllipse
 62
7
  6
CONTINUOUS
 10
102.122113447
 20
355.3985830207
 30
0.0
 11
0.3643905528
 21
0.3643694925
 31
0.0
 40
0.9702875252
 41
-0.7703190329
 42
0.7703190329
  0
ELLIPSE
  5
62D
100
AcDbEntity
  8
7_ALL_FEATURES
100
AcDbEllipse
 62
7
  6
CONTINUOUS
 10
102.1212856822
 20
326.7549510017
 30
0.0
 11
-0.3643694925
 21
0.3643905528
 31
0.0
 40
0.9702875252
 41
-3.9119116865
 42
-2.3712736207
  0
ELLIPSE
  5
62E
100
AcDbEntity
  8
7_ALL_FEATURES
100
AcDbEllipse
 62
7
  6
CONTINUOUS
 10
73.4776536632
 20
326.7557787666
 30
0.0
 11
0.3643905528
 21
0.3643694925
 31
0.0
 40
0.9702875252
 41
2.3712736207
 42
3.9119116865
  0
ELLIPSE
  5
62F
100
AcDbEntity
  8
7_ALL_FEATURES
100
AcDbEllipse
 62
7
  6
CONTINUOUS
 10
102.1421863415
 20
355.418654755
 30
0.0
 11
-0.7073426296
 21
-0.7073017482
 31
0.0
 40
0.9996954599
 41
2.3563305032
 42
3.9268418423
  0
ELLIPSE
  5
630
100
AcDbEntity
  8
7_ALL_FEATURES
100
AcDbEllipse
 62
7
  6
CONTINUOUS
 10
102.158811977
 20
326.7174225379
 30
0.0
 11
-0.7073017482
 21
0.7073426296
 31
0.0
 40
0.9996954599
 41
-3.9268385237
 42
-2.3563467835
  0
ELLIPSE
  5
631
100
AcDbEntity
  8
7_ALL_FEATURES
100
AcDbEllipse
 62
7
  6
CONTINUOUS
 10
73.4401251994
 20
326.7182524718
 30
0.0
 11
0.7073426296
 21
0.7073017482
 31
0.0
 40
0.9996954599
 41
2.3563467835
 42
3.9268385237
  0
ELLIPSE
  5
632
100
AcDbEntity
  8
7_ALL_FEATURES
100
AcDbEllipse
 62
7
  6
CONTINUOUS
 10
73.4409551333
 20
355.4369392493
 30
0.0
 11
-0.7073017482
 21
0.7073426296
 31
0.0
 40
0.9996954599
 41
-0.7852458701
 42
0.7852458701
  0
ELLIPSE
  5
633
100
AcDbEntity
  8
7_ALL_FEATURES
100
AcDbEllipse
 62
7
  6
CONTINUOUS
 10
233.4575807688
 20
326.7357070323
 30
0.0
 11
0.7073426296
 21
0.7073017482
 31
0.0
 40
0.9996954599
 41
2.3563434562
 42
3.926854846
  0
ELLIPSE
  5
634
100
AcDbEntity
  8
7_ALL_FEATURES
100
AcDbEllipse
 62
7
  6
CONTINUOUS
 10
262.1413574165
 20
326.7348781073
 30
0.0
 11
-0.7073017482
 21
0.7073426296
 31
0.0
 40
0.9996954599
 41
-3.9268418509
 42
-2.3563304611
  0
ELLIPSE
  5
635
100
AcDbEntity
  8
7_ALL_FEATURES
100
AcDbEllipse
 62
7
  6
CONTINUOUS
 10
262.1596419108
 20
355.4361093155
 30
0.0
 11
-0.7073426296
 21
-0.7073017482
 31
0.0
 40
0.9996954599
 41
2.3563467835
 42
3.9268385237
  0
ELLIPSE
  5
636
100
AcDbEntity
  8
7_ALL_FEATURES
100
AcDbEllipse
 62
7
  6
CONTINUOUS
 10
233.4584096937
 20
355.41948368
 30
0.0
 11
-0.7073017482
 21
0.7073426296
 31
0.0
 40
0.9996954599
 41
-0.7852489647
 42
0.7852623818
  0
ELLIPSE
  5
637
100
AcDbEntity
  8
7_ALL_FEATURES
100
AcDbEllipse
 62
7
  6
CONTINUOUS
 10
233.4784814281
 20
355.3994107856
 30
0.0
 11
-0.3643694925
 21
0.3643905528
 31
0.0
 40
0.9702875252
 41
-0.7703190329
 42
0.7703190329
  0
ELLIPSE
  5
638
100
AcDbEntity
  8
7_ALL_FEATURES
100
AcDbEllipse
 62
7
  6
CONTINUOUS
 10
262.122113447
 20
355.3985830207
 30
0.0
 11
0.3643905528
 21
0.3643694925
 31
0.0
 40
0.9702875252
 41
-0.7703190329
 42
0.7703190329
  0
ELLIPSE
  5
639
100
AcDbEntity
  8
7_ALL_FEATURES
100
AcDbEllipse
 62
7
  6
CONTINUOUS
 10
262.1212856822
 20
326.7549510017
 30
0.0
 11
-0.3643694925
 21
0.3643905528
 31
0.0
 40
0.9702875252
 41
-3.9119116865
 42
-2.3712736207
  0
ELLIPSE
  5
63A
100
AcDbEntity
  8
7_ALL_FEATURES
100
AcDbEllipse
 62
7
  6
CONTINUOUS
 10
233.4776536632
 20
326.7557787666
 30
0.0
 11
0.3643905528
 21
0.3643694925
 31
0.0
 40
0.9702875252
 41
2.3712736207
 42
3.9119116865
  0
ELLIPSE
  5
63B
100
AcDbEntity
  8
7_ALL_FEATURES
100
AcDbEllipse
 62
7
  6
CONTINUOUS
 10
262.1421863415
 20
355.418654755
 30
0.0
 11
-0.7073426296
 21
-0.7073017482
 31
0.0
 40
0.9996954599
 41
2.3563305032
 42
3.9268418423
  0
ELLIPSE
  5
63C
100
AcDbEntity
  8
7_ALL_FEATURES
100
AcDbEllipse
 62
7
  6
CONTINUOUS
 10
262.158811977
 20
326.7174225379
 30
0.0
 11
-0.7073017482
 21
0.7073426296
 31
0.0
 40
0.9996954599
 41
-3.9268385237
 42
-2.3563467835
  0
ELLIPSE
  5
63D
100
AcDbEntity
  8
7_ALL_FEATURES
100
AcDbEllipse
 62
7
  6
CONTINUOUS
 10
233.4401251994
 20
326.7182524718
 30
0.0
 11
0.7073426296
 21
0.7073017482
 31
0.0
 40
0.9996954599
 41
2.3563467835
 42
3.9268385237
  0
ELLIPSE
  5
63E
100
AcDbEntity
  8
7_ALL_FEATURES
100
AcDbEllipse
 62
7
  6
CONTINUOUS
 10
233.4409551333
 20
355.4369392493
 30
0.0
 11
-0.7073017482
 21
0.7073426296
 31
0.0
 40
0.9996954599
 41
-0.7852458701
 42
0.7852458701
  0
ELLIPSE
  5
63F
100
AcDbEntity
  8
7_ALL_FEATURES
100
AcDbEllipse
 62
7
  6
CONTINUOUS
 10
273.4575807688
 20
326.7357070323
 30
0.0
 11
0.7073426296
 21
0.7073017482
 31
0.0
 40
0.9996954599
 41
2.3563434562
 42
3.926854846
  0
ELLIPSE
  5
640
100
AcDbEntity
  8
7_ALL_FEATURES
100
AcDbEllipse
 62
7
  6
CONTINUOUS
 10
302.1413574165
 20
326.7348781073
 30
0.0
 11
-0.7073017482
 21
0.7073426296
 31
0.0
 40
0.9996954599
 41
-3.9268418509
 42
-2.3563304611
  0
ELLIPSE
  5
641
100
AcDbEntity
  8
7_ALL_FEATURES
100
AcDbEllipse
 62
7
  6
CONTINUOUS
 10
302.1596419108
 20
355.4361093155
 30
0.0
 11
-0.7073426296
 21
-0.7073017482
 31
0.0
 40
0.9996954599
 41
2.3563467835
 42
3.9268385237
  0
ELLIPSE
  5
642
100
AcDbEntity
  8
7_ALL_FEATURES
100
AcDbEllipse
 62
7
  6
CONTINUOUS
 10
273.4584096937
 20
355.41948368
 30
0.0
 11
-0.7073017482
 21
0.7073426296
 31
0.0
 40
0.9996954599
 41
-0.7852489647
 42
0.7852623818
  0
ELLIPSE
  5
643
100
AcDbEntity
  8
7_ALL_FEATURES
100
AcDbEllipse
 62
7
  6
CONTINUOUS
 10
273.4784814281
 20
355.3994107856
 30
0.0
 11
-0.3643694925
 21
0.3643905528
 31
0.0
 40
0.9702875252
 41
-0.7703190329
 42
0.7703190329
  0
ELLIPSE
  5
644
100
AcDbEntity
  8
7_ALL_FEATURES
100
AcDbEllipse
 62
7
  6
CONTINUOUS
 10
302.122113447
 20
355.3985830207
 30
0.0
 11
0.3643905528
 21
0.3643694925
 31
0.0
 40
0.9702875252
 41
-0.7703190329
 42
0.7703190329
  0
ELLIPSE
  5
645
100
AcDbEntity
  8
7_ALL_FEATURES
100
AcDbEllipse
 62
7
  6
CONTINUOUS
 10
302.1212856822
 20
326.7549510017
 30
0.0
 11
-0.3643694925
 21
0.3643905528
 31
0.0
 40
0.9702875252
 41
-3.9119116865
 42
-2.3712736207
  0
ELLIPSE
  5
646
100
AcDbEntity
  8
7_ALL_FEATURES
100
AcDbEllipse
 62
7
  6
CONTINUOUS
 10
273.4776536632
 20
326.7557787666
 30
0.0
 11
0.3643905528
 21
0.3643694925
 31
0.0
 40
0.9702875252
 41
2.3712736207
 42
3.9119116865
  0
ELLIPSE
  5
647
100
AcDbEntity
  8
7_ALL_FEATURES
100
AcDbEllipse
 62
7
  6
CONTINUOUS
 10
302.1421863415
 20
355.418654755
 30
0.0
 11
-0.7073426296
 21
-0.7073017482
 31
0.0
 40
0.9996954599
 41
2.3563305032
 42
3.9268418423
  0
ELLIPSE
  5
648
100
AcDbEntity
  8
7_ALL_FEATURES
100
AcDbEllipse
 62
7
  6
CONTINUOUS
 10
302.158811977
 20
326.7174225379
 30
0.0
 11
-0.7073017482
 21
0.7073426296
 31
0.0
 40
0.9996954599
 41
-3.9268385237
 42
-2.3563467835
  0
ELLIPSE
  5
649
100
AcDbEntity
  8
7_ALL_FEATURES
100
AcDbEllipse
 62
7
  6
CONTINUOUS
 10
273.4401251994
 20
326.7182524718
 30
0.0
 11
0.7073426296
 21
0.7073017482
 31
0.0
 40
0.9996954599
 41
2.3563467835
 42
3.9268385237
  0
ELLIPSE
  5
64A
100
AcDbEntity
  8
7_ALL_FEATURES
100
AcDbEllipse
 62
7
  6
CONTINUOUS
 10
273.4409551333
 20
355.4369392493
 30
0.0
 11
-0.7073017482
 21
0.7073426296
 31
0.0
 40
0.9996954599
 41
-0.7852458701
 42
0.7852458701
  0
ELLIPSE
  5
64B
100
AcDbEntity
  8
7_ALL_FEATURES
100
AcDbEllipse
 62
7
  6
CONTINUOUS
 10
313.4575807688
 20
326.7357070323
 30
0.0
 11
0.7073426296
 21
0.7073017482
 31
0.0
 40
0.9996954599
 41
2.3563434562
 42
3.926854846
  0
ELLIPSE
  5
64C
100
AcDbEntity
  8
7_ALL_FEATURES
100
AcDbEllipse
 62
7
  6
CONTINUOUS
 10
342.1413574165
 20
326.7348781073
 30
0.0
 11
-0.7073017482
 21
0.7073426296
 31
0.0
 40
0.9996954599
 41
-3.9268418509
 42
-2.3563304611
  0
ELLIPSE
  5
64D
100
AcDbEntity
  8
7_ALL_FEATURES
100
AcDbEllipse
 62
7
  6
CONTINUOUS
 10
342.1596419108
 20
355.4361093155
 30
0.0
 11
-0.7073426296
 21
-0.7073017482
 31
0.0
 40
0.9996954599
 41
2.3563467835
 42
3.9268385237
  0
ELLIPSE
  5
64E
100
AcDbEntity
  8
7_ALL_FEATURES
100
AcDbEllipse
 62
7
  6
CONTINUOUS
 10
313.4584096937
 20
355.41948368
 30
0.0
 11
-0.7073017482
 21
0.7073426296
 31
0.0
 40
0.9996954599
 41
-0.7852489647
 42
0.7852623818
  0
ELLIPSE
  5
64F
100
AcDbEntity
  8
7_ALL_FEATURES
100
AcDbEllipse
 62
7
  6
CONTINUOUS
 10
313.4784814281
 20
355.3994107856
 30
0.0
 11
-0.3643694925
 21
0.3643905528
 31
0.0
 40
0.9702875252
 41
-0.7703190329
 42
0.7703190329
  0
ELLIPSE
  5
650
100
AcDbEntity
  8
7_ALL_FEATURES
100
AcDbEllipse
 62
7
  6
CONTINUOUS
 10
342.122113447
 20
355.3985830207
 30
0.0
 11
0.3643905528
 21
0.3643694925
 31
0.0
 40
0.9702875252
 41
-0.7703190329
 42
0.7703190329
  0
ELLIPSE
  5
651
100
AcDbEntity
  8
7_ALL_FEATURES
100
AcDbEllipse
 62
7
  6
CONTINUOUS
 10
342.1212856822
 20
326.7549510017
 30
0.0
 11
-0.3643694925
 21
0.3643905528
 31
0.0
 40
0.9702875252
 41
-3.9119116865
 42
-2.3712736207
  0
ELLIPSE
  5
652
100
AcDbEntity
  8
7_ALL_FEATURES
100
AcDbEllipse
 62
7
  6
CONTINUOUS
 10
313.4776536632
 20
326.7557787666
 30
0.0
 11
0.3643905528
 21
0.3643694925
 31
0.0
 40
0.9702875252
 41
2.3712736207
 42
3.9119116865
  0
ELLIPSE
  5
653
100
AcDbEntity
  8
7_ALL_FEATURES
100
AcDbEllipse
 62
7
  6
CONTINUOUS
 10
342.1421863415
 20
355.418654755
 30
0.0
 11
-0.7073426296
 21
-0.7073017482
 31
0.0
 40
0.9996954599
 41
2.3563305032
 42
3.9268418423
  0
ELLIPSE
  5
654
100
AcDbEntity
  8
7_ALL_FEATURES
100
AcDbEllipse
 62
7
  6
CONTINUOUS
 10
342.158811977
 20
326.7174225379
 30
0.0
 11
-0.7073017482
 21
0.7073426296
 31
0.0
 40
0.9996954599
 41
-3.9268385237
 42
-2.3563467835
  0
ELLIPSE
  5
655
100
AcDbEntity
  8
7_ALL_FEATURES
100
AcDbEllipse
 62
7
  6
CONTINUOUS
 10
313.4401251994
 20
326.7182524718
 30
0.0
 11
0.7073426296
 21
0.7073017482
 31
0.0
 40
0.9996954599
 41
2.3563467835
 42
3.9268385237
  0
ELLIPSE
  5
656
100
AcDbEntity
  8
7_ALL_FEATURES
100
AcDbEllipse
 62
7
  6
CONTINUOUS
 10
313.4409551333
 20
355.4369392493
 30
0.0
 11
-0.7073017482
 21
0.7073426296
 31
0.0
 40
0.9996954599
 41
-0.7852458701
 42
0.7852458701
  0
ELLIPSE
  5
657
100
AcDbEntity
  8
7_ALL_FEATURES
100
AcDbEllipse
 62
7
  6
CONTINUOUS
 10
353.4575807688
 20
326.7357070323
 30
0.0
 11
0.7073426296
 21
0.7073017482
 31
0.0
 40
0.9996954599
 41
2.3563434562
 42
3.926854846
  0
ELLIPSE
  5
658
100
AcDbEntity
  8
7_ALL_FEATURES
100
AcDbEllipse
 62
7
  6
CONTINUOUS
 10
382.1413574165
 20
326.7348781073
 30
0.0
 11
-0.7073017482
 21
0.7073426296
 31
0.0
 40
0.9996954599
 41
-3.9268418509
 42
-2.3563304611
  0
ELLIPSE
  5
659
100
AcDbEntity
  8
7_ALL_FEATURES
100
AcDbEllipse
 62
7
  6
CONTINUOUS
 10
382.1596419108
 20
355.4361093155
 30
0.0
 11
-0.7073426296
 21
-0.7073017482
 31
0.0
 40
0.9996954599
 41
2.3563467835
 42
3.9268385237
  0
ELLIPSE
  5
65A
100
AcDbEntity
  8
7_ALL_FEATURES
100
AcDbEllipse
 62
7
  6
CONTINUOUS
 10
353.4584096937
 20
355.41948368
 30
0.0
 11
-0.7073017482
 21
0.7073426296
 31
0.0
 40
0.9996954599
 41
-0.7852489647
 42
0.7852623818
  0
ELLIPSE
  5
65B
100
AcDbEntity
  8
7_ALL_FEATURES
100
AcDbEllipse
 62
7
  6
CONTINUOUS
 10
353.4784814281
 20
355.3994107856
 30
0.0
 11
-0.3643694925
 21
0.3643905528
 31
0.0
 40
0.9702875252
 41
-0.7703190329
 42
0.7703190329
  0
ELLIPSE
  5
65C
100
AcDbEntity
  8
7_ALL_FEATURES
100
AcDbEllipse
 62
7
  6
CONTINUOUS
 10
382.122113447
 20
355.3985830207
 30
0.0
 11
0.3643905528
 21
0.3643694925
 31
0.0
 40
0.9702875252
 41
-0.7703190329
 42
0.7703190329
  0
ELLIPSE
  5
65D
100
AcDbEntity
  8
7_ALL_FEATURES
100
AcDbEllipse
 62
7
  6
CONTINUOUS
 10
382.1212856822
 20
326.7549510017
 30
0.0
 11
-0.3643694925
 21
0.3643905528
 31
0.0
 40
0.9702875252
 41
-3.9119116865
 42
-2.3712736207
  0
ELLIPSE
  5
65E
100
AcDbEntity
  8
7_ALL_FEATURES
100
AcDbEllipse
 62
7
  6
CONTINUOUS
 10
353.4776536632
 20
326.7557787666
 30
0.0
 11
0.3643905528
 21
0.3643694925
 31
0.0
 40
0.9702875252
 41
2.3712736207
 42
3.9119116865
  0
ELLIPSE
  5
65F
100
AcDbEntity
  8
7_ALL_FEATURES
100
AcDbEllipse
 62
7
  6
CONTINUOUS
 10
382.1421863415
 20
355.418654755
 30
0.0
 11
-0.7073426296
 21
-0.7073017482
 31
0.0
 40
0.9996954599
 41
2.3563305032
 42
3.9268418423
  0
ELLIPSE
  5
660
100
AcDbEntity
  8
7_ALL_FEATURES
100
AcDbEllipse
 62
7
  6
CONTINUOUS
 10
382.158811977
 20
326.7174225379
 30
0.0
 11
-0.7073017482
 21
0.7073426296
 31
0.0
 40
0.9996954599
 41
-3.9268385237
 42
-2.3563467835
  0
ELLIPSE
  5
661
100
AcDbEntity
  8
7_ALL_FEATURES
100
AcDbEllipse
 62
7
  6
CONTINUOUS
 10
353.4401251994
 20
326.7182524718
 30
0.0
 11
0.7073426296
 21
0.7073017482
 31
0.0
 40
0.9996954599
 41
2.3563467835
 42
3.9268385237
  0
ELLIPSE
  5
662
100
AcDbEntity
  8
7_ALL_FEATURES
100
AcDbEllipse
 62
7
  6
CONTINUOUS
 10
353.4409551333
 20
355.4369392493
 30
0.0
 11
-0.7073017482
 21
0.7073426296
 31
0.0
 40
0.9996954599
 41
-0.7852458701
 42
0.7852458701
  0
ENDSEC
  0
SECTION
  2
OBJECTS
  0
DICTIONARY
  5
663
100
AcDbDictionary
  3
ACAD_GROUP
350
664
  3
ACAD_MLINESTYLE
350
665
  0
DICTIONARY
  5
664
102
{ACAD_REACTORS
330
663
102
}
100
AcDbDictionary
  0
DICTIONARY
  5
665
102
{ACAD_REACTORS
330
663
102
}
100
AcDbDictionary
  3
STANDARD
350
666
  0
MLINESTYLE
  5
666
102
{ACAD_REACTORS
330
665
102
}
100
AcDbMlineStyle
  2
STANDARD
 70
0
  3

 62
256
 51
90.0
 52
90.0
 71
2
 49
0.5
 62
256
  6
BYLAYER
 49
-0.5
 62
256
  6
BYLAYER
  0
ENDSEC
  0
EOF
