  0
SECTION
  2
HEADER
  9
$ACADVER
  1
AC1024
  9
$ACADMAINTVER
 70
     6
  9
$DWGCODEPAGE
  3
ANSI_1252
  9
$INSBASE
 10
0.0
 20
0.0
 30
0.0
  9
$EXTMIN
 10
0.0
 20
0.0
 30
0.0
  9
$EXTMAX
 10
1189.0
 20
841.0
 30
0.0
  9
$LIMMIN
 10
0.0
 20
0.0
  9
$LIMMAX
 10
1189.0
 20
841.0
  9
$ORTHOMODE
 70
     0
  9
$REGENMODE
 70
     1
  9
$FILLMODE
 70
     1
  9
$QTEXTMODE
 70
     0
  9
$MIRRTEXT
 70
     1
  9
$LTSCALE
 40
65.395
  9
$ATTMODE
 70
     1
  9
$TEXTSIZE
 40
0.2
  9
$TRACEWID
 40
0.05
  9
$TEXTSTYLE
  7
STANDARD
  9
$CLAYER
  8
0
  9
$CELTYPE
  6
BYLAYER
  9
$CECOLOR
 62
   256
  9
$CELTSCALE
 40
1.0
  9
$DISPSILH
 70
     0
  9
$DIMSCALE
 40
1.0
  9
$DIMASZ
 40
2.5
  9
$DIMEXO
 40
0.75
  9
$DIMDLI
 40
45.182
  9
$DIMRND
 40
0.0
  9
$DIMDLE
 40
0.0
  9
$DIMEXE
 40
0.75
  9
$DIMTP
 40
0.01
  9
$DIMTM
 40
0.01
  9
$DIMTXT
 40
3.0
  9
$DIMCEN
 40
10.701
  9
$DIMTSZ
 40
0.0
  9
$DIMTOL
 70
     1
  9
$DIMLIM
 70
     0
  9
$DIMTIH
 70
     1
  9
$DIMTOH
 70
     1
  9
$DIMSE1
 70
     0
  9
$DIMSE2
 70
     0
  9
$DIMTAD
 70
     0
  9
$DIMZIN
 70
     0
  9
$DIMBLK
  1
CLOSED
  9
$DIMASO
 70
     1
  9
$DIMSHO
 70
     1
  9
$DIMPOST
  1

  9
$DIMAPOST
  1

  9
$DIMALT
 70
     0
  9
$DIMALTD
 70
     2
  9
$DIMALTF
 40
25.4
  9
$DIMLFAC
 40
1.0
  9
$DIMTOFL
 70
     0
  9
$DIMTVP
 40
0.0
  9
$DIMTIX
 70
     0
  9
$DIMSOXD
 70
     0
  9
$DIMSAH
 70
     0
  9
$DIMBLK1
  1

  9
$DIMBLK2
  1

  9
$DIMSTYLE
  2
STANDARD
  9
$DIMCLRD
 70
     0
  9
$DIMCLRE
 70
     0
  9
$DIMCLRT
 70
     0
  9
$DIMTFAC
 40
1.0
  9
$DIMGAP
 40
0.625
  9
$DIMJUST
 70
     0
  9
$DIMSD1
 70
     0
  9
$DIMSD2
 70
     0
  9
$DIMTOLJ
 70
     1
  9
$DIMTZIN
 70
     0
  9
$DIMALTZ
 70
     0
  9
$DIMALTTZ
 70
     0
  9
$DIMUPT
 70
     0
  9
$DIMDEC
 70
     4
  9
$DIMTDEC
 70
     4
  9
$DIMALTU
 70
     2
  9
$DIMALTTD
 70
     2
  9
$DIMTXSTY
  7
STANDARD
  9
$DIMAUNIT
 70
     0
  9
$DIMADEC
 70
     0
  9
$DIMALTRND
 40
0.0
  9
$DIMAZIN
 70
     0
  9
$DIMDSEP
 70
    44
  9
$DIMATFIT
 70
     3
  9
$DIMFRAC
 70
     0
  9
$DIMLDRBLK
  1

  9
$DIMLUNIT
 70
     2
  9
$DIMLWD
 70
    -2
  9
$DIMLWE
 70
    -2
  9
$DIMTMOVE
 70
     0
  9
$DIMFXL
 40
1.0
  9
$DIMFXLON
 70
     0
  9
$DIMJOGANG
 40
0.785398
  9
$DIMTFILL
 70
     0
  9
$DIMTFILLCLR
 70
     0
  9
$DIMARCSYM
 70
     0
  9
$DIMLTYPE
  6

  9
$DIMLTEX1
  6

  9
$DIMLTEX2
  6

  9
$DIMTXTDIRECTION
 70
     0
  9
$LUNITS
 70
     2
  9
$LUPREC
 70
     4
  9
$SKETCHINC
 40
0.1
  9
$FILLETRAD
 40
0.5
  9
$AUNITS
 70
     0
  9
$AUPREC
 70
     0
  9
$MENU
  1
.
  9
$ELEVATION
 40
0.0
  9
$PELEVATION
 40
0.0
  9
$THICKNESS
 40
0.0
  9
$LIMCHECK
 70
     0
  9
$CHAMFERA
 40
0.0
  9
$CHAMFERB
 40
0.0
  9
$CHAMFERC
 40
0.0
  9
$CHAMFERD
 40
0.0
  9
$SKPOLY
 70
     0
  9
$TDCREATE
 40
2447893.083333333
  9
$TDUCREATE
 40
0.0
  9
$TDUPDATE
 40
2459685.339379051
  9
$TDUUPDATE
 40
2459685.256045718
  9
$TDINDWG
 40
0.0
  9
$TDUSRTIMER
 40
0.0
  9
$USRTIMER
 70
     1
  9
$ANGBASE
 50
0.0
  9
$ANGDIR
 70
     0
  9
$PDMODE
 70
     3
  9
$PDSIZE
 40
0.3125
  9
$PLINEWID
 40
0.0
  9
$SPLFRAME
 70
     0
  9
$SPLINETYPE
 70
     6
  9
$SPLINESEGS
 70
     8
  9
$HANDSEED
  5
4B6
  9
$SURFTAB1
 70
     6
  9
$SURFTAB2
 70
     6
  9
$SURFTYPE
 70
     6
  9
$SURFU
 70
     6
  9
$SURFV
 70
     6
  9
$UCSBASE
  2

  9
$UCSNAME
  2

  9
$UCSORG
 10
0.0
 20
0.0
 30
0.0
  9
$UCSXDIR
 10
1.0
 20
0.0
 30
0.0
  9
$UCSYDIR
 10
0.0
 20
1.0
 30
0.0
  9
$UCSORTHOREF
  2

  9
$UCSORTHOVIEW
 70
     0
  9
$UCSORGTOP
 10
0.0
 20
0.0
 30
0.0
  9
$UCSORGBOTTOM
 10
0.0
 20
0.0
 30
0.0
  9
$UCSORGLEFT
 10
0.0
 20
0.0
 30
0.0
  9
$UCSORGRIGHT
 10
0.0
 20
0.0
 30
0.0
  9
$UCSORGFRONT
 10
0.0
 20
0.0
 30
0.0
  9
$UCSORGBACK
 10
0.0
 20
0.0
 30
0.0
  9
$PUCSBASE
  2

  9
$PUCSNAME
  2

  9
$PUCSORG
 10
0.0
 20
0.0
 30
0.0
  9
$PUCSXDIR
 10
1.0
 20
0.0
 30
0.0
  9
$PUCSYDIR
 10
0.0
 20
1.0
 30
0.0
  9
$PUCSORTHOREF
  2

  9
$PUCSORTHOVIEW
 70
     0
  9
$PUCSORGTOP
 10
0.0
 20
0.0
 30
0.0
  9
$PUCSORGBOTTOM
 10
0.0
 20
0.0
 30
0.0
  9
$PUCSORGLEFT
 10
0.0
 20
0.0
 30
0.0
  9
$PUCSORGRIGHT
 10
0.0
 20
0.0
 30
0.0
  9
$PUCSORGFRONT
 10
0.0
 20
0.0
 30
0.0
  9
$PUCSORGBACK
 10
0.0
 20
0.0
 30
0.0
  9
$USERI1
 70
     0
  9
$USERI2
 70
     0
  9
$USERI3
 70
     0
  9
$USERI4
 70
     0
  9
$USERI5
 70
     0
  9
$USERR1
 40
0.0
  9
$USERR2
 40
0.0
  9
$USERR3
 40
0.0
  9
$USERR4
 40
0.0
  9
$USERR5
 40
0.0
  9
$WORLDVIEW
 70
     1
  9
$SHADEDGE
 70
     3
  9
$SHADEDIF
 70
    70
  9
$TILEMODE
 70
     1
  9
$MAXACTVP
 70
    64
  9
$PINSBASE
 10
0.0
 20
0.0
 30
0.0
  9
$PLIMCHECK
 70
     0
  9
$PEXTMIN
 10
1.000000E+20
 20
1.000000E+20
 30
1.000000E+20
  9
$PEXTMAX
 10
-1.000000E+20
 20
-1.000000E+20
 30
-1.000000E+20
  9
$PLIMMIN
 10
0.0
 20
0.0
  9
$PLIMMAX
 10
12.0
 20
9.0
  9
$UNITMODE
 70
     0
  9
$VISRETAIN
 70
     1
  9
$PLINEGEN
 70
     0
  9
$PSLTSCALE
 70
     0
  9
$TREEDEPTH
 70
  3020
  9
$CMLSTYLE
  2

  9
$CMLJUST
 70
     0
  9
$CMLSCALE
 40
1.0
  9
$PROXYGRAPHICS
 70
     1
  9
$MEASUREMENT
 70
     1
  9
$CELWEIGHT
370
    -1
  9
$ENDCAPS
280
     0
  9
$JOINSTYLE
280
     0
  9
$LWDISPLAY
290
     0
  9
$INSUNITS
 70
     4
  9
$HYPERLINKBASE
  1

  9
$STYLESHEET
  1

  9
$XEDIT
290
     1
  9
$CEPSNTYPE
380
     0
  9
$PSTYLEMODE
290
     1
  9
$FINGERPRINTGUID
  2
{C5779912-60FF-47DA-A80E-86BB8EE413D2}
  9
$VERSIONGUID
  2
{FAEB1C32-E019-11D5-929B-00C0DF256EC4}
  9
$EXTNAMES
290
     1
  9
$PSVPSCALE
 40
0.0
  9
$OLESTARTUP
290
     0
  9
$SORTENTS
280
   127
  9
$INDEXCTL
280
     0
  9
$HIDETEXT
280
     1
  9
$XCLIPFRAME
280
     2
  9
$HALOGAP
280
     0
  9
$OBSCOLOR
 70
   257
  9
$OBSLTYPE
280
     0
  9
$INTERSECTIONDISPLAY
280
     0
  9
$INTERSECTIONCOLOR
 70
   257
  9
$DIMASSOC
280
     2
  9
$PROJECTNAME
  1

  9
$CAMERADISPLAY
290
     0
  9
$LENSLENGTH
 40
50.0
  9
$CAMERAHEIGHT
 40
0.0
  9
$STEPSPERSEC
 40
2.0
  9
$STEPSIZE
 40
6.0
  9
$3DDWFPREC
 40
2.0
  9
$PSOLWIDTH
 40
0.25
  9
$PSOLHEIGHT
 40
4.0
  9
$LOFTANG1
 40
1.570796
  9
$LOFTANG2
 40
1.570796
  9
$LOFTMAG1
 40
0.0
  9
$LOFTMAG2
 40
0.0
  9
$LOFTPARAM
 70
     7
  9
$LOFTNORMALS
280
     1
  9
$LATITUDE
 40
37.795
  9
$LONGITUDE
 40
-122.394
  9
$NORTHDIRECTION
 40
0.0
  9
$TIMEZONE
 70
 -8000
  9
$LIGHTGLYPHDISPLAY
280
     1
  9
$TILEMODELIGHTSYNCH
280
     1
  9
$SOLIDHIST
280
     1
  9
$SHOWHIST
280
     1
  9
$DWFFRAME
280
     2
  9
$DGNFRAME
280
     2
  9
$REALWORLDSCALE
290
     1
  9
$INTERFERECOLOR
 62
   256
  9
$CSHADOW
280
     0
  9
$SHADOWPLANELOCATION
 40
0.0
  0
ENDSEC
  0
SECTION
  2
CLASSES
  0
CLASS
  1
ACDBDICTIONARYWDFLT
  2
AcDbDictionaryWithDefault
  3
ObjectDBX Classes
 90
        0
 91
        6
280
     0
281
     0
  0
CLASS
  1
ACDBPLACEHOLDER
  2
AcDbPlaceHolder
  3
ObjectDBX Classes
 90
        0
 91
        1
280
     0
281
     0
  0
CLASS
  1
LAYOUT
  2
AcDbLayout
  3
ObjectDBX Classes
 90
        0
 91
        1
280
     0
281
     0
  0
CLASS
  1
TABLESTYLE
  2
AcDbTableStyle
  3
ObjectDBX Classes
 90
     4095
 91
        5
280
     0
281
     0
  0
CLASS
  1
ACAD_TABLE
  2
AcDbTable
  3
ObjectDBX Classes
 90
     1025
 91
        5
280
     0
281
     1
  0
CLASS
  1
SCALE
  2
AcDbScale
  3
ObjectDBX Classes
 90
     1153
 91
        5
280
     0
281
     0
  0
CLASS
  1
TABLEGEOMETRY
  2
AcDbTableGeometry
  3
ObjectDBX Classes
 90
     1152
 91
        4
280
     0
281
     0
  0
CLASS
  1
VISUALSTYLE
  2
AcDbVisualStyle
  3
ObjectDBX Classes
 90
     4095
 91
        5
280
     0
281
     0
  0
CLASS
  1
MATERIAL
  2
AcDbMaterial
  3
ObjectDBX Classes
 90
     1153
 91
        5
280
     0
281
     0
  0
CLASS
  1
SUN
  2
AcDbSun
  3
SCENEOE
 90
     1153
 91
        5
280
     0
281
     0
  0
CLASS
  1
CSACDOCUMENTOPTIONS
  2
CDocDataContainer
  3
"DERU003_CSAPP"
 90
     4095
 91
        4
280
     0
281
     0
  0
CLASS
  1
TABLECONTENT
  2
AcDbTableContent
  3
ObjectDBX Classes
 90
     1152
 91
        4
280
     0
281
     0
  0
CLASS
  1
DICTIONARYVAR
  2
AcDbDictionaryVar
  3
ObjectDBX Classes
 90
        0
 91
        4
280
     0
281
     0
  0
CLASS
  1
CELLSTYLEMAP
  2
AcDbCellStyleMap
  3
ObjectDBX Classes
 90
     1152
 91
        4
280
     0
281
     0
  0
ENDSEC
  0
SECTION
  2
TABLES
  0
TABLE
  2
VPORT
  5
8
330
0
100
AcDbSymbolTable
 70
     1
  0
VPORT
  5
1F4
330
8
100
AcDbSymbolTableRecord
100
AcDbViewportTableRecord
  2
*ACTIVE
 70
     0
 10
0.0
 20
0.0
 11
1.0
 21
1.0
 12
594.5
 22
420.5
 13
0.0
 23
0.0
 14
1.0
 24
1.0
 15
0.0
 25
0.0
 16
0.0
 26
0.0
 36
1.0
 17
0.0
 27
0.0
 37
0.0
 40
841.0
 41
2.176471
 42
50.0
 43
0.0
 44
0.0
 50
0.0
 51
0.0
 71
    16
 72
   100
 73
     1
 74
     1
 75
     0
 76
     0
 77
     0
 78
     0
281
     0
 65
     1
110
0.0
120
0.0
130
0.0
111
1.0
121
0.0
131
0.0
112
0.0
122
1.0
132
0.0
 79
     0
146
0.0
 60
     3
 61
     5
292
     1
282
     1
141
0.0
142
0.0
 63
   256
361
471
  0
ENDTAB
  0
TABLE
  2
LTYPE
  5
5
330
0
100
AcDbSymbolTable
 70
     6
  0
LTYPE
  5
14
330
5
100
AcDbSymbolTableRecord
100
AcDbLinetypeTableRecord
  2
BYBLOCK
 70
     0
  3

 72
    65
 73
     0
 40
0.0
  0
LTYPE
  5
15
330
5
100
AcDbSymbolTableRecord
100
AcDbLinetypeTableRecord
  2
BYLAYER
 70
     0
  3

 72
    65
 73
     0
 40
0.0
  0
LTYPE
  5
16
330
5
100
AcDbSymbolTableRecord
100
AcDbLinetypeTableRecord
  2
CONTINUOUS
 70
     0
  3
Solid line
 72
    65
 73
     0
 40
0.0
  0
LTYPE
  5
1F5
330
5
100
AcDbSymbolTableRecord
100
AcDbLinetypeTableRecord
  2
CENTER
 70
     0
  3
____ _ ____ _ ____ _ ____ _ ____ _ ____ _ ____
 72
    65
 73
     4
 40
0.6
 49
0.375
 74
     0
 49
-0.075
 74
     0
 49
0.075
 74
     0
 49
-0.075
 74
     0
  0
LTYPE
  5
1F6
330
5
100
AcDbSymbolTableRecord
100
AcDbLinetypeTableRecord
  2
HIDDEN
 70
     0
  3
- - - - - - - - - - - - - - - - - - - -
 72
    65
 73
     2
 40
0.2
 49
0.1
 74
     0
 49
-0.1
 74
     0
  0
LTYPE
  5
1F7
330
5
100
AcDbSymbolTableRecord
100
AcDbLinetypeTableRecord
  2
PHANTOM
 70
     0
  3
_____ _ _ _____ _ _ _____ _ _ _____
 72
    65
 73
     6
 40
0.8
 49
0.45
 74
     0
 49
-0.05
 74
     0
 49
0.1
 74
     0
 49
-0.05
 74
     0
 49
0.1
 74
     0
 49
-0.05
 74
     0
  0
LTYPE
  5
1F8
330
5
100
AcDbSymbolTableRecord
100
AcDbLinetypeTableRecord
  2
DOT
 70
     0
  3
. . . . . . . . . . . . . . . . . . . .
 72
    65
 73
     2
 40
0.2
 49
0.1
 74
     0
 49
-0.1
 74
     0
  0
LTYPE
  5
1F9
330
5
100
AcDbSymbolTableRecord
100
AcDbLinetypeTableRecord
  2
DASHED
 70
     0
  3
- - - - - - - - - - - - - - - - - - - -
 72
    65
 73
     2
 40
0.2
 49
0.1
 74
     0
 49
-0.1
 74
     0
  0
ENDTAB
  0
TABLE
  2
LAYER
  5
2
330
0
100
AcDbSymbolTable
 70
    56
  0
LAYER
  5
10
330
2
100
AcDbSymbolTableRecord
100
AcDbLayerTableRecord
  2
0
 70
     0
 62
     7
  6
CONTINUOUS
370
    -3
390
F
347
46B
  0
LAYER
  5
1FA
330
2
100
AcDbSymbolTableRecord
100
AcDbLayerTableRecord
  2
DEFAULT_1
 70
     0
 62
     7
  6
CENTER
370
    -3
390
F
347
46B
  0
LAYER
  5
1FB
330
2
100
AcDbSymbolTableRecord
100
AcDbLayerTableRecord
  2
DEFAULT_2
 70
     0
 62
     8
  6
HIDDEN
370
    -3
390
F
347
46B
  0
LAYER
  5
1FC
330
2
100
AcDbSymbolTableRecord
100
AcDbLayerTableRecord
  2
DEFAULT_3
 70
     0
 62
     7
  6
PHANTOM
370
    -3
390
F
347
46B
  0
LAYER
  5
1FD
330
2
100
AcDbSymbolTableRecord
100
AcDbLayerTableRecord
  2
15010647_00_1
 70
     0
 62
     7
  6
CONTINUOUS
370
    -3
390
F
347
46B
  0
LAYER
  5
1FE
330
2
100
AcDbSymbolTableRecord
100
AcDbLayerTableRecord
  2
1_ALL_PLANES
 70
     0
 62
     7
  6
CONTINUOUS
370
    -3
390
F
347
46B
  0
LAYER
  5
1FF
330
2
100
AcDbSymbolTableRecord
100
AcDbLayerTableRecord
  2
280-1_1
 70
     0
 62
     7
  6
CONTINUOUS
370
    -3
390
F
347
46B
  0
LAYER
  5
200
330
2
100
AcDbSymbolTableRecord
100
AcDbLayerTableRecord
  2
280-2_1
 70
     0
 62
     7
  6
CONTINUOUS
370
    -3
390
F
347
46B
  0
LAYER
  5
201
330
2
100
AcDbSymbolTableRecord
100
AcDbLayerTableRecord
  2
2_ALL_CSYS
 70
     0
 62
     7
  6
CONTINUOUS
370
    -3
390
F
347
46B
  0
LAYER
  5
202
330
2
100
AcDbSymbolTableRecord
100
AcDbLayerTableRecord
  2
3_ALL_AXES
 70
     0
 62
     7
  6
CONTINUOUS
370
    -3
390
F
347
46B
  0
LAYER
  5
203
330
2
100
AcDbSymbolTableRecord
100
AcDbLayerTableRecord
  2
4_ALL_POINTS
 70
     0
 62
     7
  6
CONTINUOUS
370
    -3
390
F
347
46B
  0
LAYER
  5
204
330
2
100
AcDbSymbolTableRecord
100
AcDbLayerTableRecord
  2
5_ALL_CURVES
 70
     0
 62
     7
  6
CONTINUOUS
370
    -3
390
F
347
46B
  0
LAYER
  5
205
330
2
100
AcDbSymbolTableRecord
100
AcDbLayerTableRecord
  2
5__COSTRUZIONE
 70
     0
 62
     7
  6
CONTINUOUS
370
    -3
390
F
347
46B
  0
LAYER
  5
206
330
2
100
AcDbSymbolTableRecord
100
AcDbLayerTableRecord
  2
5__FORI_BASE
 70
     0
 62
     7
  6
CONTINUOUS
370
    -3
390
F
347
46B
  0
LAYER
  5
207
330
2
100
AcDbSymbolTableRecord
100
AcDbLayerTableRecord
  2
5__IMPORTATO
 70
     0
 62
     7
  6
CONTINUOUS
370
    -3
390
F
347
46B
  0
LAYER
  5
208
330
2
100
AcDbSymbolTableRecord
100
AcDbLayerTableRecord
  2
5__IMP_2
 70
     0
 62
     7
  6
CONTINUOUS
370
    -3
390
F
347
46B
  0
LAYER
  5
209
330
2
100
AcDbSymbolTableRecord
100
AcDbLayerTableRecord
  2
6_ALL_SURFS
 70
     0
 62
     7
  6
CONTINUOUS
370
    -3
390
F
347
46B
  0
LAYER
  5
20A
330
2
100
AcDbSymbolTableRecord
100
AcDbLayerTableRecord
  2
7_ALL_FEATURES
 70
     0
 62
     7
  6
CONTINUOUS
370
    -3
390
F
347
46B
  0
LAYER
  5
20B
330
2
100
AcDbSymbolTableRecord
100
AcDbLayerTableRecord
  2
9_SOLID
 70
     0
 62
     7
  6
CONTINUOUS
370
    -3
390
F
347
46B
  0
LAYER
  5
20C
330
2
100
AcDbSymbolTableRecord
100
AcDbLayerTableRecord
  2
CLOSED_SHELL
 70
     0
 62
     7
  6
CONTINUOUS
370
    -3
390
F
347
46B
  0
LAYER
  5
20D
330
2
100
AcDbSymbolTableRecord
100
AcDbLayerTableRecord
  2
COLOR43
 70
     0
 62
     7
  6
CONTINUOUS
370
    -3
390
F
347
46B
  0
LAYER
  5
20E
330
2
100
AcDbSymbolTableRecord
100
AcDbLayerTableRecord
  2
COLOR47
 70
     0
 62
     7
  6
CONTINUOUS
370
    -3
390
F
347
46B
  0
LAYER
  5
20F
330
2
100
AcDbSymbolTableRecord
100
AcDbLayerTableRecord
  2
COLOR49
 70
     0
 62
     7
  6
CONTINUOUS
370
    -3
390
F
347
46B
  0
LAYER
  5
210
330
2
100
AcDbSymbolTableRecord
100
AcDbLayerTableRecord
  2
CRYA_X_15MM_WAGO_250_45_2P_3
 70
     0
 62
     7
  6
CONTINUOUS
370
    -3
390
F
347
46B
  0
LAYER
  5
211
330
2
100
AcDbSymbolTableRecord
100
AcDbLayerTableRecord
  2
DJHR_05514872_WAGO_2POL_IP_FIX
 70
     0
 62
     7
  6
CONTINUOUS
370
    -3
390
F
347
46B
  0
LAYER
  5
212
330
2
100
AcDbSymbolTableRecord
100
AcDbLayerTableRecord
  2
DJHR_05514872_WAGO_2POL_IP_FIX_
 70
     0
 62
     7
  6
CONTINUOUS
370
    -3
390
F
347
46B
  0
LAYER
  5
213
330
2
100
AcDbSymbolTableRecord
100
AcDbLayerTableRecord
  2
FACE_1
 70
     0
 62
     7
  6
CONTINUOUS
370
    -3
390
F
347
46B
  0
LAYER
  5
214
330
2
100
AcDbSymbolTableRecord
100
AcDbLayerTableRecord
  2
FACE_1_1
 70
     0
 62
     7
  6
CONTINUOUS
370
    -3
390
F
347
46B
  0
LAYER
  5
215
330
2
100
AcDbSymbolTableRecord
100
AcDbLayerTableRecord
  2
FACE_1_1_1
 70
     0
 62
     7
  6
CONTINUOUS
370
    -3
390
F
347
46B
  0
LAYER
  5
216
330
2
100
AcDbSymbolTableRecord
100
AcDbLayerTableRecord
  2
FACE_1_2_1
 70
     0
 62
     7
  6
CONTINUOUS
370
    -3
390
F
347
46B
  0
LAYER
  5
217
330
2
100
AcDbSymbolTableRecord
100
AcDbLayerTableRecord
  2
INTFCLR_48
 70
     0
 62
     7
  6
CONTINUOUS
370
    -3
390
F
347
46B
  0
LAYER
  5
218
330
2
100
AcDbSymbolTableRecord
100
AcDbLayerTableRecord
  2
INTFCLR_5
 70
     0
 62
     7
  6
CONTINUOUS
370
    -3
390
F
347
46B
  0
LAYER
  5
219
330
2
100
AcDbSymbolTableRecord
100
AcDbLayerTableRecord
  2
INTFCLR_50
 70
     0
 62
     7
  6
CONTINUOUS
370
    -3
390
F
347
46B
  0
LAYER
  5
21A
330
2
100
AcDbSymbolTableRecord
100
AcDbLayerTableRecord
  2
INTFCLR_52
 70
     0
 62
     7
  6
CONTINUOUS
370
    -3
390
F
347
46B
  0
LAYER
  5
21B
330
2
100
AcDbSymbolTableRecord
100
AcDbLayerTableRecord
  2
INTFCLR_54924
 70
     0
 62
     7
  6
CONTINUOUS
370
    -3
390
F
347
46B
  0
LAYER
  5
21C
330
2
100
AcDbSymbolTableRecord
100
AcDbLayerTableRecord
  2
INTFCLR_54924_1
 70
     0
 62
     7
  6
CONTINUOUS
370
    -3
390
F
347
46B
  0
LAYER
  5
21D
330
2
100
AcDbSymbolTableRecord
100
AcDbLayerTableRecord
  2
INTF_BLUE
 70
     0
 62
     7
  6
CONTINUOUS
370
    -3
390
F
347
46B
  0
LAYER
  5
21E
330
2
100
AcDbSymbolTableRecord
100
AcDbLayerTableRecord
  2
INTF_BLUE_1
 70
     0
 62
     7
  6
CONTINUOUS
370
    -3
390
F
347
46B
  0
LAYER
  5
21F
330
2
100
AcDbSymbolTableRecord
100
AcDbLayerTableRecord
  2
INTF_GREEN
 70
     0
 62
     7
  6
CONTINUOUS
370
    -3
390
F
347
46B
  0
LAYER
  5
220
330
2
100
AcDbSymbolTableRecord
100
AcDbLayerTableRecord
  2
J-085-008-A_P0850_G
 70
     0
 62
     7
  6
CONTINUOUS
370
    -3
390
F
347
46B
  0
LAYER
  5
221
330
2
100
AcDbSymbolTableRecord
100
AcDbLayerTableRecord
  2
J-085-008-A_P0850_G_1
 70
     0
 62
     7
  6
CONTINUOUS
370
    -3
390
F
347
46B
  0
LAYER
  5
222
330
2
100
AcDbSymbolTableRecord
100
AcDbLayerTableRecord
  2
LAY0001
 70
     0
 62
     7
  6
CONTINUOUS
370
    -3
390
F
347
46B
  0
LAYER
  5
223
330
2
100
AcDbSymbolTableRecord
100
AcDbLayerTableRecord
  2
PROFILO
 70
     0
 62
     7
  6
CONTINUOUS
370
    -3
390
F
347
46B
  0
LAYER
  5
224
330
2
100
AcDbSymbolTableRecord
100
AcDbLayerTableRecord
  2
RGB_COLOR_ST_ATTRIB
 70
     0
 62
     7
  6
CONTINUOUS
370
    -3
390
F
347
46B
  0
LAYER
  5
225
330
2
100
AcDbSymbolTableRecord
100
AcDbLayerTableRecord
  2
SOLID
 70
     0
 62
     7
  6
CONTINUOUS
370
    -3
390
F
347
46B
  0
LAYER
  5
226
330
2
100
AcDbSymbolTableRecord
100
AcDbLayerTableRecord
  2
SOLID_1
 70
     0
 62
     7
  6
CONTINUOUS
370
    -3
390
F
347
46B
  0
LAYER
  5
227
330
2
100
AcDbSymbolTableRecord
100
AcDbLayerTableRecord
  2
T-1_1
 70
     0
 62
     7
  6
CONTINUOUS
370
    -3
390
F
347
46B
  0
LAYER
  5
228
330
2
100
AcDbSymbolTableRecord
100
AcDbLayerTableRecord
  2
T-2_1
 70
     0
 62
     7
  6
CONTINUOUS
370
    -3
390
F
347
46B
  0
LAYER
  5
229
330
2
100
AcDbSymbolTableRecord
100
AcDbLayerTableRecord
  2
WHITE
 70
     0
 62
     7
  6
CONTINUOUS
370
    -3
390
F
347
46B
  0
LAYER
  5
22A
330
2
100
AcDbSymbolTableRecord
100
AcDbLayerTableRecord
  2
X-120-120-M_3POL
 70
     0
 62
     7
  6
CONTINUOUS
370
    -3
390
F
347
46B
  0
LAYER
  5
22B
330
2
100
AcDbSymbolTableRecord
100
AcDbLayerTableRecord
  2
X-120-120-M_3POL_1_1
 70
     0
 62
     7
  6
CONTINUOUS
370
    -3
390
F
347
46B
  0
LAYER
  5
22C
330
2
100
AcDbSymbolTableRecord
100
AcDbLayerTableRecord
  2
Z_SOLID
 70
     0
 62
     7
  6
CONTINUOUS
370
    -3
390
F
347
46B
  0
LAYER
  5
22D
330
2
100
AcDbSymbolTableRecord
100
AcDbLayerTableRecord
  2
Z_SOLID_1_1
 70
     0
 62
     7
  6
CONTINUOUS
370
    -3
390
F
347
46B
  0
LAYER
  5
22E
330
2
100
AcDbSymbolTableRecord
100
AcDbLayerTableRecord
  2
Z_SOLID_2
 70
     0
 62
     7
  6
CONTINUOUS
370
    -3
390
F
347
46B
  0
LAYER
  5
22F
330
2
100
AcDbSymbolTableRecord
100
AcDbLayerTableRecord
  2
Z_SOLID_2_1
 70
     0
 62
     7
  6
CONTINUOUS
370
    -3
390
F
347
46B
  0
LAYER
  5
230
330
2
100
AcDbSymbolTableRecord
100
AcDbLayerTableRecord
  2
Z_SOLID_3
 70
     0
 62
     7
  6
CONTINUOUS
370
    -3
390
F
347
46B
  0
ENDTAB
  0
TABLE
  2
STYLE
  5
3
330
0
100
AcDbSymbolTable
 70
     3
  0
STYLE
  5
11
330
3
100
AcDbSymbolTableRecord
100
AcDbTextStyleTableRecord
  2
STANDARD
 70
     0
 40
0.0
 41
1.0
 50
0.0
 71
     0
 42
0.2
  3
arial.ttf
  4

  0
STYLE
  5
231
330
3
100
AcDbSymbolTableRecord
100
AcDbTextStyleTableRecord
  2
TEXTSTYLE_1
 70
     0
 40
0.0
 41
0.8
 50
0.0
 71
     0
 42
0.2
  3
gdt
  4

  0
STYLE
  5
232
330
3
100
AcDbSymbolTableRecord
100
AcDbTextStyleTableRecord
  2
TEXTSTYLE_2
 70
     0
 40
0.0
 41
0.9
 50
0.0
 71
     0
 42
0.2
  3
txt
  4

  0
ENDTAB
  0
TABLE
  2
VIEW
  5
6
330
0
100
AcDbSymbolTable
 70
     0
  0
ENDTAB
  0
TABLE
  2
UCS
  5
7
330
0
100
AcDbSymbolTable
 70
     0
  0
ENDTAB
  0
TABLE
  2
APPID
  5
9
330
0
100
AcDbSymbolTable
 70
     6
  0
APPID
  5
233
330
9
100
AcDbSymbolTableRecord
100
AcDbRegAppTableRecord
  2
ACAD
 70
     0
  0
APPID
  5
46C
330
9
100
AcDbSymbolTableRecord
100
AcDbRegAppTableRecord
  2
MCS_DIM1
 70
     0
  0
APPID
  5
46D
330
9
100
AcDbSymbolTableRecord
100
AcDbRegAppTableRecord
  2
McsXdata5
 70
     0
  0
APPID
  5
470
330
9
100
AcDbSymbolTableRecord
100
AcDbRegAppTableRecord
  2
MCS_DOCUMENT_ID
 70
     0
  0
APPID
  5
476
330
9
100
AcDbSymbolTableRecord
100
AcDbRegAppTableRecord
  2
MCS_PARAMS_DATA
 70
     0
  0
APPID
  5
478
330
9
100
AcDbSymbolTableRecord
100
AcDbRegAppTableRecord
  2
MC_VERSION_DATA
 70
     0
  0
ENDTAB
  0
TABLE
  2
DIMSTYLE
  5
A
330
0
100
AcDbSymbolTable
 70
     5
100
AcDbDimStyleTable
  0
DIMSTYLE
105
23D
330
A
100
AcDbSymbolTableRecord
100
AcDbDimStyleTableRecord
  2
STANDARD
 70
     0
 41
2.5
 42
0.75
 44
0.75
 47
0.01
 48
0.01
 71
     1
 73
     0
 74
     0
 77
     1
 78
     8
 79
     2
140
3.0
147
0.625
171
     1
178
     0
179
     2
271
     2
272
     2
278
    44
284
     8
340
11
341
236
342
236
343
236
344
236
  0
DIMSTYLE
105
23E
330
A
100
AcDbSymbolTableRecord
100
AcDbDimStyleTableRecord
  2
DIMSTYLE_1
 70
     0
 41
2.5
 42
0.75
 44
0.75
 47
0.3
 48
0.3
 73
     0
 74
     0
 77
     1
 78
     8
 79
     2
140
8.0
147
2.0
171
     1
178
     0
179
     2
271
     2
272
     2
278
    44
284
     8
340
11
341
236
342
236
343
236
344
236
  0
DIMSTYLE
105
23F
330
A
100
AcDbSymbolTableRecord
100
AcDbDimStyleTableRecord
  2
DIMSTYLE_2
 70
     0
 41
2.5
 42
0.75
 44
0.75
 47
0.8
 48
0.8
 73
     0
 74
     0
 77
     1
 78
     8
 79
     2
140
8.0
147
2.0
171
     1
178
     0
179
     2
271
     2
272
     2
278
    44
284
     8
340
11
341
236
342
236
343
236
344
236
  0
DIMSTYLE
105
240
330
A
100
AcDbSymbolTableRecord
100
AcDbDimStyleTableRecord
  2
DIMSTYLE_3
 70
     0
 41
2.5
 42
0.75
 44
0.75
 47
0.3
 48
0.3
 73
     0
 74
     0
 77
     1
 78
     8
 79
     2
140
8.0
147
2.0
171
     1
178
     0
271
     0
272
     0
278
    44
284
     8
340
11
341
236
342
236
343
236
344
236
  0
DIMSTYLE
105
241
330
A
100
AcDbSymbolTableRecord
100
AcDbDimStyleTableRecord
  2
DIMSTYLE_4
 70
     0
 41
2.5
 42
0.75
 44
0.75
 47
0.2
 48
0.2
 73
     0
 74
     0
 77
     1
 78
     8
 79
     2
140
8.0
147
2.0
171
     1
178
     0
271
     0
272
     0
278
    44
284
     8
340
11
341
236
342
236
343
236
344
236
  0
ENDTAB
  0
TABLE
  2
BLOCK_RECORD
  5
1
330
0
100
AcDbSymbolTable
 70
     7
  0
BLOCK_RECORD
  5
234
330
1
100
AcDbSymbolTableRecord
100
AcDbBlockTableRecord
  2
*Model_Space
340
426
 70
     0
280
     1
281
     0
  0
BLOCK_RECORD
  5
235
330
1
100
AcDbSymbolTableRecord
100
AcDbBlockTableRecord
  2
*Paper_Space
340
427
 70
     0
280
     1
281
     0
  0
BLOCK_RECORD
  5
236
330
1
100
AcDbSymbolTableRecord
100
AcDbBlockTableRecord
  2
_CLOSED
340
0
102
{BLKREFS
331
28A
331
28B
331
293
331
294
331
29C
331
29D
331
2A5
331
2A6
102
}
 70
     0
280
     1
281
     0
  0
BLOCK_RECORD
  5
237
330
1
100
AcDbSymbolTableRecord
100
AcDbBlockTableRecord
  2
*D1
340
0
 70
     0
280
     1
281
     0
  0
BLOCK_RECORD
  5
238
330
1
100
AcDbSymbolTableRecord
100
AcDbBlockTableRecord
  2
*D2
340
0
 70
     0
280
     1
281
     0
  0
BLOCK_RECORD
  5
239
330
1
100
AcDbSymbolTableRecord
100
AcDbBlockTableRecord
  2
*D3
340
0
 70
     0
280
     1
281
     0
  0
BLOCK_RECORD
  5
23A
330
1
100
AcDbSymbolTableRecord
100
AcDbBlockTableRecord
  2
*D4
340
0
 70
     0
280
     1
281
     0
  0
BLOCK_RECORD
  5
23B
330
1
100
AcDbSymbolTableRecord
100
AcDbBlockTableRecord
  2
LOGO2_BL0
340
0
102
{BLKREFS
331
423
102
}
 70
     0
280
     1
281
     0
  0
BLOCK_RECORD
  5
23C
330
1
100
AcDbSymbolTableRecord
100
AcDbBlockTableRecord
  2
*T6
340
0
102
{BLKREFS
331
424
102
}
 70
     0
280
     1
281
     0
  0
ENDTAB
  0
ENDSEC
  0
SECTION
  2
BLOCKS
  0
BLOCK
  5
20
330
234
100
AcDbEntity
  8
0
100
AcDbBlockBegin
  2
*Model_Space
 70
     0
 10
0.0
 20
0.0
 30
0.0
  3
*Model_Space
  1
*Model_Space
  0
ENDBLK
  5
21
330
234
100
AcDbEntity
  8
0
100
AcDbBlockEnd
  0
BLOCK
  5
1C
330
235
100
AcDbEntity
 67
     1
  8
0
100
AcDbBlockBegin
  2
*Paper_Space
 70
     0
 10
0.0
 20
0.0
 30
0.0
  3
*Paper_Space
  1
*Paper_Space
  0
ENDBLK
  5
1D
330
235
100
AcDbEntity
 67
     1
  8
0
100
AcDbBlockEnd
  0
BLOCK
  5
27E
330
236
100
AcDbEntity
  8
0
100
AcDbBlockBegin
  2
_CLOSED
 70
     0
 10
0.0
 20
0.0
 30
0.0
  3
_CLOSED
  1
_CLOSED
  0
LINE
  5
27F
330
236
100
AcDbEntity
  8
0
  6
ByBlock
 62
     0
100
AcDbLine
 10
0.0
 20
0.0
 30
0.0
 11
-1.0
 21
0.2
 31
0.0
  0
LINE
  5
280
330
236
100
AcDbEntity
  8
0
  6
ByBlock
 62
     0
100
AcDbLine
 10
-1.0
 20
0.2
 30
0.0
 11
-1.0
 21
-0.2
 31
0.0
  0
LINE
  5
281
330
236
100
AcDbEntity
  8
0
  6
ByBlock
 62
     0
100
AcDbLine
 10
-1.0
 20
-0.2
 30
0.0
 11
0.0
 21
0.0
 31
0.0
  0
LINE
  5
282
330
236
100
AcDbEntity
  8
0
  6
ByBlock
 62
     0
100
AcDbLine
 10
-1.0
 20
0.0
 30
0.0
 11
0.0
 21
0.0
 31
0.0
  0
ENDBLK
  5
283
330
236
100
AcDbEntity
  8
0
  6
ByBlock
 62
     0
100
AcDbBlockEnd
  0
BLOCK
  5
284
330
237
100
AcDbEntity
  8
0
100
AcDbBlockBegin
  2
*D1
 70
     1
 10
0.0
 20
0.0
 30
0.0
  3
*D1
  1
*D1
  0
MTEXT
  5
285
330
237
100
AcDbEntity
  8
0
  6
Continuous
 62
     2
100
AcDbMText
 10
50.41871
 20
619.478225
 30
0.0
 40
8.0
 41
18.64684
 46
0.0
 71
     2
 72
     1
  1
120
 11
0.0
 21
1.0
 31
0.0
 73
     1
 44
0.9
  0
LINE
  5
286
330
237
100
AcDbEntity
  8
0
  6
Continuous
 62
     2
100
AcDbLine
 10
78.339723
 20
559.477753
 30
0.0
 11
59.66713
 21
559.478245
 31
0.0
  0
LINE
  5
287
330
237
100
AcDbEntity
  8
0
  6
Continuous
 62
     2
100
AcDbLine
 10
78.342882
 20
679.477753
 30
0.0
 11
59.670289
 21
679.478245
 31
0.0
  0
LINE
  5
288
330
237
100
AcDbEntity
  8
0
  6
Continuous
 62
     2
100
AcDbLine
 10
60.41713
 20
559.478225
 30
0.0
 11
60.41871
 21
619.478225
 31
0.0
  0
LINE
  5
289
330
237
100
AcDbEntity
  8
0
  6
Continuous
 62
     2
100
AcDbLine
 10
60.420289
 20
679.478225
 30
0.0
 11
60.41871
 21
619.478225
 31
0.0
  0
INSERT
  5
28A
330
237
100
AcDbEntity
  8
0
  6
Continuous
 62
     2
100
AcDbBlockReference
  2
_CLOSED
 10
60.41713
 20
559.478225
 30
0.0
 41
2.5
 42
2.5
 43
2.5
 50
269.998492
  0
INSERT
  5
28B
330
237
100
AcDbEntity
  8
0
  6
Continuous
 62
     2
100
AcDbBlockReference
  2
_CLOSED
 10
60.420289
 20
679.478225
 30
0.0
 41
2.5
 42
2.5
 43
2.5
 50
89.998492
  0
ENDBLK
  5
28C
330
237
100
AcDbEntity
  8
0
  6
ByBlock
 62
     0
100
AcDbBlockEnd
  0
BLOCK
  5
28D
330
238
100
AcDbEntity
  8
0
100
AcDbBlockBegin
  2
*D2
 70
     1
 10
0.0
 20
0.0
 30
0.0
  3
*D2
  1
*D2
  0
MTEXT
  5
28E
330
238
100
AcDbEntity
  8
0
  6
Continuous
 62
     2
100
AcDbMText
 10
389.093477
 20
712.070175
 30
0.0
 40
8.0
 41
18.64684
 46
0.0
 71
     2
 72
     1
  1
620
 73
     1
 44
0.9
  0
LINE
  5
28F
330
238
100
AcDbEntity
  8
0
  6
Continuous
 62
     2
100
AcDbLine
 10
79.092902
 20
680.227734
 30
0.0
 11
79.093497
 21
702.828336
 31
0.0
  0
LINE
  5
290
330
238
100
AcDbEntity
  8
0
  6
Continuous
 62
     2
100
AcDbLine
 10
699.092902
 20
680.211411
 30
0.0
 11
699.093497
 21
702.812013
 31
0.0
  0
LINE
  5
291
330
238
100
AcDbEntity
  8
0
  6
Continuous
 62
     2
100
AcDbLine
 10
79.093477
 20
702.078336
 30
0.0
 11
389.093477
 21
702.070175
 31
0.0
  0
LINE
  5
292
330
238
100
AcDbEntity
  8
0
  6
Continuous
 62
     2
100
AcDbLine
 10
699.093477
 20
702.062013
 30
0.0
 11
389.093477
 21
702.070175
 31
0.0
  0
INSERT
  5
293
330
238
100
AcDbEntity
  8
0
  6
Continuous
 62
     2
100
AcDbBlockReference
  2
_CLOSED
 10
79.093477
 20
702.078336
 30
0.0
 41
2.5
 42
2.5
 43
2.5
 50
179.998492
  0
INSERT
  5
294
330
238
100
AcDbEntity
  8
0
  6
Continuous
 62
     2
100
AcDbBlockReference
  2
_CLOSED
 10
699.093477
 20
702.062013
 30
0.0
 41
2.5
 42
2.5
 43
2.5
 50
359.998492
  0
ENDBLK
  5
295
330
238
100
AcDbEntity
  8
0
  6
ByBlock
 62
     0
100
AcDbBlockEnd
  0
BLOCK
  5
296
330
239
100
AcDbEntity
  8
0
100
AcDbBlockBegin
  2
*D3
 70
     1
 10
0.0
 20
0.0
 30
0.0
  3
*D3
  1
*D3
  0
MTEXT
  5
297
330
239
100
AcDbEntity
  8
0
  6
Continuous
 62
     2
100
AcDbMText
 10
778.625068
 20
619.79863
 30
0.0
 40
8.0
 41
12.431227
 46
0.0
 71
     2
 72
     1
  1
91
 11
0.0
 21
1.0
 31
0.0
 73
     1
 44
0.9
  0
LINE
  5
298
330
239
100
AcDbEntity
  8
0
  6
Continuous
 62
     2
100
AcDbLine
 10
808.077406
 20
665.09863
 30
0.0
 11
787.875068
 21
665.09863
 31
0.0
  0
LINE
  5
299
330
239
100
AcDbEntity
  8
0
  6
Continuous
 62
     2
100
AcDbLine
 10
808.077406
 20
574.49863
 30
0.0
 11
787.875068
 21
574.49863
 31
0.0
  0
LINE
  5
29A
330
239
100
AcDbEntity
  8
0
  6
Continuous
 62
     2
100
AcDbLine
 10
788.625068
 20
665.09863
 30
0.0
 11
788.625068
 21
619.79863
 31
0.0
  0
LINE
  5
29B
330
239
100
AcDbEntity
  8
0
  6
Continuous
 62
     2
100
AcDbLine
 10
788.625068
 20
574.49863
 30
0.0
 11
788.625068
 21
619.79863
 31
0.0
  0
INSERT
  5
29C
330
239
100
AcDbEntity
  8
0
  6
Continuous
 62
     2
100
AcDbBlockReference
  2
_CLOSED
 10
788.625068
 20
665.09863
 30
0.0
 41
2.5
 42
2.5
 43
2.5
 50
90.0
  0
INSERT
  5
29D
330
239
100
AcDbEntity
  8
0
  6
Continuous
 62
     2
100
AcDbBlockReference
  2
_CLOSED
 10
788.625068
 20
574.49863
 30
0.0
 41
2.5
 42
2.5
 43
2.5
 50
270.0
  0
ENDBLK
  5
29E
330
239
100
AcDbEntity
  8
0
  6
ByBlock
 62
     0
100
AcDbBlockEnd
  0
BLOCK
  5
29F
330
23A
100
AcDbEntity
  8
0
100
AcDbBlockBegin
  2
*D4
 70
     1
 10
0.0
 20
0.0
 30
0.0
  3
*D4
  1
*D4
  0
MTEXT
  5
2A0
330
23A
100
AcDbEntity
  8
0
  6
Continuous
 62
     2
100
AcDbMText
 10
49.745291
 20
397.215945
 30
0.0
 40
8.0
 41
12.431227
 46
0.0
 71
     2
 72
     1
  1
30
 11
0.0
 21
1.0
 31
0.0
 73
     1
 44
0.9
  0
LINE
  5
2A1
330
23A
100
AcDbEntity
  8
0
  6
Continuous
 62
     2
100
AcDbLine
 10
78.342882
 20
382.341435
 30
0.0
 11
58.995683
 21
382.340925
 31
0.0
  0
LINE
  5
2A2
330
23A
100
AcDbEntity
  8
0
  6
Continuous
 62
     2
100
AcDbLine
 10
98.841456
 20
412.091974
 30
0.0
 11
58.9949
 21
412.090925
 31
0.0
  0
LINE
  5
2A3
330
23A
100
AcDbEntity
  8
0
  6
Continuous
 62
     2
100
AcDbLine
 10
59.745683
 20
382.340945
 30
0.0
 11
59.745291
 21
397.215945
 31
0.0
  0
LINE
  5
2A4
330
23A
100
AcDbEntity
  8
0
  6
Continuous
 62
     2
100
AcDbLine
 10
59.7449
 20
412.090945
 30
0.0
 11
59.745291
 21
397.215945
 31
0.0
  0
INSERT
  5
2A5
330
23A
100
AcDbEntity
  8
0
  6
Continuous
 62
     2
100
AcDbBlockReference
  2
_CLOSED
 10
59.745683
 20
382.340945
 30
0.0
 41
2.5
 42
2.5
 43
2.5
 50
270.001508
  0
INSERT
  5
2A6
330
23A
100
AcDbEntity
  8
0
  6
Continuous
 62
     2
100
AcDbBlockReference
  2
_CLOSED
 10
59.7449
 20
412.090945
 30
0.0
 41
2.5
 42
2.5
 43
2.5
 50
90.001508
  0
ENDBLK
  5
2A7
330
23A
100
AcDbEntity
  8
0
  6
ByBlock
 62
     0
100
AcDbBlockEnd
  0
BLOCK
  5
242
330
23B
100
AcDbEntity
  8
0
100
AcDbBlockBegin
  2
LOGO2_BL0
 70
     0
 10
1102.860957
 20
36.533893
 30
0.0
  3
LOGO2_BL0
  1
LOGO2_BL0
  0
LINE
  5
243
330
23B
100
AcDbEntity
  8
0
  6
Continuous
 62
     7
100
AcDbLine
 10
1094.603883
 20
39.729385
 30
0.0
 11
1093.299542
 21
39.729385
 31
0.0
  0
LINE
  5
244
330
23B
100
AcDbEntity
  8
0
  6
Continuous
 62
     7
100
AcDbLine
 10
1093.299542
 20
39.729385
 30
0.0
 11
1093.299542
 21
29.270319
 31
0.0
  0
LINE
  5
245
330
23B
100
AcDbEntity
  8
0
  6
Continuous
 62
     7
100
AcDbLine
 10
1093.299542
 20
29.270319
 30
0.0
 11
1097.780597
 21
29.270319
 31
0.0
  0
LINE
  5
246
330
23B
100
AcDbEntity
  8
0
  6
Continuous
 62
     7
100
AcDbLine
 10
1097.780597
 20
29.270319
 30
0.0
 11
1097.780597
 21
30.463173
 31
0.0
  0
LINE
  5
247
330
23B
100
AcDbEntity
  8
0
  6
Continuous
 62
     7
100
AcDbLine
 10
1097.780597
 20
30.463173
 30
0.0
 11
1094.603883
 21
30.463173
 31
0.0
  0
LINE
  5
248
330
23B
100
AcDbEntity
  8
0
  6
Continuous
 62
     7
100
AcDbLine
 10
1094.603883
 20
30.463173
 30
0.0
 11
1094.603883
 21
39.729385
 31
0.0
  0
LINE
  5
249
330
23B
100
AcDbEntity
  8
0
  6
Continuous
 62
     7
100
AcDbLine
 10
1109.540209
 20
39.729385
 30
0.0
 11
1108.236391
 21
39.729385
 31
0.0
  0
LINE
  5
24A
330
23B
100
AcDbEntity
  8
0
  6
Continuous
 62
     7
100
AcDbLine
 10
1108.236391
 20
39.729385
 30
0.0
 11
1108.236391
 21
29.270319
 31
0.0
  0
LINE
  5
24B
330
23B
100
AcDbEntity
  8
0
  6
Continuous
 62
     7
100
AcDbLine
 10
1108.236391
 20
29.270319
 30
0.0
 11
1112.717577
 21
29.270319
 31
0.0
  0
LINE
  5
24C
330
23B
100
AcDbEntity
  8
0
  6
Continuous
 62
     7
100
AcDbLine
 10
1112.717577
 20
29.270319
 30
0.0
 11
1112.717577
 21
30.463173
 31
0.0
  0
LINE
  5
24D
330
23B
100
AcDbEntity
  8
0
  6
Continuous
 62
     7
100
AcDbLine
 10
1112.717577
 20
30.463173
 30
0.0
 11
1109.540209
 21
30.463173
 31
0.0
  0
LINE
  5
24E
330
23B
100
AcDbEntity
  8
0
  6
Continuous
 62
     7
100
AcDbLine
 10
1109.540209
 20
30.463173
 30
0.0
 11
1109.540209
 21
39.729385
 31
0.0
  0
LWPOLYLINE
  5
24F
330
23B
100
AcDbEntity
  8
0
  6
Continuous
 62
     7
100
AcDbPolyline
 90
        2
 70
     0
 43
0.2
 10
1091.653937
 20
25.926767
 10
1091.653937
 20
24.069704
  0
LWPOLYLINE
  5
250
330
23B
100
AcDbEntity
  8
0
  6
Continuous
 62
     7
100
AcDbPolyline
 90
        2
 70
     0
 43
0.2
 10
1091.653937
 20
24.069704
 10
1092.449653
 20
24.069704
  0
LWPOLYLINE
  5
251
330
23B
100
AcDbEntity
  8
0
  6
Continuous
 62
     7
100
AcDbPolyline
 90
        2
 70
     0
 43
0.2
 10
1092.449653
 20
24.069704
 10
1092.449653
 20
24.281686
  0
LWPOLYLINE
  5
252
330
23B
100
AcDbEntity
  8
0
  6
Continuous
 62
     7
100
AcDbPolyline
 90
        2
 70
     0
 43
0.2
 10
1092.449653
 20
24.281686
 10
1091.885546
 20
24.281686
  0
LWPOLYLINE
  5
253
330
23B
100
AcDbEntity
  8
0
  6
Continuous
 62
     7
100
AcDbPolyline
 90
        2
 70
     0
 43
0.2
 10
1091.885546
 20
24.281686
 10
1091.885546
 20
25.926767
  0
LWPOLYLINE
  5
254
330
23B
100
AcDbEntity
  8
0
  6
Continuous
 62
     7
100
AcDbPolyline
 90
        2
 70
     0
 43
0.2
 10
1091.885546
 20
25.926767
 10
1091.653937
 20
25.926767
  0
SPLINE
  5
255
330
23B
100
AcDbEntity
  8
0
  6
Continuous
 62
     7
100
AcDbSpline
 70
     3
 71
     3
 72
    35
 73
    31
 74
     0
 42
0.000000001
 43
0.0000001
 40
0.0
 40
0.0
 40
0.0
 40
0.0
 40
1.0
 40
1.0
 40
1.0
 40
2.0
 40
2.0
 40
2.0
 40
3.0
 40
3.0
 40
3.0
 40
4.0
 40
4.0
 40
4.0
 40
5.0
 40
5.0
 40
5.0
 40
6.0
 40
6.0
 40
6.0
 40
7.0
 40
7.0
 40
7.0
 40
8.0
 40
8.0
 40
8.0
 40
9.0
 40
9.0
 40
9.0
 40
10.0
 40
10.0
 40
10.0
 40
10.0
 10
1093.8479459295
 20
25.2222558308
 30
0.0
 10
1093.8479459295
 20
25.2222558308
 30
0.0
 10
1093.8479459295
 20
24.5601405517
 30
0.0
 10
1093.8479459295
 20
24.5601405517
 30
0.0
 10
1093.8479459295
 20
24.2450469564
 30
0.0
 10
1093.9958096184
 20
24.0304483284
 30
0.0
 10
1094.3358961027
 20
24.0304483284
 30
0.0
 10
1094.6754591757
 20
24.0304483284
 30
0.0
 10
1094.8235845701
 20
24.2450469564
 30
0.0
 10
1094.8235845701
 20
24.5601405517
 30
0.0
 10
1094.8235845701
 20
24.5601405517
 30
0.0
 10
1094.8235845701
 20
25.2222558308
 30
0.0
 10
1094.8235845701
 20
25.2222558308
 30
0.0
 10
1094.8235845701
 20
25.2222558308
 30
0.0
 10
1094.6015273313
 20
25.2222558308
 30
0.0
 10
1094.6015273313
 20
25.2222558308
 30
0.0
 10
1094.6015273313
 20
25.2222558308
 30
0.0
 10
1094.6015273313
 20
24.5852642935
 30
0.0
 10
1094.6015273313
 20
24.5852642935
 30
0.0
 10
1094.6015273313
 20
24.3994532863
 30
0.0
 10
1094.5548128738
 20
24.2366723758
 30
0.0
 10
1094.3358961027
 20
24.2366723758
 30
0.0
 10
1094.1164559202
 20
24.2366723758
 30
0.0
 10
1094.0697414628
 20
24.3994532863
 30
0.0
 10
1094.0697414628
 20
24.5852642935
 30
0.0
 10
1094.0697414628
 20
24.5852642935
 30
0.0
 10
1094.0697414628
 20
25.2222558308
 30
0.0
 10
1094.0697414628
 20
25.2222558308
 30
0.0
 10
1094.0697414628
 20
25.2222558308
 30
0.0
 10
1093.8479459295
 20
25.2222558308
 30
0.0
 10
1093.8479459295
 20
25.2222558308
 30
0.0
  0
SPLINE
  5
256
330
23B
100
AcDbEntity
  8
0
  6
Continuous
 62
     7
100
AcDbSpline
 70
     3
 71
     3
 72
    35
 73
    31
 74
     0
 42
0.000000001
 43
0.0000001
 40
0.0
 40
0.0
 40
0.0
 40
0.0
 40
1.0
 40
1.0
 40
1.0
 40
2.0
 40
2.0
 40
2.0
 40
3.0
 40
3.0
 40
3.0
 40
4.0
 40
4.0
 40
4.0
 40
5.0
 40
5.0
 40
5.0
 40
6.0
 40
6.0
 40
6.0
 40
7.0
 40
7.0
 40
7.0
 40
8.0
 40
8.0
 40
8.0
 40
9.0
 40
9.0
 40
9.0
 40
10.0
 40
10.0
 40
10.0
 40
10.0
 10
1097.2467171273
 20
25.1809063391
 30
0.0
 10
1097.1582606197
 20
25.2322006453
 30
0.0
 10
1097.044811223
 20
25.2573243871
 30
0.0
 10
1096.941175788
 20
25.2573243871
 30
0.0
 10
1096.5863029349
 20
25.2573243871
 30
0.0
 10
1096.3108577446
 20
24.993525098
 30
0.0
 10
1096.3108577446
 20
24.6360351884
 30
0.0
 10
1096.3108577446
 20
24.2911071497
 30
0.0
 10
1096.5893125498
 20
24.0309717397
 30
0.0
 10
1096.9288756228
 20
24.0309717397
 30
0.0
 10
1097.044811223
 20
24.0309717397
 30
0.0
 10
1097.1455678959
 20
24.0529550137
 30
0.0
 10
1097.2467171273
 20
24.1068663764
 30
0.0
 10
1097.2467171273
 20
24.1068663764
 30
0.0
 10
1097.2467171273
 20
24.3895084718
 30
0.0
 10
1097.2467171273
 20
24.3895084718
 30
0.0
 10
1097.1628404684
 20
24.2963412626
 30
0.0
 10
1097.0593358863
 20
24.2371957871
 30
0.0
 10
1096.9312309736
 20
24.2371957871
 30
0.0
 10
1096.6975278335
 20
24.2371957871
 30
0.0
 10
1096.5322607194
 20
24.4093981008
 30
0.0
 10
1096.5322607194
 20
24.6459800029
 30
0.0
 10
1096.5322607194
 20
24.8579615745
 30
0.0
 10
1096.7000140371
 20
25.0500535171
 30
0.0
 10
1096.9168371631
 20
25.0500535171
 30
0.0
 10
1097.0496527774
 20
25.0500535171
 30
0.0
 10
1097.1582606197
 20
24.9961421545
 30
0.0
 10
1097.2467171273
 20
24.8951237759
 30
0.0
 10
1097.2467171273
 20
24.8951237759
 30
0.0
 10
1097.2467171273
 20
25.1809063391
 30
0.0
 10
1097.2467171273
 20
25.1809063391
 30
0.0
  0
SPLINE
  5
257
330
23B
100
AcDbEntity
  8
0
  6
Continuous
 62
     7
100
AcDbSpline
 70
     3
 71
     3
 72
    32
 73
    28
 74
     0
 42
0.000000001
 43
0.0000001
 40
0.0
 40
0.0
 40
0.0
 40
0.0
 40
1.0
 40
1.0
 40
1.0
 40
2.0
 40
2.0
 40
2.0
 40
3.0
 40
3.0
 40
3.0
 40
4.0
 40
4.0
 40
4.0
 40
5.0
 40
5.0
 40
5.0
 40
6.0
 40
6.0
 40
6.0
 40
7.0
 40
7.0
 40
7.0
 40
8.0
 40
8.0
 40
8.0
 40
9.0
 40
9.0
 40
9.0
 40
9.0
 10
1099.7785883796
 20
24.6093412127
 30
0.0
 10
1099.7785883796
 20
24.6093412127
 30
0.0
 10
1099.7785883796
 20
24.6433629465
 30
0.0
 10
1099.7785883796
 20
24.6433629465
 30
0.0
 10
1099.7785883796
 20
24.9856739287
 30
0.0
 10
1099.6057318018
 20
25.2573243871
 30
0.0
 10
1099.2390821946
 20
25.2573243871
 30
0.0
 10
1098.8674601802
 20
25.2573243871
 30
0.0
 10
1098.6777235884
 20
24.9909080416
 30
0.0
 10
1098.6777235884
 20
24.6360351884
 30
0.0
 10
1098.6777235884
 20
24.2963412626
 30
0.0
 10
1098.8917988051
 20
24.0304483284
 30
0.0
 10
1099.243923749
 20
24.0304483284
 30
0.0
 10
1099.4679437802
 20
24.0304483284
 30
0.0
 10
1099.6701113902
 20
24.146122223
 30
0.0
 10
1099.7785883796
 20
24.3455419237
 30
0.0
 10
1099.7785883796
 20
24.3455419237
 30
0.0
 10
1099.5909454329
 20
24.4523178264
 30
0.0
 10
1099.5909454329
 20
24.4523178264
 30
0.0
 10
1099.5074613325
 20
24.3136138351
 30
0.0
 10
1099.4162569155
 20
24.2277743839
 30
0.0
 10
1099.2466716583
 20
24.2277743839
 30
0.0
 10
1099.0346900867
 20
24.2277743839
 30
0.0
 10
1098.9017436196
 20
24.4125385685
 30
0.0
 10
1098.8993882688
 20
24.6093412127
 30
0.0
 10
1098.8993882688
 20
24.6093412127
 30
0.0
 10
1099.7785883796
 20
24.6093412127
 30
0.0
 10
1099.7785883796
 20
24.6093412127
 30
0.0
  0
SPLINE
  5
258
330
23B
100
AcDbEntity
  8
0
  6
Continuous
 62
     7
100
AcDbSpline
 70
     3
 71
     3
 72
    14
 73
    10
 74
     0
 42
0.000000001
 43
0.0000001
 40
0.0
 40
0.0
 40
0.0
 40
0.0
 40
1.0
 40
1.0
 40
1.0
 40
2.0
 40
2.0
 40
2.0
 40
3.0
 40
3.0
 40
3.0
 40
3.0
 10
1098.9114267284
 20
24.7768328249
 30
0.0
 10
1098.9390366738
 20
24.9417073805
 30
0.0
 10
1099.0668798809
 20
25.0647090332
 30
0.0
 10
1099.2390821946
 20
25.0647090332
 30
0.0
 10
1099.4162569155
 20
25.0647090332
 30
0.0
 10
1099.5297063122
 20
24.9490351386
 30
0.0
 10
1099.5569236992
 20
24.7768328249
 30
0.0
 10
1099.5569236992
 20
24.7768328249
 30
0.0
 10
1098.9114267284
 20
24.7768328249
 30
0.0
 10
1098.9114267284
 20
24.7768328249
 30
0.0
  0
SPLINE
  5
259
330
23B
100
AcDbEntity
  8
0
  6
Continuous
 62
     7
100
AcDbSpline
 70
     3
 71
     3
 72
    20
 73
    16
 74
     0
 42
0.000000001
 43
0.0000001
 40
0.0
 40
0.0
 40
0.0
 40
0.0
 40
1.0
 40
1.0
 40
1.0
 40
2.0
 40
2.0
 40
2.0
 40
3.0
 40
3.0
 40
3.0
 40
4.0
 40
4.0
 40
4.0
 40
5.0
 40
5.0
 40
5.0
 40
5.0
 10
1101.8026198298
 20
24.98619734
 30
0.0
 10
1101.8026198298
 20
24.98619734
 30
0.0
 10
1102.2137593964
 20
24.4837225037
 30
0.0
 10
1102.2137593964
 20
24.4837225037
 30
0.0
 10
1102.0976929433
 20
24.368048609
 30
0.0
 10
1101.9599049218
 20
24.2377191984
 30
0.0
 10
1101.7879643137
 20
24.2377191984
 30
0.0
 10
1101.6105278871
 20
24.2377191984
 30
0.0
 10
1101.443036275
 20
24.4020703428
 30
0.0
 10
1101.443036275
 20
24.5789833581
 30
0.0
 10
1101.443036275
 20
24.7569431959
 30
0.0
 10
1101.6527933486
 20
24.8830853163
 30
0.0
 10
1101.78037485
 20
24.9710184127
 30
0.0
 10
1101.78037485
 20
24.9710184127
 30
0.0
 10
1101.8026198298
 20
24.98619734
 30
0.0
 10
1101.8026198298
 20
24.98619734
 30
0.0
  0
SPLINE
  5
25A
330
23B
100
AcDbEntity
  8
0
  6
Continuous
 62
     7
100
AcDbSpline
 70
     3
 71
     3
 72
    23
 73
    19
 74
     0
 42
0.000000001
 43
0.0000001
 40
0.0
 40
0.0
 40
0.0
 40
0.0
 40
1.0
 40
1.0
 40
1.0
 40
2.0
 40
2.0
 40
2.0
 40
3.0
 40
3.0
 40
3.0
 40
4.0
 40
4.0
 40
4.0
 40
5.0
 40
5.0
 40
5.0
 40
6.0
 40
6.0
 40
6.0
 40
6.0
 10
1101.8519513436
 20
25.2772140161
 30
0.0
 10
1101.8519513436
 20
25.2772140161
 30
0.0
 10
1101.7903196645
 20
25.3557257093
 30
0.0
 10
1101.7903196645
 20
25.3557257093
 30
0.0
 10
1101.7364083019
 20
25.424292588
 30
0.0
 10
1101.6796181771
 20
25.493382878
 30
0.0
 10
1101.6796181771
 20
25.5870734985
 30
0.0
 10
1101.6796181771
 20
25.7058878608
 30
0.0
 10
1101.7755332956
 20
25.7833527314
 30
0.0
 10
1101.8864964886
 20
25.7833527314
 30
0.0
 10
1102.0097598469
 20
25.7833527314
 30
0.0
 10
1102.103057909
 20
25.7121687963
 30
0.0
 10
1102.103057909
 20
25.5818393856
 30
0.0
 10
1102.103057909
 20
25.4467992733
 30
0.0
 10
1101.9749529963
 20
25.3703812253
 30
0.0
 10
1101.8813932286
 20
25.2965802337
 30
0.0
 10
1101.8813932286
 20
25.2965802337
 30
0.0
 10
1101.8519513436
 20
25.2772140161
 30
0.0
 10
1101.8519513436
 20
25.2772140161
 30
0.0
  0
SPLINE
  5
25B
330
23B
100
AcDbEntity
  8
0
  6
Continuous
 62
     7
100
AcDbSpline
 70
     3
 71
     3
 72
    50
 73
    46
 74
     0
 42
0.000000001
 43
0.0000001
 40
0.0
 40
0.0
 40
0.0
 40
0.0
 40
1.0
 40
1.0
 40
1.0
 40
2.0
 40
2.0
 40
2.0
 40
3.0
 40
3.0
 40
3.0
 40
4.0
 40
4.0
 40
4.0
 40
5.0
 40
5.0
 40
5.0
 40
6.0
 40
6.0
 40
6.0
 40
7.0
 40
7.0
 40
7.0
 40
8.0
 40
8.0
 40
8.0
 40
9.0
 40
9.0
 40
9.0
 40
10.0
 40
10.0
 40
10.0
 40
11.0
 40
11.0
 40
11.0
 40
12.0
 40
12.0
 40
12.0
 40
13.0
 40
13.0
 40
13.0
 40
14.0
 40
14.0
 40
14.0
 40
15.0
 40
15.0
 40
15.0
 40
15.0
 10
1102.5541075863
 20
24.0702275862
 30
0.0
 10
1102.5541075863
 20
24.0702275862
 30
0.0
 10
1102.839497591
 20
24.0702275862
 30
0.0
 10
1102.839497591
 20
24.0702275862
 30
0.0
 10
1102.839497591
 20
24.0702275862
 30
0.0
 10
1102.5071314232
 20
24.4811054472
 30
0.0
 10
1102.5071314232
 20
24.4811054472
 30
0.0
 10
1102.5071314232
 20
24.4811054472
 30
0.0
 10
1102.7336376581
 20
24.7469983815
 30
0.0
 10
1102.7336376581
 20
24.7469983815
 30
0.0
 10
1102.7336376581
 20
24.7469983815
 30
0.0
 10
1102.5853814108
 20
24.8998344775
 30
0.0
 10
1102.5853814108
 20
24.8998344775
 30
0.0
 10
1102.5853814108
 20
24.8998344775
 30
0.0
 10
1102.3694742545
 20
24.6485970593
 30
0.0
 10
1102.3694742545
 20
24.6485970593
 30
0.0
 10
1102.3694742545
 20
24.6485970593
 30
0.0
 10
1101.9824116072
 20
25.1165267507
 30
0.0
 10
1101.9824116072
 20
25.1165267507
 30
0.0
 10
1102.1378647596
 20
25.2306304115
 30
0.0
 10
1102.3201427406
 20
25.3703812253
 30
0.0
 10
1102.3201427406
 20
25.5797457405
 30
0.0
 10
1102.3201427406
 20
25.8236554006
 30
0.0
 10
1102.1181059835
 20
25.9670700935
 30
0.0
 10
1101.8915997487
 20
25.9670700935
 30
0.0
 10
1101.6474283829
 20
25.9670700935
 30
0.0
 10
1101.4630567568
 20
25.8163276426
 30
0.0
 10
1101.4630567568
 20
25.5598561115
 30
0.0
 10
1101.4630567568
 20
25.4023093139
 30
0.0
 10
1101.5617197845
 20
25.2646521452
 30
0.0
 10
1101.6670563062
 20
25.1536889521
 30
0.0
 10
1101.6670563062
 20
25.1536889521
 30
0.0
 10
1101.5515132644
 20
25.0699431461
 30
0.0
 10
1101.5515132644
 20
25.0699431461
 30
0.0
 10
1101.3738151322
 20
24.9417073805
 30
0.0
 10
1101.2264748546
 20
24.8139950263
 30
0.0
 10
1101.2264748546
 20
24.5768897129
 30
0.0
 10
1101.2264748546
 20
24.2565620047
 30
0.0
 10
1101.4850400309
 20
24.0304483284
 30
0.0
 10
1101.7954229246
 20
24.0304483284
 30
0.0
 10
1102.0143396957
 20
24.0304483284
 30
0.0
 10
1102.2115348984
 20
24.1555436262
 30
0.0
 10
1102.3518091236
 20
24.3214650044
 30
0.0
 10
1102.3518091236
 20
24.3214650044
 30
0.0
 10
1102.5541075863
 20
24.0702275862
 30
0.0
 10
1102.5541075863
 20
24.0702275862
 30
0.0
  0
LWPOLYLINE
  5
25C
330
23B
100
AcDbEntity
  8
0
  6
Continuous
 62
     7
100
AcDbPolyline
 90
        2
 70
     0
 43
0.2
 10
1104.489552
 20
25.926767
 10
1104.258204
 20
25.926767
  0
LWPOLYLINE
  5
25D
330
23B
100
AcDbEntity
  8
0
  6
Continuous
 62
     7
100
AcDbPolyline
 90
        2
 70
     0
 43
0.2
 10
1104.258204
 20
25.926767
 10
1104.258204
 20
24.069704
  0
LWPOLYLINE
  5
25E
330
23B
100
AcDbEntity
  8
0
  6
Continuous
 62
     7
100
AcDbPolyline
 90
        2
 70
     0
 43
0.2
 10
1104.258204
 20
24.069704
 10
1105.053527
 20
24.069704
  0
LWPOLYLINE
  5
25F
330
23B
100
AcDbEntity
  8
0
  6
Continuous
 62
     7
100
AcDbPolyline
 90
        2
 70
     0
 43
0.2
 10
1105.053527
 20
24.069704
 10
1105.053527
 20
24.281686
  0
LWPOLYLINE
  5
260
330
23B
100
AcDbEntity
  8
0
  6
Continuous
 62
     7
100
AcDbPolyline
 90
        2
 70
     0
 43
0.2
 10
1105.053527
 20
24.281686
 10
1104.489552
 20
24.281686
  0
LWPOLYLINE
  5
261
330
23B
100
AcDbEntity
  8
0
  6
Continuous
 62
     7
100
AcDbPolyline
 90
        2
 70
     0
 43
0.2
 10
1104.489552
 20
24.281686
 10
1104.489552
 20
25.926767
  0
LWPOLYLINE
  5
262
330
23B
100
AcDbEntity
  8
0
  6
Continuous
 62
     7
100
AcDbPolyline
 90
        2
 70
     0
 43
0.2
 10
1106.732631
 20
25.222256
 10
1106.511489
 20
25.222256
  0
LWPOLYLINE
  5
263
330
23B
100
AcDbEntity
  8
0
  6
Continuous
 62
     7
100
AcDbPolyline
 90
        2
 70
     0
 43
0.2
 10
1106.511489
 20
25.222256
 10
1106.511489
 20
24.070228
  0
LWPOLYLINE
  5
264
330
23B
100
AcDbEntity
  8
0
  6
Continuous
 62
     7
100
AcDbPolyline
 90
        2
 70
     0
 43
0.2
 10
1106.511489
 20
24.070228
 10
1106.732631
 20
24.070228
  0
LWPOLYLINE
  5
265
330
23B
100
AcDbEntity
  8
0
  6
Continuous
 62
     7
100
AcDbPolyline
 90
        2
 70
     0
 43
0.2
 10
1106.732631
 20
24.070228
 10
1106.732631
 20
25.222256
  0
LWPOLYLINE
  5
266
330
23B
100
AcDbEntity
  8
0
  6
Continuous
 62
     7
100
AcDbPolyline
 90
        2
 70
     1
 43
0.2
 10
1106.469607
 20
25.75221
 42
1.0
 10
1106.774774
 20
25.75221
 42
1.0
  0
SPLINE
  5
267
330
23B
100
AcDbEntity
  8
0
  6
Continuous
 62
     7
100
AcDbSpline
 70
     3
 71
     3
 72
    17
 73
    13
 74
     0
 42
0.000000001
 43
0.0000001
 40
0.0
 40
0.0
 40
0.0
 40
0.0
 40
1.0
 40
1.0
 40
1.0
 40
2.0
 40
2.0
 40
2.0
 40
3.0
 40
3.0
 40
3.0
 40
4.0
 40
4.0
 40
4.0
 40
4.0
 10
1108.8629146918
 20
24.2277743839
 30
0.0
 10
1108.6289498462
 20
24.2277743839
 30
0.0
 10
1108.4986204355
 20
24.429811141
 30
0.0
 10
1108.4986204355
 20
24.6459800029
 30
0.0
 10
1108.4986204355
 20
24.8605786309
 30
0.0
 10
1108.6344456647
 20
25.0594749203
 30
0.0
 10
1108.8629146918
 20
25.0594749203
 30
0.0
 10
1109.102375356
 20
25.0594749203
 30
0.0
 10
1109.2379388796
 20
24.8705234454
 30
0.0
 10
1109.2379388796
 20
24.6459800029
 30
0.0
 10
1109.2379388796
 20
24.4198663265
 30
0.0
 10
1109.1047307068
 20
24.2277743839
 30
0.0
 10
1108.8629146918
 20
24.2277743839
 30
0.0
  0
SPLINE
  5
268
330
23B
100
AcDbEntity
  8
0
  6
Continuous
 62
     7
100
AcDbSpline
 70
     3
 71
     3
 72
    50
 73
    46
 74
     0
 42
0.000000001
 43
0.0000001
 40
0.0
 40
0.0
 40
0.0
 40
0.0
 40
1.0
 40
1.0
 40
1.0
 40
2.0
 40
2.0
 40
2.0
 40
3.0
 40
3.0
 40
3.0
 40
4.0
 40
4.0
 40
4.0
 40
5.0
 40
5.0
 40
5.0
 40
6.0
 40
6.0
 40
6.0
 40
7.0
 40
7.0
 40
7.0
 40
8.0
 40
8.0
 40
8.0
 40
9.0
 40
9.0
 40
9.0
 40
10.0
 40
10.0
 40
10.0
 40
11.0
 40
11.0
 40
11.0
 40
12.0
 40
12.0
 40
12.0
 40
13.0
 40
13.0
 40
13.0
 40
14.0
 40
14.0
 40
14.0
 40
15.0
 40
15.0
 40
15.0
 40
15.0
 10
1109.4470416891
 20
25.2227792421
 30
0.0
 10
1109.4470416891
 20
25.2227792421
 30
0.0
 10
1109.2253770087
 20
25.2227792421
 30
0.0
 10
1109.2253770087
 20
25.2227792421
 30
0.0
 10
1109.2253770087
 20
25.2227792421
 30
0.0
 10
1109.2253770087
 20
25.0254531866
 30
0.0
 10
1109.2253770087
 20
25.0254531866
 30
0.0
 10
1109.2253770087
 20
25.0254531866
 30
0.0
 10
1109.2206663071
 20
25.0254531866
 30
0.0
 10
1109.2206663071
 20
25.0254531866
 30
0.0
 10
1109.1293310374
 20
25.1683444682
 30
0.0
 10
1108.991412163
 20
25.2568009758
 30
0.0
 10
1108.818686438
 20
25.2568009758
 30
0.0
 10
1108.4863202702
 20
25.2568009758
 30
0.0
 10
1108.2772174607
 20
24.9689247675
 30
0.0
 10
1108.2772174607
 20
24.6533077609
 30
0.0
 10
1108.2772174607
 20
24.3235586496
 30
0.0
 10
1108.4742818106
 20
24.0304483284
 30
0.0
 10
1108.8291546638
 20
24.0304483284
 30
0.0
 10
1108.991412163
 20
24.0304483284
 30
0.0
 10
1109.1314246825
 20
24.118904836
 30
0.0
 10
1109.2206663071
 20
24.249757658
 30
0.0
 10
1109.2206663071
 20
24.249757658
 30
0.0
 10
1109.2253770087
 20
24.249757658
 30
0.0
 10
1109.2253770087
 20
24.249757658
 30
0.0
 10
1109.2253770087
 20
24.249757658
 30
0.0
 10
1109.2253770087
 20
24.0304483284
 30
0.0
 10
1109.2253770087
 20
24.0304483284
 30
0.0
 10
1109.2253770087
 20
23.7938664262
 30
0.0
 10
1109.1688485896
 20
23.6070085965
 30
0.0
 10
1108.8956278973
 20
23.6070085965
 30
0.0
 10
1108.6933294346
 20
23.6070085965
 30
0.0
 10
1108.5506998586
 20
23.7252995475
 30
0.0
 10
1108.5506998586
 20
23.931523595
 30
0.0
 10
1108.5506998586
 20
23.931523595
 30
0.0
 10
1108.3290351782
 20
23.931523595
 30
0.0
 10
1108.3290351782
 20
23.931523595
 30
0.0
 10
1108.3340075855
 20
23.6070085965
 30
0.0
 10
1108.565093669
 20
23.4102059522
 30
0.0
 10
1108.8854213772
 20
23.4102059522
 30
0.0
 10
1109.3334614396
 20
23.4102059522
 30
0.0
 10
1109.4470416891
 20
23.6954651041
 30
0.0
 10
1109.4470416891
 20
24.0922108603
 30
0.0
 10
1109.4470416891
 20
24.0922108603
 30
0.0
 10
1109.4470416891
 20
25.2227792421
 30
0.0
 10
1109.4470416891
 20
25.2227792421
 30
0.0
  0
SPLINE
  5
269
330
23B
100
AcDbEntity
  8
0
  6
Continuous
 62
     7
100
AcDbSpline
 70
     3
 71
     3
 72
    44
 73
    40
 74
     0
 42
0.000000001
 43
0.0000001
 40
0.0
 40
0.0
 40
0.0
 40
0.0
 40
1.0
 40
1.0
 40
1.0
 40
2.0
 40
2.0
 40
2.0
 40
3.0
 40
3.0
 40
3.0
 40
4.0
 40
4.0
 40
4.0
 40
5.0
 40
5.0
 40
5.0
 40
6.0
 40
6.0
 40
6.0
 40
7.0
 40
7.0
 40
7.0
 40
8.0
 40
8.0
 40
8.0
 40
9.0
 40
9.0
 40
9.0
 40
10.0
 40
10.0
 40
10.0
 40
11.0
 40
11.0
 40
11.0
 40
12.0
 40
12.0
 40
12.0
 40
13.0
 40
13.0
 40
13.0
 40
13.0
 10
1111.0159670245
 20
26.2078392859
 30
0.0
 10
1111.0159670245
 20
26.2078392859
 30
0.0
 10
1111.0159670245
 20
24.069704175
 30
0.0
 10
1111.0159670245
 20
24.069704175
 30
0.0
 10
1111.0159670245
 20
24.069704175
 30
0.0
 10
1111.2373699993
 20
24.069704175
 30
0.0
 10
1111.2373699993
 20
24.069704175
 30
0.0
 10
1111.2373699993
 20
24.069704175
 30
0.0
 10
1111.2373699993
 20
24.5993963983
 30
0.0
 10
1111.2373699993
 20
24.5993963983
 30
0.0
 10
1111.2373699993
 20
24.8092843247
 30
0.0
 10
1111.2373699993
 20
25.0599983316
 30
0.0
 10
1111.5226291512
 20
25.0599983316
 30
0.0
 10
1111.7495279445
 20
25.0599983316
 30
0.0
 10
1111.7764836258
 20
24.9270518645
 30
0.0
 10
1111.7764836258
 20
24.7307726315
 30
0.0
 10
1111.7764836258
 20
24.7307726315
 30
0.0
 10
1111.7764836258
 20
24.069704175
 30
0.0
 10
1111.7764836258
 20
24.069704175
 30
0.0
 10
1111.7764836258
 20
24.069704175
 30
0.0
 10
1111.9984100118
 20
24.069704175
 30
0.0
 10
1111.9984100118
 20
24.069704175
 30
0.0
 10
1111.9984100118
 20
24.069704175
 30
0.0
 10
1111.9984100118
 20
24.7569431959
 30
0.0
 10
1111.9984100118
 20
24.7569431959
 30
0.0
 10
1111.9984100118
 20
25.0374916462
 30
0.0
 10
1111.9144025001
 20
25.2573243871
 30
0.0
 10
1111.5893640904
 20
25.2573243871
 30
0.0
 10
1111.4496132765
 20
25.2573243871
 30
0.0
 10
1111.3114326965
 20
25.1908511536
 30
0.0
 10
1111.2420807009
 20
25.0678495009
 30
0.0
 10
1111.2420807009
 20
25.0678495009
 30
0.0
 10
1111.2373699993
 20
25.0678495009
 30
0.0
 10
1111.2373699993
 20
25.0678495009
 30
0.0
 10
1111.2373699993
 20
25.0678495009
 30
0.0
 10
1111.2373699993
 20
26.2078392859
 30
0.0
 10
1111.2373699993
 20
26.2078392859
 30
0.0
 10
1111.2373699993
 20
26.2078392859
 30
0.0
 10
1111.0159670245
 20
26.2078392859
 30
0.0
 10
1111.0159670245
 20
26.2078392859
 30
0.0
  0
LWPOLYLINE
  5
26A
330
23B
100
AcDbEntity
  8
0
  6
Continuous
 62
     7
100
AcDbPolyline
 90
        2
 70
     0
 43
0.2
 10
1113.838201
 20
25.015508
 10
1114.054631
 20
25.015508
  0
LWPOLYLINE
  5
26B
330
23B
100
AcDbEntity
  8
0
  6
Continuous
 62
     7
100
AcDbPolyline
 90
        2
 70
     0
 43
0.2
 10
1114.054631
 20
25.015508
 10
1114.054631
 20
25.222256
  0
LWPOLYLINE
  5
26C
330
23B
100
AcDbEntity
  8
0
  6
Continuous
 62
     7
100
AcDbPolyline
 90
        2
 70
     0
 43
0.2
 10
1114.054631
 20
25.222256
 10
1113.838201
 20
25.222256
  0
LWPOLYLINE
  5
26D
330
23B
100
AcDbEntity
  8
0
  6
Continuous
 62
     7
100
AcDbPolyline
 90
        2
 70
     0
 43
0.2
 10
1113.838201
 20
25.222256
 10
1113.838201
 20
25.662968
  0
LWPOLYLINE
  5
26E
330
23B
100
AcDbEntity
  8
0
  6
Continuous
 62
     7
100
AcDbPolyline
 90
        2
 70
     0
 43
0.2
 10
1113.838201
 20
25.662968
 10
1113.616536
 20
25.662968
  0
LWPOLYLINE
  5
26F
330
23B
100
AcDbEntity
  8
0
  6
Continuous
 62
     7
100
AcDbPolyline
 90
        2
 70
     0
 43
0.2
 10
1113.616536
 20
25.662968
 10
1113.616536
 20
25.222256
  0
LWPOLYLINE
  5
270
330
23B
100
AcDbEntity
  8
0
  6
Continuous
 62
     7
100
AcDbPolyline
 90
        2
 70
     0
 43
0.2
 10
1113.616536
 20
25.222256
 10
1113.49589
 20
25.222256
  0
LWPOLYLINE
  5
271
330
23B
100
AcDbEntity
  8
0
  6
Continuous
 62
     7
100
AcDbPolyline
 90
        2
 70
     0
 43
0.2
 10
1113.49589
 20
25.222256
 10
1113.49589
 20
25.015508
  0
LWPOLYLINE
  5
272
330
23B
100
AcDbEntity
  8
0
  6
Continuous
 62
     7
100
AcDbPolyline
 90
        2
 70
     0
 43
0.2
 10
1113.49589
 20
25.015508
 10
1113.616536
 20
25.015508
  0
LWPOLYLINE
  5
273
330
23B
100
AcDbEntity
  8
0
  6
Continuous
 62
     7
100
AcDbPolyline
 90
        2
 70
     0
 43
0.2
 10
1113.616536
 20
25.015508
 10
1113.616536
 20
24.069704
  0
LWPOLYLINE
  5
274
330
23B
100
AcDbEntity
  8
0
  6
Continuous
 62
     7
100
AcDbPolyline
 90
        2
 70
     0
 43
0.2
 10
1113.616536
 20
24.069704
 10
1113.838201
 20
24.069704
  0
LWPOLYLINE
  5
275
330
23B
100
AcDbEntity
  8
0
  6
Continuous
 62
     7
100
AcDbPolyline
 90
        2
 70
     0
 43
0.2
 10
1113.838201
 20
24.069704
 10
1113.838201
 20
25.015508
  0
SPLINE
  5
276
330
23B
100
AcDbEntity
  8
0
  6
Continuous
 62
     7
100
AcDbSpline
 70
     3
 71
     3
 72
    20
 73
    16
 74
     0
 42
0.000000001
 43
0.0000001
 40
0.0
 40
0.0
 40
0.0
 40
0.0
 40
1.0
 40
1.0
 40
1.0
 40
2.0
 40
2.0
 40
2.0
 40
3.0
 40
3.0
 40
3.0
 40
4.0
 40
4.0
 40
4.0
 40
5.0
 40
5.0
 40
5.0
 40
5.0
 10
1101.6202109959
 20
34.4306306183
 30
0.0
 10
1101.6202109959
 20
34.4306306183
 30
0.0
 10
1103.9365676504
 20
31.6010691961
 30
0.0
 10
1103.9365676504
 20
31.6010691961
 30
0.0
 10
1103.284920597
 20
30.9488987314
 30
0.0
 10
1102.508047393
 20
30.2129824607
 30
0.0
 10
1101.5368577484
 20
30.2129824607
 30
0.0
 10
1100.5383198639
 20
30.2129824607
 30
0.0
 10
1099.5950018704
 20
31.1425609079
 30
0.0
 10
1099.5950018704
 20
32.1417530565
 30
0.0
 10
1099.5950018704
 20
33.140945205
 30
0.0
 10
1100.7738549435
 20
33.8475504437
 30
0.0
 10
1101.4953774038
 20
34.3474082236
 30
0.0
 10
1101.4953774038
 20
34.3474082236
 30
0.0
 10
1101.6202109959
 20
34.4306306183
 30
0.0
 10
1101.6202109959
 20
34.4306306183
 30
0.0
  0
SPLINE
  5
277
330
23B
100
AcDbEntity
  8
0
  6
Continuous
 62
     7
100
AcDbSpline
 70
     3
 71
     3
 72
    23
 73
    19
 74
     0
 42
0.000000001
 43
0.0000001
 40
0.0
 40
0.0
 40
0.0
 40
0.0
 40
1.0
 40
1.0
 40
1.0
 40
2.0
 40
2.0
 40
2.0
 40
3.0
 40
3.0
 40
3.0
 40
4.0
 40
4.0
 40
4.0
 40
5.0
 40
5.0
 40
5.0
 40
6.0
 40
6.0
 40
6.0
 40
6.0
 10
1101.8976189785
 20
36.0683845381
 30
0.0
 10
1101.8976189785
 20
36.0683845381
 30
0.0
 10
1101.5511207059
 20
36.5117138989
 30
0.0
 10
1101.5511207059
 20
36.5117138989
 30
0.0
 10
1101.245317661
 20
36.8998233689
 30
0.0
 10
1100.9264293339
 20
37.2883253973
 30
0.0
 10
1100.9264293339
 20
37.8152697114
 30
0.0
 10
1100.9264293339
 20
38.481441428
 30
0.0
 10
1101.4677674584
 20
38.9251633473
 30
0.0
 10
1102.0916737135
 20
38.9251633473
 30
0.0
 10
1102.7854553756
 20
38.9251633473
 30
0.0
 10
1103.3126613953
 20
38.5229217726
 30
0.0
 10
1103.3126613953
 20
37.7879214716
 30
0.0
 10
1103.3126613953
 20
37.024656961
 30
0.0
 10
1102.5914006406
 20
36.5945437352
 30
0.0
 10
1102.0643254737
 20
36.1788243198
 30
0.0
 10
1102.0643254737
 20
36.1788243198
 30
0.0
 10
1101.8976189785
 20
36.0683845381
 30
0.0
 10
1101.8976189785
 20
36.0683845381
 30
0.0
  0
SPLINE
  5
278
330
23B
100
AcDbEntity
  8
0
  6
Continuous
 62
     7
100
AcDbSpline
 70
     3
 71
     3
 72
    50
 73
    46
 74
     0
 42
0.000000001
 43
0.0000001
 40
0.0
 40
0.0
 40
0.0
 40
0.0
 40
1.0
 40
1.0
 40
1.0
 40
2.0
 40
2.0
 40
2.0
 40
3.0
 40
3.0
 40
3.0
 40
4.0
 40
4.0
 40
4.0
 40
5.0
 40
5.0
 40
5.0
 40
6.0
 40
6.0
 40
6.0
 40
7.0
 40
7.0
 40
7.0
 40
8.0
 40
8.0
 40
8.0
 40
9.0
 40
9.0
 40
9.0
 40
10.0
 40
10.0
 40
10.0
 40
11.0
 40
11.0
 40
11.0
 40
12.0
 40
12.0
 40
12.0
 40
13.0
 40
13.0
 40
13.0
 40
14.0
 40
14.0
 40
14.0
 40
15.0
 40
15.0
 40
15.0
 40
15.0
 10
1105.8512061414
 20
29.2697953199
 30
0.0
 10
1105.8512061414
 20
29.2697953199
 30
0.0
 10
1107.460434146
 20
29.2697953199
 30
0.0
 10
1107.460434146
 20
29.2697953199
 30
0.0
 10
1107.460434146
 20
29.2697953199
 30
0.0
 10
1105.5874068524
 20
31.5869370913
 30
0.0
 10
1105.5874068524
 20
31.5869370913
 30
0.0
 10
1105.5874068524
 20
31.5869370913
 30
0.0
 10
1106.8637452778
 20
33.0844167859
 30
0.0
 10
1106.8637452778
 20
33.0844167859
 30
0.0
 10
1106.8637452778
 20
33.0844167859
 30
0.0
 10
1106.0315213301
 20
33.9454283545
 30
0.0
 10
1106.0315213301
 20
33.9454283545
 30
0.0
 10
1106.0315213301
 20
33.9454283545
 30
0.0
 10
1104.8109262068
 20
32.5301242321
 30
0.0
 10
1104.8109262068
 20
32.5301242321
 30
0.0
 10
1104.8109262068
 20
32.5301242321
 30
0.0
 10
1102.633011838
 20
35.1655000665
 30
0.0
 10
1102.633011838
 20
35.1655000665
 30
0.0
 10
1103.5065852774
 20
35.8035384264
 30
0.0
 10
1104.5332565186
 20
36.5945437352
 30
0.0
 10
1104.5332565186
 20
37.7733968083
 30
0.0
 10
1104.5332565186
 20
39.1470897333
 30
0.0
 10
1103.3953603788
 20
39.9515728828
 30
0.0
 10
1102.1200687759
 20
39.9515728828
 30
0.0
 10
1100.7466375565
 20
39.9515728828
 30
0.0
 10
1099.7057033577
 20
39.1053476831
 30
0.0
 10
1099.7057033577
 20
37.6626953209
 30
0.0
 10
1099.7057033577
 20
36.7751206295
 30
0.0
 10
1100.2610427342
 20
35.9982474255
 30
0.0
 10
1100.8572081911
 20
35.3738177591
 30
0.0
 10
1100.8572081911
 20
35.3738177591
 30
0.0
 10
1100.205299432
 20
34.9022241887
 30
0.0
 10
1100.205299432
 20
34.9022241887
 30
0.0
 10
1099.2067615476
 20
34.180963434
 30
0.0
 10
1098.3738833358
 20
33.4597026793
 30
0.0
 10
1098.3738833358
 20
32.128144363
 30
0.0
 10
1098.3738833358
 20
30.324469065
 30
0.0
 10
1099.8309295084
 20
29.0478689339
 30
0.0
 10
1101.5784689457
 20
29.0478689339
 30
0.0
 10
1102.8133270266
 20
29.0478689339
 30
0.0
 10
1103.9226972513
 20
29.7560444064
 30
0.0
 10
1104.7135717073
 20
30.6845760311
 30
0.0
 10
1104.7135717073
 20
30.6845760311
 30
0.0
 10
1105.8512061414
 20
29.2697953199
 30
0.0
 10
1105.8512061414
 20
29.2697953199
 30
0.0
  0
LINE
  5
279
330
23B
100
AcDbEntity
  8
0
  6
Continuous
 62
     7
100
AcDbLine
 10
1091.654068
 20
27.24367
 30
0.0
 11
1114.067978
 21
27.24367
 31
0.0
  0
LINE
  5
27A
330
23B
100
AcDbEntity
  8
0
  6
Continuous
 62
     7
100
AcDbLine
 10
1114.067978
 20
27.24367
 30
0.0
 11
1114.067978
 21
49.657581
 31
0.0
  0
LINE
  5
27B
330
23B
100
AcDbEntity
  8
0
  6
Continuous
 62
     7
100
AcDbLine
 10
1114.067978
 20
49.657581
 30
0.0
 11
1091.654068
 21
49.657581
 31
0.0
  0
LINE
  5
27C
330
23B
100
AcDbEntity
  8
0
  6
Continuous
 62
     7
100
AcDbLine
 10
1091.654068
 20
49.657581
 30
0.0
 11
1091.654068
 21
27.24367
 31
0.0
  0
ENDBLK
  5
27D
330
23B
100
AcDbEntity
  8
0
  6
ByBlock
 62
     0
100
AcDbBlockEnd
  0
BLOCK
  5
2A8
330
23C
100
AcDbEntity
  8
0
100
AcDbBlockBegin
  2
*T6
 70
     1
 10
0.0
 20
0.0
 30
0.0
  3
*T6
  1
*T6
  0
LINE
  5
2A9
330
23C
100
AcDbEntity
  8
0
  6
Continuous
 62
     2
100
AcDbLine
 10
0.0
 20
0.0
 30
0.0
 11
90.0
 21
0.0
 31
0.0
  0
LINE
  5
2AA
330
23C
100
AcDbEntity
  8
0
  6
Continuous
 62
     2
100
AcDbLine
 10
0.0
 20
0.0
 30
0.0
 11
0.0
 21
-40.0
 31
0.0
  0
LINE
  5
2AB
330
23C
100
AcDbEntity
  8
0
  6
Continuous
 62
     2
100
AcDbLine
 10
30.0
 20
-6.0
 30
0.0
 11
90.0
 21
-6.0
 31
0.0
  0
LINE
  5
2AC
330
23C
100
AcDbEntity
  8
0
  6
Continuous
 62
     2
100
AcDbLine
 10
30.0
 20
-12.0
 30
0.0
 11
90.0
 21
-12.0
 31
0.0
  0
LINE
  5
2AD
330
23C
100
AcDbEntity
  8
0
  6
Continuous
 62
     2
100
AcDbLine
 10
30.0
 20
-22.0
 30
0.0
 11
90.0
 21
-22.0
 31
0.0
  0
LINE
  5
2AE
330
23C
100
AcDbEntity
  8
0
  6
Continuous
 62
     2
100
AcDbLine
 10
0.0
 20
-27.0
 30
0.0
 11
90.0
 21
-27.0
 31
0.0
  0
LINE
  5
2AF
330
23C
100
AcDbEntity
  8
0
  6
Continuous
 62
     2
100
AcDbLine
 10
0.0
 20
-40.0
 30
0.0
 11
90.0
 21
-40.0
 31
0.0
  0
LINE
  5
2B0
330
23C
100
AcDbEntity
  8
0
  6
Continuous
 62
     2
100
AcDbLine
 10
30.0
 20
0.0
 30
0.0
 11
30.0
 21
-27.0
 31
0.0
  0
LINE
  5
2B1
330
23C
100
AcDbEntity
  8
0
  6
Continuous
 62
     2
100
AcDbLine
 10
70.0
 20
0.0
 30
0.0
 11
70.0
 21
-12.0
 31
0.0
  0
LINE
  5
2B2
330
23C
100
AcDbEntity
  8
0
  6
Continuous
 62
     2
100
AcDbLine
 10
90.0
 20
0.0
 30
0.0
 11
90.0
 21
-40.0
 31
0.0
  0
MTEXT
  5
2B3
330
23C
100
AcDbEntity
  8
9_SOLID
  6
Continuous
 62
     2
100
AcDbMText
 10
31.4875
 20
-1.5
 30
0.0
 40
3.0
 41
48.914498
 46
0.0
 71
     1
 72
     1
  1
A138_C_401
 73
     1
 44
0.9
  0
MTEXT
  5
2B4
330
23C
100
AcDbEntity
  8
9_SOLID
  6
Continuous
 62
     2
100
AcDbMText
 10
71.4875
 20
-1.25
 30
0.0
 40
3.5
 41
30.966543
 46
0.0
 71
     1
 72
     1
  1
Rev:00
 73
     1
 44
0.9
  0
MTEXT
  5
2B5
330
23C
100
AcDbEntity
  8
9_SOLID
  6
Continuous
 62
     2
100
AcDbMText
 10
31.4875
 20
-7.75
 30
0.0
 40
3.5
 41
40.724907
 46
0.0
 71
     1
 72
     1
  1
Scale:1:1
 73
     1
 44
0.9
  0
MTEXT
  5
2B6
330
23C
100
AcDbEntity
  8
9_SOLID
  6
Continuous
 62
     2
100
AcDbMText
 10
71.4875
 20
-7.25
 30
0.0
 40
3.5
 41
11.944238
 46
0.0
 71
     1
 72
     1
  1
A0
 73
     1
 44
0.9
  0
MTEXT
  5
2B7
330
23C
100
AcDbEntity
  8
9_SOLID
  6
Continuous
 62
     2
100
AcDbMText
 10
31.4875
 20
-15.25
 30
0.0
 40
3.5
 41
65.081784
 46
0.0
 71
     1
 72
     1
  1
BERICA IN 2.2
 73
     1
 44
0.9
  0
MTEXT
  5
2B8
330
23C
100
AcDbEntity
  8
9_SOLID
  6
Continuous
 62
     2
100
AcDbMText
 10
31.4875
 20
-23.25
 30
0.0
 40
2.5
 41
47.695167
 46
0.0
 71
     1
 72
     1
  1
DATE:12.11.20
 73
     1
 44
0.9
  0
MTEXT
  5
2B9
330
23C
100
AcDbEntity
  8
9_SOLID
  6
Continuous
 62
     2
100
AcDbMText
 10
1.4875
 20
-27.3125
 30
0.0
 40
2.25
 41
148.98513
 46
0.0
 71
     1
 72
     1
  1
Any integral or partial reproductions are prohibited \Pwithout prior authorisation of L & L Luce & Light s.r.l., \Pin accordance with the law in force. \PAll rights reserved.
 73
     1
 44
0.9
  0
ENDBLK
  5
2BA
330
23C
100
AcDbEntity
  8
0
  6
ByBlock
 62
     0
100
AcDbBlockEnd
  0
ENDSEC
  0
SECTION
  2
ENTITIES
  0
LINE
  5
2BB
330
234
100
AcDbEntity
  8
0
  6
Continuous
 62
     7
100
AcDbLine
 10
1189.0
 20
0.0
 30
0.0
 11
1189.0
 21
841.0
 31
0.0
  0
LINE
  5
2BC
330
234
100
AcDbEntity
  8
0
  6
Continuous
 62
     7
100
AcDbLine
 10
0.0
 20
841.0
 30
0.0
 11
1189.0
 21
841.0
 31
0.0
  0
LINE
  5
2BD
330
234
100
AcDbEntity
  8
0
  6
Continuous
 62
     7
100
AcDbLine
 10
0.0
 20
0.0
 30
0.0
 11
0.0
 21
841.0
 31
0.0
  0
LINE
  5
2BE
330
234
100
AcDbEntity
  8
0
  6
Continuous
 62
     7
100
AcDbLine
 10
7.0
 20
834.0
 30
0.0
 11
1182.0
 21
834.0
 31
0.0
  0
LINE
  5
2BF
330
234
100
AcDbEntity
  8
0
  6
Continuous
 62
     7
100
AcDbLine
 10
1182.0
 20
7.0
 30
0.0
 11
1182.0
 21
834.0
 31
0.0
  0
LINE
  5
2C0
330
234
100
AcDbEntity
  8
0
  6
Continuous
 62
     7
100
AcDbLine
 10
7.0
 20
7.0
 30
0.0
 11
7.0
 21
841.0
 31
0.0
  0
LINE
  5
2C1
330
234
100
AcDbEntity
  8
0
  6
Continuous
 62
     7
100
AcDbLine
 10
7.0
 20
7.0
 30
0.0
 11
1182.0
 21
7.0
 31
0.0
  0
LINE
  5
2C2
330
234
100
AcDbEntity
  8
0
  6
Continuous
 62
     7
100
AcDbLine
 10
10.0
 20
831.0
 30
0.0
 11
1179.0
 21
831.0
 31
0.0
  0
LINE
  5
2C3
330
234
100
AcDbEntity
  8
0
  6
Continuous
 62
     7
100
AcDbLine
 10
10.0
 20
10.0
 30
0.0
 11
10.0
 21
831.0
 31
0.0
  0
LINE
  5
2C4
330
234
100
AcDbEntity
  8
0
  6
Continuous
 62
     7
100
AcDbLine
 10
10.0
 20
10.0
 30
0.0
 11
1179.0
 21
10.0
 31
0.0
  0
LINE
  5
2C5
330
234
100
AcDbEntity
  8
0
  6
Continuous
 62
     7
100
AcDbLine
 10
1179.0
 20
10.0
 30
0.0
 11
1179.0
 21
831.0
 31
0.0
  0
LINE
  5
2C6
330
234
100
AcDbEntity
  8
0
  6
Continuous
 62
     7
100
AcDbLine
 10
594.5
 20
841.0
 30
0.0
 11
594.5
 21
830.996355
 31
0.0
  0
LINE
  5
2C7
330
234
100
AcDbEntity
  8
0
  6
Continuous
 62
     7
100
AcDbLine
 10
1189.0
 20
420.5
 30
0.0
 11
1179.032471
 21
420.5
 31
0.0
  0
LINE
  5
2C8
330
234
100
AcDbEntity
  8
0
  6
Continuous
 62
     7
100
AcDbLine
 10
979.0
 20
0.0
 30
0.0
 11
979.0
 21
10.0
 31
0.0
  0
LINE
  5
2C9
330
234
100
AcDbEntity
  8
0
  6
Continuous
 62
     7
100
AcDbLine
 10
0.0
 20
0.0
 30
0.0
 11
1189.0
 21
0.0
 31
0.0
  0
LINE
  5
2CA
330
234
100
AcDbEntity
  8
0
  6
Continuous
 62
     7
100
AcDbLine
 10
1182.0
 20
7.0
 30
0.0
 11
1182.0
 21
0.0
 31
0.0
  0
LINE
  5
2CB
330
234
100
AcDbEntity
  8
0
  6
Continuous
 62
     7
100
AcDbLine
 10
1182.0
 20
7.0
 30
0.0
 11
1189.0
 21
7.0
 31
0.0
  0
LINE
  5
2CC
330
234
100
AcDbEntity
  8
0
  6
Continuous
 62
     7
100
AcDbLine
 10
1082.0
 20
7.0
 30
0.0
 11
1082.0
 21
0.0
 31
0.0
  0
LINE
  5
2CD
330
234
100
AcDbEntity
  8
0
  6
Continuous
 62
     7
100
AcDbLine
 10
882.0
 20
7.0
 30
0.0
 11
882.0
 21
0.0
 31
0.0
  0
LINE
  5
2CE
330
234
100
AcDbEntity
  8
0
  6
Continuous
 62
     7
100
AcDbLine
 10
782.0
 20
7.0
 30
0.0
 11
782.0
 21
0.0
 31
0.0
  0
LINE
  5
2CF
330
234
100
AcDbEntity
  8
0
  6
Continuous
 62
     7
100
AcDbLine
 10
682.0
 20
7.0
 30
0.0
 11
682.0
 21
0.0
 31
0.0
  0
LINE
  5
2D0
330
234
100
AcDbEntity
  8
0
  6
Continuous
 62
     7
100
AcDbLine
 10
582.0
 20
7.0
 30
0.0
 11
582.0
 21
0.0
 31
0.0
  0
LINE
  5
2D1
330
234
100
AcDbEntity
  8
0
  6
Continuous
 62
     7
100
AcDbLine
 10
482.0
 20
7.0
 30
0.0
 11
482.0
 21
0.0
 31
0.0
  0
LINE
  5
2D2
330
234
100
AcDbEntity
  8
0
  6
Continuous
 62
     7
100
AcDbLine
 10
382.0
 20
7.0
 30
0.0
 11
382.0
 21
0.0
 31
0.0
  0
LINE
  5
2D3
330
234
100
AcDbEntity
  8
0
  6
Continuous
 62
     7
100
AcDbLine
 10
282.0
 20
7.0
 30
0.0
 11
282.0
 21
0.0
 31
0.0
  0
LINE
  5
2D4
330
234
100
AcDbEntity
  8
0
  6
Continuous
 62
     7
100
AcDbLine
 10
182.0
 20
7.0
 30
0.0
 11
182.0
 21
0.0
 31
0.0
  0
LINE
  5
2D5
330
234
100
AcDbEntity
  8
0
  6
Continuous
 62
     7
100
AcDbLine
 10
82.0
 20
7.0
 30
0.0
 11
82.0
 21
0.0
 31
0.0
  0
LINE
  5
2D6
330
234
100
AcDbEntity
  8
0
  6
Continuous
 62
     7
100
AcDbLine
 10
7.0
 20
7.0
 30
0.0
 11
0.0
 21
7.0
 31
0.0
  0
LINE
  5
2D7
330
234
100
AcDbEntity
  8
0
  6
Continuous
 62
     7
100
AcDbLine
 10
7.0
 20
7.0
 30
0.0
 11
7.0
 21
0.0
 31
0.0
  0
LINE
  5
2D8
330
234
100
AcDbEntity
  8
0
  6
Continuous
 62
     7
100
AcDbLine
 10
1182.0
 20
107.0
 30
0.0
 11
1189.0
 21
107.0
 31
0.0
  0
LINE
  5
2D9
330
234
100
AcDbEntity
  8
0
  6
Continuous
 62
     7
100
AcDbLine
 10
1182.0
 20
207.0
 30
0.0
 11
1189.0
 21
207.0
 31
0.0
  0
LINE
  5
2DA
330
234
100
AcDbEntity
  8
0
  6
Continuous
 62
     7
100
AcDbLine
 10
1182.0
 20
307.0
 30
0.0
 11
1189.0
 21
307.0
 31
0.0
  0
LINE
  5
2DB
330
234
100
AcDbEntity
  8
0
  6
Continuous
 62
     7
100
AcDbLine
 10
1179.0
 20
507.0
 30
0.0
 11
1189.0
 21
507.0
 31
0.0
  0
LINE
  5
2DC
330
234
100
AcDbEntity
  8
0
  6
Continuous
 62
     7
100
AcDbLine
 10
1182.0
 20
607.0
 30
0.0
 11
1189.0
 21
607.0
 31
0.0
  0
LINE
  5
2DD
330
234
100
AcDbEntity
  8
0
  6
Continuous
 62
     7
100
AcDbLine
 10
1182.0
 20
707.0
 30
0.0
 11
1189.0
 21
707.0
 31
0.0
  0
LINE
  5
2DE
330
234
100
AcDbEntity
  8
0
  6
Continuous
 62
     7
100
AcDbLine
 10
1182.0
 20
834.0
 30
0.0
 11
1189.0
 21
834.0
 31
0.0
  0
LINE
  5
2DF
330
234
100
AcDbEntity
  8
0
  6
Continuous
 62
     7
100
AcDbLine
 10
1182.0
 20
834.0
 30
0.0
 11
1182.0
 21
841.0
 31
0.0
  0
LINE
  5
2E0
330
234
100
AcDbEntity
  8
0
  6
Continuous
 62
     7
100
AcDbLine
 10
0.0
 20
834.0
 30
0.0
 11
1189.0
 21
834.0
 31
0.0
  0
LINE
  5
2E1
330
234
100
AcDbEntity
  8
0
  6
Continuous
 62
     7
100
AcDbLine
 10
979.0
 20
831.0
 30
0.0
 11
979.0
 21
841.0
 31
0.0
  0
LINE
  5
2E2
330
234
100
AcDbEntity
  8
0
  6
Continuous
 62
     7
100
AcDbLine
 10
1082.0
 20
841.0
 30
0.0
 11
1082.0
 21
834.0
 31
0.0
  0
LINE
  5
2E3
330
234
100
AcDbEntity
  8
0
  6
Continuous
 62
     7
100
AcDbLine
 10
882.0
 20
841.0
 30
0.0
 11
882.0
 21
834.0
 31
0.0
  0
LINE
  5
2E4
330
234
100
AcDbEntity
  8
0
  6
Continuous
 62
     7
100
AcDbLine
 10
782.0
 20
841.0
 30
0.0
 11
782.0
 21
834.0
 31
0.0
  0
LINE
  5
2E5
330
234
100
AcDbEntity
  8
0
  6
Continuous
 62
     7
100
AcDbLine
 10
682.0
 20
841.0
 30
0.0
 11
682.0
 21
834.0
 31
0.0
  0
LINE
  5
2E6
330
234
100
AcDbEntity
  8
0
  6
Continuous
 62
     7
100
AcDbLine
 10
582.0
 20
841.0
 30
0.0
 11
582.0
 21
834.0
 31
0.0
  0
LINE
  5
2E7
330
234
100
AcDbEntity
  8
0
  6
Continuous
 62
     7
100
AcDbLine
 10
482.0
 20
841.0
 30
0.0
 11
482.0
 21
834.0
 31
0.0
  0
LINE
  5
2E8
330
234
100
AcDbEntity
  8
0
  6
Continuous
 62
     7
100
AcDbLine
 10
382.0
 20
841.0
 30
0.0
 11
382.0
 21
834.0
 31
0.0
  0
LINE
  5
2E9
330
234
100
AcDbEntity
  8
0
  6
Continuous
 62
     7
100
AcDbLine
 10
282.0
 20
841.0
 30
0.0
 11
282.0
 21
834.0
 31
0.0
  0
LINE
  5
2EA
330
234
100
AcDbEntity
  8
0
  6
Continuous
 62
     7
100
AcDbLine
 10
182.0
 20
841.0
 30
0.0
 11
182.0
 21
834.0
 31
0.0
  0
LINE
  5
2EB
330
234
100
AcDbEntity
  8
0
  6
Continuous
 62
     7
100
AcDbLine
 10
82.0
 20
841.0
 30
0.0
 11
82.0
 21
834.0
 31
0.0
  0
LINE
  5
2EC
330
234
100
AcDbEntity
  8
0
  6
Continuous
 62
     7
100
AcDbLine
 10
7.0
 20
420.5
 30
0.0
 11
-2.967529
 21
420.5
 31
0.0
  0
LINE
  5
2ED
330
234
100
AcDbEntity
  8
0
  6
Continuous
 62
     7
100
AcDbLine
 10
0.0
 20
107.0
 30
0.0
 11
7.0
 21
107.0
 31
0.0
  0
LINE
  5
2EE
330
234
100
AcDbEntity
  8
0
  6
Continuous
 62
     7
100
AcDbLine
 10
0.0
 20
207.0
 30
0.0
 11
7.0
 21
207.0
 31
0.0
  0
LINE
  5
2EF
330
234
100
AcDbEntity
  8
0
  6
Continuous
 62
     7
100
AcDbLine
 10
0.0
 20
307.0
 30
0.0
 11
7.0
 21
307.0
 31
0.0
  0
LINE
  5
2F0
330
234
100
AcDbEntity
  8
0
  6
Continuous
 62
     7
100
AcDbLine
 10
-3.0
 20
507.0
 30
0.0
 11
7.0
 21
507.0
 31
0.0
  0
LINE
  5
2F1
330
234
100
AcDbEntity
  8
0
  6
Continuous
 62
     7
100
AcDbLine
 10
0.0
 20
607.0
 30
0.0
 11
7.0
 21
607.0
 31
0.0
  0
LINE
  5
2F2
330
234
100
AcDbEntity
  8
0
  6
Continuous
 62
     7
100
AcDbLine
 10
0.0
 20
707.0
 30
0.0
 11
7.0
 21
707.0
 31
0.0
  0
MTEXT
  5
2F3
330
234
100
AcDbEntity
  8
0
  6
Continuous
 62
     2
100
AcDbMText
 10
1131.154891
 20
5.35876
 30
0.0
 40
4.0
 41
5.142857
 46
0.0
 71
     1
 72
     1
  1
A
  7
TEXTSTYLE_2
 73
     1
 44
0.9
  0
MTEXT
  5
2F4
330
234
100
AcDbEntity
  8
0
  6
Continuous
 62
     2
100
AcDbMText
 10
1031.154891
 20
5.35876
 30
0.0
 40
4.0
 41
4.714286
 46
0.0
 71
     1
 72
     1
  1
B
  7
TEXTSTYLE_2
 73
     1
 44
0.9
  0
MTEXT
  5
2F5
330
234
100
AcDbEntity
  8
0
  6
Continuous
 62
     2
100
AcDbMText
 10
931.154891
 20
5.35876
 30
0.0
 40
4.0
 41
5.0
 46
0.0
 71
     1
 72
     1
  1
C
  7
TEXTSTYLE_2
 73
     1
 44
0.9
  0
MTEXT
  5
2F6
330
234
100
AcDbEntity
  8
0
  6
Continuous
 62
     2
100
AcDbMText
 10
831.154891
 20
5.35876
 30
0.0
 40
4.0
 41
5.428571
 46
0.0
 71
     1
 72
     1
  1
D
  7
TEXTSTYLE_2
 73
     1
 44
0.9
  0
MTEXT
  5
2F7
330
234
100
AcDbEntity
  8
0
  6
Continuous
 62
     2
100
AcDbMText
 10
731.154891
 20
5.35876
 30
0.0
 40
4.0
 41
4.285714
 46
0.0
 71
     1
 72
     1
  1
E
  7
TEXTSTYLE_2
 73
     1
 44
0.9
  0
MTEXT
  5
2F8
330
234
100
AcDbEntity
  8
0
  6
Continuous
 62
     2
100
AcDbMText
 10
631.154891
 20
5.35876
 30
0.0
 40
4.0
 41
4.285714
 46
0.0
 71
     1
 72
     1
  1
F
  7
TEXTSTYLE_2
 73
     1
 44
0.9
  0
MTEXT
  5
2F9
330
234
100
AcDbEntity
  8
0
  6
Continuous
 62
     2
100
AcDbMText
 10
531.154891
 20
5.35876
 30
0.0
 40
4.0
 41
4.714286
 46
0.0
 71
     1
 72
     1
  1
G
  7
TEXTSTYLE_2
 73
     1
 44
0.9
  0
MTEXT
  5
2FA
330
234
100
AcDbEntity
  8
0
  6
Continuous
 62
     2
100
AcDbMText
 10
431.154891
 20
5.35876
 30
0.0
 40
4.0
 41
4.714286
 46
0.0
 71
     1
 72
     1
  1
H
  7
TEXTSTYLE_2
 73
     1
 44
0.9
  0
MTEXT
  5
2FB
330
234
100
AcDbEntity
  8
0
  6
Continuous
 62
     2
100
AcDbMText
 10
331.154891
 20
5.35876
 30
0.0
 40
4.0
 41
3.857143
 46
0.0
 71
     1
 72
     1
  1
I
  7
TEXTSTYLE_2
 73
     1
 44
0.9
  0
MTEXT
  5
2FC
330
234
100
AcDbEntity
  8
0
  6
Continuous
 62
     2
100
AcDbMText
 10
231.154891
 20
5.35876
 30
0.0
 40
4.0
 41
3.857143
 46
0.0
 71
     1
 72
     1
  1
L
  7
TEXTSTYLE_2
 73
     1
 44
0.9
  0
MTEXT
  5
2FD
330
234
100
AcDbEntity
  8
0
  6
Continuous
 62
     2
100
AcDbMText
 10
131.154891
 20
5.35876
 30
0.0
 40
4.0
 41
5.142857
 46
0.0
 71
     1
 72
     1
  1
M
  7
TEXTSTYLE_2
 73
     1
 44
0.9
  0
MTEXT
  5
2FE
330
234
100
AcDbEntity
  8
0
  6
Continuous
 62
     2
100
AcDbMText
 10
31.154891
 20
5.35876
 30
0.0
 40
4.0
 41
4.714286
 46
0.0
 71
     1
 72
     1
  1
N
  7
TEXTSTYLE_2
 73
     1
 44
0.9
  0
MTEXT
  5
2FF
330
234
100
AcDbEntity
  8
0
  6
Continuous
 62
     2
100
AcDbMText
 10
1183.646722
 20
60.626871
 30
0.0
 40
4.0
 41
3.428571
 46
0.0
 71
     1
 72
     1
  1
1
  7
TEXTSTYLE_2
 73
     1
 44
0.9
  0
MTEXT
  5
300
330
234
100
AcDbEntity
  8
0
  6
Continuous
 62
     2
100
AcDbMText
 10
1183.646722
 20
160.626871
 30
0.0
 40
4.0
 41
4.714286
 46
0.0
 71
     1
 72
     1
  1
2
  7
TEXTSTYLE_2
 73
     1
 44
0.9
  0
MTEXT
  5
301
330
234
100
AcDbEntity
  8
0
  6
Continuous
 62
     2
100
AcDbMText
 10
1183.646722
 20
260.626871
 30
0.0
 40
4.0
 41
4.285714
 46
0.0
 71
     1
 72
     1
  1
3
  7
TEXTSTYLE_2
 73
     1
 44
0.9
  0
MTEXT
  5
302
330
234
100
AcDbEntity
  8
0
  6
Continuous
 62
     2
100
AcDbMText
 10
1183.646722
 20
360.626871
 30
0.0
 40
4.0
 41
4.714286
 46
0.0
 71
     1
 72
     1
  1
4
  7
TEXTSTYLE_2
 73
     1
 44
0.9
  0
MTEXT
  5
303
330
234
100
AcDbEntity
  8
0
  6
Continuous
 62
     2
100
AcDbMText
 10
1183.646722
 20
460.626871
 30
0.0
 40
4.0
 41
4.285714
 46
0.0
 71
     1
 72
     1
  1
5
  7
TEXTSTYLE_2
 73
     1
 44
0.9
  0
MTEXT
  5
304
330
234
100
AcDbEntity
  8
0
  6
Continuous
 62
     2
100
AcDbMText
 10
1183.646722
 20
560.626871
 30
0.0
 40
4.0
 41
4.714286
 46
0.0
 71
     1
 72
     1
  1
6
  7
TEXTSTYLE_2
 73
     1
 44
0.9
  0
MTEXT
  5
305
330
234
100
AcDbEntity
  8
0
  6
Continuous
 62
     2
100
AcDbMText
 10
1183.646722
 20
660.626871
 30
0.0
 40
4.0
 41
4.714286
 46
0.0
 71
     1
 72
     1
  1
7
  7
TEXTSTYLE_2
 73
     1
 44
0.9
  0
MTEXT
  5
306
330
234
100
AcDbEntity
  8
0
  6
Continuous
 62
     2
100
AcDbMText
 10
1183.848746
 20
775.172594
 30
0.0
 40
4.0
 41
4.714286
 46
0.0
 71
     1
 72
     1
  1
8
  7
TEXTSTYLE_2
 73
     1
 44
0.9
  0
MTEXT
  5
307
330
234
100
AcDbEntity
  8
0
  6
Continuous
 62
     2
100
AcDbMText
 10
1131.154891
 20
839.35876
 30
0.0
 40
4.0
 41
5.142857
 46
0.0
 71
     1
 72
     1
  1
A
  7
TEXTSTYLE_2
 73
     1
 44
0.9
  0
MTEXT
  5
308
330
234
100
AcDbEntity
  8
0
  6
Continuous
 62
     2
100
AcDbMText
 10
1031.154891
 20
839.35876
 30
0.0
 40
4.0
 41
4.714286
 46
0.0
 71
     1
 72
     1
  1
B
  7
TEXTSTYLE_2
 73
     1
 44
0.9
  0
MTEXT
  5
309
330
234
100
AcDbEntity
  8
0
  6
Continuous
 62
     2
100
AcDbMText
 10
931.154891
 20
839.35876
 30
0.0
 40
4.0
 41
5.0
 46
0.0
 71
     1
 72
     1
  1
C
  7
TEXTSTYLE_2
 73
     1
 44
0.9
  0
MTEXT
  5
30A
330
234
100
AcDbEntity
  8
0
  6
Continuous
 62
     2
100
AcDbMText
 10
831.154891
 20
839.35876
 30
0.0
 40
4.0
 41
5.428571
 46
0.0
 71
     1
 72
     1
  1
D
  7
TEXTSTYLE_2
 73
     1
 44
0.9
  0
MTEXT
  5
30B
330
234
100
AcDbEntity
  8
0
  6
Continuous
 62
     2
100
AcDbMText
 10
731.154891
 20
839.35876
 30
0.0
 40
4.0
 41
4.285714
 46
0.0
 71
     1
 72
     1
  1
E
  7
TEXTSTYLE_2
 73
     1
 44
0.9
  0
MTEXT
  5
30C
330
234
100
AcDbEntity
  8
0
  6
Continuous
 62
     2
100
AcDbMText
 10
631.154891
 20
839.35876
 30
0.0
 40
4.0
 41
4.285714
 46
0.0
 71
     1
 72
     1
  1
F
  7
TEXTSTYLE_2
 73
     1
 44
0.9
  0
MTEXT
  5
30D
330
234
100
AcDbEntity
  8
0
  6
Continuous
 62
     2
100
AcDbMText
 10
531.154891
 20
839.35876
 30
0.0
 40
4.0
 41
4.714286
 46
0.0
 71
     1
 72
     1
  1
G
  7
TEXTSTYLE_2
 73
     1
 44
0.9
  0
MTEXT
  5
30E
330
234
100
AcDbEntity
  8
0
  6
Continuous
 62
     2
100
AcDbMText
 10
431.154891
 20
839.35876
 30
0.0
 40
4.0
 41
4.714286
 46
0.0
 71
     1
 72
     1
  1
H
  7
TEXTSTYLE_2
 73
     1
 44
0.9
  0
MTEXT
  5
30F
330
234
100
AcDbEntity
  8
0
  6
Continuous
 62
     2
100
AcDbMText
 10
331.154891
 20
839.35876
 30
0.0
 40
4.0
 41
3.857143
 46
0.0
 71
     1
 72
     1
  1
I
  7
TEXTSTYLE_2
 73
     1
 44
0.9
  0
MTEXT
  5
310
330
234
100
AcDbEntity
  8
0
  6
Continuous
 62
     2
100
AcDbMText
 10
231.154891
 20
839.35876
 30
0.0
 40
4.0
 41
3.857143
 46
0.0
 71
     1
 72
     1
  1
L
  7
TEXTSTYLE_2
 73
     1
 44
0.9
  0
MTEXT
  5
311
330
234
100
AcDbEntity
  8
0
  6
Continuous
 62
     2
100
AcDbMText
 10
131.154891
 20
839.35876
 30
0.0
 40
4.0
 41
5.142857
 46
0.0
 71
     1
 72
     1
  1
M
  7
TEXTSTYLE_2
 73
     1
 44
0.9
  0
MTEXT
  5
312
330
234
100
AcDbEntity
  8
0
  6
Continuous
 62
     2
100
AcDbMText
 10
31.154891
 20
839.35876
 30
0.0
 40
4.0
 41
4.714286
 46
0.0
 71
     1
 72
     1
  1
N
  7
TEXTSTYLE_2
 73
     1
 44
0.9
  0
MTEXT
  5
313
330
234
100
AcDbEntity
  8
0
  6
Continuous
 62
     2
100
AcDbMText
 10
1.646722
 20
60.626871
 30
0.0
 40
4.0
 41
3.428571
 46
0.0
 71
     1
 72
     1
  1
1
  7
TEXTSTYLE_2
 73
     1
 44
0.9
  0
MTEXT
  5
314
330
234
100
AcDbEntity
  8
0
  6
Continuous
 62
     2
100
AcDbMText
 10
1.646722
 20
160.626871
 30
0.0
 40
4.0
 41
4.714286
 46
0.0
 71
     1
 72
     1
  1
2
  7
TEXTSTYLE_2
 73
     1
 44
0.9
  0
MTEXT
  5
315
330
234
100
AcDbEntity
  8
0
  6
Continuous
 62
     2
100
AcDbMText
 10
1.646722
 20
260.626871
 30
0.0
 40
4.0
 41
4.285714
 46
0.0
 71
     1
 72
     1
  1
3
  7
TEXTSTYLE_2
 73
     1
 44
0.9
  0
MTEXT
  5
316
330
234
100
AcDbEntity
  8
0
  6
Continuous
 62
     2
100
AcDbMText
 10
1.646722
 20
360.626871
 30
0.0
 40
4.0
 41
4.714286
 46
0.0
 71
     1
 72
     1
  1
4
  7
TEXTSTYLE_2
 73
     1
 44
0.9
  0
MTEXT
  5
317
330
234
100
AcDbEntity
  8
0
  6
Continuous
 62
     2
100
AcDbMText
 10
1.646722
 20
460.626871
 30
0.0
 40
4.0
 41
4.285714
 46
0.0
 71
     1
 72
     1
  1
5
  7
TEXTSTYLE_2
 73
     1
 44
0.9
  0
MTEXT
  5
318
330
234
100
AcDbEntity
  8
0
  6
Continuous
 62
     2
100
AcDbMText
 10
1.646722
 20
560.626871
 30
0.0
 40
4.0
 41
4.714286
 46
0.0
 71
     1
 72
     1
  1
6
  7
TEXTSTYLE_2
 73
     1
 44
0.9
  0
MTEXT
  5
319
330
234
100
AcDbEntity
  8
0
  6
Continuous
 62
     2
100
AcDbMText
 10
1.646722
 20
660.626871
 30
0.0
 40
4.0
 41
4.714286
 46
0.0
 71
     1
 72
     1
  1
7
  7
TEXTSTYLE_2
 73
     1
 44
0.9
  0
MTEXT
  5
31A
330
234
100
AcDbEntity
  8
0
  6
Continuous
 62
     2
100
AcDbMText
 10
1.848746
 20
775.172594
 30
0.0
 40
4.0
 41
4.714286
 46
0.0
 71
     1
 72
     1
  1
8
  7
TEXTSTYLE_2
 73
     1
 44
0.9
  0
LINE
  5
31B
330
234
100
AcDbEntity
  8
7_ALL_FEATURES
  6
Continuous
 62
     7
100
AcDbLine
 10
699.089736
 20
559.711411
 30
0.0
 11
699.089723
 21
559.461411
 31
0.0
  0
LINE
  5
31C
330
234
100
AcDbEntity
  8
7_ALL_FEATURES
  6
Continuous
 62
     7
100
AcDbLine
 10
699.089736
 20
559.711411
 30
0.0
 11
699.092882
 21
679.211411
 31
0.0
  0
LINE
  5
31D
330
234
100
AcDbEntity
  8
7_ALL_FEATURES
  6
Continuous
 62
     7
100
AcDbLine
 10
699.092882
 20
679.461411
 30
0.0
 11
699.092882
 21
679.211411
 31
0.0
  0
LINE
  5
31E
330
234
100
AcDbEntity
  8
7_ALL_FEATURES
  6
Continuous
 62
     7
100
AcDbLine
 10
79.092882
 20
679.227734
 30
0.0
 11
79.092882
 21
679.477734
 31
0.0
  0
LINE
  5
31F
330
234
100
AcDbEntity
  8
7_ALL_FEATURES
  6
Continuous
 62
     7
100
AcDbLine
 10
79.089736
 20
559.727734
 30
0.0
 11
79.092882
 21
679.227734
 31
0.0
  0
LINE
  5
320
330
234
100
AcDbEntity
  8
7_ALL_FEATURES
  6
Continuous
 62
     7
100
AcDbLine
 10
79.089723
 20
559.477734
 30
0.0
 11
79.089736
 21
559.727734
 31
0.0
  0
LINE
  5
321
330
234
100
AcDbEntity
  8
7_ALL_FEATURES
  6
Continuous
 62
     7
100
AcDbLine
 10
79.092882
 20
679.477734
 30
0.0
 11
699.092882
 21
679.461411
 31
0.0
  0
LINE
  5
322
330
234
100
AcDbEntity
  8
7_ALL_FEATURES
  6
Continuous
 62
     7
100
AcDbLine
 10
79.089723
 20
559.477734
 30
0.0
 11
699.089723
 21
559.461411
 31
0.0
  0
LINE
  5
323
330
234
100
AcDbEntity
  8
7_ALL_FEATURES
  6
Continuous
 62
     9
100
AcDbLine
 10
79.089736
 20
559.727734
 30
0.0
 11
699.089736
 21
559.711411
 31
0.0
  0
LINE
  5
324
330
234
100
AcDbEntity
  8
7_ALL_FEATURES
  6
Continuous
 62
     9
100
AcDbLine
 10
79.092882
 20
679.227734
 30
0.0
 11
699.092882
 21
679.211411
 31
0.0
  0
LINE
  5
325
330
234
100
AcDbEntity
  8
7_ALL_FEATURES
  6
Continuous
 62
     7
100
AcDbLine
 10
682.592377
 20
387.407364
 30
0.0
 11
682.591753
 21
411.107364
 31
0.0
  0
LINE
  5
326
330
234
100
AcDbEntity
  8
7_ALL_FEATURES
  6
Continuous
 62
     7
100
AcDbLine
 10
679.592393
 20
386.807285
 30
0.0
 11
679.591753
 21
411.107285
 31
0.0
  0
LINE
  5
327
330
234
100
AcDbEntity
  8
7_ALL_FEATURES
  6
Continuous
 62
     7
100
AcDbLine
 10
682.591753
 20
411.107364
 30
0.0
 11
679.591753
 21
411.107285
 31
0.0
  0
LINE
  5
328
330
234
100
AcDbEntity
  8
7_ALL_FEATURES
  6
Continuous
 62
     7
100
AcDbLine
 10
682.592377
 20
387.407364
 30
0.0
 11
682.092377
 21
387.416078
 31
0.0
  0
LINE
  5
329
330
234
100
AcDbEntity
  8
7_ALL_FEATURES
  6
Continuous
 62
     7
100
AcDbLine
 10
682.09243
 20
385.407351
 30
0.0
 11
682.092377
 21
387.416078
 31
0.0
  0
LINE
  5
32A
330
234
100
AcDbEntity
  8
7_ALL_FEATURES
  6
Continuous
 62
     7
100
AcDbLine
 10
682.09243
 20
385.407351
 30
0.0
 11
681.19243
 21
385.407327
 31
0.0
  0
LINE
  5
32B
330
234
100
AcDbEntity
  8
7_ALL_FEATURES
  6
Continuous
 62
     7
100
AcDbLine
 10
681.19243
 20
385.407327
 30
0.0
 11
681.192393
 21
386.807327
 31
0.0
  0
LINE
  5
32C
330
234
100
AcDbEntity
  8
7_ALL_FEATURES
  6
Continuous
 62
     7
100
AcDbLine
 10
679.592393
 20
386.807285
 30
0.0
 11
681.192393
 21
386.807327
 31
0.0
  0
LINE
  5
32D
330
234
100
AcDbEntity
  8
7_ALL_FEATURES
  6
Continuous
 62
     7
100
AcDbLine
 10
96.591754
 20
411.091936
 30
0.0
 11
96.592378
 21
387.391936
 31
0.0
  0
LINE
  5
32E
330
234
100
AcDbEntity
  8
7_ALL_FEATURES
  6
Continuous
 62
     7
100
AcDbLine
 10
99.591754
 20
411.092015
 30
0.0
 11
99.592393
 21
386.792015
 31
0.0
  0
LINE
  5
32F
330
234
100
AcDbEntity
  8
7_ALL_FEATURES
  6
Continuous
 62
     7
100
AcDbLine
 10
96.591754
 20
411.091936
 30
0.0
 11
99.591754
 21
411.092015
 31
0.0
  0
LINE
  5
330
330
234
100
AcDbEntity
  8
7_ALL_FEATURES
  6
Continuous
 62
     7
100
AcDbLine
 10
99.592393
 20
386.792015
 30
0.0
 11
97.992393
 21
386.791973
 31
0.0
  0
LINE
  5
331
330
234
100
AcDbEntity
  8
7_ALL_FEATURES
  6
Continuous
 62
     7
100
AcDbLine
 10
97.99243
 20
385.391973
 30
0.0
 11
97.992393
 21
386.791973
 31
0.0
  0
LINE
  5
332
330
234
100
AcDbEntity
  8
7_ALL_FEATURES
  6
Continuous
 62
     7
100
AcDbLine
 10
97.09243
 20
385.39195
 30
0.0
 11
97.99243
 21
385.391973
 31
0.0
  0
LINE
  5
333
330
234
100
AcDbEntity
  8
7_ALL_FEATURES
  6
Continuous
 62
     7
100
AcDbLine
 10
97.09243
 20
385.39195
 30
0.0
 11
97.092377
 21
387.400677
 31
0.0
  0
LINE
  5
334
330
234
100
AcDbEntity
  8
7_ALL_FEATURES
  6
Continuous
 62
     7
100
AcDbLine
 10
96.592378
 20
387.391936
 30
0.0
 11
97.092377
 21
387.400677
 31
0.0
  0
LINE
  5
335
330
234
100
AcDbEntity
  8
7_ALL_FEATURES
  6
Continuous
 62
     7
100
AcDbLine
 10
699.092829
 20
384.357777
 30
0.0
 11
699.092843
 21
384.107777
 31
0.0
  0
LINE
  5
336
330
234
100
AcDbEntity
  8
7_ALL_FEATURES
  6
Continuous
 62
     7
100
AcDbLine
 10
699.092882
 20
382.607777
 30
0.0
 11
699.092882
 21
382.357777
 31
0.0
  0
LINE
  5
337
330
234
100
AcDbEntity
  8
7_ALL_FEATURES
  6
Continuous
 62
     7
100
AcDbLine
 10
699.092882
 20
382.607777
 30
0.0
 11
699.092843
 21
384.107777
 31
0.0
  0
LINE
  5
338
330
234
100
AcDbEntity
  8
7_ALL_FEATURES
  6
Continuous
 62
     7
100
AcDbLine
 10
79.092843
 20
384.091454
 30
0.0
 11
79.09283
 21
384.341454
 31
0.0
  0
LINE
  5
339
330
234
100
AcDbEntity
  8
7_ALL_FEATURES
  6
Continuous
 62
     7
100
AcDbLine
 10
79.092882
 20
382.591454
 30
0.0
 11
79.092843
 21
384.091454
 31
0.0
  0
LINE
  5
33A
330
234
100
AcDbEntity
  8
7_ALL_FEATURES
  6
Continuous
 62
     7
100
AcDbLine
 10
79.092882
 20
382.341454
 30
0.0
 11
79.092882
 21
382.591454
 31
0.0
  0
LINE
  5
33B
330
234
100
AcDbEntity
  8
7_ALL_FEATURES
  6
Continuous
 62
     7
100
AcDbLine
 10
678.592057
 20
384.607237
 30
0.0
 11
678.59207
 21
384.357237
 31
0.0
  0
LINE
  5
33C
330
234
100
AcDbEntity
  8
7_ALL_FEATURES
  6
Continuous
 62
     7
100
AcDbLine
 10
99.59207
 20
384.341994
 30
0.0
 11
99.592057
 21
384.591994
 31
0.0
  0
LINE
  5
33D
330
234
100
AcDbEntity
  8
7_ALL_FEATURES
  6
Continuous
 62
     7
100
AcDbLine
 10
99.592051
 20
384.841994
 30
0.0
 11
99.592057
 21
384.591994
 31
0.0
  0
LINE
  5
33E
330
234
100
AcDbEntity
  8
7_ALL_FEATURES
  6
Continuous
 62
     7
100
AcDbLine
 10
99.592051
 20
384.841994
 30
0.0
 11
99.592037
 21
385.091994
 31
0.0
  0
LINE
  5
33F
330
234
100
AcDbEntity
  8
7_ALL_FEATURES
  6
Continuous
 62
     7
100
AcDbLine
 10
678.592037
 20
385.107237
 30
0.0
 11
678.59205
 21
384.857237
 31
0.0
  0
LINE
  5
340
330
234
100
AcDbEntity
  8
7_ALL_FEATURES
  6
Continuous
 62
     7
100
AcDbLine
 10
678.59205
 20
384.857237
 30
0.0
 11
678.592057
 21
384.607237
 31
0.0
  0
LINE
  5
341
330
234
100
AcDbEntity
  8
7_ALL_FEATURES
  6
Continuous
 62
     7
100
AcDbLine
 10
79.09283
 20
384.341454
 30
0.0
 11
699.092829
 21
384.357777
 31
0.0
  0
LINE
  5
342
330
234
100
AcDbEntity
  8
7_ALL_FEATURES
  6
Continuous
 62
     7
100
AcDbLine
 10
79.092882
 20
382.341454
 30
0.0
 11
699.092882
 21
382.357777
 31
0.0
  0
LINE
  5
343
330
234
100
AcDbEntity
  8
7_ALL_FEATURES
  6
Continuous
 62
     9
100
AcDbLine
 10
99.592057
 20
384.591994
 30
0.0
 11
678.592057
 21
384.607237
 31
0.0
  0
LINE
  5
344
330
234
100
AcDbEntity
  8
7_ALL_FEATURES
  6
Continuous
 62
     9
100
AcDbLine
 10
678.59205
 20
384.857237
 30
0.0
 11
99.592051
 21
384.841994
 31
0.0
  0
LINE
  5
345
330
234
100
AcDbEntity
  8
7_ALL_FEATURES
  6
Continuous
 62
     9
100
AcDbLine
 10
79.092843
 20
384.091454
 30
0.0
 11
699.092843
 21
384.107777
 31
0.0
  0
LINE
  5
346
330
234
100
AcDbEntity
  8
7_ALL_FEATURES
  6
Continuous
 62
     9
100
AcDbLine
 10
79.092882
 20
382.591454
 30
0.0
 11
699.092882
 21
382.607777
 31
0.0
  0
LINE
  5
347
330
234
100
AcDbEntity
  8
7_ALL_FEATURES
  6
Continuous
 62
     7
100
AcDbLine
 10
99.591463
 20
411.841994
 30
0.0
 11
99.59145
 21
412.091994
 31
0.0
  0
LINE
  5
348
330
234
100
AcDbEntity
  8
7_ALL_FEATURES
  6
Continuous
 62
     7
100
AcDbLine
 10
99.591476
 20
411.341994
 30
0.0
 11
99.591463
 21
411.841994
 31
0.0
  0
LINE
  5
349
330
234
100
AcDbEntity
  8
7_ALL_FEATURES
  6
Continuous
 62
     7
100
AcDbLine
 10
99.592345
 20
385.091994
 30
0.0
 11
99.592346
 21
385.286364
 31
0.0
  0
LINE
  5
34A
330
234
100
AcDbEntity
  8
7_ALL_FEATURES
  6
Continuous
 62
     7
100
AcDbLine
 10
99.591489
 20
411.091994
 30
0.0
 11
99.591476
 21
411.341994
 31
0.0
  0
LINE
  5
34B
330
234
100
AcDbEntity
  8
7_ALL_FEATURES
  6
Continuous
 62
     7
100
AcDbLine
 10
679.591475
 20
411.357264
 30
0.0
 11
679.591489
 21
411.107264
 31
0.0
  0
LINE
  5
34C
330
234
100
AcDbEntity
  8
7_ALL_FEATURES
  6
Continuous
 62
     7
100
AcDbLine
 10
99.592345
 20
385.091994
 30
0.0
 11
679.592344
 21
385.107264
 31
0.0
  0
LINE
  5
34D
330
234
100
AcDbEntity
  8
7_ALL_FEATURES
  6
Continuous
 62
     7
100
AcDbLine
 10
679.092263
 20
387.10725
 30
0.0
 11
679.59218
 21
387.107264
 31
0.0
  0
LINE
  5
34E
330
234
100
AcDbEntity
  8
7_ALL_FEATURES
  6
Continuous
 62
     7
100
AcDbLine
 10
679.591601
 20
409.107264
 30
0.0
 11
679.091684
 21
409.10725
 31
0.0
  0
LINE
  5
34F
330
234
100
AcDbEntity
  8
7_ALL_FEATURES
  6
Continuous
 62
     7
100
AcDbLine
 10
99.59166
 20
411.091994
 30
0.0
 11
679.59166
 21
411.107264
 31
0.0
  0
LINE
  5
350
330
234
100
AcDbEntity
  8
7_ALL_FEATURES
  6
Continuous
 62
     7
100
AcDbLine
 10
99.59145
 20
412.091994
 30
0.0
 11
679.591449
 21
412.107264
 31
0.0
  0
LINE
  5
351
330
234
100
AcDbEntity
  8
7_ALL_FEATURES
  6
Continuous
 62
     7
100
AcDbLine
 10
679.591449
 20
412.107264
 30
0.0
 11
679.591462
 21
411.857264
 31
0.0
  0
LINE
  5
352
330
234
100
AcDbEntity
  8
7_ALL_FEATURES
  6
Continuous
 62
     7
100
AcDbLine
 10
679.591475
 20
411.357264
 30
0.0
 11
679.591462
 21
411.857264
 31
0.0
  0
LINE
  5
353
330
234
100
AcDbEntity
  8
7_ALL_FEATURES
  6
Continuous
 62
     7
100
AcDbLine
 10
679.592317
 20
386.357264
 30
0.0
 11
679.592299
 21
386.807285
 31
0.0
  0
LINE
  5
354
330
234
100
AcDbEntity
  8
7_ALL_FEATURES
  6
Continuous
 62
     7
100
AcDbLine
 10
679.592317
 20
386.357264
 30
0.0
 11
679.592322
 21
386.20812
 31
0.0
  0
LINE
  5
355
330
234
100
AcDbEntity
  8
7_ALL_FEATURES
  6
Continuous
 62
     7
100
AcDbLine
 10
679.592344
 20
385.357264
 30
0.0
 11
679.592322
 21
386.20812
 31
0.0
  0
LINE
  5
356
330
234
100
AcDbEntity
  8
7_ALL_FEATURES
  6
Continuous
 62
     7
100
AcDbLine
 10
679.592344
 20
385.357264
 30
0.0
 11
679.592344
 21
385.107264
 31
0.0
  0
LINE
  5
357
330
234
100
AcDbEntity
  8
7_ALL_FEATURES
  6
Continuous
 62
     7
100
AcDbLine
 10
679.092339
 20
387.027376
 30
0.0
 11
679.592287
 21
387.027389
 31
0.0
  0
LINE
  5
358
330
234
100
AcDbEntity
  8
7_ALL_FEATURES
  6
Continuous
 62
     7
100
AcDbLine
 10
679.091778
 20
409.184238
 30
0.0
 11
679.591704
 21
409.184252
 31
0.0
  0
LINE
  5
359
330
234
100
AcDbEntity
  8
7_ALL_FEATURES
  6
Continuous
 62
     9
100
AcDbLine
 10
99.591463
 20
411.841994
 30
0.0
 11
679.591462
 21
411.857264
 31
0.0
  0
LINE
  5
35A
330
234
100
AcDbEntity
  8
7_ALL_FEATURES
  6
Continuous
 62
     9
100
AcDbLine
 10
679.591475
 20
411.357264
 30
0.0
 11
99.591476
 21
411.341994
 31
0.0
  0
LINE
  5
35B
330
234
100
AcDbEntity
  8
7_ALL_FEATURES
  6
Continuous
 62
     7
100
AcDbLine
 10
679.592317
 20
386.357264
 30
0.0
 11
679.092345
 21
386.35725
 31
0.0
  0
LINE
  5
35C
330
234
100
AcDbEntity
  8
7_ALL_FEATURES
  6
Continuous
 62
     7
100
AcDbLine
 10
679.091755
 20
409.854364
 30
0.0
 11
679.591698
 21
409.854377
 31
0.0
  0
LINE
  5
35D
330
234
100
AcDbEntity
  8
7_ALL_FEATURES
  6
Continuous
 62
     9
100
AcDbLine
 10
679.092354
 20
385.35725
 30
0.0
 11
679.592344
 21
385.357264
 31
0.0
  0
LINE
  5
35E
330
234
100
AcDbEntity
  8
7_ALL_FEATURES
  6
Continuous
 62
     9
100
AcDbLine
 10
679.592322
 20
386.20812
 30
0.0
 11
679.092347
 21
386.208107
 31
0.0
  0
LINE
  5
35F
330
234
100
AcDbEntity
  8
7_ALL_FEATURES
  6
Continuous
 62
     9
100
AcDbLine
 10
679.591541
 20
408.857264
 30
0.0
 11
679.091787
 21
408.85725
 31
0.0
  0
LINE
  5
360
330
234
100
AcDbEntity
  8
7_ALL_FEATURES
  6
Continuous
 62
     9
100
AcDbLine
 10
679.592107
 20
387.357264
 30
0.0
 11
679.092336
 21
387.35725
 31
0.0
  0
LINE
  5
361
330
234
100
AcDbEntity
  8
7_ALL_FEATURES
  6
Continuous
 62
     9
100
AcDbLine
 10
679.09169
 20
410.85725
 30
0.0
 11
679.591673
 21
410.857264
 31
0.0
  0
LINE
  5
362
330
234
100
AcDbEntity
  8
7_ALL_FEATURES
  6
Continuous
 62
     9
100
AcDbLine
 10
679.091748
 20
410.003507
 30
0.0
 11
679.591695
 21
410.00352
 31
0.0
  0
LINE
  5
363
330
234
100
AcDbEntity
  8
7_ALL_FEATURES
  6
Continuous
 62
     7
100
AcDbLine
 10
99.592353
 20
385.220525
 30
0.0
 11
99.592355
 21
385.240824
 31
0.0
  0
LINE
  5
364
330
234
100
AcDbEntity
  8
7_ALL_FEATURES
  6
Continuous
 62
     7
100
AcDbLine
 10
99.592355
 20
385.240824
 30
0.0
 11
99.592355
 21
385.306343
 31
0.0
  0
LINE
  5
365
330
234
100
AcDbEntity
  8
7_ALL_FEATURES
  6
Continuous
 62
     7
100
AcDbLine
 10
679.092353
 20
385.235723
 30
0.0
 11
99.592353
 21
385.220467
 31
0.0
  0
LINE
  5
366
330
234
100
AcDbEntity
  8
7_ALL_FEATURES
  6
Continuous
 62
     7
100
AcDbLine
 10
679.091679
 20
410.954267
 30
0.0
 11
679.091681
 21
410.946766
 31
0.0
  0
LINE
  5
367
330
234
100
AcDbEntity
  8
7_ALL_FEATURES
  6
Continuous
 62
     7
100
AcDbLine
 10
679.091679
 20
410.954549
 30
0.0
 11
99.591679
 21
410.939293
 31
0.0
  0
LINE
  5
368
330
234
100
AcDbEntity
  8
7_ALL_FEATURES
  6
Continuous
 62
     7
100
AcDbLine
 10
99.592355
 20
385.306343
 30
0.0
 11
99.592347
 21
386.19285
 31
0.0
  0
LINE
  5
369
330
234
100
AcDbEntity
  8
7_ALL_FEATURES
  6
Continuous
 62
     7
100
AcDbLine
 10
99.592347
 20
386.19285
 30
0.0
 11
99.592346
 21
386.341994
 31
0.0
  0
LINE
  5
36A
330
234
100
AcDbEntity
  8
7_ALL_FEATURES
  6
Continuous
 62
     7
100
AcDbLine
 10
99.592346
 20
386.341994
 30
0.0
 11
99.592341
 21
386.792015
 31
0.0
  0
LINE
  5
36B
330
234
100
AcDbEntity
  8
7_ALL_FEATURES
  6
Continuous
 62
     7
100
AcDbLine
 10
679.091681
 20
410.946766
 30
0.0
 11
679.09174
 21
410.165023
 31
0.0
  0
LINE
  5
36C
330
234
100
AcDbEntity
  8
7_ALL_FEATURES
  6
Continuous
 62
     7
100
AcDbLine
 10
679.09174
 20
410.165023
 30
0.0
 11
679.091782
 21
409.058358
 31
0.0
  0
LINE
  5
36D
330
234
100
AcDbEntity
  8
7_ALL_FEATURES
  6
Continuous
 62
     7
100
AcDbLine
 10
679.091782
 20
409.058358
 30
0.0
 11
679.092324
 21
388.469085
 31
0.0
  0
LINE
  5
36E
330
234
100
AcDbEntity
  8
7_ALL_FEATURES
  6
Continuous
 62
     7
100
AcDbLine
 10
679.092324
 20
388.469085
 30
0.0
 11
679.092326
 21
388.361311
 31
0.0
  0
LINE
  5
36F
330
234
100
AcDbEntity
  8
7_ALL_FEATURES
  6
Continuous
 62
     7
100
AcDbLine
 10
679.092326
 20
388.361311
 30
0.0
 11
679.092355
 21
385.318208
 31
0.0
  0
LINE
  5
370
330
234
100
AcDbEntity
  8
7_ALL_FEATURES
  6
Continuous
 62
     7
100
AcDbLine
 10
679.092355
 20
385.318208
 30
0.0
 11
679.092353
 21
385.235781
 31
0.0
  0
LINE
  5
371
330
234
100
AcDbEntity
  8
7_ALL_FEATURES
  6
Continuous
 62
     9
100
AcDbLine
 10
99.592327
 20
388.346055
 30
0.0
 11
679.092326
 21
388.361311
 31
0.0
  0
LINE
  5
372
330
234
100
AcDbEntity
  8
7_ALL_FEATURES
  6
Continuous
 62
     9
100
AcDbLine
 10
99.592325
 20
388.453828
 30
0.0
 11
679.092324
 21
388.469085
 31
0.0
  0
LINE
  5
373
330
234
100
AcDbEntity
  8
7_ALL_FEATURES
  6
Continuous
 62
     9
100
AcDbLine
 10
99.591783
 20
409.043101
 30
0.0
 11
679.091782
 21
409.058358
 31
0.0
  0
LINE
  5
374
330
234
100
AcDbEntity
  8
7_ALL_FEATURES
  6
Continuous
 62
     9
100
AcDbLine
 10
99.591741
 20
410.149766
 30
0.0
 11
679.09174
 21
410.165023
 31
0.0
  0
LINE
  5
375
330
234
100
AcDbEntity
  8
7_ALL_FEATURES
  6
Continuous
 62
     9
100
AcDbLine
 10
99.591681
 20
410.93151
 30
0.0
 11
679.091681
 21
410.946766
 31
0.0
  0
LINE
  5
376
330
234
100
AcDbEntity
  8
7_ALL_FEATURES
  6
Continuous
 62
     7
100
AcDbLine
 10
99.592356
 20
385.302952
 30
0.0
 11
679.092355
 21
385.318208
 31
0.0
  0
LINE
  5
377
330
234
100
AcDbEntity
  8
7_ALL_FEATURES
  6
Continuous
 62
     7
100
AcDbLine
 10
834.527393
 20
577.367006
 30
0.0
 11
834.616377
 21
577.423928
 31
0.0
  0
ARC
  5
378
330
234
100
AcDbEntity
  8
7_ALL_FEATURES
  6
Continuous
 62
     7
100
AcDbCircle
 10
834.498862
 20
577.585762
 30
0.0
 40
0.2
100
AcDbArc
 50
305.985143
 51
68.615429
  0
ARC
  5
379
330
234
100
AcDbEntity
  8
7_ALL_FEATURES
  6
Continuous
 62
     7
100
AcDbCircle
 10
834.498862
 20
577.585762
 30
0.0
 40
0.2
100
AcDbArc
 50
68.615429
 51
90.0
  0
LINE
  5
37A
330
234
100
AcDbEntity
  8
7_ALL_FEATURES
  6
Continuous
 62
     7
100
AcDbLine
 10
834.612999
 20
662.175329
 30
0.0
 11
834.527392
 21
662.230091
 31
0.0
  0
ARC
  5
37B
330
234
100
AcDbEntity
  8
7_ALL_FEATURES
  6
Continuous
 62
     7
100
AcDbCircle
 10
834.498875
 20
662.011326
 30
0.0
 40
0.2
100
AcDbArc
 50
270.0
 51
299.32211
  0
ARC
  5
37C
330
234
100
AcDbEntity
  8
7_ALL_FEATURES
  6
Continuous
 62
     7
100
AcDbCircle
 10
834.498875
 20
662.011326
 30
0.0
 40
0.2
100
AcDbArc
 50
299.32211
 51
55.167293
  0
LINE
  5
37D
330
234
100
AcDbEntity
  8
7_ALL_FEATURES
  6
Continuous
 62
     7
100
AcDbLine
 10
808.812057
 20
574.483281
 30
0.0
 11
808.812057
 21
574.49863
 31
0.0
  0
LINE
  5
37E
330
234
100
AcDbEntity
  8
7_ALL_FEATURES
  6
Continuous
 62
     7
100
AcDbLine
 10
808.812057
 20
574.49863
 30
0.0
 11
808.812057
 21
578.033281
 31
0.0
  0
LINE
  5
37F
330
234
100
AcDbEntity
  8
7_ALL_FEATURES
  6
Continuous
 62
     7
100
AcDbLine
 10
808.812057
 20
578.033281
 30
0.0
 11
808.812057
 21
578.048551
 31
0.0
  0
LINE
  5
380
330
234
100
AcDbEntity
  8
7_ALL_FEATURES
  6
Continuous
 62
     7
100
AcDbLine
 10
808.812057
 20
578.048551
 30
0.0
 11
808.812057
 21
584.533281
 31
0.0
  0
LINE
  5
381
330
234
100
AcDbEntity
  8
7_ALL_FEATURES
  6
Continuous
 62
     7
100
AcDbLine
 10
808.812057
 20
655.033281
 30
0.0
 11
808.812057
 21
655.048551
 31
0.0
  0
LINE
  5
382
330
234
100
AcDbEntity
  8
7_ALL_FEATURES
  6
Continuous
 62
     7
100
AcDbLine
 10
808.812057
 20
655.048551
 30
0.0
 11
808.812057
 21
661.533281
 31
0.0
  0
LINE
  5
383
330
234
100
AcDbEntity
  8
7_ALL_FEATURES
  6
Continuous
 62
     7
100
AcDbLine
 10
808.812057
 20
661.533281
 30
0.0
 11
808.812057
 21
661.548551
 31
0.0
  0
LINE
  5
384
330
234
100
AcDbEntity
  8
7_ALL_FEATURES
  6
Continuous
 62
     7
100
AcDbLine
 10
808.812057
 20
661.548551
 30
0.0
 11
808.812057
 21
665.083281
 31
0.0
  0
LINE
  5
385
330
234
100
AcDbEntity
  8
7_ALL_FEATURES
  6
Continuous
 62
     7
100
AcDbLine
 10
808.812057
 20
574.483281
 30
0.0
 11
808.827406
 21
574.483281
 31
0.0
  0
LINE
  5
386
330
234
100
AcDbEntity
  8
7_ALL_FEATURES
  6
Continuous
 62
     7
100
AcDbLine
 10
808.827406
 20
574.483281
 30
0.0
 11
832.527406
 21
574.483281
 31
0.0
  0
LINE
  5
387
330
234
100
AcDbEntity
  8
7_ALL_FEATURES
  6
Continuous
 62
     7
100
AcDbLine
 10
832.527406
 20
574.483281
 30
0.0
 11
833.112057
 21
574.483281
 31
0.0
  0
LINE
  5
388
330
234
100
AcDbEntity
  8
7_ALL_FEATURES
  6
Continuous
 62
     7
100
AcDbLine
 10
834.512015
 20
574.483239
 30
0.0
 11
833.127327
 21
574.483239
 31
0.0
  0
LINE
  5
389
330
234
100
AcDbEntity
  8
7_ALL_FEATURES
  6
Continuous
 62
     7
100
AcDbLine
 10
835.811565
 20
559.461411
 30
0.0
 11
835.827888
 21
559.461411
 31
0.0
  0
LINE
  5
38A
330
234
100
AcDbEntity
  8
7_ALL_FEATURES
  6
Continuous
 62
     7
100
AcDbLine
 10
835.827888
 20
559.461411
 30
0.0
 11
837.311565
 21
559.461411
 31
0.0
  0
ARC
  5
38B
330
234
100
AcDbEntity
  8
7_ALL_FEATURES
  6
Continuous
 62
     7
100
AcDbCircle
 10
835.077348
 20
645.677194
 30
0.0
 40
0.5
100
AcDbArc
 50
0.0
 51
90.0
  0
ARC
  5
38C
330
234
100
AcDbEntity
  8
7_ALL_FEATURES
  6
Continuous
 62
     7
100
AcDbCircle
 10
835.827888
 20
679.227734
 30
0.0
 40
0.25
100
AcDbArc
 50
90.0
 51
180.0
  0
LINE
  5
38D
330
234
100
AcDbEntity
  8
7_ALL_FEATURES
  6
Continuous
 62
     7
100
AcDbLine
 10
837.327888
 20
679.477734
 30
0.0
 11
835.827888
 21
679.477734
 31
0.0
  0
ARC
  5
38E
330
234
100
AcDbEntity
  8
7_ALL_FEATURES
  6
Continuous
 62
     7
100
AcDbCircle
 10
837.327888
 20
679.227734
 30
0.0
 40
0.25
100
AcDbArc
 50
0.0
 51
90.0
  0
LINE
  5
38F
330
234
100
AcDbEntity
  8
7_ALL_FEATURES
  6
Continuous
 62
     7
100
AcDbLine
 10
837.577888
 20
559.727734
 30
0.0
 11
837.577888
 21
679.227734
 31
0.0
  0
ARC
  5
390
330
234
100
AcDbEntity
  8
7_ALL_FEATURES
  6
Continuous
 62
     7
100
AcDbCircle
 10
837.327888
 20
559.727734
 30
0.0
 40
0.25
100
AcDbArc
 50
270.0
 51
360.0
  0
ARC
  5
391
330
234
100
AcDbEntity
  8
7_ALL_FEATURES
  6
Continuous
 62
     7
100
AcDbCircle
 10
835.827888
 20
559.727734
 30
0.0
 40
0.25
100
AcDbArc
 50
180.0
 51
270.0
  0
ARC
  5
392
330
234
100
AcDbEntity
  8
7_ALL_FEATURES
  6
Continuous
 62
     7
100
AcDbCircle
 10
835.077348
 20
593.277194
 30
0.0
 40
0.5
100
AcDbArc
 50
270.0
 51
360.0
  0
ARC
  5
393
330
234
100
AcDbEntity
  8
7_ALL_FEATURES
  6
Continuous
 62
     7
100
AcDbCircle
 10
834.577348
 20
591.327194
 30
0.0
 40
0.25
100
AcDbArc
 50
0.0
 51
90.0
  0
LINE
  5
394
330
234
100
AcDbEntity
  8
7_ALL_FEATURES
  6
Continuous
 62
     7
100
AcDbLine
 10
834.577348
 20
647.377194
 30
0.0
 11
834.527392
 21
647.377194
 31
0.0
  0
ARC
  5
395
330
234
100
AcDbEntity
  8
7_ALL_FEATURES
  6
Continuous
 62
     7
100
AcDbCircle
 10
835.327348
 20
588.577194
 30
0.0
 40
0.25
100
AcDbArc
 50
0.0
 51
90.0
  0
ARC
  5
396
330
234
100
AcDbEntity
  8
7_ALL_FEATURES
  6
Continuous
 62
     7
100
AcDbCircle
 10
834.577348
 20
647.627194
 30
0.0
 40
0.25
100
AcDbArc
 50
270.0
 51
360.0
  0
ARC
  5
397
330
234
100
AcDbEntity
  8
7_ALL_FEATURES
  6
Continuous
 62
     7
100
AcDbCircle
 10
835.327348
 20
650.377194
 30
0.0
 40
0.25
100
AcDbArc
 50
270.0
 51
360.0
  0
LINE
  5
398
330
234
100
AcDbEntity
  8
7_ALL_FEATURES
  6
Continuous
 62
     7
100
AcDbLine
 10
834.827348
 20
591.327194
 30
0.0
 11
834.812105
 21
591.311951
 31
0.0
  0
LINE
  5
399
330
234
100
AcDbEntity
  8
7_ALL_FEATURES
  6
Continuous
 62
     7
100
AcDbLine
 10
834.527392
 20
646.161951
 30
0.0
 11
835.062105
 21
646.161951
 31
0.0
  0
LINE
  5
39A
330
234
100
AcDbEntity
  8
7_ALL_FEATURES
  6
Continuous
 62
     7
100
AcDbLine
 10
835.062105
 20
646.161951
 30
0.0
 11
835.077348
 21
646.177194
 31
0.0
  0
LINE
  5
39B
330
234
100
AcDbEntity
  8
7_ALL_FEATURES
  6
Continuous
 62
     7
100
AcDbLine
 10
835.312105
 20
588.811951
 30
0.0
 11
835.327348
 21
588.827194
 31
0.0
  0
LINE
  5
39C
330
234
100
AcDbEntity
  8
7_ALL_FEATURES
  6
Continuous
 62
     7
100
AcDbLine
 10
835.062105
 20
588.811951
 30
0.0
 11
835.077348
 21
588.827194
 31
0.0
  0
LINE
  5
39D
330
234
100
AcDbEntity
  8
7_ALL_FEATURES
  6
Continuous
 62
     7
100
AcDbLine
 10
835.077348
 20
592.777194
 30
0.0
 11
834.527392
 21
592.777194
 31
0.0
  0
LINE
  5
39E
330
234
100
AcDbEntity
  8
7_ALL_FEATURES
  6
Continuous
 62
     7
100
AcDbLine
 10
834.812105
 20
647.611951
 30
0.0
 11
834.827348
 21
647.627194
 31
0.0
  0
LINE
  5
39F
330
234
100
AcDbEntity
  8
7_ALL_FEATURES
  6
Continuous
 62
     7
100
AcDbLine
 10
835.077348
 20
650.127194
 30
0.0
 11
835.327348
 21
650.127194
 31
0.0
  0
ARC
  5
3A0
330
234
100
AcDbEntity
  8
7_ALL_FEATURES
  6
Continuous
 62
     7
100
AcDbCircle
 10
835.077348
 20
649.877194
 30
0.0
 40
0.25
100
AcDbArc
 50
90.0
 51
180.0
  0
LINE
  5
3A1
330
234
100
AcDbEntity
  8
7_ALL_FEATURES
  6
Continuous
 62
     7
100
AcDbLine
 10
834.577348
 20
591.577194
 30
0.0
 11
834.562105
 21
591.561951
 31
0.0
  0
LINE
  5
3A2
330
234
100
AcDbEntity
  8
7_ALL_FEATURES
  6
Continuous
 62
     7
100
AcDbLine
 10
834.562105
 20
591.561951
 30
0.0
 11
834.527392
 21
591.561951
 31
0.0
  0
LINE
  5
3A3
330
234
100
AcDbEntity
  8
7_ALL_FEATURES
  6
Continuous
 62
     7
100
AcDbLine
 10
835.577888
 20
679.227734
 30
0.0
 11
835.561565
 21
679.211411
 31
0.0
  0
LINE
  5
3A4
330
234
100
AcDbEntity
  8
7_ALL_FEATURES
  6
Continuous
 62
     7
100
AcDbLine
 10
835.577888
 20
559.727734
 30
0.0
 11
835.561565
 21
559.711411
 31
0.0
  0
LINE
  5
3A5
330
234
100
AcDbEntity
  8
7_ALL_FEATURES
  6
Continuous
 62
     7
100
AcDbLine
 10
835.561565
 20
559.711411
 30
0.0
 11
835.561565
 21
559.727734
 31
0.0
  0
LINE
  5
3A6
330
234
100
AcDbEntity
  8
7_ALL_FEATURES
  6
Continuous
 62
     7
100
AcDbLine
 10
835.561565
 20
559.727734
 30
0.0
 11
835.561565
 21
588.561951
 31
0.0
  0
LINE
  5
3A7
330
234
100
AcDbEntity
  8
7_ALL_FEATURES
  6
Continuous
 62
     7
100
AcDbLine
 10
835.561565
 20
588.561951
 30
0.0
 11
835.561565
 21
588.577194
 31
0.0
  0
LINE
  5
3A8
330
234
100
AcDbEntity
  8
7_ALL_FEATURES
  6
Continuous
 62
     7
100
AcDbLine
 10
835.561565
 20
593.261951
 30
0.0
 11
835.561565
 21
593.277194
 31
0.0
  0
LINE
  5
3A9
330
234
100
AcDbEntity
  8
7_ALL_FEATURES
  6
Continuous
 62
     7
100
AcDbLine
 10
835.561565
 20
593.277194
 30
0.0
 11
835.561565
 21
645.661951
 31
0.0
  0
LINE
  5
3AA
330
234
100
AcDbEntity
  8
7_ALL_FEATURES
  6
Continuous
 62
     7
100
AcDbLine
 10
835.561565
 20
645.661951
 30
0.0
 11
835.561565
 21
645.677194
 31
0.0
  0
LINE
  5
3AB
330
234
100
AcDbEntity
  8
7_ALL_FEATURES
  6
Continuous
 62
     7
100
AcDbLine
 10
835.561565
 20
650.361951
 30
0.0
 11
835.561565
 21
650.377194
 31
0.0
  0
LINE
  5
3AC
330
234
100
AcDbEntity
  8
7_ALL_FEATURES
  6
Continuous
 62
     7
100
AcDbLine
 10
835.561565
 20
650.377194
 30
0.0
 11
835.561565
 21
679.211411
 31
0.0
  0
LINE
  5
3AD
330
234
100
AcDbEntity
  8
7_ALL_FEATURES
  6
Continuous
 62
     7
100
AcDbLine
 10
835.562105
 20
588.561951
 30
0.0
 11
835.577348
 21
588.577194
 31
0.0
  0
LINE
  5
3AE
330
234
100
AcDbEntity
  8
7_ALL_FEATURES
  6
Continuous
 62
     7
100
AcDbLine
 10
835.562105
 20
593.261951
 30
0.0
 11
835.577348
 21
593.277194
 31
0.0
  0
LINE
  5
3AF
330
234
100
AcDbEntity
  8
7_ALL_FEATURES
  6
Continuous
 62
     7
100
AcDbLine
 10
835.562105
 20
645.661951
 30
0.0
 11
835.577348
 21
645.677194
 31
0.0
  0
LINE
  5
3B0
330
234
100
AcDbEntity
  8
7_ALL_FEATURES
  6
Continuous
 62
     7
100
AcDbLine
 10
835.577348
 20
650.377194
 30
0.0
 11
835.562105
 21
650.361951
 31
0.0
  0
LINE
  5
3B1
330
234
100
AcDbEntity
  8
7_ALL_FEATURES
  6
Continuous
 62
     7
100
AcDbLine
 10
837.327888
 20
559.477734
 30
0.0
 11
837.311565
 21
559.461411
 31
0.0
  0
LINE
  5
3B2
330
234
100
AcDbEntity
  8
7_ALL_FEATURES
  6
Continuous
 62
     7
100
AcDbLine
 10
835.827888
 20
559.477734
 30
0.0
 11
835.811565
 21
559.461411
 31
0.0
  0
ARC
  5
3B3
330
234
100
AcDbEntity
  8
7_ALL_FEATURES
  6
Continuous
 62
     7
100
AcDbCircle
 10
835.077348
 20
589.077194
 30
0.0
 40
0.25
100
AcDbArc
 50
180.0
 51
270.0
  0
LINE
  5
3B4
330
234
100
AcDbEntity
  8
7_ALL_FEATURES
  6
Continuous
 62
     7
100
AcDbLine
 10
834.812105
 20
590.314675
 30
0.0
 11
834.812105
 21
591.311951
 31
0.0
  0
LINE
  5
3B5
330
234
100
AcDbEntity
  8
7_ALL_FEATURES
  6
Continuous
 62
     7
100
AcDbLine
 10
835.312105
 20
588.811951
 30
0.0
 11
835.077348
 21
588.811951
 31
0.0
  0
LINE
  5
3B6
330
234
100
AcDbEntity
  8
7_ALL_FEATURES
  6
Continuous
 62
     7
100
AcDbLine
 10
835.077348
 20
588.811951
 30
0.0
 11
835.062105
 21
588.811951
 31
0.0
  0
LINE
  5
3B7
330
234
100
AcDbEntity
  8
7_ALL_FEATURES
  6
Continuous
 62
     7
100
AcDbLine
 10
834.812105
 20
647.611951
 30
0.0
 11
834.812105
 21
647.627194
 31
0.0
  0
LINE
  5
3B8
330
234
100
AcDbEntity
  8
7_ALL_FEATURES
  6
Continuous
 62
     7
100
AcDbLine
 10
834.812105
 20
647.627194
 30
0.0
 11
834.812105
 21
649.282427
 31
0.0
  0
LINE
  5
3B9
330
234
100
AcDbEntity
  8
7_ALL_FEATURES
  6
Continuous
 62
     7
100
AcDbLine
 10
834.527392
 20
646.177194
 30
0.0
 11
835.077348
 21
646.177194
 31
0.0
  0
LINE
  5
3BA
330
234
100
AcDbEntity
  8
7_ALL_FEATURES
  6
Continuous
 62
     7
100
AcDbLine
 10
834.527392
 20
591.577194
 30
0.0
 11
834.577348
 21
591.577194
 31
0.0
  0
LINE
  5
3BB
330
234
100
AcDbEntity
  8
7_ALL_FEATURES
  6
Continuous
 62
     7
100
AcDbLine
 10
834.827348
 20
647.627194
 30
0.0
 11
834.827348
 21
649.383281
 31
0.0
  0
LINE
  5
3BC
330
234
100
AcDbEntity
  8
7_ALL_FEATURES
  6
Continuous
 62
     7
100
AcDbLine
 10
834.827348
 20
649.383281
 30
0.0
 11
834.827348
 21
649.398551
 31
0.0
  0
LINE
  5
3BD
330
234
100
AcDbEntity
  8
7_ALL_FEATURES
  6
Continuous
 62
     7
100
AcDbLine
 10
834.827348
 20
649.398551
 30
0.0
 11
834.827348
 21
649.877194
 31
0.0
  0
LINE
  5
3BE
330
234
100
AcDbEntity
  8
7_ALL_FEATURES
  6
Continuous
 62
     7
100
AcDbLine
 10
835.577888
 20
679.227734
 30
0.0
 11
835.577888
 21
559.727734
 31
0.0
  0
LINE
  5
3BF
330
234
100
AcDbEntity
  8
7_ALL_FEATURES
  6
Continuous
 62
     7
100
AcDbLine
 10
835.827888
 20
559.477734
 30
0.0
 11
837.327888
 21
559.477734
 31
0.0
  0
LINE
  5
3C0
330
234
100
AcDbEntity
  8
7_ALL_FEATURES
  6
Continuous
 62
     7
100
AcDbLine
 10
834.827348
 20
589.077194
 30
0.0
 11
834.827348
 21
590.183281
 31
0.0
  0
LINE
  5
3C1
330
234
100
AcDbEntity
  8
7_ALL_FEATURES
  6
Continuous
 62
     7
100
AcDbLine
 10
834.827348
 20
590.183281
 30
0.0
 11
834.827348
 21
590.198551
 31
0.0
  0
LINE
  5
3C2
330
234
100
AcDbEntity
  8
7_ALL_FEATURES
  6
Continuous
 62
     7
100
AcDbLine
 10
834.827348
 20
590.198551
 30
0.0
 11
834.827348
 21
591.327194
 31
0.0
  0
LINE
  5
3C3
330
234
100
AcDbEntity
  8
7_ALL_FEATURES
  6
Continuous
 62
     7
100
AcDbLine
 10
835.327348
 20
588.827194
 30
0.0
 11
835.077348
 21
588.827194
 31
0.0
  0
ARC
  5
3C4
330
234
100
AcDbEntity
  8
7_ALL_FEATURES
  6
Continuous
 62
     7
100
AcDbCircle
 10
834.327348
 20
590.198551
 30
0.0
 40
0.5
100
AcDbArc
 50
0.0
 51
66.372627
  0
ARC
  5
3C5
330
234
100
AcDbEntity
  8
7_ALL_FEATURES
  6
Continuous
 62
     7
100
AcDbCircle
 10
834.577348
 20
578.048551
 30
0.0
 40
0.25
100
AcDbArc
 50
270.0
 51
360.0
  0
ARC
  5
3C6
330
234
100
AcDbEntity
  8
7_ALL_FEATURES
  6
Continuous
 62
     7
100
AcDbCircle
 10
808.077348
 20
585.048551
 30
0.0
 40
0.25
100
AcDbArc
 50
180.0
 51
270.0
  0
ARC
  5
3C7
330
234
100
AcDbEntity
  8
7_ALL_FEATURES
  6
Continuous
 62
     7
100
AcDbCircle
 10
808.077348
 20
654.548551
 30
0.0
 40
0.25
100
AcDbArc
 50
90.0
 51
180.0
  0
LINE
  5
3C8
330
234
100
AcDbEntity
  8
7_ALL_FEATURES
  6
Continuous
 62
     7
100
AcDbLine
 10
808.577348
 20
654.798551
 30
0.0
 11
808.077348
 21
654.798551
 31
0.0
  0
LINE
  5
3C9
330
234
100
AcDbEntity
  8
7_ALL_FEATURES
  6
Continuous
 62
     7
100
AcDbLine
 10
834.577348
 20
661.798551
 30
0.0
 11
834.527392
 21
661.798551
 31
0.0
  0
ARC
  5
3CA
330
234
100
AcDbEntity
  8
7_ALL_FEATURES
  6
Continuous
 62
     7
100
AcDbCircle
 10
834.577348
 20
661.548551
 30
0.0
 40
0.25
100
AcDbArc
 50
0.0
 51
90.0
  0
ARC
  5
3CB
330
234
100
AcDbEntity
  8
7_ALL_FEATURES
  6
Continuous
 62
     7
100
AcDbCircle
 10
834.327348
 20
649.398551
 30
0.0
 40
0.5
100
AcDbArc
 50
293.627373
 51
360.0
  0
LINE
  5
3CC
330
234
100
AcDbEntity
  8
7_ALL_FEATURES
  6
Continuous
 62
     7
100
AcDbLine
 10
834.827348
 20
649.398551
 30
0.0
 11
834.827348
 21
649.877194
 31
0.0
  0
LINE
  5
3CD
330
234
100
AcDbEntity
  8
7_ALL_FEATURES
  6
Continuous
 62
     7
100
AcDbLine
 10
834.827348
 20
649.877194
 30
0.0
 11
834.827348
 21
661.548551
 31
0.0
  0
LINE
  5
3CE
330
234
100
AcDbEntity
  8
7_ALL_FEATURES
  6
Continuous
 62
     7
100
AcDbLine
 10
807.812289
 20
644.033476
 30
0.0
 11
807.812361
 21
641.283564
 31
0.0
  0
LINE
  5
3CF
330
234
100
AcDbEntity
  8
7_ALL_FEATURES
  6
Continuous
 62
     7
100
AcDbLine
 10
807.827348
 20
585.048551
 30
0.0
 11
807.812079
 21
585.033281
 31
0.0
  0
LINE
  5
3D0
330
234
100
AcDbEntity
  8
7_ALL_FEATURES
  6
Continuous
 62
     7
100
AcDbLine
 10
807.827348
 20
654.548551
 30
0.0
 11
807.812078
 21
654.533281
 31
0.0
  0
LINE
  5
3D1
330
234
100
AcDbEntity
  8
7_ALL_FEATURES
  6
Continuous
 62
     7
100
AcDbLine
 10
807.820306
 20
607.291508
 30
0.0
 11
807.820503
 21
599.54834
 31
0.0
  0
LINE
  5
3D2
330
234
100
AcDbEntity
  8
7_ALL_FEATURES
  6
Continuous
 62
     7
100
AcDbLine
 10
807.820503
 20
599.54834
 30
0.0
 11
807.820432
 21
594.04834
 31
0.0
  0
LINE
  5
3D3
330
234
100
AcDbEntity
  8
7_ALL_FEATURES
  6
Continuous
 62
     7
100
AcDbLine
 10
807.820432
 20
594.04834
 30
0.0
 11
807.820431
 21
593.994055
 31
0.0
  0
LINE
  5
3D4
330
234
100
AcDbEntity
  8
7_ALL_FEATURES
  6
Continuous
 62
     7
100
AcDbLine
 10
807.820431
 20
593.994055
 30
0.0
 11
807.820306
 21
592.291508
 31
0.0
  0
LINE
  5
3D5
330
234
100
AcDbEntity
  8
7_ALL_FEATURES
  6
Continuous
 62
     7
100
AcDbLine
 10
808.077348
 20
584.798551
 30
0.0
 11
808.062079
 21
584.783281
 31
0.0
  0
LINE
  5
3D6
330
234
100
AcDbEntity
  8
7_ALL_FEATURES
  6
Continuous
 62
     7
100
AcDbLine
 10
808.562079
 20
584.783281
 30
0.0
 11
808.577348
 21
584.798551
 31
0.0
  0
LINE
  5
3D7
330
234
100
AcDbEntity
  8
7_ALL_FEATURES
  6
Continuous
 62
     7
100
AcDbLine
 10
834.827348
 20
578.048551
 30
0.0
 11
834.827348
 21
589.077194
 31
0.0
  0
LINE
  5
3D8
330
234
100
AcDbEntity
  8
7_ALL_FEATURES
  6
Continuous
 62
     7
100
AcDbLine
 10
834.827348
 20
589.077194
 30
0.0
 11
834.827348
 21
590.198551
 31
0.0
  0
ARC
  5
3D9
330
234
100
AcDbEntity
  8
7_ALL_FEATURES
  6
Continuous
 62
     7
100
AcDbCircle
 10
808.577348
 20
584.548551
 30
0.0
 40
0.25
100
AcDbArc
 50
0.0
 51
90.0
  0
ARC
  5
3DA
330
234
100
AcDbEntity
  8
7_ALL_FEATURES
  6
Continuous
 62
     7
100
AcDbCircle
 10
808.577348
 20
655.048551
 30
0.0
 40
0.25
100
AcDbArc
 50
270.0
 51
360.0
  0
LINE
  5
3DB
330
234
100
AcDbEntity
  8
7_ALL_FEATURES
  6
Continuous
 62
     7
100
AcDbLine
 10
808.812079
 20
584.533281
 30
0.0
 11
808.812079
 21
578.048551
 31
0.0
  0
LINE
  5
3DC
330
234
100
AcDbEntity
  8
7_ALL_FEATURES
  6
Continuous
 62
     7
100
AcDbLine
 10
808.812079
 20
578.048551
 30
0.0
 11
808.812079
 21
578.033281
 31
0.0
  0
LINE
  5
3DD
330
234
100
AcDbEntity
  8
7_ALL_FEATURES
  6
Continuous
 62
     7
100
AcDbLine
 10
808.062079
 20
584.783281
 30
0.0
 11
808.077348
 21
584.783281
 31
0.0
  0
LINE
  5
3DE
330
234
100
AcDbEntity
  8
7_ALL_FEATURES
  6
Continuous
 62
     7
100
AcDbLine
 10
808.077348
 20
584.783281
 30
0.0
 11
808.562079
 21
584.783281
 31
0.0
  0
LINE
  5
3DF
330
234
100
AcDbEntity
  8
7_ALL_FEATURES
  6
Continuous
 62
     7
100
AcDbLine
 10
807.812078
 20
654.533281
 30
0.0
 11
807.812078
 21
644.033476
 31
0.0
  0
LINE
  5
3E0
330
234
100
AcDbEntity
  8
7_ALL_FEATURES
  6
Continuous
 62
     7
100
AcDbLine
 10
807.812078
 20
607.291508
 30
0.0
 11
807.812079
 21
599.54834
 31
0.0
  0
LINE
  5
3E1
330
234
100
AcDbEntity
  8
7_ALL_FEATURES
  6
Continuous
 62
     7
100
AcDbLine
 10
807.812079
 20
599.54834
 30
0.0
 11
807.812079
 21
594.04834
 31
0.0
  0
LINE
  5
3E2
330
234
100
AcDbEntity
  8
7_ALL_FEATURES
  6
Continuous
 62
     7
100
AcDbLine
 10
807.812079
 20
594.04834
 30
0.0
 11
807.812079
 21
592.290324
 31
0.0
  0
LINE
  5
3E3
330
234
100
AcDbEntity
  8
7_ALL_FEATURES
  6
Continuous
 62
     7
100
AcDbLine
 10
807.812079
 20
592.290324
 30
0.0
 11
807.812079
 21
585.048551
 31
0.0
  0
LINE
  5
3E4
330
234
100
AcDbEntity
  8
7_ALL_FEATURES
  6
Continuous
 62
     7
100
AcDbLine
 10
807.812079
 20
585.048551
 30
0.0
 11
807.812079
 21
585.033281
 31
0.0
  0
LINE
  5
3E5
330
234
100
AcDbEntity
  8
7_ALL_FEATURES
  6
Continuous
 62
     7
100
AcDbLine
 10
808.812078
 20
661.533281
 30
0.0
 11
808.812078
 21
655.048551
 31
0.0
  0
LINE
  5
3E6
330
234
100
AcDbEntity
  8
7_ALL_FEATURES
  6
Continuous
 62
     7
100
AcDbLine
 10
808.812078
 20
655.048551
 30
0.0
 11
808.812078
 21
655.033281
 31
0.0
  0
LINE
  5
3E7
330
234
100
AcDbEntity
  8
7_ALL_FEATURES
  6
Continuous
 62
     7
100
AcDbLine
 10
808.077348
 20
584.798551
 30
0.0
 11
808.577348
 21
584.798551
 31
0.0
  0
LINE
  5
3E8
330
234
100
AcDbEntity
  8
7_ALL_FEATURES
  6
Continuous
 62
     7
100
AcDbLine
 10
807.827348
 20
654.548551
 30
0.0
 11
807.827348
 21
585.048551
 31
0.0
  0
LINE
  5
3E9
330
234
100
AcDbEntity
  8
7_ALL_FEATURES
  6
Continuous
 62
     7
100
AcDbLine
 10
834.527393
 20
577.798551
 30
0.0
 11
834.577348
 21
577.798551
 31
0.0
  0
LINE
  5
3EA
330
234
100
AcDbEntity
  8
7_ALL_FEATURES
  6
Continuous
 62
     7
100
AcDbLine
 10
807.812217
 20
641.283419
 30
0.0
 11
807.812289
 21
644.033476
 31
0.0
  0
LINE
  5
3EB
330
234
100
AcDbEntity
  8
7_ALL_FEATURES
  6
Continuous
 62
     7
100
AcDbLine
 10
808.827406
 20
665.09863
 30
0.0
 11
808.827406
 21
574.49863
 31
0.0
  0
LINE
  5
3EC
330
234
100
AcDbEntity
  8
7_ALL_FEATURES
  6
Continuous
 62
     7
100
AcDbLine
 10
808.827406
 20
665.09863
 30
0.0
 11
832.527406
 21
665.09863
 31
0.0
  0
LINE
  5
3ED
330
234
100
AcDbEntity
  8
7_ALL_FEATURES
  6
Continuous
 62
     7
100
AcDbLine
 10
832.527406
 20
665.09863
 30
0.0
 11
832.527406
 21
574.49863
 31
0.0
  0
LINE
  5
3EE
330
234
100
AcDbEntity
  8
7_ALL_FEATURES
  6
Continuous
 62
     7
100
AcDbLine
 10
832.527406
 20
574.49863
 30
0.0
 11
808.827406
 21
574.49863
 31
0.0
  0
LINE
  5
3EF
330
234
100
AcDbEntity
  8
7_ALL_FEATURES
  6
Continuous
 62
     7
100
AcDbLine
 10
834.527393
 20
574.498616
 30
0.0
 11
832.518665
 21
574.498616
 31
0.0
  0
LINE
  5
3F0
330
234
100
AcDbEntity
  8
7_ALL_FEATURES
  6
Continuous
 62
     7
100
AcDbLine
 10
834.527392
 20
665.098616
 30
0.0
 11
834.527393
 21
574.498616
 31
0.0
  0
LINE
  5
3F1
330
234
100
AcDbEntity
  8
7_ALL_FEATURES
  6
Continuous
 62
     7
100
AcDbLine
 10
834.527392
 20
665.098616
 30
0.0
 11
832.518665
 21
665.098616
 31
0.0
  0
LINE
  5
3F2
330
234
100
AcDbEntity
  8
7_ALL_FEATURES
  6
Continuous
 62
     7
100
AcDbLine
 10
1088.931008
 20
359.118726
 30
0.0
 11
1082.354382
 21
362.407039
 31
0.0
  0
LINE
  5
3F3
330
234
100
AcDbEntity
  8
7_ALL_FEATURES
  6
Continuous
 62
     7
100
AcDbLine
 10
1080.233062
 20
359.455272
 30
0.0
 11
1080.233062
 21
361.346379
 31
0.0
  0
LINE
  5
3F4
330
234
100
AcDbEntity
  8
7_ALL_FEATURES
  6
Continuous
 62
     7
100
AcDbLine
 10
1082.354382
 20
362.407039
 30
0.0
 11
1080.233062
 21
361.346379
 31
0.0
  0
LINE
  5
3F5
330
234
100
AcDbEntity
  8
7_ALL_FEATURES
  6
Continuous
 62
     7
100
AcDbLine
 10
1086.809687
 20
358.058066
 30
0.0
 11
1081.797858
 21
360.56398
 31
0.0
  0
LINE
  5
3F6
330
234
100
AcDbEntity
  8
7_ALL_FEATURES
  6
Continuous
 62
     7
100
AcDbLine
 10
1081.797858
 20
360.56398
 30
0.0
 11
1080.233062
 21
361.346379
 31
0.0
  0
LINE
  5
3F7
330
234
100
AcDbEntity
  8
7_ALL_FEATURES
  6
Continuous
 62
     7
100
AcDbLine
 10
667.989808
 20
155.224752
 30
0.0
 11
667.989808
 21
76.76285
 31
0.0
  0
LINE
  5
3F8
330
234
100
AcDbEntity
  8
7_ALL_FEATURES
  6
Continuous
 62
     7
100
AcDbLine
 10
674.530561
 20
73.492474
 30
0.0
 11
667.989808
 21
76.76285
 31
0.0
  0
LINE
  5
3F9
330
234
100
AcDbEntity
  8
7_ALL_FEATURES
  6
Continuous
 62
     7
100
AcDbLine
 10
670.111128
 20
156.285412
 30
0.0
 11
671.334359
 21
155.673797
 31
0.0
  0
LINE
  5
3FA
330
234
100
AcDbEntity
  8
7_ALL_FEATURES
  6
Continuous
 62
     7
100
AcDbLine
 10
671.334359
 20
155.673797
 30
0.0
 11
676.687754
 21
152.997099
 31
0.0
  0
LINE
  5
3FB
330
234
100
AcDbEntity
  8
7_ALL_FEATURES
  6
Continuous
 62
     7
100
AcDbLine
 10
667.989808
 20
155.224752
 30
0.0
 11
670.111128
 21
156.285412
 31
0.0
  0
LINE
  5
3FC
330
234
100
AcDbEntity
  8
7_ALL_FEATURES
  6
Continuous
 62
     7
100
AcDbLine
 10
667.989808
 20
155.224752
 30
0.0
 11
673.331473
 21
152.553919
 31
0.0
  0
LINE
  5
3FD
330
234
100
AcDbEntity
  8
7_ALL_FEATURES
  6
Continuous
 62
     7
100
AcDbLine
 10
673.331473
 20
152.553919
 30
0.0
 11
674.103095
 21
152.168109
 31
0.0
  0
LINE
  5
3FE
330
234
100
AcDbEntity
  8
7_ALL_FEATURES
  6
Continuous
 62
     7
100
AcDbLine
 10
674.103095
 20
152.168109
 30
0.0
 11
674.572046
 21
151.933633
 31
0.0
  0
SPLINE
  5
3FF
330
234
100
AcDbEntity
  8
7_ALL_FEATURES
  6
Continuous
 62
     7
100
AcDbSpline
 70
     0
 71
     3
 72
     9
 73
     5
 74
     0
 42
0.000000001
 43
0.0000001
 40
0.0
 40
0.0
 40
0.0
 40
0.0
 40
0.2300215602
 40
1.0
 40
1.0
 40
1.0
 40
1.0
 10
1080.6575155392
 20
359.6674326115
 30
0.0
 10
1080.7046511831
 20
359.6909969113
 30
0.0
 10
1080.9249670972
 20
359.7649967087
 30
0.0
 10
1081.170531206
 20
359.7037719994
 30
0.0
 10
1081.3283092196
 20
359.6248829926
 30
0.0
  0
LINE
  5
400
330
234
100
AcDbEntity
  8
7_ALL_FEATURES
  6
Continuous
 62
     7
100
AcDbLine
 10
1080.657489
 20
359.667486
 30
0.0
 11
1079.865823
 21
359.271653
 31
0.0
  0
LINE
  5
401
330
234
100
AcDbEntity
  8
7_ALL_FEATURES
  6
Continuous
 62
     7
100
AcDbLine
 10
1079.865823
 20
359.271653
 30
0.0
 11
672.002235
 21
155.339859
 31
0.0
  0
LINE
  5
402
330
234
100
AcDbEntity
  8
7_ALL_FEATURES
  6
Continuous
 62
     7
100
AcDbLine
 10
1081.328309
 20
359.624883
 30
0.0
 11
1085.635815
 21
357.47113
 31
0.0
  0
LINE
  5
403
330
234
100
AcDbEntity
  8
7_ALL_FEATURES
  6
Continuous
 62
     9
100
AcDbLine
 10
672.380248
 20
155.150852
 30
0.0
 11
1080.017028
 21
358.969243
 31
0.0
  0
LINE
  5
404
330
234
100
AcDbEntity
  8
7_ALL_FEATURES
  6
Continuous
 62
     9
100
AcDbLine
 10
1080.017028
 20
358.969243
 30
0.0
 11
1080.808694
 21
359.365075
 31
0.0
  0
LINE
  5
405
330
234
100
AcDbEntity
  8
7_ALL_FEATURES
  6
Continuous
 62
     9
100
AcDbLine
 10
1080.808694
 20
359.365075
 30
0.0
 11
1081.328309
 21
359.624883
 31
0.0
  0
SPLINE
  5
406
330
234
100
AcDbEntity
  8
7_ALL_FEATURES
  6
Continuous
 62
     7
100
AcDbSpline
 70
     0
 71
     3
 72
     9
 73
     5
 74
     0
 42
0.000000001
 43
0.0000001
 40
0.0
 40
0.0
 40
0.0
 40
0.0
 40
0.5515151044
 40
1.0
 40
1.0
 40
1.0
 40
1.0
 10
1114.3509788667
 20
266.821730434
 30
0.0
 10
1114.3509788667
 20
266.7930668591
 30
0.0
 10
1114.3436093204
 20
266.7397478867
 30
0.0
 10
1114.306853466
 20
266.696936355
 30
0.0
 10
1114.2860055832
 20
266.6865119576
 30
0.0
  0
LINE
  5
407
330
234
100
AcDbEntity
  8
7_ALL_FEATURES
  6
Continuous
 62
     7
100
AcDbLine
 10
1114.350979
 20
266.82173
 30
0.0
 11
1114.350979
 21
370.311766
 31
0.0
  0
SPLINE
  5
408
330
234
100
AcDbEntity
  8
7_ALL_FEATURES
  6
Continuous
 62
     7
100
AcDbSpline
 70
     0
 71
     3
 72
     9
 73
     5
 74
     0
 42
0.000000001
 43
0.0000001
 40
0.0
 40
0.0
 40
0.0
 40
0.0
 40
0.4877711059
 40
1.0
 40
1.0
 40
1.0
 40
1.0
 10
1114.1742021714
 20
370.6166608848
 30
0.0
 10
1114.2270996446
 20
370.5902121482
 30
0.0
 10
1114.3124077096
 20
370.4941680306
 30
0.0
 10
1114.3509788667
 20
370.3738728122
 30
0.0
 10
1114.3509788667
 20
370.3117661862
 30
0.0
  0
LINE
  5
409
330
234
100
AcDbEntity
  8
7_ALL_FEATURES
  6
Continuous
 62
     7
100
AcDbLine
 10
1114.174202
 20
370.616661
 30
0.0
 11
1113.113542
 21
371.146991
 31
0.0
  0
SPLINE
  5
40A
330
234
100
AcDbEntity
  8
7_ALL_FEATURES
  6
Continuous
 62
     7
100
AcDbSpline
 70
     0
 71
     3
 72
     9
 73
     5
 74
     0
 42
0.000000001
 43
0.0000001
 40
0.0
 40
0.0
 40
0.0
 40
0.0
 40
0.5363159916
 40
1.0
 40
1.0
 40
1.0
 40
1.0
 10
675.7679978357
 20
47.4905102629
 30
0.0
 10
675.7864127406
 20
47.4813028104
 30
0.0
 10
675.8239136486
 20
47.4688029625
 30
0.0
 10
675.8638803682
 20
47.4754490019
 30
0.0
 10
675.8798012476
 20
47.4834097898
 30
0.0
  0
LINE
  5
40B
330
234
100
AcDbEntity
  8
7_ALL_FEATURES
  6
Continuous
 62
     7
100
AcDbLine
 10
674.707338
 20
48.02084
 30
0.0
 11
675.767998
 21
47.49051
 31
0.0
  0
SPLINE
  5
40C
330
234
100
AcDbEntity
  8
7_ALL_FEATURES
  6
Continuous
 62
     7
100
AcDbSpline
 70
     0
 71
     3
 72
     9
 73
     5
 74
     0
 42
0.000000001
 43
0.0000001
 40
0.0
 40
0.0
 40
0.0
 40
0.0
 40
0.5122288941
 40
1.0
 40
1.0
 40
1.0
 40
1.0
 10
674.5305609686
 20
48.3257350473
 30
0.0
 10
674.5305609686
 20
48.2636284213
 30
0.0
 10
674.5691321257
 20
48.143333203
 30
0.0
 10
674.6544401907
 20
48.0472890854
 30
0.0
 10
674.7073376639
 20
48.0208403487
 30
0.0
  0
LINE
  5
40D
330
234
100
AcDbEntity
  8
7_ALL_FEATURES
  6
Continuous
 62
     7
100
AcDbLine
 10
675.879801
 20
47.48341
 30
0.0
 11
675.985867
 21
47.536443
 31
0.0
  0
LINE
  5
40E
330
234
100
AcDbEntity
  8
7_ALL_FEATURES
  6
Continuous
 62
     7
100
AcDbLine
 10
675.985867
 20
47.536443
 30
0.0
 11
1114.286006
 21
266.686512
 31
0.0
  0
SPLINE
  5
40F
330
234
100
AcDbEntity
  8
7_ALL_FEATURES
  6
Continuous
 62
     7
100
AcDbSpline
 70
     0
 71
     3
 72
     9
 73
     5
 74
     0
 42
0.000000001
 43
0.0000001
 40
0.0
 40
0.0
 40
0.0
 40
0.0
 40
0.4636840084
 40
1.0
 40
1.0
 40
1.0
 40
1.0
 10
1113.0017385877
 20
371.1540914438
 30
0.0
 10
1113.0176594671
 20
371.1620522317
 30
0.0
 10
1113.0576261867
 20
371.168698271
 30
0.0
 10
1113.0951270947
 20
371.1561984231
 30
0.0
 10
1113.1135419996
 20
371.1469909707
 30
0.0
  0
SPLINE
  5
410
330
234
100
AcDbEntity
  8
7_ALL_FEATURES
  6
Continuous
 62
     7
100
AcDbSpline
 70
     0
 71
     3
 72
     9
 73
     5
 74
     0
 42
0.000000001
 43
0.0000001
 40
0.0
 40
0.0
 40
0.0
 40
0.0
 40
0.4484848956
 40
1.0
 40
1.0
 40
1.0
 40
1.0
 10
674.5955342521
 20
151.9509892759
 30
0.0
 10
674.5746863693
 20
151.9405648785
 30
0.0
 10
674.5379305148
 20
151.8977533469
 30
0.0
 10
674.5305609686
 20
151.8444343744
 30
0.0
 10
674.5305609686
 20
151.8157707996
 30
0.0
  0
LINE
  5
411
330
234
100
AcDbEntity
  8
7_ALL_FEATURES
  6
Continuous
 62
     7
100
AcDbLine
 10
674.595534
 20
151.950989
 30
0.0
 11
674.682137
 21
151.994291
 31
0.0
  0
LINE
  5
412
330
234
100
AcDbEntity
  8
7_ALL_FEATURES
  6
Continuous
 62
     7
100
AcDbLine
 10
674.682137
 20
151.994291
 30
0.0
 11
1113.001739
 21
371.154091
 31
0.0
  0
LINE
  5
413
330
234
100
AcDbEntity
  8
7_ALL_FEATURES
  6
Continuous
 62
     7
100
AcDbLine
 10
674.530561
 20
151.815771
 30
0.0
 11
674.530561
 21
48.325735
 31
0.0
  0
SPLINE
  5
414
330
234
100
AcDbEntity
  8
7_ALL_FEATURES
  6
Continuous
 62
     7
100
AcDbSpline
 70
     0
 71
     3
 72
     9
 73
     5
 74
     0
 42
0.000000001
 43
0.0000001
 40
0.0
 40
0.0
 40
0.0
 40
0.0
 40
0.4484848956
 40
1.0
 40
1.0
 40
1.0
 40
1.0
 10
675.8798012476
 20
47.4834097898
 30
0.0
 10
675.9006491304
 20
47.4938341872
 30
0.0
 10
675.9374049848
 20
47.5366457189
 30
0.0
 10
675.944774531
 20
47.5899646913
 30
0.0
 10
675.944774531
 20
47.6186282661
 30
0.0
  0
LINE
  5
415
330
234
100
AcDbEntity
  8
7_ALL_FEATURES
  6
Continuous
 62
     7
100
AcDbLine
 10
675.767998
 20
151.413559
 30
0.0
 11
674.707338
 21
151.943889
 31
0.0
  0
SPLINE
  5
416
330
234
100
AcDbEntity
  8
7_ALL_FEATURES
  6
Continuous
 62
     7
100
AcDbSpline
 70
     0
 71
     3
 72
     9
 73
     5
 74
     0
 42
0.000000001
 43
0.0000001
 40
0.0
 40
0.0
 40
0.0
 40
0.0
 40
0.5122288941
 40
1.0
 40
1.0
 40
1.0
 40
1.0
 10
675.944774531
 20
151.1086640184
 30
0.0
 10
675.944774531
 20
151.1707706444
 30
0.0
 10
675.9062033739
 20
151.2910658627
 30
0.0
 10
675.820895309
 20
151.3871099804
 30
0.0
 10
675.7679978357
 20
151.413558717
 30
0.0
  0
LINE
  5
417
330
234
100
AcDbEntity
  8
7_ALL_FEATURES
  6
Continuous
 62
     7
100
AcDbLine
 10
675.944775
 20
47.618628
 30
0.0
 11
675.944775
 21
151.108664
 31
0.0
  0
LINE
  5
418
330
234
100
AcDbEntity
  8
7_ALL_FEATURES
  6
Continuous
 62
     9
100
AcDbLine
 10
675.944775
 20
151.108664
 30
0.0
 11
1114.350979
 21
370.311766
 31
0.0
  0
LINE
  5
419
330
234
100
AcDbEntity
  8
7_ALL_FEATURES
  6
Continuous
 62
     9
100
AcDbLine
 10
675.944775
 20
47.618628
 30
0.0
 11
1114.244913
 21
266.768697
 31
0.0
  0
LINE
  5
41A
330
234
100
AcDbEntity
  8
7_ALL_FEATURES
  6
Continuous
 62
     9
100
AcDbLine
 10
1114.244913
 20
266.768697
 30
0.0
 11
1114.350979
 21
266.82173
 31
0.0
  0
LINE
  5
41B
330
234
100
AcDbEntity
  8
7_ALL_FEATURES
  6
Continuous
 62
     9
100
AcDbLine
 10
674.707338
 20
151.943889
 30
0.0
 11
1113.026939
 21
371.10369
 31
0.0
  0
LINE
  5
41C
330
234
100
AcDbEntity
  8
7_ALL_FEATURES
  6
Continuous
 62
     9
100
AcDbLine
 10
1113.026939
 20
371.10369
 30
0.0
 11
1113.113542
 21
371.146991
 31
0.0
  0
LINE
  5
41D
330
234
100
AcDbEntity
  8
7_ALL_FEATURES
  6
Continuous
 62
     9
100
AcDbLine
 10
675.767998
 20
151.413559
 30
0.0
 11
1114.174202
 21
370.616661
 31
0.0
  0
SPLINE
  5
41E
330
234
100
AcDbEntity
  8
7_ALL_FEATURES
  6
Continuous
 62
     7
100
AcDbSpline
 70
     0
 71
     3
 72
     9
 73
     5
 74
     0
 42
0.000000001
 43
0.0000001
 40
0.0
 40
0.0
 40
0.0
 40
0.0
 40
0.5363159916
 40
1.0
 40
1.0
 40
1.0
 40
1.0
 10
674.7073376639
 20
151.9438888029
 30
0.0
 10
674.6889227591
 20
151.9530962553
 30
0.0
 10
674.651421851
 20
151.9655961032
 30
0.0
 10
674.6114551314
 20
151.9589500639
 30
0.0
 10
674.5955342521
 20
151.9509892759
 30
0.0
  0
DIMENSION
  5
41F
330
234
100
AcDbEntity
  8
0
  6
Continuous
 62
     2
100
AcDbDimension
280
     0
  2
*D1
 10
60.420289
 20
679.478225
 30
0.0
 11
60.418719
 21
619.821773
 31
0.0
 70
   160
 71
     2
 42
120.0
 73
     0
 74
     0
 75
     0
  3
DIMSTYLE_1
100
AcDbAlignedDimension
 13
79.089723
 23
559.477734
 33
0.0
 14
79.092882
 24
679.477734
 34
0.0
 50
89.998492
100
AcDbRotatedDimension
  0
DIMENSION
  5
420
330
234
100
AcDbEntity
  8
0
  6
Continuous
 62
     2
100
AcDbDimension
280
     0
  2
*D2
 10
699.093477
 20
702.062013
 30
0.0
 11
389.035541
 21
702.070176
 31
0.0
 70
   160
 71
     2
 42
620.0
 73
     0
 74
     0
 75
     0
  3
DIMSTYLE_2
100
AcDbAlignedDimension
 13
79.092882
 23
679.477734
 33
0.0
 14
699.092882
 24
679.461411
 34
0.0
 50
359.998492
100
AcDbRotatedDimension
  0
DIMENSION
  5
421
330
234
100
AcDbEntity
  8
0
  6
Continuous
 62
     2
100
AcDbDimension
280
     0
  2
*D3
 10
788.625068
 20
574.49863
 30
0.0
 11
788.625068
 21
619.003941
 31
0.0
 70
   160
 71
     2
 42
90.6
 73
     0
 74
     0
 75
     0
  3
DIMSTYLE_3
100
AcDbAlignedDimension
 13
808.827406
 23
665.09863
 33
0.0
 14
808.827406
 24
574.49863
 34
0.0
 50
270.0
100
AcDbRotatedDimension
  0
DIMENSION
  5
422
330
234
100
AcDbEntity
  8
0
  6
Continuous
 62
     2
100
AcDbDimension
280
     0
  2
*D4
 10
59.7449
 20
412.090945
 30
0.0
 11
59.745291
 21
397.209517
 31
0.0
 70
   160
 71
     2
 42
29.75
 73
     0
 74
     0
 75
     0
  3
DIMSTYLE_4
100
AcDbAlignedDimension
 13
79.092882
 23
382.341454
 33
0.0
 14
99.591456
 24
412.091994
 34
0.0
 50
90.001508
100
AcDbRotatedDimension
  0
INSERT
  5
423
330
234
100
AcDbEntity
  8
0
  6
Continuous
 62
     2
100
AcDbBlockReference
  2
LOGO2_BL0
 10
1102.860957
 20
36.533893
 30
0.0
  0
ACAD_TABLE
  5
424
102
{ACAD_XDICTIONARY
360
47B
102
}
330
234
100
AcDbEntity
  8
0
  6
Continuous
 62
     2
160
              3312
310
F00C000017000000880000001D000000000000000000F03F000000000000000000000000000000007FE58DBF230491400000000000000000000000000000F03F0000000000000000AF5FE29E5604494000000000000000000000000000000000000000000000F03F0000000000000000000000000000000000000000000000
310
000000000000000000000000000000F03F54000000200000000200000000000000000000000000000000000000000000000000000000000000008056400000000000000000000000000000000000000000000000000000000000000000000000000000F03F5400000020000000020000000000000000000000000000000000
310
00000000000000000000000000000000000000000000000044C0000000000000000000000000000000000000000000000000000000000000F03F5400000020000000020000000000000000003E4000000000000018C00000000000000000000000000080564000000000000018C00000000000000000000000000000000000
310
00000000000000000000000000F03F5400000020000000020000000000000000003E4000000000000028C00000000000000000000000000080564000000000000028C0000000000000000000000000000000000000000000000000000000000000F03F5400000020000000020000000000000000003E4000000000000036C0
310
0000000000000000000000000080564000000000000036C0000000000000000000000000000000000000000000000000000000000000F03F54000000200000000200000000000000000000000000000000003BC0000000000000000000000000008056400000000000003BC000000000000000000000000000000000000000
310
0000000000000000000000F03F540000002000000002000000000000000000000000000000000044C00000000000000000000000000080564000000000000044C0000000000000000000000000000000000000000000000000000000000000F03F5400000020000000020000000000000000003E4000000000000000000000
310
0000000000000000000000003E400000000000003BC0000000000000000000000000000000000000000000000000000000000000F03F540000002000000002000000000000000080514000000000000000000000000000000000000000000080514000000000000028C0000000000000000000000000000000000000000000
310
000000000000000000F03F540000002000000002000000000000000080564000000000000000000000000000000000000000000080564000000000000044C0000000000000000000000000000000000000000000000000000000000000F03F0C0000001000000012000000D000000026000000CDCCCCCCCC7C3F404E621058
310
393412C0000000000000000000000000000000000000000000000000000000000000F03F000000000000F03F0000000000000000000000000000000041003100330038005F0043005F003400300031000000000014000000010000000000000000000840000000000000F03F0000000000000000000000000000F03F000000
310
0000000000000000000000000000000000000000000000000000000000000000000000000061007200690061006C002E00740074006600000000000000C800000026000000C2F5285C8FC6514075931804560E13C0000000000000000000000000000000000000000000000000000000000000F03F000000000000F03F0000
310
00000000000000000000000000005200650076003A0030003000000000000C000000010000000000000000000C40000000000000F03F0000000000000000000000000000F03F0000000000000000000000000000000000000000000000000000000000000000000000000000000061007200690061006C002E007400740066
310
00000000000000CC00000026000000FA7E6ABC74433F405839B4C8769E26C0000000000000000000000000000000000000000000000000000000000000F03F000000000000F03F000000000000000000000000000000005300630061006C0065003A0031003A003100000012000000010000000000000000000C4000000000
310
0000F03F0000000000000000000000000000F03F0000000000000000000000000000000000000000000000000000000000000000000000000000000061007200690061006C002E00740074006600000000000000C0000000260000003333333333DF5140BA490C022B8725C000000000000000000000000000000000000000
310
0000000000000000000000F03F000000000000F03F00000000000000000000000000000000410030000000000004000000010000000000000000000C40000000000000F03F0000000000000000000000000000F03F000000000000000000000000000000000000000000000000000000000000000000000000000000006100
310
7200690061006C002E00740074006600000000000000D400000026000000C520B07268213F40AC1C5A643BCF32C0000000000000000000000000000000000000000000000000000000000000F03F000000000000F03F00000000000000000000000000000000420045005200490043004100200049004E00200032002E0032
310
0000001A000000010000000000000000000C40000000000000F03F0000000000000000000000000000F03F0000000000000000000000000000000000000000000000000000000000000000000000000000000061007200690061006C002E00740074006600000000000000D40000002600000048E17A14AE373F40C3F5285C
310
8FC239C0000000000000000000000000000000000000000000000000000000000000F03F000000000000F03F0000000000000000000000000000000044004100540045003A00310032002E00310031002E003200300000001A000000010000000000000000000440000000000000F03F0000000000000000000000000000F0
310
3F0000000000000000000000000000000000000000000000000000000000000000000000000000000061007200690061006C002E007400740066000000000000002401000026000000CDCCCCCCCCCCF73F0000000000903DC0000000000000000000000000000000000000000000000000000000000000F03F000000000000
310
F03F0000000000000000000000000000000041006E007900200069006E00740065006700720061006C0020006F00720020007000610072007400690061006C00200072006500700072006F00640075006300740069006F006E00730020006100720065002000700072006F0068006900620069007400650064000000000068
310
000000010000000000000000000240000000000000F03F0000000000000000000000000000F03F0000000000000000000000000000000000000000000000000000000000000000000000000000000061007200690061006C002E007400740066000000000000002C01000026000000FED478E926B1F73F37894160E57C40C0
310
000000000000000000000000000000000000000000000000000000000000F03F000000000000F03F0000000000000000000000000000000077006900740068006F007500740020007000720069006F007200200061007500740068006F007200690073006100740069006F006E0020006F00660020004C002000260020004C
310
0020004C007500630065002000260020004C006900670068007400200073002E0072002E006C002E002C00000072000000010000000000000000000240000000000000F03F0000000000000000000000000000F03F000000000000000000000000000000000000000000000000000000000000000000000000000000006100
310
7200690061006C002E007400740066000000000000000401000026000000C1CAA145B673F43F4F1E166A4D3142C0000000000000000000000000000000000000000000000000000000000000F03F000000000000F03F0000000000000000000000000000000069006E0020006100630063006F007200640061006E00630065
310
0020007700690074006800200074006800650020006C0061007700200069006E00200066006F007200630065002E000000000048000000010000000000000000000240000000000000F03F0000000000000000000000000000F03F000000000000000000000000000000000000000000000000000000000000000000000000
310
0000000061007200690061006C002E00740074006600000000000000E400000026000000CDCCCCCCCCCCF73F302AA913D0E043C0000000000000000000000000000000000000000000000000000000000000F03F000000000000F03F0000000000000000000000000000000041006C006C0020007200690067006800740073
310
002000720065007300650072007600650064002E000000000028000000010000000000000000000240000000000000F03F0000000000000000000000000000F03F0000000000000000000000000000000000000000000000000000000000000000000000000000000061007200690061006C002E0074007400660000000000
310
0000080000001F000000
100
AcDbBlockReference
  2
*T6
 10
1089.03491
 20
50.033893
 30
0.0
100
AcDbTable
342
44D
343
23C
 11
1.0
 21
0.0
 31
0.0
 90
       22
 91
        5
 92
        5
 93
        0
 94
        0
 95
        0
 96
        0
141
6.0
141
6.0
141
10.0
141
5.0
141
13.0
142
10.0
142
10.0
142
10.0
142
40.0
142
20.0
171
     1
172
     0
173
     0
174
     0
175
     3
176
     4
 91
       32
178
     0
145
0.0
140
3.5
 92
        0
301
CELL_VALUE
 93
        2
 90
        4
  1
 
 94
        0
300

302
 
304
ACVALUE_END
171
     1
172
     0
173
     1
174
     0
175
     1
176
     1
 91
        0
178
     0
145
0.0
 92
        0
301
CELL_VALUE
 93
        3
 90
        0
 91
        0
 94
        0
300

302

304
ACVALUE_END
171
     1
172
     0
173
     1
174
     0
175
     1
176
     1
 91
        0
178
     0
145
0.0
 92
        0
301
CELL_VALUE
 93
        3
 90
        0
 91
        0
 94
        0
300

302

304
ACVALUE_END
171
     1
172
     0
173
     0
174
     0
175
     1
176
     1
 91
       33
178
     0
145
0.0
170
     4
140
3.0
 92
        0
301
CELL_VALUE
 93
        2
 90
        4
  1
A138_C_401
 94
        0
300

302
A138_C_401
304
ACVALUE_END
171
     1
172
     0
173
     0
174
     0
175
     1
176
     1
 91
       33
178
     0
145
0.0
170
     4
140
3.5
 92
        0
301
CELL_VALUE
 93
        2
 90
        4
  1
Rev:00
 94
        0
300

302
Rev:00
304
ACVALUE_END
171
     1
172
     0
173
     1
174
     0
175
     1
176
     1
 91
        0
178
     0
145
0.0
 92
        0
301
CELL_VALUE
 93
        3
 90
        0
 91
        0
 94
        0
300

302

304
ACVALUE_END
171
     1
172
     0
173
     1
174
     0
175
     1
176
     1
 91
        0
178
     0
145
0.0
 92
        0
301
CELL_VALUE
 93
        3
 90
        0
 91
        0
 94
        0
300

302

304
ACVALUE_END
171
     1
172
     0
173
     1
174
     0
175
     1
176
     1
 91
        0
178
     0
145
0.0
 92
        0
301
CELL_VALUE
 93
        3
 90
        0
 91
        0
 94
        0
300

302

304
ACVALUE_END
171
     1
172
     0
173
     0
174
     0
175
     1
176
     1
 91
       33
178
     0
145
0.0
170
     1
140
3.5
 92
        0
301
CELL_VALUE
 93
        2
 90
        4
  1
Scale:1:1
 94
        0
300

302
Scale:1:1
304
ACVALUE_END
171
     1
172
     0
173
     0
174
     0
175
     1
176
     1
 91
       33
178
     0
145
0.0
170
     4
140
3.5
 92
        0
301
CELL_VALUE
 93
        2
 90
        4
  1
A0
 94
        0
300

302
A0
304
ACVALUE_END
171
     1
172
     0
173
     1
174
     0
175
     1
176
     1
 91
        0
178
     0
145
0.0
 92
        0
301
CELL_VALUE
 93
        3
 90
        0
 91
        0
 94
        0
300

302

304
ACVALUE_END
171
     1
172
     0
173
     1
174
     0
175
     1
176
     1
 91
        0
178
     0
145
0.0
 92
        0
301
CELL_VALUE
 93
        3
 90
        0
 91
        0
 94
        0
300

302

304
ACVALUE_END
171
     1
172
     0
173
     1
174
     0
175
     1
176
     1
 91
        0
178
     0
145
0.0
 92
        0
301
CELL_VALUE
 93
        3
 90
        0
 91
        0
 94
        0
300

302

304
ACVALUE_END
171
     1
172
     0
173
     0
174
     0
175
     2
176
     1
 91
       33
178
     0
145
0.0
170
     4
140
3.5
 92
        0
301
CELL_VALUE
 93
        2
 90
        4
  1
BERICA IN 2.2
 94
        0
300

302
BERICA IN 2.2
304
ACVALUE_END
171
     1
172
     0
173
     1
174
     0
175
     1
176
     1
 91
        0
178
     0
145
0.0
 92
        0
301
CELL_VALUE
 93
        3
 90
        0
 91
        0
 94
        0
300

302

304
ACVALUE_END
171
     1
172
     0
173
     1
174
     0
175
     1
176
     1
 91
        0
178
     0
145
0.0
 92
        0
301
CELL_VALUE
 93
        3
 90
        0
 91
        0
 94
        0
300

302

304
ACVALUE_END
171
     1
172
     0
173
     1
174
     0
175
     1
176
     1
 91
        0
178
     0
145
0.0
 92
        0
301
CELL_VALUE
 93
        3
 90
        0
 91
        0
 94
        0
300

302

304
ACVALUE_END
171
     1
172
     0
173
     1
174
     0
175
     1
176
     1
 91
        0
178
     0
145
0.0
 92
        0
301
CELL_VALUE
 93
        3
 90
        0
 91
        0
 94
        0
300

302

304
ACVALUE_END
171
     1
172
     0
173
     0
174
     0
175
     2
176
     1
 91
       33
178
     0
145
0.0
170
     4
140
2.5
 92
        0
301
CELL_VALUE
 93
        2
 90
        4
  1
DATE:12.11.20
 94
        0
300

302
DATE:12.11.20
304
ACVALUE_END
171
     1
172
     0
173
     1
174
     0
175
     1
176
     1
 91
        0
178
     0
145
0.0
 92
        0
301
CELL_VALUE
 93
        3
 90
        0
 91
        0
 94
        0
300

302

304
ACVALUE_END
171
     1
172
     0
173
     0
174
     0
175
     5
176
     1
 91
       33
178
     0
145
0.0
170
     4
140
2.25
 92
        0
301
CELL_VALUE
 93
        2
 90
        4
  1
Any integral or partial reproductions are prohibited \Pwithout prior authorisation of L & L Luce & Light s.r.l., \Pin accordance with the law in force. \PAll rights reserved.
 94
        0
300

302
Any integral or partial reproductions are prohibited \Pwithout prior authorisation of L & L Luce & Light s.r.l., \Pin accordance with the law in force. \PAll rights reserved.
304
ACVALUE_END
171
     1
172
     0
173
     1
174
     0
175
     1
176
     1
 91
        0
178
     0
145
0.0
 92
        0
301
CELL_VALUE
 93
        3
 90
        0
 91
        0
 94
        0
300

302

304
ACVALUE_END
171
     1
172
     0
173
     1
174
     0
175
     1
176
     1
 91
        0
178
     0
145
0.0
 92
        0
301
CELL_VALUE
 93
        3
 90
        0
 91
        0
 94
        0
300

302

304
ACVALUE_END
171
     1
172
     0
173
     1
174
     0
175
     1
176
     1
 91
        0
178
     0
145
0.0
 92
        0
301
CELL_VALUE
 93
        3
 90
        0
 91
        0
 94
        0
300

302

304
ACVALUE_END
171
     1
172
     0
173
     1
174
     0
175
     1
176
     1
 91
        0
178
     0
145
0.0
 92
        0
301
CELL_VALUE
 93
        3
 90
        0
 91
        0
 94
        0
300

302

304
ACVALUE_END
  0
ENDSEC
  0
SECTION
  2
OBJECTS
  0
DICTIONARY
  5
C
330
0
100
AcDbDictionary
281
     1
  3
ACAD_DETAILVIEWSTYLE
350
4B4
  3
ACAD_GROUP
350
D
  3
ACAD_IMAGE_DICT
350
474
  3
ACAD_LAYOUT
350
1A
  3
ACAD_MATERIAL
350
468
  3
ACAD_MLEADERSTYLE
350
4B3
  3
ACAD_MLINESTYLE
350
17
  3
ACAD_PLOTSETTINGS
350
19
  3
ACAD_PLOTSTYLENAME
350
E
  3
ACAD_SCALELIST
350
42A
  3
ACAD_SECTIONVIEWSTYLE
350
4B5
  3
ACAD_TABLESTYLE
350
44C
  3
ACAD_VISUALSTYLE
350
44F
  3
ACDB_RECOMPOSE_DATA
350
4B1
  3
AcDbVariableDictionary
350
47D
  3
HOST_DOC_SETTINGS
350
472
  3
MCS_STREAM_DICT
350
46E
  0
SUN
  5
471
330
1F4
100
AcDbSun
 90
        1
290
     0
 63
     7
421
 16777215
 40
1.0
291
     1
 91
  2455826
 92
 54000000
292
     0
 70
     2
 71
   256
280
     1
  0
DICTIONARY
  5
47B
330
424
100
AcDbDictionary
280
     1
281
     1
  3
ACAD_XREC_ROUNDTRIP
360
47C
  0
DICTIONARY
  5
4B4
102
{ACAD_REACTORS
330
C
102
}
330
C
100
AcDbDictionary
281
     1
  0
DICTIONARY
  5
D
102
{ACAD_REACTORS
330
C
102
}
330
C
100
AcDbDictionary
281
     1
  0
DICTIONARY
  5
474
102
{ACAD_REACTORS
330
C
102
}
330
C
100
AcDbDictionary
281
     1
  0
DICTIONARY
  5
1A
102
{ACAD_REACTORS
330
C
102
}
330
C
100
AcDbDictionary
281
     1
  3
Layout1
350
427
  3
Model
350
426
  0
DICTIONARY
  5
468
102
{ACAD_REACTORS
330
C
102
}
330
C
100
AcDbDictionary
281
     1
  3
ByBlock
350
46A
  3
ByLayer
350
469
  3
Global
350
46B
  0
DICTIONARY
  5
4B3
102
{ACAD_REACTORS
330
C
102
}
330
C
100
AcDbDictionary
281
     1
  0
DICTIONARY
  5
17
102
{ACAD_REACTORS
330
C
102
}
330
C
100
AcDbDictionary
281
     1
  3
Standard
350
18
  0
DICTIONARY
  5
19
102
{ACAD_REACTORS
330
C
102
}
330
C
100
AcDbDictionary
281
     1
  0
ACDBDICTIONARYWDFLT
  5
E
102
{ACAD_REACTORS
330
C
102
}
330
C
100
AcDbDictionary
281
     1
  3
Normal
350
F
100
AcDbDictionaryWithDefault
340
F
  0
DICTIONARY
  5
42A
102
{ACAD_REACTORS
330
C
102
}
330
C
100
AcDbDictionary
281
     1
  3
A0
350
42B
  3
A1
350
42C
  3
A2
350
42D
  3
A3
350
42E
  3
A4
350
42F
  3
A5
350
430
  3
A6
350
431
  3
A7
350
432
  3
A8
350
433
  3
A9
350
434
  3
B0
350
435
  3
B1
350
436
  3
B2
350
437
  3
B3
350
438
  3
B4
350
439
  3
B5
350
43A
  3
B6
350
43B
  3
B7
350
43C
  3
B8
350
43D
  3
B9
350
43E
  3
C0
350
43F
  3
C1
350
440
  3
C2
350
441
  3
C3
350
442
  3
C4
350
443
  3
C5
350
444
  3
C6
350
445
  3
C7
350
446
  3
C8
350
447
  3
C9
350
448
  3
D0
350
449
  3
D1
350
44A
  3
D2
350
44B
  0
DICTIONARY
  5
4B5
102
{ACAD_REACTORS
330
C
102
}
330
C
100
AcDbDictionary
281
     1
  0
DICTIONARY
  5
44C
102
{ACAD_REACTORS
330
C
102
}
330
C
100
AcDbDictionary
281
     1
  3
Standard
350
44D
  0
DICTIONARY
  5
44F
102
{ACAD_REACTORS
330
C
102
}
330
C
100
AcDbDictionary
281
     1
  3
2dWireframe
350
454
  3
Basic
350
457
  3
Brighten
350
45B
  3
ColorChange
350
45F
  3
Conceptual
350
459
  3
Dim
350
45A
  3
EdgeColorOff
350
462
  3
Facepattern
350
45E
  3
Flat
350
450
  3
FlatWithEdges
350
451
  3
Gouraud
350
452
  3
GouraudWithEdges
350
453
  3
Hidden
350
456
  3
JitterOff
350
460
  3
Linepattern
350
45D
  3
OverhangOff
350
461
  3
Realistic
350
458
  3
Shaded
350
467
  3
Shaded with edges
350
466
  3
Shades of Gray
350
463
  3
Sketchy
350
464
  3
Thicken
350
45C
  3
Wireframe
350
455
  3
X-Ray
350
465
  0
XRECORD
  5
4B1
102
{ACAD_REACTORS
330
C
102
}
330
C
100
AcDbXrecord
280
     1
 90
        1
330
424
330
44D
  0
DICTIONARY
  5
47D
102
{ACAD_REACTORS
330
C
102
}
330
C
100
AcDbDictionary
281
     1
  3
CANNOSCALE
350
47E
  3
CTABLESTYLE
350
4B2
  0
DICTIONARY
  5
472
102
{ACAD_REACTORS
330
C
102
}
330
C
100
AcDbDictionary
281
     1
  3
NCDocParameters
350
473
  0
DICTIONARY
  5
46E
102
{ACAD_REACTORS
330
C
102
}
330
C
100
AcDbDictionary
281
     1
  3
MC_VERSION_DATA
350
477
  3
MCS_DOCUMENT_ID
350
46F
  3
MCS_PARAMS_DATA
350
475
  0
XRECORD
  5
47C
102
{ACAD_REACTORS
330
47B
102
}
330
47B
100
AcDbXrecord
280
     1
102
ACAD_ROUNDTRIP_2008_TABLE_ENTITY
360
479
 70
     2
 90
        1
 10
0.0
 20
0.0
 30
0.0
 90
        0
 90
        4
361
47A
  0
LAYOUT
  5
427
102
{ACAD_REACTORS
330
1A
102
}
330
1A
100
AcDbPlotSettings
  1

  2
none_device
  4
ISO_A0_(1189.00_x_841.00_MM)
  6

 40
0.0
 41
0.0
 42
0.0
 43
0.0
 44
1189.0
 45
841.0
 46
0.0
 47
0.0
 48
0.0
 49
0.0
140
0.0
141
0.0
142
1.0
143
1.0
 70
     0
 72
     1
 73
     0
 74
     0
  7

 75
     0
 76
     0
 77
     2
 78
   300
147
1.0
148
0.0
149
0.0
100
AcDbLayout
  1
Layout1
 70
     0
 71
     1
 10
0.0
 20
0.0
 11
1189.0
 21
841.0
 12
0.0
 22
0.0
 32
0.0
 14
0.0
 24
0.0
 34
0.0
 15
0.0
 25
0.0
 35
0.0
146
0.0
 13
0.0
 23
0.0
 33
0.0
 16
1.0
 26
0.0
 36
0.0
 17
0.0
 27
1.0
 37
0.0
 76
     0
330
235
  0
LAYOUT
  5
426
102
{ACAD_REACTORS
330
1A
102
}
330
1A
100
AcDbPlotSettings
  1

  2
none_device
  4
ISO_A0_(1189.00_x_841.00_MM)
  6

 40
0.0
 41
0.0
 42
0.0
 43
0.0
 44
1189.0
 45
841.0
 46
0.0
 47
0.0
 48
0.0
 49
0.0
140
0.0
141
0.0
142
1.0
143
1.0
 70
  1024
 72
     1
 73
     0
 74
     0
  7

 75
     0
 76
     0
 77
     2
 78
   300
147
1.0
148
0.0
149
0.0
100
AcDbLayout
  1
Model
 70
     0
 71
     0
 10
0.0
 20
0.0
 11
1189.0
 21
841.0
 12
0.0
 22
0.0
 32
0.0
 14
0.0
 24
0.0
 34
0.0
 15
0.0
 25
0.0
 35
0.0
146
0.0
 13
0.0
 23
0.0
 33
0.0
 16
1.0
 26
0.0
 36
0.0
 17
0.0
 27
1.0
 37
0.0
 76
     0
330
234
331
1F4
  0
MATERIAL
  5
46A
102
{ACAD_REACTORS
330
468
102
}
330
468
100
AcDbMaterial
  1
ByBlock
 72
     1
 94
      127
  0
MATERIAL
  5
469
102
{ACAD_REACTORS
330
468
102
}
330
468
100
AcDbMaterial
  1
ByLayer
 72
     1
 94
      127
  0
MATERIAL
  5
46B
102
{ACAD_REACTORS
330
468
102
}
330
468
100
AcDbMaterial
  1
Global
 72
     1
 94
      127
  0
MLINESTYLE
  5
18
102
{ACAD_REACTORS
330
17
102
}
330
17
100
AcDbMlineStyle
  2
STANDARD
 70
     0
  3

 62
   256
 51
90.0
 52
90.0
 71
     2
 49
0.5
 62
   256
  6
BYLAYER
 49
-0.5
 62
   256
  6
BYLAYER
  0
ACDBPLACEHOLDER
  5
F
102
{ACAD_REACTORS
330
E
102
}
330
E
  0
SCALE
  5
42B
102
{ACAD_REACTORS
330
42A
102
}
330
42A
100
AcDbScale
 70
     0
300
1:1
140
1.0
141
1.0
290
     1
  0
SCALE
  5
42C
102
{ACAD_REACTORS
330
42A
102
}
330
42A
100
AcDbScale
 70
     0
300
1:2
140
1.0
141
2.0
290
     0
  0
SCALE
  5
42D
102
{ACAD_REACTORS
330
42A
102
}
330
42A
100
AcDbScale
 70
     0
300
1:4
140
1.0
141
4.0
290
     0
  0
SCALE
  5
42E
102
{ACAD_REACTORS
330
42A
102
}
330
42A
100
AcDbScale
 70
     0
300
1:5
140
1.0
141
5.0
290
     0
  0
SCALE
  5
42F
102
{ACAD_REACTORS
330
42A
102
}
330
42A
100
AcDbScale
 70
     0
300
1:8
140
1.0
141
8.0
290
     0
  0
SCALE
  5
430
102
{ACAD_REACTORS
330
42A
102
}
330
42A
100
AcDbScale
 70
     0
300
1:10
140
1.0
141
10.0
290
     0
  0
SCALE
  5
431
102
{ACAD_REACTORS
330
42A
102
}
330
42A
100
AcDbScale
 70
     0
300
1:16
140
1.0
141
16.0
290
     0
  0
SCALE
  5
432
102
{ACAD_REACTORS
330
42A
102
}
330
42A
100
AcDbScale
 70
     0
300
1:20
140
1.0
141
20.0
290
     0
  0
SCALE
  5
433
102
{ACAD_REACTORS
330
42A
102
}
330
42A
100
AcDbScale
 70
     0
300
1:30
140
1.0
141
30.0
290
     0
  0
SCALE
  5
434
102
{ACAD_REACTORS
330
42A
102
}
330
42A
100
AcDbScale
 70
     0
300
1:40
140
1.0
141
40.0
290
     0
  0
SCALE
  5
435
102
{ACAD_REACTORS
330
42A
102
}
330
42A
100
AcDbScale
 70
     0
300
1:50
140
1.0
141
50.0
290
     0
  0
SCALE
  5
436
102
{ACAD_REACTORS
330
42A
102
}
330
42A
100
AcDbScale
 70
     0
300
1:100
140
1.0
141
100.0
290
     0
  0
SCALE
  5
437
102
{ACAD_REACTORS
330
42A
102
}
330
42A
100
AcDbScale
 70
     0
300
2:1
140
2.0
141
1.0
290
     0
  0
SCALE
  5
438
102
{ACAD_REACTORS
330
42A
102
}
330
42A
100
AcDbScale
 70
     0
300
4:1
140
4.0
141
1.0
290
     0
  0
SCALE
  5
439
102
{ACAD_REACTORS
330
42A
102
}
330
42A
100
AcDbScale
 70
     0
300
8:1
140
8.0
141
1.0
290
     0
  0
SCALE
  5
43A
102
{ACAD_REACTORS
330
42A
102
}
330
42A
100
AcDbScale
 70
     0
300
10:1
140
10.0
141
1.0
290
     0
  0
SCALE
  5
43B
102
{ACAD_REACTORS
330
42A
102
}
330
42A
100
AcDbScale
 70
     0
300
100:1
140
100.0
141
1.0
290
     0
  0
SCALE
  5
43C
102
{ACAD_REACTORS
330
42A
102
}
330
42A
100
AcDbScale
 70
     0
300
1/128" = 1'-0"
140
0.007812
141
12.0
290
     0
  0
SCALE
  5
43D
102
{ACAD_REACTORS
330
42A
102
}
330
42A
100
AcDbScale
 70
     0
300
1/64" = 1'-0"
140
0.015625
141
12.0
290
     0
  0
SCALE
  5
43E
102
{ACAD_REACTORS
330
42A
102
}
330
42A
100
AcDbScale
 70
     0
300
1/32" = 1'-0"
140
0.03125
141
12.0
290
     0
  0
SCALE
  5
43F
102
{ACAD_REACTORS
330
42A
102
}
330
42A
100
AcDbScale
 70
     0
300
1/16" = 1'-0"
140
0.0625
141
12.0
290
     0
  0
SCALE
  5
440
102
{ACAD_REACTORS
330
42A
102
}
330
42A
100
AcDbScale
 70
     0
300
3/32" = 1'-0"
140
0.09375
141
12.0
290
     0
  0
SCALE
  5
441
102
{ACAD_REACTORS
330
42A
102
}
330
42A
100
AcDbScale
 70
     0
300
1/8" = 1'-0"
140
0.125
141
12.0
290
     0
  0
SCALE
  5
442
102
{ACAD_REACTORS
330
42A
102
}
330
42A
100
AcDbScale
 70
     0
300
3/16" = 1'-0"
140
0.1875
141
12.0
290
     0
  0
SCALE
  5
443
102
{ACAD_REACTORS
330
42A
102
}
330
42A
100
AcDbScale
 70
     0
300
1/4" = 1'-0"
140
0.25
141
12.0
290
     0
  0
SCALE
  5
444
102
{ACAD_REACTORS
330
42A
102
}
330
42A
100
AcDbScale
 70
     0
300
3/8" = 1'-0"
140
0.375
141
12.0
290
     0
  0
SCALE
  5
445
102
{ACAD_REACTORS
330
42A
102
}
330
42A
100
AcDbScale
 70
     0
300
1/2" = 1'-0"
140
0.5
141
12.0
290
     0
  0
SCALE
  5
446
102
{ACAD_REACTORS
330
42A
102
}
330
42A
100
AcDbScale
 70
     0
300
3/4" = 1'-0"
140
0.75
141
12.0
290
     0
  0
SCALE
  5
447
102
{ACAD_REACTORS
330
42A
102
}
330
42A
100
AcDbScale
 70
     0
300
1" = 1'-0"
140
1.0
141
12.0
290
     0
  0
SCALE
  5
448
102
{ACAD_REACTORS
330
42A
102
}
330
42A
100
AcDbScale
 70
     0
300
1-1/2" = 1'-0"
140
1.5
141
12.0
290
     0
  0
SCALE
  5
449
102
{ACAD_REACTORS
330
42A
102
}
330
42A
100
AcDbScale
 70
     0
300
3" = 1'-0"
140
3.0
141
12.0
290
     0
  0
SCALE
  5
44A
102
{ACAD_REACTORS
330
42A
102
}
330
42A
100
AcDbScale
 70
     0
300
6" = 1'-0"
140
6.0
141
12.0
290
     0
  0
SCALE
  5
44B
102
{ACAD_REACTORS
330
42A
102
}
330
42A
100
AcDbScale
 70
     0
300
1'-0" = 1'-0"
140
12.0
141
12.0
290
     0
  0
TABLESTYLE
  5
44D
102
{ACAD_REACTORS
330
44C
102
}
102
{ACAD_XDICTIONARY
360
47F
102
}
330
44C
100
AcDbTableStyle
  3
Standard
 70
     0
 71
     0
 40
0.06
 41
0.06
280
     0
281
     0
  7
STANDARD
140
4.5
170
     2
 62
     0
 63
   257
283
     0
 90
        4
 91
        0
  1

274
    -2
284
     1
 64
     0
275
    -2
285
     1
 65
     0
276
    -2
286
     1
 66
     0
277
    -2
287
     1
 67
     0
278
    -2
288
     1
 68
     0
279
    -2
289
     1
 69
     0
  7
STANDARD
140
6.0
170
     5
 62
     0
 63
   257
283
     0
 90
        4
 91
        0
  1

274
    -2
284
     1
 64
     0
275
    -2
285
     1
 65
     0
276
    -2
286
     1
 66
     0
277
    -2
287
     1
 67
     0
278
    -2
288
     1
 68
     0
279
    -2
289
     1
 69
     0
  7
STANDARD
140
4.5
170
     5
 62
     0
 63
   257
283
     0
 90
        4
 91
        0
  1

274
    -2
284
     1
 64
     0
275
    -2
285
     1
 65
     0
276
    -2
286
     1
 66
     0
277
    -2
287
     1
 67
     0
278
    -2
288
     1
 68
     0
279
    -2
289
     1
 69
     0
  0
VISUALSTYLE
  5
454
102
{ACAD_REACTORS
330
44F
102
}
102
{ACAD_XDICTIONARY
360
489
102
}
330
44F
100
AcDbVisualStyle
  2
2dWireframe
 70
     4
177
     2
291
     0
 71
     0
176
     1
 72
     2
176
     1
 73
     0
176
     1
 90
        0
176
     1
 40
0.6
176
     1
 41
30.0
176
     1
 62
     5
 63
     7
421
 16777215
176
     1
 74
     1
176
     1
 91
        4
176
     1
 64
     7
176
     1
 65
   257
176
     1
 75
     1
176
     1
175
     1
176
     1
 42
1.0
176
     1
 92
        0
176
     1
 66
   257
176
     1
 43
1.0
176
     1
 76
     1
176
     1
 77
     6
176
     1
 78
     2
176
     1
 67
     7
176
     1
 79
     5
176
     1
170
     0
176
     1
171
     0
176
     1
290
     0
176
     1
 93
        1
176
     1
 44
0.0
176
     1
173
     0
176
     1
  0
VISUALSTYLE
  5
457
102
{ACAD_REACTORS
330
44F
102
}
102
{ACAD_XDICTIONARY
360
48F
102
}
330
44F
100
AcDbVisualStyle
  2
Basic
 70
     7
177
     2
291
     1
 71
     1
176
     1
 72
     0
176
     1
 73
     1
176
     1
 90
        0
176
     1
 40
0.6
176
     1
 41
30.0
176
     1
 62
     5
 63
     7
421
 16777215
176
     1
 74
     0
176
     1
 91
        4
176
     1
 64
     7
176
     1
 65
   257
176
     1
 75
     1
176
     1
175
     1
176
     1
 42
1.0
176
     1
 92
        8
176
     1
 66
     7
176
     1
 43
1.0
176
     1
 76
     1
176
     1
 77
     6
176
     1
 78
     2
176
     1
 67
     7
176
     1
 79
     5
176
     1
170
     0
176
     1
171
     0
176
     1
290
     0
176
     1
 93
        1
176
     1
 44
0.0
176
     1
173
     0
176
     1
  0
VISUALSTYLE
  5
45B
102
{ACAD_REACTORS
330
44F
102
}
102
{ACAD_XDICTIONARY
360
497
102
}
330
44F
100
AcDbVisualStyle
  2
Brighten
 70
    12
177
     2
291
     1
 71
     2
176
     1
 72
     2
176
     1
 73
     0
176
     1
 90
        0
176
     1
 40
0.6
176
     1
 41
30.0
176
     1
 62
     5
 63
     7
421
 16777215
176
     1
 74
     1
176
     1
 91
        4
176
     1
 64
     7
176
     1
 65
   257
176
     1
 75
     1
176
     1
175
     1
176
     1
 42
1.0
176
     1
 92
        8
176
     1
 66
     7
176
     1
 43
1.0
176
     1
 76
     1
176
     1
 77
     6
176
     1
 78
     2
176
     1
 67
     7
176
     1
 79
     5
176
     1
170
     0
176
     1
171
     0
176
     1
290
     0
176
     1
 93
        1
176
     1
 44
50.0
176
     1
173
     0
176
     1
  0
VISUALSTYLE
  5
45F
102
{ACAD_REACTORS
330
44F
102
}
102
{ACAD_XDICTIONARY
360
49F
102
}
330
44F
100
AcDbVisualStyle
  2
ColorChange
 70
    16
177
     2
291
     1
 71
     2
176
     1
 72
     2
176
     1
 73
     3
176
     1
 90
        0
176
     1
 40
0.6
176
     1
 41
30.0
176
     1
 62
     5
 63
     8
421
  8421504
176
     1
 74
     1
176
     1
 91
        4
176
     1
 64
     7
176
     1
 65
   257
176
     1
 75
     1
176
     1
175
     1
176
     1
 42
1.0
176
     1
 92
        8
176
     1
 66
     8
424
  8421504
176
     1
 43
1.0
176
     1
 76
     1
176
     1
 77
     6
176
     1
 78
     2
176
     1
 67
     7
176
     1
 79
     5
176
     1
170
     0
176
     1
171
     0
176
     1
290
     0
176
     1
 93
        1
176
     1
 44
0.0
176
     1
173
     0
176
     1
  0
VISUALSTYLE
  5
459
102
{ACAD_REACTORS
330
44F
102
}
102
{ACAD_XDICTIONARY
360
493
102
}
330
44F
100
AcDbVisualStyle
  2
Conceptual
 70
     9
177
     2
291
     0
 71
     3
176
     1
 72
     2
176
     1
 73
     0
176
     1
 90
        0
176
     1
 40
0.6
176
     1
 41
30.0
176
     1
 62
     5
 63
     7
421
 16777215
176
     1
 74
     2
176
     1
 91
        2
176
     1
 64
     7
176
     1
 65
   257
176
     1
 75
     1
176
     1
175
     1
176
     1
 42
179.0
176
     1
 92
        8
176
     1
 66
     7
176
     1
 43
1.0
176
     1
 76
     1
176
     1
 77
     6
176
     1
 78
     2
176
     1
 67
     7
176
     1
 79
     3
176
     1
170
     0
176
     1
171
     0
176
     1
290
     0
176
     1
 93
        1
176
     1
 44
0.0
176
     1
173
     0
176
     1
  0
VISUALSTYLE
  5
45A
102
{ACAD_REACTORS
330
44F
102
}
102
{ACAD_XDICTIONARY
360
495
102
}
330
44F
100
AcDbVisualStyle
  2
Dim
 70
    11
177
     2
291
     1
 71
     2
176
     1
 72
     2
176
     1
 73
     0
176
     1
 90
        0
176
     1
 40
0.6
176
     1
 41
30.0
176
     1
 62
     5
 63
     7
421
 16777215
176
     1
 74
     1
176
     1
 91
        4
176
     1
 64
     7
176
     1
 65
   257
176
     1
 75
     1
176
     1
175
     1
176
     1
 42
1.0
176
     1
 92
        8
176
     1
 66
     7
176
     1
 43
1.0
176
     1
 76
     1
176
     1
 77
     6
176
     1
 78
     2
176
     1
 67
     7
176
     1
 79
     5
176
     1
170
     0
176
     1
171
     0
176
     1
290
     0
176
     1
 93
        1
176
     1
 44
-50.0
176
     1
173
     0
176
     1
  0
VISUALSTYLE
  5
462
102
{ACAD_REACTORS
330
44F
102
}
102
{ACAD_XDICTIONARY
360
4A5
102
}
330
44F
100
AcDbVisualStyle
  2
EdgeColorOff
 70
    22
177
     2
291
     1
 71
     2
176
     0
 72
     2
176
     0
 73
     0
176
     0
 90
        0
176
     0
 40
0.6
176
     0
 41
30.0
176
     0
 62
     5
 63
     7
421
 16777215
176
     0
 74
     1
176
     0
 91
        4
176
     0
 64
     7
176
     0
 65
   257
176
     0
 75
     1
176
     0
175
     1
176
     0
 42
1.0
176
     0
 92
        8
176
     2
 66
     7
176
     0
 43
1.0
176
     0
 76
     1
176
     0
 77
     6
176
     0
 78
     2
176
     0
 67
     7
176
     0
 79
     5
176
     0
170
     0
176
     0
171
     0
176
     0
290
     0
176
     0
 93
        1
176
     0
 44
0.0
176
     0
173
     0
176
     0
  0
VISUALSTYLE
  5
45E
102
{ACAD_REACTORS
330
44F
102
}
102
{ACAD_XDICTIONARY
360
49D
102
}
330
44F
100
AcDbVisualStyle
  2
Facepattern
 70
    15
177
     2
291
     1
 71
     2
176
     1
 72
     2
176
     1
 73
     0
176
     1
 90
        0
176
     1
 40
0.6
176
     1
 41
30.0
176
     1
 62
     5
 63
     7
421
 16777215
176
     1
 74
     1
176
     1
 91
        4
176
     1
 64
     7
176
     1
 65
   257
176
     1
 75
     1
176
     1
175
     1
176
     1
 42
1.0
176
     1
 92
        8
176
     1
 66
     7
176
     1
 43
1.0
176
     1
 76
     1
176
     1
 77
     6
176
     1
 78
     2
176
     1
 67
     7
176
     1
 79
     5
176
     1
170
     0
176
     1
171
     0
176
     1
290
     0
176
     1
 93
        1
176
     1
 44
0.0
176
     1
173
     0
176
     1
  0
VISUALSTYLE
  5
450
102
{ACAD_REACTORS
330
44F
102
}
102
{ACAD_XDICTIONARY
360
481
102
}
330
44F
100
AcDbVisualStyle
  2
Flat
 70
     0
177
     2
291
     1
 71
     2
176
     1
 72
     1
176
     1
 73
     1
176
     1
 90
        2
176
     1
 40
0.6
176
     1
 41
30.0
176
     1
 62
     5
 63
     7
421
 16777215
176
     1
 74
     0
176
     1
 91
        0
176
     1
 64
     7
176
     1
 65
   257
176
     1
 75
     1
176
     1
175
     1
176
     1
 42
1.0
176
     1
 92
        8
176
     1
 66
     7
176
     1
 43
1.0
176
     1
 76
     1
176
     1
 77
     6
176
     1
 78
     2
176
     1
 67
     7
176
     1
 79
     5
176
     1
170
     0
176
     1
171
     0
176
     1
290
     0
176
     1
 93
       13
176
     1
 44
0.0
176
     1
173
     0
176
     1
  0
VISUALSTYLE
  5
451
102
{ACAD_REACTORS
330
44F
102
}
102
{ACAD_XDICTIONARY
360
483
102
}
330
44F
100
AcDbVisualStyle
  2
FlatWithEdges
 70
     1
177
     2
291
     1
 71
     2
176
     1
 72
     1
176
     1
 73
     1
176
     1
 90
        2
176
     1
 40
0.6
176
     1
 41
30.0
176
     1
 62
     5
 63
     7
421
 16777215
176
     1
 74
     1
176
     1
 91
        0
176
     1
 64
     7
176
     1
 65
   257
176
     1
 75
     1
176
     1
175
     1
176
     1
 42
1.0
176
     1
 92
        0
176
     1
 66
   257
176
     1
 43
1.0
176
     1
 76
     1
176
     1
 77
     6
176
     1
 78
     2
176
     1
 67
     7
176
     1
 79
     5
176
     1
170
     0
176
     1
171
     0
176
     1
290
     0
176
     1
 93
       13
176
     1
 44
0.0
176
     1
173
     0
176
     1
  0
VISUALSTYLE
  5
452
102
{ACAD_REACTORS
330
44F
102
}
102
{ACAD_XDICTIONARY
360
485
102
}
330
44F
100
AcDbVisualStyle
  2
Gouraud
 70
     2
177
     2
291
     1
 71
     2
176
     1
 72
     2
176
     1
 73
     1
176
     1
 90
        2
176
     1
 40
0.6
176
     1
 41
30.0
176
     1
 62
     5
 63
     7
421
 16777215
176
     1
 74
     0
176
     1
 91
        0
176
     1
 64
     7
176
     1
 65
   257
176
     1
 75
     1
176
     1
175
     1
176
     1
 42
1.0
176
     1
 92
        0
176
     1
 66
     7
176
     1
 43
1.0
176
     1
 76
     1
176
     1
 77
     6
176
     1
 78
     2
176
     1
 67
     7
176
     1
 79
     5
176
     1
170
     0
176
     1
171
     0
176
     1
290
     0
176
     1
 93
       13
176
     1
 44
0.0
176
     1
173
     0
176
     1
  0
VISUALSTYLE
  5
453
102
{ACAD_REACTORS
330
44F
102
}
102
{ACAD_XDICTIONARY
360
487
102
}
330
44F
100
AcDbVisualStyle
  2
GouraudWithEdges
 70
     3
177
     2
291
     1
 71
     2
176
     1
 72
     2
176
     1
 73
     1
176
     1
 90
        2
176
     1
 40
0.6
176
     1
 41
30.0
176
     1
 62
     5
 63
     7
421
 16777215
176
     1
 74
     1
176
     1
 91
        0
176
     1
 64
     7
176
     1
 65
   257
176
     1
 75
     1
176
     1
175
     1
176
     1
 42
1.0
176
     1
 92
        0
176
     1
 66
   257
176
     1
 43
1.0
176
     1
 76
     1
176
     1
 77
     6
176
     1
 78
     2
176
     1
 67
     7
176
     1
 79
     5
176
     1
170
     0
176
     1
171
     0
176
     1
290
     0
176
     1
 93
       13
176
     1
 44
0.0
176
     1
173
     0
176
     1
  0
VISUALSTYLE
  5
456
102
{ACAD_REACTORS
330
44F
102
}
102
{ACAD_XDICTIONARY
360
48D
102
}
330
44F
100
AcDbVisualStyle
  2
Hidden
 70
     6
177
     2
291
     0
 71
     1
176
     1
 72
     2
176
     1
 73
     2
176
     1
 90
        0
176
     1
 40
0.6
176
     1
 41
30.0
176
     1
 62
     5
 63
     7
421
 16777215
176
     1
 74
     2
176
     1
 91
        2
176
     1
 64
     7
176
     1
 65
   257
176
     1
 75
     2
176
     1
175
     1
176
     1
 42
40.0
176
     1
 92
        0
176
     1
 66
   257
176
     1
 43
1.0
176
     1
 76
     1
176
     1
 77
     6
176
     1
 78
     2
176
     1
 67
     7
176
     1
 79
     3
176
     1
170
     0
176
     1
171
     0
176
     1
290
     0
176
     1
 93
        1
176
     1
 44
0.0
176
     1
173
     0
176
     1
  0
VISUALSTYLE
  5
460
102
{ACAD_REACTORS
330
44F
102
}
102
{ACAD_XDICTIONARY
360
4A1
102
}
330
44F
100
AcDbVisualStyle
  2
JitterOff
 70
    20
177
     2
291
     1
 71
     2
176
     0
 72
     2
176
     0
 73
     0
176
     0
 90
        0
176
     0
 40
0.6
176
     0
 41
30.0
176
     0
 62
     5
 63
     7
421
 16777215
176
     0
 74
     1
176
     0
 91
        4
176
     0
 64
     7
176
     0
 65
   257
176
     0
 75
     1
176
     0
175
     1
176
     0
 42
1.0
176
     0
 92
       10
176
     2
 66
     7
176
     0
 43
1.0
176
     0
 76
     1
176
     0
 77
     6
176
     0
 78
     2
176
     0
 67
     7
176
     0
 79
     5
176
     0
170
     0
176
     0
171
     0
176
     0
290
     0
176
     0
 93
        1
176
     0
 44
0.0
176
     0
173
     0
176
     0
  0
VISUALSTYLE
  5
45D
102
{ACAD_REACTORS
330
44F
102
}
102
{ACAD_XDICTIONARY
360
49B
102
}
330
44F
100
AcDbVisualStyle
  2
Linepattern
 70
    14
177
     2
291
     1
 71
     2
176
     1
 72
     2
176
     1
 73
     0
176
     1
 90
        0
176
     1
 40
0.6
176
     1
 41
30.0
176
     1
 62
     5
 63
     7
421
 16777215
176
     1
 74
     1
176
     1
 91
        4
176
     1
 64
     7
176
     1
 65
   257
176
     1
 75
     7
176
     1
175
     7
176
     1
 42
1.0
176
     1
 92
        8
176
     1
 66
     7
176
     1
 43
1.0
176
     1
 76
     1
176
     1
 77
     6
176
     1
 78
     2
176
     1
 67
     7
176
     1
 79
     5
176
     1
170
     0
176
     1
171
     0
176
     1
290
     0
176
     1
 93
        1
176
     1
 44
0.0
176
     1
173
     0
176
     1
  0
VISUALSTYLE
  5
461
102
{ACAD_REACTORS
330
44F
102
}
102
{ACAD_XDICTIONARY
360
4A3
102
}
330
44F
100
AcDbVisualStyle
  2
OverhangOff
 70
    21
177
     2
291
     1
 71
     2
176
     0
 72
     2
176
     0
 73
     0
176
     0
 90
        0
176
     0
 40
0.6
176
     0
 41
30.0
176
     0
 62
     5
 63
     7
421
 16777215
176
     0
 74
     1
176
     0
 91
        4
176
     0
 64
     7
176
     0
 65
   257
176
     0
 75
     1
176
     0
175
     1
176
     0
 42
1.0
176
     0
 92
        9
176
     2
 66
     7
176
     0
 43
1.0
176
     0
 76
     1
176
     0
 77
     6
176
     0
 78
     2
176
     0
 67
     7
176
     0
 79
     5
176
     0
170
     0
176
     0
171
     0
176
     0
290
     0
176
     0
 93
        1
176
     0
 44
0.0
176
     0
173
     0
176
     0
  0
VISUALSTYLE
  5
458
102
{ACAD_REACTORS
330
44F
102
}
102
{ACAD_XDICTIONARY
360
491
102
}
330
44F
100
AcDbVisualStyle
  2
Realistic
 70
     8
177
     2
291
     0
 71
     2
176
     1
 72
     3
176
     1
 73
     0
176
     1
 90
        2
176
     1
 40
0.6
176
     1
 41
30.0
176
     1
 62
     5
 63
     7
421
 16777215
176
     1
 74
     0
176
     1
 91
        0
176
     1
 64
     7
176
     1
 65
   257
176
     1
 75
     1
176
     1
175
     1
176
     1
 42
1.0
176
     1
 92
        8
176
     1
 66
   257
176
     1
 43
1.0
176
     1
 76
     1
176
     1
 77
     6
176
     1
 78
     2
176
     1
 67
     7
176
     1
 79
     3
176
     1
170
     0
176
     1
171
     0
176
     1
290
     0
176
     1
 93
       13
176
     1
 44
0.0
176
     1
173
     0
176
     1
  0
VISUALSTYLE
  5
467
102
{ACAD_REACTORS
330
44F
102
}
102
{ACAD_XDICTIONARY
360
4AF
102
}
330
44F
100
AcDbVisualStyle
  2
Shaded
 70
    27
177
     2
291
     0
 71
     2
176
     1
 72
     2
176
     1
 73
     1
176
     1
 90
        2
176
     1
 40
0.6
176
     1
 41
30.0
176
     1
 62
     5
 63
     7
421
 16777215
176
     1
 74
     0
176
     1
 91
        4
176
     1
 64
     7
176
     1
 65
   257
176
     1
 75
     1
176
     1
175
     1
176
     1
 42
1.0
176
     1
 92
        8
176
     1
 66
   257
176
     1
 43
1.0
176
     1
 76
     1
176
     1
 77
     6
176
     1
 78
     2
176
     1
 67
     8
425
  7895160
176
     1
 79
     3
176
     1
170
     0
176
     1
171
     0
176
     1
290
     0
176
     1
 93
        5
176
     1
 44
0.0
176
     1
173
     0
176
     1
  0
VISUALSTYLE
  5
466
102
{ACAD_REACTORS
330
44F
102
}
102
{ACAD_XDICTIONARY
360
4AD
102
}
330
44F
100
AcDbVisualStyle
  2
Shaded with edges
 70
    26
177
     2
291
     0
 71
     2
176
     1
 72
     2
176
     1
 73
     1
176
     1
 90
        2
176
     1
 40
0.6
176
     1
 41
30.0
176
     1
 62
     5
 63
     7
421
 16777215
176
     1
 74
     1
176
     1
 91
       10
176
     1
 64
     7
176
     1
 65
   257
176
     1
 75
     2
176
     1
175
     1
176
     1
 42
1.0
176
     1
 92
        8
176
     1
 66
   257
176
     1
 43
1.0
176
     1
 76
     1
176
     1
 77
     6
176
     1
 78
     2
176
     1
 67
     7
176
     1
 79
     3
176
     1
170
     0
176
     1
171
     0
176
     1
290
     0
176
     1
 93
        5
176
     1
 44
0.0
176
     1
173
     0
176
     1
  0
VISUALSTYLE
  5
463
102
{ACAD_REACTORS
330
44F
102
}
102
{ACAD_XDICTIONARY
360
4A7
102
}
330
44F
100
AcDbVisualStyle
  2
Shades of Gray
 70
    23
177
     2
291
     0
 71
     2
176
     1
 72
     2
176
     1
 73
     3
176
     1
 90
        0
176
     1
 40
0.6
176
     1
 41
30.0
176
     1
 62
     5
 63
     7
421
 16777215
176
     1
 74
     2
176
     1
 91
        2
176
     1
 64
     7
176
     1
 65
     7
176
     1
 75
     1
176
     1
175
     1
176
     1
 42
40.0
176
     1
 92
        8
176
     1
 66
     7
176
     1
 43
1.0
176
     1
 76
     1
176
     1
 77
     6
176
     1
 78
     2
176
     1
 67
     7
176
     1
 79
     3
176
     1
170
     0
176
     1
171
     0
176
     1
290
     0
176
     1
 93
        1
176
     1
 44
0.0
176
     1
173
     0
176
     1
  0
VISUALSTYLE
  5
464
102
{ACAD_REACTORS
330
44F
102
}
102
{ACAD_XDICTIONARY
360
4A9
102
}
330
44F
100
AcDbVisualStyle
  2
Sketchy
 70
    24
177
     2
291
     0
 71
     1
176
     1
 72
     2
176
     1
 73
     2
176
     1
 90
        0
176
     1
 40
0.6
176
     1
 41
30.0
176
     1
 62
     5
 63
     7
421
 16777215
176
     1
 74
     2
176
     1
 91
        2
176
     1
 64
     7
176
     1
 65
     7
176
     1
 75
     1
176
     1
175
     1
176
     1
 42
40.0
176
     1
 92
       11
176
     1
 66
     7
176
     1
 43
1.0
176
     1
 76
     1
176
     1
 77
     6
176
     1
 78
     2
176
     1
 67
     7
176
     1
 79
     6
176
     1
170
     0
176
     1
171
     0
176
     1
290
     0
176
     1
 93
        1
176
     1
 44
0.0
176
     1
173
     0
176
     1
  0
VISUALSTYLE
  5
45C
102
{ACAD_REACTORS
330
44F
102
}
102
{ACAD_XDICTIONARY
360
499
102
}
330
44F
100
AcDbVisualStyle
  2
Thicken
 70
    13
177
     2
291
     1
 71
     2
176
     1
 72
     2
176
     1
 73
     0
176
     1
 90
        0
176
     1
 40
0.6
176
     1
 41
30.0
176
     1
 62
     5
 63
     7
421
 16777215
176
     1
 74
     1
176
     1
 91
        4
176
     1
 64
     7
176
     1
 65
   257
176
     1
 75
     1
176
     1
175
     1
176
     1
 42
1.0
176
     1
 92
       12
176
     1
 66
     7
176
     1
 43
1.0
176
     1
 76
     1
176
     1
 77
     6
176
     1
 78
     2
176
     1
 67
     7
176
     1
 79
     5
176
     1
170
     0
176
     1
171
     0
176
     1
290
     0
176
     1
 93
        1
176
     1
 44
0.0
176
     1
173
     0
176
     1
  0
VISUALSTYLE
  5
455
102
{ACAD_REACTORS
330
44F
102
}
102
{ACAD_XDICTIONARY
360
48B
102
}
330
44F
100
AcDbVisualStyle
  2
Wireframe
 70
     5
177
     2
291
     0
 71
     0
176
     1
 72
     2
176
     1
 73
     0
176
     1
 90
        0
176
     1
 40
0.6
176
     1
 41
30.0
176
     1
 62
     5
 63
     7
421
 16777215
176
     1
 74
     1
176
     1
 91
        4
176
     1
 64
     7
176
     1
 65
   257
176
     1
 75
     1
176
     1
175
     1
176
     1
 42
1.0
176
     1
 92
        0
176
     1
 66
   257
176
     1
 43
1.0
176
     1
 76
     1
176
     1
 77
     6
176
     1
 78
     2
176
     1
 67
     7
176
     1
 79
     3
176
     1
170
     0
176
     1
171
     0
176
     1
290
     0
176
     1
 93
        1
176
     1
 44
0.0
176
     1
173
     0
176
     1
  0
VISUALSTYLE
  5
465
102
{ACAD_REACTORS
330
44F
102
}
102
{ACAD_XDICTIONARY
360
4AB
102
}
330
44F
100
AcDbVisualStyle
  2
X-Ray
 70
    25
177
     2
291
     0
 71
     2
176
     1
 72
     2
176
     1
 73
     1
176
     1
 90
        1
176
     1
 40
0.5
176
     1
 41
30.0
176
     1
 62
     5
 63
     7
421
 16777215
176
     1
 74
     1
176
     1
 91
        0
176
     1
 64
     7
176
     1
 65
   257
176
     1
 75
     1
176
     1
175
     1
176
     1
 42
1.0
176
     1
 92
        8
176
     1
 66
     7
176
     1
 43
1.0
176
     1
 76
     1
176
     1
 77
     6
176
     1
 78
     2
176
     1
 67
     7
176
     1
 79
     3
176
     1
170
     0
176
     1
171
     0
176
     1
290
     0
176
     1
 93
       13
176
     1
 44
0.0
176
     1
173
     0
176
     1
  0
DICTIONARYVAR
  5
47E
102
{ACAD_REACTORS
330
47D
102
}
330
47D
100
DictionaryVariables
280
     0
  1
1:1
  0
DICTIONARYVAR
  5
4B2
102
{ACAD_REACTORS
330
47D
102
}
330
47D
100
DictionaryVariables
280
     0
  1
Standard
  0
CSACDOCUMENTOPTIONS
  5
473
102
{ACAD_REACTORS
330
472
102
}
330
472
  0
XRECORD
  5
477
102
{ACAD_REACTORS
330
46E
102
}
330
46E
100
AcDbXrecord
280
     1
300
MC_VERSION_DATA
 90
       95
310
0600000002000000570000001C000000E404000000000000000000007801936764E5D8CF7A8393818115C460606066E0646662626666706006F214793899F8DE3171E725E6E53B3BBA2878E6951050AF75FEFFFFFF520032DE0F3057000000
  0
XRECORD
  5
46F
102
{ACAD_REACTORS
330
46E
102
}
330
46E
100
AcDbXrecord
280
     1
300
MCS_DOCUMENT_ID
 90
       60
310
0600000002000000150000001C000000E404000000000000000000007801E38D147CA8C5B2FC9B4BBBAB71D7F7EFE7D7FF07020067C10C5915000000
  0
XRECORD
  5
475
102
{ACAD_REACTORS
330
46E
102
}
330
46E
100
AcDbXrecord
280
     1
300
MCS_PARAMS_DATA
 90
     3313
310
0600000002000000F64B00001C000000E404000000000000000000007801C55C5B905C45199EE99EBDCCE67E5DA218172C303B91307B4B8C459531245054850D55591F78B236BB49B9BAC9E6B22A082A9655BE5865596569A965F9209288CF16503EC8834088C10B092404211702988430422E9084CDAEFFD7A7FBF4DFA7CF
310
D9D99D9D39930798FF3F7DCEF7DFFAFBBBFBCC6CDBFC46297252EECB48F9CDF5ED5234493921A5206D76815820B252E4F3225F128D7D5F59BF69E3162948D9A2D485B3131313747328BF06593E960915079422437734AA3BDAA5CCD053F5ED4FD2557D257BAB94DF007A03479F859BB2B22193C9108EC1CDCADC0464C27506
310
28605703E48886E0B986E10F03BF91E33707F8E3140E7A9091C8268236920C1C662240B94888A1C8E07600AE99C32D5131CA8B3925D172EFE62D7D6D9DABBA8ADDD6F17CE16D13F0457AE8AC9268DE32DABF73B07FCFA013F9BF8491D7C17E2550D8E8FFCA8DFE4E98B3929B331718B291824FFF72EB941D9E8E2211D5A93C
310
784A44C557923911258BD0C8640531AEEC61A924855B11378280384364A422680C0A928DB9C10CD89D581114199665B722B26E4590C82B0222AB08FAA8A60626C028E0044F81BA246F5360E167F2D27C56A10E05C058C13C59DEC6207679103AFC5DEADF992F2B284F67B31C8EE359B64A9665A62453228F64269D98455E3B
310
A4B35817F7EC92C86FB8EFFE8DBD5BEEDBDCAB0CD3B5FC8E99065A7E55D536E39DE7826237F1C8BBBCB3CFADFC93302087C80397EE69C2FF69CA32234F0763E41851010DA578E8294D435524988818E84710A7B2643B4F7C034F6CE5C9368F203BE8094C6268541D70D35EE4B585DAE170F4942EB8D2D422560A9917F34B62
310
CE86919D9F1F6DDBB36DD770FFC0B6BC682E898607BEB5737424F8D83B323AF07529CFC0B69BB96D9FD3CFF9B410ED79B1A42416161FEA29AEEDEEEC5ADF532C76DEF3C5AEEEB5CAECF97A60330D2C1C3579EAD0DA7621F20269BD6768746FDBF0D0DE51F3B0EE356B3ABBD6F474F7740D76770EACED08FCFC92BEAF13F701
310
B5AF7FEBF0B6B691ED6D7D23C3DBF6F4EF840FDA9AD583C58E81E240FFEAADDD5BD70EAC0E669D2A25F27FB610851F9335859F059541B9E5971EC7A5A7E83F2CE53DB9A4040555A2661A4DDBF2C560B2E54E7D5483931EF871F7C88E5DFDA3435B878687461F6EDB313248FE3596847C70DBDEBC682809D13B22E56A5856E4
310
E9998738519B6E2A89DCE6EDDBDB542AF4E4380F8F61A4965F57116093E5A052A06AF588670205D9A715FB49B140D81A90855F902680EBB8B3A3187EEA96F2B224E392BAF898328CB1AD47DA34C1601A1B421AD816D190715CC3F276A5DE067C546F03AED6DB808FEB6DC0B57A1BB00853B49EB3E0937A47E07ABD0D188301
310
71CB797197D3603B1D06BFCB6DB024827C0C834324E60945463B3712E196397079076E990B47228783C8E09631B8F129C211385B3E540C97413DC70673C524DEAD70BD23917B079179B782793791AE77D944EFDCDC5529988B13E1069D6092C472A7F777A6F648E4C184C88239C8822913E16AE29D48176E29E0727C316496
310
EF2A967C95165E504B0C2B218EEE82DD5C63513CD614C5091F6D6FA7551865CC5C5030A1E0A3E84BEC86CFD04EC5DD01AA74CBDB05AB8C403295A124BB2908C4B032B4682A032283FB103E391B4E03172C7199C4E0F88E871E8855ADA1482D3238FA1846E0B807A77785BFF935FE1D74369F5647D0D171CA5F4F09337C2559
310
105132935A503D6DBC7A94B54D2B6DF1E0339960F436A97441791E5EC104D40283580888C4FDED577B1FD8B4B9AF6FE30605D8AAD7F1F34A62F6DD5BBEC62E92057A31FEA25A9DB3F5FBD3C1729D9CD723B0BF0DE8402BB05A67160DDE4416E59079C0D9EAA575B7321F67115FC018C76AB5B3A33D06B68CBD9BFBDC93C073
310
800CC384FD360C544F539B6F02B1820953BE9D01DE01C0D85A6C50369A5AC4065C7760793B965800321749E4B50891C0C2AB0CAE9808178444974C70F875952A9381563C01BE9D08EAFA481283ABD8C7EF7870DAABE068E68833DFAC8EA0A3E3F87C0B07AA507B2311F0889285BDC333294C4E2DB27C67BA70ABD2857B688A
310
70552AA7873DB8489E55063D5D2DCBE9BB9E49F1E554A5083C922EDCA3E9C27D2F5DB8EF7B705EE9D87E1E920E88313AAE6AECF4FBD668D3D30DB4E51ADA9BEDB0D7AFCEB4DDED85F7C4ECF6551B3BCE2AFF6E835E49458EC94883D6E73C45753FAE614C3C0A0362777435D915EC025C33F7578776011DE6F3D066954C59D6
310
D76F86AC9CD58A53F4122CF0552BAE070AEA3B5AF15752304F1F47569D50AB71F41A31FA5A51C904CD43C6B0F51D2ACEFC112ACC4CC1B0FF086CE7AD5A4D096A005126387AAD451EE384D9C035A925859E39C1AA865EE9A9B8DA21CEE289167F7CF1D4C4BC7A125EC5AED5D8BB0B5A9D9144D134CFA71BF85A8D44BE568348
310
F6AA55A2F3CAEA4F6982FD21118CC249D3CBF852A586F244BA70FBD285DB9F085793EDE56E143F0AD06C6B4CB2242BDD3DD1419166C2865E81F9CE1648F3CBD84597B22E28992A3DDCE24C77F3F311A01C8A722828EC3CF15F7D987933F818F8E59BC138E5CD4CE8AC24C94E68BA32F5C3CBAB808B6B06B9936E642F9F804C
310
903AF2F3709D37832318A078E4B37AEBDCFAA66859945B9EBB25776BAE2DD3995995E9CA1433DDFA4DAC7ECE6FE93696E96BB06712968ED2661884A9EE40230F60D0D73DE8C858453B9E8E4212D5A9B0784A762662599FEDD18C9299F4094C728A91F536658E91CDA6DFC8E89F363B15B4CB31404FD2581CF722BBF229B517
310
430944E56AB2E2A8E3461950730F2B7ECA7BC570E389706E8BA9D241C744225C40C29385944F707279EA277D998065D9EAD604B1263E66D38513E9C2490F4EE7CC6E8AA89C3D9DA588701CA708AB6414C194931EE3FC0D4515D71A4FBFE712F8CB4A26532A6E8DCF01CA61A3745BE3F3C09F6E6B442F0CD7BAD36A8D2F002E
310
AE359E3BE646F6B8926D6BBC0CD9926FBEF08C5220B9BAE91D0E14769FF44B52301E3C00E8FA74C117BD24F396E22C7F1005F2DA2902EB76053DE720B0D3EE397F2F036AE8B24A3DE750225C4DF8F8A544B81AF69C7F2482D6C4C77F067093EF36FE359541FF8E0E8A50399BA22F63681CEF0EBDEBB2C3834A9E09EF1E0654
310
1D79F708F0A7CBBB956F495E015C1CEFEE3EEC46B65FC996771F856C09285F58A7148C77872F6104D6DC9A8897D30896D457015D1FDE3DEA25B91CEFF2EBD6EB0A68F718A0D3A6DDD7CA805699768F27C2D584925E4F84AB9476A39B03E744D09CD6610FF59F44E89A78FA46BA70DDDE0ADC144A4DBCEBF1E0221D416DC23D
310
1D715254A766A8A7AC60C1FF26021ED7783E889CD89C52F24C1ACF0940D5B1F19C047E7A8DE714E0E21ACFD5436EE339AB64DB78E44B91C6730003ECCB897CE1D28548E3798246B0C6731AD0536D3CB3E90740046E0B5FD5161351555C247A084506FA9607AAEBD39C44F1E2B63A5BDCA18E17B755B2E2664A322602C34C3A
310
0393625B51C09BC60D77315EF1E1C8DB80730A9C37D5B8CD0EBF3EA3A6FB4EA2A7C18B1B2746D53A5F7BB70C687C78291FE10E3A386EE3054657F9CB297E9CF703B0E71DFC4DA3397B4068C3CF33A1A81F02C2C920DB8E7ABF712005813923946BAE06DE453454B45CC32AF6311810C751E3F85A979E7874424F9299B34AB2
310
210DC430A45A3473162283FB2F3218C7FE178FBB1CF59692CDAD957C0DECAC3739580882F7E26636C4FC0874E66F42CE013F2EB274A4C323CBB88082C5B980AE4CFD4DC879C0C5B1FFF5E7DDC89E57324556799F2F34BC006EC70CD18A8318C0D9FF0AB6807CDBB19F46B0A4BE07E8B4D9FF8207EA504E3D7E65FA3E4C7226
310
B329B0E8D703AAFEBAA304E869379E693123CD68457958A4FF2F11AE86ECFF4119D078F6E7138AD87FF2370F86D6E1E38789702D76FED2134932CCA824CB8C811832A3160D33426421BD980847AF6F0C11D33DEECB1CFE9B7175D1F926045DE5BD8DBFBDBE94081764D0049324E6DDB40A8607F372225C4D16463974B5B836
310
F393232E193EA2E499B49986C93A780A6DA631A981D7A6CD34012EAECDFCFC5937B23F52B26D33BF83CCDBCC56A5C0ECD07DE7A7A7226D661D8D6033A419D0536D33E07F56B8C4CA7C0D48229F9610695A461A0883CE7B494E8DD95B004DF38E8247AB09FE45AC1A52EDAC32A0861DD8DA85D8A76276989D08579353913989
310
700119397510D9BB4CAB9DF096393711B4263ECE4B176E7EBA700B3C389DB3F0B5335AA6A7234288EA142D784A9083AFB414616018456CF24C3293C4CD2F49D3E5A5F0410CEE7E0F2E6A6FEA11580893E29AEE529C2FC11C4DF48D4AA628982DB44A422820F8563073C8F989CF2240392BED74F7768B819FDEDE6E09E0E29A
310
EE72FA030B3CB273954C91D5916E87CC9BEEFB4FAB1E6B73B10CFB6CBEB73B4423589D2D05F4CC9AAE2E4C768646F0614DBB4BD40606DDEA2539B5A67B13A0D36EBACBCA809A9055A7E9E24B8E0D79912B896C91FE0C1655C17843E129FA335B3277F4E8510807513CB9CC44868E210AF7FE19028691B0917E39482B125CF8
310
D4FF01F0B312DAF64B0000
  0
TABLECONTENT
  5
479
330
47C
100
AcDbLinkedData
  1

300

100
AcDbLinkedTableData
 90
        5
300
COLUMN
  1
LINKEDTABLEDATACOLUMN_BEGIN
300

 91
        0
301
CUSTOMDATA
  1
DATAMAP_BEGIN
 90
        0
309
DATAMAP_END
309
LINKEDTABLEDATACOLUMN_END
  1
FORMATTEDTABLEDATACOLUMN_BEGIN
300
COLUMNTABLEFORMAT
  1
TABLEFORMAT_BEGIN
 90
        3
170
     0
309
TABLEFORMAT_END
309
FORMATTEDTABLEDATACOLUMN_END
  1
TABLECOLUMN_BEGIN
 90
        0
 40
10.0
309
TABLECOLUMN_END
300
COLUMN
  1
LINKEDTABLEDATACOLUMN_BEGIN
300

 91
        0
301
CUSTOMDATA
  1
DATAMAP_BEGIN
 90
        0
309
DATAMAP_END
309
LINKEDTABLEDATACOLUMN_END
  1
FORMATTEDTABLEDATACOLUMN_BEGIN
300
COLUMNTABLEFORMAT
  1
TABLEFORMAT_BEGIN
 90
        3
170
     0
309
TABLEFORMAT_END
309
FORMATTEDTABLEDATACOLUMN_END
  1
TABLECOLUMN_BEGIN
 90
        0
 40
10.0
309
TABLECOLUMN_END
300
COLUMN
  1
LINKEDTABLEDATACOLUMN_BEGIN
300

 91
        0
301
CUSTOMDATA
  1
DATAMAP_BEGIN
 90
        0
309
DATAMAP_END
309
LINKEDTABLEDATACOLUMN_END
  1
FORMATTEDTABLEDATACOLUMN_BEGIN
300
COLUMNTABLEFORMAT
  1
TABLEFORMAT_BEGIN
 90
        3
170
     0
309
TABLEFORMAT_END
309
FORMATTEDTABLEDATACOLUMN_END
  1
TABLECOLUMN_BEGIN
 90
        0
 40
10.0
309
TABLECOLUMN_END
300
COLUMN
  1
LINKEDTABLEDATACOLUMN_BEGIN
300

 91
        0
301
CUSTOMDATA
  1
DATAMAP_BEGIN
 90
        0
309
DATAMAP_END
309
LINKEDTABLEDATACOLUMN_END
  1
FORMATTEDTABLEDATACOLUMN_BEGIN
300
COLUMNTABLEFORMAT
  1
TABLEFORMAT_BEGIN
 90
        3
170
     0
309
TABLEFORMAT_END
309
FORMATTEDTABLEDATACOLUMN_END
  1
TABLECOLUMN_BEGIN
 90
        0
 40
40.0
309
TABLECOLUMN_END
300
COLUMN
  1
LINKEDTABLEDATACOLUMN_BEGIN
300

 91
        0
301
CUSTOMDATA
  1
DATAMAP_BEGIN
 90
        0
309
DATAMAP_END
309
LINKEDTABLEDATACOLUMN_END
  1
FORMATTEDTABLEDATACOLUMN_BEGIN
300
COLUMNTABLEFORMAT
  1
TABLEFORMAT_BEGIN
 90
        3
170
     0
309
TABLEFORMAT_END
309
FORMATTEDTABLEDATACOLUMN_END
  1
TABLECOLUMN_BEGIN
 90
        0
 40
20.0
309
TABLECOLUMN_END
 91
        5
301
ROW
  1
LINKEDTABLEDATAROW_BEGIN
 90
        5
300
CELL
  1
LINKEDTABLEDATACELL_BEGIN
 90
        0
300

 91
        0
301
CUSTOMDATA
  1
DATAMAP_BEGIN
 90
        1
300
ACAD_ROUNDTRIP_2008_CELL_CHECKSUM
301
DATAMAP_VALUE
 93
        2
 90
        2
140
32.0
 94
        0
300

302

304
ACVALUE_END
309
DATAMAP_END
 92
        0
 95
        1
302
CONTENT
  1
CELLCONTENT_BEGIN
 90
        1
300
VALUE
 93
        2
 90
        4
  1
 
 94
        0
300

302
 
304
ACVALUE_END
 91
        0
309
CELLCONTENT_END
  1
FORMATTEDCELLCONTENT_BEGIN
170
     1
300
CONTENTFORMAT
  1
CONTENTFORMAT_BEGIN
 90
      132
 91
        0
 92
      512
 93
        0
300

 40
0.0
140
1.0
 94
        1
 62
     0
340
0
144
3.5
309
CONTENTFORMAT_END
309
FORMATTEDCELLCONTENT_END
309
LINKEDTABLEDATACELL_END
  1
FORMATTEDTABLEDATACELL_BEGIN
300
CELLTABLEFORMAT
  1
TABLEFORMAT_BEGIN
 90
        1
170
     1
 91
        0
 92
        0
 62
   257
 93
        1
300
CONTENTFORMAT
  1
CONTENTFORMAT_BEGIN
 90
        0
 91
        0
 92
      512
 93
        0
300

 40
0.0
140
1.0
 94
        1
 62
     0
340
0
144
0.18
309
CONTENTFORMAT_END
171
     0
 94
        0
309
TABLEFORMAT_END
309
FORMATTEDTABLEDATACELL_END
  1
TABLECELL_BEGIN
 90
        0
 91
        0
309
TABLECELL_END
300
CELL
  1
LINKEDTABLEDATACELL_BEGIN
 90
        0
300

 91
        0
301
CUSTOMDATA
  1
DATAMAP_BEGIN
 90
        0
309
DATAMAP_END
 92
        0
 95
        0
309
LINKEDTABLEDATACELL_END
  1
FORMATTEDTABLEDATACELL_BEGIN
300
CELLTABLEFORMAT
  1
TABLEFORMAT_BEGIN
 90
        1
170
     1
 91
        0
 92
        0
 62
   257
 93
        1
300
CONTENTFORMAT
  1
CONTENTFORMAT_BEGIN
 90
        0
 91
        0
 92
      512
 93
        0
300

 40
0.0
140
1.0
 94
        1
 62
     0
340
0
144
0.18
309
CONTENTFORMAT_END
171
     0
 94
        0
309
TABLEFORMAT_END
309
FORMATTEDTABLEDATACELL_END
  1
TABLECELL_BEGIN
 90
        0
 91
        0
309
TABLECELL_END
300
CELL
  1
LINKEDTABLEDATACELL_BEGIN
 90
        0
300

 91
        0
301
CUSTOMDATA
  1
DATAMAP_BEGIN
 90
        0
309
DATAMAP_END
 92
        0
 95
        0
309
LINKEDTABLEDATACELL_END
  1
FORMATTEDTABLEDATACELL_BEGIN
300
CELLTABLEFORMAT
  1
TABLEFORMAT_BEGIN
 90
        1
170
     1
 91
        0
 92
        0
 62
   257
 93
        1
300
CONTENTFORMAT
  1
CONTENTFORMAT_BEGIN
 90
        0
 91
        0
 92
      512
 93
        0
300

 40
0.0
140
1.0
 94
        1
 62
     0
340
0
144
0.18
309
CONTENTFORMAT_END
171
     0
 94
        0
309
TABLEFORMAT_END
309
FORMATTEDTABLEDATACELL_END
  1
TABLECELL_BEGIN
 90
        0
 91
        0
309
TABLECELL_END
300
CELL
  1
LINKEDTABLEDATACELL_BEGIN
 90
        0
300

 91
        0
301
CUSTOMDATA
  1
DATAMAP_BEGIN
 90
        1
300
ACAD_ROUNDTRIP_2008_CELL_CHECKSUM
301
DATAMAP_VALUE
 93
        2
 90
        2
140
3420.0
 94
        0
300

302

304
ACVALUE_END
309
DATAMAP_END
 92
        0
 95
        1
302
CONTENT
  1
CELLCONTENT_BEGIN
 90
        1
300
VALUE
 93
        2
 90
        4
  1
A138_C_401
 94
        0
300

302
A138_C_401
304
ACVALUE_END
 91
        0
309
CELLCONTENT_END
  1
FORMATTEDCELLCONTENT_BEGIN
170
     1
300
CONTENTFORMAT
  1
CONTENTFORMAT_BEGIN
 90
      132
 91
        0
 92
      512
 93
        0
300

 40
0.0
140
1.0
 94
        1
 62
     0
340
0
144
3.0
309
CONTENTFORMAT_END
309
FORMATTEDCELLCONTENT_END
309
LINKEDTABLEDATACELL_END
  1
FORMATTEDTABLEDATACELL_BEGIN
300
CELLTABLEFORMAT
  1
TABLEFORMAT_BEGIN
 90
        1
170
     1
 91
       16
 92
        0
 62
   257
 93
        1
300
CONTENTFORMAT
  1
CONTENTFORMAT_BEGIN
 90
       16
 91
        0
 92
      512
 93
        0
300

 40
0.0
140
1.0
 94
        4
 62
     0
340
0
144
0.18
309
CONTENTFORMAT_END
171
     0
 94
        4
 95
        1
302
GRIDFORMAT
  1
GRIDFORMAT_BEGIN
 90
       26
 91
        1
 62
     0
 92
       -2
340
0
 93
        0
 40
0.045
309
GRIDFORMAT_END
 95
        4
302
GRIDFORMAT
  1
GRIDFORMAT_BEGIN
 90
       26
 91
        1
 62
     0
 92
       -2
340
0
 93
        0
 40
0.045
309
GRIDFORMAT_END
 95
        8
302
GRIDFORMAT
  1
GRIDFORMAT_BEGIN
 90
       26
 91
        1
 62
     0
 92
       -2
340
0
 93
        0
 40
0.045
309
GRIDFORMAT_END
 95
       32
302
GRIDFORMAT
  1
GRIDFORMAT_BEGIN
 90
       26
 91
        1
 62
     0
 92
       -2
340
0
 93
        0
 40
0.045
309
GRIDFORMAT_END
309
TABLEFORMAT_END
309
FORMATTEDTABLEDATACELL_END
  1
TABLECELL_BEGIN
 90
        0
 91
        0
309
TABLECELL_END
300
CELL
  1
LINKEDTABLEDATACELL_BEGIN
 90
        0
300

 91
        0
301
CUSTOMDATA
  1
DATAMAP_BEGIN
 90
        1
300
ACAD_ROUNDTRIP_2008_CELL_CHECKSUM
301
DATAMAP_VALUE
 93
        2
 90
        2
140
1398.0
 94
        0
300

302

304
ACVALUE_END
309
DATAMAP_END
 92
        0
 95
        1
302
CONTENT
  1
CELLCONTENT_BEGIN
 90
        1
300
VALUE
 93
        2
 90
        4
  1
Rev:00
 94
        0
300

302
Rev:00
304
ACVALUE_END
 91
        0
309
CELLCONTENT_END
  1
FORMATTEDCELLCONTENT_BEGIN
170
     1
300
CONTENTFORMAT
  1
CONTENTFORMAT_BEGIN
 90
      132
 91
        0
 92
      512
 93
        0
300

 40
0.0
140
1.0
 94
        1
 62
     0
340
0
144
3.5
309
CONTENTFORMAT_END
309
FORMATTEDCELLCONTENT_END
309
LINKEDTABLEDATACELL_END
  1
FORMATTEDTABLEDATACELL_BEGIN
300
CELLTABLEFORMAT
  1
TABLEFORMAT_BEGIN
 90
        1
170
     1
 91
       16
 92
        0
 62
   257
 93
        1
300
CONTENTFORMAT
  1
CONTENTFORMAT_BEGIN
 90
       16
 91
        0
 92
      512
 93
        0
300

 40
0.0
140
1.0
 94
        4
 62
     0
340
0
144
0.18
309
CONTENTFORMAT_END
171
     0
 94
        4
 95
        1
302
GRIDFORMAT
  1
GRIDFORMAT_BEGIN
 90
       26
 91
        1
 62
     0
 92
       -2
340
0
 93
        0
 40
0.045
309
GRIDFORMAT_END
 95
        4
302
GRIDFORMAT
  1
GRIDFORMAT_BEGIN
 90
       26
 91
        1
 62
     0
 92
       -2
340
0
 93
        0
 40
0.045
309
GRIDFORMAT_END
 95
        8
302
GRIDFORMAT
  1
GRIDFORMAT_BEGIN
 90
       26
 91
        1
 62
     0
 92
       -2
340
0
 93
        0
 40
0.045
309
GRIDFORMAT_END
 95
       32
302
GRIDFORMAT
  1
GRIDFORMAT_BEGIN
 90
       26
 91
        1
 62
     0
 92
       -2
340
0
 93
        0
 40
0.045
309
GRIDFORMAT_END
309
TABLEFORMAT_END
309
FORMATTEDTABLEDATACELL_END
  1
TABLECELL_BEGIN
 90
        0
 91
        0
309
TABLECELL_END
 91
        0
301
CUSTOMDATA
  1
DATAMAP_BEGIN
 90
        0
309
DATAMAP_END
309
LINKEDTABLEDATAROW_END
  1
FORMATTEDTABLEDATAROW_BEGIN
300
ROWTABLEFORMAT
  1
TABLEFORMAT_BEGIN
 90
        2
170
     0
309
TABLEFORMAT_END
309
FORMATTEDTABLEDATAROW_END
  1
TABLEROW_BEGIN
 90
        1
 40
6.0
309
TABLEROW_END
301
ROW
  1
LINKEDTABLEDATAROW_BEGIN
 90
        5
300
CELL
  1
LINKEDTABLEDATACELL_BEGIN
 90
        0
300

 91
        0
301
CUSTOMDATA
  1
DATAMAP_BEGIN
 90
        0
309
DATAMAP_END
 92
        0
 95
        0
309
LINKEDTABLEDATACELL_END
  1
FORMATTEDTABLEDATACELL_BEGIN
300
CELLTABLEFORMAT
  1
TABLEFORMAT_BEGIN
 90
        1
170
     1
 91
        0
 92
        0
 62
   257
 93
        1
300
CONTENTFORMAT
  1
CONTENTFORMAT_BEGIN
 90
        0
 91
        0
 92
      512
 93
        0
300

 40
0.0
140
1.0
 94
        1
 62
     0
340
0
144
0.18
309
CONTENTFORMAT_END
171
     0
 94
        0
309
TABLEFORMAT_END
309
FORMATTEDTABLEDATACELL_END
  1
TABLECELL_BEGIN
 90
        0
 91
        0
309
TABLECELL_END
300
CELL
  1
LINKEDTABLEDATACELL_BEGIN
 90
        0
300

 91
        0
301
CUSTOMDATA
  1
DATAMAP_BEGIN
 90
        0
309
DATAMAP_END
 92
        0
 95
        0
309
LINKEDTABLEDATACELL_END
  1
FORMATTEDTABLEDATACELL_BEGIN
300
CELLTABLEFORMAT
  1
TABLEFORMAT_BEGIN
 90
        1
170
     1
 91
        0
 92
        0
 62
   257
 93
        1
300
CONTENTFORMAT
  1
CONTENTFORMAT_BEGIN
 90
        0
 91
        0
 92
      512
 93
        0
300

 40
0.0
140
1.0
 94
        1
 62
     0
340
0
144
0.18
309
CONTENTFORMAT_END
171
     0
 94
        0
309
TABLEFORMAT_END
309
FORMATTEDTABLEDATACELL_END
  1
TABLECELL_BEGIN
 90
        0
 91
        0
309
TABLECELL_END
300
CELL
  1
LINKEDTABLEDATACELL_BEGIN
 90
        0
300

 91
        0
301
CUSTOMDATA
  1
DATAMAP_BEGIN
 90
        0
309
DATAMAP_END
 92
        0
 95
        0
309
LINKEDTABLEDATACELL_END
  1
FORMATTEDTABLEDATACELL_BEGIN
300
CELLTABLEFORMAT
  1
TABLEFORMAT_BEGIN
 90
        1
170
     1
 91
        0
 92
        0
 62
   257
 93
        1
300
CONTENTFORMAT
  1
CONTENTFORMAT_BEGIN
 90
        0
 91
        0
 92
      512
 93
        0
300

 40
0.0
140
1.0
 94
        1
 62
     0
340
0
144
0.18
309
CONTENTFORMAT_END
171
     0
 94
        0
309
TABLEFORMAT_END
309
FORMATTEDTABLEDATACELL_END
  1
TABLECELL_BEGIN
 90
        0
 91
        0
309
TABLECELL_END
300
CELL
  1
LINKEDTABLEDATACELL_BEGIN
 90
        0
300

 91
        0
301
CUSTOMDATA
  1
DATAMAP_BEGIN
 90
        1
300
ACAD_ROUNDTRIP_2008_CELL_CHECKSUM
301
DATAMAP_VALUE
 93
        2
 90
        2
140
3105.0
 94
        0
300

302

304
ACVALUE_END
309
DATAMAP_END
 92
        0
 95
        1
302
CONTENT
  1
CELLCONTENT_BEGIN
 90
        1
300
VALUE
 93
        2
 90
        4
  1
Scale:1:1
 94
        0
300

302
Scale:1:1
304
ACVALUE_END
 91
        0
309
CELLCONTENT_END
  1
FORMATTEDCELLCONTENT_BEGIN
170
     1
300
CONTENTFORMAT
  1
CONTENTFORMAT_BEGIN
 90
      132
 91
        0
 92
      512
 93
        0
300

 40
0.0
140
1.0
 94
        1
 62
     0
340
0
144
3.5
309
CONTENTFORMAT_END
309
FORMATTEDCELLCONTENT_END
309
LINKEDTABLEDATACELL_END
  1
FORMATTEDTABLEDATACELL_BEGIN
300
CELLTABLEFORMAT
  1
TABLEFORMAT_BEGIN
 90
        1
170
     1
 91
       16
 92
        0
 62
   257
 93
        1
300
CONTENTFORMAT
  1
CONTENTFORMAT_BEGIN
 90
       16
 91
        0
 92
      512
 93
        0
300

 40
0.0
140
1.0
 94
        1
 62
     0
340
0
144
0.18
309
CONTENTFORMAT_END
171
     0
 94
        4
 95
        1
302
GRIDFORMAT
  1
GRIDFORMAT_BEGIN
 90
       26
 91
        1
 62
     0
 92
       -2
340
0
 93
        0
 40
0.045
309
GRIDFORMAT_END
 95
        4
302
GRIDFORMAT
  1
GRIDFORMAT_BEGIN
 90
       26
 91
        1
 62
     0
 92
       -2
340
0
 93
        0
 40
0.045
309
GRIDFORMAT_END
 95
        8
302
GRIDFORMAT
  1
GRIDFORMAT_BEGIN
 90
       26
 91
        1
 62
     0
 92
       -2
340
0
 93
        0
 40
0.045
309
GRIDFORMAT_END
 95
       32
302
GRIDFORMAT
  1
GRIDFORMAT_BEGIN
 90
       26
 91
        1
 62
     0
 92
       -2
340
0
 93
        0
 40
0.045
309
GRIDFORMAT_END
309
TABLEFORMAT_END
309
FORMATTEDTABLEDATACELL_END
  1
TABLECELL_BEGIN
 90
        0
 91
        0
309
TABLECELL_END
300
CELL
  1
LINKEDTABLEDATACELL_BEGIN
 90
        0
300

 91
        0
301
CUSTOMDATA
  1
DATAMAP_BEGIN
 90
        1
300
ACAD_ROUNDTRIP_2008_CELL_CHECKSUM
301
DATAMAP_VALUE
 93
        2
 90
        2
140
161.0
 94
        0
300

302

304
ACVALUE_END
309
DATAMAP_END
 92
        0
 95
        1
302
CONTENT
  1
CELLCONTENT_BEGIN
 90
        1
300
VALUE
 93
        2
 90
        4
  1
A0
 94
        0
300

302
A0
304
ACVALUE_END
 91
        0
309
CELLCONTENT_END
  1
FORMATTEDCELLCONTENT_BEGIN
170
     1
300
CONTENTFORMAT
  1
CONTENTFORMAT_BEGIN
 90
      132
 91
        0
 92
      512
 93
        0
300

 40
0.0
140
1.0
 94
        1
 62
     0
340
0
144
3.5
309
CONTENTFORMAT_END
309
FORMATTEDCELLCONTENT_END
309
LINKEDTABLEDATACELL_END
  1
FORMATTEDTABLEDATACELL_BEGIN
300
CELLTABLEFORMAT
  1
TABLEFORMAT_BEGIN
 90
        1
170
     1
 91
       16
 92
        0
 62
   257
 93
        1
300
CONTENTFORMAT
  1
CONTENTFORMAT_BEGIN
 90
       16
 91
        0
 92
      512
 93
        0
300

 40
0.0
140
1.0
 94
        4
 62
     0
340
0
144
0.18
309
CONTENTFORMAT_END
171
     0
 94
        4
 95
        1
302
GRIDFORMAT
  1
GRIDFORMAT_BEGIN
 90
       26
 91
        1
 62
     0
 92
       -2
340
0
 93
        0
 40
0.045
309
GRIDFORMAT_END
 95
        4
302
GRIDFORMAT
  1
GRIDFORMAT_BEGIN
 90
       26
 91
        1
 62
     0
 92
       -2
340
0
 93
        0
 40
0.045
309
GRIDFORMAT_END
 95
        8
302
GRIDFORMAT
  1
GRIDFORMAT_BEGIN
 90
       26
 91
        1
 62
     0
 92
       -2
340
0
 93
        0
 40
0.045
309
GRIDFORMAT_END
 95
       32
302
GRIDFORMAT
  1
GRIDFORMAT_BEGIN
 90
       26
 91
        1
 62
     0
 92
       -2
340
0
 93
        0
 40
0.045
309
GRIDFORMAT_END
309
TABLEFORMAT_END
309
FORMATTEDTABLEDATACELL_END
  1
TABLECELL_BEGIN
 90
        0
 91
        0
309
TABLECELL_END
 91
        0
301
CUSTOMDATA
  1
DATAMAP_BEGIN
 90
        0
309
DATAMAP_END
309
LINKEDTABLEDATAROW_END
  1
FORMATTEDTABLEDATAROW_BEGIN
300
ROWTABLEFORMAT
  1
TABLEFORMAT_BEGIN
 90
        2
170
     0
309
TABLEFORMAT_END
309
FORMATTEDTABLEDATAROW_END
  1
TABLEROW_BEGIN
 90
        2
 40
6.0
309
TABLEROW_END
301
ROW
  1
LINKEDTABLEDATAROW_BEGIN
 90
        5
300
CELL
  1
LINKEDTABLEDATACELL_BEGIN
 90
        0
300

 91
        0
301
CUSTOMDATA
  1
DATAMAP_BEGIN
 90
        0
309
DATAMAP_END
 92
        0
 95
        0
309
LINKEDTABLEDATACELL_END
  1
FORMATTEDTABLEDATACELL_BEGIN
300
CELLTABLEFORMAT
  1
TABLEFORMAT_BEGIN
 90
        1
170
     1
 91
        0
 92
        0
 62
   257
 93
        1
300
CONTENTFORMAT
  1
CONTENTFORMAT_BEGIN
 90
        0
 91
        0
 92
      512
 93
        0
300

 40
0.0
140
1.0
 94
        1
 62
     0
340
0
144
0.18
309
CONTENTFORMAT_END
171
     0
 94
        0
309
TABLEFORMAT_END
309
FORMATTEDTABLEDATACELL_END
  1
TABLECELL_BEGIN
 90
        0
 91
        0
309
TABLECELL_END
300
CELL
  1
LINKEDTABLEDATACELL_BEGIN
 90
        0
300

 91
        0
301
CUSTOMDATA
  1
DATAMAP_BEGIN
 90
        0
309
DATAMAP_END
 92
        0
 95
        0
309
LINKEDTABLEDATACELL_END
  1
FORMATTEDTABLEDATACELL_BEGIN
300
CELLTABLEFORMAT
  1
TABLEFORMAT_BEGIN
 90
        1
170
     1
 91
        0
 92
        0
 62
   257
 93
        1
300
CONTENTFORMAT
  1
CONTENTFORMAT_BEGIN
 90
        0
 91
        0
 92
      512
 93
        0
300

 40
0.0
140
1.0
 94
        1
 62
     0
340
0
144
0.18
309
CONTENTFORMAT_END
171
     0
 94
        0
309
TABLEFORMAT_END
309
FORMATTEDTABLEDATACELL_END
  1
TABLECELL_BEGIN
 90
        0
 91
        0
309
TABLECELL_END
300
CELL
  1
LINKEDTABLEDATACELL_BEGIN
 90
        0
300

 91
        0
301
CUSTOMDATA
  1
DATAMAP_BEGIN
 90
        0
309
DATAMAP_END
 92
        0
 95
        0
309
LINKEDTABLEDATACELL_END
  1
FORMATTEDTABLEDATACELL_BEGIN
300
CELLTABLEFORMAT
  1
TABLEFORMAT_BEGIN
 90
        1
170
     1
 91
        0
 92
        0
 62
   257
 93
        1
300
CONTENTFORMAT
  1
CONTENTFORMAT_BEGIN
 90
        0
 91
        0
 92
      512
 93
        0
300

 40
0.0
140
1.0
 94
        1
 62
     0
340
0
144
0.18
309
CONTENTFORMAT_END
171
     0
 94
        0
309
TABLEFORMAT_END
309
FORMATTEDTABLEDATACELL_END
  1
TABLECELL_BEGIN
 90
        0
 91
        0
309
TABLECELL_END
300
CELL
  1
LINKEDTABLEDATACELL_BEGIN
 90
        0
300

 91
        0
301
CUSTOMDATA
  1
DATAMAP_BEGIN
 90
        1
300
ACAD_ROUNDTRIP_2008_CELL_CHECKSUM
301
DATAMAP_VALUE
 93
        2
 90
        2
140
5049.0
 94
        0
300

302

304
ACVALUE_END
309
DATAMAP_END
 92
        0
 95
        1
302
CONTENT
  1
CELLCONTENT_BEGIN
 90
        1
300
VALUE
 93
        2
 90
        4
  1
BERICA IN 2.2
 94
        0
300

302
BERICA IN 2.2
304
ACVALUE_END
 91
        0
309
CELLCONTENT_END
  1
FORMATTEDCELLCONTENT_BEGIN
170
     1
300
CONTENTFORMAT
  1
CONTENTFORMAT_BEGIN
 90
      132
 91
        0
 92
      512
 93
        0
300

 40
0.0
140
1.0
 94
        1
 62
     0
340
0
144
3.5
309
CONTENTFORMAT_END
309
FORMATTEDCELLCONTENT_END
309
LINKEDTABLEDATACELL_END
  1
FORMATTEDTABLEDATACELL_BEGIN
300
CELLTABLEFORMAT
  1
TABLEFORMAT_BEGIN
 90
        1
170
     1
 91
       16
 92
        0
 62
   257
 93
        1
300
CONTENTFORMAT
  1
CONTENTFORMAT_BEGIN
 90
       16
 91
        0
 92
      512
 93
        0
300

 40
0.0
140
1.0
 94
        4
 62
     0
340
0
144
0.18
309
CONTENTFORMAT_END
171
     0
 94
        4
 95
        1
302
GRIDFORMAT
  1
GRIDFORMAT_BEGIN
 90
       26
 91
        1
 62
     0
 92
       -2
340
0
 93
        0
 40
0.045
309
GRIDFORMAT_END
 95
        4
302
GRIDFORMAT
  1
GRIDFORMAT_BEGIN
 90
       26
 91
        1
 62
     0
 92
       -2
340
0
 93
        0
 40
0.045
309
GRIDFORMAT_END
 95
        8
302
GRIDFORMAT
  1
GRIDFORMAT_BEGIN
 90
       26
 91
        1
 62
     0
 92
       -2
340
0
 93
        0
 40
0.045
309
GRIDFORMAT_END
 95
       32
302
GRIDFORMAT
  1
GRIDFORMAT_BEGIN
 90
       26
 91
        1
 62
     0
 92
       -2
340
0
 93
        0
 40
0.045
309
GRIDFORMAT_END
309
TABLEFORMAT_END
309
FORMATTEDTABLEDATACELL_END
  1
TABLECELL_BEGIN
 90
        0
 91
        0
309
TABLECELL_END
300
CELL
  1
LINKEDTABLEDATACELL_BEGIN
 90
        0
300

 91
        0
301
CUSTOMDATA
  1
DATAMAP_BEGIN
 90
        0
309
DATAMAP_END
 92
        0
 95
        0
309
LINKEDTABLEDATACELL_END
  1
FORMATTEDTABLEDATACELL_BEGIN
300
CELLTABLEFORMAT
  1
TABLEFORMAT_BEGIN
 90
        1
170
     1
 91
        0
 92
        0
 62
   257
 93
        1
300
CONTENTFORMAT
  1
CONTENTFORMAT_BEGIN
 90
        0
 91
        0
 92
      512
 93
        0
300

 40
0.0
140
1.0
 94
        1
 62
     0
340
0
144
0.18
309
CONTENTFORMAT_END
171
     0
 94
        0
309
TABLEFORMAT_END
309
FORMATTEDTABLEDATACELL_END
  1
TABLECELL_BEGIN
 90
        0
 91
        0
309
TABLECELL_END
 91
        0
301
CUSTOMDATA
  1
DATAMAP_BEGIN
 90
        0
309
DATAMAP_END
309
LINKEDTABLEDATAROW_END
  1
FORMATTEDTABLEDATAROW_BEGIN
300
ROWTABLEFORMAT
  1
TABLEFORMAT_BEGIN
 90
        2
170
     0
309
TABLEFORMAT_END
309
FORMATTEDTABLEDATAROW_END
  1
TABLEROW_BEGIN
 90
        3
 40
10.0
309
TABLEROW_END
301
ROW
  1
LINKEDTABLEDATAROW_BEGIN
 90
        5
300
CELL
  1
LINKEDTABLEDATACELL_BEGIN
 90
        0
300

 91
        0
301
CUSTOMDATA
  1
DATAMAP_BEGIN
 90
        0
309
DATAMAP_END
 92
        0
 95
        0
309
LINKEDTABLEDATACELL_END
  1
FORMATTEDTABLEDATACELL_BEGIN
300
CELLTABLEFORMAT
  1
TABLEFORMAT_BEGIN
 90
        1
170
     1
 91
        0
 92
        0
 62
   257
 93
        1
300
CONTENTFORMAT
  1
CONTENTFORMAT_BEGIN
 90
        0
 91
        0
 92
      512
 93
        0
300

 40
0.0
140
1.0
 94
        1
 62
     0
340
0
144
0.18
309
CONTENTFORMAT_END
171
     0
 94
        0
309
TABLEFORMAT_END
309
FORMATTEDTABLEDATACELL_END
  1
TABLECELL_BEGIN
 90
        0
 91
        0
309
TABLECELL_END
300
CELL
  1
LINKEDTABLEDATACELL_BEGIN
 90
        0
300

 91
        0
301
CUSTOMDATA
  1
DATAMAP_BEGIN
 90
        0
309
DATAMAP_END
 92
        0
 95
        0
309
LINKEDTABLEDATACELL_END
  1
FORMATTEDTABLEDATACELL_BEGIN
300
CELLTABLEFORMAT
  1
TABLEFORMAT_BEGIN
 90
        1
170
     1
 91
        0
 92
        0
 62
   257
 93
        1
300
CONTENTFORMAT
  1
CONTENTFORMAT_BEGIN
 90
        0
 91
        0
 92
      512
 93
        0
300

 40
0.0
140
1.0
 94
        1
 62
     0
340
0
144
0.18
309
CONTENTFORMAT_END
171
     0
 94
        0
309
TABLEFORMAT_END
309
FORMATTEDTABLEDATACELL_END
  1
TABLECELL_BEGIN
 90
        0
 91
        0
309
TABLECELL_END
300
CELL
  1
LINKEDTABLEDATACELL_BEGIN
 90
        0
300

 91
        0
301
CUSTOMDATA
  1
DATAMAP_BEGIN
 90
        0
309
DATAMAP_END
 92
        0
 95
        0
309
LINKEDTABLEDATACELL_END
  1
FORMATTEDTABLEDATACELL_BEGIN
300
CELLTABLEFORMAT
  1
TABLEFORMAT_BEGIN
 90
        1
170
     1
 91
        0
 92
        0
 62
   257
 93
        1
300
CONTENTFORMAT
  1
CONTENTFORMAT_BEGIN
 90
        0
 91
        0
 92
      512
 93
        0
300

 40
0.0
140
1.0
 94
        1
 62
     0
340
0
144
0.18
309
CONTENTFORMAT_END
171
     0
 94
        0
309
TABLEFORMAT_END
309
FORMATTEDTABLEDATACELL_END
  1
TABLECELL_BEGIN
 90
        0
 91
        0
309
TABLECELL_END
300
CELL
  1
LINKEDTABLEDATACELL_BEGIN
 90
        0
300

 91
        0
301
CUSTOMDATA
  1
DATAMAP_BEGIN
 90
        1
300
ACAD_ROUNDTRIP_2008_CELL_CHECKSUM
301
DATAMAP_VALUE
 93
        2
 90
        2
140
4689.0
 94
        0
300

302

304
ACVALUE_END
309
DATAMAP_END
 92
        0
 95
        1
302
CONTENT
  1
CELLCONTENT_BEGIN
 90
        1
300
VALUE
 93
        2
 90
        4
  1
DATE:12.11.20
 94
        0
300

302
DATE:12.11.20
304
ACVALUE_END
 91
        0
309
CELLCONTENT_END
  1
FORMATTEDCELLCONTENT_BEGIN
170
     1
300
CONTENTFORMAT
  1
CONTENTFORMAT_BEGIN
 90
      132
 91
        0
 92
      512
 93
        0
300

 40
0.0
140
1.0
 94
        1
 62
     0
340
0
144
2.5
309
CONTENTFORMAT_END
309
FORMATTEDCELLCONTENT_END
309
LINKEDTABLEDATACELL_END
  1
FORMATTEDTABLEDATACELL_BEGIN
300
CELLTABLEFORMAT
  1
TABLEFORMAT_BEGIN
 90
        1
170
     1
 91
       16
 92
        0
 62
   257
 93
        1
300
CONTENTFORMAT
  1
CONTENTFORMAT_BEGIN
 90
       16
 91
        0
 92
      512
 93
        0
300

 40
0.0
140
1.0
 94
        4
 62
     0
340
0
144
0.18
309
CONTENTFORMAT_END
171
     0
 94
        4
 95
        1
302
GRIDFORMAT
  1
GRIDFORMAT_BEGIN
 90
       26
 91
        1
 62
     0
 92
       -2
340
0
 93
        0
 40
0.045
309
GRIDFORMAT_END
 95
        4
302
GRIDFORMAT
  1
GRIDFORMAT_BEGIN
 90
       26
 91
        1
 62
     0
 92
       -2
340
0
 93
        0
 40
0.045
309
GRIDFORMAT_END
 95
        8
302
GRIDFORMAT
  1
GRIDFORMAT_BEGIN
 90
       26
 91
        1
 62
     0
 92
       -2
340
0
 93
        0
 40
0.045
309
GRIDFORMAT_END
 95
       32
302
GRIDFORMAT
  1
GRIDFORMAT_BEGIN
 90
       26
 91
        1
 62
     0
 92
       -2
340
0
 93
        0
 40
0.045
309
GRIDFORMAT_END
309
TABLEFORMAT_END
309
FORMATTEDTABLEDATACELL_END
  1
TABLECELL_BEGIN
 90
        0
 91
        0
309
TABLECELL_END
300
CELL
  1
LINKEDTABLEDATACELL_BEGIN
 90
        0
300

 91
        0
301
CUSTOMDATA
  1
DATAMAP_BEGIN
 90
        0
309
DATAMAP_END
 92
        0
 95
        0
309
LINKEDTABLEDATACELL_END
  1
FORMATTEDTABLEDATACELL_BEGIN
300
CELLTABLEFORMAT
  1
TABLEFORMAT_BEGIN
 90
        1
170
     1
 91
        0
 92
        0
 62
   257
 93
        1
300
CONTENTFORMAT
  1
CONTENTFORMAT_BEGIN
 90
        0
 91
        0
 92
      512
 93
        0
300

 40
0.0
140
1.0
 94
        1
 62
     0
340
0
144
0.18
309
CONTENTFORMAT_END
171
     0
 94
        0
309
TABLEFORMAT_END
309
FORMATTEDTABLEDATACELL_END
  1
TABLECELL_BEGIN
 90
        0
 91
        0
309
TABLECELL_END
 91
        0
301
CUSTOMDATA
  1
DATAMAP_BEGIN
 90
        0
309
DATAMAP_END
309
LINKEDTABLEDATAROW_END
  1
FORMATTEDTABLEDATAROW_BEGIN
300
ROWTABLEFORMAT
  1
TABLEFORMAT_BEGIN
 90
        2
170
     0
309
TABLEFORMAT_END
309
FORMATTEDTABLEDATAROW_END
  1
TABLEROW_BEGIN
 90
        3
 40
5.0
309
TABLEROW_END
301
ROW
  1
LINKEDTABLEDATAROW_BEGIN
 90
        5
300
CELL
  1
LINKEDTABLEDATACELL_BEGIN
 90
        0
300

 91
        0
301
CUSTOMDATA
  1
DATAMAP_BEGIN
 90
        1
300
ACAD_ROUNDTRIP_2008_CELL_CHECKSUM
301
DATAMAP_VALUE
 93
        2
 90
        2
140
1361482.0
 94
        0
300

302

304
ACVALUE_END
309
DATAMAP_END
 92
        0
 95
        1
302
CONTENT
  1
CELLCONTENT_BEGIN
 90
        1
300
VALUE
 93
        2
 90
        4
  1
Any integral or partial reproductions are prohibited \Pwithout prior authorisation of L & L Luce & Light s.r.l., \Pin accordance with the law in force. \PAll rights reserved.
 94
        0
300

302
Any integral or partial reproductions are prohibited \Pwithout prior authorisation of L & L Luce & Light s.r.l., \Pin accordance with the law in force. \PAll rights reserved.
304
ACVALUE_END
 91
        0
309
CELLCONTENT_END
  1
FORMATTEDCELLCONTENT_BEGIN
170
     1
300
CONTENTFORMAT
  1
CONTENTFORMAT_BEGIN
 90
      132
 91
        0
 92
      512
 93
        0
300

 40
0.0
140
1.0
 94
        1
 62
     0
340
0
144
2.25
309
CONTENTFORMAT_END
309
FORMATTEDCELLCONTENT_END
309
LINKEDTABLEDATACELL_END
  1
FORMATTEDTABLEDATACELL_BEGIN
300
CELLTABLEFORMAT
  1
TABLEFORMAT_BEGIN
 90
        1
170
     1
 91
       16
 92
        0
 62
   257
 93
        1
300
CONTENTFORMAT
  1
CONTENTFORMAT_BEGIN
 90
       16
 91
        0
 92
      512
 93
        0
300

 40
0.0
140
1.0
 94
        4
 62
     0
340
0
144
0.18
309
CONTENTFORMAT_END
171
     0
 94
        4
 95
        1
302
GRIDFORMAT
  1
GRIDFORMAT_BEGIN
 90
       26
 91
        1
 62
     0
 92
       -2
340
0
 93
        0
 40
0.045
309
GRIDFORMAT_END
 95
        4
302
GRIDFORMAT
  1
GRIDFORMAT_BEGIN
 90
       26
 91
        1
 62
     0
 92
       -2
340
0
 93
        0
 40
0.045
309
GRIDFORMAT_END
 95
        8
302
GRIDFORMAT
  1
GRIDFORMAT_BEGIN
 90
       26
 91
        1
 62
     0
 92
       -2
340
0
 93
        0
 40
0.045
309
GRIDFORMAT_END
 95
       32
302
GRIDFORMAT
  1
GRIDFORMAT_BEGIN
 90
       26
 91
        1
 62
     0
 92
       -2
340
0
 93
        0
 40
0.045
309
GRIDFORMAT_END
309
TABLEFORMAT_END
309
FORMATTEDTABLEDATACELL_END
  1
TABLECELL_BEGIN
 90
        0
 91
        0
309
TABLECELL_END
300
CELL
  1
LINKEDTABLEDATACELL_BEGIN
 90
        0
300

 91
        0
301
CUSTOMDATA
  1
DATAMAP_BEGIN
 90
        0
309
DATAMAP_END
 92
        0
 95
        0
309
LINKEDTABLEDATACELL_END
  1
FORMATTEDTABLEDATACELL_BEGIN
300
CELLTABLEFORMAT
  1
TABLEFORMAT_BEGIN
 90
        1
170
     1
 91
        0
 92
        0
 62
   257
 93
        1
300
CONTENTFORMAT
  1
CONTENTFORMAT_BEGIN
 90
        0
 91
        0
 92
      512
 93
        0
300

 40
0.0
140
1.0
 94
        1
 62
     0
340
0
144
0.18
309
CONTENTFORMAT_END
171
     0
 94
        0
309
TABLEFORMAT_END
309
FORMATTEDTABLEDATACELL_END
  1
TABLECELL_BEGIN
 90
        0
 91
        0
309
TABLECELL_END
300
CELL
  1
LINKEDTABLEDATACELL_BEGIN
 90
        0
300

 91
        0
301
CUSTOMDATA
  1
DATAMAP_BEGIN
 90
        0
309
DATAMAP_END
 92
        0
 95
        0
309
LINKEDTABLEDATACELL_END
  1
FORMATTEDTABLEDATACELL_BEGIN
300
CELLTABLEFORMAT
  1
TABLEFORMAT_BEGIN
 90
        1
170
     1
 91
        0
 92
        0
 62
   257
 93
        1
300
CONTENTFORMAT
  1
CONTENTFORMAT_BEGIN
 90
        0
 91
        0
 92
      512
 93
        0
300

 40
0.0
140
1.0
 94
        1
 62
     0
340
0
144
0.18
309
CONTENTFORMAT_END
171
     0
 94
        0
309
TABLEFORMAT_END
309
FORMATTEDTABLEDATACELL_END
  1
TABLECELL_BEGIN
 90
        0
 91
        0
309
TABLECELL_END
300
CELL
  1
LINKEDTABLEDATACELL_BEGIN
 90
        0
300

 91
        0
301
CUSTOMDATA
  1
DATAMAP_BEGIN
 90
        0
309
DATAMAP_END
 92
        0
 95
        0
309
LINKEDTABLEDATACELL_END
  1
FORMATTEDTABLEDATACELL_BEGIN
300
CELLTABLEFORMAT
  1
TABLEFORMAT_BEGIN
 90
        1
170
     1
 91
        0
 92
        0
 62
   257
 93
        1
300
CONTENTFORMAT
  1
CONTENTFORMAT_BEGIN
 90
        0
 91
        0
 92
      512
 93
        0
300

 40
0.0
140
1.0
 94
        1
 62
     0
340
0
144
0.18
309
CONTENTFORMAT_END
171
     0
 94
        0
309
TABLEFORMAT_END
309
FORMATTEDTABLEDATACELL_END
  1
TABLECELL_BEGIN
 90
        0
 91
        0
309
TABLECELL_END
300
CELL
  1
LINKEDTABLEDATACELL_BEGIN
 90
        0
300

 91
        0
301
CUSTOMDATA
  1
DATAMAP_BEGIN
 90
        0
309
DATAMAP_END
 92
        0
 95
        0
309
LINKEDTABLEDATACELL_END
  1
FORMATTEDTABLEDATACELL_BEGIN
300
CELLTABLEFORMAT
  1
TABLEFORMAT_BEGIN
 90
        1
170
     1
 91
        0
 92
        0
 62
   257
 93
        1
300
CONTENTFORMAT
  1
CONTENTFORMAT_BEGIN
 90
        0
 91
        0
 92
      512
 93
        0
300

 40
0.0
140
1.0
 94
        1
 62
     0
340
0
144
0.18
309
CONTENTFORMAT_END
171
     0
 94
        0
309
TABLEFORMAT_END
309
FORMATTEDTABLEDATACELL_END
  1
TABLECELL_BEGIN
 90
        0
 91
        0
309
TABLECELL_END
 91
        0
301
CUSTOMDATA
  1
DATAMAP_BEGIN
 90
        0
309
DATAMAP_END
309
LINKEDTABLEDATAROW_END
  1
FORMATTEDTABLEDATAROW_BEGIN
300
ROWTABLEFORMAT
  1
TABLEFORMAT_BEGIN
 90
        2
170
     0
309
TABLEFORMAT_END
309
FORMATTEDTABLEDATAROW_END
  1
TABLEROW_BEGIN
 90
        3
 40
13.0
309
TABLEROW_END
100
AcDbFormattedTableData
300
TABLEFORMAT
  1
TABLEFORMAT_BEGIN
 90
        4
170
     1
 91
    15360
 92
        0
 62
   257
 93
        1
300
CONTENTFORMAT
  1
CONTENTFORMAT_BEGIN
 90
        0
 91
        0
 92
      512
 93
        0
300

 40
0.0
140
1.0
 94
        1
 62
     0
340
0
144
0.18
309
CONTENTFORMAT_END
171
     1
301
MARGIN
  1
CELLMARGIN_BEGIN
 40
0.06
 40
0.06
 40
0.06
 40
0.06
 40
0.06
 40
0.06
309
CELLMARGIN_END
 94
        0
309
TABLEFORMAT_END
 90
        4
 91
        0
 92
        0
 93
        3
 94
        2
 91
        2
 92
        3
 93
        2
 94
        4
 91
        3
 92
        3
 93
        3
 94
        4
 91
        4
 92
        0
 93
        4
 94
        4
100
AcDbTableContent
340
44D
  0
TABLEGEOMETRY
  5
47A
330
47C
100
AcDbTableGeometry
 90
        5
 91
        5
 92
       25
 93
        0
 40
0.0
 41
0.0
330
0
 94
        0
 93
        0
 40
0.0
 41
0.0
330
0
 94
        0
 93
        0
 40
0.0
 41
0.0
330
0
 94
        0
 93
        0
 40
0.0
 41
0.0
330
0
 94
        0
 93
        0
 40
0.0
 41
0.0
330
0
 94
        0
 93
        0
 40
0.0
 41
0.0
330
0
 94
        0
 93
        0
 40
0.0
 41
0.0
330
0
 94
        0
 93
        0
 40
0.0
 41
0.0
330
0
 94
        0
 93
        0
 40
0.0
 41
0.0
330
0
 94
        0
 93
        0
 40
0.0
 41
0.0
330
0
 94
        0
 93
        0
 40
0.0
 41
0.0
330
0
 94
        0
 93
        0
 40
0.0
 41
0.0
330
0
 94
        0
 93
        0
 40
0.0
 41
0.0
330
0
 94
        0
 93
        0
 40
0.0
 41
0.0
330
0
 94
        0
 93
        0
 40
0.0
 41
0.0
330
0
 94
        0
 93
        0
 40
0.0
 41
0.0
330
0
 94
        0
 93
        0
 40
0.0
 41
0.0
330
0
 94
        0
 93
        0
 40
0.0
 41
0.0
330
0
 94
        0
 93
        0
 40
0.0
 41
0.0
330
0
 94
        0
 93
        0
 40
0.0
 41
0.0
330
0
 94
        0
 93
        0
 40
0.0
 41
0.0
330
0
 94
        0
 93
        0
 40
0.0
 41
0.0
330
0
 94
        0
 93
        0
 40
0.0
 41
0.0
330
0
 94
        0
 93
        0
 40
0.0
 41
0.0
330
0
 94
        0
 93
        0
 40
0.0
 41
0.0
330
0
 94
        0
  0
DICTIONARY
  5
47F
330
44D
100
AcDbDictionary
280
     1
281
     1
  3
ACAD_ROUNDTRIP_2008_TABLESTYLE_CELLSTYLEMAP
360
480
  0
DICTIONARY
  5
489
330
454
100
AcDbDictionary
280
     1
281
     1
  3
ACAD_XREC_ROUNDTRIP
360
48A
  0
DICTIONARY
  5
48F
330
457
100
AcDbDictionary
280
     1
281
     1
  3
ACAD_XREC_ROUNDTRIP
360
490
  0
DICTIONARY
  5
497
330
45B
100
AcDbDictionary
280
     1
281
     1
  3
ACAD_XREC_ROUNDTRIP
360
498
  0
DICTIONARY
  5
49F
330
45F
100
AcDbDictionary
280
     1
281
     1
  3
ACAD_XREC_ROUNDTRIP
360
4A0
  0
DICTIONARY
  5
493
330
459
100
AcDbDictionary
280
     1
281
     1
  3
ACAD_XREC_ROUNDTRIP
360
494
  0
DICTIONARY
  5
495
330
45A
100
AcDbDictionary
280
     1
281
     1
  3
ACAD_XREC_ROUNDTRIP
360
496
  0
DICTIONARY
  5
4A5
330
462
100
AcDbDictionary
280
     1
281
     1
  3
ACAD_XREC_ROUNDTRIP
360
4A6
  0
DICTIONARY
  5
49D
330
45E
100
AcDbDictionary
280
     1
281
     1
  3
ACAD_XREC_ROUNDTRIP
360
49E
  0
DICTIONARY
  5
481
330
450
100
AcDbDictionary
280
     1
281
     1
  3
ACAD_XREC_ROUNDTRIP
360
482
  0
DICTIONARY
  5
483
330
451
100
AcDbDictionary
280
     1
281
     1
  3
ACAD_XREC_ROUNDTRIP
360
484
  0
DICTIONARY
  5
485
330
452
100
AcDbDictionary
280
     1
281
     1
  3
ACAD_XREC_ROUNDTRIP
360
486
  0
DICTIONARY
  5
487
330
453
100
AcDbDictionary
280
     1
281
     1
  3
ACAD_XREC_ROUNDTRIP
360
488
  0
DICTIONARY
  5
48D
330
456
100
AcDbDictionary
280
     1
281
     1
  3
ACAD_XREC_ROUNDTRIP
360
48E
  0
DICTIONARY
  5
4A1
330
460
100
AcDbDictionary
280
     1
281
     1
  3
ACAD_XREC_ROUNDTRIP
360
4A2
  0
DICTIONARY
  5
49B
330
45D
100
AcDbDictionary
280
     1
281
     1
  3
ACAD_XREC_ROUNDTRIP
360
49C
  0
DICTIONARY
  5
4A3
330
461
100
AcDbDictionary
280
     1
281
     1
  3
ACAD_XREC_ROUNDTRIP
360
4A4
  0
DICTIONARY
  5
491
330
458
100
AcDbDictionary
280
     1
281
     1
  3
ACAD_XREC_ROUNDTRIP
360
492
  0
DICTIONARY
  5
4AF
330
467
100
AcDbDictionary
280
     1
281
     1
  3
ACAD_XREC_ROUNDTRIP
360
4B0
  0
DICTIONARY
  5
4AD
330
466
100
AcDbDictionary
280
     1
281
     1
  3
ACAD_XREC_ROUNDTRIP
360
4AE
  0
DICTIONARY
  5
4A7
330
463
100
AcDbDictionary
280
     1
281
     1
  3
ACAD_XREC_ROUNDTRIP
360
4A8
  0
DICTIONARY
  5
4A9
330
464
100
AcDbDictionary
280
     1
281
     1
  3
ACAD_XREC_ROUNDTRIP
360
4AA
  0
DICTIONARY
  5
499
330
45C
100
AcDbDictionary
280
     1
281
     1
  3
ACAD_XREC_ROUNDTRIP
360
49A
  0
DICTIONARY
  5
48B
330
455
100
AcDbDictionary
280
     1
281
     1
  3
ACAD_XREC_ROUNDTRIP
360
48C
  0
DICTIONARY
  5
4AB
330
465
100
AcDbDictionary
280
     1
281
     1
  3
ACAD_XREC_ROUNDTRIP
360
4AC
  0
CELLSTYLEMAP
  5
480
102
{ACAD_REACTORS
330
47F
102
}
330
47F
100
AcDbCellStyleMap
 90
        3
300
CELLSTYLE
  1
TABLEFORMAT_BEGIN
 90
        5
170
     1
 91
        0
 92
        0
 62
   257
 93
        1
300
CONTENTFORMAT
  1
CONTENTFORMAT_BEGIN
 90
        0
 91
        0
 92
        4
 93
        0
300

 40
0.0
140
1.0
 94
        5
 62
     0
340
11
144
6.0
309
CONTENTFORMAT_END
171
     1
301
MARGIN
  1
CELLMARGIN_BEGIN
 40
1.5
 40
1.5
 40
1.5
 40
1.5
 40
1.5
 40
1.5
309
CELLMARGIN_END
 94
        6
 95
        1
302
GRIDFORMAT
  1
GRIDFORMAT_BEGIN
 90
        0
 91
        1
 62
     0
 92
       -2
340
14
 93
        0
 40
0.045
309
GRIDFORMAT_END
 95
        2
302
GRIDFORMAT
  1
GRIDFORMAT_BEGIN
 90
        0
 91
        1
 62
     0
 92
       -2
340
14
 93
        0
 40
0.045
309
GRIDFORMAT_END
 95
        4
302
GRIDFORMAT
  1
GRIDFORMAT_BEGIN
 90
        0
 91
        1
 62
     0
 92
       -2
340
14
 93
        0
 40
0.045
309
GRIDFORMAT_END
 95
        8
302
GRIDFORMAT
  1
GRIDFORMAT_BEGIN
 90
        0
 91
        1
 62
     0
 92
       -2
340
14
 93
        0
 40
0.045
309
GRIDFORMAT_END
 95
       16
302
GRIDFORMAT
  1
GRIDFORMAT_BEGIN
 90
        0
 91
        1
 62
     0
 92
       -2
340
14
 93
        0
 40
0.045
309
GRIDFORMAT_END
 95
       32
302
GRIDFORMAT
  1
GRIDFORMAT_BEGIN
 90
        0
 91
        1
 62
     0
 92
       -2
340
14
 93
        0
 40
0.045
309
GRIDFORMAT_END
309
TABLEFORMAT_END
  1
CELLSTYLE_BEGIN
 90
        1
 91
        1
300
_TITLE
309
CELLSTYLE_END
300
CELLSTYLE
  1
TABLEFORMAT_BEGIN
 90
        5
170
     1
 91
        0
 92
        0
 62
   257
 93
        1
300
CONTENTFORMAT
  1
CONTENTFORMAT_BEGIN
 90
        0
 91
        0
 92
        4
 93
        0
300

 40
0.0
140
1.0
 94
        5
 62
     0
340
11
144
4.5
309
CONTENTFORMAT_END
171
     1
301
MARGIN
  1
CELLMARGIN_BEGIN
 40
1.5
 40
1.5
 40
1.5
 40
1.5
 40
1.5
 40
1.5
309
CELLMARGIN_END
 94
        6
 95
        1
302
GRIDFORMAT
  1
GRIDFORMAT_BEGIN
 90
        0
 91
        1
 62
     0
 92
       -2
340
14
 93
        0
 40
0.045
309
GRIDFORMAT_END
 95
        2
302
GRIDFORMAT
  1
GRIDFORMAT_BEGIN
 90
        0
 91
        1
 62
     0
 92
       -2
340
14
 93
        0
 40
0.045
309
GRIDFORMAT_END
 95
        4
302
GRIDFORMAT
  1
GRIDFORMAT_BEGIN
 90
        0
 91
        1
 62
     0
 92
       -2
340
14
 93
        0
 40
0.045
309
GRIDFORMAT_END
 95
        8
302
GRIDFORMAT
  1
GRIDFORMAT_BEGIN
 90
        0
 91
        1
 62
     0
 92
       -2
340
14
 93
        0
 40
0.045
309
GRIDFORMAT_END
 95
       16
302
GRIDFORMAT
  1
GRIDFORMAT_BEGIN
 90
        0
 91
        1
 62
     0
 92
       -2
340
14
 93
        0
 40
0.045
309
GRIDFORMAT_END
 95
       32
302
GRIDFORMAT
  1
GRIDFORMAT_BEGIN
 90
        0
 91
        1
 62
     0
 92
       -2
340
14
 93
        0
 40
0.045
309
GRIDFORMAT_END
309
TABLEFORMAT_END
  1
CELLSTYLE_BEGIN
 90
        2
 91
        1
300
_HEADER
309
CELLSTYLE_END
300
CELLSTYLE
  1
TABLEFORMAT_BEGIN
 90
        5
170
     1
 91
        0
 92
        0
 62
   257
 93
        1
300
CONTENTFORMAT
  1
CONTENTFORMAT_BEGIN
 90
        0
 91
        0
 92
        4
 93
        0
300

 40
0.0
140
1.0
 94
        2
 62
     0
340
11
144
4.5
309
CONTENTFORMAT_END
171
     1
301
MARGIN
  1
CELLMARGIN_BEGIN
 40
1.5
 40
1.5
 40
1.5
 40
1.5
 40
1.5
 40
1.5
309
CELLMARGIN_END
 94
        6
 95
        1
302
GRIDFORMAT
  1
GRIDFORMAT_BEGIN
 90
        0
 91
        1
 62
     0
 92
       -2
340
14
 93
        0
 40
0.045
309
GRIDFORMAT_END
 95
        2
302
GRIDFORMAT
  1
GRIDFORMAT_BEGIN
 90
        0
 91
        1
 62
     0
 92
       -2
340
14
 93
        0
 40
0.045
309
GRIDFORMAT_END
 95
        4
302
GRIDFORMAT
  1
GRIDFORMAT_BEGIN
 90
        0
 91
        1
 62
     0
 92
       -2
340
14
 93
        0
 40
0.045
309
GRIDFORMAT_END
 95
        8
302
GRIDFORMAT
  1
GRIDFORMAT_BEGIN
 90
        0
 91
        1
 62
     0
 92
       -2
340
14
 93
        0
 40
0.045
309
GRIDFORMAT_END
 95
       16
302
GRIDFORMAT
  1
GRIDFORMAT_BEGIN
 90
        0
 91
        1
 62
     0
 92
       -2
340
14
 93
        0
 40
0.045
309
GRIDFORMAT_END
 95
       32
302
GRIDFORMAT
  1
GRIDFORMAT_BEGIN
 90
        0
 91
        1
 62
     0
 92
       -2
340
14
 93
        0
 40
0.045
309
GRIDFORMAT_END
309
TABLEFORMAT_END
  1
CELLSTYLE_BEGIN
 90
        3
 91
        2
300
_DATA
309
CELLSTYLE_END
  0
XRECORD
  5
48A
102
{ACAD_REACTORS
330
489
102
}
330
489
100
AcDbXrecord
280
     1
102
RTVSPost2010Prop28
280
     1
102
RTVSPost2010PropOp28
 70
     1
102
RTVSPost2010Prop29
280
     1
102
RTVSPost2010PropOp29
 70
     1
102
RTVSPost2010Prop30
280
     0
102
RTVSPost2010PropOp30
 70
     1
102
RTVSPost2010Prop31
280
     0
102
RTVSPost2010PropOp31
 70
     1
102
RTVSPost2010Prop32
280
     0
102
RTVSPost2010PropOp32
 70
     1
102
RTVSPost2010Prop33
280
     0
102
RTVSPost2010PropOp33
 70
     1
102
RTVSPost2010Prop34
280
     0
102
RTVSPost2010PropOp34
 70
     1
102
RTVSPost2010Prop35
280
     0
102
RTVSPost2010PropOp35
 70
     1
102
RTVSPost2010Prop36
280
     0
102
RTVSPost2010PropOp36
 70
     1
102
RTVSPost2010Prop37
 90
       50
102
RTVSPost2010PropOp37
 70
     1
102
RTVSPost2010Prop38
140
0.0
102
RTVSPost2010PropOp38
 70
     1
102
RTVSPost2010Prop39
140
1.0
102
RTVSPost2010PropOp39
 70
     1
102
RTVSPost2010Prop40
 90
        0
102
RTVSPost2010PropOp40
 70
     1
102
RTVSPost2010Prop41ColorIndex
 90
       18
102
RTVSPost2010Prop41ColorRGB
 90
        0
102
RTVSPost2010PropOp41
 70
     1
102
RTVSPost2010Prop42
 90
       50
102
RTVSPost2010PropOp42
 70
     1
102
RTVSPost2010Prop43
 90
        3
102
RTVSPost2010PropOp43
 70
     1
102
RTVSPost2010Prop44ColorIndex
 90
        5
102
RTVSPost2010Prop44ColorRGB
 90
      255
102
RTVSPost2010PropOp44
 70
     1
102
RTVSPost2010Prop45
280
     0
102
RTVSPost2010PropOp45
 70
     1
102
RTVSPost2010Prop46
 90
       50
102
RTVSPost2010PropOp46
 70
     1
102
RTVSPost2010Prop47
 90
       50
102
RTVSPost2010PropOp47
 70
     1
102
RTVSPost2010Prop48
 90
       50
102
RTVSPost2010PropOp48
 70
     1
102
RTVSPost2010Prop49
280
     0
102
RTVSPost2010PropOp49
 70
     1
102
RTVSPost2010Prop50
 90
       50
102
RTVSPost2010PropOp50
 70
     1
102
RTVSPost2010Prop51ColorIndex
 90
      256
102
RTVSPost2010Prop51ColorRGB
 90
-16777216
102
RTVSPost2010PropOp51
 70
     0
102
RTVSPost2010Prop52
140
1.0
102
RTVSPost2010PropOp52
 70
     0
102
RTVSPost2010Prop53
 90
        2
102
RTVSPost2010PropOp53
 70
     1
102
RTVSPost2010Prop54
  1
strokes_ogs.tif
102
RTVSPost2010PropOp54
 70
     1
102
RTVSPost2010Prop55
280
     0
102
RTVSPost2010PropOp55
 70
     1
102
RTVSPost2010Prop56
140
1.0
102
RTVSPost2010PropOp56
 70
     1
102
RTVSPost2010Prop57
140
1.0
102
RTVSPost2010PropOp57
 70
     1
  0
XRECORD
  5
490
102
{ACAD_REACTORS
330
48F
102
}
330
48F
100
AcDbXrecord
280
     1
102
RTVSPost2010Prop28
280
     0
102
RTVSPost2010PropOp28
 70
     1
102
RTVSPost2010Prop29
280
     1
102
RTVSPost2010PropOp29
 70
     1
102
RTVSPost2010Prop30
280
     1
102
RTVSPost2010PropOp30
 70
     1
102
RTVSPost2010Prop31
280
     0
102
RTVSPost2010PropOp31
 70
     1
102
RTVSPost2010Prop32
280
     0
102
RTVSPost2010PropOp32
 70
     1
102
RTVSPost2010Prop33
280
     0
102
RTVSPost2010PropOp33
 70
     1
102
RTVSPost2010Prop34
280
     0
102
RTVSPost2010PropOp34
 70
     1
102
RTVSPost2010Prop35
280
     0
102
RTVSPost2010PropOp35
 70
     1
102
RTVSPost2010Prop36
280
     0
102
RTVSPost2010PropOp36
 70
     1
102
RTVSPost2010Prop37
 90
       50
102
RTVSPost2010PropOp37
 70
     1
102
RTVSPost2010Prop38
140
0.0
102
RTVSPost2010PropOp38
 70
     1
102
RTVSPost2010Prop39
140
1.0
102
RTVSPost2010PropOp39
 70
     1
102
RTVSPost2010Prop40
 90
        0
102
RTVSPost2010PropOp40
 70
     1
102
RTVSPost2010Prop41ColorIndex
 90
       18
102
RTVSPost2010Prop41ColorRGB
 90
        0
102
RTVSPost2010PropOp41
 70
     1
102
RTVSPost2010Prop42
 90
       50
102
RTVSPost2010PropOp42
 70
     1
102
RTVSPost2010Prop43
 90
        3
102
RTVSPost2010PropOp43
 70
     1
102
RTVSPost2010Prop44ColorIndex
 90
        5
102
RTVSPost2010Prop44ColorRGB
 90
      255
102
RTVSPost2010PropOp44
 70
     1
102
RTVSPost2010Prop45
280
     0
102
RTVSPost2010PropOp45
 70
     1
102
RTVSPost2010Prop46
 90
       50
102
RTVSPost2010PropOp46
 70
     1
102
RTVSPost2010Prop47
 90
       50
102
RTVSPost2010PropOp47
 70
     1
102
RTVSPost2010Prop48
 90
       50
102
RTVSPost2010PropOp48
 70
     1
102
RTVSPost2010Prop49
280
     0
102
RTVSPost2010PropOp49
 70
     1
102
RTVSPost2010Prop50
 90
       50
102
RTVSPost2010PropOp50
 70
     1
102
RTVSPost2010Prop51ColorIndex
 90
      256
102
RTVSPost2010Prop51ColorRGB
 90
-16777216
102
RTVSPost2010PropOp51
 70
     0
102
RTVSPost2010Prop52
140
1.0
102
RTVSPost2010PropOp52
 70
     0
102
RTVSPost2010Prop53
 90
        2
102
RTVSPost2010PropOp53
 70
     1
102
RTVSPost2010Prop54
  1
strokes_ogs.tif
102
RTVSPost2010PropOp54
 70
     1
102
RTVSPost2010Prop55
280
     0
102
RTVSPost2010PropOp55
 70
     1
102
RTVSPost2010Prop56
140
1.0
102
RTVSPost2010PropOp56
 70
     1
102
RTVSPost2010Prop57
140
1.0
102
RTVSPost2010PropOp57
 70
     1
  0
XRECORD
  5
498
102
{ACAD_REACTORS
330
497
102
}
330
497
100
AcDbXrecord
280
     1
102
RTVSPost2010Prop28
280
     0
102
RTVSPost2010PropOp28
 70
     1
102
RTVSPost2010Prop29
280
     1
102
RTVSPost2010PropOp29
 70
     1
102
RTVSPost2010Prop30
280
     1
102
RTVSPost2010PropOp30
 70
     1
102
RTVSPost2010Prop31
280
     0
102
RTVSPost2010PropOp31
 70
     1
102
RTVSPost2010Prop32
280
     0
102
RTVSPost2010PropOp32
 70
     1
102
RTVSPost2010Prop33
280
     0
102
RTVSPost2010PropOp33
 70
     1
102
RTVSPost2010Prop34
280
     0
102
RTVSPost2010PropOp34
 70
     1
102
RTVSPost2010Prop35
280
     0
102
RTVSPost2010PropOp35
 70
     1
102
RTVSPost2010Prop36
280
     0
102
RTVSPost2010PropOp36
 70
     1
102
RTVSPost2010Prop37
 90
       50
102
RTVSPost2010PropOp37
 70
     1
102
RTVSPost2010Prop38
140
0.0
102
RTVSPost2010PropOp38
 70
     1
102
RTVSPost2010Prop39
140
1.0
102
RTVSPost2010PropOp39
 70
     1
102
RTVSPost2010Prop40
 90
        0
102
RTVSPost2010PropOp40
 70
     1
102
RTVSPost2010Prop41ColorIndex
 90
       18
102
RTVSPost2010Prop41ColorRGB
 90
        0
102
RTVSPost2010PropOp41
 70
     1
102
RTVSPost2010Prop42
 90
       50
102
RTVSPost2010PropOp42
 70
     1
102
RTVSPost2010Prop43
 90
        3
102
RTVSPost2010PropOp43
 70
     1
102
RTVSPost2010Prop44ColorIndex
 90
        5
102
RTVSPost2010Prop44ColorRGB
 90
      255
102
RTVSPost2010PropOp44
 70
     1
102
RTVSPost2010Prop45
280
     0
102
RTVSPost2010PropOp45
 70
     1
102
RTVSPost2010Prop46
 90
       50
102
RTVSPost2010PropOp46
 70
     1
102
RTVSPost2010Prop47
 90
       50
102
RTVSPost2010PropOp47
 70
     1
102
RTVSPost2010Prop48
 90
       50
102
RTVSPost2010PropOp48
 70
     1
102
RTVSPost2010Prop49
280
     0
102
RTVSPost2010PropOp49
 70
     1
102
RTVSPost2010Prop50
 90
       50
102
RTVSPost2010PropOp50
 70
     1
102
RTVSPost2010Prop51ColorIndex
 90
      256
102
RTVSPost2010Prop51ColorRGB
 90
-16777216
102
RTVSPost2010PropOp51
 70
     0
102
RTVSPost2010Prop52
140
1.0
102
RTVSPost2010PropOp52
 70
     0
102
RTVSPost2010Prop53
 90
        2
102
RTVSPost2010PropOp53
 70
     1
102
RTVSPost2010Prop54
  1
strokes_ogs.tif
102
RTVSPost2010PropOp54
 70
     1
102
RTVSPost2010Prop55
280
     0
102
RTVSPost2010PropOp55
 70
     1
102
RTVSPost2010Prop56
140
1.0
102
RTVSPost2010PropOp56
 70
     1
102
RTVSPost2010Prop57
140
1.0
102
RTVSPost2010PropOp57
 70
     1
  0
XRECORD
  5
4A0
102
{ACAD_REACTORS
330
49F
102
}
330
49F
100
AcDbXrecord
280
     1
102
RTVSPost2010Prop28
280
     0
102
RTVSPost2010PropOp28
 70
     1
102
RTVSPost2010Prop29
280
     1
102
RTVSPost2010PropOp29
 70
     1
102
RTVSPost2010Prop30
280
     1
102
RTVSPost2010PropOp30
 70
     1
102
RTVSPost2010Prop31
280
     0
102
RTVSPost2010PropOp31
 70
     1
102
RTVSPost2010Prop32
280
     0
102
RTVSPost2010PropOp32
 70
     1
102
RTVSPost2010Prop33
280
     0
102
RTVSPost2010PropOp33
 70
     1
102
RTVSPost2010Prop34
280
     0
102
RTVSPost2010PropOp34
 70
     1
102
RTVSPost2010Prop35
280
     0
102
RTVSPost2010PropOp35
 70
     1
102
RTVSPost2010Prop36
280
     0
102
RTVSPost2010PropOp36
 70
     1
102
RTVSPost2010Prop37
 90
       50
102
RTVSPost2010PropOp37
 70
     1
102
RTVSPost2010Prop38
140
0.0
102
RTVSPost2010PropOp38
 70
     1
102
RTVSPost2010Prop39
140
1.0
102
RTVSPost2010PropOp39
 70
     1
102
RTVSPost2010Prop40
 90
        0
102
RTVSPost2010PropOp40
 70
     1
102
RTVSPost2010Prop41ColorIndex
 90
       18
102
RTVSPost2010Prop41ColorRGB
 90
        0
102
RTVSPost2010PropOp41
 70
     1
102
RTVSPost2010Prop42
 90
       50
102
RTVSPost2010PropOp42
 70
     1
102
RTVSPost2010Prop43
 90
        3
102
RTVSPost2010PropOp43
 70
     1
102
RTVSPost2010Prop44ColorIndex
 90
        5
102
RTVSPost2010Prop44ColorRGB
 90
      255
102
RTVSPost2010PropOp44
 70
     1
102
RTVSPost2010Prop45
280
     0
102
RTVSPost2010PropOp45
 70
     1
102
RTVSPost2010Prop46
 90
       50
102
RTVSPost2010PropOp46
 70
     1
102
RTVSPost2010Prop47
 90
       50
102
RTVSPost2010PropOp47
 70
     1
102
RTVSPost2010Prop48
 90
       50
102
RTVSPost2010PropOp48
 70
     1
102
RTVSPost2010Prop49
280
     0
102
RTVSPost2010PropOp49
 70
     1
102
RTVSPost2010Prop50
 90
       50
102
RTVSPost2010PropOp50
 70
     1
102
RTVSPost2010Prop51ColorIndex
 90
      256
102
RTVSPost2010Prop51ColorRGB
 90
-16777216
102
RTVSPost2010PropOp51
 70
     0
102
RTVSPost2010Prop52
140
1.0
102
RTVSPost2010PropOp52
 70
     0
102
RTVSPost2010Prop53
 90
        2
102
RTVSPost2010PropOp53
 70
     1
102
RTVSPost2010Prop54
  1
strokes_ogs.tif
102
RTVSPost2010PropOp54
 70
     1
102
RTVSPost2010Prop55
280
     0
102
RTVSPost2010PropOp55
 70
     1
102
RTVSPost2010Prop56
140
1.0
102
RTVSPost2010PropOp56
 70
     1
102
RTVSPost2010Prop57
140
1.0
102
RTVSPost2010PropOp57
 70
     1
  0
XRECORD
  5
494
102
{ACAD_REACTORS
330
493
102
}
330
493
100
AcDbXrecord
280
     1
102
RTVSPost2010Prop28
280
     0
102
RTVSPost2010PropOp28
 70
     1
102
RTVSPost2010Prop29
280
     1
102
RTVSPost2010PropOp29
 70
     1
102
RTVSPost2010Prop30
280
     1
102
RTVSPost2010PropOp30
 70
     1
102
RTVSPost2010Prop31
280
     0
102
RTVSPost2010PropOp31
 70
     1
102
RTVSPost2010Prop32
280
     0
102
RTVSPost2010PropOp32
 70
     1
102
RTVSPost2010Prop33
280
     0
102
RTVSPost2010PropOp33
 70
     1
102
RTVSPost2010Prop34
280
     0
102
RTVSPost2010PropOp34
 70
     1
102
RTVSPost2010Prop35
280
     0
102
RTVSPost2010PropOp35
 70
     1
102
RTVSPost2010Prop36
280
     0
102
RTVSPost2010PropOp36
 70
     1
102
RTVSPost2010Prop37
 90
       50
102
RTVSPost2010PropOp37
 70
     1
102
RTVSPost2010Prop38
140
0.0
102
RTVSPost2010PropOp38
 70
     1
102
RTVSPost2010Prop39
140
1.0
102
RTVSPost2010PropOp39
 70
     1
102
RTVSPost2010Prop40
 90
        0
102
RTVSPost2010PropOp40
 70
     1
102
RTVSPost2010Prop41ColorIndex
 90
       18
102
RTVSPost2010Prop41ColorRGB
 90
        0
102
RTVSPost2010PropOp41
 70
     1
102
RTVSPost2010Prop42
 90
       50
102
RTVSPost2010PropOp42
 70
     1
102
RTVSPost2010Prop43
 90
        3
102
RTVSPost2010PropOp43
 70
     1
102
RTVSPost2010Prop44ColorIndex
 90
        5
102
RTVSPost2010Prop44ColorRGB
 90
      255
102
RTVSPost2010PropOp44
 70
     1
102
RTVSPost2010Prop45
280
     0
102
RTVSPost2010PropOp45
 70
     1
102
RTVSPost2010Prop46
 90
       50
102
RTVSPost2010PropOp46
 70
     1
102
RTVSPost2010Prop47
 90
       50
102
RTVSPost2010PropOp47
 70
     1
102
RTVSPost2010Prop48
 90
       50
102
RTVSPost2010PropOp48
 70
     1
102
RTVSPost2010Prop49
280
     0
102
RTVSPost2010PropOp49
 70
     1
102
RTVSPost2010Prop50
 90
       50
102
RTVSPost2010PropOp50
 70
     1
102
RTVSPost2010Prop51ColorIndex
 90
      256
102
RTVSPost2010Prop51ColorRGB
 90
-16777216
102
RTVSPost2010PropOp51
 70
     0
102
RTVSPost2010Prop52
140
1.0
102
RTVSPost2010PropOp52
 70
     0
102
RTVSPost2010Prop53
 90
        2
102
RTVSPost2010PropOp53
 70
     1
102
RTVSPost2010Prop54
  1
strokes_ogs.tif
102
RTVSPost2010PropOp54
 70
     1
102
RTVSPost2010Prop55
280
     0
102
RTVSPost2010PropOp55
 70
     1
102
RTVSPost2010Prop56
140
1.0
102
RTVSPost2010PropOp56
 70
     1
102
RTVSPost2010Prop57
140
1.0
102
RTVSPost2010PropOp57
 70
     1
  0
XRECORD
  5
496
102
{ACAD_REACTORS
330
495
102
}
330
495
100
AcDbXrecord
280
     1
102
RTVSPost2010Prop28
280
     0
102
RTVSPost2010PropOp28
 70
     1
102
RTVSPost2010Prop29
280
     1
102
RTVSPost2010PropOp29
 70
     1
102
RTVSPost2010Prop30
280
     1
102
RTVSPost2010PropOp30
 70
     1
102
RTVSPost2010Prop31
280
     0
102
RTVSPost2010PropOp31
 70
     1
102
RTVSPost2010Prop32
280
     0
102
RTVSPost2010PropOp32
 70
     1
102
RTVSPost2010Prop33
280
     0
102
RTVSPost2010PropOp33
 70
     1
102
RTVSPost2010Prop34
280
     0
102
RTVSPost2010PropOp34
 70
     1
102
RTVSPost2010Prop35
280
     0
102
RTVSPost2010PropOp35
 70
     1
102
RTVSPost2010Prop36
280
     0
102
RTVSPost2010PropOp36
 70
     1
102
RTVSPost2010Prop37
 90
       50
102
RTVSPost2010PropOp37
 70
     1
102
RTVSPost2010Prop38
140
0.0
102
RTVSPost2010PropOp38
 70
     1
102
RTVSPost2010Prop39
140
1.0
102
RTVSPost2010PropOp39
 70
     1
102
RTVSPost2010Prop40
 90
        0
102
RTVSPost2010PropOp40
 70
     1
102
RTVSPost2010Prop41ColorIndex
 90
       18
102
RTVSPost2010Prop41ColorRGB
 90
        0
102
RTVSPost2010PropOp41
 70
     1
102
RTVSPost2010Prop42
 90
       50
102
RTVSPost2010PropOp42
 70
     1
102
RTVSPost2010Prop43
 90
        3
102
RTVSPost2010PropOp43
 70
     1
102
RTVSPost2010Prop44ColorIndex
 90
        5
102
RTVSPost2010Prop44ColorRGB
 90
      255
102
RTVSPost2010PropOp44
 70
     1
102
RTVSPost2010Prop45
280
     0
102
RTVSPost2010PropOp45
 70
     1
102
RTVSPost2010Prop46
 90
       50
102
RTVSPost2010PropOp46
 70
     1
102
RTVSPost2010Prop47
 90
       50
102
RTVSPost2010PropOp47
 70
     1
102
RTVSPost2010Prop48
 90
       50
102
RTVSPost2010PropOp48
 70
     1
102
RTVSPost2010Prop49
280
     0
102
RTVSPost2010PropOp49
 70
     1
102
RTVSPost2010Prop50
 90
       50
102
RTVSPost2010PropOp50
 70
     1
102
RTVSPost2010Prop51ColorIndex
 90
      256
102
RTVSPost2010Prop51ColorRGB
 90
-16777216
102
RTVSPost2010PropOp51
 70
     0
102
RTVSPost2010Prop52
140
1.0
102
RTVSPost2010PropOp52
 70
     0
102
RTVSPost2010Prop53
 90
        2
102
RTVSPost2010PropOp53
 70
     1
102
RTVSPost2010Prop54
  1
strokes_ogs.tif
102
RTVSPost2010PropOp54
 70
     1
102
RTVSPost2010Prop55
280
     0
102
RTVSPost2010PropOp55
 70
     1
102
RTVSPost2010Prop56
140
1.0
102
RTVSPost2010PropOp56
 70
     1
102
RTVSPost2010Prop57
140
1.0
102
RTVSPost2010PropOp57
 70
     1
  0
XRECORD
  5
4A6
102
{ACAD_REACTORS
330
4A5
102
}
330
4A5
100
AcDbXrecord
280
     1
102
RTVSPost2010Prop28
280
     0
102
RTVSPost2010PropOp28
 70
     0
102
RTVSPost2010Prop29
280
     1
102
RTVSPost2010PropOp29
 70
     0
102
RTVSPost2010Prop30
280
     1
102
RTVSPost2010PropOp30
 70
     0
102
RTVSPost2010Prop31
280
     0
102
RTVSPost2010PropOp31
 70
     0
102
RTVSPost2010Prop32
280
     0
102
RTVSPost2010PropOp32
 70
     0
102
RTVSPost2010Prop33
280
     0
102
RTVSPost2010PropOp33
 70
     0
102
RTVSPost2010Prop34
280
     0
102
RTVSPost2010PropOp34
 70
     0
102
RTVSPost2010Prop35
280
     0
102
RTVSPost2010PropOp35
 70
     0
102
RTVSPost2010Prop36
280
     0
102
RTVSPost2010PropOp36
 70
     0
102
RTVSPost2010Prop37
 90
       50
102
RTVSPost2010PropOp37
 70
     0
102
RTVSPost2010Prop38
140
0.0
102
RTVSPost2010PropOp38
 70
     0
102
RTVSPost2010Prop39
140
1.0
102
RTVSPost2010PropOp39
 70
     0
102
RTVSPost2010Prop40
 90
        0
102
RTVSPost2010PropOp40
 70
     0
102
RTVSPost2010Prop41ColorIndex
 90
       18
102
RTVSPost2010Prop41ColorRGB
 90
        0
102
RTVSPost2010PropOp41
 70
     0
102
RTVSPost2010Prop42
 90
       50
102
RTVSPost2010PropOp42
 70
     0
102
RTVSPost2010Prop43
 90
        3
102
RTVSPost2010PropOp43
 70
     0
102
RTVSPost2010Prop44ColorIndex
 90
        5
102
RTVSPost2010Prop44ColorRGB
 90
      255
102
RTVSPost2010PropOp44
 70
     0
102
RTVSPost2010Prop45
280
     0
102
RTVSPost2010PropOp45
 70
     0
102
RTVSPost2010Prop46
 90
       50
102
RTVSPost2010PropOp46
 70
     0
102
RTVSPost2010Prop47
 90
       50
102
RTVSPost2010PropOp47
 70
     0
102
RTVSPost2010Prop48
 90
       50
102
RTVSPost2010PropOp48
 70
     0
102
RTVSPost2010Prop49
280
     0
102
RTVSPost2010PropOp49
 70
     0
102
RTVSPost2010Prop50
 90
       50
102
RTVSPost2010PropOp50
 70
     0
102
RTVSPost2010Prop51ColorIndex
 90
      256
102
RTVSPost2010Prop51ColorRGB
 90
-16777216
102
RTVSPost2010PropOp51
 70
     0
102
RTVSPost2010Prop52
140
1.0
102
RTVSPost2010PropOp52
 70
     0
102
RTVSPost2010Prop53
 90
        2
102
RTVSPost2010PropOp53
 70
     0
102
RTVSPost2010Prop54
  1
strokes_ogs.tif
102
RTVSPost2010PropOp54
 70
     0
102
RTVSPost2010Prop55
280
     0
102
RTVSPost2010PropOp55
 70
     0
102
RTVSPost2010Prop56
140
1.0
102
RTVSPost2010PropOp56
 70
     0
102
RTVSPost2010Prop57
140
1.0
102
RTVSPost2010PropOp57
 70
     0
  0
XRECORD
  5
49E
102
{ACAD_REACTORS
330
49D
102
}
330
49D
100
AcDbXrecord
280
     1
102
RTVSPost2010Prop28
280
     0
102
RTVSPost2010PropOp28
 70
     1
102
RTVSPost2010Prop29
280
     1
102
RTVSPost2010PropOp29
 70
     1
102
RTVSPost2010Prop30
280
     1
102
RTVSPost2010PropOp30
 70
     1
102
RTVSPost2010Prop31
280
     0
102
RTVSPost2010PropOp31
 70
     1
102
RTVSPost2010Prop32
280
     0
102
RTVSPost2010PropOp32
 70
     1
102
RTVSPost2010Prop33
280
     0
102
RTVSPost2010PropOp33
 70
     1
102
RTVSPost2010Prop34
280
     0
102
RTVSPost2010PropOp34
 70
     1
102
RTVSPost2010Prop35
280
     0
102
RTVSPost2010PropOp35
 70
     1
102
RTVSPost2010Prop36
280
     0
102
RTVSPost2010PropOp36
 70
     1
102
RTVSPost2010Prop37
 90
       50
102
RTVSPost2010PropOp37
 70
     1
102
RTVSPost2010Prop38
140
0.0
102
RTVSPost2010PropOp38
 70
     1
102
RTVSPost2010Prop39
140
1.0
102
RTVSPost2010PropOp39
 70
     1
102
RTVSPost2010Prop40
 90
        0
102
RTVSPost2010PropOp40
 70
     1
102
RTVSPost2010Prop41ColorIndex
 90
       18
102
RTVSPost2010Prop41ColorRGB
 90
        0
102
RTVSPost2010PropOp41
 70
     1
102
RTVSPost2010Prop42
 90
       50
102
RTVSPost2010PropOp42
 70
     1
102
RTVSPost2010Prop43
 90
        3
102
RTVSPost2010PropOp43
 70
     1
102
RTVSPost2010Prop44ColorIndex
 90
        5
102
RTVSPost2010Prop44ColorRGB
 90
      255
102
RTVSPost2010PropOp44
 70
     1
102
RTVSPost2010Prop45
280
     0
102
RTVSPost2010PropOp45
 70
     1
102
RTVSPost2010Prop46
 90
       50
102
RTVSPost2010PropOp46
 70
     1
102
RTVSPost2010Prop47
 90
       50
102
RTVSPost2010PropOp47
 70
     1
102
RTVSPost2010Prop48
 90
       50
102
RTVSPost2010PropOp48
 70
     1
102
RTVSPost2010Prop49
280
     0
102
RTVSPost2010PropOp49
 70
     1
102
RTVSPost2010Prop50
 90
       50
102
RTVSPost2010PropOp50
 70
     1
102
RTVSPost2010Prop51ColorIndex
 90
      256
102
RTVSPost2010Prop51ColorRGB
 90
-16777216
102
RTVSPost2010PropOp51
 70
     0
102
RTVSPost2010Prop52
140
1.0
102
RTVSPost2010PropOp52
 70
     0
102
RTVSPost2010Prop53
 90
        2
102
RTVSPost2010PropOp53
 70
     1
102
RTVSPost2010Prop54
  1
strokes_ogs.tif
102
RTVSPost2010PropOp54
 70
     1
102
RTVSPost2010Prop55
280
     0
102
RTVSPost2010PropOp55
 70
     1
102
RTVSPost2010Prop56
140
1.0
102
RTVSPost2010PropOp56
 70
     1
102
RTVSPost2010Prop57
140
1.0
102
RTVSPost2010PropOp57
 70
     1
  0
XRECORD
  5
482
102
{ACAD_REACTORS
330
481
102
}
330
481
100
AcDbXrecord
280
     1
102
RTVSPost2010Prop28
280
     0
102
RTVSPost2010PropOp28
 70
     1
102
RTVSPost2010Prop29
280
     1
102
RTVSPost2010PropOp29
 70
     1
102
RTVSPost2010Prop30
280
     1
102
RTVSPost2010PropOp30
 70
     1
102
RTVSPost2010Prop31
280
     0
102
RTVSPost2010PropOp31
 70
     1
102
RTVSPost2010Prop32
280
     0
102
RTVSPost2010PropOp32
 70
     1
102
RTVSPost2010Prop33
280
     0
102
RTVSPost2010PropOp33
 70
     1
102
RTVSPost2010Prop34
280
     0
102
RTVSPost2010PropOp34
 70
     1
102
RTVSPost2010Prop35
280
     0
102
RTVSPost2010PropOp35
 70
     1
102
RTVSPost2010Prop36
280
     0
102
RTVSPost2010PropOp36
 70
     1
102
RTVSPost2010Prop37
 90
       50
102
RTVSPost2010PropOp37
 70
     1
102
RTVSPost2010Prop38
140
0.0
102
RTVSPost2010PropOp38
 70
     1
102
RTVSPost2010Prop39
140
1.0
102
RTVSPost2010PropOp39
 70
     1
102
RTVSPost2010Prop40
 90
        0
102
RTVSPost2010PropOp40
 70
     1
102
RTVSPost2010Prop41ColorIndex
 90
       18
102
RTVSPost2010Prop41ColorRGB
 90
        0
102
RTVSPost2010PropOp41
 70
     1
102
RTVSPost2010Prop42
 90
       50
102
RTVSPost2010PropOp42
 70
     1
102
RTVSPost2010Prop43
 90
        3
102
RTVSPost2010PropOp43
 70
     1
102
RTVSPost2010Prop44ColorIndex
 90
        5
102
RTVSPost2010Prop44ColorRGB
 90
      255
102
RTVSPost2010PropOp44
 70
     1
102
RTVSPost2010Prop45
280
     0
102
RTVSPost2010PropOp45
 70
     1
102
RTVSPost2010Prop46
 90
       50
102
RTVSPost2010PropOp46
 70
     1
102
RTVSPost2010Prop47
 90
       50
102
RTVSPost2010PropOp47
 70
     1
102
RTVSPost2010Prop48
 90
       50
102
RTVSPost2010PropOp48
 70
     1
102
RTVSPost2010Prop49
280
     0
102
RTVSPost2010PropOp49
 70
     1
102
RTVSPost2010Prop50
 90
       50
102
RTVSPost2010PropOp50
 70
     1
102
RTVSPost2010Prop51ColorIndex
 90
      256
102
RTVSPost2010Prop51ColorRGB
 90
-16777216
102
RTVSPost2010PropOp51
 70
     0
102
RTVSPost2010Prop52
140
1.0
102
RTVSPost2010PropOp52
 70
     0
102
RTVSPost2010Prop53
 90
        2
102
RTVSPost2010PropOp53
 70
     1
102
RTVSPost2010Prop54
  1
strokes_ogs.tif
102
RTVSPost2010PropOp54
 70
     1
102
RTVSPost2010Prop55
280
     0
102
RTVSPost2010PropOp55
 70
     1
102
RTVSPost2010Prop56
140
1.0
102
RTVSPost2010PropOp56
 70
     1
102
RTVSPost2010Prop57
140
1.0
102
RTVSPost2010PropOp57
 70
     1
  0
XRECORD
  5
484
102
{ACAD_REACTORS
330
483
102
}
330
483
100
AcDbXrecord
280
     1
102
RTVSPost2010Prop28
280
     0
102
RTVSPost2010PropOp28
 70
     1
102
RTVSPost2010Prop29
280
     1
102
RTVSPost2010PropOp29
 70
     1
102
RTVSPost2010Prop30
280
     1
102
RTVSPost2010PropOp30
 70
     1
102
RTVSPost2010Prop31
280
     0
102
RTVSPost2010PropOp31
 70
     1
102
RTVSPost2010Prop32
280
     0
102
RTVSPost2010PropOp32
 70
     1
102
RTVSPost2010Prop33
280
     0
102
RTVSPost2010PropOp33
 70
     1
102
RTVSPost2010Prop34
280
     0
102
RTVSPost2010PropOp34
 70
     1
102
RTVSPost2010Prop35
280
     0
102
RTVSPost2010PropOp35
 70
     1
102
RTVSPost2010Prop36
280
     0
102
RTVSPost2010PropOp36
 70
     1
102
RTVSPost2010Prop37
 90
       50
102
RTVSPost2010PropOp37
 70
     1
102
RTVSPost2010Prop38
140
0.0
102
RTVSPost2010PropOp38
 70
     1
102
RTVSPost2010Prop39
140
1.0
102
RTVSPost2010PropOp39
 70
     1
102
RTVSPost2010Prop40
 90
        0
102
RTVSPost2010PropOp40
 70
     1
102
RTVSPost2010Prop41ColorIndex
 90
       18
102
RTVSPost2010Prop41ColorRGB
 90
        0
102
RTVSPost2010PropOp41
 70
     1
102
RTVSPost2010Prop42
 90
       50
102
RTVSPost2010PropOp42
 70
     1
102
RTVSPost2010Prop43
 90
        3
102
RTVSPost2010PropOp43
 70
     1
102
RTVSPost2010Prop44ColorIndex
 90
        5
102
RTVSPost2010Prop44ColorRGB
 90
      255
102
RTVSPost2010PropOp44
 70
     1
102
RTVSPost2010Prop45
280
     0
102
RTVSPost2010PropOp45
 70
     1
102
RTVSPost2010Prop46
 90
       50
102
RTVSPost2010PropOp46
 70
     1
102
RTVSPost2010Prop47
 90
       50
102
RTVSPost2010PropOp47
 70
     1
102
RTVSPost2010Prop48
 90
       50
102
RTVSPost2010PropOp48
 70
     1
102
RTVSPost2010Prop49
280
     0
102
RTVSPost2010PropOp49
 70
     1
102
RTVSPost2010Prop50
 90
       50
102
RTVSPost2010PropOp50
 70
     1
102
RTVSPost2010Prop51ColorIndex
 90
      256
102
RTVSPost2010Prop51ColorRGB
 90
-16777216
102
RTVSPost2010PropOp51
 70
     0
102
RTVSPost2010Prop52
140
1.0
102
RTVSPost2010PropOp52
 70
     0
102
RTVSPost2010Prop53
 90
        2
102
RTVSPost2010PropOp53
 70
     1
102
RTVSPost2010Prop54
  1
strokes_ogs.tif
102
RTVSPost2010PropOp54
 70
     1
102
RTVSPost2010Prop55
280
     0
102
RTVSPost2010PropOp55
 70
     1
102
RTVSPost2010Prop56
140
1.0
102
RTVSPost2010PropOp56
 70
     1
102
RTVSPost2010Prop57
140
1.0
102
RTVSPost2010PropOp57
 70
     1
  0
XRECORD
  5
486
102
{ACAD_REACTORS
330
485
102
}
330
485
100
AcDbXrecord
280
     1
102
RTVSPost2010Prop28
280
     0
102
RTVSPost2010PropOp28
 70
     1
102
RTVSPost2010Prop29
280
     1
102
RTVSPost2010PropOp29
 70
     1
102
RTVSPost2010Prop30
280
     1
102
RTVSPost2010PropOp30
 70
     1
102
RTVSPost2010Prop31
280
     0
102
RTVSPost2010PropOp31
 70
     1
102
RTVSPost2010Prop32
280
     0
102
RTVSPost2010PropOp32
 70
     1
102
RTVSPost2010Prop33
280
     0
102
RTVSPost2010PropOp33
 70
     1
102
RTVSPost2010Prop34
280
     0
102
RTVSPost2010PropOp34
 70
     1
102
RTVSPost2010Prop35
280
     0
102
RTVSPost2010PropOp35
 70
     1
102
RTVSPost2010Prop36
280
     0
102
RTVSPost2010PropOp36
 70
     1
102
RTVSPost2010Prop37
 90
       50
102
RTVSPost2010PropOp37
 70
     1
102
RTVSPost2010Prop38
140
0.0
102
RTVSPost2010PropOp38
 70
     1
102
RTVSPost2010Prop39
140
1.0
102
RTVSPost2010PropOp39
 70
     1
102
RTVSPost2010Prop40
 90
        0
102
RTVSPost2010PropOp40
 70
     1
102
RTVSPost2010Prop41ColorIndex
 90
       18
102
RTVSPost2010Prop41ColorRGB
 90
        0
102
RTVSPost2010PropOp41
 70
     1
102
RTVSPost2010Prop42
 90
       50
102
RTVSPost2010PropOp42
 70
     1
102
RTVSPost2010Prop43
 90
        3
102
RTVSPost2010PropOp43
 70
     1
102
RTVSPost2010Prop44ColorIndex
 90
        5
102
RTVSPost2010Prop44ColorRGB
 90
      255
102
RTVSPost2010PropOp44
 70
     1
102
RTVSPost2010Prop45
280
     0
102
RTVSPost2010PropOp45
 70
     1
102
RTVSPost2010Prop46
 90
       50
102
RTVSPost2010PropOp46
 70
     1
102
RTVSPost2010Prop47
 90
       50
102
RTVSPost2010PropOp47
 70
     1
102
RTVSPost2010Prop48
 90
       50
102
RTVSPost2010PropOp48
 70
     1
102
RTVSPost2010Prop49
280
     0
102
RTVSPost2010PropOp49
 70
     1
102
RTVSPost2010Prop50
 90
       50
102
RTVSPost2010PropOp50
 70
     1
102
RTVSPost2010Prop51ColorIndex
 90
      256
102
RTVSPost2010Prop51ColorRGB
 90
-16777216
102
RTVSPost2010PropOp51
 70
     0
102
RTVSPost2010Prop52
140
1.0
102
RTVSPost2010PropOp52
 70
     0
102
RTVSPost2010Prop53
 90
        2
102
RTVSPost2010PropOp53
 70
     1
102
RTVSPost2010Prop54
  1
strokes_ogs.tif
102
RTVSPost2010PropOp54
 70
     1
102
RTVSPost2010Prop55
280
     0
102
RTVSPost2010PropOp55
 70
     1
102
RTVSPost2010Prop56
140
1.0
102
RTVSPost2010PropOp56
 70
     1
102
RTVSPost2010Prop57
140
1.0
102
RTVSPost2010PropOp57
 70
     1
  0
XRECORD
  5
488
102
{ACAD_REACTORS
330
487
102
}
330
487
100
AcDbXrecord
280
     1
102
RTVSPost2010Prop28
280
     0
102
RTVSPost2010PropOp28
 70
     1
102
RTVSPost2010Prop29
280
     1
102
RTVSPost2010PropOp29
 70
     1
102
RTVSPost2010Prop30
280
     1
102
RTVSPost2010PropOp30
 70
     1
102
RTVSPost2010Prop31
280
     0
102
RTVSPost2010PropOp31
 70
     1
102
RTVSPost2010Prop32
280
     0
102
RTVSPost2010PropOp32
 70
     1
102
RTVSPost2010Prop33
280
     0
102
RTVSPost2010PropOp33
 70
     1
102
RTVSPost2010Prop34
280
     0
102
RTVSPost2010PropOp34
 70
     1
102
RTVSPost2010Prop35
280
     0
102
RTVSPost2010PropOp35
 70
     1
102
RTVSPost2010Prop36
280
     0
102
RTVSPost2010PropOp36
 70
     1
102
RTVSPost2010Prop37
 90
       50
102
RTVSPost2010PropOp37
 70
     1
102
RTVSPost2010Prop38
140
0.0
102
RTVSPost2010PropOp38
 70
     1
102
RTVSPost2010Prop39
140
1.0
102
RTVSPost2010PropOp39
 70
     1
102
RTVSPost2010Prop40
 90
        0
102
RTVSPost2010PropOp40
 70
     1
102
RTVSPost2010Prop41ColorIndex
 90
       18
102
RTVSPost2010Prop41ColorRGB
 90
        0
102
RTVSPost2010PropOp41
 70
     1
102
RTVSPost2010Prop42
 90
       50
102
RTVSPost2010PropOp42
 70
     1
102
RTVSPost2010Prop43
 90
        3
102
RTVSPost2010PropOp43
 70
     1
102
RTVSPost2010Prop44ColorIndex
 90
        5
102
RTVSPost2010Prop44ColorRGB
 90
      255
102
RTVSPost2010PropOp44
 70
     1
102
RTVSPost2010Prop45
280
     0
102
RTVSPost2010PropOp45
 70
     1
102
RTVSPost2010Prop46
 90
       50
102
RTVSPost2010PropOp46
 70
     1
102
RTVSPost2010Prop47
 90
       50
102
RTVSPost2010PropOp47
 70
     1
102
RTVSPost2010Prop48
 90
       50
102
RTVSPost2010PropOp48
 70
     1
102
RTVSPost2010Prop49
280
     0
102
RTVSPost2010PropOp49
 70
     1
102
RTVSPost2010Prop50
 90
       50
102
RTVSPost2010PropOp50
 70
     1
102
RTVSPost2010Prop51ColorIndex
 90
      256
102
RTVSPost2010Prop51ColorRGB
 90
-16777216
102
RTVSPost2010PropOp51
 70
     0
102
RTVSPost2010Prop52
140
1.0
102
RTVSPost2010PropOp52
 70
     0
102
RTVSPost2010Prop53
 90
        2
102
RTVSPost2010PropOp53
 70
     1
102
RTVSPost2010Prop54
  1
strokes_ogs.tif
102
RTVSPost2010PropOp54
 70
     1
102
RTVSPost2010Prop55
280
     0
102
RTVSPost2010PropOp55
 70
     1
102
RTVSPost2010Prop56
140
1.0
102
RTVSPost2010PropOp56
 70
     1
102
RTVSPost2010Prop57
140
1.0
102
RTVSPost2010PropOp57
 70
     1
  0
XRECORD
  5
48E
102
{ACAD_REACTORS
330
48D
102
}
330
48D
100
AcDbXrecord
280
     1
102
RTVSPost2010Prop28
280
     0
102
RTVSPost2010PropOp28
 70
     1
102
RTVSPost2010Prop29
280
     1
102
RTVSPost2010PropOp29
 70
     1
102
RTVSPost2010Prop30
280
     1
102
RTVSPost2010PropOp30
 70
     1
102
RTVSPost2010Prop31
280
     0
102
RTVSPost2010PropOp31
 70
     1
102
RTVSPost2010Prop32
280
     0
102
RTVSPost2010PropOp32
 70
     1
102
RTVSPost2010Prop33
280
     0
102
RTVSPost2010PropOp33
 70
     1
102
RTVSPost2010Prop34
280
     0
102
RTVSPost2010PropOp34
 70
     1
102
RTVSPost2010Prop35
280
     0
102
RTVSPost2010PropOp35
 70
     1
102
RTVSPost2010Prop36
280
     0
102
RTVSPost2010PropOp36
 70
     1
102
RTVSPost2010Prop37
 90
       50
102
RTVSPost2010PropOp37
 70
     1
102
RTVSPost2010Prop38
140
0.0
102
RTVSPost2010PropOp38
 70
     1
102
RTVSPost2010Prop39
140
1.0
102
RTVSPost2010PropOp39
 70
     1
102
RTVSPost2010Prop40
 90
        0
102
RTVSPost2010PropOp40
 70
     1
102
RTVSPost2010Prop41ColorIndex
 90
       18
102
RTVSPost2010Prop41ColorRGB
 90
        0
102
RTVSPost2010PropOp41
 70
     1
102
RTVSPost2010Prop42
 90
       50
102
RTVSPost2010PropOp42
 70
     1
102
RTVSPost2010Prop43
 90
        3
102
RTVSPost2010PropOp43
 70
     1
102
RTVSPost2010Prop44ColorIndex
 90
        5
102
RTVSPost2010Prop44ColorRGB
 90
      255
102
RTVSPost2010PropOp44
 70
     1
102
RTVSPost2010Prop45
280
     0
102
RTVSPost2010PropOp45
 70
     1
102
RTVSPost2010Prop46
 90
       50
102
RTVSPost2010PropOp46
 70
     1
102
RTVSPost2010Prop47
 90
       50
102
RTVSPost2010PropOp47
 70
     1
102
RTVSPost2010Prop48
 90
       50
102
RTVSPost2010PropOp48
 70
     1
102
RTVSPost2010Prop49
280
     0
102
RTVSPost2010PropOp49
 70
     1
102
RTVSPost2010Prop50
 90
       50
102
RTVSPost2010PropOp50
 70
     1
102
RTVSPost2010Prop51ColorIndex
 90
      256
102
RTVSPost2010Prop51ColorRGB
 90
-16777216
102
RTVSPost2010PropOp51
 70
     0
102
RTVSPost2010Prop52
140
1.0
102
RTVSPost2010PropOp52
 70
     0
102
RTVSPost2010Prop53
 90
        2
102
RTVSPost2010PropOp53
 70
     1
102
RTVSPost2010Prop54
  1
strokes_ogs.tif
102
RTVSPost2010PropOp54
 70
     1
102
RTVSPost2010Prop55
280
     0
102
RTVSPost2010PropOp55
 70
     1
102
RTVSPost2010Prop56
140
1.0
102
RTVSPost2010PropOp56
 70
     1
102
RTVSPost2010Prop57
140
1.0
102
RTVSPost2010PropOp57
 70
     1
  0
XRECORD
  5
4A2
102
{ACAD_REACTORS
330
4A1
102
}
330
4A1
100
AcDbXrecord
280
     1
102
RTVSPost2010Prop28
280
     0
102
RTVSPost2010PropOp28
 70
     0
102
RTVSPost2010Prop29
280
     1
102
RTVSPost2010PropOp29
 70
     0
102
RTVSPost2010Prop30
280
     1
102
RTVSPost2010PropOp30
 70
     0
102
RTVSPost2010Prop31
280
     0
102
RTVSPost2010PropOp31
 70
     0
102
RTVSPost2010Prop32
280
     0
102
RTVSPost2010PropOp32
 70
     0
102
RTVSPost2010Prop33
280
     0
102
RTVSPost2010PropOp33
 70
     0
102
RTVSPost2010Prop34
280
     0
102
RTVSPost2010PropOp34
 70
     0
102
RTVSPost2010Prop35
280
     0
102
RTVSPost2010PropOp35
 70
     0
102
RTVSPost2010Prop36
280
     0
102
RTVSPost2010PropOp36
 70
     0
102
RTVSPost2010Prop37
 90
       50
102
RTVSPost2010PropOp37
 70
     0
102
RTVSPost2010Prop38
140
0.0
102
RTVSPost2010PropOp38
 70
     0
102
RTVSPost2010Prop39
140
1.0
102
RTVSPost2010PropOp39
 70
     0
102
RTVSPost2010Prop40
 90
        0
102
RTVSPost2010PropOp40
 70
     0
102
RTVSPost2010Prop41ColorIndex
 90
       18
102
RTVSPost2010Prop41ColorRGB
 90
        0
102
RTVSPost2010PropOp41
 70
     0
102
RTVSPost2010Prop42
 90
       50
102
RTVSPost2010PropOp42
 70
     0
102
RTVSPost2010Prop43
 90
        3
102
RTVSPost2010PropOp43
 70
     0
102
RTVSPost2010Prop44ColorIndex
 90
        5
102
RTVSPost2010Prop44ColorRGB
 90
      255
102
RTVSPost2010PropOp44
 70
     0
102
RTVSPost2010Prop45
280
     0
102
RTVSPost2010PropOp45
 70
     0
102
RTVSPost2010Prop46
 90
       50
102
RTVSPost2010PropOp46
 70
     0
102
RTVSPost2010Prop47
 90
       50
102
RTVSPost2010PropOp47
 70
     0
102
RTVSPost2010Prop48
 90
       50
102
RTVSPost2010PropOp48
 70
     0
102
RTVSPost2010Prop49
280
     0
102
RTVSPost2010PropOp49
 70
     0
102
RTVSPost2010Prop50
 90
       50
102
RTVSPost2010PropOp50
 70
     0
102
RTVSPost2010Prop51ColorIndex
 90
      256
102
RTVSPost2010Prop51ColorRGB
 90
-16777216
102
RTVSPost2010PropOp51
 70
     0
102
RTVSPost2010Prop52
140
1.0
102
RTVSPost2010PropOp52
 70
     0
102
RTVSPost2010Prop53
 90
        2
102
RTVSPost2010PropOp53
 70
     0
102
RTVSPost2010Prop54
  1
strokes_ogs.tif
102
RTVSPost2010PropOp54
 70
     0
102
RTVSPost2010Prop55
280
     0
102
RTVSPost2010PropOp55
 70
     0
102
RTVSPost2010Prop56
140
1.0
102
RTVSPost2010PropOp56
 70
     0
102
RTVSPost2010Prop57
140
1.0
102
RTVSPost2010PropOp57
 70
     0
  0
XRECORD
  5
49C
102
{ACAD_REACTORS
330
49B
102
}
330
49B
100
AcDbXrecord
280
     1
102
RTVSPost2010Prop28
280
     0
102
RTVSPost2010PropOp28
 70
     1
102
RTVSPost2010Prop29
280
     1
102
RTVSPost2010PropOp29
 70
     1
102
RTVSPost2010Prop30
280
     1
102
RTVSPost2010PropOp30
 70
     1
102
RTVSPost2010Prop31
280
     0
102
RTVSPost2010PropOp31
 70
     1
102
RTVSPost2010Prop32
280
     0
102
RTVSPost2010PropOp32
 70
     1
102
RTVSPost2010Prop33
280
     0
102
RTVSPost2010PropOp33
 70
     1
102
RTVSPost2010Prop34
280
     0
102
RTVSPost2010PropOp34
 70
     1
102
RTVSPost2010Prop35
280
     0
102
RTVSPost2010PropOp35
 70
     1
102
RTVSPost2010Prop36
280
     0
102
RTVSPost2010PropOp36
 70
     1
102
RTVSPost2010Prop37
 90
       50
102
RTVSPost2010PropOp37
 70
     1
102
RTVSPost2010Prop38
140
0.0
102
RTVSPost2010PropOp38
 70
     1
102
RTVSPost2010Prop39
140
1.0
102
RTVSPost2010PropOp39
 70
     1
102
RTVSPost2010Prop40
 90
        0
102
RTVSPost2010PropOp40
 70
     1
102
RTVSPost2010Prop41ColorIndex
 90
       18
102
RTVSPost2010Prop41ColorRGB
 90
        0
102
RTVSPost2010PropOp41
 70
     1
102
RTVSPost2010Prop42
 90
       50
102
RTVSPost2010PropOp42
 70
     1
102
RTVSPost2010Prop43
 90
        3
102
RTVSPost2010PropOp43
 70
     1
102
RTVSPost2010Prop44ColorIndex
 90
        5
102
RTVSPost2010Prop44ColorRGB
 90
      255
102
RTVSPost2010PropOp44
 70
     1
102
RTVSPost2010Prop45
280
     0
102
RTVSPost2010PropOp45
 70
     1
102
RTVSPost2010Prop46
 90
       50
102
RTVSPost2010PropOp46
 70
     1
102
RTVSPost2010Prop47
 90
       50
102
RTVSPost2010PropOp47
 70
     1
102
RTVSPost2010Prop48
 90
       50
102
RTVSPost2010PropOp48
 70
     1
102
RTVSPost2010Prop49
280
     0
102
RTVSPost2010PropOp49
 70
     1
102
RTVSPost2010Prop50
 90
       50
102
RTVSPost2010PropOp50
 70
     1
102
RTVSPost2010Prop51ColorIndex
 90
      256
102
RTVSPost2010Prop51ColorRGB
 90
-16777216
102
RTVSPost2010PropOp51
 70
     0
102
RTVSPost2010Prop52
140
1.0
102
RTVSPost2010PropOp52
 70
     0
102
RTVSPost2010Prop53
 90
        2
102
RTVSPost2010PropOp53
 70
     1
102
RTVSPost2010Prop54
  1
strokes_ogs.tif
102
RTVSPost2010PropOp54
 70
     1
102
RTVSPost2010Prop55
280
     0
102
RTVSPost2010PropOp55
 70
     1
102
RTVSPost2010Prop56
140
1.0
102
RTVSPost2010PropOp56
 70
     1
102
RTVSPost2010Prop57
140
1.0
102
RTVSPost2010PropOp57
 70
     1
  0
XRECORD
  5
4A4
102
{ACAD_REACTORS
330
4A3
102
}
330
4A3
100
AcDbXrecord
280
     1
102
RTVSPost2010Prop28
280
     0
102
RTVSPost2010PropOp28
 70
     0
102
RTVSPost2010Prop29
280
     1
102
RTVSPost2010PropOp29
 70
     0
102
RTVSPost2010Prop30
280
     1
102
RTVSPost2010PropOp30
 70
     0
102
RTVSPost2010Prop31
280
     0
102
RTVSPost2010PropOp31
 70
     0
102
RTVSPost2010Prop32
280
     0
102
RTVSPost2010PropOp32
 70
     0
102
RTVSPost2010Prop33
280
     0
102
RTVSPost2010PropOp33
 70
     0
102
RTVSPost2010Prop34
280
     0
102
RTVSPost2010PropOp34
 70
     0
102
RTVSPost2010Prop35
280
     0
102
RTVSPost2010PropOp35
 70
     0
102
RTVSPost2010Prop36
280
     0
102
RTVSPost2010PropOp36
 70
     0
102
RTVSPost2010Prop37
 90
       50
102
RTVSPost2010PropOp37
 70
     0
102
RTVSPost2010Prop38
140
0.0
102
RTVSPost2010PropOp38
 70
     0
102
RTVSPost2010Prop39
140
1.0
102
RTVSPost2010PropOp39
 70
     0
102
RTVSPost2010Prop40
 90
        0
102
RTVSPost2010PropOp40
 70
     0
102
RTVSPost2010Prop41ColorIndex
 90
       18
102
RTVSPost2010Prop41ColorRGB
 90
        0
102
RTVSPost2010PropOp41
 70
     0
102
RTVSPost2010Prop42
 90
       50
102
RTVSPost2010PropOp42
 70
     0
102
RTVSPost2010Prop43
 90
        3
102
RTVSPost2010PropOp43
 70
     0
102
RTVSPost2010Prop44ColorIndex
 90
        5
102
RTVSPost2010Prop44ColorRGB
 90
      255
102
RTVSPost2010PropOp44
 70
     0
102
RTVSPost2010Prop45
280
     0
102
RTVSPost2010PropOp45
 70
     0
102
RTVSPost2010Prop46
 90
       50
102
RTVSPost2010PropOp46
 70
     0
102
RTVSPost2010Prop47
 90
       50
102
RTVSPost2010PropOp47
 70
     0
102
RTVSPost2010Prop48
 90
       50
102
RTVSPost2010PropOp48
 70
     0
102
RTVSPost2010Prop49
280
     0
102
RTVSPost2010PropOp49
 70
     0
102
RTVSPost2010Prop50
 90
       50
102
RTVSPost2010PropOp50
 70
     0
102
RTVSPost2010Prop51ColorIndex
 90
      256
102
RTVSPost2010Prop51ColorRGB
 90
-16777216
102
RTVSPost2010PropOp51
 70
     0
102
RTVSPost2010Prop52
140
1.0
102
RTVSPost2010PropOp52
 70
     0
102
RTVSPost2010Prop53
 90
        2
102
RTVSPost2010PropOp53
 70
     0
102
RTVSPost2010Prop54
  1
strokes_ogs.tif
102
RTVSPost2010PropOp54
 70
     0
102
RTVSPost2010Prop55
280
     0
102
RTVSPost2010PropOp55
 70
     0
102
RTVSPost2010Prop56
140
1.0
102
RTVSPost2010PropOp56
 70
     0
102
RTVSPost2010Prop57
140
1.0
102
RTVSPost2010PropOp57
 70
     0
  0
XRECORD
  5
492
102
{ACAD_REACTORS
330
491
102
}
330
491
100
AcDbXrecord
280
     1
102
RTVSPost2010Prop28
280
     0
102
RTVSPost2010PropOp28
 70
     1
102
RTVSPost2010Prop29
280
     1
102
RTVSPost2010PropOp29
 70
     1
102
RTVSPost2010Prop30
280
     1
102
RTVSPost2010PropOp30
 70
     1
102
RTVSPost2010Prop31
280
     0
102
RTVSPost2010PropOp31
 70
     1
102
RTVSPost2010Prop32
280
     0
102
RTVSPost2010PropOp32
 70
     1
102
RTVSPost2010Prop33
280
     0
102
RTVSPost2010PropOp33
 70
     1
102
RTVSPost2010Prop34
280
     0
102
RTVSPost2010PropOp34
 70
     1
102
RTVSPost2010Prop35
280
     0
102
RTVSPost2010PropOp35
 70
     1
102
RTVSPost2010Prop36
280
     0
102
RTVSPost2010PropOp36
 70
     1
102
RTVSPost2010Prop37
 90
       50
102
RTVSPost2010PropOp37
 70
     1
102
RTVSPost2010Prop38
140
0.0
102
RTVSPost2010PropOp38
 70
     1
102
RTVSPost2010Prop39
140
1.0
102
RTVSPost2010PropOp39
 70
     1
102
RTVSPost2010Prop40
 90
        0
102
RTVSPost2010PropOp40
 70
     1
102
RTVSPost2010Prop41ColorIndex
 90
       18
102
RTVSPost2010Prop41ColorRGB
 90
        0
102
RTVSPost2010PropOp41
 70
     1
102
RTVSPost2010Prop42
 90
       50
102
RTVSPost2010PropOp42
 70
     1
102
RTVSPost2010Prop43
 90
        3
102
RTVSPost2010PropOp43
 70
     1
102
RTVSPost2010Prop44ColorIndex
 90
        5
102
RTVSPost2010Prop44ColorRGB
 90
      255
102
RTVSPost2010PropOp44
 70
     1
102
RTVSPost2010Prop45
280
     0
102
RTVSPost2010PropOp45
 70
     1
102
RTVSPost2010Prop46
 90
       50
102
RTVSPost2010PropOp46
 70
     1
102
RTVSPost2010Prop47
 90
       50
102
RTVSPost2010PropOp47
 70
     1
102
RTVSPost2010Prop48
 90
       50
102
RTVSPost2010PropOp48
 70
     1
102
RTVSPost2010Prop49
280
     0
102
RTVSPost2010PropOp49
 70
     1
102
RTVSPost2010Prop50
 90
       50
102
RTVSPost2010PropOp50
 70
     1
102
RTVSPost2010Prop51ColorIndex
 90
      256
102
RTVSPost2010Prop51ColorRGB
 90
-16777216
102
RTVSPost2010PropOp51
 70
     0
102
RTVSPost2010Prop52
140
1.0
102
RTVSPost2010PropOp52
 70
     0
102
RTVSPost2010Prop53
 90
        2
102
RTVSPost2010PropOp53
 70
     1
102
RTVSPost2010Prop54
  1
strokes_ogs.tif
102
RTVSPost2010PropOp54
 70
     1
102
RTVSPost2010Prop55
280
     0
102
RTVSPost2010PropOp55
 70
     1
102
RTVSPost2010Prop56
140
1.0
102
RTVSPost2010PropOp56
 70
     1
102
RTVSPost2010Prop57
140
1.0
102
RTVSPost2010PropOp57
 70
     1
  0
XRECORD
  5
4B0
102
{ACAD_REACTORS
330
4AF
102
}
330
4AF
100
AcDbXrecord
280
     1
102
RTVSPost2010Prop28
280
     0
102
RTVSPost2010PropOp28
 70
     1
102
RTVSPost2010Prop29
280
     1
102
RTVSPost2010PropOp29
 70
     1
102
RTVSPost2010Prop30
280
     1
102
RTVSPost2010PropOp30
 70
     1
102
RTVSPost2010Prop31
280
     0
102
RTVSPost2010PropOp31
 70
     1
102
RTVSPost2010Prop32
280
     0
102
RTVSPost2010PropOp32
 70
     1
102
RTVSPost2010Prop33
280
     0
102
RTVSPost2010PropOp33
 70
     1
102
RTVSPost2010Prop34
280
     0
102
RTVSPost2010PropOp34
 70
     1
102
RTVSPost2010Prop35
280
     0
102
RTVSPost2010PropOp35
 70
     1
102
RTVSPost2010Prop36
280
     0
102
RTVSPost2010PropOp36
 70
     1
102
RTVSPost2010Prop37
 90
       50
102
RTVSPost2010PropOp37
 70
     1
102
RTVSPost2010Prop38
140
0.0
102
RTVSPost2010PropOp38
 70
     1
102
RTVSPost2010Prop39
140
1.0
102
RTVSPost2010PropOp39
 70
     1
102
RTVSPost2010Prop40
 90
        0
102
RTVSPost2010PropOp40
 70
     1
102
RTVSPost2010Prop41ColorIndex
 90
       18
102
RTVSPost2010Prop41ColorRGB
 90
        0
102
RTVSPost2010PropOp41
 70
     1
102
RTVSPost2010Prop42
 90
       50
102
RTVSPost2010PropOp42
 70
     1
102
RTVSPost2010Prop43
 90
        3
102
RTVSPost2010PropOp43
 70
     1
102
RTVSPost2010Prop44ColorIndex
 90
        5
102
RTVSPost2010Prop44ColorRGB
 90
      255
102
RTVSPost2010PropOp44
 70
     1
102
RTVSPost2010Prop45
280
     0
102
RTVSPost2010PropOp45
 70
     1
102
RTVSPost2010Prop46
 90
       50
102
RTVSPost2010PropOp46
 70
     1
102
RTVSPost2010Prop47
 90
       50
102
RTVSPost2010PropOp47
 70
     1
102
RTVSPost2010Prop48
 90
       50
102
RTVSPost2010PropOp48
 70
     1
102
RTVSPost2010Prop49
280
     0
102
RTVSPost2010PropOp49
 70
     1
102
RTVSPost2010Prop50
 90
       50
102
RTVSPost2010PropOp50
 70
     1
102
RTVSPost2010Prop51ColorIndex
 90
      256
102
RTVSPost2010Prop51ColorRGB
 90
-16777216
102
RTVSPost2010PropOp51
 70
     0
102
RTVSPost2010Prop52
140
1.0
102
RTVSPost2010PropOp52
 70
     0
102
RTVSPost2010Prop53
 90
        2
102
RTVSPost2010PropOp53
 70
     1
102
RTVSPost2010Prop54
  1
strokes_ogs.tif
102
RTVSPost2010PropOp54
 70
     1
102
RTVSPost2010Prop55
280
     0
102
RTVSPost2010PropOp55
 70
     1
102
RTVSPost2010Prop56
140
1.0
102
RTVSPost2010PropOp56
 70
     1
102
RTVSPost2010Prop57
140
1.0
102
RTVSPost2010PropOp57
 70
     1
  0
XRECORD
  5
4AE
102
{ACAD_REACTORS
330
4AD
102
}
330
4AD
100
AcDbXrecord
280
     1
102
RTVSPost2010Prop28
280
     0
102
RTVSPost2010PropOp28
 70
     1
102
RTVSPost2010Prop29
280
     1
102
RTVSPost2010PropOp29
 70
     1
102
RTVSPost2010Prop30
280
     1
102
RTVSPost2010PropOp30
 70
     1
102
RTVSPost2010Prop31
280
     0
102
RTVSPost2010PropOp31
 70
     1
102
RTVSPost2010Prop32
280
     0
102
RTVSPost2010PropOp32
 70
     1
102
RTVSPost2010Prop33
280
     0
102
RTVSPost2010PropOp33
 70
     1
102
RTVSPost2010Prop34
280
     0
102
RTVSPost2010PropOp34
 70
     1
102
RTVSPost2010Prop35
280
     0
102
RTVSPost2010PropOp35
 70
     1
102
RTVSPost2010Prop36
280
     0
102
RTVSPost2010PropOp36
 70
     1
102
RTVSPost2010Prop37
 90
       50
102
RTVSPost2010PropOp37
 70
     1
102
RTVSPost2010Prop38
140
0.0
102
RTVSPost2010PropOp38
 70
     1
102
RTVSPost2010Prop39
140
1.0
102
RTVSPost2010PropOp39
 70
     1
102
RTVSPost2010Prop40
 90
        0
102
RTVSPost2010PropOp40
 70
     1
102
RTVSPost2010Prop41ColorIndex
 90
       18
102
RTVSPost2010Prop41ColorRGB
 90
        0
102
RTVSPost2010PropOp41
 70
     1
102
RTVSPost2010Prop42
 90
       50
102
RTVSPost2010PropOp42
 70
     1
102
RTVSPost2010Prop43
 90
        3
102
RTVSPost2010PropOp43
 70
     1
102
RTVSPost2010Prop44ColorIndex
 90
        5
102
RTVSPost2010Prop44ColorRGB
 90
      255
102
RTVSPost2010PropOp44
 70
     1
102
RTVSPost2010Prop45
280
     0
102
RTVSPost2010PropOp45
 70
     1
102
RTVSPost2010Prop46
 90
       50
102
RTVSPost2010PropOp46
 70
     1
102
RTVSPost2010Prop47
 90
       50
102
RTVSPost2010PropOp47
 70
     1
102
RTVSPost2010Prop48
 90
       50
102
RTVSPost2010PropOp48
 70
     1
102
RTVSPost2010Prop49
280
     0
102
RTVSPost2010PropOp49
 70
     1
102
RTVSPost2010Prop50
 90
       50
102
RTVSPost2010PropOp50
 70
     1
102
RTVSPost2010Prop51ColorIndex
 90
      256
102
RTVSPost2010Prop51ColorRGB
 90
-16777216
102
RTVSPost2010PropOp51
 70
     0
102
RTVSPost2010Prop52
140
1.0
102
RTVSPost2010PropOp52
 70
     0
102
RTVSPost2010Prop53
 90
        2
102
RTVSPost2010PropOp53
 70
     1
102
RTVSPost2010Prop54
  1
strokes_ogs.tif
102
RTVSPost2010PropOp54
 70
     1
102
RTVSPost2010Prop55
280
     0
102
RTVSPost2010PropOp55
 70
     1
102
RTVSPost2010Prop56
140
1.0
102
RTVSPost2010PropOp56
 70
     1
102
RTVSPost2010Prop57
140
1.0
102
RTVSPost2010PropOp57
 70
     1
  0
XRECORD
  5
4A8
102
{ACAD_REACTORS
330
4A7
102
}
330
4A7
100
AcDbXrecord
280
     1
102
RTVSPost2010Prop28
280
     0
102
RTVSPost2010PropOp28
 70
     1
102
RTVSPost2010Prop29
280
     1
102
RTVSPost2010PropOp29
 70
     1
102
RTVSPost2010Prop30
280
     1
102
RTVSPost2010PropOp30
 70
     1
102
RTVSPost2010Prop31
280
     0
102
RTVSPost2010PropOp31
 70
     1
102
RTVSPost2010Prop32
280
     0
102
RTVSPost2010PropOp32
 70
     1
102
RTVSPost2010Prop33
280
     0
102
RTVSPost2010PropOp33
 70
     1
102
RTVSPost2010Prop34
280
     0
102
RTVSPost2010PropOp34
 70
     1
102
RTVSPost2010Prop35
280
     0
102
RTVSPost2010PropOp35
 70
     1
102
RTVSPost2010Prop36
280
     0
102
RTVSPost2010PropOp36
 70
     1
102
RTVSPost2010Prop37
 90
       50
102
RTVSPost2010PropOp37
 70
     1
102
RTVSPost2010Prop38
140
0.0
102
RTVSPost2010PropOp38
 70
     1
102
RTVSPost2010Prop39
140
1.0
102
RTVSPost2010PropOp39
 70
     1
102
RTVSPost2010Prop40
 90
        0
102
RTVSPost2010PropOp40
 70
     1
102
RTVSPost2010Prop41ColorIndex
 90
       18
102
RTVSPost2010Prop41ColorRGB
 90
        0
102
RTVSPost2010PropOp41
 70
     1
102
RTVSPost2010Prop42
 90
       50
102
RTVSPost2010PropOp42
 70
     1
102
RTVSPost2010Prop43
 90
        3
102
RTVSPost2010PropOp43
 70
     1
102
RTVSPost2010Prop44ColorIndex
 90
        5
102
RTVSPost2010Prop44ColorRGB
 90
      255
102
RTVSPost2010PropOp44
 70
     1
102
RTVSPost2010Prop45
280
     0
102
RTVSPost2010PropOp45
 70
     1
102
RTVSPost2010Prop46
 90
       50
102
RTVSPost2010PropOp46
 70
     1
102
RTVSPost2010Prop47
 90
       50
102
RTVSPost2010PropOp47
 70
     1
102
RTVSPost2010Prop48
 90
       50
102
RTVSPost2010PropOp48
 70
     1
102
RTVSPost2010Prop49
280
     0
102
RTVSPost2010PropOp49
 70
     1
102
RTVSPost2010Prop50
 90
       50
102
RTVSPost2010PropOp50
 70
     1
102
RTVSPost2010Prop51ColorIndex
 90
      256
102
RTVSPost2010Prop51ColorRGB
 90
-16777216
102
RTVSPost2010PropOp51
 70
     0
102
RTVSPost2010Prop52
140
1.0
102
RTVSPost2010PropOp52
 70
     0
102
RTVSPost2010Prop53
 90
        2
102
RTVSPost2010PropOp53
 70
     1
102
RTVSPost2010Prop54
  1
strokes_ogs.tif
102
RTVSPost2010PropOp54
 70
     1
102
RTVSPost2010Prop55
280
     0
102
RTVSPost2010PropOp55
 70
     1
102
RTVSPost2010Prop56
140
1.0
102
RTVSPost2010PropOp56
 70
     1
102
RTVSPost2010Prop57
140
1.0
102
RTVSPost2010PropOp57
 70
     1
  0
XRECORD
  5
4AA
102
{ACAD_REACTORS
330
4A9
102
}
330
4A9
100
AcDbXrecord
280
     1
102
RTVSPost2010Prop28
280
     0
102
RTVSPost2010PropOp28
 70
     1
102
RTVSPost2010Prop29
280
     1
102
RTVSPost2010PropOp29
 70
     1
102
RTVSPost2010Prop30
280
     1
102
RTVSPost2010PropOp30
 70
     1
102
RTVSPost2010Prop31
280
     0
102
RTVSPost2010PropOp31
 70
     1
102
RTVSPost2010Prop32
280
     0
102
RTVSPost2010PropOp32
 70
     1
102
RTVSPost2010Prop33
280
     0
102
RTVSPost2010PropOp33
 70
     1
102
RTVSPost2010Prop34
280
     0
102
RTVSPost2010PropOp34
 70
     1
102
RTVSPost2010Prop35
280
     0
102
RTVSPost2010PropOp35
 70
     1
102
RTVSPost2010Prop36
280
     0
102
RTVSPost2010PropOp36
 70
     1
102
RTVSPost2010Prop37
 90
       50
102
RTVSPost2010PropOp37
 70
     1
102
RTVSPost2010Prop38
140
0.0
102
RTVSPost2010PropOp38
 70
     1
102
RTVSPost2010Prop39
140
1.0
102
RTVSPost2010PropOp39
 70
     1
102
RTVSPost2010Prop40
 90
        0
102
RTVSPost2010PropOp40
 70
     1
102
RTVSPost2010Prop41ColorIndex
 90
       18
102
RTVSPost2010Prop41ColorRGB
 90
        0
102
RTVSPost2010PropOp41
 70
     1
102
RTVSPost2010Prop42
 90
       50
102
RTVSPost2010PropOp42
 70
     1
102
RTVSPost2010Prop43
 90
        3
102
RTVSPost2010PropOp43
 70
     1
102
RTVSPost2010Prop44ColorIndex
 90
        5
102
RTVSPost2010Prop44ColorRGB
 90
      255
102
RTVSPost2010PropOp44
 70
     1
102
RTVSPost2010Prop45
280
     0
102
RTVSPost2010PropOp45
 70
     1
102
RTVSPost2010Prop46
 90
       50
102
RTVSPost2010PropOp46
 70
     1
102
RTVSPost2010Prop47
 90
       50
102
RTVSPost2010PropOp47
 70
     1
102
RTVSPost2010Prop48
 90
       50
102
RTVSPost2010PropOp48
 70
     1
102
RTVSPost2010Prop49
280
     0
102
RTVSPost2010PropOp49
 70
     1
102
RTVSPost2010Prop50
 90
       50
102
RTVSPost2010PropOp50
 70
     1
102
RTVSPost2010Prop51ColorIndex
 90
      256
102
RTVSPost2010Prop51ColorRGB
 90
-16777216
102
RTVSPost2010PropOp51
 70
     0
102
RTVSPost2010Prop52
140
1.0
102
RTVSPost2010PropOp52
 70
     0
102
RTVSPost2010Prop53
 90
        2
102
RTVSPost2010PropOp53
 70
     1
102
RTVSPost2010Prop54
  1
strokes_ogs.tif
102
RTVSPost2010PropOp54
 70
     1
102
RTVSPost2010Prop55
280
     0
102
RTVSPost2010PropOp55
 70
     1
102
RTVSPost2010Prop56
140
1.0
102
RTVSPost2010PropOp56
 70
     1
102
RTVSPost2010Prop57
140
1.0
102
RTVSPost2010PropOp57
 70
     1
  0
XRECORD
  5
49A
102
{ACAD_REACTORS
330
499
102
}
330
499
100
AcDbXrecord
280
     1
102
RTVSPost2010Prop28
280
     0
102
RTVSPost2010PropOp28
 70
     1
102
RTVSPost2010Prop29
280
     1
102
RTVSPost2010PropOp29
 70
     1
102
RTVSPost2010Prop30
280
     1
102
RTVSPost2010PropOp30
 70
     1
102
RTVSPost2010Prop31
280
     0
102
RTVSPost2010PropOp31
 70
     1
102
RTVSPost2010Prop32
280
     0
102
RTVSPost2010PropOp32
 70
     1
102
RTVSPost2010Prop33
280
     0
102
RTVSPost2010PropOp33
 70
     1
102
RTVSPost2010Prop34
280
     0
102
RTVSPost2010PropOp34
 70
     1
102
RTVSPost2010Prop35
280
     0
102
RTVSPost2010PropOp35
 70
     1
102
RTVSPost2010Prop36
280
     0
102
RTVSPost2010PropOp36
 70
     1
102
RTVSPost2010Prop37
 90
       50
102
RTVSPost2010PropOp37
 70
     1
102
RTVSPost2010Prop38
140
0.0
102
RTVSPost2010PropOp38
 70
     1
102
RTVSPost2010Prop39
140
1.0
102
RTVSPost2010PropOp39
 70
     1
102
RTVSPost2010Prop40
 90
        0
102
RTVSPost2010PropOp40
 70
     1
102
RTVSPost2010Prop41ColorIndex
 90
       18
102
RTVSPost2010Prop41ColorRGB
 90
        0
102
RTVSPost2010PropOp41
 70
     1
102
RTVSPost2010Prop42
 90
       50
102
RTVSPost2010PropOp42
 70
     1
102
RTVSPost2010Prop43
 90
        3
102
RTVSPost2010PropOp43
 70
     1
102
RTVSPost2010Prop44ColorIndex
 90
        5
102
RTVSPost2010Prop44ColorRGB
 90
      255
102
RTVSPost2010PropOp44
 70
     1
102
RTVSPost2010Prop45
280
     0
102
RTVSPost2010PropOp45
 70
     1
102
RTVSPost2010Prop46
 90
       50
102
RTVSPost2010PropOp46
 70
     1
102
RTVSPost2010Prop47
 90
       50
102
RTVSPost2010PropOp47
 70
     1
102
RTVSPost2010Prop48
 90
       50
102
RTVSPost2010PropOp48
 70
     1
102
RTVSPost2010Prop49
280
     0
102
RTVSPost2010PropOp49
 70
     1
102
RTVSPost2010Prop50
 90
       50
102
RTVSPost2010PropOp50
 70
     1
102
RTVSPost2010Prop51ColorIndex
 90
      256
102
RTVSPost2010Prop51ColorRGB
 90
-16777216
102
RTVSPost2010PropOp51
 70
     0
102
RTVSPost2010Prop52
140
1.0
102
RTVSPost2010PropOp52
 70
     0
102
RTVSPost2010Prop53
 90
        2
102
RTVSPost2010PropOp53
 70
     1
102
RTVSPost2010Prop54
  1
strokes_ogs.tif
102
RTVSPost2010PropOp54
 70
     1
102
RTVSPost2010Prop55
280
     0
102
RTVSPost2010PropOp55
 70
     1
102
RTVSPost2010Prop56
140
1.0
102
RTVSPost2010PropOp56
 70
     1
102
RTVSPost2010Prop57
140
1.0
102
RTVSPost2010PropOp57
 70
     1
  0
XRECORD
  5
48C
102
{ACAD_REACTORS
330
48B
102
}
330
48B
100
AcDbXrecord
280
     1
102
RTVSPost2010Prop28
280
     0
102
RTVSPost2010PropOp28
 70
     1
102
RTVSPost2010Prop29
280
     1
102
RTVSPost2010PropOp29
 70
     1
102
RTVSPost2010Prop30
280
     1
102
RTVSPost2010PropOp30
 70
     1
102
RTVSPost2010Prop31
280
     0
102
RTVSPost2010PropOp31
 70
     1
102
RTVSPost2010Prop32
280
     0
102
RTVSPost2010PropOp32
 70
     1
102
RTVSPost2010Prop33
280
     0
102
RTVSPost2010PropOp33
 70
     1
102
RTVSPost2010Prop34
280
     0
102
RTVSPost2010PropOp34
 70
     1
102
RTVSPost2010Prop35
280
     0
102
RTVSPost2010PropOp35
 70
     1
102
RTVSPost2010Prop36
280
     0
102
RTVSPost2010PropOp36
 70
     1
102
RTVSPost2010Prop37
 90
       50
102
RTVSPost2010PropOp37
 70
     1
102
RTVSPost2010Prop38
140
0.0
102
RTVSPost2010PropOp38
 70
     1
102
RTVSPost2010Prop39
140
1.0
102
RTVSPost2010PropOp39
 70
     1
102
RTVSPost2010Prop40
 90
        0
102
RTVSPost2010PropOp40
 70
     1
102
RTVSPost2010Prop41ColorIndex
 90
       18
102
RTVSPost2010Prop41ColorRGB
 90
        0
102
RTVSPost2010PropOp41
 70
     1
102
RTVSPost2010Prop42
 90
       50
102
RTVSPost2010PropOp42
 70
     1
102
RTVSPost2010Prop43
 90
        3
102
RTVSPost2010PropOp43
 70
     1
102
RTVSPost2010Prop44ColorIndex
 90
        5
102
RTVSPost2010Prop44ColorRGB
 90
      255
102
RTVSPost2010PropOp44
 70
     1
102
RTVSPost2010Prop45
280
     0
102
RTVSPost2010PropOp45
 70
     1
102
RTVSPost2010Prop46
 90
       50
102
RTVSPost2010PropOp46
 70
     1
102
RTVSPost2010Prop47
 90
       50
102
RTVSPost2010PropOp47
 70
     1
102
RTVSPost2010Prop48
 90
       50
102
RTVSPost2010PropOp48
 70
     1
102
RTVSPost2010Prop49
280
     0
102
RTVSPost2010PropOp49
 70
     1
102
RTVSPost2010Prop50
 90
       50
102
RTVSPost2010PropOp50
 70
     1
102
RTVSPost2010Prop51ColorIndex
 90
      256
102
RTVSPost2010Prop51ColorRGB
 90
-16777216
102
RTVSPost2010PropOp51
 70
     0
102
RTVSPost2010Prop52
140
1.0
102
RTVSPost2010PropOp52
 70
     0
102
RTVSPost2010Prop53
 90
        2
102
RTVSPost2010PropOp53
 70
     1
102
RTVSPost2010Prop54
  1
strokes_ogs.tif
102
RTVSPost2010PropOp54
 70
     1
102
RTVSPost2010Prop55
280
     0
102
RTVSPost2010PropOp55
 70
     1
102
RTVSPost2010Prop56
140
1.0
102
RTVSPost2010PropOp56
 70
     1
102
RTVSPost2010Prop57
140
1.0
102
RTVSPost2010PropOp57
 70
     1
  0
XRECORD
  5
4AC
102
{ACAD_REACTORS
330
4AB
102
}
330
4AB
100
AcDbXrecord
280
     1
102
RTVSPost2010Prop28
280
     0
102
RTVSPost2010PropOp28
 70
     1
102
RTVSPost2010Prop29
280
     1
102
RTVSPost2010PropOp29
 70
     1
102
RTVSPost2010Prop30
280
     1
102
RTVSPost2010PropOp30
 70
     1
102
RTVSPost2010Prop31
280
     0
102
RTVSPost2010PropOp31
 70
     1
102
RTVSPost2010Prop32
280
     0
102
RTVSPost2010PropOp32
 70
     1
102
RTVSPost2010Prop33
280
     0
102
RTVSPost2010PropOp33
 70
     1
102
RTVSPost2010Prop34
280
     0
102
RTVSPost2010PropOp34
 70
     1
102
RTVSPost2010Prop35
280
     0
102
RTVSPost2010PropOp35
 70
     1
102
RTVSPost2010Prop36
280
     0
102
RTVSPost2010PropOp36
 70
     1
102
RTVSPost2010Prop37
 90
       50
102
RTVSPost2010PropOp37
 70
     1
102
RTVSPost2010Prop38
140
0.0
102
RTVSPost2010PropOp38
 70
     1
102
RTVSPost2010Prop39
140
1.0
102
RTVSPost2010PropOp39
 70
     1
102
RTVSPost2010Prop40
 90
        0
102
RTVSPost2010PropOp40
 70
     1
102
RTVSPost2010Prop41ColorIndex
 90
       18
102
RTVSPost2010Prop41ColorRGB
 90
        0
102
RTVSPost2010PropOp41
 70
     1
102
RTVSPost2010Prop42
 90
       50
102
RTVSPost2010PropOp42
 70
     1
102
RTVSPost2010Prop43
 90
        3
102
RTVSPost2010PropOp43
 70
     1
102
RTVSPost2010Prop44ColorIndex
 90
        5
102
RTVSPost2010Prop44ColorRGB
 90
      255
102
RTVSPost2010PropOp44
 70
     1
102
RTVSPost2010Prop45
280
     0
102
RTVSPost2010PropOp45
 70
     1
102
RTVSPost2010Prop46
 90
       50
102
RTVSPost2010PropOp46
 70
     1
102
RTVSPost2010Prop47
 90
       50
102
RTVSPost2010PropOp47
 70
     1
102
RTVSPost2010Prop48
 90
       50
102
RTVSPost2010PropOp48
 70
     1
102
RTVSPost2010Prop49
280
     0
102
RTVSPost2010PropOp49
 70
     1
102
RTVSPost2010Prop50
 90
       50
102
RTVSPost2010PropOp50
 70
     1
102
RTVSPost2010Prop51ColorIndex
 90
      256
102
RTVSPost2010Prop51ColorRGB
 90
-16777216
102
RTVSPost2010PropOp51
 70
     0
102
RTVSPost2010Prop52
140
1.0
102
RTVSPost2010PropOp52
 70
     0
102
RTVSPost2010Prop53
 90
        2
102
RTVSPost2010PropOp53
 70
     1
102
RTVSPost2010Prop54
  1
strokes_ogs.tif
102
RTVSPost2010PropOp54
 70
     1
102
RTVSPost2010Prop55
280
     0
102
RTVSPost2010PropOp55
 70
     1
102
RTVSPost2010Prop56
140
1.0
102
RTVSPost2010PropOp56
 70
     1
102
RTVSPost2010Prop57
140
1.0
102
RTVSPost2010PropOp57
 70
     1
  0
ENDSEC
  0
EOF
