  0
SECTION
  2
HEADER
  9
$ACADVER
  1
AC1027
  9
$ACADMAINTVER
 70
     8
  9
$DWGCODEPAGE
  3
ANSI_1252
  9
$REQUIREDVERSIONS
160
                 0
  9
$INSBASE
 10
0.0
 20
0.0
 30
0.0
  9
$EXTMIN
 10
0.0
 20
0.0
 30
0.0
  9
$EXTMAX
 10
594.0
 20
420.0
 30
0.0
  9
$LIMMIN
 10
0.0
 20
0.0
  9
$LIMMAX
 10
594.0
 20
420.0
  9
$ORTHOMODE
 70
     0
  9
$REGENMODE
 70
     1
  9
$FILLMODE
 70
     1
  9
$QTEXTMODE
 70
     0
  9
$MIRRTEXT
 70
     1
  9
$LTSCALE
 40
32.67
  9
$ATTMODE
 70
     1
  9
$TEXTSIZE
 40
0.2
  9
$TRACEWID
 40
0.05
  9
$TEXTSTYLE
  7
STANDARD
  9
$CLAYER
  8
0
  9
$CELTYPE
  6
BYLAYER
  9
$CECOLOR
 62
   256
  9
$CELTSCALE
 40
1.0
  9
$DISPSILH
 70
     0
  9
$DIMSCALE
 40
1.0
  9
$DIMASZ
 40
2.5
  9
$DIMEXO
 40
0.75
  9
$DIMDLI
 40
22.572
  9
$DIMRND
 40
0.0
  9
$DIMDLE
 40
0.0
  9
$DIMEXE
 40
0.75
  9
$DIMTP
 40
0.01
  9
$DIMTM
 40
0.01
  9
$DIMTXT
 40
3.0
  9
$DIMCEN
 40
5.346
  9
$DIMTSZ
 40
0.0
  9
$DIMTOL
 70
     1
  9
$DIMLIM
 70
     0
  9
$DIMTIH
 70
     1
  9
$DIMTOH
 70
     1
  9
$DIMSE1
 70
     0
  9
$DIMSE2
 70
     0
  9
$DIMTAD
 70
     0
  9
$DIMZIN
 70
     0
  9
$DIMBLK
  1
CLOSED
  9
$DIMASO
 70
     1
  9
$DIMSHO
 70
     1
  9
$DIMPOST
  1

  9
$DIMAPOST
  1

  9
$DIMALT
 70
     0
  9
$DIMALTD
 70
     2
  9
$DIMALTF
 40
25.4
  9
$DIMLFAC
 40
1.0
  9
$DIMTOFL
 70
     0
  9
$DIMTVP
 40
0.0
  9
$DIMTIX
 70
     0
  9
$DIMSOXD
 70
     0
  9
$DIMSAH
 70
     0
  9
$DIMBLK1
  1

  9
$DIMBLK2
  1

  9
$DIMSTYLE
  2
STANDARD
  9
$DIMCLRD
 70
     0
  9
$DIMCLRE
 70
     0
  9
$DIMCLRT
 70
     0
  9
$DIMTFAC
 40
1.0
  9
$DIMGAP
 40
0.625
  9
$DIMJUST
 70
     0
  9
$DIMSD1
 70
     0
  9
$DIMSD2
 70
     0
  9
$DIMTOLJ
 70
     1
  9
$DIMTZIN
 70
     0
  9
$DIMALTZ
 70
     0
  9
$DIMALTTZ
 70
     0
  9
$DIMUPT
 70
     0
  9
$DIMDEC
 70
     4
  9
$DIMTDEC
 70
     4
  9
$DIMALTU
 70
     2
  9
$DIMALTTD
 70
     2
  9
$DIMTXSTY
  7
STANDARD
  9
$DIMAUNIT
 70
     0
  9
$DIMADEC
 70
     0
  9
$DIMALTRND
 40
0.0
  9
$DIMAZIN
 70
     0
  9
$DIMDSEP
 70
    44
  9
$DIMATFIT
 70
     3
  9
$DIMFRAC
 70
     0
  9
$DIMLDRBLK
  1

  9
$DIMLUNIT
 70
     2
  9
$DIMLWD
 70
    -2
  9
$DIMLWE
 70
    -2
  9
$DIMTMOVE
 70
     0
  9
$DIMFXL
 40
1.0
  9
$DIMFXLON
 70
     0
  9
$DIMJOGANG
 40
0.785398
  9
$DIMTFILL
 70
     0
  9
$DIMTFILLCLR
 70
     0
  9
$DIMARCSYM
 70
     0
  9
$DIMLTYPE
  6

  9
$DIMLTEX1
  6

  9
$DIMLTEX2
  6

  9
$DIMTXTDIRECTION
 70
     0
  9
$LUNITS
 70
     2
  9
$LUPREC
 70
     4
  9
$SKETCHINC
 40
0.1
  9
$FILLETRAD
 40
0.5
  9
$AUNITS
 70
     0
  9
$AUPREC
 70
     0
  9
$MENU
  1
.
  9
$ELEVATION
 40
0.0
  9
$PELEVATION
 40
0.0
  9
$THICKNESS
 40
0.0
  9
$LIMCHECK
 70
     0
  9
$CHAMFERA
 40
0.0
  9
$CHAMFERB
 40
0.0
  9
$CHAMFERC
 40
0.0
  9
$CHAMFERD
 40
0.0
  9
$SKPOLY
 70
     0
  9
$TDCREATE
 40
2447893.041666667
  9
$TDUCREATE
 40
0.0
  9
$TDUPDATE
 40
2458864.414380451
  9
$TDUUPDATE
 40
2458864.372713785
  9
$TDINDWG
 40
0.0
  9
$TDUSRTIMER
 40
0.0
  9
$USRTIMER
 70
     1
  9
$ANGBASE
 50
0.0
  9
$ANGDIR
 70
     0
  9
$PDMODE
 70
     3
  9
$PDSIZE
 40
0.3125
  9
$PLINEWID
 40
0.0
  9
$SPLFRAME
 70
     0
  9
$SPLINETYPE
 70
     6
  9
$SPLINESEGS
 70
     8
  9
$HANDSEED
  5
55F
  9
$SURFTAB1
 70
     6
  9
$SURFTAB2
 70
     6
  9
$SURFTYPE
 70
     6
  9
$SURFU
 70
     6
  9
$SURFV
 70
     6
  9
$UCSBASE
  2

  9
$UCSNAME
  2

  9
$UCSORG
 10
0.0
 20
0.0
 30
0.0
  9
$UCSXDIR
 10
1.0
 20
0.0
 30
0.0
  9
$UCSYDIR
 10
0.0
 20
1.0
 30
0.0
  9
$UCSORTHOREF
  2

  9
$UCSORTHOVIEW
 70
     0
  9
$UCSORGTOP
 10
0.0
 20
0.0
 30
0.0
  9
$UCSORGBOTTOM
 10
0.0
 20
0.0
 30
0.0
  9
$UCSORGLEFT
 10
0.0
 20
0.0
 30
0.0
  9
$UCSORGRIGHT
 10
0.0
 20
0.0
 30
0.0
  9
$UCSORGFRONT
 10
0.0
 20
0.0
 30
0.0
  9
$UCSORGBACK
 10
0.0
 20
0.0
 30
0.0
  9
$PUCSBASE
  2

  9
$PUCSNAME
  2

  9
$PUCSORG
 10
0.0
 20
0.0
 30
0.0
  9
$PUCSXDIR
 10
1.0
 20
0.0
 30
0.0
  9
$PUCSYDIR
 10
0.0
 20
1.0
 30
0.0
  9
$PUCSORTHOREF
  2

  9
$PUCSORTHOVIEW
 70
     0
  9
$PUCSORGTOP
 10
0.0
 20
0.0
 30
0.0
  9
$PUCSORGBOTTOM
 10
0.0
 20
0.0
 30
0.0
  9
$PUCSORGLEFT
 10
0.0
 20
0.0
 30
0.0
  9
$PUCSORGRIGHT
 10
0.0
 20
0.0
 30
0.0
  9
$PUCSORGFRONT
 10
0.0
 20
0.0
 30
0.0
  9
$PUCSORGBACK
 10
0.0
 20
0.0
 30
0.0
  9
$USERI1
 70
     0
  9
$USERI2
 70
     0
  9
$USERI3
 70
     0
  9
$USERI4
 70
     0
  9
$USERI5
 70
     0
  9
$USERR1
 40
0.0
  9
$USERR2
 40
0.0
  9
$USERR3
 40
0.0
  9
$USERR4
 40
0.0
  9
$USERR5
 40
0.0
  9
$WORLDVIEW
 70
     1
  9
$SHADEDGE
 70
     3
  9
$SHADEDIF
 70
    70
  9
$TILEMODE
 70
     1
  9
$MAXACTVP
 70
    64
  9
$PINSBASE
 10
0.0
 20
0.0
 30
0.0
  9
$PLIMCHECK
 70
     0
  9
$PEXTMIN
 10
1.000000E+20
 20
1.000000E+20
 30
1.000000E+20
  9
$PEXTMAX
 10
-1.000000E+20
 20
-1.000000E+20
 30
-1.000000E+20
  9
$PLIMMIN
 10
0.0
 20
0.0
  9
$PLIMMAX
 10
12.0
 20
9.0
  9
$UNITMODE
 70
     0
  9
$VISRETAIN
 70
     1
  9
$PLINEGEN
 70
     0
  9
$PSLTSCALE
 70
     0
  9
$TREEDEPTH
 70
  3020
  9
$CMLSTYLE
  2

  9
$CMLJUST
 70
     0
  9
$CMLSCALE
 40
1.0
  9
$PROXYGRAPHICS
 70
     1
  9
$MEASUREMENT
 70
     1
  9
$CELWEIGHT
370
    -1
  9
$ENDCAPS
280
     0
  9
$JOINSTYLE
280
     0
  9
$LWDISPLAY
290
     0
  9
$INSUNITS
 70
     4
  9
$HYPERLINKBASE
  1

  9
$STYLESHEET
  1

  9
$XEDIT
290
     1
  9
$CEPSNTYPE
380
     0
  9
$PSTYLEMODE
290
     1
  9
$FINGERPRINTGUID
  2
{04A543A2-69FF-4CC3-AA08-D82EF0EE82FA}
  9
$VERSIONGUID
  2
{FAEB1C32-E019-11D5-929B-00C0DF256EC4}
  9
$EXTNAMES
290
     1
  9
$PSVPSCALE
 40
0.0
  9
$OLESTARTUP
290
     0
  9
$SORTENTS
280
   127
  9
$INDEXCTL
280
     0
  9
$HIDETEXT
280
     1
  9
$XCLIPFRAME
280
     2
  9
$HALOGAP
280
     0
  9
$OBSCOLOR
 70
   257
  9
$OBSLTYPE
280
     0
  9
$INTERSECTIONDISPLAY
280
     0
  9
$INTERSECTIONCOLOR
 70
   257
  9
$DIMASSOC
280
     2
  9
$PROJECTNAME
  1

  9
$CAMERADISPLAY
290
     0
  9
$LENSLENGTH
 40
50.0
  9
$CAMERAHEIGHT
 40
0.0
  9
$STEPSPERSEC
 40
2.0
  9
$STEPSIZE
 40
6.0
  9
$3DDWFPREC
 40
2.0
  9
$PSOLWIDTH
 40
0.25
  9
$PSOLHEIGHT
 40
4.0
  9
$LOFTANG1
 40
1.570796
  9
$LOFTANG2
 40
1.570796
  9
$LOFTMAG1
 40
0.0
  9
$LOFTMAG2
 40
0.0
  9
$LOFTPARAM
 70
     7
  9
$LOFTNORMALS
280
     1
  9
$LATITUDE
 40
37.795
  9
$LONGITUDE
 40
-122.394
  9
$NORTHDIRECTION
 40
0.0
  9
$TIMEZONE
 70
 -8000
  9
$LIGHTGLYPHDISPLAY
280
     1
  9
$TILEMODELIGHTSYNCH
280
     1
  9
$SOLIDHIST
280
     1
  9
$SHOWHIST
280
     1
  9
$DWFFRAME
280
     2
  9
$DGNFRAME
280
     2
  9
$REALWORLDSCALE
290
     1
  9
$INTERFERECOLOR
 62
   256
  9
$CSHADOW
280
     0
  9
$SHADOWPLANELOCATION
 40
0.0
  0
ENDSEC
  0
SECTION
  2
CLASSES
  0
CLASS
  1
ACDBDICTIONARYWDFLT
  2
AcDbDictionaryWithDefault
  3
ObjectDBX Classes
 90
        0
 91
        6
280
     0
281
     0
  0
CLASS
  1
ACDBPLACEHOLDER
  2
AcDbPlaceHolder
  3
ObjectDBX Classes
 90
        0
 91
        1
280
     0
281
     0
  0
CLASS
  1
LAYOUT
  2
AcDbLayout
  3
ObjectDBX Classes
 90
        0
 91
        1
280
     0
281
     0
  0
CLASS
  1
TABLESTYLE
  2
AcDbTableStyle
  3
ObjectDBX Classes
 90
     4095
 91
        5
280
     0
281
     0
  0
CLASS
  1
ACAD_TABLE
  2
AcDbTable
  3
ObjectDBX Classes
 90
     1025
 91
        5
280
     0
281
     1
  0
CLASS
  1
SCALE
  2
AcDbScale
  3
ObjectDBX Classes
 90
     1153
 91
        5
280
     0
281
     0
  0
CLASS
  1
TABLEGEOMETRY
  2
AcDbTableGeometry
  3
ObjectDBX Classes
 90
     1152
 91
        4
280
     0
281
     0
  0
CLASS
  1
VISUALSTYLE
  2
AcDbVisualStyle
  3
ObjectDBX Classes
 90
     4095
 91
        5
280
     0
281
     0
  0
CLASS
  1
MATERIAL
  2
AcDbMaterial
  3
ObjectDBX Classes
 90
     1153
 91
        5
280
     0
281
     0
  0
CLASS
  1
SUN
  2
AcDbSun
  3
SCENEOE
 90
     1153
 91
        5
280
     0
281
     0
  0
CLASS
  1
CSACDOCUMENTOPTIONS
  2
CDocDataContainer
  3
"DERU003_CSAPP"
 90
     4095
 91
        4
280
     0
281
     0
  0
CLASS
  1
TABLECONTENT
  2
AcDbTableContent
  3
ObjectDBX Classes
 90
     1152
 91
        4
280
     0
281
     0
  0
CLASS
  1
DICTIONARYVAR
  2
AcDbDictionaryVar
  3
ObjectDBX Classes
 90
        0
 91
        4
280
     0
281
     0
  0
CLASS
  1
CELLSTYLEMAP
  2
AcDbCellStyleMap
  3
ObjectDBX Classes
 90
     1152
 91
        4
280
     0
281
     0
  0
ENDSEC
  0
SECTION
  2
TABLES
  0
TABLE
  2
VPORT
  5
8
330
0
100
AcDbSymbolTable
 70
     1
  0
VPORT
  5
1F4
330
8
100
AcDbSymbolTableRecord
100
AcDbViewportTableRecord
  2
*ACTIVE
 70
     0
 10
0.0
 20
0.0
 11
1.0
 21
1.0
 12
297.0
 22
210.0
 13
0.0
 23
0.0
 14
1.0
 24
1.0
 15
0.0
 25
0.0
 16
0.0
 26
0.0
 36
1.0
 17
0.0
 27
0.0
 37
0.0
 40
420.0
 41
2.107285
 42
50.0
 43
0.0
 44
0.0
 50
0.0
 51
0.0
 71
    16
 72
   100
 73
     1
 74
     1
 75
     0
 76
     0
 77
     0
 78
     0
281
     0
 65
     1
110
0.0
120
0.0
130
0.0
111
1.0
121
0.0
131
0.0
112
0.0
122
1.0
132
0.0
 79
     0
146
0.0
 60
     3
 61
     5
292
     1
282
     1
141
0.0
142
0.0
 63
   256
361
54A
  0
ENDTAB
  0
TABLE
  2
LTYPE
  5
5
330
0
100
AcDbSymbolTable
 70
     6
  0
LTYPE
  5
14
330
5
100
AcDbSymbolTableRecord
100
AcDbLinetypeTableRecord
  2
BYBLOCK
 70
     0
  3

 72
    65
 73
     0
 40
0.0
  0
LTYPE
  5
15
330
5
100
AcDbSymbolTableRecord
100
AcDbLinetypeTableRecord
  2
BYLAYER
 70
     0
  3

 72
    65
 73
     0
 40
0.0
  0
LTYPE
  5
16
330
5
100
AcDbSymbolTableRecord
100
AcDbLinetypeTableRecord
  2
CONTINUOUS
 70
     0
  3
Solid line
 72
    65
 73
     0
 40
0.0
  0
LTYPE
  5
1F5
330
5
100
AcDbSymbolTableRecord
100
AcDbLinetypeTableRecord
  2
CENTER
 70
     0
  3
____ _ ____ _ ____ _ ____ _ ____ _ ____ _ ____
 72
    65
 73
     4
 40
0.6
 49
0.375
 74
     0
 49
-0.075
 74
     0
 49
0.075
 74
     0
 49
-0.075
 74
     0
  0
LTYPE
  5
1F6
330
5
100
AcDbSymbolTableRecord
100
AcDbLinetypeTableRecord
  2
HIDDEN
 70
     0
  3
- - - - - - - - - - - - - - - - - - - -
 72
    65
 73
     2
 40
0.2
 49
0.1
 74
     0
 49
-0.1
 74
     0
  0
LTYPE
  5
1F7
330
5
100
AcDbSymbolTableRecord
100
AcDbLinetypeTableRecord
  2
PHANTOM
 70
     0
  3
_____ _ _ _____ _ _ _____ _ _ _____
 72
    65
 73
     6
 40
0.8
 49
0.45
 74
     0
 49
-0.05
 74
     0
 49
0.1
 74
     0
 49
-0.05
 74
     0
 49
0.1
 74
     0
 49
-0.05
 74
     0
  0
LTYPE
  5
1F8
330
5
100
AcDbSymbolTableRecord
100
AcDbLinetypeTableRecord
  2
DOT
 70
     0
  3
. . . . . . . . . . . . . . . . . . . .
 72
    65
 73
     2
 40
0.2
 49
0.1
 74
     0
 49
-0.1
 74
     0
  0
LTYPE
  5
1F9
330
5
100
AcDbSymbolTableRecord
100
AcDbLinetypeTableRecord
  2
DASHED
 70
     0
  3
- - - - - - - - - - - - - - - - - - - -
 72
    65
 73
     2
 40
0.2
 49
0.1
 74
     0
 49
-0.1
 74
     0
  0
ENDTAB
  0
TABLE
  2
LAYER
  5
2
330
0
100
AcDbSymbolTable
 70
    13
  0
LAYER
  5
10
330
2
100
AcDbSymbolTableRecord
100
AcDbLayerTableRecord
  2
0
 70
     0
 62
     7
  6
CONTINUOUS
370
    -3
390
F
347
544
348
0
  0
LAYER
  5
1FA
330
2
100
AcDbSymbolTableRecord
100
AcDbLayerTableRecord
  2
DEFAULT_1
 70
     0
 62
     7
  6
CENTER
370
    -3
390
F
347
544
348
0
  0
LAYER
  5
1FB
330
2
100
AcDbSymbolTableRecord
100
AcDbLayerTableRecord
  2
DEFAULT_2
 70
     0
 62
     8
  6
HIDDEN
370
    -3
390
F
347
544
348
0
  0
LAYER
  5
1FC
330
2
100
AcDbSymbolTableRecord
100
AcDbLayerTableRecord
  2
DEFAULT_3
 70
     0
 62
     7
  6
PHANTOM
370
    -3
390
F
347
544
348
0
  0
LAYER
  5
1FD
330
2
100
AcDbSymbolTableRecord
100
AcDbLayerTableRecord
  2
1_ALL_PLANES
 70
     0
 62
     7
  6
CONTINUOUS
370
    -3
390
F
347
544
348
0
  0
LAYER
  5
1FE
330
2
100
AcDbSymbolTableRecord
100
AcDbLayerTableRecord
  2
2_ALL_CSYS
 70
     0
 62
     7
  6
CONTINUOUS
370
    -3
390
F
347
544
348
0
  0
LAYER
  5
1FF
330
2
100
AcDbSymbolTableRecord
100
AcDbLayerTableRecord
  2
3_ALL_AXES
 70
     0
 62
     7
  6
CONTINUOUS
370
    -3
390
F
347
544
348
0
  0
LAYER
  5
200
330
2
100
AcDbSymbolTableRecord
100
AcDbLayerTableRecord
  2
4_ALL_POINTS
 70
     0
 62
     7
  6
CONTINUOUS
370
    -3
390
F
347
544
348
0
  0
LAYER
  5
201
330
2
100
AcDbSymbolTableRecord
100
AcDbLayerTableRecord
  2
5_ALL_CURVES
 70
     0
 62
     7
  6
CONTINUOUS
370
    -3
390
F
347
544
348
0
  0
LAYER
  5
202
330
2
100
AcDbSymbolTableRecord
100
AcDbLayerTableRecord
  2
6_ALL_SURFS
 70
     0
 62
     7
  6
CONTINUOUS
370
    -3
390
F
347
544
348
0
  0
LAYER
  5
203
330
2
100
AcDbSymbolTableRecord
100
AcDbLayerTableRecord
  2
7_ALL_FEATURES
 70
     0
 62
     7
  6
CONTINUOUS
370
    -3
390
F
347
544
348
0
  0
LAYER
  5
204
330
2
100
AcDbSymbolTableRecord
100
AcDbLayerTableRecord
  2
9_SOLID
 70
     0
 62
     7
  6
CONTINUOUS
370
    -3
390
F
347
544
348
0
  0
LAYER
  5
205
330
2
100
AcDbSymbolTableRecord
100
AcDbLayerTableRecord
  2
NO_CAVO
 70
     0
 62
     7
  6
CONTINUOUS
370
    -3
390
F
347
544
348
0
  0
ENDTAB
  0
TABLE
  2
STYLE
  5
3
330
0
100
AcDbSymbolTable
 70
     6
  0
STYLE
  5
11
330
3
100
AcDbSymbolTableRecord
100
AcDbTextStyleTableRecord
  2
STANDARD
 70
     0
 40
0.0
 41
1.0
 50
0.0
 71
     0
 42
0.2
  3
arial.ttf
  4

  0
STYLE
  5
206
330
3
100
AcDbSymbolTableRecord
100
AcDbTextStyleTableRecord
  2
TEXTSTYLE_1
 70
     0
 40
0.0
 41
0.8
 50
0.0
 71
     0
 42
0.2
  3
gdt
  4

  0
STYLE
  5
207
330
3
100
AcDbSymbolTableRecord
100
AcDbTextStyleTableRecord
  2
TEXTSTYLE_2
 70
     0
 40
0.0
 41
0.9
 50
0.0
 71
     0
 42
0.2
  3
txt
  4

  0
STYLE
  5
208
330
3
100
AcDbSymbolTableRecord
100
AcDbTextStyleTableRecord
  2
TEXTSTYLE_3
 70
     0
 40
0.0
 41
0.9
 50
0.0
 71
     0
 42
0.2
  3
txt
  4

  0
STYLE
  5
209
330
3
100
AcDbSymbolTableRecord
100
AcDbTextStyleTableRecord
  2
TEXTSTYLE_4
 70
     0
 40
0.0
 41
0.85
 50
0.0
 71
     0
 42
0.2
  3
gdt
  4

  0
STYLE
  5
20A
330
3
100
AcDbSymbolTableRecord
100
AcDbTextStyleTableRecord
  2
TEXTSTYLE_5
 70
     0
 40
0.0
 41
0.85
 50
0.0
 71
     0
 42
0.2
  3
txt
  4

  0
ENDTAB
  0
TABLE
  2
VIEW
  5
6
330
0
100
AcDbSymbolTable
 70
     0
  0
ENDTAB
  0
TABLE
  2
UCS
  5
7
330
0
100
AcDbSymbolTable
 70
     0
  0
ENDTAB
  0
TABLE
  2
APPID
  5
9
330
0
100
AcDbSymbolTable
 70
     6
  0
APPID
  5
20B
330
9
100
AcDbSymbolTableRecord
100
AcDbRegAppTableRecord
  2
ACAD
 70
     0
  0
APPID
  5
545
330
9
100
AcDbSymbolTableRecord
100
AcDbRegAppTableRecord
  2
MCS_DIM1
 70
     0
  0
APPID
  5
546
330
9
100
AcDbSymbolTableRecord
100
AcDbRegAppTableRecord
  2
McsXdata5
 70
     0
  0
APPID
  5
549
330
9
100
AcDbSymbolTableRecord
100
AcDbRegAppTableRecord
  2
MCS_DOCUMENT_ID
 70
     0
  0
APPID
  5
54F
330
9
100
AcDbSymbolTableRecord
100
AcDbRegAppTableRecord
  2
MCS_PARAMS_DATA
 70
     0
  0
APPID
  5
551
330
9
100
AcDbSymbolTableRecord
100
AcDbRegAppTableRecord
  2
MC_VERSION_DATA
 70
     0
  0
ENDTAB
  0
TABLE
  2
DIMSTYLE
  5
A
330
0
100
AcDbSymbolTable
 70
     4
100
AcDbDimStyleTable
  0
DIMSTYLE
105
214
330
A
100
AcDbSymbolTableRecord
100
AcDbDimStyleTableRecord
  2
STANDARD
 70
     0
 41
2.5
 42
0.75
 44
0.75
 47
0.01
 48
0.01
 71
     1
 73
     0
 74
     0
 77
     1
 78
     8
 79
     2
140
3.0
147
0.625
171
     1
178
     0
179
     2
271
     2
272
     2
278
    44
284
     8
340
11
341
20E
342
20E
343
20E
344
20E
  0
DIMSTYLE
105
215
330
A
100
AcDbSymbolTableRecord
100
AcDbDimStyleTableRecord
  2
DIMSTYLE_1
 70
     0
  3
<>
 41
2.5
 42
0.75
 44
0.75
 47
0.5
 48
0.5
 73
     0
 74
     0
 77
     1
 78
     8
 79
     2
140
3.0
147
0.625
171
     1
172
     1
178
     0
179
     2
271
     2
272
     2
278
    44
284
     8
288
     1
289
     2
340
11
341
20E
342
20E
343
20E
344
20E
  0
DIMSTYLE
105
216
330
A
100
AcDbSymbolTableRecord
100
AcDbDimStyleTableRecord
  2
DIMSTYLE_2
 70
     0
  3
<>
 41
2.5
 42
0.75
 44
0.75
 47
0.3
 48
0.3
 73
     0
 74
     0
 77
     1
 78
     8
 79
     2
140
3.0
147
0.625
171
     1
172
     1
178
     0
179
     2
271
     2
272
     2
278
    44
284
     8
288
     1
289
     2
340
11
341
20E
342
20E
343
20E
344
20E
  0
DIMSTYLE
105
217
330
A
100
AcDbSymbolTableRecord
100
AcDbDimStyleTableRecord
  2
DIMSTYLE_3
 70
     0
 41
2.5
 42
0.75
 44
0.75
 47
0.2
 48
0.2
 73
     0
 74
     0
 77
     1
 78
     8
 79
     2
140
3.0
147
0.75
171
     1
178
     0
179
     2
271
     2
272
     2
278
    44
284
     8
340
11
341
20E
342
20E
343
20E
344
20E
  0
ENDTAB
  0
TABLE
  2
BLOCK_RECORD
  5
1
330
0
100
AcDbSymbolTable
 70
     6
  0
BLOCK_RECORD
  5
20C
330
1
100
AcDbSymbolTableRecord
100
AcDbBlockTableRecord
  2
*Model_Space
340
4FF
 70
     0
280
     1
281
     0
  0
BLOCK_RECORD
  5
20D
330
1
100
AcDbSymbolTableRecord
100
AcDbBlockTableRecord
  2
*Paper_Space
340
500
 70
     0
280
     1
281
     0
  0
BLOCK_RECORD
  5
20E
330
1
100
AcDbSymbolTableRecord
100
AcDbBlockTableRecord
  2
_CLOSED
340
0
102
{BLKREFS
331
25D
331
263
331
264
331
26C
331
26D
102
}
 70
     0
280
     1
281
     0
  0
BLOCK_RECORD
  5
20F
330
1
100
AcDbSymbolTableRecord
100
AcDbBlockTableRecord
  2
*D1
340
0
 70
     0
280
     1
281
     0
  0
BLOCK_RECORD
  5
210
330
1
100
AcDbSymbolTableRecord
100
AcDbBlockTableRecord
  2
*D2
340
0
 70
     0
280
     1
281
     0
  0
BLOCK_RECORD
  5
211
330
1
100
AcDbSymbolTableRecord
100
AcDbBlockTableRecord
  2
*D3
340
0
 70
     0
280
     1
281
     0
  0
BLOCK_RECORD
  5
212
330
1
100
AcDbSymbolTableRecord
100
AcDbBlockTableRecord
  2
LOGO2_BL0
340
0
102
{BLKREFS
331
4FC
102
}
 70
     0
280
     1
281
     0
  0
BLOCK_RECORD
  5
213
330
1
100
AcDbSymbolTableRecord
100
AcDbBlockTableRecord
  2
*T5
340
0
102
{BLKREFS
331
4FD
102
}
 70
     0
280
     1
281
     0
  0
ENDTAB
  0
ENDSEC
  0
SECTION
  2
BLOCKS
  0
BLOCK
  5
20
330
20C
100
AcDbEntity
  8
0
100
AcDbBlockBegin
  2
*Model_Space
 70
     0
 10
0.0
 20
0.0
 30
0.0
  3
*Model_Space
  1
*Model_Space
  0
ENDBLK
  5
21
330
20C
100
AcDbEntity
  8
0
100
AcDbBlockEnd
  0
BLOCK
  5
1C
330
20D
100
AcDbEntity
 67
     1
  8
0
100
AcDbBlockBegin
  2
*Paper_Space
 70
     0
 10
0.0
 20
0.0
 30
0.0
  3
*Paper_Space
  1
*Paper_Space
  0
ENDBLK
  5
1D
330
20D
100
AcDbEntity
 67
     1
  8
0
100
AcDbBlockEnd
  0
BLOCK
  5
254
330
20E
100
AcDbEntity
  8
0
100
AcDbBlockBegin
  2
_CLOSED
 70
     0
 10
0.0
 20
0.0
 30
0.0
  3
_CLOSED
  1
_CLOSED
  0
LINE
  5
255
330
20E
100
AcDbEntity
  8
0
  6
ByBlock
 62
     0
100
AcDbLine
 10
0.0
 20
0.0
 30
0.0
 11
-1.0
 21
0.2
 31
0.0
  0
LINE
  5
256
330
20E
100
AcDbEntity
  8
0
  6
ByBlock
 62
     0
100
AcDbLine
 10
-1.0
 20
0.2
 30
0.0
 11
-1.0
 21
-0.2
 31
0.0
  0
LINE
  5
257
330
20E
100
AcDbEntity
  8
0
  6
ByBlock
 62
     0
100
AcDbLine
 10
-1.0
 20
-0.2
 30
0.0
 11
0.0
 21
0.0
 31
0.0
  0
LINE
  5
258
330
20E
100
AcDbEntity
  8
0
  6
ByBlock
 62
     0
100
AcDbLine
 10
-1.0
 20
0.0
 30
0.0
 11
0.0
 21
0.0
 31
0.0
  0
ENDBLK
  5
259
330
20E
100
AcDbEntity
  8
0
  6
ByBlock
 62
     0
100
AcDbBlockEnd
  0
BLOCK
  5
25A
330
20F
100
AcDbEntity
  8
0
100
AcDbBlockBegin
  2
*D1
 70
     1
 10
0.0
 20
0.0
 30
0.0
  3
*D1
  1
*D1
  0
MTEXT
  5
25B
330
20F
100
AcDbEntity
  8
0
  6
Continuous
 62
     2
100
AcDbMText
 10
229.064909
 20
354.912805
 30
0.0
 40
3.0
 41
10.992565
 46
0.0
 71
     1
 72
     1
  1
{\Fgdt;n}\Farial.ttf;200
  7
TEXTSTYLE_4
 11
0.7820238464
 21
0.6232485088
 31
0.0
 73
     1
 44
0.9
  0
LINE
  5
25C
330
20F
100
AcDbEntity
  8
0
  6
Continuous
 62
     2
100
AcDbLine
 10
220.274492
 20
343.111867
 30
0.0
 11
239.998539
 21
358.831315
 31
0.0
  0
INSERT
  5
25D
330
20F
100
AcDbEntity
  8
0
  6
Continuous
 62
     2
100
AcDbBlockReference
  2
_CLOSED
 10
220.274492
 20
343.111867
 30
0.0
 41
2.5
 42
2.5
 43
2.5
 50
218.553748
  0
ENDBLK
  5
25E
330
20F
100
AcDbEntity
  8
0
  6
ByBlock
 62
     0
100
AcDbBlockEnd
  0
BLOCK
  5
25F
330
210
100
AcDbEntity
  8
0
100
AcDbBlockBegin
  2
*D2
 70
     1
 10
0.0
 20
0.0
 30
0.0
  3
*D2
  1
*D2
  0
MTEXT
  5
260
330
210
100
AcDbEntity
  8
0
  6
Continuous
 62
     2
100
AcDbMText
 10
157.69844
 20
291.099519
 30
0.0
 40
3.0
 41
8.66171
 46
0.0
 71
     2
 72
     1
  1
{\Fgdt;n}\Farial.ttf;80
  7
TEXTSTYLE_4
 11
0.9280418278
 21
0.3724759938
 31
0.0
 73
     1
 44
0.9
  0
LINE
  5
261
330
210
100
AcDbEntity
  8
0
  6
Continuous
 62
     2
100
AcDbLine
 10
179.19378
 20
295.686056
 30
0.0
 11
142.072107
 21
280.787016
 31
0.0
  0
LINE
  5
262
330
210
100
AcDbEntity
  8
0
  6
Continuous
 62
     2
100
AcDbLine
 10
104.950434
 20
265.887976
 30
0.0
 11
142.072107
 21
280.787016
 31
0.0
  0
INSERT
  5
263
330
210
100
AcDbEntity
  8
0
  6
Continuous
 62
     2
100
AcDbBlockReference
  2
_CLOSED
 10
179.19378
 20
295.686056
 30
0.0
 41
2.5
 42
2.5
 43
2.5
 50
21.868399
  0
INSERT
  5
264
330
210
100
AcDbEntity
  8
0
  6
Continuous
 62
     2
100
AcDbBlockReference
  2
_CLOSED
 10
104.950434
 20
265.887976
 30
0.0
 41
2.5
 42
2.5
 43
2.5
 50
201.868399
  0
ENDBLK
  5
265
330
210
100
AcDbEntity
  8
0
  6
ByBlock
 62
     0
100
AcDbBlockEnd
  0
BLOCK
  5
266
330
211
100
AcDbEntity
  8
0
100
AcDbBlockBegin
  2
*D3
 70
     1
 10
0.0
 20
0.0
 30
0.0
  3
*D3
  1
*D3
  0
MTEXT
  5
267
330
211
100
AcDbEntity
  8
0
  6
Continuous
 62
     2
100
AcDbMText
 10
267.040879
 20
121.38913
 30
0.0
 40
3.0
 41
10.483271
 46
0.0
 71
     2
 72
     1
  1
17,24
 11
0.0
 21
1.0
 31
0.0
 73
     1
 44
0.9
  0
LINE
  5
268
330
211
100
AcDbEntity
  8
0
  6
Continuous
 62
     2
100
AcDbLine
 10
261.350589
 20
112.767152
 30
0.0
 11
271.540879
 21
112.767152
 31
0.0
  0
LINE
  5
269
330
211
100
AcDbEntity
  8
0
  6
Continuous
 62
     2
100
AcDbLine
 10
260.557559
 20
130.011108
 30
0.0
 11
271.540879
 21
130.011108
 31
0.0
  0
LINE
  5
26A
330
211
100
AcDbEntity
  8
0
  6
Continuous
 62
     2
100
AcDbLine
 10
270.790879
 20
112.767152
 30
0.0
 11
270.790879
 21
121.38913
 31
0.0
  0
LINE
  5
26B
330
211
100
AcDbEntity
  8
0
  6
Continuous
 62
     2
100
AcDbLine
 10
270.790879
 20
130.011108
 30
0.0
 11
270.790879
 21
121.38913
 31
0.0
  0
INSERT
  5
26C
330
211
100
AcDbEntity
  8
0
  6
Continuous
 62
     2
100
AcDbBlockReference
  2
_CLOSED
 10
270.790879
 20
112.767152
 30
0.0
 41
2.5
 42
2.5
 43
2.5
 50
270.0
  0
INSERT
  5
26D
330
211
100
AcDbEntity
  8
0
  6
Continuous
 62
     2
100
AcDbBlockReference
  2
_CLOSED
 10
270.790879
 20
130.011108
 30
0.0
 41
2.5
 42
2.5
 43
2.5
 50
90.0
  0
ENDBLK
  5
26E
330
211
100
AcDbEntity
  8
0
  6
ByBlock
 62
     0
100
AcDbBlockEnd
  0
BLOCK
  5
218
330
212
100
AcDbEntity
  8
0
100
AcDbBlockBegin
  2
LOGO2_BL0
 70
     0
 10
507.804324
 20
36.573716
 30
0.0
  3
LOGO2_BL0
  1
LOGO2_BL0
  0
LINE
  5
219
330
212
100
AcDbEntity
  8
0
  6
Continuous
 62
     7
100
AcDbLine
 10
499.547249
 20
39.769207
 30
0.0
 11
498.242908
 21
39.769207
 31
0.0
  0
LINE
  5
21A
330
212
100
AcDbEntity
  8
0
  6
Continuous
 62
     7
100
AcDbLine
 10
498.242908
 20
39.769207
 30
0.0
 11
498.242908
 21
29.310141
 31
0.0
  0
LINE
  5
21B
330
212
100
AcDbEntity
  8
0
  6
Continuous
 62
     7
100
AcDbLine
 10
498.242908
 20
29.310141
 30
0.0
 11
502.723963
 21
29.310141
 31
0.0
  0
LINE
  5
21C
330
212
100
AcDbEntity
  8
0
  6
Continuous
 62
     7
100
AcDbLine
 10
502.723963
 20
29.310141
 30
0.0
 11
502.723963
 21
30.502995
 31
0.0
  0
LINE
  5
21D
330
212
100
AcDbEntity
  8
0
  6
Continuous
 62
     7
100
AcDbLine
 10
502.723963
 20
30.502995
 30
0.0
 11
499.547249
 21
30.502995
 31
0.0
  0
LINE
  5
21E
330
212
100
AcDbEntity
  8
0
  6
Continuous
 62
     7
100
AcDbLine
 10
499.547249
 20
30.502995
 30
0.0
 11
499.547249
 21
39.769207
 31
0.0
  0
LINE
  5
21F
330
212
100
AcDbEntity
  8
0
  6
Continuous
 62
     7
100
AcDbLine
 10
514.483575
 20
39.769207
 30
0.0
 11
513.179758
 21
39.769207
 31
0.0
  0
LINE
  5
220
330
212
100
AcDbEntity
  8
0
  6
Continuous
 62
     7
100
AcDbLine
 10
513.179758
 20
39.769207
 30
0.0
 11
513.179758
 21
29.310141
 31
0.0
  0
LINE
  5
221
330
212
100
AcDbEntity
  8
0
  6
Continuous
 62
     7
100
AcDbLine
 10
513.179758
 20
29.310141
 30
0.0
 11
517.660943
 21
29.310141
 31
0.0
  0
LINE
  5
222
330
212
100
AcDbEntity
  8
0
  6
Continuous
 62
     7
100
AcDbLine
 10
517.660943
 20
29.310141
 30
0.0
 11
517.660943
 21
30.502995
 31
0.0
  0
LINE
  5
223
330
212
100
AcDbEntity
  8
0
  6
Continuous
 62
     7
100
AcDbLine
 10
517.660943
 20
30.502995
 30
0.0
 11
514.483575
 21
30.502995
 31
0.0
  0
LINE
  5
224
330
212
100
AcDbEntity
  8
0
  6
Continuous
 62
     7
100
AcDbLine
 10
514.483575
 20
30.502995
 30
0.0
 11
514.483575
 21
39.769207
 31
0.0
  0
LWPOLYLINE
  5
225
330
212
100
AcDbEntity
  8
0
  6
Continuous
 62
     7
100
AcDbPolyline
 90
        2
 70
     0
 43
0.2
 10
496.597303
 20
25.966589
 10
496.597303
 20
24.109526
  0
LWPOLYLINE
  5
226
330
212
100
AcDbEntity
  8
0
  6
Continuous
 62
     7
100
AcDbPolyline
 90
        2
 70
     0
 43
0.2
 10
496.597303
 20
24.109526
 10
497.393019
 20
24.109526
  0
LWPOLYLINE
  5
227
330
212
100
AcDbEntity
  8
0
  6
Continuous
 62
     7
100
AcDbPolyline
 90
        2
 70
     0
 43
0.2
 10
497.393019
 20
24.109526
 10
497.393019
 20
24.321508
  0
LWPOLYLINE
  5
228
330
212
100
AcDbEntity
  8
0
  6
Continuous
 62
     7
100
AcDbPolyline
 90
        2
 70
     0
 43
0.2
 10
497.393019
 20
24.321508
 10
496.828913
 20
24.321508
  0
LWPOLYLINE
  5
229
330
212
100
AcDbEntity
  8
0
  6
Continuous
 62
     7
100
AcDbPolyline
 90
        2
 70
     0
 43
0.2
 10
496.828913
 20
24.321508
 10
496.828913
 20
25.966589
  0
LWPOLYLINE
  5
22A
330
212
100
AcDbEntity
  8
0
  6
Continuous
 62
     7
100
AcDbPolyline
 90
        2
 70
     0
 43
0.2
 10
496.828913
 20
25.966589
 10
496.597303
 20
25.966589
  0
SPLINE
  5
22B
330
212
100
AcDbEntity
  8
0
  6
Continuous
 62
     7
100
AcDbSpline
 70
     3
 71
     3
 72
    35
 73
    31
 74
     0
 42
0.000000001
 43
0.0000001
 40
0.0
 40
0.0
 40
0.0
 40
0.0
 40
1.0
 40
1.0
 40
1.0
 40
2.0
 40
2.0
 40
2.0
 40
3.0
 40
3.0
 40
3.0
 40
4.0
 40
4.0
 40
4.0
 40
5.0
 40
5.0
 40
5.0
 40
6.0
 40
6.0
 40
6.0
 40
7.0
 40
7.0
 40
7.0
 40
8.0
 40
8.0
 40
8.0
 40
9.0
 40
9.0
 40
9.0
 40
10.0
 40
10.0
 40
10.0
 40
10.0
 10
498.7913122991
 20
25.2620778916
 30
0.0
 10
498.7913122991
 20
25.2620778916
 30
0.0
 10
498.7913122991
 20
24.5999626124
 30
0.0
 10
498.7913122991
 20
24.5999626124
 30
0.0
 10
498.7913122991
 20
24.2848690171
 30
0.0
 10
498.9391759879
 20
24.0702703891
 30
0.0
 10
499.2792624722
 20
24.0702703891
 30
0.0
 10
499.6188255452
 20
24.0702703891
 30
0.0
 10
499.7669509397
 20
24.2848690171
 30
0.0
 10
499.7669509397
 20
24.5999626124
 30
0.0
 10
499.7669509397
 20
24.5999626124
 30
0.0
 10
499.7669509397
 20
25.2620778916
 30
0.0
 10
499.7669509397
 20
25.2620778916
 30
0.0
 10
499.7669509397
 20
25.2620778916
 30
0.0
 10
499.5448937008
 20
25.2620778916
 30
0.0
 10
499.5448937008
 20
25.2620778916
 30
0.0
 10
499.5448937008
 20
25.2620778916
 30
0.0
 10
499.5448937008
 20
24.6250863543
 30
0.0
 10
499.5448937008
 20
24.6250863543
 30
0.0
 10
499.5448937008
 20
24.4392753471
 30
0.0
 10
499.4981792434
 20
24.2764944365
 30
0.0
 10
499.2792624722
 20
24.2764944365
 30
0.0
 10
499.0598222898
 20
24.2764944365
 30
0.0
 10
499.0131078323
 20
24.4392753471
 30
0.0
 10
499.0131078323
 20
24.6250863543
 30
0.0
 10
499.0131078323
 20
24.6250863543
 30
0.0
 10
499.0131078323
 20
25.2620778916
 30
0.0
 10
499.0131078323
 20
25.2620778916
 30
0.0
 10
499.0131078323
 20
25.2620778916
 30
0.0
 10
498.7913122991
 20
25.2620778916
 30
0.0
 10
498.7913122991
 20
25.2620778916
 30
0.0
  0
SPLINE
  5
22C
330
212
100
AcDbEntity
  8
0
  6
Continuous
 62
     7
100
AcDbSpline
 70
     3
 71
     3
 72
    35
 73
    31
 74
     0
 42
0.000000001
 43
0.0000001
 40
0.0
 40
0.0
 40
0.0
 40
0.0
 40
1.0
 40
1.0
 40
1.0
 40
2.0
 40
2.0
 40
2.0
 40
3.0
 40
3.0
 40
3.0
 40
4.0
 40
4.0
 40
4.0
 40
5.0
 40
5.0
 40
5.0
 40
6.0
 40
6.0
 40
6.0
 40
7.0
 40
7.0
 40
7.0
 40
8.0
 40
8.0
 40
8.0
 40
9.0
 40
9.0
 40
9.0
 40
10.0
 40
10.0
 40
10.0
 40
10.0
 10
502.1900834969
 20
25.2207283998
 30
0.0
 10
502.1016269892
 20
25.2720227061
 30
0.0
 10
501.9881775926
 20
25.2971464479
 30
0.0
 10
501.8845421576
 20
25.2971464479
 30
0.0
 10
501.5296693044
 20
25.2971464479
 30
0.0
 10
501.2542241142
 20
25.0333471588
 30
0.0
 10
501.2542241142
 20
24.6758572492
 30
0.0
 10
501.2542241142
 20
24.3309292105
 30
0.0
 10
501.5326789193
 20
24.0707938004
 30
0.0
 10
501.8722419923
 20
24.0707938004
 30
0.0
 10
501.9881775926
 20
24.0707938004
 30
0.0
 10
502.0889342655
 20
24.0927770745
 30
0.0
 10
502.1900834969
 20
24.1466884371
 30
0.0
 10
502.1900834969
 20
24.1466884371
 30
0.0
 10
502.1900834969
 20
24.4293305326
 30
0.0
 10
502.1900834969
 20
24.4293305326
 30
0.0
 10
502.106206838
 20
24.3361633233
 30
0.0
 10
502.0027022558
 20
24.2770178478
 30
0.0
 10
501.8745973431
 20
24.2770178478
 30
0.0
 10
501.6408942031
 20
24.2770178478
 30
0.0
 10
501.475627089
 20
24.4492201615
 30
0.0
 10
501.475627089
 20
24.6858020636
 30
0.0
 10
501.475627089
 20
24.8977836352
 30
0.0
 10
501.6433804067
 20
25.0898755779
 30
0.0
 10
501.8602035327
 20
25.0898755779
 30
0.0
 10
501.993019147
 20
25.0898755779
 30
0.0
 10
502.1016269892
 20
25.0359642152
 30
0.0
 10
502.1900834969
 20
24.9349458367
 30
0.0
 10
502.1900834969
 20
24.9349458367
 30
0.0
 10
502.1900834969
 20
25.2207283998
 30
0.0
 10
502.1900834969
 20
25.2207283998
 30
0.0
  0
SPLINE
  5
22D
330
212
100
AcDbEntity
  8
0
  6
Continuous
 62
     7
100
AcDbSpline
 70
     3
 71
     3
 72
    32
 73
    28
 74
     0
 42
0.000000001
 43
0.0000001
 40
0.0
 40
0.0
 40
0.0
 40
0.0
 40
1.0
 40
1.0
 40
1.0
 40
2.0
 40
2.0
 40
2.0
 40
3.0
 40
3.0
 40
3.0
 40
4.0
 40
4.0
 40
4.0
 40
5.0
 40
5.0
 40
5.0
 40
6.0
 40
6.0
 40
6.0
 40
7.0
 40
7.0
 40
7.0
 40
8.0
 40
8.0
 40
8.0
 40
9.0
 40
9.0
 40
9.0
 40
9.0
 10
504.7219547491
 20
24.6491632735
 30
0.0
 10
504.7219547491
 20
24.6491632735
 30
0.0
 10
504.7219547491
 20
24.6831850072
 30
0.0
 10
504.7219547491
 20
24.6831850072
 30
0.0
 10
504.7219547491
 20
25.0254959895
 30
0.0
 10
504.5490981713
 20
25.2971464479
 30
0.0
 10
504.1824485642
 20
25.2971464479
 30
0.0
 10
503.8108265498
 20
25.2971464479
 30
0.0
 10
503.6210899579
 20
25.0307301024
 30
0.0
 10
503.6210899579
 20
24.6758572492
 30
0.0
 10
503.6210899579
 20
24.3361633233
 30
0.0
 10
503.8351651747
 20
24.0702703891
 30
0.0
 10
504.1872901186
 20
24.0702703891
 30
0.0
 10
504.4113101498
 20
24.0702703891
 30
0.0
 10
504.6134777597
 20
24.1859442837
 30
0.0
 10
504.7219547491
 20
24.3853639844
 30
0.0
 10
504.7219547491
 20
24.3853639844
 30
0.0
 10
504.5343118024
 20
24.4921398871
 30
0.0
 10
504.5343118024
 20
24.4921398871
 30
0.0
 10
504.450827702
 20
24.3534358958
 30
0.0
 10
504.3596232851
 20
24.2675964446
 30
0.0
 10
504.1900380278
 20
24.2675964446
 30
0.0
 10
503.9780564563
 20
24.2675964446
 30
0.0
 10
503.8451099891
 20
24.4523606293
 30
0.0
 10
503.8427546383
 20
24.6491632735
 30
0.0
 10
503.8427546383
 20
24.6491632735
 30
0.0
 10
504.7219547491
 20
24.6491632735
 30
0.0
 10
504.7219547491
 20
24.6491632735
 30
0.0
  0
SPLINE
  5
22E
330
212
100
AcDbEntity
  8
0
  6
Continuous
 62
     7
100
AcDbSpline
 70
     3
 71
     3
 72
    14
 73
    10
 74
     0
 42
0.000000001
 43
0.0000001
 40
0.0
 40
0.0
 40
0.0
 40
0.0
 40
1.0
 40
1.0
 40
1.0
 40
2.0
 40
2.0
 40
2.0
 40
3.0
 40
3.0
 40
3.0
 40
3.0
 10
503.854793098
 20
24.8166548856
 30
0.0
 10
503.8824030434
 20
24.9815294413
 30
0.0
 10
504.0102462505
 20
25.1045310939
 30
0.0
 10
504.1824485642
 20
25.1045310939
 30
0.0
 10
504.3596232851
 20
25.1045310939
 30
0.0
 10
504.4730726818
 20
24.9888571993
 30
0.0
 10
504.5002900687
 20
24.8166548856
 30
0.0
 10
504.5002900687
 20
24.8166548856
 30
0.0
 10
503.854793098
 20
24.8166548856
 30
0.0
 10
503.854793098
 20
24.8166548856
 30
0.0
  0
SPLINE
  5
22F
330
212
100
AcDbEntity
  8
0
  6
Continuous
 62
     7
100
AcDbSpline
 70
     3
 71
     3
 72
    20
 73
    16
 74
     0
 42
0.000000001
 43
0.0000001
 40
0.0
 40
0.0
 40
0.0
 40
0.0
 40
1.0
 40
1.0
 40
1.0
 40
2.0
 40
2.0
 40
2.0
 40
3.0
 40
3.0
 40
3.0
 40
4.0
 40
4.0
 40
4.0
 40
5.0
 40
5.0
 40
5.0
 40
5.0
 10
506.7459861993
 20
25.0260194008
 30
0.0
 10
506.7459861993
 20
25.0260194008
 30
0.0
 10
507.157125766
 20
24.5235445644
 30
0.0
 10
507.157125766
 20
24.5235445644
 30
0.0
 10
507.0410593129
 20
24.4078706698
 30
0.0
 10
506.9032712913
 20
24.2775412591
 30
0.0
 10
506.7313306833
 20
24.2775412591
 30
0.0
 10
506.5538942567
 20
24.2775412591
 30
0.0
 10
506.3864026446
 20
24.4418924035
 30
0.0
 10
506.3864026446
 20
24.6188054188
 30
0.0
 10
506.3864026446
 20
24.7967652567
 30
0.0
 10
506.5961597182
 20
24.9229073771
 30
0.0
 10
506.7237412196
 20
25.0108404734
 30
0.0
 10
506.7237412196
 20
25.0108404734
 30
0.0
 10
506.7459861993
 20
25.0260194008
 30
0.0
 10
506.7459861993
 20
25.0260194008
 30
0.0
  0
SPLINE
  5
230
330
212
100
AcDbEntity
  8
0
  6
Continuous
 62
     7
100
AcDbSpline
 70
     3
 71
     3
 72
    23
 73
    19
 74
     0
 42
0.000000001
 43
0.0000001
 40
0.0
 40
0.0
 40
0.0
 40
0.0
 40
1.0
 40
1.0
 40
1.0
 40
2.0
 40
2.0
 40
2.0
 40
3.0
 40
3.0
 40
3.0
 40
4.0
 40
4.0
 40
4.0
 40
5.0
 40
5.0
 40
5.0
 40
6.0
 40
6.0
 40
6.0
 40
6.0
 10
506.7953177132
 20
25.3170360768
 30
0.0
 10
506.7953177132
 20
25.3170360768
 30
0.0
 10
506.7336860341
 20
25.39554777
 30
0.0
 10
506.7336860341
 20
25.39554777
 30
0.0
 10
506.6797746714
 20
25.4641146487
 30
0.0
 10
506.6229845467
 20
25.5332049387
 30
0.0
 10
506.6229845467
 20
25.6268955592
 30
0.0
 10
506.6229845467
 20
25.7457099216
 30
0.0
 10
506.7188996652
 20
25.8231747922
 30
0.0
 10
506.8298628582
 20
25.8231747922
 30
0.0
 10
506.9531262165
 20
25.8231747922
 30
0.0
 10
507.0464242786
 20
25.751990857
 30
0.0
 10
507.0464242786
 20
25.6216614464
 30
0.0
 10
507.0464242786
 20
25.4866213341
 30
0.0
 10
506.9183193659
 20
25.4102032861
 30
0.0
 10
506.8247595982
 20
25.3364022945
 30
0.0
 10
506.8247595982
 20
25.3364022945
 30
0.0
 10
506.7953177132
 20
25.3170360768
 30
0.0
 10
506.7953177132
 20
25.3170360768
 30
0.0
  0
SPLINE
  5
231
330
212
100
AcDbEntity
  8
0
  6
Continuous
 62
     7
100
AcDbSpline
 70
     3
 71
     3
 72
    50
 73
    46
 74
     0
 42
0.000000001
 43
0.0000001
 40
0.0
 40
0.0
 40
0.0
 40
0.0
 40
1.0
 40
1.0
 40
1.0
 40
2.0
 40
2.0
 40
2.0
 40
3.0
 40
3.0
 40
3.0
 40
4.0
 40
4.0
 40
4.0
 40
5.0
 40
5.0
 40
5.0
 40
6.0
 40
6.0
 40
6.0
 40
7.0
 40
7.0
 40
7.0
 40
8.0
 40
8.0
 40
8.0
 40
9.0
 40
9.0
 40
9.0
 40
10.0
 40
10.0
 40
10.0
 40
11.0
 40
11.0
 40
11.0
 40
12.0
 40
12.0
 40
12.0
 40
13.0
 40
13.0
 40
13.0
 40
14.0
 40
14.0
 40
14.0
 40
15.0
 40
15.0
 40
15.0
 40
15.0
 10
507.4974739559
 20
24.110049647
 30
0.0
 10
507.4974739559
 20
24.110049647
 30
0.0
 10
507.7828639606
 20
24.110049647
 30
0.0
 10
507.7828639606
 20
24.110049647
 30
0.0
 10
507.7828639606
 20
24.110049647
 30
0.0
 10
507.4504977928
 20
24.520927508
 30
0.0
 10
507.4504977928
 20
24.520927508
 30
0.0
 10
507.4504977928
 20
24.520927508
 30
0.0
 10
507.6770040276
 20
24.7868204422
 30
0.0
 10
507.6770040276
 20
24.7868204422
 30
0.0
 10
507.6770040276
 20
24.7868204422
 30
0.0
 10
507.5287477803
 20
24.9396565383
 30
0.0
 10
507.5287477803
 20
24.9396565383
 30
0.0
 10
507.5287477803
 20
24.9396565383
 30
0.0
 10
507.3128406241
 20
24.6884191201
 30
0.0
 10
507.3128406241
 20
24.6884191201
 30
0.0
 10
507.3128406241
 20
24.6884191201
 30
0.0
 10
506.9257779767
 20
25.1563488114
 30
0.0
 10
506.9257779767
 20
25.1563488114
 30
0.0
 10
507.0812311292
 20
25.2704524722
 30
0.0
 10
507.2635091102
 20
25.4102032861
 30
0.0
 10
507.2635091102
 20
25.6195678012
 30
0.0
 10
507.2635091102
 20
25.8634774614
 30
0.0
 10
507.0614723531
 20
26.0068921542
 30
0.0
 10
506.8349661183
 20
26.0068921542
 30
0.0
 10
506.5907947525
 20
26.0068921542
 30
0.0
 10
506.4064231263
 20
25.8561497033
 30
0.0
 10
506.4064231263
 20
25.5996781723
 30
0.0
 10
506.4064231263
 20
25.4421313746
 30
0.0
 10
506.5050861541
 20
25.3044742059
 30
0.0
 10
506.6104226758
 20
25.1935110129
 30
0.0
 10
506.6104226758
 20
25.1935110129
 30
0.0
 10
506.494879634
 20
25.1097652068
 30
0.0
 10
506.494879634
 20
25.1097652068
 30
0.0
 10
506.3171815017
 20
24.9815294413
 30
0.0
 10
506.1698412242
 20
24.8538170871
 30
0.0
 10
506.1698412242
 20
24.6167117736
 30
0.0
 10
506.1698412242
 20
24.2963840655
 30
0.0
 10
506.4284064004
 20
24.0702703891
 30
0.0
 10
506.7387892941
 20
24.0702703891
 30
0.0
 10
506.9577060653
 20
24.0702703891
 30
0.0
 10
507.154901268
 20
24.1953656869
 30
0.0
 10
507.2951754931
 20
24.3612870652
 30
0.0
 10
507.2951754931
 20
24.3612870652
 30
0.0
 10
507.4974739559
 20
24.110049647
 30
0.0
 10
507.4974739559
 20
24.110049647
 30
0.0
  0
LWPOLYLINE
  5
232
330
212
100
AcDbEntity
  8
0
  6
Continuous
 62
     7
100
AcDbPolyline
 90
        2
 70
     0
 43
0.2
 10
509.432918
 20
25.966589
 10
509.20157
 20
25.966589
  0
LWPOLYLINE
  5
233
330
212
100
AcDbEntity
  8
0
  6
Continuous
 62
     7
100
AcDbPolyline
 90
        2
 70
     0
 43
0.2
 10
509.20157
 20
25.966589
 10
509.20157
 20
24.109526
  0
LWPOLYLINE
  5
234
330
212
100
AcDbEntity
  8
0
  6
Continuous
 62
     7
100
AcDbPolyline
 90
        2
 70
     0
 43
0.2
 10
509.20157
 20
24.109526
 10
509.996894
 20
24.109526
  0
LWPOLYLINE
  5
235
330
212
100
AcDbEntity
  8
0
  6
Continuous
 62
     7
100
AcDbPolyline
 90
        2
 70
     0
 43
0.2
 10
509.996894
 20
24.109526
 10
509.996894
 20
24.321508
  0
LWPOLYLINE
  5
236
330
212
100
AcDbEntity
  8
0
  6
Continuous
 62
     7
100
AcDbPolyline
 90
        2
 70
     0
 43
0.2
 10
509.996894
 20
24.321508
 10
509.432918
 20
24.321508
  0
LWPOLYLINE
  5
237
330
212
100
AcDbEntity
  8
0
  6
Continuous
 62
     7
100
AcDbPolyline
 90
        2
 70
     0
 43
0.2
 10
509.432918
 20
24.321508
 10
509.432918
 20
25.966589
  0
LWPOLYLINE
  5
238
330
212
100
AcDbEntity
  8
0
  6
Continuous
 62
     7
100
AcDbPolyline
 90
        2
 70
     0
 43
0.2
 10
511.675997
 20
25.262078
 10
511.454856
 20
25.262078
  0
LWPOLYLINE
  5
239
330
212
100
AcDbEntity
  8
0
  6
Continuous
 62
     7
100
AcDbPolyline
 90
        2
 70
     0
 43
0.2
 10
511.454856
 20
25.262078
 10
511.454856
 20
24.11005
  0
LWPOLYLINE
  5
23A
330
212
100
AcDbEntity
  8
0
  6
Continuous
 62
     7
100
AcDbPolyline
 90
        2
 70
     0
 43
0.2
 10
511.454856
 20
24.11005
 10
511.675997
 20
24.11005
  0
LWPOLYLINE
  5
23B
330
212
100
AcDbEntity
  8
0
  6
Continuous
 62
     7
100
AcDbPolyline
 90
        2
 70
     0
 43
0.2
 10
511.675997
 20
24.11005
 10
511.675997
 20
25.262078
  0
LWPOLYLINE
  5
23C
330
212
100
AcDbEntity
  8
0
  6
Continuous
 62
     7
100
AcDbPolyline
 90
        2
 70
     1
 43
0.2
 10
511.412974
 20
25.792032
 42
1.0
 10
511.718141
 20
25.792032
 42
1.0
  0
SPLINE
  5
23D
330
212
100
AcDbEntity
  8
0
  6
Continuous
 62
     7
100
AcDbSpline
 70
     3
 71
     3
 72
    17
 73
    13
 74
     0
 42
0.000000001
 43
0.0000001
 40
0.0
 40
0.0
 40
0.0
 40
0.0
 40
1.0
 40
1.0
 40
1.0
 40
2.0
 40
2.0
 40
2.0
 40
3.0
 40
3.0
 40
3.0
 40
4.0
 40
4.0
 40
4.0
 40
4.0
 10
513.8062810614
 20
24.2675964446
 30
0.0
 10
513.5723162157
 20
24.2675964446
 30
0.0
 10
513.4419868051
 20
24.4696332018
 30
0.0
 10
513.4419868051
 20
24.6858020636
 30
0.0
 10
513.4419868051
 20
24.9004006917
 30
0.0
 10
513.5778120343
 20
25.0992969811
 30
0.0
 10
513.8062810614
 20
25.0992969811
 30
0.0
 10
514.0457417256
 20
25.0992969811
 30
0.0
 10
514.1813052492
 20
24.9103455061
 30
0.0
 10
514.1813052492
 20
24.6858020636
 30
0.0
 10
514.1813052492
 20
24.4596883873
 30
0.0
 10
514.0480970764
 20
24.2675964446
 30
0.0
 10
513.8062810614
 20
24.2675964446
 30
0.0
  0
SPLINE
  5
23E
330
212
100
AcDbEntity
  8
0
  6
Continuous
 62
     7
100
AcDbSpline
 70
     3
 71
     3
 72
    50
 73
    46
 74
     0
 42
0.000000001
 43
0.0000001
 40
0.0
 40
0.0
 40
0.0
 40
0.0
 40
1.0
 40
1.0
 40
1.0
 40
2.0
 40
2.0
 40
2.0
 40
3.0
 40
3.0
 40
3.0
 40
4.0
 40
4.0
 40
4.0
 40
5.0
 40
5.0
 40
5.0
 40
6.0
 40
6.0
 40
6.0
 40
7.0
 40
7.0
 40
7.0
 40
8.0
 40
8.0
 40
8.0
 40
9.0
 40
9.0
 40
9.0
 40
10.0
 40
10.0
 40
10.0
 40
11.0
 40
11.0
 40
11.0
 40
12.0
 40
12.0
 40
12.0
 40
13.0
 40
13.0
 40
13.0
 40
14.0
 40
14.0
 40
14.0
 40
15.0
 40
15.0
 40
15.0
 40
15.0
 10
514.3904080587
 20
25.2626013029
 30
0.0
 10
514.3904080587
 20
25.2626013029
 30
0.0
 10
514.1687433783
 20
25.2626013029
 30
0.0
 10
514.1687433783
 20
25.2626013029
 30
0.0
 10
514.1687433783
 20
25.2626013029
 30
0.0
 10
514.1687433783
 20
25.0652752474
 30
0.0
 10
514.1687433783
 20
25.0652752474
 30
0.0
 10
514.1687433783
 20
25.0652752474
 30
0.0
 10
514.1640326767
 20
25.0652752474
 30
0.0
 10
514.1640326767
 20
25.0652752474
 30
0.0
 10
514.0726974069
 20
25.2081665289
 30
0.0
 10
513.9347785326
 20
25.2966230366
 30
0.0
 10
513.7620528076
 20
25.2966230366
 30
0.0
 10
513.4296866398
 20
25.2966230366
 30
0.0
 10
513.2205838303
 20
25.0087468283
 30
0.0
 10
513.2205838303
 20
24.6931298217
 30
0.0
 10
513.2205838303
 20
24.3633807103
 30
0.0
 10
513.4176481802
 20
24.0702703891
 30
0.0
 10
513.7725210333
 20
24.0702703891
 30
0.0
 10
513.9347785326
 20
24.0702703891
 30
0.0
 10
514.0747910521
 20
24.1587268968
 30
0.0
 10
514.1640326767
 20
24.2895797187
 30
0.0
 10
514.1640326767
 20
24.2895797187
 30
0.0
 10
514.1687433783
 20
24.2895797187
 30
0.0
 10
514.1687433783
 20
24.2895797187
 30
0.0
 10
514.1687433783
 20
24.2895797187
 30
0.0
 10
514.1687433783
 20
24.0702703891
 30
0.0
 10
514.1687433783
 20
24.0702703891
 30
0.0
 10
514.1687433783
 20
23.833688487
 30
0.0
 10
514.1122149592
 20
23.6468306572
 30
0.0
 10
513.8389942669
 20
23.6468306572
 30
0.0
 10
513.6366958041
 20
23.6468306572
 30
0.0
 10
513.4940662282
 20
23.7651216083
 30
0.0
 10
513.4940662282
 20
23.9713456557
 30
0.0
 10
513.4940662282
 20
23.9713456557
 30
0.0
 10
513.2724015478
 20
23.9713456557
 30
0.0
 10
513.2724015478
 20
23.9713456557
 30
0.0
 10
513.277373955
 20
23.6468306572
 30
0.0
 10
513.5084600386
 20
23.450028013
 30
0.0
 10
513.8287877468
 20
23.450028013
 30
0.0
 10
514.2768278092
 20
23.450028013
 30
0.0
 10
514.3904080587
 20
23.7352871649
 30
0.0
 10
514.3904080587
 20
24.1320329211
 30
0.0
 10
514.3904080587
 20
24.1320329211
 30
0.0
 10
514.3904080587
 20
25.2626013029
 30
0.0
 10
514.3904080587
 20
25.2626013029
 30
0.0
  0
SPLINE
  5
23F
330
212
100
AcDbEntity
  8
0
  6
Continuous
 62
     7
100
AcDbSpline
 70
     3
 71
     3
 72
    44
 73
    40
 74
     0
 42
0.000000001
 43
0.0000001
 40
0.0
 40
0.0
 40
0.0
 40
0.0
 40
1.0
 40
1.0
 40
1.0
 40
2.0
 40
2.0
 40
2.0
 40
3.0
 40
3.0
 40
3.0
 40
4.0
 40
4.0
 40
4.0
 40
5.0
 40
5.0
 40
5.0
 40
6.0
 40
6.0
 40
6.0
 40
7.0
 40
7.0
 40
7.0
 40
8.0
 40
8.0
 40
8.0
 40
9.0
 40
9.0
 40
9.0
 40
10.0
 40
10.0
 40
10.0
 40
11.0
 40
11.0
 40
11.0
 40
12.0
 40
12.0
 40
12.0
 40
13.0
 40
13.0
 40
13.0
 40
13.0
 10
515.9593333941
 20
26.2476613467
 30
0.0
 10
515.9593333941
 20
26.2476613467
 30
0.0
 10
515.9593333941
 20
24.1095262357
 30
0.0
 10
515.9593333941
 20
24.1095262357
 30
0.0
 10
515.9593333941
 20
24.1095262357
 30
0.0
 10
516.1807363688
 20
24.1095262357
 30
0.0
 10
516.1807363688
 20
24.1095262357
 30
0.0
 10
516.1807363688
 20
24.1095262357
 30
0.0
 10
516.1807363688
 20
24.639218459
 30
0.0
 10
516.1807363688
 20
24.639218459
 30
0.0
 10
516.1807363688
 20
24.8491063855
 30
0.0
 10
516.1807363688
 20
25.0998203924
 30
0.0
 10
516.4659955207
 20
25.0998203924
 30
0.0
 10
516.692894314
 20
25.0998203924
 30
0.0
 10
516.7198499953
 20
24.9668739252
 30
0.0
 10
516.7198499953
 20
24.7705946923
 30
0.0
 10
516.7198499953
 20
24.7705946923
 30
0.0
 10
516.7198499953
 20
24.1095262357
 30
0.0
 10
516.7198499953
 20
24.1095262357
 30
0.0
 10
516.7198499953
 20
24.1095262357
 30
0.0
 10
516.9417763814
 20
24.1095262357
 30
0.0
 10
516.9417763814
 20
24.1095262357
 30
0.0
 10
516.9417763814
 20
24.1095262357
 30
0.0
 10
516.9417763814
 20
24.7967652567
 30
0.0
 10
516.9417763814
 20
24.7967652567
 30
0.0
 10
516.9417763814
 20
25.077313707
 30
0.0
 10
516.8577688697
 20
25.2971464479
 30
0.0
 10
516.5327304599
 20
25.2971464479
 30
0.0
 10
516.3929796461
 20
25.2971464479
 30
0.0
 10
516.2547990661
 20
25.2306732143
 30
0.0
 10
516.1854470704
 20
25.1076715617
 30
0.0
 10
516.1854470704
 20
25.1076715617
 30
0.0
 10
516.1807363688
 20
25.1076715617
 30
0.0
 10
516.1807363688
 20
25.1076715617
 30
0.0
 10
516.1807363688
 20
25.1076715617
 30
0.0
 10
516.1807363688
 20
26.2476613467
 30
0.0
 10
516.1807363688
 20
26.2476613467
 30
0.0
 10
516.1807363688
 20
26.2476613467
 30
0.0
 10
515.9593333941
 20
26.2476613467
 30
0.0
 10
515.9593333941
 20
26.2476613467
 30
0.0
  0
LWPOLYLINE
  5
240
330
212
100
AcDbEntity
  8
0
  6
Continuous
 62
     7
100
AcDbPolyline
 90
        2
 70
     0
 43
0.2
 10
518.781567
 20
25.05533
 10
518.997998
 20
25.05533
  0
LWPOLYLINE
  5
241
330
212
100
AcDbEntity
  8
0
  6
Continuous
 62
     7
100
AcDbPolyline
 90
        2
 70
     0
 43
0.2
 10
518.997998
 20
25.05533
 10
518.997998
 20
25.262078
  0
LWPOLYLINE
  5
242
330
212
100
AcDbEntity
  8
0
  6
Continuous
 62
     7
100
AcDbPolyline
 90
        2
 70
     0
 43
0.2
 10
518.997998
 20
25.262078
 10
518.781567
 20
25.262078
  0
LWPOLYLINE
  5
243
330
212
100
AcDbEntity
  8
0
  6
Continuous
 62
     7
100
AcDbPolyline
 90
        2
 70
     0
 43
0.2
 10
518.781567
 20
25.262078
 10
518.781567
 20
25.70279
  0
LWPOLYLINE
  5
244
330
212
100
AcDbEntity
  8
0
  6
Continuous
 62
     7
100
AcDbPolyline
 90
        2
 70
     0
 43
0.2
 10
518.781567
 20
25.70279
 10
518.559902
 20
25.70279
  0
LWPOLYLINE
  5
245
330
212
100
AcDbEntity
  8
0
  6
Continuous
 62
     7
100
AcDbPolyline
 90
        2
 70
     0
 43
0.2
 10
518.559902
 20
25.70279
 10
518.559902
 20
25.262078
  0
LWPOLYLINE
  5
246
330
212
100
AcDbEntity
  8
0
  6
Continuous
 62
     7
100
AcDbPolyline
 90
        2
 70
     0
 43
0.2
 10
518.559902
 20
25.262078
 10
518.439256
 20
25.262078
  0
LWPOLYLINE
  5
247
330
212
100
AcDbEntity
  8
0
  6
Continuous
 62
     7
100
AcDbPolyline
 90
        2
 70
     0
 43
0.2
 10
518.439256
 20
25.262078
 10
518.439256
 20
25.05533
  0
LWPOLYLINE
  5
248
330
212
100
AcDbEntity
  8
0
  6
Continuous
 62
     7
100
AcDbPolyline
 90
        2
 70
     0
 43
0.2
 10
518.439256
 20
25.05533
 10
518.559902
 20
25.05533
  0
LWPOLYLINE
  5
249
330
212
100
AcDbEntity
  8
0
  6
Continuous
 62
     7
100
AcDbPolyline
 90
        2
 70
     0
 43
0.2
 10
518.559902
 20
25.05533
 10
518.559902
 20
24.109526
  0
LWPOLYLINE
  5
24A
330
212
100
AcDbEntity
  8
0
  6
Continuous
 62
     7
100
AcDbPolyline
 90
        2
 70
     0
 43
0.2
 10
518.559902
 20
24.109526
 10
518.781567
 20
24.109526
  0
LWPOLYLINE
  5
24B
330
212
100
AcDbEntity
  8
0
  6
Continuous
 62
     7
100
AcDbPolyline
 90
        2
 70
     0
 43
0.2
 10
518.781567
 20
24.109526
 10
518.781567
 20
25.05533
  0
SPLINE
  5
24C
330
212
100
AcDbEntity
  8
0
  6
Continuous
 62
     7
100
AcDbSpline
 70
     3
 71
     3
 72
    20
 73
    16
 74
     0
 42
0.000000001
 43
0.0000001
 40
0.0
 40
0.0
 40
0.0
 40
0.0
 40
1.0
 40
1.0
 40
1.0
 40
2.0
 40
2.0
 40
2.0
 40
3.0
 40
3.0
 40
3.0
 40
4.0
 40
4.0
 40
4.0
 40
5.0
 40
5.0
 40
5.0
 40
5.0
 10
506.5635773655
 20
34.4704526791
 30
0.0
 10
506.5635773655
 20
34.4704526791
 30
0.0
 10
508.87993402
 20
31.6408912569
 30
0.0
 10
508.87993402
 20
31.6408912569
 30
0.0
 10
508.2282869666
 20
30.9887207922
 30
0.0
 10
507.4514137626
 20
30.2528045214
 30
0.0
 10
506.4802241179
 20
30.2528045214
 30
0.0
 10
505.4816862335
 20
30.2528045214
 30
0.0
 10
504.5383682399
 20
31.1823829687
 30
0.0
 10
504.5383682399
 20
32.1815751172
 30
0.0
 10
504.5383682399
 20
33.1807672658
 30
0.0
 10
505.717221313
 20
33.8873725044
 30
0.0
 10
506.4387437734
 20
34.3872302843
 30
0.0
 10
506.4387437734
 20
34.3872302843
 30
0.0
 10
506.5635773655
 20
34.4704526791
 30
0.0
 10
506.5635773655
 20
34.4704526791
 30
0.0
  0
SPLINE
  5
24D
330
212
100
AcDbEntity
  8
0
  6
Continuous
 62
     7
100
AcDbSpline
 70
     3
 71
     3
 72
    23
 73
    19
 74
     0
 42
0.000000001
 43
0.0000001
 40
0.0
 40
0.0
 40
0.0
 40
0.0
 40
1.0
 40
1.0
 40
1.0
 40
2.0
 40
2.0
 40
2.0
 40
3.0
 40
3.0
 40
3.0
 40
4.0
 40
4.0
 40
4.0
 40
5.0
 40
5.0
 40
5.0
 40
6.0
 40
6.0
 40
6.0
 40
6.0
 10
506.8409853481
 20
36.1082065988
 30
0.0
 10
506.8409853481
 20
36.1082065988
 30
0.0
 10
506.4944870755
 20
36.5515359597
 30
0.0
 10
506.4944870755
 20
36.5515359597
 30
0.0
 10
506.1886840306
 20
36.9396454296
 30
0.0
 10
505.8697957034
 20
37.328147458
 30
0.0
 10
505.8697957034
 20
37.8550917721
 30
0.0
 10
505.8697957034
 20
38.5212634887
 30
0.0
 10
506.4111338279
 20
38.964985408
 30
0.0
 10
507.0350400831
 20
38.964985408
 30
0.0
 10
507.7288217451
 20
38.964985408
 30
0.0
 10
508.2560277648
 20
38.5627438333
 30
0.0
 10
508.2560277648
 20
37.8277435323
 30
0.0
 10
508.2560277648
 20
37.0644790218
 30
0.0
 10
507.5347670102
 20
36.634365796
 30
0.0
 10
507.0076918433
 20
36.2186463806
 30
0.0
 10
507.0076918433
 20
36.2186463806
 30
0.0
 10
506.8409853481
 20
36.1082065988
 30
0.0
 10
506.8409853481
 20
36.1082065988
 30
0.0
  0
SPLINE
  5
24E
330
212
100
AcDbEntity
  8
0
  6
Continuous
 62
     7
100
AcDbSpline
 70
     3
 71
     3
 72
    50
 73
    46
 74
     0
 42
0.000000001
 43
0.0000001
 40
0.0
 40
0.0
 40
0.0
 40
0.0
 40
1.0
 40
1.0
 40
1.0
 40
2.0
 40
2.0
 40
2.0
 40
3.0
 40
3.0
 40
3.0
 40
4.0
 40
4.0
 40
4.0
 40
5.0
 40
5.0
 40
5.0
 40
6.0
 40
6.0
 40
6.0
 40
7.0
 40
7.0
 40
7.0
 40
8.0
 40
8.0
 40
8.0
 40
9.0
 40
9.0
 40
9.0
 40
10.0
 40
10.0
 40
10.0
 40
11.0
 40
11.0
 40
11.0
 40
12.0
 40
12.0
 40
12.0
 40
13.0
 40
13.0
 40
13.0
 40
14.0
 40
14.0
 40
14.0
 40
15.0
 40
15.0
 40
15.0
 40
15.0
 10
510.794572511
 20
29.3096173807
 30
0.0
 10
510.794572511
 20
29.3096173807
 30
0.0
 10
512.4038005156
 20
29.3096173807
 30
0.0
 10
512.4038005156
 20
29.3096173807
 30
0.0
 10
512.4038005156
 20
29.3096173807
 30
0.0
 10
510.5307732219
 20
31.6267591521
 30
0.0
 10
510.5307732219
 20
31.6267591521
 30
0.0
 10
510.5307732219
 20
31.6267591521
 30
0.0
 10
511.8071116474
 20
33.1242388467
 30
0.0
 10
511.8071116474
 20
33.1242388467
 30
0.0
 10
511.8071116474
 20
33.1242388467
 30
0.0
 10
510.9748876997
 20
33.9852504152
 30
0.0
 10
510.9748876997
 20
33.9852504152
 30
0.0
 10
510.9748876997
 20
33.9852504152
 30
0.0
 10
509.7542925764
 20
32.5699462928
 30
0.0
 10
509.7542925764
 20
32.5699462928
 30
0.0
 10
509.7542925764
 20
32.5699462928
 30
0.0
 10
507.5763782075
 20
35.2053221273
 30
0.0
 10
507.5763782075
 20
35.2053221273
 30
0.0
 10
508.449951647
 20
35.8433604872
 30
0.0
 10
509.4766228882
 20
36.634365796
 30
0.0
 10
509.4766228882
 20
37.8132188691
 30
0.0
 10
509.4766228882
 20
39.1869117941
 30
0.0
 10
508.3387267483
 20
39.9913949435
 30
0.0
 10
507.0634351454
 20
39.9913949435
 30
0.0
 10
505.6900039261
 20
39.9913949435
 30
0.0
 10
504.6490697273
 20
39.1451697439
 30
0.0
 10
504.6490697273
 20
37.7025173817
 30
0.0
 10
504.6490697273
 20
36.8149426903
 30
0.0
 10
505.2044091037
 20
36.0380694863
 30
0.0
 10
505.8005745606
 20
35.4136398198
 30
0.0
 10
505.8005745606
 20
35.4136398198
 30
0.0
 10
505.1486658016
 20
34.9420462495
 30
0.0
 10
505.1486658016
 20
34.9420462495
 30
0.0
 10
504.1501279171
 20
34.2207854948
 30
0.0
 10
503.3172497053
 20
33.4995247401
 30
0.0
 10
503.3172497053
 20
32.1679664237
 30
0.0
 10
503.3172497053
 20
30.3642911257
 30
0.0
 10
504.7742958779
 20
29.0876909946
 30
0.0
 10
506.5218353153
 20
29.0876909946
 30
0.0
 10
507.7566933962
 20
29.0876909946
 30
0.0
 10
508.8660636209
 20
29.7958664671
 30
0.0
 10
509.6569380768
 20
30.7243980918
 30
0.0
 10
509.6569380768
 20
30.7243980918
 30
0.0
 10
510.794572511
 20
29.3096173807
 30
0.0
 10
510.794572511
 20
29.3096173807
 30
0.0
  0
LINE
  5
24F
330
212
100
AcDbEntity
  8
0
  6
Continuous
 62
     7
100
AcDbLine
 10
496.597434
 20
27.283492
 30
0.0
 11
519.011345
 21
27.283492
 31
0.0
  0
LINE
  5
250
330
212
100
AcDbEntity
  8
0
  6
Continuous
 62
     7
100
AcDbLine
 10
519.011345
 20
27.283492
 30
0.0
 11
519.011345
 21
49.697403
 31
0.0
  0
LINE
  5
251
330
212
100
AcDbEntity
  8
0
  6
Continuous
 62
     7
100
AcDbLine
 10
519.011345
 20
49.697403
 30
0.0
 11
496.597434
 21
49.697403
 31
0.0
  0
LINE
  5
252
330
212
100
AcDbEntity
  8
0
  6
Continuous
 62
     7
100
AcDbLine
 10
496.597434
 20
49.697403
 30
0.0
 11
496.597434
 21
27.283492
 31
0.0
  0
ENDBLK
  5
253
330
212
100
AcDbEntity
  8
0
  6
ByBlock
 62
     0
100
AcDbBlockEnd
  0
BLOCK
  5
26F
330
213
100
AcDbEntity
  8
0
100
AcDbBlockBegin
  2
*T5
 70
     1
 10
0.0
 20
0.0
 30
0.0
  3
*T5
  1
*T5
  0
LINE
  5
270
330
213
100
AcDbEntity
  8
0
  6
Continuous
 62
     2
100
AcDbLine
 10
0.0
 20
0.0
 30
0.0
 11
90.0
 21
0.0
 31
0.0
  0
LINE
  5
271
330
213
100
AcDbEntity
  8
0
  6
Continuous
 62
     2
100
AcDbLine
 10
0.0
 20
0.0
 30
0.0
 11
0.0
 21
-40.0
 31
0.0
  0
LINE
  5
272
330
213
100
AcDbEntity
  8
0
  6
Continuous
 62
     2
100
AcDbLine
 10
30.0
 20
-6.0
 30
0.0
 11
90.0
 21
-6.0
 31
0.0
  0
LINE
  5
273
330
213
100
AcDbEntity
  8
0
  6
Continuous
 62
     2
100
AcDbLine
 10
30.0
 20
-12.0
 30
0.0
 11
90.0
 21
-12.0
 31
0.0
  0
LINE
  5
274
330
213
100
AcDbEntity
  8
0
  6
Continuous
 62
     2
100
AcDbLine
 10
30.0
 20
-22.0
 30
0.0
 11
90.0
 21
-22.0
 31
0.0
  0
LINE
  5
275
330
213
100
AcDbEntity
  8
0
  6
Continuous
 62
     2
100
AcDbLine
 10
0.0
 20
-27.0
 30
0.0
 11
90.0
 21
-27.0
 31
0.0
  0
LINE
  5
276
330
213
100
AcDbEntity
  8
0
  6
Continuous
 62
     2
100
AcDbLine
 10
0.0
 20
-40.0
 30
0.0
 11
90.0
 21
-40.0
 31
0.0
  0
LINE
  5
277
330
213
100
AcDbEntity
  8
0
  6
Continuous
 62
     2
100
AcDbLine
 10
30.0
 20
0.0
 30
0.0
 11
30.0
 21
-27.0
 31
0.0
  0
LINE
  5
278
330
213
100
AcDbEntity
  8
0
  6
Continuous
 62
     2
100
AcDbLine
 10
70.0
 20
0.0
 30
0.0
 11
70.0
 21
-12.0
 31
0.0
  0
LINE
  5
279
330
213
100
AcDbEntity
  8
0
  6
Continuous
 62
     2
100
AcDbLine
 10
90.0
 20
0.0
 30
0.0
 11
90.0
 21
-40.0
 31
0.0
  0
MTEXT
  5
27A
330
213
100
AcDbEntity
  8
9_SOLID
  6
Continuous
 62
     2
100
AcDbMText
 10
31.4875
 20
-1.5
 30
0.0
 40
3.0
 41
48.571429
 46
0.0
 71
     1
 72
     1
  1
A057_C_007
  7
TEXTSTYLE_5
 73
     1
 44
0.9
  0
MTEXT
  5
27B
330
213
100
AcDbEntity
  8
9_SOLID
  6
Continuous
 62
     2
100
AcDbMText
 10
71.4875
 20
-1.25
 30
0.0
 40
3.5
 41
30.333333
 46
0.0
 71
     1
 72
     1
  1
Rev:00
  7
TEXTSTYLE_5
 73
     1
 44
0.9
  0
MTEXT
  5
27C
330
213
100
AcDbEntity
  8
9_SOLID
  6
Continuous
 62
     2
100
AcDbMText
 10
31.4875
 20
-7.75
 30
0.0
 40
3.5
 41
36.5
 46
0.0
 71
     1
 72
     1
  1
Scale:1:1
  7
TEXTSTYLE_5
 73
     1
 44
0.9
  0
MTEXT
  5
27D
330
213
100
AcDbEntity
  8
9_SOLID
  6
Continuous
 62
     2
100
AcDbMText
 10
71.4875
 20
-7.25
 30
0.0
 40
3.5
 41
11.5
 46
0.0
 71
     1
 72
     1
  1
A2
  7
TEXTSTYLE_5
 73
     1
 44
0.9
  0
MTEXT
  5
27E
330
213
100
AcDbEntity
  8
9_SOLID
  6
Continuous
 62
     2
100
AcDbMText
 10
31.4875
 20
-15.75
 30
0.0
 40
2.5
 41
126.666667
 46
0.0
 71
     1
 72
     1
  1
FRONT.SEMI PROFONDO TONDO COMBO4
  7
TEXTSTYLE_5
 73
     1
 44
0.9
  0
MTEXT
  5
27F
330
213
100
AcDbEntity
  8
9_SOLID
  6
Continuous
 62
     2
100
AcDbMText
 10
31.4875
 20
-23.25
 30
0.0
 40
2.5
 41
45.47619
 46
0.0
 71
     1
 72
     1
  1
DATE:12.12.19
  7
TEXTSTYLE_5
 73
     1
 44
0.9
  0
MTEXT
  5
280
330
213
100
AcDbEntity
  8
9_SOLID
  6
Continuous
 62
     2
100
AcDbMText
 10
1.4875
 20
-27.3125
 30
0.0
 40
2.25
 41
178.607143
 46
0.0
 71
     1
 72
     1
  1
Any integral or partial reproductions are prohibited \Pwithout prior authorisation of L & L Luce & Light s.r.l., \Pin accordance with the law in force. \PAll rights reserved.
  7
TEXTSTYLE_5
 73
     1
 44
0.9
  0
ENDBLK
  5
281
330
213
100
AcDbEntity
  8
0
  6
ByBlock
 62
     0
100
AcDbBlockEnd
  0
ENDSEC
  0
SECTION
  2
ENTITIES
  0
LINE
  5
282
330
20C
100
AcDbEntity
  8
0
  6
Continuous
 62
     7
100
AcDbLine
 10
0.0
 20
0.0
 30
0.0
 11
594.0
 21
0.0
 31
0.0
  0
LINE
  5
283
330
20C
100
AcDbEntity
  8
0
  6
Continuous
 62
     7
100
AcDbLine
 10
594.0
 20
0.0
 30
0.0
 11
594.0
 21
420.0
 31
0.0
  0
LINE
  5
284
330
20C
100
AcDbEntity
  8
0
  6
Continuous
 62
     7
100
AcDbLine
 10
0.0
 20
420.0
 30
0.0
 11
594.0
 21
420.0
 31
0.0
  0
LINE
  5
285
330
20C
100
AcDbEntity
  8
0
  6
Continuous
 62
     7
100
AcDbLine
 10
0.0
 20
0.0
 30
0.0
 11
0.0
 21
420.0
 31
0.0
  0
LWPOLYLINE
  5
286
330
20C
100
AcDbEntity
  8
0
  6
Continuous
 62
     7
100
AcDbPolyline
 90
        2
 70
     0
 43
0.5
 10
584.0
 20
10.031844
 10
584.0
 20
410.0
  0
LWPOLYLINE
  5
287
330
20C
100
AcDbEntity
  8
0
  6
Continuous
 62
     7
100
AcDbPolyline
 90
        2
 70
     0
 43
0.5
 10
10.053631
 20
10.031844
 10
10.053631
 20
410.0
  0
LWPOLYLINE
  5
288
330
20C
100
AcDbEntity
  8
0
  6
Continuous
 62
     7
100
AcDbPolyline
 90
        2
 70
     0
 43
0.5
 10
10.053631
 20
10.031844
 10
584.0
 20
10.031844
  0
LWPOLYLINE
  5
289
330
20C
100
AcDbEntity
  8
0
  6
Continuous
 62
     7
100
AcDbPolyline
 90
        2
 70
     0
 43
0.1
 10
297.0
 20
10.0
 10
297.0
 20
0.0
  0
LWPOLYLINE
  5
28A
330
20C
100
AcDbEntity
  8
0
  6
Continuous
 62
     7
100
AcDbPolyline
 90
        2
 70
     0
 43
0.1
 10
297.0
 20
410.0
 10
297.0
 20
420.0
  0
LWPOLYLINE
  5
28B
330
20C
100
AcDbEntity
  8
0
  6
Continuous
 62
     7
100
AcDbPolyline
 90
        2
 70
     0
 43
0.1
 10
584.0
 20
210.0
 10
594.0
 20
210.0
  0
LWPOLYLINE
  5
28C
330
20C
100
AcDbEntity
  8
0
  6
Continuous
 62
     7
100
AcDbPolyline
 90
        2
 70
     0
 43
0.1
 10
10.0
 20
210.0
 10
0.0
 20
210.0
  0
LWPOLYLINE
  5
28D
330
20C
100
AcDbEntity
  8
0
  6
Continuous
 62
     7
100
AcDbPolyline
 90
        2
 70
     0
 43
0.5
 10
10.053631
 20
410.0
 10
584.0
 20
410.0
  0
LWPOLYLINE
  5
28E
330
20C
100
AcDbEntity
  8
0
  6
Continuous
 62
     7
100
AcDbPolyline
 90
        2
 70
     0
 43
0.1
 10
0.0
 20
413.0
 10
594.0
 20
413.0
  0
LWPOLYLINE
  5
28F
330
20C
100
AcDbEntity
  8
0
  6
Continuous
 62
     7
100
AcDbPolyline
 90
        2
 70
     0
 43
0.1
 10
7.053631
 20
0.0
 10
7.053631
 20
420.0
  0
LWPOLYLINE
  5
290
330
20C
100
AcDbEntity
  8
0
  6
Continuous
 62
     7
100
AcDbPolyline
 90
        2
 70
     0
 43
0.1
 10
587.0
 20
0.0
 10
587.0
 20
420.0
  0
LWPOLYLINE
  5
291
330
20C
100
AcDbEntity
  8
0
  6
Continuous
 62
     7
100
AcDbPolyline
 90
        2
 70
     0
 43
0.1
 10
0.0
 20
7.031844
 10
594.0
 20
7.031844
  0
LINE
  5
292
330
20C
100
AcDbEntity
  8
0
  6
Continuous
 62
     7
100
AcDbLine
 10
384.0
 20
0.0
 30
0.0
 11
384.0
 21
10.0
 31
0.0
  0
LINE
  5
293
330
20C
100
AcDbEntity
  8
0
  6
Continuous
 62
     7
100
AcDbLine
 10
487.0
 20
7.0
 30
0.0
 11
487.0
 21
0.0
 31
0.0
  0
LINE
  5
294
330
20C
100
AcDbEntity
  8
0
  6
Continuous
 62
     7
100
AcDbLine
 10
287.0
 20
7.0
 30
0.0
 11
287.0
 21
0.0
 31
0.0
  0
LINE
  5
295
330
20C
100
AcDbEntity
  8
0
  6
Continuous
 62
     7
100
AcDbLine
 10
187.0
 20
7.0
 30
0.0
 11
187.0
 21
0.0
 31
0.0
  0
LINE
  5
296
330
20C
100
AcDbEntity
  8
0
  6
Continuous
 62
     7
100
AcDbLine
 10
87.0
 20
7.0
 30
0.0
 11
87.0
 21
0.0
 31
0.0
  0
LINE
  5
297
330
20C
100
AcDbEntity
  8
0
  6
Continuous
 62
     7
100
AcDbLine
 10
173.5
 20
420.0
 30
0.0
 11
173.5
 21
410.0
 31
0.0
  0
LINE
  5
298
330
20C
100
AcDbEntity
  8
0
  6
Continuous
 62
     7
100
AcDbLine
 10
384.0
 20
410.0
 30
0.0
 11
384.0
 21
420.0
 31
0.0
  0
LINE
  5
299
330
20C
100
AcDbEntity
  8
0
  6
Continuous
 62
     7
100
AcDbLine
 10
487.0
 20
420.0
 30
0.0
 11
487.0
 21
413.0
 31
0.0
  0
LINE
  5
29A
330
20C
100
AcDbEntity
  8
0
  6
Continuous
 62
     7
100
AcDbLine
 10
287.0
 20
420.0
 30
0.0
 11
287.0
 21
413.0
 31
0.0
  0
LINE
  5
29B
330
20C
100
AcDbEntity
  8
0
  6
Continuous
 62
     7
100
AcDbLine
 10
187.0
 20
420.0
 30
0.0
 11
187.0
 21
413.0
 31
0.0
  0
LINE
  5
29C
330
20C
100
AcDbEntity
  8
0
  6
Continuous
 62
     7
100
AcDbLine
 10
87.0
 20
420.0
 30
0.0
 11
87.0
 21
413.0
 31
0.0
  0
LINE
  5
29D
330
20C
100
AcDbEntity
  8
0
  6
Continuous
 62
     7
100
AcDbLine
 10
587.0
 20
307.0
 30
0.0
 11
594.0
 21
307.0
 31
0.0
  0
LINE
  5
29E
330
20C
100
AcDbEntity
  8
0
  6
Continuous
 62
     7
100
AcDbLine
 10
0.0
 20
107.0
 30
0.0
 11
7.0
 21
107.0
 31
0.0
  0
LINE
  5
29F
330
20C
100
AcDbEntity
  8
0
  6
Continuous
 62
     7
100
AcDbLine
 10
0.0
 20
207.0
 30
0.0
 11
7.0
 21
207.0
 31
0.0
  0
LINE
  5
2A0
330
20C
100
AcDbEntity
  8
0
  6
Continuous
 62
     7
100
AcDbLine
 10
0.0
 20
307.0
 30
0.0
 11
7.0
 21
307.0
 31
0.0
  0
MTEXT
  5
2A1
330
20C
100
AcDbEntity
  8
0
  6
Continuous
 62
     2
100
AcDbMText
 10
536.154891
 20
5.35876
 30
0.0
 40
4.0
 41
3.6
 46
0.0
 71
     1
 72
     1
  1
A
  7
TEXTSTYLE_2
 73
     1
 44
0.9
  0
MTEXT
  5
2A2
330
20C
100
AcDbEntity
  8
0
  6
Continuous
 62
     2
100
AcDbMText
 10
436.154891
 20
5.35876
 30
0.0
 40
4.0
 41
3.6
 46
0.0
 71
     1
 72
     1
  1
B
  7
TEXTSTYLE_2
 73
     1
 44
0.9
  0
MTEXT
  5
2A3
330
20C
100
AcDbEntity
  8
0
  6
Continuous
 62
     2
100
AcDbMText
 10
336.154891
 20
5.35876
 30
0.0
 40
4.0
 41
3.6
 46
0.0
 71
     1
 72
     1
  1
C
  7
TEXTSTYLE_2
 73
     1
 44
0.9
  0
MTEXT
  5
2A4
330
20C
100
AcDbEntity
  8
0
  6
Continuous
 62
     2
100
AcDbMText
 10
236.154891
 20
5.35876
 30
0.0
 40
4.0
 41
3.6
 46
0.0
 71
     1
 72
     1
  1
D
  7
TEXTSTYLE_2
 73
     1
 44
0.9
  0
MTEXT
  5
2A5
330
20C
100
AcDbEntity
  8
0
  6
Continuous
 62
     2
100
AcDbMText
 10
136.154891
 20
5.35876
 30
0.0
 40
4.0
 41
3.6
 46
0.0
 71
     1
 72
     1
  1
E
  7
TEXTSTYLE_2
 73
     1
 44
0.9
  0
MTEXT
  5
2A6
330
20C
100
AcDbEntity
  8
0
  6
Continuous
 62
     2
100
AcDbMText
 10
588.646722
 20
60.626871
 30
0.0
 40
4.0
 41
3.428571
 46
0.0
 71
     1
 72
     1
  1
1
  7
TEXTSTYLE_3
 73
     1
 44
0.9
  0
MTEXT
  5
2A7
330
20C
100
AcDbEntity
  8
0
  6
Continuous
 62
     2
100
AcDbMText
 10
588.646722
 20
260.626871
 30
0.0
 40
4.0
 41
4.285714
 46
0.0
 71
     1
 72
     1
  1
3
  7
TEXTSTYLE_3
 73
     1
 44
0.9
  0
MTEXT
  5
2A8
330
20C
100
AcDbEntity
  8
0
  6
Continuous
 62
     2
100
AcDbMText
 10
588.646722
 20
360.626871
 30
0.0
 40
4.0
 41
4.714286
 46
0.0
 71
     1
 72
     1
  1
4
  7
TEXTSTYLE_3
 73
     1
 44
0.9
  0
MTEXT
  5
2A9
330
20C
100
AcDbEntity
  8
0
  6
Continuous
 62
     2
100
AcDbMText
 10
36.154891
 20
5.35876
 30
0.0
 40
4.0
 41
3.6
 46
0.0
 71
     1
 72
     1
  1
F
  7
TEXTSTYLE_2
 73
     1
 44
0.9
  0
MTEXT
  5
2AA
330
20C
100
AcDbEntity
  8
0
  6
Continuous
 62
     2
100
AcDbMText
 10
536.154891
 20
418.35876
 30
0.0
 40
4.0
 41
3.6
 46
0.0
 71
     1
 72
     1
  1
A
  7
TEXTSTYLE_2
 73
     1
 44
0.9
  0
MTEXT
  5
2AB
330
20C
100
AcDbEntity
  8
0
  6
Continuous
 62
     2
100
AcDbMText
 10
436.154891
 20
418.35876
 30
0.0
 40
4.0
 41
3.6
 46
0.0
 71
     1
 72
     1
  1
B
  7
TEXTSTYLE_2
 73
     1
 44
0.9
  0
MTEXT
  5
2AC
330
20C
100
AcDbEntity
  8
0
  6
Continuous
 62
     2
100
AcDbMText
 10
336.154891
 20
418.35876
 30
0.0
 40
4.0
 41
3.6
 46
0.0
 71
     1
 72
     1
  1
C
  7
TEXTSTYLE_2
 73
     1
 44
0.9
  0
MTEXT
  5
2AD
330
20C
100
AcDbEntity
  8
0
  6
Continuous
 62
     2
100
AcDbMText
 10
236.154891
 20
418.35876
 30
0.0
 40
4.0
 41
3.6
 46
0.0
 71
     1
 72
     1
  1
D
  7
TEXTSTYLE_2
 73
     1
 44
0.9
  0
MTEXT
  5
2AE
330
20C
100
AcDbEntity
  8
0
  6
Continuous
 62
     2
100
AcDbMText
 10
136.154891
 20
418.35876
 30
0.0
 40
4.0
 41
3.6
 46
0.0
 71
     1
 72
     1
  1
E
  7
TEXTSTYLE_2
 73
     1
 44
0.9
  0
MTEXT
  5
2AF
330
20C
100
AcDbEntity
  8
0
  6
Continuous
 62
     2
100
AcDbMText
 10
36.154891
 20
418.35876
 30
0.0
 40
4.0
 41
3.6
 46
0.0
 71
     1
 72
     1
  1
F
  7
TEXTSTYLE_2
 73
     1
 44
0.9
  0
MTEXT
  5
2B0
330
20C
100
AcDbEntity
  8
0
  6
Continuous
 62
     2
100
AcDbMText
 10
1.646722
 20
60.626871
 30
0.0
 40
4.0
 41
3.428571
 46
0.0
 71
     1
 72
     1
  1
1
  7
TEXTSTYLE_3
 73
     1
 44
0.9
  0
MTEXT
  5
2B1
330
20C
100
AcDbEntity
  8
0
  6
Continuous
 62
     2
100
AcDbMText
 10
1.646722
 20
160.626871
 30
0.0
 40
4.0
 41
4.714286
 46
0.0
 71
     1
 72
     1
  1
2
  7
TEXTSTYLE_3
 73
     1
 44
0.9
  0
MTEXT
  5
2B2
330
20C
100
AcDbEntity
  8
0
  6
Continuous
 62
     2
100
AcDbMText
 10
1.646722
 20
260.626871
 30
0.0
 40
4.0
 41
4.285714
 46
0.0
 71
     1
 72
     1
  1
3
  7
TEXTSTYLE_3
 73
     1
 44
0.9
  0
MTEXT
  5
2B3
330
20C
100
AcDbEntity
  8
0
  6
Continuous
 62
     2
100
AcDbMText
 10
1.646722
 20
360.626871
 30
0.0
 40
4.0
 41
4.714286
 46
0.0
 71
     1
 72
     1
  1
4
  7
TEXTSTYLE_3
 73
     1
 44
0.9
  0
ARC
  5
2B4
330
20C
100
AcDbEntity
  8
7_ALL_FEATURES
  6
Continuous
 62
     7
100
AcDbCircle
 10
142.072107
 20
280.787016
 30
0.0
 40
100.0
100
AcDbArc
 50
180.0
 51
360.0
  0
ARC
  5
2B5
330
20C
100
AcDbEntity
  8
7_ALL_FEATURES
  6
Continuous
 62
     7
100
AcDbCircle
 10
142.072107
 20
280.787016
 30
0.0
 40
100.0
100
AcDbArc
 50
0.0
 51
180.0
  0
ARC
  5
2B6
330
20C
100
AcDbEntity
  8
7_ALL_FEATURES
  6
Continuous
 62
     7
100
AcDbCircle
 10
142.072107
 20
280.787016
 30
0.0
 40
40.0
100
AcDbArc
 50
180.0
 51
360.0
  0
ARC
  5
2B7
330
20C
100
AcDbEntity
  8
7_ALL_FEATURES
  6
Continuous
 62
     7
100
AcDbCircle
 10
142.072107
 20
280.787016
 30
0.0
 40
40.0
100
AcDbArc
 50
0.0
 51
180.0
  0
ARC
  5
2B8
330
20C
100
AcDbEntity
  8
7_ALL_FEATURES
  6
Continuous
 62
     9
100
AcDbCircle
 10
142.072107
 20
280.787016
 30
0.0
 40
99.8855771405
100
AcDbArc
 50
180.0
 51
360.0
  0
ARC
  5
2B9
330
20C
100
AcDbEntity
  8
7_ALL_FEATURES
  6
Continuous
 62
     9
100
AcDbCircle
 10
142.072107
 20
280.787016
 30
0.0
 40
40.6262857646
100
AcDbArc
 50
180.0
 51
360.0
  0
ARC
  5
2BA
330
20C
100
AcDbEntity
  8
7_ALL_FEATURES
  6
Continuous
 62
     9
100
AcDbCircle
 10
142.072107
 20
280.787016
 30
0.0
 40
91.9557171827
100
AcDbArc
 50
180.0
 51
360.0
  0
ARC
  5
2BB
330
20C
100
AcDbEntity
  8
7_ALL_FEATURES
  6
Continuous
 62
     9
100
AcDbCircle
 10
142.072107
 20
280.787016
 30
0.0
 40
40.0170835057
100
AcDbArc
 50
180.0
 51
360.0
  0
ARC
  5
2BC
330
20C
100
AcDbEntity
  8
7_ALL_FEATURES
  6
Continuous
 62
     9
100
AcDbCircle
 10
142.072107
 20
280.787016
 30
0.0
 40
99.8855771405
100
AcDbArc
 50
0.0
 51
180.0
  0
ARC
  5
2BD
330
20C
100
AcDbEntity
  8
7_ALL_FEATURES
  6
Continuous
 62
     9
100
AcDbCircle
 10
142.072107
 20
280.787016
 30
0.0
 40
92.8926554151
100
AcDbArc
 50
180.0
 51
360.0
  0
ARC
  5
2BE
330
20C
100
AcDbEntity
  8
7_ALL_FEATURES
  6
Continuous
 62
     9
100
AcDbCircle
 10
142.072107
 20
280.787016
 30
0.0
 40
92.8926554151
100
AcDbArc
 50
0.0
 51
180.0
  0
ARC
  5
2BF
330
20C
100
AcDbEntity
  8
7_ALL_FEATURES
  6
Continuous
 62
     9
100
AcDbCircle
 10
142.072107
 20
280.787016
 30
0.0
 40
99.1358341468
100
AcDbArc
 50
180.0
 51
360.0
  0
ARC
  5
2C0
330
20C
100
AcDbEntity
  8
7_ALL_FEATURES
  6
Continuous
 62
     9
100
AcDbCircle
 10
142.072107
 20
280.787016
 30
0.0
 40
99.1358341468
100
AcDbArc
 50
0.0
 51
180.0
  0
ARC
  5
2C1
330
20C
100
AcDbEntity
  8
7_ALL_FEATURES
  6
Continuous
 62
     9
100
AcDbCircle
 10
142.072107
 20
280.787016
 30
0.0
 40
40.6262857646
100
AcDbArc
 50
0.0
 51
180.0
  0
ARC
  5
2C2
330
20C
100
AcDbEntity
  8
7_ALL_FEATURES
  6
Continuous
 62
     9
100
AcDbCircle
 10
142.072107
 20
280.787016
 30
0.0
 40
91.9557171827
100
AcDbArc
 50
0.0
 51
180.0
  0
ARC
  5
2C3
330
20C
100
AcDbEntity
  8
7_ALL_FEATURES
  6
Continuous
 62
     9
100
AcDbCircle
 10
142.072107
 20
280.787016
 30
0.0
 40
40.0170835057
100
AcDbArc
 50
0.0
 51
180.0
  0
LINE
  5
2C4
330
20C
100
AcDbEntity
  8
7_ALL_FEATURES
  6
Continuous
 62
     7
100
AcDbLine
 10
77.974749
 20
123.067152
 30
0.0
 11
77.719945
 21
124.402832
 31
0.0
  0
LINE
  5
2C5
330
20C
100
AcDbEntity
  8
7_ALL_FEATURES
  6
Continuous
 62
     7
100
AcDbLine
 10
75.525828
 20
125.511317
 30
0.0
 11
75.965435
 21
125.59518
 31
0.0
  0
LINE
  5
2C6
330
20C
100
AcDbEntity
  8
7_ALL_FEATURES
  6
Continuous
 62
     7
100
AcDbLine
 10
74.465044
 20
123.067152
 30
0.0
 11
74.333481
 21
123.756807
 31
0.0
  0
ARC
  5
2C7
330
20C
100
AcDbEntity
  8
7_ALL_FEATURES
  6
Continuous
 62
     7
100
AcDbCircle
 10
76.085982
 20
124.345634
 30
0.0
 40
0.75
100
AcDbArc
 50
10.800369
 51
190.800369
  0
LINE
  5
2C8
330
20C
100
AcDbEntity
  8
7_ALL_FEATURES
  6
Continuous
 62
     7
100
AcDbLine
 10
75.566349
 20
123.067152
 30
0.0
 11
75.565283
 21
123.072738
 31
0.0
  0
LINE
  5
2C9
330
20C
100
AcDbEntity
  8
7_ALL_FEATURES
  6
Continuous
 62
     7
100
AcDbLine
 10
75.565283
 20
123.072738
 30
0.0
 11
75.349267
 21
124.205093
 31
0.0
  0
ARC
  5
2CA
330
20C
100
AcDbEntity
  8
7_ALL_FEATURES
  6
Continuous
 62
     7
100
AcDbCircle
 10
75.80691
 20
124.037888
 30
0.0
 40
1.5
100
AcDbArc
 50
100.800369
 51
190.800369
  0
ARC
  5
2CB
330
20C
100
AcDbEntity
  8
7_ALL_FEATURES
  6
Continuous
 62
     7
100
AcDbCircle
 10
76.246516
 20
124.121751
 30
0.0
 40
1.5
100
AcDbArc
 50
10.800369
 51
100.800369
  0
LINE
  5
2CC
330
20C
100
AcDbEntity
  8
7_ALL_FEATURES
  6
Continuous
 62
     7
100
AcDbLine
 10
77.093399
 20
123.067152
 30
0.0
 11
76.822696
 21
124.486175
 31
0.0
  0
LINE
  5
2CD
330
20C
100
AcDbEntity
  8
7_ALL_FEATURES
  6
Continuous
 62
     7
100
AcDbLine
 10
144.820896
 20
123.067152
 30
0.0
 11
144.574723
 21
123.067152
 31
0.0
  0
LINE
  5
2CE
330
20C
100
AcDbEntity
  8
7_ALL_FEATURES
  6
Continuous
 62
     7
100
AcDbLine
 10
144.574723
 20
123.067152
 30
0.0
 11
139.323318
 21
123.067152
 31
0.0
  0
LINE
  5
2CF
330
20C
100
AcDbEntity
  8
7_ALL_FEATURES
  6
Continuous
 62
     7
100
AcDbLine
 10
70.930485
 20
123.067152
 30
0.0
 11
69.765332
 21
123.067152
 31
0.0
  0
LINE
  5
2D0
330
20C
100
AcDbEntity
  8
7_ALL_FEATURES
  6
Continuous
 62
     7
100
AcDbLine
 10
69.765332
 20
123.067152
 30
0.0
 11
68.87809
 21
123.067152
 31
0.0
  0
LINE
  5
2D1
330
20C
100
AcDbEntity
  8
7_ALL_FEATURES
  6
Continuous
 62
     7
100
AcDbLine
 10
68.87809
 20
123.067152
 30
0.0
 11
68.336405
 21
123.067152
 31
0.0
  0
LINE
  5
2D2
330
20C
100
AcDbEntity
  8
7_ALL_FEATURES
  6
Continuous
 62
     7
100
AcDbLine
 10
68.336405
 20
123.067152
 30
0.0
 11
68.179774
 21
123.067152
 31
0.0
  0
LINE
  5
2D3
330
20C
100
AcDbEntity
  8
7_ALL_FEATURES
  6
Continuous
 62
     7
100
AcDbLine
 10
80.955892
 20
130.011142
 30
0.0
 11
80.873523
 21
130.011108
 31
0.0
  0
LWPOLYLINE
  5
2D4
330
20C
100
AcDbEntity
  8
7_ALL_FEATURES
  6
Continuous
 62
     7
100
AcDbPolyline
 90
        3
 70
     0
 43
0.0
 10
80.591045
 20
130.011108
 10
80.543497
 20
130.011129
 10
80.46528
 20
130.011108
  0
LWPOLYLINE
  5
2D5
330
20C
100
AcDbEntity
  8
7_ALL_FEATURES
  6
Continuous
 62
     7
100
AcDbPolyline
 90
        4
 70
     0
 43
0.0
 10
80.257903
 20
130.011108
 10
80.188984
 20
130.011111
 10
80.088906
 20
130.011109
 10
80.045292
 20
130.011108
  0
LINE
  5
2D6
330
20C
100
AcDbEntity
  8
7_ALL_FEATURES
  6
Continuous
 62
     7
100
AcDbLine
 10
79.993508
 20
130.011108
 30
0.0
 11
79.921354
 21
130.01112
 31
0.0
  0
LWPOLYLINE
  5
2D7
330
20C
100
AcDbEntity
  8
7_ALL_FEATURES
  6
Continuous
 62
     7
100
AcDbPolyline
 90
        3
 70
     0
 43
0.0
 10
79.921354
 20
130.01112
 10
79.855532
 20
130.011115
 10
79.835732
 20
130.011108
  0
LWPOLYLINE
  5
2D8
330
20C
100
AcDbEntity
  8
7_ALL_FEATURES
  6
Continuous
 62
     7
100
AcDbPolyline
 90
        3
 70
     0
 43
0.0
 10
79.797574
 20
130.011108
 10
79.763955
 20
130.011223
 10
79.723818
 20
130.011128
  0
LINE
  5
2D9
330
20C
100
AcDbEntity
  8
7_ALL_FEATURES
  6
Continuous
 62
     7
100
AcDbLine
 10
216.012668
 20
123.064882
 30
0.0
 11
216.011044
 21
123.065035
 31
0.0
  0
LINE
  5
2DA
330
20C
100
AcDbEntity
  8
7_ALL_FEATURES
  6
Continuous
 62
     7
100
AcDbLine
 10
68.158019
 20
123.066677
 30
0.0
 11
68.133761
 21
123.065089
 31
0.0
  0
LINE
  5
2DB
330
20C
100
AcDbEntity
  8
7_ALL_FEATURES
  6
Continuous
 62
     7
100
AcDbLine
 10
78.802725
 20
130.011108
 30
0.0
 11
79.507295
 21
130.011108
 31
0.0
  0
LINE
  5
2DC
330
20C
100
AcDbEntity
  8
7_ALL_FEATURES
  6
Continuous
 62
     7
100
AcDbLine
 10
79.507295
 20
130.011108
 30
0.0
 11
79.713406
 21
130.011108
 31
0.0
  0
LINE
  5
2DD
330
20C
100
AcDbEntity
  8
7_ALL_FEATURES
  6
Continuous
 62
     7
100
AcDbLine
 10
79.713406
 20
130.011108
 30
0.0
 11
79.764266
 21
130.011108
 31
0.0
  0
LINE
  5
2DE
330
20C
100
AcDbEntity
  8
7_ALL_FEATURES
  6
Continuous
 62
     7
100
AcDbLine
 10
79.764266
 20
130.011108
 30
0.0
 11
80.160229
 21
130.011108
 31
0.0
  0
LINE
  5
2DF
330
20C
100
AcDbEntity
  8
7_ALL_FEATURES
  6
Continuous
 62
     7
100
AcDbLine
 10
80.160229
 20
130.011108
 30
0.0
 11
80.955893
 21
130.011108
 31
0.0
  0
LINE
  5
2E0
330
20C
100
AcDbEntity
  8
7_ALL_FEATURES
  6
Continuous
 62
     7
100
AcDbLine
 10
80.955893
 20
130.011108
 30
0.0
 11
81.609868
 21
130.011108
 31
0.0
  0
LINE
  5
2E1
330
20C
100
AcDbEntity
  8
7_ALL_FEATURES
  6
Continuous
 62
     7
100
AcDbLine
 10
81.609868
 20
130.011108
 30
0.0
 11
83.428072
 21
130.011108
 31
0.0
  0
LINE
  5
2E2
330
20C
100
AcDbEntity
  8
7_ALL_FEATURES
  6
Continuous
 62
     7
100
AcDbLine
 10
83.428072
 20
130.011108
 30
0.0
 11
203.776286
 21
130.011108
 31
0.0
  0
LINE
  5
2E3
330
20C
100
AcDbEntity
  8
7_ALL_FEATURES
  6
Continuous
 62
     7
100
AcDbLine
 10
203.776286
 20
130.011108
 30
0.0
 11
204.458906
 21
130.011108
 31
0.0
  0
LINE
  5
2E4
330
20C
100
AcDbEntity
  8
7_ALL_FEATURES
  6
Continuous
 62
     7
100
AcDbLine
 10
204.458906
 20
130.011108
 30
0.0
 11
204.636902
 21
130.011108
 31
0.0
  0
LINE
  5
2E5
330
20C
100
AcDbEntity
  8
7_ALL_FEATURES
  6
Continuous
 62
     7
100
AcDbLine
 10
204.636902
 20
130.011108
 30
0.0
 11
205.34149
 21
130.011108
 31
0.0
  0
LINE
  5
2E6
330
20C
100
AcDbEntity
  8
7_ALL_FEATURES
  6
Continuous
 62
     7
100
AcDbLine
 10
42.936273
 20
112.767152
 30
0.0
 11
49.179452
 21
112.767152
 31
0.0
  0
LINE
  5
2E7
330
20C
100
AcDbEntity
  8
7_ALL_FEATURES
  6
Continuous
 62
     7
100
AcDbLine
 10
49.179452
 20
112.767152
 30
0.0
 11
50.11639
 21
112.767152
 31
0.0
  0
LINE
  5
2E8
330
20C
100
AcDbEntity
  8
7_ALL_FEATURES
  6
Continuous
 62
     7
100
AcDbLine
 10
50.11639
 20
112.767152
 30
0.0
 11
234.027824
 21
112.767152
 31
0.0
  0
LINE
  5
2E9
330
20C
100
AcDbEntity
  8
7_ALL_FEATURES
  6
Continuous
 62
     7
100
AcDbLine
 10
234.027824
 20
112.767152
 30
0.0
 11
234.964763
 21
112.767152
 31
0.0
  0
LINE
  5
2EA
330
20C
100
AcDbEntity
  8
7_ALL_FEATURES
  6
Continuous
 62
     7
100
AcDbLine
 10
234.964763
 20
112.767152
 30
0.0
 11
241.207941
 21
112.767152
 31
0.0
  0
LINE
  5
2EB
330
20C
100
AcDbEntity
  8
7_ALL_FEATURES
  6
Continuous
 62
     7
100
AcDbLine
 10
206.254088
 20
123.061536
 30
0.0
 11
206.091233
 21
129.280741
 31
0.0
  0
LINE
  5
2EC
330
20C
100
AcDbEntity
  8
7_ALL_FEATURES
  6
Continuous
 62
     7
100
AcDbLine
 10
77.900469
 20
123.456524
 30
0.0
 11
77.925109
 21
124.39746
 31
0.0
  0
LINE
  5
2ED
330
20C
100
AcDbEntity
  8
7_ALL_FEATURES
  6
Continuous
 62
     7
100
AcDbLine
 10
77.925109
 20
124.39746
 30
0.0
 11
78.052982
 21
129.280741
 31
0.0
  0
LINE
  5
2EE
330
20C
100
AcDbEntity
  8
7_ALL_FEATURES
  6
Continuous
 62
     7
100
AcDbLine
 10
241.957684
 20
113.497519
 30
0.0
 11
242.072107
 21
117.867152
 31
0.0
  0
LINE
  5
2EF
330
20C
100
AcDbEntity
  8
7_ALL_FEATURES
  6
Continuous
 62
     7
100
AcDbLine
 10
42.18653
 20
113.497519
 30
0.0
 11
42.072107
 21
117.867152
 31
0.0
  0
LINE
  5
2F0
330
20C
100
AcDbEntity
  8
7_ALL_FEATURES
  6
Continuous
 62
     7
100
AcDbLine
 10
42.072107
 20
117.867152
 30
0.0
 11
43.360384
 21
117.867152
 31
0.0
  0
LINE
  5
2F1
330
20C
100
AcDbEntity
  8
7_ALL_FEATURES
  6
Continuous
 62
     7
100
AcDbLine
 10
43.360384
 20
117.867152
 30
0.0
 11
71.773316
 21
117.867152
 31
0.0
  0
LINE
  5
2F2
330
20C
100
AcDbEntity
  8
7_ALL_FEATURES
  6
Continuous
 62
     7
100
AcDbLine
 10
71.773316
 20
117.867152
 30
0.0
 11
72.820143
 21
117.867152
 31
0.0
  0
LINE
  5
2F3
330
20C
100
AcDbEntity
  8
7_ALL_FEATURES
  6
Continuous
 62
     7
100
AcDbLine
 10
72.820143
 20
117.867152
 30
0.0
 11
72.979817
 21
117.867152
 31
0.0
  0
LINE
  5
2F4
330
20C
100
AcDbEntity
  8
7_ALL_FEATURES
  6
Continuous
 62
     7
100
AcDbLine
 10
72.979817
 20
117.867152
 30
0.0
 11
73.374624
 21
117.867152
 31
0.0
  0
LINE
  5
2F5
330
20C
100
AcDbEntity
  8
7_ALL_FEATURES
  6
Continuous
 62
     7
100
AcDbLine
 10
73.374624
 20
117.867152
 30
0.0
 11
73.542509
 21
117.867152
 31
0.0
  0
LINE
  5
2F6
330
20C
100
AcDbEntity
  8
7_ALL_FEATURES
  6
Continuous
 62
     7
100
AcDbLine
 10
73.542509
 20
117.867152
 30
0.0
 11
73.703346
 21
117.867152
 31
0.0
  0
LINE
  5
2F7
330
20C
100
AcDbEntity
  8
7_ALL_FEATURES
  6
Continuous
 62
     7
100
AcDbLine
 10
73.703346
 20
117.867152
 30
0.0
 11
73.822773
 21
117.867152
 31
0.0
  0
LINE
  5
2F8
330
20C
100
AcDbEntity
  8
7_ALL_FEATURES
  6
Continuous
 62
     7
100
AcDbLine
 10
73.822773
 20
117.867152
 30
0.0
 11
74.095125
 21
117.867152
 31
0.0
  0
LINE
  5
2F9
330
20C
100
AcDbEntity
  8
7_ALL_FEATURES
  6
Continuous
 62
     7
100
AcDbLine
 10
74.095125
 20
117.867152
 30
0.0
 11
74.831464
 21
117.867152
 31
0.0
  0
LINE
  5
2FA
330
20C
100
AcDbEntity
  8
7_ALL_FEATURES
  6
Continuous
 62
     7
100
AcDbLine
 10
74.831464
 20
117.867152
 30
0.0
 11
135.238885
 21
117.867152
 31
0.0
  0
LINE
  5
2FB
330
20C
100
AcDbEntity
  8
7_ALL_FEATURES
  6
Continuous
 62
     7
100
AcDbLine
 10
135.238885
 20
117.867152
 30
0.0
 11
135.488851
 21
117.867152
 31
0.0
  0
LINE
  5
2FC
330
20C
100
AcDbEntity
  8
7_ALL_FEATURES
  6
Continuous
 62
     7
100
AcDbLine
 10
135.488851
 20
117.867152
 30
0.0
 11
140.564771
 21
117.867152
 31
0.0
  0
LINE
  5
2FD
330
20C
100
AcDbEntity
  8
7_ALL_FEATURES
  6
Continuous
 62
     7
100
AcDbLine
 10
140.564771
 20
117.867152
 30
0.0
 11
141.348598
 21
117.867152
 31
0.0
  0
LINE
  5
2FE
330
20C
100
AcDbEntity
  8
7_ALL_FEATURES
  6
Continuous
 62
     7
100
AcDbLine
 10
141.348598
 20
117.867152
 30
0.0
 11
142.795617
 21
117.867152
 31
0.0
  0
LINE
  5
2FF
330
20C
100
AcDbEntity
  8
7_ALL_FEATURES
  6
Continuous
 62
     7
100
AcDbLine
 10
142.795617
 20
117.867152
 30
0.0
 11
143.59642
 21
117.867152
 31
0.0
  0
LINE
  5
300
330
20C
100
AcDbEntity
  8
7_ALL_FEATURES
  6
Continuous
 62
     7
100
AcDbLine
 10
143.59642
 20
117.867152
 30
0.0
 11
144.618053
 21
117.867152
 31
0.0
  0
LINE
  5
301
330
20C
100
AcDbEntity
  8
7_ALL_FEATURES
  6
Continuous
 62
     7
100
AcDbLine
 10
144.618053
 20
117.867152
 30
0.0
 11
207.000671
 21
117.867152
 31
0.0
  0
LINE
  5
302
330
20C
100
AcDbEntity
  8
7_ALL_FEATURES
  6
Continuous
 62
     7
100
AcDbLine
 10
207.000671
 20
117.867152
 30
0.0
 11
210.04909
 21
117.867152
 31
0.0
  0
LINE
  5
303
330
20C
100
AcDbEntity
  8
7_ALL_FEATURES
  6
Continuous
 62
     7
100
AcDbLine
 10
210.04909
 20
117.867152
 30
0.0
 11
210.321442
 21
117.867152
 31
0.0
  0
LINE
  5
304
330
20C
100
AcDbEntity
  8
7_ALL_FEATURES
  6
Continuous
 62
     7
100
AcDbLine
 10
210.321442
 20
117.867152
 30
0.0
 11
210.440869
 21
117.867152
 31
0.0
  0
LINE
  5
305
330
20C
100
AcDbEntity
  8
7_ALL_FEATURES
  6
Continuous
 62
     7
100
AcDbLine
 10
210.440869
 20
117.867152
 30
0.0
 11
210.605703
 21
117.867152
 31
0.0
  0
LINE
  5
306
330
20C
100
AcDbEntity
  8
7_ALL_FEATURES
  6
Continuous
 62
     7
100
AcDbLine
 10
210.605703
 20
117.867152
 30
0.0
 11
210.644532
 21
117.867152
 31
0.0
  0
LINE
  5
307
330
20C
100
AcDbEntity
  8
7_ALL_FEATURES
  6
Continuous
 62
     7
100
AcDbLine
 10
210.644532
 20
117.867152
 30
0.0
 11
210.769591
 21
117.867152
 31
0.0
  0
LINE
  5
308
330
20C
100
AcDbEntity
  8
7_ALL_FEATURES
  6
Continuous
 62
     7
100
AcDbLine
 10
210.769591
 20
117.867152
 30
0.0
 11
211.164397
 21
117.867152
 31
0.0
  0
LINE
  5
309
330
20C
100
AcDbEntity
  8
7_ALL_FEATURES
  6
Continuous
 62
     7
100
AcDbLine
 10
211.164397
 20
117.867152
 30
0.0
 11
211.323861
 21
117.867152
 31
0.0
  0
LINE
  5
30A
330
20C
100
AcDbEntity
  8
7_ALL_FEATURES
  6
Continuous
 62
     7
100
AcDbLine
 10
211.323861
 20
117.867152
 30
0.0
 11
211.858696
 21
117.867152
 31
0.0
  0
LINE
  5
30B
330
20C
100
AcDbEntity
  8
7_ALL_FEATURES
  6
Continuous
 62
     7
100
AcDbLine
 10
211.858696
 20
117.867152
 30
0.0
 11
212.883752
 21
117.867152
 31
0.0
  0
LINE
  5
30C
330
20C
100
AcDbEntity
  8
7_ALL_FEATURES
  6
Continuous
 62
     7
100
AcDbLine
 10
212.883752
 20
117.867152
 30
0.0
 11
214.082191
 21
117.867152
 31
0.0
  0
LINE
  5
30D
330
20C
100
AcDbEntity
  8
7_ALL_FEATURES
  6
Continuous
 62
     7
100
AcDbLine
 10
214.082191
 20
117.867152
 30
0.0
 11
240.783831
 21
117.867152
 31
0.0
  0
LINE
  5
30E
330
20C
100
AcDbEntity
  8
7_ALL_FEATURES
  6
Continuous
 62
     7
100
AcDbLine
 10
240.783831
 20
117.867152
 30
0.0
 11
242.072107
 21
117.867152
 31
0.0
  0
LINE
  5
30F
330
20C
100
AcDbEntity
  8
7_ALL_FEATURES
  6
Continuous
 62
     7
100
AcDbLine
 10
213.21373
 20
123.067152
 30
0.0
 11
210.973544
 21
123.067152
 31
0.0
  0
LINE
  5
310
330
20C
100
AcDbEntity
  8
7_ALL_FEATURES
  6
Continuous
 62
     7
100
AcDbLine
 10
210.973544
 20
123.067152
 30
0.0
 11
210.775065
 21
123.067152
 31
0.0
  0
LINE
  5
311
330
20C
100
AcDbEntity
  8
7_ALL_FEATURES
  6
Continuous
 62
     7
100
AcDbLine
 10
210.775065
 20
123.067152
 30
0.0
 11
209.62748
 21
123.067152
 31
0.0
  0
LINE
  5
312
330
20C
100
AcDbEntity
  8
7_ALL_FEATURES
  6
Continuous
 62
     7
100
AcDbLine
 10
209.62748
 20
123.067152
 30
0.0
 11
206.503575
 21
123.067152
 31
0.0
  0
LINE
  5
313
330
20C
100
AcDbEntity
  8
7_ALL_FEATURES
  6
Continuous
 62
     7
100
AcDbLine
 10
206.503575
 20
123.067152
 30
0.0
 11
206.330032
 21
123.067152
 31
0.0
  0
LINE
  5
314
330
20C
100
AcDbEntity
  8
7_ALL_FEATURES
  6
Continuous
 62
     7
100
AcDbLine
 10
206.330032
 20
123.067152
 30
0.0
 11
205.678266
 21
123.067152
 31
0.0
  0
LINE
  5
315
330
20C
100
AcDbEntity
  8
7_ALL_FEATURES
  6
Continuous
 62
     7
100
AcDbLine
 10
205.678266
 20
123.067152
 30
0.0
 11
205.531394
 21
123.067152
 31
0.0
  0
LINE
  5
316
330
20C
100
AcDbEntity
  8
7_ALL_FEATURES
  6
Continuous
 62
     7
100
AcDbLine
 10
205.531394
 20
123.067152
 30
0.0
 11
195.150612
 21
123.067152
 31
0.0
  0
LINE
  5
317
330
20C
100
AcDbEntity
  8
7_ALL_FEATURES
  6
Continuous
 62
     7
100
AcDbLine
 10
195.150612
 20
123.067152
 30
0.0
 11
148.392243
 21
123.067152
 31
0.0
  0
LINE
  5
318
330
20C
100
AcDbEntity
  8
7_ALL_FEATURES
  6
Continuous
 62
     7
100
AcDbLine
 10
148.392243
 20
123.067152
 30
0.0
 11
147.289214
 21
123.067152
 31
0.0
  0
LINE
  5
319
330
20C
100
AcDbEntity
  8
7_ALL_FEATURES
  6
Continuous
 62
     7
100
AcDbLine
 10
147.289214
 20
123.067152
 30
0.0
 11
147.045093
 21
123.067152
 31
0.0
  0
LINE
  5
31A
330
20C
100
AcDbEntity
  8
7_ALL_FEATURES
  6
Continuous
 62
     7
100
AcDbLine
 10
147.045093
 20
123.067152
 30
0.0
 11
146.93986
 21
123.067152
 31
0.0
  0
LINE
  5
31B
330
20C
100
AcDbEntity
  8
7_ALL_FEATURES
  6
Continuous
 62
     7
100
AcDbLine
 10
146.93986
 20
123.067152
 30
0.0
 11
146.351521
 21
123.067152
 31
0.0
  0
LINE
  5
31C
330
20C
100
AcDbEntity
  8
7_ALL_FEATURES
  6
Continuous
 62
     7
100
AcDbLine
 10
146.351521
 20
123.067152
 30
0.0
 11
144.820896
 21
123.067152
 31
0.0
  0
LINE
  5
31D
330
20C
100
AcDbEntity
  8
7_ALL_FEATURES
  6
Continuous
 62
     7
100
AcDbLine
 10
139.323318
 20
123.067152
 30
0.0
 11
137.793417
 21
123.067152
 31
0.0
  0
LINE
  5
31E
330
20C
100
AcDbEntity
  8
7_ALL_FEATURES
  6
Continuous
 62
     7
100
AcDbLine
 10
137.793417
 20
123.067152
 30
0.0
 11
137.204355
 21
123.067152
 31
0.0
  0
LINE
  5
31F
330
20C
100
AcDbEntity
  8
7_ALL_FEATURES
  6
Continuous
 62
     7
100
AcDbLine
 10
137.204355
 20
123.067152
 30
0.0
 11
137.099122
 21
123.067152
 31
0.0
  0
LINE
  5
320
330
20C
100
AcDbEntity
  8
7_ALL_FEATURES
  6
Continuous
 62
     7
100
AcDbLine
 10
137.099122
 20
123.067152
 30
0.0
 11
136.985003
 21
123.067152
 31
0.0
  0
LINE
  5
321
330
20C
100
AcDbEntity
  8
7_ALL_FEATURES
  6
Continuous
 62
     7
100
AcDbLine
 10
136.985003
 20
123.067152
 30
0.0
 11
136.854952
 21
123.067152
 31
0.0
  0
LINE
  5
322
330
20C
100
AcDbEntity
  8
7_ALL_FEATURES
  6
Continuous
 62
     7
100
AcDbLine
 10
136.854952
 20
123.067152
 30
0.0
 11
135.751971
 21
123.067152
 31
0.0
  0
LINE
  5
323
330
20C
100
AcDbEntity
  8
7_ALL_FEATURES
  6
Continuous
 62
     7
100
AcDbLine
 10
135.751971
 20
123.067152
 30
0.0
 11
88.993603
 21
123.067152
 31
0.0
  0
LINE
  5
324
330
20C
100
AcDbEntity
  8
7_ALL_FEATURES
  6
Continuous
 62
     7
100
AcDbLine
 10
88.993603
 20
123.067152
 30
0.0
 11
78.612819
 21
123.067152
 31
0.0
  0
LINE
  5
325
330
20C
100
AcDbEntity
  8
7_ALL_FEATURES
  6
Continuous
 62
     7
100
AcDbLine
 10
78.612819
 20
123.067152
 30
0.0
 11
78.447419
 21
123.067152
 31
0.0
  0
LINE
  5
326
330
20C
100
AcDbEntity
  8
7_ALL_FEATURES
  6
Continuous
 62
     7
100
AcDbLine
 10
78.447419
 20
123.067152
 30
0.0
 11
77.812491
 21
123.067152
 31
0.0
  0
LINE
  5
327
330
20C
100
AcDbEntity
  8
7_ALL_FEATURES
  6
Continuous
 62
     7
100
AcDbLine
 10
77.812491
 20
123.067152
 30
0.0
 11
75.535999
 21
123.067152
 31
0.0
  0
LINE
  5
328
330
20C
100
AcDbEntity
  8
7_ALL_FEATURES
  6
Continuous
 62
     7
100
AcDbLine
 10
75.535999
 20
123.067152
 30
0.0
 11
74.516734
 21
123.067152
 31
0.0
  0
LINE
  5
329
330
20C
100
AcDbEntity
  8
7_ALL_FEATURES
  6
Continuous
 62
     7
100
AcDbLine
 10
74.516734
 20
123.067152
 30
0.0
 11
73.36915
 21
123.067152
 31
0.0
  0
LINE
  5
32A
330
20C
100
AcDbEntity
  8
7_ALL_FEATURES
  6
Continuous
 62
     7
100
AcDbLine
 10
73.36915
 20
123.067152
 30
0.0
 11
73.17067
 21
123.067152
 31
0.0
  0
LINE
  5
32B
330
20C
100
AcDbEntity
  8
7_ALL_FEATURES
  6
Continuous
 62
     7
100
AcDbLine
 10
73.17067
 20
123.067152
 30
0.0
 11
71.641539
 21
123.067152
 31
0.0
  0
LINE
  5
32C
330
20C
100
AcDbEntity
  8
7_ALL_FEATURES
  6
Continuous
 62
     7
100
AcDbLine
 10
71.641539
 20
123.067152
 30
0.0
 11
70.930485
 21
123.067152
 31
0.0
  0
LINE
  5
32D
330
20C
100
AcDbEntity
  8
7_ALL_FEATURES
  6
Continuous
 62
     7
100
AcDbLine
 10
68.181696
 20
123.067152
 30
0.0
 11
68.158019
 21
123.066677
 31
0.0
  0
LINE
  5
32E
330
20C
100
AcDbEntity
  8
7_ALL_FEATURES
  6
Continuous
 62
     7
100
AcDbLine
 10
215.964441
 20
123.067152
 30
0.0
 11
215.807801
 21
123.067152
 31
0.0
  0
LINE
  5
32F
330
20C
100
AcDbEntity
  8
7_ALL_FEATURES
  6
Continuous
 62
     7
100
AcDbLine
 10
215.807801
 20
123.067152
 30
0.0
 11
215.266097
 21
123.067152
 31
0.0
  0
LINE
  5
330
330
20C
100
AcDbEntity
  8
7_ALL_FEATURES
  6
Continuous
 62
     7
100
AcDbLine
 10
215.266097
 20
123.067152
 30
0.0
 11
214.37886
 21
123.067152
 31
0.0
  0
LINE
  5
331
330
20C
100
AcDbEntity
  8
7_ALL_FEATURES
  6
Continuous
 62
     7
100
AcDbLine
 10
214.37886
 20
123.067152
 30
0.0
 11
213.21373
 21
123.067152
 31
0.0
  0
LINE
  5
332
330
20C
100
AcDbEntity
  8
7_ALL_FEATURES
  6
Continuous
 62
     7
100
AcDbLine
 10
216.011044
 20
123.065035
 30
0.0
 11
215.962519
 21
123.067152
 31
0.0
  0
LINE
  5
333
330
20C
100
AcDbEntity
  8
6_ALL_SURFS
  6
Continuous
 62
     7
100
AcDbLine
 10
216.00943
 20
123.065181
 30
0.0
 11
215.965077
 21
123.067152
 31
0.0
  0
LINE
  5
334
330
20C
100
AcDbEntity
  8
6_ALL_SURFS
  6
Continuous
 62
     7
100
AcDbLine
 10
215.964348
 20
123.067152
 30
0.0
 11
215.962519
 21
123.067152
 31
0.0
  0
LINE
  5
335
330
20C
100
AcDbEntity
  8
6_ALL_SURFS
  6
Continuous
 62
     7
100
AcDbLine
 10
213.21373
 20
123.067152
 30
0.0
 11
214.383515
 21
123.067152
 31
0.0
  0
LINE
  5
336
330
20C
100
AcDbEntity
  8
6_ALL_SURFS
  6
Continuous
 62
     7
100
AcDbLine
 10
214.383515
 20
123.067152
 30
0.0
 11
215.272687
 21
123.067152
 31
0.0
  0
LINE
  5
337
330
20C
100
AcDbEntity
  8
6_ALL_SURFS
  6
Continuous
 62
     7
100
AcDbLine
 10
215.272687
 20
123.067152
 30
0.0
 11
215.812616
 21
123.067152
 31
0.0
  0
LINE
  5
338
330
20C
100
AcDbEntity
  8
6_ALL_SURFS
  6
Continuous
 62
     7
100
AcDbLine
 10
215.812616
 20
123.067152
 30
0.0
 11
215.964348
 21
123.067152
 31
0.0
  0
LINE
  5
339
330
20C
100
AcDbEntity
  8
7_ALL_FEATURES
  6
Continuous
 62
     7
100
AcDbLine
 10
68.179774
 20
123.067152
 30
0.0
 11
68.181696
 21
123.067152
 31
0.0
  0
LINE
  5
33A
330
20C
100
AcDbEntity
  8
6_ALL_SURFS
  6
Continuous
 62
     7
100
AcDbLine
 10
68.134874
 20
123.065189
 30
0.0
 11
68.179137
 21
123.067152
 31
0.0
  0
ARC
  5
33B
330
20C
100
AcDbEntity
  8
6_ALL_SURFS
  6
Continuous
 62
     7
100
AcDbCircle
 10
58.292718
 20
122.067152
 30
0.0
 40
1.0
100
AcDbArc
 50
90.0
 51
178.0
  0
LINE
  5
33C
330
20C
100
AcDbEntity
  8
7_ALL_FEATURES
  6
Continuous
 62
     7
100
AcDbLine
 10
225.850741
 20
123.067152
 30
0.0
 11
225.292198
 21
123.067152
 31
0.0
  0
LINE
  5
33D
330
20C
100
AcDbEntity
  8
7_ALL_FEATURES
  6
Continuous
 62
     7
100
AcDbLine
 10
225.292198
 20
123.067152
 30
0.0
 11
225.273039
 21
123.067152
 31
0.0
  0
LINE
  5
33E
330
20C
100
AcDbEntity
  8
7_ALL_FEATURES
  6
Continuous
 62
     7
100
AcDbLine
 10
225.273039
 20
123.067152
 30
0.0
 11
225.232613
 21
123.067152
 31
0.0
  0
LINE
  5
33F
330
20C
100
AcDbEntity
  8
7_ALL_FEATURES
  6
Continuous
 62
     7
100
AcDbLine
 10
225.232613
 20
123.067152
 30
0.0
 11
217.095201
 21
123.067152
 31
0.0
  0
LINE
  5
340
330
20C
100
AcDbEntity
  8
7_ALL_FEATURES
  6
Continuous
 62
     7
100
AcDbLine
 10
217.095201
 20
123.067152
 30
0.0
 11
216.012668
 21
123.067152
 31
0.0
  0
LINE
  5
341
330
20C
100
AcDbEntity
  8
7_ALL_FEATURES
  6
Continuous
 62
     7
100
AcDbLine
 10
216.012668
 20
123.067152
 30
0.0
 11
215.962519
 21
123.067152
 31
0.0
  0
ARC
  5
342
330
20C
100
AcDbEntity
  8
6_ALL_SURFS
  6
Continuous
 62
     7
100
AcDbCircle
 10
225.851497
 20
122.067152
 30
0.0
 40
1.0
100
AcDbArc
 50
2.0
 51
90.0
  0
LINE
  5
343
330
20C
100
AcDbEntity
  8
6_ALL_SURFS
  6
Continuous
 62
     7
100
AcDbLine
 10
225.273039
 20
123.067152
 30
0.0
 11
225.843544
 21
123.067152
 31
0.0
  0
LINE
  5
344
330
20C
100
AcDbEntity
  8
6_ALL_SURFS
  6
Continuous
 62
     7
100
AcDbLine
 10
215.962519
 20
123.067152
 30
0.0
 11
216.012668
 21
123.067152
 31
0.0
  0
LINE
  5
345
330
20C
100
AcDbEntity
  8
6_ALL_SURFS
  6
Continuous
 62
     7
100
AcDbLine
 10
216.012668
 20
123.067152
 30
0.0
 11
217.095201
 21
123.067152
 31
0.0
  0
LINE
  5
346
330
20C
100
AcDbEntity
  8
6_ALL_SURFS
  6
Continuous
 62
     7
100
AcDbLine
 10
217.095201
 20
123.067152
 30
0.0
 11
224.842894
 21
123.067152
 31
0.0
  0
LINE
  5
347
330
20C
100
AcDbEntity
  8
6_ALL_SURFS
  6
Continuous
 62
     7
100
AcDbLine
 10
224.842894
 20
123.067152
 30
0.0
 11
225.273039
 21
123.067152
 31
0.0
  0
LINE
  5
348
330
20C
100
AcDbEntity
  8
7_ALL_FEATURES
  6
Continuous
 62
     7
100
AcDbLine
 10
68.181696
 20
123.067152
 30
0.0
 11
68.133761
 21
123.067152
 31
0.0
  0
LINE
  5
349
330
20C
100
AcDbEntity
  8
7_ALL_FEATURES
  6
Continuous
 62
     7
100
AcDbLine
 10
68.133761
 20
123.067152
 30
0.0
 11
67.049014
 21
123.067152
 31
0.0
  0
LINE
  5
34A
330
20C
100
AcDbEntity
  8
7_ALL_FEATURES
  6
Continuous
 62
     7
100
AcDbLine
 10
67.049014
 20
123.067152
 30
0.0
 11
59.278426
 21
123.067152
 31
0.0
  0
LINE
  5
34B
330
20C
100
AcDbEntity
  8
7_ALL_FEATURES
  6
Continuous
 62
     7
100
AcDbLine
 10
59.278426
 20
123.067152
 30
0.0
 11
58.852035
 21
123.067152
 31
0.0
  0
LINE
  5
34C
330
20C
100
AcDbEntity
  8
7_ALL_FEATURES
  6
Continuous
 62
     7
100
AcDbLine
 10
58.852035
 20
123.067152
 30
0.0
 11
58.293475
 21
123.067152
 31
0.0
  0
LINE
  5
34D
330
20C
100
AcDbEntity
  8
6_ALL_SURFS
  6
Continuous
 62
     7
100
AcDbLine
 10
58.310878
 20
123.067152
 30
0.0
 11
59.278426
 21
123.067152
 31
0.0
  0
LINE
  5
34E
330
20C
100
AcDbEntity
  8
6_ALL_SURFS
  6
Continuous
 62
     7
100
AcDbLine
 10
59.278426
 20
123.067152
 30
0.0
 11
59.301321
 21
123.067152
 31
0.0
  0
LINE
  5
34F
330
20C
100
AcDbEntity
  8
6_ALL_SURFS
  6
Continuous
 62
     7
100
AcDbLine
 10
59.301321
 20
123.067152
 30
0.0
 11
67.049014
 21
123.067152
 31
0.0
  0
LINE
  5
350
330
20C
100
AcDbEntity
  8
6_ALL_SURFS
  6
Continuous
 62
     7
100
AcDbLine
 10
67.049014
 20
123.067152
 30
0.0
 11
68.133761
 21
123.067152
 31
0.0
  0
LINE
  5
351
330
20C
100
AcDbEntity
  8
6_ALL_SURFS
  6
Continuous
 62
     7
100
AcDbLine
 10
68.133761
 20
123.067152
 30
0.0
 11
68.181696
 21
123.067152
 31
0.0
  0
LINE
  5
352
330
20C
100
AcDbEntity
  8
6_ALL_SURFS
  6
Continuous
 62
     7
100
AcDbLine
 10
57.145441
 20
117.867152
 30
0.0
 11
57.293327
 21
122.102051
 31
0.0
  0
LINE
  5
353
330
20C
100
AcDbEntity
  8
6_ALL_SURFS
  6
Continuous
 62
     7
100
AcDbLine
 10
226.998774
 20
117.867152
 30
0.0
 11
226.850888
 21
122.102051
 31
0.0
  0
SPLINE
  5
354
330
20C
100
AcDbEntity
  8
7_ALL_FEATURES
  6
Continuous
 62
     7
100
AcDbSpline
 70
     0
 71
     3
 72
    11
 73
     7
 74
     0
 42
0.000000001
 43
0.0000001
 40
0.0
 40
0.0
 40
0.0
 40
0.0
 40
0.2730673694
 40
0.5
 40
0.7269326306
 40
1.0
 40
1.0
 40
1.0
 40
1.0
 10
42.186530123
 20
113.4975192406
 30
0.0
 10
42.1893578581
 20
113.3895323926
 30
0.0
 10
42.2146169573
 20
113.1896065987
 30
0.0
 10
42.3664426398
 20
112.9322046051
 30
0.0
 10
42.6277307612
 20
112.7871689482
 30
0.0
 10
42.8282492516
 20
112.7671519518
 30
0.0
 10
42.9362731167
 20
112.7671519518
 30
0.0
  0
SPLINE
  5
355
330
20C
100
AcDbEntity
  8
7_ALL_FEATURES
  6
Continuous
 62
     7
100
AcDbSpline
 70
     0
 71
     3
 72
    11
 73
     7
 74
     0
 42
0.000000001
 43
0.0000001
 40
0.0
 40
0.0
 40
0.0
 40
0.0
 40
0.2730673694
 40
0.5
 40
0.7269326306
 40
1.0
 40
1.0
 40
1.0
 40
1.0
 10
241.9576844041
 20
113.4975192406
 30
0.0
 10
241.9548566689
 20
113.3895323926
 30
0.0
 10
241.9295975697
 20
113.1896065987
 30
0.0
 10
241.7777718872
 20
112.9322046051
 30
0.0
 10
241.5164837658
 20
112.7871689482
 30
0.0
 10
241.3159652754
 20
112.7671519518
 30
0.0
 10
241.2079414103
 20
112.7671519518
 30
0.0
  0
ARC
  5
356
330
20C
100
AcDbEntity
  8
7_ALL_FEATURES
  6
Continuous
 62
     7
100
AcDbCircle
 10
78.802725
 20
129.261108
 30
0.0
 40
0.75
100
AcDbArc
 50
90.0
 51
178.5
  0
ARC
  5
357
330
20C
100
AcDbEntity
  8
7_ALL_FEATURES
  6
Continuous
 62
     7
100
AcDbCircle
 10
205.34149
 20
129.261108
 30
0.0
 40
0.75
100
AcDbArc
 50
1.5
 51
90.0
  0
SPLINE
  5
358
330
20C
100
AcDbEntity
  8
7_ALL_FEATURES
  6
Continuous
 62
     9
100
AcDbSpline
 70
     0
 71
     3
 72
     9
 73
     5
 74
     0
 42
0.000000001
 43
0.0000001
 40
0.0
 40
0.0
 40
0.0
 40
0.0
 40
0.3033166763
 40
1.0
 40
1.0
 40
1.0
 40
1.0
 10
69.8473887668
 20
122.1020514485
 30
0.0
 10
69.8475778933
 20
122.1118380371
 30
0.0
 10
69.8559334835
 20
122.1440843079
 30
0.0
 10
69.8799626086
 20
122.1680966251
 30
0.0
 10
69.8972455023
 20
122.1824764905
 30
0.0
  0
SPLINE
  5
359
330
20C
100
AcDbEntity
  8
7_ALL_FEATURES
  6
Continuous
 62
     9
100
AcDbSpline
 70
     0
 71
     3
 72
    13
 73
     9
 74
     0
 42
0.000000001
 43
0.0000001
 40
0.0
 40
0.0
 40
0.0
 40
0.0
 40
0.2586173837
 40
0.584232093
 40
0.7486511567
 40
0.8750882163
 40
0.9562161137
 40
1.0
 40
1.0
 40
1.0
 40
1.0
 10
69.8972455023
 20
122.1824764905
 30
0.0
 10
69.9875589832
 20
122.2587059978
 30
0.0
 10
70.1824737338
 20
122.4416318453
 30
0.0
 10
70.4169155104
 20
122.6910827414
 30
0.0
 10
70.6229821395
 20
122.8830374155
 30
0.0
 10
70.7558245952
 20
122.9903586317
 30
0.0
 10
70.8548421255
 20
123.0480345989
 30
0.0
 10
70.9104763626
 20
123.067068928
 30
0.0
 10
70.9304847281
 20
123.0671519518
 30
0.0
  0
SPLINE
  5
35A
330
20C
100
AcDbEntity
  8
7_ALL_FEATURES
  6
Continuous
 62
     9
100
AcDbSpline
 70
     0
 71
     3
 72
    16
 73
    12
 74
     0
 42
0.000000001
 43
0.0000001
 40
0.0
 40
0.0
 40
0.0
 40
0.0
 40
0.1135708457
 40
0.2101292169
 40
0.2533838463
 40
0.2970946502
 40
0.4015852746
 40
0.5357966264
 40
0.6857630724
 40
0.8418348048
 40
1.0
 40
1.0
 40
1.0
 40
1.0
 10
139.3233184605
 20
123.0671519518
 30
0.0
 10
139.2671803423
 20
123.0671378955
 30
0.0
 10
139.1635565134
 20
123.0609352942
 30
0.0
 10
139.0401636431
 20
123.0205866989
 30
0.0
 10
138.9741935523
 20
122.9553679119
 30
0.0
 10
138.9383786286
 20
122.8644810393
 30
0.0
 10
138.9755756532
 20
122.7194602314
 30
0.0
 10
139.0900092804
 20
122.5643433228
 30
0.0
 10
139.2520605186
 20
122.4170324765
 30
0.0
 10
139.4429714428
 20
122.2888911569
 30
0.0
 10
139.580555453
 20
122.2162428868
 30
0.0
 10
139.6510687076
 20
122.1824764905
 30
0.0
  0
SPLINE
  5
35B
330
20C
100
AcDbEntity
  8
7_ALL_FEATURES
  6
Continuous
 62
     9
100
AcDbSpline
 70
     0
 71
     3
 72
     9
 73
     5
 74
     0
 42
0.000000001
 43
0.0000001
 40
0.0
 40
0.0
 40
0.0
 40
0.0
 40
0.748969184
 40
1.0
 40
1.0
 40
1.0
 40
1.0
 10
139.6510687076
 20
122.1824764905
 30
0.0
 10
139.678405579
 20
122.169451735
 30
0.0
 10
139.7176640071
 20
122.1516558368
 30
0.0
 10
139.7363526036
 20
122.1121985309
 30
0.0
 10
139.7361409622
 20
122.1020514485
 30
0.0
  0
LINE
  5
35C
330
20C
100
AcDbEntity
  8
7_ALL_FEATURES
  6
Continuous
 62
     9
100
AcDbLine
 10
69.847389
 20
122.102051
 30
0.0
 11
74.06424
 21
122.102051
 31
0.0
  0
LINE
  5
35D
330
20C
100
AcDbEntity
  8
7_ALL_FEATURES
  6
Continuous
 62
     9
100
AcDbLine
 10
74.06424
 20
122.102051
 30
0.0
 11
136.633905
 21
122.102051
 31
0.0
  0
LINE
  5
35E
330
20C
100
AcDbEntity
  8
7_ALL_FEATURES
  6
Continuous
 62
     9
100
AcDbLine
 10
136.633905
 20
122.102051
 30
0.0
 11
139.736141
 21
122.102051
 31
0.0
  0
LINE
  5
35F
330
20C
100
AcDbEntity
  8
7_ALL_FEATURES
  6
Continuous
 62
     9
100
AcDbLine
 10
67.903625
 20
122.102051
 30
0.0
 11
67.76433
 21
117.867152
 31
0.0
  0
ARC
  5
360
330
20C
100
AcDbEntity
  8
7_ALL_FEATURES
  6
Continuous
 62
     9
100
AcDbCircle
 10
59.438758
 20
122.373094
 30
0.0
 40
8.4692054959
100
AcDbArc
 50
358.166035
 51
1.431041
  0
LINE
  5
361
330
20C
100
AcDbEntity
  8
7_ALL_FEATURES
  6
Continuous
 62
     9
100
AcDbLine
 10
69.272867
 20
122.584602
 30
0.0
 11
67.905322
 21
122.584602
 31
0.0
  0
ARC
  5
362
330
20C
100
AcDbEntity
  8
7_ALL_FEATURES
  6
Continuous
 62
     9
100
AcDbCircle
 10
72.685343
 20
122.005093
 30
0.0
 40
3.4613322505
100
AcDbArc
 50
170.361937
 51
178.39482
  0
LINE
  5
363
330
20C
100
AcDbEntity
  8
7_ALL_FEATURES
  6
Continuous
 62
     9
100
AcDbLine
 10
69.112131
 20
117.867152
 30
0.0
 11
69.225369
 21
122.102051
 31
0.0
  0
SPLINE
  5
364
330
20C
100
AcDbEntity
  8
7_ALL_FEATURES
  6
Continuous
 62
     9
100
AcDbSpline
 70
     0
 71
     3
 72
     9
 73
     5
 74
     0
 42
0.000000001
 43
0.0000001
 40
0.0
 40
0.0
 40
0.0
 40
0.0
 40
0.2267312389
 40
1.0
 40
1.0
 40
1.0
 40
1.0
 10
69.2728671521
 20
122.5846017002
 30
0.0
 10
69.3161321302
 20
122.6122464266
 30
0.0
 10
69.5054897759
 20
122.7358959581
 30
0.0
 10
69.7019525451
 20
122.8533936741
 30
0.0
 10
69.8655548345
 20
122.9158127266
 30
0.0
  0
SPLINE
  5
365
330
20C
100
AcDbEntity
  8
7_ALL_FEATURES
  6
Continuous
 62
     9
100
AcDbSpline
 70
     0
 71
     3
 72
     8
 73
     4
 74
     0
 42
0.000000001
 43
0.0000001
 40
0.0
 40
0.0
 40
0.0
 40
0.0
 40
1.0
 40
1.0
 40
1.0
 40
1.0
 10
69.8655548345
 20
122.9158127266
 30
0.0
 10
70.200544761
 20
123.0436211691
 30
0.0
 10
70.571941538
 20
123.0669798398
 30
0.0
 10
70.9304847281
 20
123.0671519518
 30
0.0
  0
LINE
  5
366
330
20C
100
AcDbEntity
  8
7_ALL_FEATURES
  6
Continuous
 62
     9
100
AcDbLine
 10
140.750364
 20
122.102051
 30
0.0
 11
140.724307
 21
117.867152
 31
0.0
  0
SPLINE
  5
367
330
20C
100
AcDbEntity
  8
7_ALL_FEATURES
  6
Continuous
 62
     9
100
AcDbSpline
 70
     0
 71
     3
 72
     8
 73
     4
 74
     0
 42
0.000000001
 43
0.0000001
 40
0.0
 40
0.0
 40
0.0
 40
0.0
 40
1.0
 40
1.0
 40
1.0
 40
1.0
 10
140.7045620802
 20
122.5846017002
 30
0.0
 10
140.735139315
 20
122.4259484008
 30
0.0
 10
140.7513701087
 20
122.2636213212
 30
0.0
 10
140.750363661
 20
122.1020514485
 30
0.0
  0
LINE
  5
368
330
20C
100
AcDbEntity
  8
7_ALL_FEATURES
  6
Continuous
 62
     9
100
AcDbLine
 10
143.439652
 20
122.584602
 30
0.0
 11
140.704562
 21
122.584602
 31
0.0
  0
SPLINE
  5
369
330
20C
100
AcDbEntity
  8
7_ALL_FEATURES
  6
Continuous
 62
     9
100
AcDbSpline
 70
     0
 71
     3
 72
     8
 73
     4
 74
     0
 42
0.000000001
 43
0.0000001
 40
0.0
 40
0.0
 40
0.0
 40
0.0
 40
1.0
 40
1.0
 40
1.0
 40
1.0
 10
143.3938508661
 20
122.1020514485
 30
0.0
 10
143.3928447893
 20
122.2636213235
 30
0.0
 10
143.4090770311
 20
122.4259480503
 30
0.0
 10
143.4396524468
 20
122.5846017002
 30
0.0
  0
LINE
  5
36A
330
20C
100
AcDbEntity
  8
7_ALL_FEATURES
  6
Continuous
 62
     9
100
AcDbLine
 10
143.419908
 20
117.867152
 30
0.0
 11
143.393851
 21
122.102051
 31
0.0
  0
SPLINE
  5
36B
330
20C
100
AcDbEntity
  8
7_ALL_FEATURES
  6
Continuous
 62
     9
100
AcDbSpline
 70
     0
 71
     3
 72
    10
 73
     6
 74
     0
 42
0.000000001
 43
0.0000001
 40
0.0
 40
0.0
 40
0.0
 40
0.0
 40
0.4473053238
 40
0.7032559818
 40
1.0
 40
1.0
 40
1.0
 40
1.0
 10
139.3233184605
 20
123.0671519518
 30
0.0
 10
139.5445782368
 20
123.0671091916
 30
0.0
 10
139.9039269975
 20
123.0335678955
 30
0.0
 10
140.3374039441
 20
122.7875998761
 30
0.0
 10
140.5709555287
 20
122.6453881889
 30
0.0
 10
140.7045620802
 20
122.5846017002
 30
0.0
  0
SPLINE
  5
36C
330
20C
100
AcDbEntity
  8
7_ALL_FEATURES
  6
Continuous
 62
     9
100
AcDbSpline
 70
     0
 71
     3
 72
     9
 73
     5
 74
     0
 42
0.000000001
 43
0.0000001
 40
0.0
 40
0.0
 40
0.0
 40
0.0
 40
0.5281603345
 40
1.0
 40
1.0
 40
1.0
 40
1.0
 10
143.4396524468
 20
122.5846017002
 30
0.0
 10
143.5496352153
 20
122.6357545258
 30
0.0
 10
143.7500921702
 20
122.7484440642
 30
0.0
 10
143.9461262287
 20
122.8688103327
 30
0.0
 10
144.0437637106
 20
122.9158127266
 30
0.0
  0
SPLINE
  5
36D
330
20C
100
AcDbEntity
  8
7_ALL_FEATURES
  6
Continuous
 62
     9
100
AcDbSpline
 70
     0
 71
     3
 72
     9
 73
     5
 74
     0
 42
0.000000001
 43
0.0000001
 40
0.0
 40
0.0
 40
0.0
 40
0.0
 40
0.5118727708
 40
1.0
 40
1.0
 40
1.0
 40
1.0
 10
144.0437637106
 20
122.9158127266
 30
0.0
 10
144.1663494995
 20
122.9748251615
 30
0.0
 10
144.4240714649
 20
123.0563756197
 30
0.0
 10
144.6911568993
 20
123.0670654896
 30
0.0
 10
144.8208960665
 20
123.0671519518
 30
0.0
  0
LINE
  5
36E
330
20C
100
AcDbEntity
  8
7_ALL_FEATURES
  6
Continuous
 62
     9
100
AcDbLine
 10
214.918846
 20
122.102051
 30
0.0
 11
215.032084
 21
117.867152
 31
0.0
  0
ARC
  5
36F
330
20C
100
AcDbEntity
  8
7_ALL_FEATURES
  6
Continuous
 62
     9
100
AcDbCircle
 10
211.45927
 20
122.005132
 30
0.0
 40
3.4609330121
100
AcDbArc
 50
1.604716
 51
9.638527
  0
LINE
  5
370
330
20C
100
AcDbEntity
  8
7_ALL_FEATURES
  6
Continuous
 62
     9
100
AcDbLine
 10
216.238893
 20
122.584602
 30
0.0
 11
214.871347
 21
122.584602
 31
0.0
  0
ARC
  5
371
330
20C
100
AcDbEntity
  8
7_ALL_FEATURES
  6
Continuous
 62
     9
100
AcDbCircle
 10
224.706445
 20
122.373097
 30
0.0
 40
8.4701936769
100
AcDbArc
 50
178.56915
 51
181.833774
  0
LINE
  5
372
330
20C
100
AcDbEntity
  8
7_ALL_FEATURES
  6
Continuous
 62
     9
100
AcDbLine
 10
216.379884
 20
117.867152
 30
0.0
 11
216.240589
 21
122.102051
 31
0.0
  0
SPLINE
  5
373
330
20C
100
AcDbEntity
  8
7_ALL_FEATURES
  6
Continuous
 62
     9
100
AcDbSpline
 70
     0
 71
     3
 72
    11
 73
     7
 74
     0
 42
0.000000001
 43
0.0000001
 40
0.0
 40
0.0
 40
0.0
 40
0.0
 40
0.3122667139
 40
0.5887924305
 40
0.8089441612
 40
1.0
 40
1.0
 40
1.0
 40
1.0
 10
216.2388925582
 20
122.5846017002
 30
0.0
 10
216.2722343597
 20
122.6415635701
 30
0.0
 10
216.3067354926
 20
122.7693710232
 30
0.0
 10
216.2526685809
 20
122.9414458617
 30
0.0
 10
216.1378824785
 20
123.0413248019
 30
0.0
 10
216.0508012313
 20
123.0613364347
 30
0.0
 10
216.0105883027
 20
123.0650351318
 30
0.0
  0
SPLINE
  5
374
330
20C
100
AcDbEntity
  8
7_ALL_FEATURES
  6
Continuous
 62
     9
100
AcDbSpline
 70
     0
 71
     3
 72
     8
 73
     4
 74
     0
 42
0.000000001
 43
0.0000001
 40
0.0
 40
0.0
 40
0.0
 40
0.0
 40
1.0
 40
1.0
 40
1.0
 40
1.0
 10
213.2137297989
 20
123.0671519518
 30
0.0
 10
213.6100409995
 20
123.0670974717
 30
0.0
 10
214.0257547935
 20
123.0352362387
 30
0.0
 10
214.3863349121
 20
122.87078397
 30
0.0
  0
SPLINE
  5
375
330
20C
100
AcDbEntity
  8
7_ALL_FEATURES
  6
Continuous
 62
     9
100
AcDbSpline
 70
     0
 71
     3
 72
     9
 73
     5
 74
     0
 42
0.000000001
 43
0.0000001
 40
0.0
 40
0.0
 40
0.0
 40
0.0
 40
0.2680910948
 40
1.0
 40
1.0
 40
1.0
 40
1.0
 10
214.3863349121
 20
122.87078397
 30
0.0
 10
214.432159635
 20
122.8498843717
 30
0.0
 10
214.6001417107
 20
122.7651113869
 30
0.0
 10
214.7547642295
 20
122.657506943
 30
0.0
 10
214.8713473749
 20
122.5846017002
 30
0.0
  0
SPLINE
  5
376
330
20C
100
AcDbEntity
  8
7_ALL_FEATURES
  6
Continuous
 62
     9
100
AcDbSpline
 70
     0
 71
     3
 72
     9
 73
     5
 74
     0
 42
0.000000001
 43
0.0000001
 40
0.0
 40
0.0
 40
0.0
 40
0.0
 40
0.4660265839
 40
1.0
 40
1.0
 40
1.0
 40
1.0
 10
68.1348680404
 20
123.0652028497
 30
0.0
 10
68.0958204276
 20
123.061747582
 30
0.0
 10
68.0118313845
 20
123.0430360806
 30
0.0
 10
67.943296062
 20
122.9870938013
 30
0.0
 10
67.9164542743
 20
122.9510809037
 30
0.0
  0
SPLINE
  5
377
330
20C
100
AcDbEntity
  8
7_ALL_FEATURES
  6
Continuous
 62
     9
100
AcDbSpline
 70
     0
 71
     3
 72
     8
 73
     4
 74
     0
 42
0.000000001
 43
0.0000001
 40
0.0
 40
0.0
 40
0.0
 40
0.0
 40
1.0
 40
1.0
 40
1.0
 40
1.0
 10
67.9164542743
 20
122.9510809037
 30
0.0
 10
67.8982150323
 20
122.9266098082
 30
0.0
 10
67.8837817498
 20
122.8989069116
 30
0.0
 10
67.8737815329
 20
122.8700711677
 30
0.0
  0
SPLINE
  5
378
330
20C
100
AcDbEntity
  8
7_ALL_FEATURES
  6
Continuous
 62
     9
100
AcDbSpline
 70
     0
 71
     3
 72
     9
 73
     5
 74
     0
 42
0.000000001
 43
0.0000001
 40
0.0
 40
0.0
 40
0.0
 40
0.0
 40
0.238303936
 40
1.0
 40
1.0
 40
1.0
 40
1.0
 10
67.8737815329
 20
122.8700711677
 30
0.0
 10
67.8661743579
 20
122.8481357883
 30
0.0
 10
67.8440519933
 20
122.7528255437
 30
0.0
 10
67.8671962637
 20
122.6482681425
 30
0.0
 10
67.9053219689
 20
122.5846017002
 30
0.0
  0
LINE
  5
379
330
20C
100
AcDbEntity
  8
7_ALL_FEATURES
  6
Continuous
 62
     9
100
AcDbLine
 10
78.052982
 20
129.280741
 30
0.0
 11
80.462868
 21
129.280741
 31
0.0
  0
LINE
  5
37A
330
20C
100
AcDbEntity
  8
7_ALL_FEATURES
  6
Continuous
 62
     9
100
AcDbLine
 10
80.462868
 20
129.280741
 30
0.0
 11
83.9279
 21
129.280741
 31
0.0
  0
LINE
  5
37B
330
20C
100
AcDbEntity
  8
7_ALL_FEATURES
  6
Continuous
 62
     9
100
AcDbLine
 10
83.9279
 20
129.280741
 30
0.0
 11
206.091233
 21
129.280741
 31
0.0
  0
LINE
  5
37C
330
20C
100
AcDbEntity
  8
7_ALL_FEATURES
  6
Continuous
 62
     9
100
AcDbLine
 10
42.18653
 20
113.497519
 30
0.0
 11
241.957684
 21
113.497519
 31
0.0
  0
LINE
  5
37D
330
20C
100
AcDbEntity
  8
7_ALL_FEATURES
  6
Continuous
 62
     9
100
AcDbLine
 10
57.293327
 20
122.102051
 30
0.0
 11
67.059186
 21
122.102051
 31
0.0
  0
LINE
  5
37E
330
20C
100
AcDbEntity
  8
7_ALL_FEATURES
  6
Continuous
 62
     9
100
AcDbLine
 10
67.059186
 20
122.102051
 30
0.0
 11
67.159047
 21
122.102051
 31
0.0
  0
LINE
  5
37F
330
20C
100
AcDbEntity
  8
7_ALL_FEATURES
  6
Continuous
 62
     9
100
AcDbLine
 10
67.159047
 20
122.102051
 30
0.0
 11
67.511422
 21
122.102051
 31
0.0
  0
LINE
  5
380
330
20C
100
AcDbEntity
  8
7_ALL_FEATURES
  6
Continuous
 62
     9
100
AcDbLine
 10
216.769671
 20
117.867152
 30
0.0
 11
216.632792
 21
122.102051
 31
0.0
  0
LINE
  5
381
330
20C
100
AcDbEntity
  8
7_ALL_FEATURES
  6
Continuous
 62
     9
100
AcDbLine
 10
144.426468
 20
117.867152
 30
0.0
 11
144.408074
 21
122.102051
 31
0.0
  0
LINE
  5
382
330
20C
100
AcDbEntity
  8
7_ALL_FEATURES
  6
Continuous
 62
     9
100
AcDbLine
 10
214.296826
 20
122.102051
 30
0.0
 11
214.41531
 21
117.867152
 31
0.0
  0
LINE
  5
383
330
20C
100
AcDbEntity
  8
7_ALL_FEATURES
  6
Continuous
 62
     9
100
AcDbLine
 10
69.728905
 20
117.867152
 30
0.0
 11
69.847389
 21
122.102051
 31
0.0
  0
LINE
  5
384
330
20C
100
AcDbEntity
  8
7_ALL_FEATURES
  6
Continuous
 62
     9
100
AcDbLine
 10
139.736141
 20
122.102051
 30
0.0
 11
139.717747
 21
117.867152
 31
0.0
  0
LINE
  5
385
330
20C
100
AcDbEntity
  8
7_ALL_FEATURES
  6
Continuous
 62
     9
100
AcDbLine
 10
67.511422
 20
122.102051
 30
0.0
 11
67.374544
 21
117.867152
 31
0.0
  0
SPLINE
  5
386
330
20C
100
AcDbEntity
  8
7_ALL_FEATURES
  6
Continuous
 62
     9
100
AcDbSpline
 70
     0
 71
     3
 72
     9
 73
     5
 74
     0
 42
0.000000001
 43
0.0000001
 40
0.0
 40
0.0
 40
0.0
 40
0.0
 40
0.29594581
 40
1.0
 40
1.0
 40
1.0
 40
1.0
 10
67.5114224655
 20
122.1020514485
 30
0.0
 10
67.5501119074
 20
122.1017596671
 30
0.0
 10
67.6808437222
 20
122.1009849123
 30
0.0
 10
67.8115877403
 20
122.1009006924
 30
0.0
 10
67.9036252298
 20
122.1020514457
 30
0.0
  0
SPLINE
  5
387
330
20C
100
AcDbEntity
  8
7_ALL_FEATURES
  6
Continuous
 62
     9
100
AcDbSpline
 70
     0
 71
     3
 72
     9
 73
     5
 74
     0
 42
0.000000001
 43
0.0000001
 40
0.0
 40
0.0
 40
0.0
 40
0.0
 40
0.2760121457
 40
1.0
 40
1.0
 40
1.0
 40
1.0
 10
67.4762069465
 20
122.1824764905
 30
0.0
 10
67.5202988513
 20
122.2140207045
 30
0.0
 10
67.6766325005
 20
122.3326731
 30
0.0
 10
67.8198436205
 20
122.4709552469
 30
0.0
 10
67.9053219689
 20
122.5846017002
 30
0.0
  0
ARC
  5
388
330
20C
100
AcDbEntity
  8
7_ALL_FEATURES
  6
Continuous
 62
     9
100
AcDbCircle
 10
69.536379
 20
170.75542
 30
0.0
 40
48.6543623295
100
AcDbArc
 50
269.63375
 51
270.36625
  0
SPLINE
  5
389
330
20C
100
AcDbEntity
  8
7_ALL_FEATURES
  6
Continuous
 62
     9
100
AcDbSpline
 70
     0
 71
     3
 72
     9
 73
     5
 74
     0
 42
0.000000001
 43
0.0000001
 40
0.0
 40
0.0
 40
0.0
 40
0.0
 40
0.2269257277
 40
1.0
 40
1.0
 40
1.0
 40
1.0
 10
69.8972455018
 20
122.1824764901
 30
0.0
 10
69.8523077835
 20
122.2162246019
 30
0.0
 10
69.6510916363
 20
122.360698181
 30
0.0
 10
69.4394057293
 20
122.4901565819
 30
0.0
 10
69.2728671519
 20
122.5846017001
 30
0.0
  0
ARC
  5
38A
330
20C
100
AcDbEntity
  8
7_ALL_FEATURES
  6
Continuous
 62
     9
100
AcDbCircle
 10
140.243252
 20
262.698553
 30
0.0
 40
140.5974157725
100
AcDbArc
 50
269.793343
 51
270.206657
  0
ARC
  5
38B
330
20C
100
AcDbEntity
  8
7_ALL_FEATURES
  6
Continuous
 62
     9
100
AcDbCircle
 10
125.276465
 20
161.422309
 30
0.0
 40
41.7898750138
100
AcDbArc
 50
290.119138
 51
291.665218
  0
ARC
  5
38C
330
20C
100
AcDbEntity
  8
7_ALL_FEATURES
  6
Continuous
 62
     9
100
AcDbCircle
 10
143.900962
 20
262.178054
 30
0.0
 40
140.0769204797
100
AcDbArc
 50
269.792575
 51
270.207425
  0
ARC
  5
38D
330
20C
100
AcDbEntity
  8
7_ALL_FEATURES
  6
Continuous
 62
     9
100
AcDbCircle
 10
158.892115
 20
161.486143
 30
0.0
 40
41.8581950538
100
AcDbArc
 50
248.336044
 51
249.8796
  0
ARC
  5
38E
330
20C
100
AcDbEntity
  8
7_ALL_FEATURES
  6
Continuous
 62
     9
100
AcDbCircle
 10
214.607836
 20
170.936317
 30
0.0
 40
48.8352561454
100
AcDbArc
 50
269.635106
 51
270.364893
  0
SPLINE
  5
38F
330
20C
100
AcDbEntity
  8
7_ALL_FEATURES
  6
Continuous
 62
     9
100
AcDbSpline
 70
     0
 71
     3
 72
     9
 73
     5
 74
     0
 42
0.000000001
 43
0.0000001
 40
0.0
 40
0.0
 40
0.0
 40
0.0
 40
0.226923957
 40
1.0
 40
1.0
 40
1.0
 40
1.0
 10
214.2469690247
 20
122.1824764905
 30
0.0
 10
214.2919074964
 20
122.2162228352
 30
0.0
 10
214.4931267191
 20
122.3606918736
 30
0.0
 10
214.7048106547
 20
122.490152557
 30
0.0
 10
214.871347375
 20
122.5846016995
 30
0.0
  0
SPLINE
  5
390
330
20C
100
AcDbEntity
  8
7_ALL_FEATURES
  6
Continuous
 62
     9
100
AcDbSpline
 70
     0
 71
     3
 72
     9
 73
     5
 74
     0
 42
0.000000001
 43
0.0000001
 40
0.0
 40
0.0
 40
0.0
 40
0.0
 40
0.2959456206
 40
1.0
 40
1.0
 40
1.0
 40
1.0
 10
216.6327920615
 20
122.1020514485
 30
0.0
 10
216.594102646
 20
122.101759163
 30
0.0
 10
216.4633708612
 20
122.1009804366
 30
0.0
 10
216.3326267523
 20
122.1008955679
 30
0.0
 10
216.2405892971
 20
122.1020514483
 30
0.0
  0
SPLINE
  5
391
330
20C
100
AcDbEntity
  8
7_ALL_FEATURES
  6
Continuous
 62
     9
100
AcDbSpline
 70
     0
 71
     3
 72
     9
 73
     5
 74
     0
 42
0.000000001
 43
0.0000001
 40
0.0
 40
0.0
 40
0.0
 40
0.0
 40
0.2760165805
 40
1.0
 40
1.0
 40
1.0
 40
1.0
 10
216.6680075803
 20
122.1824764902
 30
0.0
 10
216.6239158451
 20
122.2140223578
 30
0.0
 10
216.4675854636
 20
122.3326788273
 30
0.0
 10
216.3243739016
 20
122.4709587435
 30
0.0
 10
216.2388925581
 20
122.5846017001
 30
0.0
  0
LINE
  5
392
330
20C
100
AcDbEntity
  8
7_ALL_FEATURES
  6
Continuous
 62
     9
100
AcDbLine
 10
216.632792
 20
122.102051
 30
0.0
 11
226.850888
 21
122.102051
 31
0.0
  0
SPLINE
  5
393
330
20C
100
AcDbEntity
  8
7_ALL_FEATURES
  6
Continuous
 62
     9
100
AcDbSpline
 70
     0
 71
     3
 72
     9
 73
     5
 74
     0
 42
0.000000001
 43
0.0000001
 40
0.0
 40
0.0
 40
0.0
 40
0.0
 40
0.3223203082
 40
1.0
 40
1.0
 40
1.0
 40
1.0
 10
216.6327920615
 20
122.1020514485
 30
0.0
 10
216.6324060746
 20
122.1116561257
 30
0.0
 10
216.6366458336
 20
122.1418524992
 30
0.0
 10
216.6545138671
 20
122.1674308695
 30
0.0
 10
216.6680075806
 20
122.1824764905
 30
0.0
  0
SPLINE
  5
394
330
20C
100
AcDbEntity
  8
7_ALL_FEATURES
  6
Continuous
 62
     9
100
AcDbSpline
 70
     0
 71
     3
 72
    12
 73
     8
 74
     0
 42
0.000000001
 43
0.0000001
 40
0.0
 40
0.0
 40
0.0
 40
0.0
 40
0.1857796642
 40
0.2872261493
 40
0.4022997542
 40
0.6884317473
 40
1.0
 40
1.0
 40
1.0
 40
1.0
 10
216.6680075806
 20
122.1824764905
 30
0.0
 10
216.7273702663
 20
122.2498052279
 30
0.0
 10
216.8057489456
 20
122.3718178848
 30
0.0
 10
216.8301604951
 20
122.5684439908
 30
0.0
 10
216.7619721094
 20
122.8102364433
 30
0.0
 10
216.4499540472
 20
123.026429622
 30
0.0
 10
216.1610514899
 20
123.0627121299
 30
0.0
 10
216.0105627145
 20
123.0665332273
 30
0.0
  0
ARC
  5
395
330
20C
100
AcDbEntity
  8
7_ALL_FEATURES
  6
Continuous
 62
     9
100
AcDbCircle
 10
215.961463
 20
121.119559
 30
0.0
 40
1.9475936078
100
AcDbArc
 50
88.555395
 51
89.968946
  0
SPLINE
  5
396
330
20C
100
AcDbEntity
  8
7_ALL_FEATURES
  6
Continuous
 62
     9
100
AcDbSpline
 70
     0
 71
     3
 72
     9
 73
     5
 74
     0
 42
0.000000001
 43
0.0000001
 40
0.0
 40
0.0
 40
0.0
 40
0.0
 40
0.2187922853
 40
1.0
 40
1.0
 40
1.0
 40
1.0
 10
214.2469690247
 20
122.1824764905
 30
0.0
 10
214.2523320408
 20
122.1780146712
 30
0.0
 10
214.2758251769
 20
122.1570800271
 30
0.0
 10
214.2963442983
 20
122.1269562474
 30
0.0
 10
214.2968257603
 20
122.1020514485
 30
0.0
  0
LINE
  5
397
330
20C
100
AcDbEntity
  8
7_ALL_FEATURES
  6
Continuous
 62
     9
100
AcDbLine
 10
144.408074
 20
122.102051
 30
0.0
 11
147.51031
 21
122.102051
 31
0.0
  0
LINE
  5
398
330
20C
100
AcDbEntity
  8
7_ALL_FEATURES
  6
Continuous
 62
     9
100
AcDbLine
 10
147.51031
 20
122.102051
 30
0.0
 11
210.090289
 21
122.102051
 31
0.0
  0
LINE
  5
399
330
20C
100
AcDbEntity
  8
7_ALL_FEATURES
  6
Continuous
 62
     9
100
AcDbLine
 10
210.090289
 20
122.102051
 30
0.0
 11
214.296826
 21
122.102051
 31
0.0
  0
SPLINE
  5
39A
330
20C
100
AcDbEntity
  8
7_ALL_FEATURES
  6
Continuous
 62
     9
100
AcDbSpline
 70
     0
 71
     3
 72
     9
 73
     5
 74
     0
 42
0.000000001
 43
0.0000001
 40
0.0
 40
0.0
 40
0.0
 40
0.0
 40
0.2510040733
 40
1.0
 40
1.0
 40
1.0
 40
1.0
 10
144.4080735648
 20
122.1020514485
 30
0.0
 10
144.4078618927
 20
122.1121975897
 30
0.0
 10
144.4265420256
 20
122.1516587231
 30
0.0
 10
144.4658078451
 20
122.169450559
 30
0.0
 10
144.4931458194
 20
122.1824764905
 30
0.0
  0
SPLINE
  5
39B
330
20C
100
AcDbEntity
  8
7_ALL_FEATURES
  6
Continuous
 62
     9
100
AcDbSpline
 70
     0
 71
     3
 72
    16
 73
    12
 74
     0
 42
0.000000001
 43
0.0000001
 40
0.0
 40
0.0
 40
0.0
 40
0.0
 40
0.1580040805
 40
0.3139579327
 40
0.4639223164
 40
0.5984754715
 40
0.7028011316
 40
0.7465297527
 40
0.7898583431
 40
0.8861114473
 40
1.0
 40
1.0
 40
1.0
 40
1.0
 10
144.4931458194
 20
122.1824764905
 30
0.0
 10
144.5634528431
 20
122.2165062379
 30
0.0
 10
144.7009677064
 20
122.2889158146
 30
0.0
 10
144.8922118366
 20
122.4164987129
 30
0.0
 10
145.0538755625
 20
122.5642774751
 30
0.0
 10
145.1689212802
 20
122.7193887148
 30
0.0
 10
145.2054238137
 20
122.8642824341
 30
0.0
 10
145.170529881
 20
122.9556051452
 30
0.0
 10
145.103792247
 20
123.0200008247
 30
0.0
 10
144.9810774754
 20
123.0614486439
 30
0.0
 10
144.8771970178
 20
123.0671043459
 30
0.0
 10
144.8208960665
 20
123.0671519518
 30
0.0
  0
SPLINE
  5
39C
330
20C
100
AcDbEntity
  8
7_ALL_FEATURES
  6
Continuous
 62
     9
100
AcDbSpline
 70
     0
 71
     3
 72
    12
 73
     8
 74
     0
 42
0.000000001
 43
0.0000001
 40
0.0
 40
0.0
 40
0.0
 40
0.0
 40
0.0444588372
 40
0.124684182
 40
0.4156983853
 40
0.7409977017
 40
1.0
 40
1.0
 40
1.0
 40
1.0
 10
213.2137297989
 20
123.0671519518
 30
0.0
 10
213.2340420174
 20
123.067130346
 30
0.0
 10
213.2897151151
 20
123.0484522365
 30
0.0
 10
213.4524242171
 20
122.9510437074
 30
0.0
 10
213.6867943594
 20
122.7309668768
 30
0.0
 10
213.9622469786
 20
122.4427149978
 30
0.0
 10
214.1561774851
 20
122.2583673182
 30
0.0
 10
214.2469690247
 20
122.1824764905
 30
0.0
  0
SPLINE
  5
39D
330
20C
100
AcDbEntity
  8
7_ALL_FEATURES
  6
Continuous
 62
     9
100
AcDbSpline
 70
     0
 71
     3
 72
     8
 73
     4
 74
     0
 42
0.000000001
 43
0.0000001
 40
0.0
 40
0.0
 40
0.0
 40
0.0
 40
1.0
 40
1.0
 40
1.0
 40
1.0
 10
68.1816959251
 20
123.0671519518
 30
0.0
 10
68.0836789724
 20
123.0671320627
 30
0.0
 10
67.9850788492
 20
123.059840191
 30
0.0
 10
67.8887430761
 20
123.0417641783
 30
0.0
  0
SPLINE
  5
39E
330
20C
100
AcDbEntity
  8
7_ALL_FEATURES
  6
Continuous
 62
     9
100
AcDbSpline
 70
     0
 71
     3
 72
    11
 73
     7
 74
     0
 42
0.000000001
 43
0.0000001
 40
0.0
 40
0.0
 40
0.0
 40
0.0
 40
0.3246293524
 40
0.5956671901
 40
0.8072167234
 40
1.0
 40
1.0
 40
1.0
 40
1.0
 10
67.8887430761
 20
123.0417641783
 30
0.0
 10
67.760794136
 20
123.0177564125
 30
0.0
 10
67.5260882546
 20
122.942346141
 30
0.0
 10
67.3031667071
 20
122.6664420441
 30
0.0
 10
67.3315432492
 20
122.3772675365
 30
0.0
 10
67.4247491367
 20
122.2401724661
 30
0.0
 10
67.4762069465
 20
122.1824764905
 30
0.0
  0
SPLINE
  5
39F
330
20C
100
AcDbEntity
  8
7_ALL_FEATURES
  6
Continuous
 62
     9
100
AcDbSpline
 70
     0
 71
     3
 72
     9
 73
     5
 74
     0
 42
0.000000001
 43
0.0000001
 40
0.0
 40
0.0
 40
0.0
 40
0.0
 40
0.2050764869
 40
1.0
 40
1.0
 40
1.0
 40
1.0
 10
67.4762069465
 20
122.1824764905
 30
0.0
 10
67.4802530049
 20
122.1779655012
 30
0.0
 10
67.4990368294
 20
122.1554357393
 30
0.0
 10
67.5123655254
 20
122.1255211844
 30
0.0
 10
67.5114224655
 20
122.1020514485
 30
0.0
  0
LINE
  5
3A0
330
20C
100
AcDbEntity
  8
7_ALL_FEATURES
  6
Continuous
 62
     7
100
AcDbLine
 10
437.79145
 20
125.62175
 30
0.0
 11
437.79145
 21
125.59518
 31
0.0
  0
LINE
  5
3A1
330
20C
100
AcDbEntity
  8
7_ALL_FEATURES
  6
Continuous
 62
     7
100
AcDbLine
 10
437.54145
 20
125.621751
 30
0.0
 11
437.79145
 21
125.621751
 31
0.0
  0
LINE
  5
3A2
330
20C
100
AcDbEntity
  8
7_ALL_FEATURES
  6
Continuous
 62
     7
100
AcDbLine
 10
437.79145
 20
125.511317
 30
0.0
 11
437.79145
 21
125.59518
 31
0.0
  0
LINE
  5
3A3
330
20C
100
AcDbEntity
  8
7_ALL_FEATURES
  6
Continuous
 62
     7
100
AcDbLine
 10
437.79145
 20
123.067152
 30
0.0
 11
437.79145
 21
123.756807
 31
0.0
  0
LINE
  5
3A4
330
20C
100
AcDbEntity
  8
7_ALL_FEATURES
  6
Continuous
 62
     7
100
AcDbLine
 10
437.79145
 20
125.511317
 30
0.0
 11
437.79145
 21
123.756807
 31
0.0
  0
LINE
  5
3A5
330
20C
100
AcDbEntity
  8
7_ALL_FEATURES
  6
Continuous
 62
     9
100
AcDbLine
 10
437.54145
 20
125.511317
 30
0.0
 11
437.79145
 21
125.511317
 31
0.0
  0
LINE
  5
3A6
330
20C
100
AcDbEntity
  8
7_ALL_FEATURES
  6
Continuous
 62
     9
100
AcDbLine
 10
437.54145
 20
125.59518
 30
0.0
 11
437.79145
 21
125.59518
 31
0.0
  0
LINE
  5
3A7
330
20C
100
AcDbEntity
  8
7_ALL_FEATURES
  6
Continuous
 62
     9
100
AcDbLine
 10
437.54145
 20
123.756807
 30
0.0
 11
437.79145
 21
123.756807
 31
0.0
  0
LINE
  5
3A8
330
20C
100
AcDbEntity
  8
7_ALL_FEATURES
  6
Continuous
 62
     7
100
AcDbLine
 10
469.039113
 20
123.067152
 30
0.0
 11
468.344554
 21
123.067152
 31
0.0
  0
LINE
  5
3A9
330
20C
100
AcDbEntity
  8
7_ALL_FEATURES
  6
Continuous
 62
     7
100
AcDbLine
 10
468.344554
 20
123.067152
 30
0.0
 11
468.18776
 21
123.067152
 31
0.0
  0
LINE
  5
3AA
330
20C
100
AcDbEntity
  8
7_ALL_FEATURES
  6
Continuous
 62
     7
100
AcDbLine
 10
468.18776
 20
123.067152
 30
0.0
 11
464.278071
 21
123.067152
 31
0.0
  0
LINE
  5
3AB
330
20C
100
AcDbEntity
  8
7_ALL_FEATURES
  6
Continuous
 62
     7
100
AcDbLine
 10
385.304829
 20
123.067152
 30
0.0
 11
381.395119
 21
123.067152
 31
0.0
  0
LINE
  5
3AC
330
20C
100
AcDbEntity
  8
7_ALL_FEATURES
  6
Continuous
 62
     7
100
AcDbLine
 10
381.395119
 20
123.067152
 30
0.0
 11
380.543788
 21
123.067152
 31
0.0
  0
LINE
  5
3AD
330
20C
100
AcDbEntity
  8
7_ALL_FEATURES
  6
Continuous
 62
     7
100
AcDbLine
 10
424.79145
 20
117.867152
 30
0.0
 11
458.480172
 21
117.867152
 31
0.0
  0
LINE
  5
3AE
330
20C
100
AcDbEntity
  8
7_ALL_FEATURES
  6
Continuous
 62
     7
100
AcDbLine
 10
458.480172
 20
117.867152
 30
0.0
 11
463.621998
 21
117.867152
 31
0.0
  0
LINE
  5
3AF
330
20C
100
AcDbEntity
  8
7_ALL_FEATURES
  6
Continuous
 62
     7
100
AcDbLine
 10
463.621998
 20
117.867152
 30
0.0
 11
463.654514
 21
117.867152
 31
0.0
  0
LINE
  5
3B0
330
20C
100
AcDbEntity
  8
7_ALL_FEATURES
  6
Continuous
 62
     7
100
AcDbLine
 10
463.654514
 20
117.867152
 30
0.0
 11
463.846444
 21
117.867152
 31
0.0
  0
LINE
  5
3B1
330
20C
100
AcDbEntity
  8
7_ALL_FEATURES
  6
Continuous
 62
     7
100
AcDbLine
 10
463.846444
 20
117.867152
 30
0.0
 11
463.940603
 21
117.867152
 31
0.0
  0
LINE
  5
3B2
330
20C
100
AcDbEntity
  8
7_ALL_FEATURES
  6
Continuous
 62
     7
100
AcDbLine
 10
463.940603
 20
117.867152
 30
0.0
 11
464.628693
 21
117.867152
 31
0.0
  0
LINE
  5
3B3
330
20C
100
AcDbEntity
  8
7_ALL_FEATURES
  6
Continuous
 62
     7
100
AcDbLine
 10
464.628693
 20
117.867152
 30
0.0
 11
464.869942
 21
117.867152
 31
0.0
  0
LINE
  5
3B4
330
20C
100
AcDbEntity
  8
7_ALL_FEATURES
  6
Continuous
 62
     7
100
AcDbLine
 10
464.869942
 20
117.867152
 30
0.0
 11
465.030465
 21
117.867152
 31
0.0
  0
LINE
  5
3B5
330
20C
100
AcDbEntity
  8
7_ALL_FEATURES
  6
Continuous
 62
     7
100
AcDbLine
 10
465.030465
 20
117.867152
 30
0.0
 11
465.099632
 21
117.867152
 31
0.0
  0
LINE
  5
3B6
330
20C
100
AcDbEntity
  8
7_ALL_FEATURES
  6
Continuous
 62
     7
100
AcDbLine
 10
465.099632
 20
117.867152
 30
0.0
 11
465.192807
 21
117.867152
 31
0.0
  0
LINE
  5
3B7
330
20C
100
AcDbEntity
  8
7_ALL_FEATURES
  6
Continuous
 62
     7
100
AcDbLine
 10
465.192807
 20
117.867152
 30
0.0
 11
466.552658
 21
117.867152
 31
0.0
  0
LINE
  5
3B8
330
20C
100
AcDbEntity
  8
7_ALL_FEATURES
  6
Continuous
 62
     7
100
AcDbLine
 10
466.552658
 20
117.867152
 30
0.0
 11
466.619887
 21
117.867152
 31
0.0
  0
LINE
  5
3B9
330
20C
100
AcDbEntity
  8
7_ALL_FEATURES
  6
Continuous
 62
     7
100
AcDbLine
 10
466.619887
 20
117.867152
 30
0.0
 11
470.425368
 21
117.867152
 31
0.0
  0
LINE
  5
3BA
330
20C
100
AcDbEntity
  8
7_ALL_FEATURES
  6
Continuous
 62
     7
100
AcDbLine
 10
470.425368
 20
117.867152
 30
0.0
 11
503.70046
 21
117.867152
 31
0.0
  0
LINE
  5
3BB
330
20C
100
AcDbEntity
  8
7_ALL_FEATURES
  6
Continuous
 62
     7
100
AcDbLine
 10
503.70046
 20
117.867152
 30
0.0
 11
504.15464
 21
117.867152
 31
0.0
  0
LINE
  5
3BC
330
20C
100
AcDbEntity
  8
7_ALL_FEATURES
  6
Continuous
 62
     7
100
AcDbLine
 10
504.15464
 20
117.867152
 30
0.0
 11
507.221729
 21
117.867152
 31
0.0
  0
LINE
  5
3BD
330
20C
100
AcDbEntity
  8
7_ALL_FEATURES
  6
Continuous
 62
     7
100
AcDbLine
 10
507.221729
 20
117.867152
 30
0.0
 11
523.502369
 21
117.867152
 31
0.0
  0
LINE
  5
3BE
330
20C
100
AcDbEntity
  8
7_ALL_FEATURES
  6
Continuous
 62
     7
100
AcDbLine
 10
523.502369
 20
117.867152
 30
0.0
 11
524.789706
 21
117.867152
 31
0.0
  0
LINE
  5
3BF
330
20C
100
AcDbEntity
  8
7_ALL_FEATURES
  6
Continuous
 62
     7
100
AcDbLine
 10
424.79145
 20
117.867152
 30
0.0
 11
387.439949
 21
117.867152
 31
0.0
  0
LINE
  5
3C0
330
20C
100
AcDbEntity
  8
7_ALL_FEATURES
  6
Continuous
 62
     7
100
AcDbLine
 10
387.439949
 20
117.867152
 30
0.0
 11
385.960902
 21
117.867152
 31
0.0
  0
LINE
  5
3C1
330
20C
100
AcDbEntity
  8
7_ALL_FEATURES
  6
Continuous
 62
     7
100
AcDbLine
 10
385.960902
 20
117.867152
 30
0.0
 11
385.911922
 21
117.867152
 31
0.0
  0
LINE
  5
3C2
330
20C
100
AcDbEntity
  8
7_ALL_FEATURES
  6
Continuous
 62
     7
100
AcDbLine
 10
385.911922
 20
117.867152
 30
0.0
 11
385.736457
 21
117.867152
 31
0.0
  0
LINE
  5
3C3
330
20C
100
AcDbEntity
  8
7_ALL_FEATURES
  6
Continuous
 62
     7
100
AcDbLine
 10
385.736457
 20
117.867152
 30
0.0
 11
385.642252
 21
117.867152
 31
0.0
  0
LINE
  5
3C4
330
20C
100
AcDbEntity
  8
7_ALL_FEATURES
  6
Continuous
 62
     7
100
AcDbLine
 10
385.642252
 20
117.867152
 30
0.0
 11
384.954208
 21
117.867152
 31
0.0
  0
LINE
  5
3C5
330
20C
100
AcDbEntity
  8
7_ALL_FEATURES
  6
Continuous
 62
     7
100
AcDbLine
 10
384.954208
 20
117.867152
 30
0.0
 11
384.712959
 21
117.867152
 31
0.0
  0
LINE
  5
3C6
330
20C
100
AcDbEntity
  8
7_ALL_FEATURES
  6
Continuous
 62
     7
100
AcDbLine
 10
384.712959
 20
117.867152
 30
0.0
 11
384.483269
 21
117.867152
 31
0.0
  0
LINE
  5
3C7
330
20C
100
AcDbEntity
  8
7_ALL_FEATURES
  6
Continuous
 62
     7
100
AcDbLine
 10
384.483269
 20
117.867152
 30
0.0
 11
384.390094
 21
117.867152
 31
0.0
  0
LINE
  5
3C8
330
20C
100
AcDbEntity
  8
7_ALL_FEATURES
  6
Continuous
 62
     7
100
AcDbLine
 10
384.390094
 20
117.867152
 30
0.0
 11
382.963481
 21
117.867152
 31
0.0
  0
LINE
  5
3C9
330
20C
100
AcDbEntity
  8
7_ALL_FEATURES
  6
Continuous
 62
     7
100
AcDbLine
 10
382.963481
 20
117.867152
 30
0.0
 11
380.325031
 21
117.867152
 31
0.0
  0
LINE
  5
3CA
330
20C
100
AcDbEntity
  8
7_ALL_FEATURES
  6
Continuous
 62
     7
100
AcDbLine
 10
380.325031
 20
117.867152
 30
0.0
 11
379.159775
 21
117.867152
 31
0.0
  0
LINE
  5
3CB
330
20C
100
AcDbEntity
  8
7_ALL_FEATURES
  6
Continuous
 62
     7
100
AcDbLine
 10
379.159775
 20
117.867152
 30
0.0
 11
345.882441
 21
117.867152
 31
0.0
  0
LINE
  5
3CC
330
20C
100
AcDbEntity
  8
7_ALL_FEATURES
  6
Continuous
 62
     7
100
AcDbLine
 10
345.882441
 20
117.867152
 30
0.0
 11
345.678741
 21
117.867152
 31
0.0
  0
LINE
  5
3CD
330
20C
100
AcDbEntity
  8
7_ALL_FEATURES
  6
Continuous
 62
     7
100
AcDbLine
 10
345.678741
 20
117.867152
 30
0.0
 11
345.428261
 21
117.867152
 31
0.0
  0
LINE
  5
3CE
330
20C
100
AcDbEntity
  8
7_ALL_FEATURES
  6
Continuous
 62
     7
100
AcDbLine
 10
345.428261
 20
117.867152
 30
0.0
 11
326.079727
 21
117.867152
 31
0.0
  0
LINE
  5
3CF
330
20C
100
AcDbEntity
  8
7_ALL_FEATURES
  6
Continuous
 62
     7
100
AcDbLine
 10
326.079727
 20
117.867152
 30
0.0
 11
324.793195
 21
117.867152
 31
0.0
  0
LINE
  5
3D0
330
20C
100
AcDbEntity
  8
7_ALL_FEATURES
  6
Continuous
 62
     7
100
AcDbLine
 10
361.52281
 20
130.011108
 30
0.0
 11
362.404082
 21
130.011108
 31
0.0
  0
LINE
  5
3D1
330
20C
100
AcDbEntity
  8
7_ALL_FEATURES
  6
Continuous
 62
     7
100
AcDbLine
 10
362.404082
 20
130.011108
 30
0.0
 11
362.652485
 21
130.011108
 31
0.0
  0
LINE
  5
3D2
330
20C
100
AcDbEntity
  8
7_ALL_FEATURES
  6
Continuous
 62
     7
100
AcDbLine
 10
362.652485
 20
130.011108
 30
0.0
 11
363.108835
 21
130.011108
 31
0.0
  0
LINE
  5
3D3
330
20C
100
AcDbEntity
  8
7_ALL_FEATURES
  6
Continuous
 62
     7
100
AcDbLine
 10
363.108835
 20
130.011108
 30
0.0
 11
422.891397
 21
130.011108
 31
0.0
  0
LINE
  5
3D4
330
20C
100
AcDbEntity
  8
7_ALL_FEATURES
  6
Continuous
 62
     7
100
AcDbLine
 10
422.891397
 20
130.011108
 30
0.0
 11
423.935486
 21
130.011108
 31
0.0
  0
LINE
  5
3D5
330
20C
100
AcDbEntity
  8
7_ALL_FEATURES
  6
Continuous
 62
     7
100
AcDbLine
 10
423.935486
 20
130.011108
 30
0.0
 11
424.79145
 21
130.011108
 31
0.0
  0
ARC
  5
3D6
330
20C
100
AcDbEntity
  8
7_ALL_FEATURES
  6
Continuous
 62
     7
100
AcDbCircle
 10
361.522068
 20
129.261108
 30
0.0
 40
0.75
100
AcDbArc
 50
90.0
 51
178.5
  0
LINE
  5
3D7
330
20C
100
AcDbEntity
  8
7_ALL_FEATURES
  6
Continuous
 62
     7
100
AcDbLine
 10
361.698982
 20
130.011108
 30
0.0
 11
362.404082
 21
130.011108
 31
0.0
  0
LINE
  5
3D8
330
20C
100
AcDbEntity
  8
7_ALL_FEATURES
  6
Continuous
 62
     7
100
AcDbLine
 10
362.404082
 20
130.011108
 30
0.0
 11
362.652485
 21
130.011108
 31
0.0
  0
LINE
  5
3D9
330
20C
100
AcDbEntity
  8
7_ALL_FEATURES
  6
Continuous
 62
     7
100
AcDbLine
 10
362.652485
 20
130.011108
 30
0.0
 11
363.108364
 21
130.011108
 31
0.0
  0
LINE
  5
3DA
330
20C
100
AcDbEntity
  8
7_ALL_FEATURES
  6
Continuous
 62
     7
100
AcDbLine
 10
363.108364
 20
130.011108
 30
0.0
 11
422.891397
 21
130.011108
 31
0.0
  0
LINE
  5
3DB
330
20C
100
AcDbEntity
  8
7_ALL_FEATURES
  6
Continuous
 62
     7
100
AcDbLine
 10
422.891397
 20
130.011108
 30
0.0
 11
423.935486
 21
130.011108
 31
0.0
  0
LINE
  5
3DC
330
20C
100
AcDbEntity
  8
7_ALL_FEATURES
  6
Continuous
 62
     7
100
AcDbLine
 10
423.935486
 20
130.011108
 30
0.0
 11
424.79145
 21
130.011108
 31
0.0
  0
ARC
  5
3DD
330
20C
100
AcDbEntity
  8
7_ALL_FEATURES
  6
Continuous
 62
     7
100
AcDbCircle
 10
488.060833
 20
129.261108
 30
0.0
 40
0.75
100
AcDbArc
 50
1.5
 51
90.0
  0
LINE
  5
3DE
330
20C
100
AcDbEntity
  8
7_ALL_FEATURES
  6
Continuous
 62
     7
100
AcDbLine
 10
487.416842
 20
130.011108
 30
0.0
 11
487.883919
 21
130.011108
 31
0.0
  0
LINE
  5
3DF
330
20C
100
AcDbEntity
  8
7_ALL_FEATURES
  6
Continuous
 62
     7
100
AcDbLine
 10
424.79145
 20
130.011108
 30
0.0
 11
425.647415
 21
130.011108
 31
0.0
  0
LINE
  5
3E0
330
20C
100
AcDbEntity
  8
7_ALL_FEATURES
  6
Continuous
 62
     7
100
AcDbLine
 10
425.647415
 20
130.011108
 30
0.0
 11
426.691504
 21
130.011108
 31
0.0
  0
LINE
  5
3E1
330
20C
100
AcDbEntity
  8
7_ALL_FEATURES
  6
Continuous
 62
     7
100
AcDbLine
 10
426.691504
 20
130.011108
 30
0.0
 11
486.474031
 21
130.011108
 31
0.0
  0
LINE
  5
3E2
330
20C
100
AcDbEntity
  8
7_ALL_FEATURES
  6
Continuous
 62
     7
100
AcDbLine
 10
486.474031
 20
130.011108
 30
0.0
 11
487.071038
 21
130.011108
 31
0.0
  0
LINE
  5
3E3
330
20C
100
AcDbEntity
  8
7_ALL_FEATURES
  6
Continuous
 62
     7
100
AcDbLine
 10
487.071038
 20
130.011108
 30
0.0
 11
487.178819
 21
130.011108
 31
0.0
  0
LINE
  5
3E4
330
20C
100
AcDbEntity
  8
7_ALL_FEATURES
  6
Continuous
 62
     7
100
AcDbLine
 10
487.178819
 20
130.011108
 30
0.0
 11
487.416842
 21
130.011108
 31
0.0
  0
LINE
  5
3E5
330
20C
100
AcDbEntity
  8
7_ALL_FEATURES
  6
Continuous
 62
     7
100
AcDbLine
 10
487.416842
 20
130.011108
 30
0.0
 11
488.060091
 21
130.011108
 31
0.0
  0
LINE
  5
3E6
330
20C
100
AcDbEntity
  8
7_ALL_FEATURES
  6
Continuous
 62
     7
100
AcDbLine
 10
424.79145
 20
130.011108
 30
0.0
 11
425.647415
 21
130.011108
 31
0.0
  0
LINE
  5
3E7
330
20C
100
AcDbEntity
  8
7_ALL_FEATURES
  6
Continuous
 62
     7
100
AcDbLine
 10
425.647415
 20
130.011108
 30
0.0
 11
426.691504
 21
130.011108
 31
0.0
  0
LINE
  5
3E8
330
20C
100
AcDbEntity
  8
7_ALL_FEATURES
  6
Continuous
 62
     7
100
AcDbLine
 10
426.691504
 20
130.011108
 30
0.0
 11
486.474537
 21
130.011108
 31
0.0
  0
LINE
  5
3E9
330
20C
100
AcDbEntity
  8
7_ALL_FEATURES
  6
Continuous
 62
     7
100
AcDbLine
 10
486.474537
 20
130.011108
 30
0.0
 11
487.416842
 21
130.011108
 31
0.0
  0
LINE
  5
3EA
330
20C
100
AcDbEntity
  8
7_ALL_FEATURES
  6
Continuous
 62
     7
100
AcDbLine
 10
325.655616
 20
112.767152
 30
0.0
 11
331.899552
 21
112.767152
 31
0.0
  0
LINE
  5
3EB
330
20C
100
AcDbEntity
  8
7_ALL_FEATURES
  6
Continuous
 62
     7
100
AcDbLine
 10
331.899552
 20
112.767152
 30
0.0
 11
332.693504
 21
112.767152
 31
0.0
  0
LINE
  5
3EC
330
20C
100
AcDbEntity
  8
7_ALL_FEATURES
  6
Continuous
 62
     7
100
AcDbLine
 10
332.693504
 20
112.767152
 30
0.0
 11
332.835733
 21
112.767152
 31
0.0
  0
LINE
  5
3ED
330
20C
100
AcDbEntity
  8
7_ALL_FEATURES
  6
Continuous
 62
     7
100
AcDbLine
 10
332.835733
 20
112.767152
 30
0.0
 11
424.79145
 21
112.767152
 31
0.0
  0
LINE
  5
3EE
330
20C
100
AcDbEntity
  8
7_ALL_FEATURES
  6
Continuous
 62
     7
100
AcDbLine
 10
325.656425
 20
112.767152
 30
0.0
 11
331.899552
 21
112.767152
 31
0.0
  0
LINE
  5
3EF
330
20C
100
AcDbEntity
  8
7_ALL_FEATURES
  6
Continuous
 62
     7
100
AcDbLine
 10
331.899552
 20
112.767152
 30
0.0
 11
332.693504
 21
112.767152
 31
0.0
  0
LINE
  5
3F0
330
20C
100
AcDbEntity
  8
7_ALL_FEATURES
  6
Continuous
 62
     7
100
AcDbLine
 10
332.693504
 20
112.767152
 30
0.0
 11
332.835733
 21
112.767152
 31
0.0
  0
LINE
  5
3F1
330
20C
100
AcDbEntity
  8
7_ALL_FEATURES
  6
Continuous
 62
     7
100
AcDbLine
 10
332.835733
 20
112.767152
 30
0.0
 11
424.79145
 21
112.767152
 31
0.0
  0
SPLINE
  5
3F2
330
20C
100
AcDbEntity
  8
7_ALL_FEATURES
  6
Continuous
 62
     7
100
AcDbSpline
 70
     0
 71
     3
 72
    11
 73
     7
 74
     0
 42
0.000000001
 43
0.0000001
 40
0.0
 40
0.0
 40
0.0
 40
0.0
 40
0.2730673694
 40
0.5
 40
0.7269326306
 40
1.0
 40
1.0
 40
1.0
 40
1.0
 10
325.6556162122
 20
112.7671519518
 30
0.0
 10
325.5475923471
 20
112.7671519518
 30
0.0
 10
325.3470738567
 20
112.7871689482
 30
0.0
 10
325.0857857353
 20
112.9322046051
 30
0.0
 10
324.9339600528
 20
113.1896065987
 30
0.0
 10
324.9087009536
 20
113.3895323926
 30
0.0
 10
324.9058732185
 20
113.4975192406
 30
0.0
  0
LINE
  5
3F3
330
20C
100
AcDbEntity
  8
7_ALL_FEATURES
  6
Continuous
 62
     7
100
AcDbLine
 10
519.075231
 20
112.767152
 30
0.0
 11
523.926476
 21
112.767152
 31
0.0
  0
LINE
  5
3F4
330
20C
100
AcDbEntity
  8
7_ALL_FEATURES
  6
Continuous
 62
     7
100
AcDbLine
 10
424.79145
 20
112.767152
 30
0.0
 11
516.747168
 21
112.767152
 31
0.0
  0
LINE
  5
3F5
330
20C
100
AcDbEntity
  8
7_ALL_FEATURES
  6
Continuous
 62
     7
100
AcDbLine
 10
516.747168
 20
112.767152
 30
0.0
 11
516.889396
 21
112.767152
 31
0.0
  0
LINE
  5
3F6
330
20C
100
AcDbEntity
  8
7_ALL_FEATURES
  6
Continuous
 62
     7
100
AcDbLine
 10
516.889396
 20
112.767152
 30
0.0
 11
517.683349
 21
112.767152
 31
0.0
  0
LINE
  5
3F7
330
20C
100
AcDbEntity
  8
7_ALL_FEATURES
  6
Continuous
 62
     7
100
AcDbLine
 10
517.683349
 20
112.767152
 30
0.0
 11
519.075231
 21
112.767152
 31
0.0
  0
LINE
  5
3F8
330
20C
100
AcDbEntity
  8
7_ALL_FEATURES
  6
Continuous
 62
     7
100
AcDbLine
 10
519.075231
 20
112.767152
 30
0.0
 11
523.926476
 21
112.767152
 31
0.0
  0
LINE
  5
3F9
330
20C
100
AcDbEntity
  8
7_ALL_FEATURES
  6
Continuous
 62
     7
100
AcDbLine
 10
424.79145
 20
112.767152
 30
0.0
 11
516.889396
 21
112.767152
 31
0.0
  0
LINE
  5
3FA
330
20C
100
AcDbEntity
  8
7_ALL_FEATURES
  6
Continuous
 62
     7
100
AcDbLine
 10
516.889396
 20
112.767152
 30
0.0
 11
519.075231
 21
112.767152
 31
0.0
  0
SPLINE
  5
3FB
330
20C
100
AcDbEntity
  8
7_ALL_FEATURES
  6
Continuous
 62
     7
100
AcDbSpline
 70
     0
 71
     3
 72
    11
 73
     7
 74
     0
 42
0.000000001
 43
0.0000001
 40
0.0
 40
0.0
 40
0.0
 40
0.0
 40
0.2730673694
 40
0.5
 40
0.7269326306
 40
1.0
 40
1.0
 40
1.0
 40
1.0
 10
523.9272845058
 20
112.7671519518
 30
0.0
 10
524.0353083709
 20
112.7671519518
 30
0.0
 10
524.2358268613
 20
112.7871689482
 30
0.0
 10
524.4971149827
 20
112.9322046051
 30
0.0
 10
524.6489406652
 20
113.1896065987
 30
0.0
 10
524.6741997644
 20
113.3895323926
 30
0.0
 10
524.6770274995
 20
113.4975192406
 30
0.0
  0
LINE
  5
3FC
330
20C
100
AcDbEntity
  8
7_ALL_FEATURES
  6
Continuous
 62
     7
100
AcDbLine
 10
380.543788
 20
123.067152
 30
0.0
 11
380.046029
 21
123.067152
 31
0.0
  0
LINE
  5
3FD
330
20C
100
AcDbEntity
  8
7_ALL_FEATURES
  6
Continuous
 62
     7
100
AcDbLine
 10
380.046029
 20
123.067152
 30
0.0
 11
377.827915
 21
123.067152
 31
0.0
  0
LINE
  5
3FE
330
20C
100
AcDbEntity
  8
7_ALL_FEATURES
  6
Continuous
 62
     7
100
AcDbLine
 10
377.827915
 20
123.067152
 30
0.0
 11
371.712946
 21
123.067152
 31
0.0
  0
LINE
  5
3FF
330
20C
100
AcDbEntity
  8
7_ALL_FEATURES
  6
Continuous
 62
     7
100
AcDbLine
 10
371.712946
 20
123.067152
 30
0.0
 11
350.70776
 21
123.067152
 31
0.0
  0
LINE
  5
400
330
20C
100
AcDbEntity
  8
7_ALL_FEATURES
  6
Continuous
 62
     7
100
AcDbLine
 10
350.70776
 20
123.067152
 30
0.0
 11
350.551977
 21
123.067152
 31
0.0
  0
LINE
  5
401
330
20C
100
AcDbEntity
  8
7_ALL_FEATURES
  6
Continuous
 62
     7
100
AcDbLine
 10
350.551977
 20
123.067152
 30
0.0
 11
349.711814
 21
123.067152
 31
0.0
  0
LINE
  5
402
330
20C
100
AcDbEntity
  8
7_ALL_FEATURES
  6
Continuous
 62
     7
100
AcDbLine
 10
349.711814
 20
123.067152
 30
0.0
 11
349.467124
 21
123.067152
 31
0.0
  0
LINE
  5
403
330
20C
100
AcDbEntity
  8
7_ALL_FEATURES
  6
Continuous
 62
     7
100
AcDbLine
 10
349.467124
 20
123.067152
 30
0.0
 11
345.49145
 21
123.067152
 31
0.0
  0
LINE
  5
404
330
20C
100
AcDbEntity
  8
7_ALL_FEATURES
  6
Continuous
 62
     7
100
AcDbLine
 10
345.49145
 20
123.067152
 30
0.0
 11
345.07862
 21
123.067152
 31
0.0
  0
LINE
  5
405
330
20C
100
AcDbEntity
  8
7_ALL_FEATURES
  6
Continuous
 62
     7
100
AcDbLine
 10
345.07862
 20
123.067152
 30
0.0
 11
343.91407
 21
123.067152
 31
0.0
  0
LINE
  5
406
330
20C
100
AcDbEntity
  8
7_ALL_FEATURES
  6
Continuous
 62
     7
100
AcDbLine
 10
343.91407
 20
123.067152
 30
0.0
 11
342.255443
 21
123.067152
 31
0.0
  0
LINE
  5
407
330
20C
100
AcDbEntity
  8
7_ALL_FEATURES
  6
Continuous
 62
     7
100
AcDbLine
 10
342.255443
 20
123.067152
 30
0.0
 11
342.141558
 21
123.067152
 31
0.0
  0
LINE
  5
408
330
20C
100
AcDbEntity
  8
7_ALL_FEATURES
  6
Continuous
 62
     7
100
AcDbLine
 10
342.141558
 20
123.067152
 30
0.0
 11
342.020097
 21
123.067152
 31
0.0
  0
LINE
  5
409
330
20C
100
AcDbEntity
  8
7_ALL_FEATURES
  6
Continuous
 62
     7
100
AcDbLine
 10
342.020097
 20
123.067152
 30
0.0
 11
341.808502
 21
123.067152
 31
0.0
  0
LINE
  5
40A
330
20C
100
AcDbEntity
  8
7_ALL_FEATURES
  6
Continuous
 62
     7
100
AcDbLine
 10
341.808502
 20
123.067152
 30
0.0
 11
341.313369
 21
123.067152
 31
0.0
  0
LINE
  5
40B
330
20C
100
AcDbEntity
  8
7_ALL_FEATURES
  6
Continuous
 62
     7
100
AcDbLine
 10
341.313369
 20
123.067152
 30
0.0
 11
341.057167
 21
123.067152
 31
0.0
  0
LINE
  5
40C
330
20C
100
AcDbEntity
  8
7_ALL_FEATURES
  6
Continuous
 62
     7
100
AcDbLine
 10
464.278071
 20
123.067152
 30
0.0
 11
461.525356
 21
123.067152
 31
0.0
  0
LINE
  5
40D
330
20C
100
AcDbEntity
  8
7_ALL_FEATURES
  6
Continuous
 62
     7
100
AcDbLine
 10
461.525356
 20
123.067152
 30
0.0
 11
460.923409
 21
123.067152
 31
0.0
  0
LINE
  5
40E
330
20C
100
AcDbEntity
  8
7_ALL_FEATURES
  6
Continuous
 62
     7
100
AcDbLine
 10
460.923409
 20
123.067152
 30
0.0
 11
460.808189
 21
123.067152
 31
0.0
  0
LINE
  5
40F
330
20C
100
AcDbEntity
  8
7_ALL_FEATURES
  6
Continuous
 62
     7
100
AcDbLine
 10
460.808189
 20
123.067152
 30
0.0
 11
388.774712
 21
123.067152
 31
0.0
  0
LINE
  5
410
330
20C
100
AcDbEntity
  8
7_ALL_FEATURES
  6
Continuous
 62
     7
100
AcDbLine
 10
388.774712
 20
123.067152
 30
0.0
 11
388.659492
 21
123.067152
 31
0.0
  0
LINE
  5
411
330
20C
100
AcDbEntity
  8
7_ALL_FEATURES
  6
Continuous
 62
     7
100
AcDbLine
 10
388.659492
 20
123.067152
 30
0.0
 11
388.057544
 21
123.067152
 31
0.0
  0
LINE
  5
412
330
20C
100
AcDbEntity
  8
7_ALL_FEATURES
  6
Continuous
 62
     7
100
AcDbLine
 10
388.057544
 20
123.067152
 30
0.0
 11
385.304829
 21
123.067152
 31
0.0
  0
LINE
  5
413
330
20C
100
AcDbEntity
  8
7_ALL_FEATURES
  6
Continuous
 62
     7
100
AcDbLine
 10
509.308606
 20
123.067152
 30
0.0
 11
508.525734
 21
123.067152
 31
0.0
  0
ARC
  5
414
330
20C
100
AcDbEntity
  8
6_ALL_SURFS
  6
Continuous
 62
     7
100
AcDbCircle
 10
509.308606
 20
122.567152
 30
0.0
 40
0.5
100
AcDbArc
 50
2.0
 51
31.333333
  0
ARC
  5
415
330
20C
100
AcDbEntity
  8
6_ALL_SURFS
  6
Continuous
 62
     7
100
AcDbCircle
 10
509.308606
 20
122.567152
 30
0.0
 40
0.5
100
AcDbArc
 50
31.333333
 51
90.0
  0
LINE
  5
416
330
20C
100
AcDbEntity
  8
6_ALL_SURFS
  6
Continuous
 62
     7
100
AcDbLine
 10
508.525734
 20
123.067152
 30
0.0
 11
509.307101
 21
123.067152
 31
0.0
  0
LINE
  5
417
330
20C
100
AcDbEntity
  8
6_ALL_SURFS
  6
Continuous
 62
     7
100
AcDbLine
 10
509.973038
 20
117.867152
 30
0.0
 11
509.808301
 21
122.584602
 31
0.0
  0
ARC
  5
418
330
20C
100
AcDbEntity
  8
6_ALL_SURFS
  6
Continuous
 62
     7
100
AcDbCircle
 10
340.274295
 20
122.567152
 30
0.0
 40
0.5
100
AcDbArc
 50
90.0
 51
178.0
  0
LINE
  5
419
330
20C
100
AcDbEntity
  8
7_ALL_FEATURES
  6
Continuous
 62
     7
100
AcDbLine
 10
341.057167
 20
123.067152
 30
0.0
 11
340.274295
 21
123.067152
 31
0.0
  0
LINE
  5
41A
330
20C
100
AcDbEntity
  8
6_ALL_SURFS
  6
Continuous
 62
     7
100
AcDbLine
 10
340.2758
 20
123.067152
 30
0.0
 11
341.057167
 21
123.067152
 31
0.0
  0
LINE
  5
41B
330
20C
100
AcDbEntity
  8
6_ALL_SURFS
  6
Continuous
 62
     7
100
AcDbLine
 10
339.609862
 20
117.867152
 30
0.0
 11
339.774599
 21
122.584602
 31
0.0
  0
LINE
  5
41C
330
20C
100
AcDbEntity
  8
7_ALL_FEATURES
  6
Continuous
 62
     7
100
AcDbLine
 10
508.525734
 20
123.067152
 30
0.0
 11
508.269531
 21
123.067152
 31
0.0
  0
LINE
  5
41D
330
20C
100
AcDbEntity
  8
7_ALL_FEATURES
  6
Continuous
 62
     7
100
AcDbLine
 10
508.269531
 20
123.067152
 30
0.0
 11
507.774398
 21
123.067152
 31
0.0
  0
LINE
  5
41E
330
20C
100
AcDbEntity
  8
7_ALL_FEATURES
  6
Continuous
 62
     7
100
AcDbLine
 10
507.774398
 20
123.067152
 30
0.0
 11
507.447542
 21
123.067152
 31
0.0
  0
LINE
  5
41F
330
20C
100
AcDbEntity
  8
7_ALL_FEATURES
  6
Continuous
 62
     7
100
AcDbLine
 10
507.447542
 20
123.067152
 30
0.0
 11
507.319454
 21
123.067152
 31
0.0
  0
LINE
  5
420
330
20C
100
AcDbEntity
  8
7_ALL_FEATURES
  6
Continuous
 62
     7
100
AcDbLine
 10
507.319454
 20
123.067152
 30
0.0
 11
505.668831
 21
123.067152
 31
0.0
  0
LINE
  5
421
330
20C
100
AcDbEntity
  8
7_ALL_FEATURES
  6
Continuous
 62
     7
100
AcDbLine
 10
505.668831
 20
123.067152
 30
0.0
 11
500.101985
 21
123.067152
 31
0.0
  0
LINE
  5
422
330
20C
100
AcDbEntity
  8
7_ALL_FEATURES
  6
Continuous
 62
     7
100
AcDbLine
 10
500.101985
 20
123.067152
 30
0.0
 11
499.871087
 21
123.067152
 31
0.0
  0
LINE
  5
423
330
20C
100
AcDbEntity
  8
7_ALL_FEATURES
  6
Continuous
 62
     7
100
AcDbLine
 10
499.871087
 20
123.067152
 30
0.0
 11
499.030924
 21
123.067152
 31
0.0
  0
LINE
  5
424
330
20C
100
AcDbEntity
  8
7_ALL_FEATURES
  6
Continuous
 62
     7
100
AcDbLine
 10
499.030924
 20
123.067152
 30
0.0
 11
498.875141
 21
123.067152
 31
0.0
  0
LINE
  5
425
330
20C
100
AcDbEntity
  8
7_ALL_FEATURES
  6
Continuous
 62
     7
100
AcDbLine
 10
498.875141
 20
123.067152
 30
0.0
 11
477.869955
 21
123.067152
 31
0.0
  0
LINE
  5
426
330
20C
100
AcDbEntity
  8
7_ALL_FEATURES
  6
Continuous
 62
     7
100
AcDbLine
 10
477.869955
 20
123.067152
 30
0.0
 11
471.754986
 21
123.067152
 31
0.0
  0
LINE
  5
427
330
20C
100
AcDbEntity
  8
7_ALL_FEATURES
  6
Continuous
 62
     7
100
AcDbLine
 10
471.754986
 20
123.067152
 30
0.0
 11
469.536872
 21
123.067152
 31
0.0
  0
LINE
  5
428
330
20C
100
AcDbEntity
  8
7_ALL_FEATURES
  6
Continuous
 62
     7
100
AcDbLine
 10
469.536872
 20
123.067152
 30
0.0
 11
469.039113
 21
123.067152
 31
0.0
  0
LINE
  5
429
330
20C
100
AcDbEntity
  8
6_ALL_SURFS
  6
Continuous
 62
     7
100
AcDbLine
 10
508.370321
 20
123.067152
 30
0.0
 11
508.525734
 21
123.067152
 31
0.0
  0
LINE
  5
42A
330
20C
100
AcDbEntity
  8
6_ALL_SURFS
  6
Continuous
 62
     7
100
AcDbLine
 10
469.039113
 20
123.067152
 30
0.0
 11
469.536872
 21
123.067152
 31
0.0
  0
LINE
  5
42B
330
20C
100
AcDbEntity
  8
6_ALL_SURFS
  6
Continuous
 62
     7
100
AcDbLine
 10
469.536872
 20
123.067152
 30
0.0
 11
471.754986
 21
123.067152
 31
0.0
  0
LINE
  5
42C
330
20C
100
AcDbEntity
  8
6_ALL_SURFS
  6
Continuous
 62
     7
100
AcDbLine
 10
471.754986
 20
123.067152
 30
0.0
 11
477.869955
 21
123.067152
 31
0.0
  0
LINE
  5
42D
330
20C
100
AcDbEntity
  8
6_ALL_SURFS
  6
Continuous
 62
     7
100
AcDbLine
 10
477.869955
 20
123.067152
 30
0.0
 11
505.668831
 21
123.067152
 31
0.0
  0
LINE
  5
42E
330
20C
100
AcDbEntity
  8
6_ALL_SURFS
  6
Continuous
 62
     7
100
AcDbLine
 10
505.668831
 20
123.067152
 30
0.0
 11
507.447542
 21
123.067152
 31
0.0
  0
LINE
  5
42F
330
20C
100
AcDbEntity
  8
6_ALL_SURFS
  6
Continuous
 62
     7
100
AcDbLine
 10
507.447542
 20
123.067152
 30
0.0
 11
507.732956
 21
123.067152
 31
0.0
  0
LINE
  5
430
330
20C
100
AcDbEntity
  8
6_ALL_SURFS
  6
Continuous
 62
     7
100
AcDbLine
 10
507.732956
 20
123.067152
 30
0.0
 11
508.370321
 21
123.067152
 31
0.0
  0
LINE
  5
431
330
20C
100
AcDbEntity
  8
7_ALL_FEATURES
  6
Continuous
 62
     7
100
AcDbLine
 10
324.905873
 20
113.497519
 30
0.0
 11
324.79145
 21
117.867152
 31
0.0
  0
LINE
  5
432
330
20C
100
AcDbEntity
  8
7_ALL_FEATURES
  6
Continuous
 62
     7
100
AcDbLine
 10
360.609616
 20
123.067152
 30
0.0
 11
360.772325
 21
129.280741
 31
0.0
  0
LINE
  5
433
330
20C
100
AcDbEntity
  8
7_ALL_FEATURES
  6
Continuous
 62
     7
100
AcDbLine
 10
524.677027
 20
113.497519
 30
0.0
 11
524.79145
 21
117.867152
 31
0.0
  0
LINE
  5
434
330
20C
100
AcDbEntity
  8
7_ALL_FEATURES
  6
Continuous
 62
     7
100
AcDbLine
 10
488.973284
 20
123.067152
 30
0.0
 11
488.810576
 21
129.280741
 31
0.0
  0
LINE
  5
435
330
20C
100
AcDbEntity
  8
7_ALL_FEATURES
  6
Continuous
 62
     9
100
AcDbLine
 10
339.940576
 20
122.584602
 30
0.0
 11
339.774599
 21
122.584602
 31
0.0
  0
ARC
  5
436
330
20C
100
AcDbEntity
  8
7_ALL_FEATURES
  6
Continuous
 62
     9
100
AcDbCircle
 10
349.803187
 20
121.76198
 30
0.0
 40
9.8968581083
100
AcDbArc
 50
175.232104
 51
178.03084
  0
LINE
  5
437
330
20C
100
AcDbEntity
  8
7_ALL_FEATURES
  6
Continuous
 62
     9
100
AcDbLine
 10
339.766373
 20
117.867152
 30
0.0
 11
339.912173
 21
122.102051
 31
0.0
  0
SPLINE
  5
438
330
20C
100
AcDbEntity
  8
7_ALL_FEATURES
  6
Continuous
 62
     9
100
AcDbSpline
 70
     0
 71
     3
 72
     9
 73
     5
 74
     0
 42
0.000000001
 43
0.0000001
 40
0.0
 40
0.0
 40
0.0
 40
0.0
 40
0.4587208933
 40
1.0
 40
1.0
 40
1.0
 40
1.0
 10
339.9405760291
 20
122.5846017002
 30
0.0
 10
340.0103910522
 20
122.7083932291
 30
0.0
 10
340.2364023758
 20
122.9438704069
 30
0.0
 10
340.5477353291
 20
123.0267472172
 30
0.0
 10
340.7140699472
 20
123.0481004029
 30
0.0
  0
SPLINE
  5
439
330
20C
100
AcDbEntity
  8
7_ALL_FEATURES
  6
Continuous
 62
     9
100
AcDbSpline
 70
     0
 71
     3
 72
     8
 73
     4
 74
     0
 42
0.000000001
 43
0.0000001
 40
0.0
 40
0.0
 40
0.0
 40
0.0
 40
1.0
 40
1.0
 40
1.0
 40
1.0
 10
340.7140699472
 20
123.0481004029
 30
0.0
 10
340.8276793438
 20
123.0626849949
 30
0.0
 10
340.9426248667
 20
123.0670770362
 30
0.0
 10
341.0571665608
 20
123.0671519518
 30
0.0
  0
LINE
  5
43A
330
20C
100
AcDbEntity
  8
7_ALL_FEATURES
  6
Continuous
 62
     9
100
AcDbLine
 10
381.207148
 20
122.102051
 30
0.0
 11
381.111682
 21
117.867152
 31
0.0
  0
SPLINE
  5
43B
330
20C
100
AcDbEntity
  8
7_ALL_FEATURES
  6
Continuous
 62
     9
100
AcDbSpline
 70
     0
 71
     3
 72
     8
 73
     4
 74
     0
 42
0.000000001
 43
0.0000001
 40
0.0
 40
0.0
 40
0.0
 40
0.0
 40
1.0
 40
1.0
 40
1.0
 40
1.0
 10
381.1816843245
 20
122.5846017002
 30
0.0
 10
381.2016917846
 20
122.4247752417
 30
0.0
 10
381.2107878996
 20
122.2630842041
 30
0.0
 10
381.2071482668
 20
122.1020514485
 30
0.0
  0
LINE
  5
43C
330
20C
100
AcDbEntity
  8
7_ALL_FEATURES
  6
Continuous
 62
     9
100
AcDbLine
 10
383.550342
 20
122.584602
 30
0.0
 11
381.181684
 21
122.584602
 31
0.0
  0
SPLINE
  5
43D
330
20C
100
AcDbEntity
  8
7_ALL_FEATURES
  6
Continuous
 62
     9
100
AcDbSpline
 70
     0
 71
     3
 72
     8
 73
     4
 74
     0
 42
0.000000001
 43
0.0000001
 40
0.0
 40
0.0
 40
0.0
 40
0.0
 40
1.0
 40
1.0
 40
1.0
 40
1.0
 10
383.496475341
 20
122.1020514485
 30
0.0
 10
383.4983874066
 20
122.2638893184
 30
0.0
 10
383.5172881463
 20
122.4261637291
 30
0.0
 10
383.5503420636
 20
122.5846017002
 30
0.0
  0
LINE
  5
43E
330
20C
100
AcDbEntity
  8
7_ALL_FEATURES
  6
Continuous
 62
     9
100
AcDbLine
 10
383.446142
 20
117.867152
 30
0.0
 11
383.496475
 21
122.102051
 31
0.0
  0
SPLINE
  5
43F
330
20C
100
AcDbEntity
  8
7_ALL_FEATURES
  6
Continuous
 62
     9
100
AcDbSpline
 70
     0
 71
     3
 72
     9
 73
     5
 74
     0
 42
0.000000001
 43
0.0000001
 40
0.0
 40
0.0
 40
0.0
 40
0.0
 40
0.3973715052
 40
1.0
 40
1.0
 40
1.0
 40
1.0
 10
380.5437875269
 20
123.0671519518
 30
0.0
 10
380.5955536085
 20
123.0671231968
 30
0.0
 10
380.7309512983
 20
123.0389436044
 30
0.0
 10
380.8148728639
 20
122.9295218504
 30
0.0
 10
380.8661435111
 20
122.8700711677
 30
0.0
  0
SPLINE
  5
440
330
20C
100
AcDbEntity
  8
7_ALL_FEATURES
  6
Continuous
 62
     9
100
AcDbSpline
 70
     0
 71
     3
 72
     9
 73
     5
 74
     0
 42
0.000000001
 43
0.0000001
 40
0.0
 40
0.0
 40
0.0
 40
0.0
 40
0.2119981558
 40
1.0
 40
1.0
 40
1.0
 40
1.0
 10
380.8661435111
 20
122.8700711677
 30
0.0
 10
380.8858158811
 20
122.8472601465
 30
0.0
 10
380.9784617007
 20
122.7397511771
 30
0.0
 10
381.0864952374
 20
122.6435520532
 30
0.0
 10
381.1816843245
 20
122.5846017002
 30
0.0
  0
SPLINE
  5
441
330
20C
100
AcDbEntity
  8
7_ALL_FEATURES
  6
Continuous
 62
     9
100
AcDbSpline
 70
     0
 71
     3
 72
    10
 73
     6
 74
     0
 42
0.000000001
 43
0.0000001
 40
0.0
 40
0.0
 40
0.0
 40
0.0
 40
0.2543616489
 40
0.5071169281
 40
1.0
 40
1.0
 40
1.0
 40
1.0
 10
383.5503420636
 20
122.5846017002
 30
0.0
 10
383.6919873225
 20
122.6506391234
 30
0.0
 10
383.9632644093
 20
122.8037703954
 30
0.0
 10
384.5338666494
 20
123.0434058506
 30
0.0
 10
385.0019962064
 20
123.0670055896
 30
0.0
 10
385.304829393
 20
123.0671519518
 30
0.0
  0
LINE
  5
442
330
20C
100
AcDbEntity
  8
7_ALL_FEATURES
  6
Continuous
 62
     9
100
AcDbLine
 10
466.086425
 20
122.102051
 30
0.0
 11
466.13676
 21
117.867152
 31
0.0
  0
SPLINE
  5
443
330
20C
100
AcDbEntity
  8
7_ALL_FEATURES
  6
Continuous
 62
     9
100
AcDbSpline
 70
     0
 71
     3
 72
     8
 73
     4
 74
     0
 42
0.000000001
 43
0.0000001
 40
0.0
 40
0.0
 40
0.0
 40
0.0
 40
1.0
 40
1.0
 40
1.0
 40
1.0
 10
466.0325586544
 20
122.5846017002
 30
0.0
 10
466.0656152219
 20
122.426164282
 30
0.0
 10
466.0845139546
 20
122.263889326
 30
0.0
 10
466.086425377
 20
122.1020514485
 30
0.0
  0
LINE
  5
444
330
20C
100
AcDbEntity
  8
7_ALL_FEATURES
  6
Continuous
 62
     9
100
AcDbLine
 10
468.401216
 20
122.584602
 30
0.0
 11
466.032559
 21
122.584602
 31
0.0
  0
SPLINE
  5
445
330
20C
100
AcDbEntity
  8
7_ALL_FEATURES
  6
Continuous
 62
     9
100
AcDbSpline
 70
     0
 71
     3
 72
     8
 73
     4
 74
     0
 42
0.000000001
 43
0.0000001
 40
0.0
 40
0.0
 40
0.0
 40
0.0
 40
1.0
 40
1.0
 40
1.0
 40
1.0
 10
468.3757524512
 20
122.1020514485
 30
0.0
 10
468.3721131145
 20
122.2630842108
 30
0.0
 10
468.3812103068
 20
122.4247750698
 30
0.0
 10
468.4012163935
 20
122.5846017002
 30
0.0
  0
LINE
  5
446
330
20C
100
AcDbEntity
  8
7_ALL_FEATURES
  6
Continuous
 62
     9
100
AcDbLine
 10
468.471219
 20
117.867152
 30
0.0
 11
468.375752
 21
122.102051
 31
0.0
  0
LINE
  5
447
330
20C
100
AcDbEntity
  8
7_ALL_FEATURES
  6
Continuous
 62
     9
100
AcDbLine
 10
509.808301
 20
122.584602
 30
0.0
 11
509.642325
 21
122.584602
 31
0.0
  0
SPLINE
  5
448
330
20C
100
AcDbEntity
  8
7_ALL_FEATURES
  6
Continuous
 62
     9
100
AcDbSpline
 70
     0
 71
     3
 72
    10
 73
     6
 74
     0
 42
0.000000001
 43
0.0000001
 40
0.0
 40
0.0
 40
0.0
 40
0.0
 40
0.4929004306
 40
0.7456638555
 40
1.0
 40
1.0
 40
1.0
 40
1.0
 10
464.278071325
 20
123.0671519518
 30
0.0
 10
464.5809151219
 20
123.0671096677
 30
0.0
 10
465.048913886
 20
123.0430546662
 30
0.0
 10
465.6199114866
 20
122.8043084767
 30
0.0
 10
465.8903844714
 20
122.6494546916
 30
0.0
 10
466.0325586544
 20
122.5846017002
 30
0.0
  0
SPLINE
  5
449
330
20C
100
AcDbEntity
  8
7_ALL_FEATURES
  6
Continuous
 62
     9
100
AcDbSpline
 70
     0
 71
     3
 72
    11
 73
     7
 74
     0
 42
0.000000001
 43
0.0000001
 40
0.0
 40
0.0
 40
0.0
 40
0.0
 40
0.4007677824
 40
0.6823239466
 40
0.8579656912
 40
1.0
 40
1.0
 40
1.0
 40
1.0
 10
468.4012163935
 20
122.5846017002
 30
0.0
 10
468.4935780514
 20
122.6430907571
 30
0.0
 10
468.6379959315
 20
122.765957464
 30
0.0
 10
468.7776107484
 20
122.952815475
 30
0.0
 10
468.9113187273
 20
123.0562289037
 30
0.0
 10
469.0003683806
 20
123.0670788386
 30
0.0
 10
469.0391131911
 20
123.0671519518
 30
0.0
  0
LINE
  5
44A
330
20C
100
AcDbEntity
  8
7_ALL_FEATURES
  6
Continuous
 62
     9
100
AcDbLine
 10
509.670727
 20
122.102051
 30
0.0
 11
509.816528
 21
117.867152
 31
0.0
  0
ARC
  5
44B
330
20C
100
AcDbEntity
  8
7_ALL_FEATURES
  6
Continuous
 62
     9
100
AcDbCircle
 10
499.780723
 20
121.762039
 30
0.0
 40
9.8958473865
100
AcDbArc
 50
1.969017
 51
4.768039
  0
LINE
  5
44C
330
20C
100
AcDbEntity
  8
7_ALL_FEATURES
  6
Continuous
 62
     9
100
AcDbLine
 10
424.79145
 20
129.280741
 30
0.0
 11
426.147243
 21
129.280741
 31
0.0
  0
LINE
  5
44D
330
20C
100
AcDbEntity
  8
7_ALL_FEATURES
  6
Continuous
 62
     9
100
AcDbLine
 10
426.147243
 20
129.280741
 30
0.0
 11
488.810576
 21
129.280741
 31
0.0
  0
SPLINE
  5
44E
330
20C
100
AcDbEntity
  8
7_ALL_FEATURES
  6
Continuous
 62
     9
100
AcDbSpline
 70
     0
 71
     3
 72
     8
 73
     4
 74
     0
 42
0.000000001
 43
0.0000001
 40
0.0
 40
0.0
 40
0.0
 40
0.0
 40
1.0
 40
1.0
 40
1.0
 40
1.0
 10
508.5257341571
 20
123.0671519518
 30
0.0
 10
508.6254139229
 20
123.0671333614
 30
0.0
 10
508.7253249047
 20
123.063778383
 30
0.0
 10
508.8244525201
 20
123.0533011739
 30
0.0
  0
SPLINE
  5
44F
330
20C
100
AcDbEntity
  8
7_ALL_FEATURES
  6
Continuous
 62
     9
100
AcDbSpline
 70
     0
 71
     3
 72
     9
 73
     5
 74
     0
 42
0.000000001
 43
0.0000001
 40
0.0
 40
0.0
 40
0.0
 40
0.0
 40
0.5402969306
 40
1.0
 40
1.0
 40
1.0
 40
1.0
 10
508.8244525201
 20
123.0533011739
 30
0.0
 10
508.998764043
 20
123.0348774655
 30
0.0
 10
509.3282057024
 20
122.9591175361
 30
0.0
 10
509.5677400846
 20
122.7137480208
 30
0.0
 10
509.6423246889
 20
122.5846017002
 30
0.0
  0
LINE
  5
450
330
20C
100
AcDbEntity
  8
7_ALL_FEATURES
  6
Continuous
 62
     9
100
AcDbLine
 10
424.79145
 20
113.497519
 30
0.0
 11
524.677027
 21
113.497519
 31
0.0
  0
LINE
  5
451
330
20C
100
AcDbEntity
  8
7_ALL_FEATURES
  6
Continuous
 62
     9
100
AcDbLine
 10
324.905873
 20
113.497519
 30
0.0
 11
424.79145
 21
113.497519
 31
0.0
  0
LINE
  5
452
330
20C
100
AcDbEntity
  8
7_ALL_FEATURES
  6
Continuous
 62
     9
100
AcDbLine
 10
360.772325
 20
129.280741
 30
0.0
 11
423.435657
 21
129.280741
 31
0.0
  0
LINE
  5
453
330
20C
100
AcDbEntity
  8
7_ALL_FEATURES
  6
Continuous
 62
     9
100
AcDbLine
 10
423.435657
 20
129.280741
 30
0.0
 11
424.79145
 21
129.280741
 31
0.0
  0
LINE
  5
454
330
20C
100
AcDbEntity
  8
7_ALL_FEATURES
  6
Continuous
 62
     9
100
AcDbLine
 10
469.2774
 20
117.867152
 30
0.0
 11
469.187753
 21
122.102051
 31
0.0
  0
LINE
  5
455
330
20C
100
AcDbEntity
  8
7_ALL_FEATURES
  6
Continuous
 62
     9
100
AcDbLine
 10
509.538042
 20
122.102051
 30
0.0
 11
509.685476
 21
117.867152
 31
0.0
  0
LINE
  5
456
330
20C
100
AcDbEntity
  8
7_ALL_FEATURES
  6
Continuous
 62
     9
100
AcDbLine
 10
384.383374
 20
117.867152
 30
0.0
 11
384.44116
 21
122.102051
 31
0.0
  0
LINE
  5
457
330
20C
100
AcDbEntity
  8
7_ALL_FEATURES
  6
Continuous
 62
     9
100
AcDbLine
 10
465.14174
 20
122.102051
 30
0.0
 11
465.199527
 21
117.867152
 31
0.0
  0
LINE
  5
458
330
20C
100
AcDbEntity
  8
7_ALL_FEATURES
  6
Continuous
 62
     9
100
AcDbLine
 10
339.897424
 20
117.867152
 30
0.0
 11
340.044858
 21
122.102051
 31
0.0
  0
LINE
  5
459
330
20C
100
AcDbEntity
  8
7_ALL_FEATURES
  6
Continuous
 62
     9
100
AcDbLine
 10
380.395148
 20
122.102051
 30
0.0
 11
380.305501
 21
117.867152
 31
0.0
  0
ARC
  5
45A
330
20C
100
AcDbEntity
  8
7_ALL_FEATURES
  6
Continuous
 62
     9
100
AcDbCircle
 10
340.61928
 20
122.082333
 30
0.0
 40
0.5747602841
100
AcDbArc
 50
169.965877
 51
178.033986
  0
SPLINE
  5
45B
330
20C
100
AcDbEntity
  8
7_ALL_FEATURES
  6
Continuous
 62
     9
100
AcDbSpline
 70
     0
 71
     3
 72
     9
 73
     5
 74
     0
 42
0.000000001
 43
0.0000001
 40
0.0
 40
0.0
 40
0.0
 40
0.0
 40
0.3982316251
 40
1.0
 40
1.0
 40
1.0
 40
1.0
 10
340.053311364
 20
122.1824764905
 30
0.0
 10
340.0802406632
 20
122.3363252217
 30
0.0
 10
340.2290942764
 20
122.7112338847
 30
0.0
 10
340.5757862016
 20
122.9691945338
 30
0.0
 10
340.8032254988
 20
123.0322398404
 30
0.0
  0
SPLINE
  5
45C
330
20C
100
AcDbEntity
  8
7_ALL_FEATURES
  6
Continuous
 62
     9
100
AcDbSpline
 70
     0
 71
     3
 72
     9
 73
     5
 74
     0
 42
0.000000001
 43
0.0000001
 40
0.0
 40
0.0
 40
0.0
 40
0.0
 40
0.2758204479
 40
1.0
 40
1.0
 40
1.0
 40
1.0
 10
340.8032254988
 20
123.0322398404
 30
0.0
 10
340.8259769803
 20
123.0385464644
 30
0.0
 10
340.909277007
 20
123.0584003713
 30
0.0
 10
340.9951790248
 20
123.0670870073
 30
0.0
 10
341.0571665608
 20
123.0671519518
 30
0.0
  0
SPLINE
  5
45D
330
20C
100
AcDbEntity
  8
7_ALL_FEATURES
  6
Continuous
 62
     9
100
AcDbSpline
 70
     0
 71
     3
 72
    13
 73
     9
 74
     0
 42
0.000000001
 43
0.0000001
 40
0.0
 40
0.0
 40
0.0
 40
0.0
 40
0.148479822
 40
0.2886728086
 40
0.4129657658
 40
0.5213773817
 40
0.7451615582
 40
1.0
 40
1.0
 40
1.0
 40
1.0
 10
380.5437875269
 20
123.0671519518
 30
0.0
 10
380.4676725576
 20
123.0671371754
 30
0.0
 10
380.3191883669
 20
123.05941746
 30
0.0
 10
380.112120743
 20
123.0120073524
 30
0.0
 10
379.9396808252
 20
122.9131831744
 30
0.0
 10
379.8370023211
 20
122.6812229883
 30
0.0
 10
380.0140573522
 20
122.3846975171
 30
0.0
 10
380.2127532327
 20
122.2481207576
 30
0.0
 10
380.3256999686
 20
122.1824764905
 30
0.0
  0
SPLINE
  5
45E
330
20C
100
AcDbEntity
  8
7_ALL_FEATURES
  6
Continuous
 62
     9
100
AcDbSpline
 70
     0
 71
     3
 72
     9
 73
     5
 74
     0
 42
0.000000001
 43
0.0000001
 40
0.0
 40
0.0
 40
0.0
 40
0.0
 40
0.2442932225
 40
1.0
 40
1.0
 40
1.0
 40
1.0
 10
380.3256999686
 20
122.1824764905
 30
0.0
 10
380.3332964949
 20
122.1780844009
 30
0.0
 10
380.3628430264
 20
122.1598007528
 30
0.0
 10
380.3961042007
 20
122.1291790333
 30
0.0
 10
380.395148147
 20
122.1020514485
 30
0.0
  0
LINE
  5
45F
330
20C
100
AcDbEntity
  8
7_ALL_FEATURES
  6
Continuous
 62
     9
100
AcDbLine
 10
340.044858
 20
122.102051
 30
0.0
 11
380.395148
 21
122.102051
 31
0.0
  0
SPLINE
  5
460
330
20C
100
AcDbEntity
  8
7_ALL_FEATURES
  6
Continuous
 62
     9
100
AcDbSpline
 70
     0
 71
     3
 72
     9
 73
     5
 74
     0
 42
0.000000001
 43
0.0000001
 40
0.0
 40
0.0
 40
0.0
 40
0.0
 40
0.2614039446
 40
1.0
 40
1.0
 40
1.0
 40
1.0
 10
384.4411604656
 20
122.1020514485
 30
0.0
 10
384.4411515136
 20
122.1121378269
 30
0.0
 10
384.4575145776
 20
122.1499549729
 30
0.0
 10
384.4938263307
 20
122.1692338007
 30
0.0
 10
384.5190617544
 20
122.1824764905
 30
0.0
  0
SPLINE
  5
461
330
20C
100
AcDbEntity
  8
7_ALL_FEATURES
  6
Continuous
 62
     9
100
AcDbSpline
 70
     0
 71
     3
 72
    16
 73
    12
 74
     0
 42
0.000000001
 43
0.0000001
 40
0.0
 40
0.0
 40
0.0
 40
0.0
 40
0.3352506923
 40
0.510700211
 40
0.6820471705
 40
0.8223914346
 40
0.8721767989
 40
0.9072450716
 40
0.9317754263
 40
0.9514126419
 40
1.0
 40
1.0
 40
1.0
 40
1.0
 10
384.5190617544
 20
122.1824764905
 30
0.0
 10
384.6513975278
 20
122.2529859146
 30
0.0
 10
384.8468215295
 20
122.3737662729
 30
0.0
 10
385.0807282979
 20
122.5703880363
 30
0.0
 10
385.232908944
 20
122.7266761618
 30
0.0
 10
385.3316687322
 20
122.8558822386
 30
0.0
 10
385.377422751
 20
122.9461313463
 30
0.0
 10
385.3903104521
 20
122.993719048
 30
0.0
 10
385.3878921314
 20
123.0304167414
 30
0.0
 10
385.361344497
 20
123.0654935048
 30
0.0
 10
385.3265610528
 20
123.0671119791
 30
0.0
 10
385.304829393
 20
123.0671519518
 30
0.0
  0
SPLINE
  5
462
330
20C
100
AcDbEntity
  8
7_ALL_FEATURES
  6
Continuous
 62
     9
100
AcDbSpline
 70
     0
 71
     3
 72
    15
 73
    11
 74
     0
 42
0.000000001
 43
0.0000001
 40
0.0
 40
0.0
 40
0.0
 40
0.0
 40
0.0480297029
 40
0.0680402258
 40
0.0924969081
 40
0.1506300692
 40
0.2414888507
 40
0.488669216
 40
0.7503242603
 40
1.0
 40
1.0
 40
1.0
 40
1.0
 10
464.278071325
 20
123.0671519518
 30
0.0
 10
464.2565997613
 20
123.067139796
 30
0.0
 10
464.2225845486
 20
123.064690832
 30
0.0
 10
464.1948263727
 20
123.0307735935
 30
0.0
 10
464.1916357086
 20
122.9830532195
 30
0.0
 10
464.2212194835
 20
122.9096400742
 30
0.0
 10
464.3167411146
 20
122.7605122999
 30
0.0
 10
464.5028975157
 20
122.5642446778
 30
0.0
 10
464.7682555603
 20
122.35224
 30
0.0
 10
464.9651078052
 20
122.2345389916
 30
0.0
 10
465.0638389636
 20
122.1824764905
 30
0.0
  0
SPLINE
  5
463
330
20C
100
AcDbEntity
  8
7_ALL_FEATURES
  6
Continuous
 62
     9
100
AcDbSpline
 70
     0
 71
     3
 72
     9
 73
     5
 74
     0
 42
0.000000001
 43
0.0000001
 40
0.0
 40
0.0
 40
0.0
 40
0.0
 40
0.7385381137
 40
1.0
 40
1.0
 40
1.0
 40
1.0
 10
465.0638389636
 20
122.1824764905
 30
0.0
 10
465.0890720809
 20
122.1692360477
 30
0.0
 10
465.1253686687
 20
122.1499493608
 30
0.0
 10
465.1417491032
 20
122.1121397616
 30
0.0
 10
465.1417402524
 20
122.1020514485
 30
0.0
  0
LINE
  5
464
330
20C
100
AcDbEntity
  8
7_ALL_FEATURES
  6
Continuous
 62
     9
100
AcDbLine
 10
384.44116
 20
122.102051
 30
0.0
 11
405.650222
 21
122.102051
 31
0.0
  0
LINE
  5
465
330
20C
100
AcDbEntity
  8
7_ALL_FEATURES
  6
Continuous
 62
     9
100
AcDbLine
 10
405.650222
 20
122.102051
 30
0.0
 11
405.784403
 21
122.102051
 31
0.0
  0
LINE
  5
466
330
20C
100
AcDbEntity
  8
7_ALL_FEATURES
  6
Continuous
 62
     9
100
AcDbLine
 10
405.784403
 20
122.102051
 30
0.0
 11
443.798498
 21
122.102051
 31
0.0
  0
LINE
  5
467
330
20C
100
AcDbEntity
  8
7_ALL_FEATURES
  6
Continuous
 62
     9
100
AcDbLine
 10
443.798498
 20
122.102051
 30
0.0
 11
443.932679
 21
122.102051
 31
0.0
  0
LINE
  5
468
330
20C
100
AcDbEntity
  8
7_ALL_FEATURES
  6
Continuous
 62
     9
100
AcDbLine
 10
443.932679
 20
122.102051
 30
0.0
 11
465.14174
 21
122.102051
 31
0.0
  0
SPLINE
  5
469
330
20C
100
AcDbEntity
  8
7_ALL_FEATURES
  6
Continuous
 62
     9
100
AcDbSpline
 70
     0
 71
     3
 72
     9
 73
     5
 74
     0
 42
0.000000001
 43
0.0000001
 40
0.0
 40
0.0
 40
0.0
 40
0.0
 40
0.2704895119
 40
1.0
 40
1.0
 40
1.0
 40
1.0
 10
469.187752571
 20
122.1020514485
 30
0.0
 10
469.1874032889
 20
122.1119609812
 30
0.0
 10
469.2004521454
 20
122.148705795
 30
0.0
 10
469.234049494
 20
122.16909042
 30
0.0
 10
469.2572007494
 20
122.1824764905
 30
0.0
  0
SPLINE
  5
46A
330
20C
100
AcDbEntity
  8
7_ALL_FEATURES
  6
Continuous
 62
     9
100
AcDbSpline
 70
     0
 71
     3
 72
    13
 73
     9
 74
     0
 42
0.000000001
 43
0.0000001
 40
0.0
 40
0.0
 40
0.0
 40
0.0
 40
0.2546238786
 40
0.4787554378
 40
0.5870881295
 40
0.7112180059
 40
0.8515083137
 40
1.0
 40
1.0
 40
1.0
 40
1.0
 10
469.2572007494
 20
122.1824764905
 30
0.0
 10
469.3697443863
 20
122.248614656
 30
0.0
 10
469.5691296425
 20
122.3841115635
 30
0.0
 10
469.7462443867
 20
122.6812542346
 30
0.0
 10
469.6430450467
 20
122.9129782741
 30
0.0
 10
469.470855622
 20
123.0119105078
 30
0.0
 10
469.2638004495
 20
123.0595834506
 30
0.0
 10
469.1152407454
 20
123.06710136
 30
0.0
 10
469.0391131911
 20
123.0671519518
 30
0.0
  0
ARC
  5
46B
330
20C
100
AcDbEntity
  8
7_ALL_FEATURES
  6
Continuous
 62
     9
100
AcDbCircle
 10
508.525432
 20
122.125573
 30
0.0
 40
0.9415788651
100
AcDbArc
 50
76.664703
 51
89.981592
  0
SPLINE
  5
46C
330
20C
100
AcDbEntity
  8
7_ALL_FEATURES
  6
Continuous
 62
     9
100
AcDbSpline
 70
     0
 71
     3
 72
    10
 73
     6
 74
     0
 42
0.000000001
 43
0.0000001
 40
0.0
 40
0.0
 40
0.0
 40
0.0
 40
0.2923001512
 40
0.6013806603
 40
1.0
 40
1.0
 40
1.0
 40
1.0
 10
508.7426060702
 20
123.0417641783
 30
0.0
 10
508.8587782019
 20
123.0143946554
 30
0.0
 10
509.0889298563
 20
122.9117401781
 30
0.0
 10
509.3857813421
 20
122.6205714595
 30
0.0
 10
509.5014060514
 20
122.3427830453
 30
0.0
 10
509.529589354
 20
122.1824764905
 30
0.0
  0
ARC
  5
46D
330
20C
100
AcDbEntity
  8
7_ALL_FEATURES
  6
Continuous
 62
     9
100
AcDbCircle
 10
508.956302
 20
122.081564
 30
0.0
 40
0.5821015924
100
AcDbArc
 50
2.016973
 51
9.983164
  0
LINE
  5
46E
330
20C
100
AcDbEntity
  8
7_ALL_FEATURES
  6
Continuous
 62
     9
100
AcDbLine
 10
469.187753
 20
122.102051
 30
0.0
 11
509.538042
 21
122.102051
 31
0.0
  0
SPLINE
  5
46F
330
20C
100
AcDbEntity
  8
7_ALL_FEATURES
  6
Continuous
 62
     9
100
AcDbSpline
 70
     0
 71
     3
 72
     9
 73
     5
 74
     0
 42
0.000000001
 43
0.0000001
 40
0.0
 40
0.0
 40
0.0
 40
0.0
 40
0.3041823117
 40
1.0
 40
1.0
 40
1.0
 40
1.0
 10
340.0448582536
 20
122.1020514486
 30
0.0
 10
340.0315145585
 20
122.1003244205
 30
0.0
 10
339.9870647572
 20
122.101966614
 30
0.0
 10
339.9429478738
 20
122.1015742675
 30
0.0
 10
339.9121732488
 20
122.1020514501
 30
0.0
  0
SPLINE
  5
470
330
20C
100
AcDbEntity
  8
7_ALL_FEATURES
  6
Continuous
 62
     9
100
AcDbSpline
 70
     0
 71
     3
 72
     9
 73
     5
 74
     0
 42
0.000000001
 43
0.0000001
 40
0.0
 40
0.0
 40
0.0
 40
0.0
 40
0.2344829596
 40
1.0
 40
1.0
 40
1.0
 40
1.0
 10
340.0533113634
 20
122.1824764873
 30
0.0
 10
340.0545702051
 20
122.2153596297
 30
0.0
 10
340.0483373626
 20
122.3561510579
 30
0.0
 10
339.9947853836
 20
122.4918491111
 30
0.0
 10
339.9405760527
 20
122.5846017312
 30
0.0
  0
ARC
  5
471
330
20C
100
AcDbEntity
  8
7_ALL_FEATURES
  6
Continuous
 62
     9
100
AcDbCircle
 10
380.801148
 20
215.041043
 30
0.0
 40
92.9398784985
100
AcDbArc
 50
269.749707
 51
270.250293
  0
SPLINE
  5
472
330
20C
100
AcDbEntity
  8
7_ALL_FEATURES
  6
Continuous
 62
     9
100
AcDbSpline
 70
     0
 71
     3
 72
     9
 73
     5
 74
     0
 42
0.000000001
 43
0.0000001
 40
0.0
 40
0.0
 40
0.0
 40
0.0
 40
0.2629668372
 40
1.0
 40
1.0
 40
1.0
 40
1.0
 10
380.3256999686
 20
122.1824764905
 30
0.0
 10
380.4021541931
 20
122.2145619272
 30
0.0
 10
380.6916810104
 20
122.3394027358
 30
0.0
 10
380.9763590824
 20
122.4757636526
 30
0.0
 10
381.1816843245
 20
122.5846017002
 30
0.0
  0
ARC
  5
473
330
20C
100
AcDbEntity
  8
7_ALL_FEATURES
  6
Continuous
 62
     9
100
AcDbCircle
 10
383.968818
 20
240.207282
 30
0.0
 40
118.1061746712
100
AcDbArc
 50
269.770856
 51
270.229144
  0
ARC
  5
474
330
20C
100
AcDbEntity
  8
7_ALL_FEATURES
  6
Continuous
 62
     9
100
AcDbCircle
 10
362.756806
 20
71.125085
 30
0.0
 40
55.5018289022
100
AcDbArc
 50
66.914782
 51
67.997567
  0
ARC
  5
475
330
20C
100
AcDbEntity
  8
7_ALL_FEATURES
  6
Continuous
 62
     9
100
AcDbCircle
 10
465.614083
 20
240.646269
 30
0.0
 40
118.545158806
100
AcDbArc
 50
269.771704
 51
270.228295
  0
ARC
  5
476
330
20C
100
AcDbEntity
  8
7_ALL_FEATURES
  6
Continuous
 62
     9
100
AcDbCircle
 10
486.898938
 20
70.949605
 30
0.0
 40
55.6918191844
100
AcDbArc
 50
112.00428
 51
113.083371
  0
ARC
  5
477
330
20C
100
AcDbEntity
  8
7_ALL_FEATURES
  6
Continuous
 62
     9
100
AcDbCircle
 10
468.781752
 20
214.696965
 30
0.0
 40
92.5958031924
100
AcDbArc
 50
269.748777
 51
270.251223
  0
SPLINE
  5
478
330
20C
100
AcDbEntity
  8
7_ALL_FEATURES
  6
Continuous
 62
     9
100
AcDbSpline
 70
     0
 71
     3
 72
     9
 73
     5
 74
     0
 42
0.000000001
 43
0.0000001
 40
0.0
 40
0.0
 40
0.0
 40
0.0
 40
0.2629676406
 40
1.0
 40
1.0
 40
1.0
 40
1.0
 10
469.2572007487
 20
122.1824764901
 30
0.0
 10
469.1807470693
 20
122.2145638367
 30
0.0
 10
468.8912226001
 20
122.3394099254
 30
0.0
 10
468.606544052
 20
122.4757688538
 30
0.0
 10
468.4012163932
 20
122.5846017001
 30
0.0
  0
SPLINE
  5
479
330
20C
100
AcDbEntity
  8
7_ALL_FEATURES
  6
Continuous
 62
     9
100
AcDbSpline
 70
     0
 71
     3
 72
     9
 73
     5
 74
     0
 42
0.000000001
 43
0.0000001
 40
0.0
 40
0.0
 40
0.0
 40
0.0
 40
0.3041836941
 40
1.0
 40
1.0
 40
1.0
 40
1.0
 10
509.5380424644
 20
122.1020514485
 30
0.0
 10
509.5513858517
 20
122.1003214692
 30
0.0
 10
509.5958363258
 20
122.10196135
 30
0.0
 10
509.6399529095
 20
122.10157212
 30
0.0
 10
509.6707274692
 20
122.1020514493
 30
0.0
  0
SPLINE
  5
47A
330
20C
100
AcDbEntity
  8
7_ALL_FEATURES
  6
Continuous
 62
     9
100
AcDbSpline
 70
     0
 71
     3
 72
     9
 73
     5
 74
     0
 42
0.000000001
 43
0.0000001
 40
0.0
 40
0.0
 40
0.0
 40
0.0
 40
0.2342766451
 40
1.0
 40
1.0
 40
1.0
 40
1.0
 10
509.529589354
 20
122.1824764905
 30
0.0
 10
509.5283355041
 20
122.2153301858
 30
0.0
 10
509.5346012755
 20
122.3561184233
 30
0.0
 10
509.5881509511
 20
122.4917972654
 30
0.0
 10
509.6423246889
 20
122.5846017002
 30
0.0
  0
LINE
  5
47B
330
20C
100
AcDbEntity
  8
7_ALL_FEATURES
  6
Continuous
 62
     3
100
AcDbLine
 10
437.54145
 20
123.756807
 30
0.0
 11
437.54145
 21
125.511317
 31
0.0
  0
LINE
  5
47C
330
20C
100
AcDbEntity
  8
7_ALL_FEATURES
  6
Continuous
 62
     3
100
AcDbLine
 10
437.54145
 20
125.59518
 30
0.0
 11
437.54145
 21
125.62175
 31
0.0
  0
LINE
  5
47D
330
20C
100
AcDbEntity
  8
7_ALL_FEATURES
  6
Continuous
 62
     3
100
AcDbLine
 10
437.54145
 20
125.511317
 30
0.0
 11
437.54145
 21
125.59518
 31
0.0
  0
LINE
  5
47E
330
20C
100
AcDbEntity
  8
7_ALL_FEATURES
  6
Continuous
 62
     3
100
AcDbLine
 10
437.54145
 20
123.067152
 30
0.0
 11
437.54145
 21
123.756807
 31
0.0
  0
SPLINE
  5
47F
330
20C
100
AcDbEntity
  8
7_ALL_FEATURES
  6
Continuous
 62
     7
100
AcDbSpline
 70
     0
 71
     3
 72
    25
 73
    21
 74
     0
 42
0.000000001
 43
0.0000001
 40
0.0
 40
0.0
 40
0.0
 40
0.0
 40
0.0627687737
 40
0.1302446693
 40
0.2015545499
 40
0.2756425601
 40
0.3513392274
 40
0.4274102636
 40
0.5026071584
 40
0.575715284
 40
0.6456047889
 40
0.7112849248
 40
0.7719699101
 40
0.8271592669
 40
0.8767486571
 40
0.921172707
 40
0.9418123238
 40
0.9616512386
 40
0.98094915
 40
1.0
 40
1.0
 40
1.0
 40
1.0
 10
343.3191058439
 20
302.4502467768
 30
0.0
 10
346.960561588
 20
304.2709746489
 30
0.0
 10
354.7517416896
 20
307.5880453445
 30
0.0
 10
367.2468325415
 20
311.4906981582
 30
0.0
 10
380.7529393089
 20
314.4375775823
 30
0.0
 10
394.9778939442
 20
316.3637532065
 30
0.0
 10
409.6152996027
 20
317.2276778877
 30
0.0
 10
424.3482632176
 20
317.0103137999
 30
0.0
 10
438.8578243913
 20
315.716447645
 30
0.0
 10
452.8302669403
 20
313.3743656596
 30
0.0
 10
465.9645778975
 20
310.0349753398
 30
0.0
 10
477.9798836136
 20
305.7698017073
 30
0.0
 10
488.6218778864
 20
300.6686006477
 30
0.0
 10
497.6695111581
 20
294.8312530479
 30
0.0
 10
504.9330544147
 20
288.3693071223
 30
0.0
 10
509.4739540057
 20
282.3964979933
 30
0.0
 10
511.9505539756
 20
277.4625644374
 30
0.0
 10
513.2231812022
 20
273.7870198587
 30
0.0
 10
513.9453839648
 20
270.0698333568
 30
0.0
 10
514.0556598938
 20
267.5740853808
 30
0.0
 10
514.0182761705
 20
266.3389859848
 30
0.0
  0
SPLINE
  5
480
330
20C
100
AcDbEntity
  8
7_ALL_FEATURES
  6
Continuous
 62
     7
100
AcDbSpline
 70
     0
 71
     3
 72
    15
 73
    11
 74
     0
 42
0.000000001
 43
0.0000001
 40
0.0
 40
0.0
 40
0.0
 40
0.0
 40
0.1564569124
 40
0.3028484044
 40
0.4390328305
 40
0.5654160773
 40
0.6828821012
 40
0.7929405927
 40
0.8977450122
 40
1.0
 40
1.0
 40
1.0
 40
1.0
 10
343.3191058439
 20
302.4502467768
 30
0.0
 10
341.0335248205
 20
301.3074562652
 30
0.0
 10
336.6920379957
 20
298.9229777767
 30
0.0
 10
330.7348360809
 20
294.9125764389
 30
0.0
 10
325.6000305206
 20
290.6190731074
 30
0.0
 10
321.339268633
 20
286.0816094684
 30
0.0
 10
317.9976819413
 20
281.3384782146
 30
0.0
 10
315.6162855535
 20
276.4305679556
 30
0.0
 10
314.2315394529
 20
271.4084712327
 30
0.0
 10
313.9908161714
 20
268.0083199133
 30
0.0
 10
314.0412347603
 20
266.3389853707
 30
0.0
  0
LINE
  5
481
330
20C
100
AcDbEntity
  8
7_ALL_FEATURES
  6
Continuous
 62
     7
100
AcDbLine
 10
314.157621
 20
262.492238
 30
0.0
 11
314.155623
 21
262.555637
 31
0.0
  0
SPLINE
  5
482
330
20C
100
AcDbEntity
  8
7_ALL_FEATURES
  6
Continuous
 62
     7
100
AcDbSpline
 70
     0
 71
     3
 72
    24
 73
    20
 74
     0
 42
0.000000001
 43
0.0000001
 40
0.0
 40
0.0
 40
0.0
 40
0.0
 40
0.0196666941
 40
0.0394809603
 40
0.0808196063
 40
0.1261018818
 40
0.1763977191
 40
0.2320881186
 40
0.293041273
 40
0.3587555733
 40
0.4284623431
 40
0.5012022959
 40
0.5758863041
 40
0.651347445
 40
0.7263888324
 40
0.7998294097
 40
0.8705525244
 40
0.9375511085
 40
1.0
 40
1.0
 40
1.0
 40
1.0
 10
314.1578239498
 20
262.4918520656
 30
0.0
 10
314.1990734038
 20
261.2298772758
 30
0.0
 10
314.4671270592
 20
258.6985544966
 30
0.0
 10
315.7485437802
 20
253.6550969377
 30
0.0
 10
318.7960464043
 20
247.448391113
 30
0.0
 10
324.4030042649
 20
240.6026525228
 30
0.0
 10
331.8549680502
 20
234.3066436117
 30
0.0
 10
340.9959462847
 20
228.6510058116
 30
0.0
 10
351.6448856952
 20
223.7281877598
 30
0.0
 10
363.5884068197
 20
219.6308344052
 30
0.0
 10
376.5829131596
 20
216.4401437235
 30
0.0
 10
390.359893989
 20
214.2215114316
 30
0.0
 10
404.6323737394
 20
213.0210962629
 30
0.0
 10
419.1017495882
 20
212.8640593067
 30
0.0
 10
433.4648667211
 20
213.7537578747
 30
0.0
 10
447.420888635
 20
215.6713448433
 30
0.0
 10
460.6791178583
 20
218.5772647873
 30
0.0
 10
472.9629096497
 20
222.41032157
 30
0.0
 10
480.6329843655
 20
225.6594241717
 30
0.0
 10
484.2245631591
 20
227.4414438447
 30
0.0
  0
ARC
  5
483
330
20C
100
AcDbEntity
  8
7_ALL_FEATURES
  6
Continuous
 62
     7
100
AcDbCircle
 10
440.311314
 20
315.946994
 30
0.0
 40
98.8008392418
100
AcDbArc
 50
296.388943
 51
296.564374
  0
SPLINE
  5
484
330
20C
100
AcDbEntity
  8
7_ALL_FEATURES
  6
Continuous
 62
     7
100
AcDbSpline
 70
     0
 71
     3
 72
    14
 73
    10
 74
     0
 42
0.000000001
 43
0.0000001
 40
0.0
 40
0.0
 40
0.0
 40
0.0
 40
0.2987677989
 40
0.4341136288
 40
0.5603505312
 40
0.6782967287
 40
0.7893684339
 40
0.8956161568
 40
1.0
 40
1.0
 40
1.0
 40
1.0
 10
484.4953194185
 20
227.5762995757
 30
0.0
 10
488.7568808718
 20
229.707121071
 30
0.0
 10
494.7566367441
 20
233.2569003505
 30
0.0
 10
501.68179581
 20
238.9271759719
 30
0.0
 10
505.9089763643
 20
243.2805775261
 30
0.0
 10
509.2987371289
 20
247.8432992454
 30
0.0
 10
511.8125894328
 20
252.5887808161
 30
0.0
 10
513.4162391144
 20
257.4897272925
 30
0.0
 10
513.8490857084
 20
260.8452174884
 30
0.0
 10
513.9023434478
 20
262.5090229323
 30
0.0
  0
LINE
  5
485
330
20C
100
AcDbEntity
  8
7_ALL_FEATURES
  6
Continuous
 62
     7
100
AcDbLine
 10
374.016527
 20
272.132684
 30
0.0
 11
374.017274
 21
272.158473
 31
0.0
  0
ARC
  5
486
330
20C
100
AcDbEntity
  8
7_ALL_FEATURES
  6
Continuous
 62
     7
100
AcDbCircle
 10
383.261043
 20
271.863271
 30
0.0
 40
9.2478616126
100
AcDbArc
 50
174.822793
 51
178.328503
  0
SPLINE
  5
487
330
20C
100
AcDbEntity
  8
7_ALL_FEATURES
  6
Continuous
 62
     7
100
AcDbSpline
 70
     0
 71
     3
 72
    13
 73
     9
 74
     0
 42
0.000000001
 43
0.0000001
 40
0.0
 40
0.0
 40
0.0
 40
0.0
 40
0.0977042039
 40
0.2011014094
 40
0.3115048202
 40
0.4302747287
 40
0.695530923
 40
1.0
 40
1.0
 40
1.0
 40
1.0
 10
374.050909574
 20
272.6977650854
 30
0.0
 10
374.1030197854
 20
273.2740017405
 30
0.0
 10
374.319693409
 20
274.4526233074
 30
0.0
 10
374.9684751111
 20
276.1883828372
 30
0.0
 10
375.9473691379
 20
277.90605793
 30
0.0
 10
377.7451211441
 20
280.2273773496
 30
0.0
 10
380.8309274766
 20
282.9460231311
 30
0.0
 10
383.7423327094
 20
284.6809471972
 30
0.0
 10
385.3499705382
 20
285.497258932
 30
0.0
  0
ARC
  5
488
330
20C
100
AcDbEntity
  8
7_ALL_FEATURES
  6
Continuous
 62
     7
100
AcDbCircle
 10
403.084999
 20
250.569455
 30
0.0
 40
39.1724740357
100
AcDbArc
 50
116.566571
 51
116.919751
  0
SPLINE
  5
489
330
20C
100
AcDbEntity
  8
7_ALL_FEATURES
  6
Continuous
 62
     7
100
AcDbSpline
 70
     0
 71
     3
 72
    20
 73
    16
 74
     0
 42
0.000000001
 43
0.0000001
 40
0.0
 40
0.0
 40
0.0
 40
0.0
 40
0.0622475989
 40
0.1291992754
 40
0.2735139467
 40
0.424638683
 40
0.5731091612
 40
0.6435175794
 40
0.7099709754
 40
0.7716362175
 40
0.8279096792
 40
0.8785021548
 40
0.9235340206
 40
0.9636464977
 40
1.0
 40
1.0
 40
1.0
 40
1.0
 10
385.5657085309
 20
285.6059656009
 30
0.0
 10
386.9871172596
 20
286.3166039835
 30
0.0
 10
390.0268895049
 20
287.6163814406
 30
0.0
 10
396.6922899312
 20
289.7241026791
 30
0.0
 10
405.8448052493
 20
291.3481576472
 30
0.0
 10
417.2056359683
 20
291.7006600182
 30
0.0
 10
426.6337940302
 20
290.6599676947
 30
0.0
 10
433.7342591139
 20
289.000915832
 30
0.0
 10
438.5572652609
 20
287.4192293465
 30
0.0
 10
442.8713078855
 20
285.5132428752
 30
0.0
 10
446.5884579397
 20
283.3236038148
 30
0.0
 10
449.6325217332
 20
280.8959996039
 30
0.0
 10
451.9398424613
 20
278.281240772
 30
0.0
 10
453.4579397568
 20
275.5430888653
 30
0.0
 10
453.9257739086
 20
273.6167685824
 30
0.0
 10
454.0092515708
 20
272.6924415454
 30
0.0
  0
ARC
  5
48A
330
20C
100
AcDbEntity
  8
7_ALL_FEATURES
  6
Continuous
 62
     7
100
AcDbCircle
 10
444.855137
 20
271.864017
 30
0.0
 40
9.191523213
100
AcDbArc
 50
1.728761
 51
5.171039
  0
LINE
  5
48B
330
20C
100
AcDbEntity
  8
7_ALL_FEATURES
  6
Continuous
 62
     7
100
AcDbLine
 10
314.155623
 20
262.555637
 30
0.0
 11
314.041213
 21
266.338985
 31
0.0
  0
ARC
  5
48C
330
20C
100
AcDbEntity
  8
7_ALL_FEATURES
  6
Continuous
 62
     7
100
AcDbCircle
 10
384.037837
 20
272.420238
 30
0.0
 40
10.0080084789
100
AcDbArc
 50
178.264519
 51
180.696937
  0
ARC
  5
48D
330
20C
100
AcDbEntity
  8
7_ALL_FEATURES
  6
Continuous
 62
     7
100
AcDbCircle
 10
384.032384
 20
272.420258
 30
0.0
 40
10.0025560909
100
AcDbArc
 50
180.697432
 51
181.495541
  0
LINE
  5
48E
330
20C
100
AcDbEntity
  8
7_ALL_FEATURES
  6
Continuous
 62
     7
100
AcDbLine
 10
374.033235
 20
272.1592
 30
0.0
 11
374.033941
 21
272.133437
 31
0.0
  0
LINE
  5
48F
330
20C
100
AcDbEntity
  8
7_ALL_FEATURES
  6
Continuous
 62
     7
100
AcDbLine
 10
374.049104
 20
272.159303
 30
0.0
 11
374.049775
 21
272.13355
 31
0.0
  0
ARC
  5
490
330
20C
100
AcDbEntity
  8
7_ALL_FEATURES
  6
Continuous
 62
     7
100
AcDbCircle
 10
384.055823
 20
272.421189
 30
0.0
 40
10.0260127451
100
AcDbArc
 50
181.644644
 51
184.717339
  0
SPLINE
  5
491
330
20C
100
AcDbEntity
  8
7_ALL_FEATURES
  6
Continuous
 62
     7
100
AcDbSpline
 70
     0
 71
     3
 72
    20
 73
    16
 74
     0
 42
0.000000001
 43
0.0000001
 40
0.0
 40
0.0
 40
0.0
 40
0.0
 40
0.0384202565
 40
0.0796321622
 40
0.1251757019
 40
0.175893574
 40
0.2320326133
 40
0.2933853333
 40
0.3594101064
 40
0.4293237377
 40
0.5767576544
 40
0.7269899979
 40
0.8707684284
 40
0.9376513783
 40
1.0
 40
1.0
 40
1.0
 40
1.0
 10
374.0637732241
 20
271.5966482264
 30
0.0
 10
374.1442997283
 20
270.6206019038
 30
0.0
 10
374.6150421683
 20
268.6136679862
 30
0.0
 10
376.149209582
 20
265.7822361789
 30
0.0
 10
378.4621970682
 20
263.1195132727
 30
0.0
 10
381.4957135403
 20
260.6674973486
 30
0.0
 10
385.1878207308
 20
258.4642294462
 30
0.0
 10
389.4657635775
 20
256.5494443874
 30
0.0
 10
394.2448261681
 20
254.9596480142
 30
0.0
 10
401.279598326
 20
253.2878026678
 30
0.0
 10
410.6285306785
 20
252.2246088814
 30
0.0
 10
421.9101858618
 20
252.5400806235
 30
0.0
 10
431.0158562962
 20
254.1259550436
 30
0.0
 10
437.6667720222
 20
256.2011167454
 30
0.0
 10
440.7083586751
 20
257.4856036888
 30
0.0
 10
442.1334864954
 20
258.189119117
 30
0.0
  0
ARC
  5
492
330
20C
100
AcDbEntity
  8
7_ALL_FEATURES
  6
Continuous
 62
     7
100
AcDbCircle
 10
424.607082
 20
293.693241
 30
0.0
 40
39.5944124459
100
AcDbArc
 50
296.272984
 51
296.564749
  0
LINE
  5
493
330
20C
100
AcDbEntity
  8
7_ALL_FEATURES
  6
Continuous
 62
     7
100
AcDbLine
 10
513.903945
 20
262.555637
 30
0.0
 11
513.902502
 21
262.509338
 31
0.0
  0
LINE
  5
494
330
20C
100
AcDbEntity
  8
7_ALL_FEATURES
  6
Continuous
 62
     7
100
AcDbLine
 10
513.903945
 20
262.555637
 30
0.0
 11
514.018355
 21
266.338985
 31
0.0
  0
ARC
  5
495
330
20C
100
AcDbEntity
  8
7_ALL_FEATURES
  6
Continuous
 62
     7
100
AcDbCircle
 10
444.026601
 20
272.421666
 30
0.0
 40
10.0031392457
100
AcDbArc
 50
359.914756
 51
1.72814
  0
ARC
  5
496
330
20C
100
AcDbEntity
  8
7_ALL_FEATURES
  6
Continuous
 62
     7
100
AcDbCircle
 10
444.021584
 20
272.421718
 30
0.0
 40
10.0081563448
100
AcDbArc
 50
358.538909
 51
359.914506
  0
LINE
  5
497
330
20C
100
AcDbEntity
  8
7_ALL_FEATURES
  6
Continuous
 62
     7
100
AcDbLine
 10
454.026486
 20
272.166529
 30
0.0
 11
454.026031
 21
272.149254
 31
0.0
  0
LINE
  5
498
330
20C
100
AcDbEntity
  8
7_ALL_FEATURES
  6
Continuous
 62
     7
100
AcDbLine
 10
453.964701
 20
272.166923
 30
0.0
 11
453.962824
 21
272.149685
 31
0.0
  0
SPLINE
  5
499
330
20C
100
AcDbEntity
  8
7_ALL_FEATURES
  6
Continuous
 62
     7
100
AcDbSpline
 70
     0
 71
     3
 72
    12
 73
     8
 74
     0
 42
0.000000001
 43
0.0000001
 40
0.0
 40
0.0
 40
0.0
 40
0.0
 40
0.1020897643
 40
0.2073166153
 40
0.4355889771
 40
0.6983672684
 40
1.0
 40
1.0
 40
1.0
 40
1.0
 10
454.0260308055
 20
272.1492542183
 30
0.0
 10
454.00842983
 20
271.5028995223
 30
0.0
 10
453.8438374837
 20
270.1905389281
 30
0.0
 10
452.9904326227
 20
267.5524314003
 30
0.0
 10
450.8897714085
 20
264.3338028555
 30
0.0
 10
447.1162081894
 20
260.9653994284
 30
0.0
 10
444.0227839754
 20
259.1331927098
 30
0.0
 10
442.31405521
 20
258.278828327
 30
0.0
  0
LINE
  5
49A
330
20C
100
AcDbEntity
  8
7_ALL_FEATURES
  6
Continuous
 62
     7
100
AcDbLine
 10
454.042294
 20
272.158473
 30
0.0
 11
454.042808
 21
272.140975
 31
0.0
  0
ARC
  5
49B
330
20C
100
AcDbEntity
  8
7_ALL_FEATURES
  6
Continuous
 62
     9
100
AcDbCircle
 10
390.256486
 20
212.758382
 30
0.0
 40
92.2443889995
100
AcDbArc
 50
115.700007
 51
116.56246
  0
SPLINE
  5
49C
330
20C
100
AcDbEntity
  8
7_ALL_FEATURES
  6
Continuous
 62
     9
100
AcDbSpline
 70
     0
 71
     3
 72
    10
 73
     6
 74
     0
 42
0.000000001
 43
0.0000001
 40
0.0
 40
0.0
 40
0.0
 40
0.0
 40
0.2311503216
 40
0.4762866272
 40
1.0
 40
1.0
 40
1.0
 40
1.0
 10
350.2538591157
 20
295.8776766426
 30
0.0
 10
352.9583379909
 20
297.1794047552
 30
0.0
 10
358.6609259951
 20
299.5977585219
 30
0.0
 10
370.9950969529
 20
303.6856670649
 30
0.0
 10
380.8008041879
 20
305.7693637749
 30
0.0
 10
387.5254009587
 20
306.7814641368
 30
0.0
  0
LINE
  5
49D
330
20C
100
AcDbEntity
  8
7_ALL_FEATURES
  6
Continuous
 62
     9
100
AcDbLine
 10
387.525401
 20
306.781464
 30
0.0
 11
387.627572
 21
306.796809
 31
0.0
  0
LINE
  5
49E
330
20C
100
AcDbEntity
  8
7_ALL_FEATURES
  6
Continuous
 62
     9
100
AcDbLine
 10
387.584216
 20
306.68377
 30
0.0
 11
387.685685
 21
306.699873
 31
0.0
  0
ARC
  5
49F
330
20C
100
AcDbEntity
  8
7_ALL_FEATURES
  6
Continuous
 62
     9
100
AcDbCircle
 10
412.54165
 20
140.556014
 30
0.0
 40
168.0973327154
100
AcDbArc
 50
98.016209
 51
98.523336
  0
ARC
  5
4A0
330
20C
100
AcDbEntity
  8
7_ALL_FEATURES
  6
Continuous
 62
     9
100
AcDbCircle
 10
412.693517
 20
139.486167
 30
0.0
 40
169.1779047009
100
AcDbArc
 50
97.87778
 51
98.016612
  0
LINE
  5
4A1
330
20C
100
AcDbEntity
  8
7_ALL_FEATURES
  6
Continuous
 62
     9
100
AcDbLine
 10
389.505926
 20
307.067487
 30
0.0
 11
389.621194
 21
307.083396
 31
0.0
  0
LINE
  5
4A2
330
20C
100
AcDbEntity
  8
7_ALL_FEATURES
  6
Continuous
 62
     9
100
AcDbLine
 10
389.545994
 20
306.995093
 30
0.0
 11
389.659869
 21
307.013164
 31
0.0
  0
ARC
  5
4A3
330
20C
100
AcDbEntity
  8
7_ALL_FEATURES
  6
Continuous
 62
     9
100
AcDbCircle
 10
412.803215
 20
138.688689
 30
0.0
 40
169.9828920279
100
AcDbArc
 50
97.550532
 51
97.838342
  0
LINE
  5
4A4
330
20C
100
AcDbEntity
  8
7_ALL_FEATURES
  6
Continuous
 62
     9
100
AcDbLine
 10
390.46737
 20
307.19772
 30
0.0
 11
390.52266
 21
307.20504
 31
0.0
  0
LINE
  5
4A5
330
20C
100
AcDbEntity
  8
7_ALL_FEATURES
  6
Continuous
 62
     9
100
AcDbLine
 10
390.494958
 20
307.145688
 30
0.0
 11
390.549475
 21
307.154339
 31
0.0
  0
LINE
  5
4A6
330
20C
100
AcDbEntity
  8
7_ALL_FEATURES
  6
Continuous
 62
     9
100
AcDbLine
 10
390.52266
 20
307.20504
 30
0.0
 11
390.601673
 21
307.215468
 31
0.0
  0
LINE
  5
4A7
330
20C
100
AcDbEntity
  8
7_ALL_FEATURES
  6
Continuous
 62
     9
100
AcDbLine
 10
390.549475
 20
307.154339
 30
0.0
 11
390.627372
 21
307.166701
 31
0.0
  0
ARC
  5
4A8
330
20C
100
AcDbEntity
  8
7_ALL_FEATURES
  6
Continuous
 62
     9
100
AcDbCircle
 10
412.935614
 20
137.687034
 30
0.0
 40
170.9932593954
100
AcDbArc
 50
97.219312
 51
97.505016
  0
ARC
  5
4A9
330
20C
100
AcDbEntity
  8
7_ALL_FEATURES
  6
Continuous
 62
     9
100
AcDbCircle
 10
413.036655
 20
136.889759
 30
0.0
 40
171.7969120169
100
AcDbArc
 50
96.946953
 51
97.219328
  0
LINE
  5
4AA
330
20C
100
AcDbEntity
  8
7_ALL_FEATURES
  6
Continuous
 62
     9
100
AcDbLine
 10
392.257758
 20
307.425434
 30
0.0
 11
392.424799
 21
307.445704
 31
0.0
  0
LINE
  5
4AB
330
20C
100
AcDbEntity
  8
7_ALL_FEATURES
  6
Continuous
 62
     9
100
AcDbLine
 10
392.257758
 20
307.425434
 30
0.0
 11
392.427523
 21
307.440069
 31
0.0
  0
ARC
  5
4AC
330
20C
100
AcDbEntity
  8
7_ALL_FEATURES
  6
Continuous
 62
     9
100
AcDbCircle
 10
413.146387
 20
135.98661
 30
0.0
 40
172.7067030268
100
AcDbArc
 50
96.695509
 51
96.891028
  0
LINE
  5
4AD
330
20C
100
AcDbEntity
  8
7_ALL_FEATURES
  6
Continuous
 62
     9
100
AcDbLine
 10
393.010013
 20
307.515417
 30
0.0
 11
393.110989
 21
307.527241
 31
0.0
  0
LINE
  5
4AE
330
20C
100
AcDbEntity
  8
7_ALL_FEATURES
  6
Continuous
 62
     9
100
AcDbLine
 10
393.021355
 20
307.491263
 30
0.0
 11
393.123677
 21
307.500084
 31
0.0
  0
LINE
  5
4AF
330
20C
100
AcDbEntity
  8
7_ALL_FEATURES
  6
Continuous
 62
     9
100
AcDbLine
 10
393.110989
 20
307.527241
 30
0.0
 11
393.294606
 21
307.548588
 31
0.0
  0
LINE
  5
4B0
330
20C
100
AcDbEntity
  8
7_ALL_FEATURES
  6
Continuous
 62
     9
100
AcDbLine
 10
393.123677
 20
307.500084
 30
0.0
 11
393.309637
 21
307.516116
 31
0.0
  0
LINE
  5
4B1
330
20C
100
AcDbEntity
  8
7_ALL_FEATURES
  6
Continuous
 62
     9
100
AcDbLine
 10
393.294606
 20
307.548588
 30
0.0
 11
393.600778
 21
307.583742
 31
0.0
  0
LINE
  5
4B2
330
20C
100
AcDbEntity
  8
7_ALL_FEATURES
  6
Continuous
 62
     9
100
AcDbLine
 10
393.600778
 20
307.583742
 30
0.0
 11
393.705439
 21
307.595633
 31
0.0
  0
LINE
  5
4B3
330
20C
100
AcDbEntity
  8
7_ALL_FEATURES
  6
Continuous
 62
     9
100
AcDbLine
 10
393.619424
 20
307.542823
 30
0.0
 11
393.725239
 21
307.551945
 31
0.0
  0
LINE
  5
4B4
330
20C
100
AcDbEntity
  8
7_ALL_FEATURES
  6
Continuous
 62
     9
100
AcDbLine
 10
393.705439
 20
307.595633
 30
0.0
 11
394.022088
 21
307.631217
 31
0.0
  0
LINE
  5
4B5
330
20C
100
AcDbEntity
  8
7_ALL_FEATURES
  6
Continuous
 62
     9
100
AcDbLine
 10
394.022088
 20
307.631217
 30
0.0
 11
394.058114
 21
307.635228
 31
0.0
  0
LINE
  5
4B6
330
20C
100
AcDbEntity
  8
7_ALL_FEATURES
  6
Continuous
 62
     9
100
AcDbLine
 10
394.045133
 20
307.579523
 30
0.0
 11
394.081505
 21
307.582658
 31
0.0
  0
LINE
  5
4B7
330
20C
100
AcDbEntity
  8
7_ALL_FEATURES
  6
Continuous
 62
     9
100
AcDbLine
 10
394.058114
 20
307.635228
 30
0.0
 11
394.217039
 21
307.652833
 31
0.0
  0
LINE
  5
4B8
330
20C
100
AcDbEntity
  8
7_ALL_FEATURES
  6
Continuous
 62
     9
100
AcDbLine
 10
394.081505
 20
307.582658
 30
0.0
 11
394.241901
 21
307.596486
 31
0.0
  0
ARC
  5
4B9
330
20C
100
AcDbEntity
  8
7_ALL_FEATURES
  6
Continuous
 62
     9
100
AcDbCircle
 10
414.02675
 20
126.497144
 30
0.0
 40
182.2355847713
100
AcDbArc
 50
83.558763
 51
96.240604
  0
ARC
  5
4BA
330
20C
100
AcDbEntity
  8
7_ALL_FEATURES
  6
Continuous
 62
     9
100
AcDbCircle
 10
414.831168
 20
135.306553
 30
0.0
 40
173.3916459358
100
AcDbArc
 50
83.150978
 51
83.496331
  0
ARC
  5
4BB
330
20C
100
AcDbEntity
  8
7_ALL_FEATURES
  6
Continuous
 62
     9
100
AcDbCircle
 10
414.987358
 20
136.601564
 30
0.0
 40
172.0872491433
100
AcDbArc
 50
82.65242
 51
83.151191
  0
ARC
  5
4BC
330
20C
100
AcDbEntity
  8
7_ALL_FEATURES
  6
Continuous
 62
     9
100
AcDbCircle
 10
415.239435
 20
138.547601
 30
0.0
 40
170.1249544933
100
AcDbArc
 50
81.982326
 51
82.652801
  0
SPLINE
  5
4BD
330
20C
100
AcDbEntity
  8
7_ALL_FEATURES
  6
Continuous
 62
     9
100
AcDbSpline
 70
     0
 71
     3
 72
     9
 73
     5
 74
     0
 42
0.000000001
 43
0.0000001
 40
0.0
 40
0.0
 40
0.0
 40
0.0
 40
0.5184656554
 40
1.0
 40
1.0
 40
1.0
 40
1.0
 10
438.9682205407
 20
307.009599537
 30
0.0
 10
444.8006557525
 20
306.1879891449
 30
0.0
 10
455.9775033643
 20
304.0187083148
 30
0.0
 10
466.8314545259
 20
300.5383982799
 30
0.0
 10
471.9020273841
 20
298.485288904
 30
0.0
  0
ARC
  5
4BE
330
20C
100
AcDbEntity
  8
7_ALL_FEATURES
  6
Continuous
 62
     9
100
AcDbCircle
 10
431.668769
 20
199.115645
 30
0.0
 40
107.2056027251
100
AcDbArc
 50
67.38359
 51
67.957723
  0
ARC
  5
4BF
330
20C
100
AcDbEntity
  8
7_ALL_FEATURES
  6
Continuous
 62
     9
100
AcDbCircle
 10
433.876054
 20
204.366432
 30
0.0
 40
101.5097692424
100
AcDbArc
 50
64.741185
 51
67.393921
  0
ARC
  5
4C0
330
20C
100
AcDbEntity
  8
7_ALL_FEATURES
  6
Continuous
 62
     9
100
AcDbCircle
 10
436.721138
 20
210.527755
 30
0.0
 40
94.7235303075
100
AcDbArc
 50
64.252268
 51
64.7073
  0
LINE
  5
4C1
330
20C
100
AcDbEntity
  8
7_ALL_FEATURES
  6
Continuous
 62
     9
100
AcDbLine
 10
477.869949
 20
295.846701
 30
0.0
 11
477.977
 21
295.794986
 31
0.0
  0
LINE
  5
4C2
330
20C
100
AcDbEntity
  8
7_ALL_FEATURES
  6
Continuous
 62
     9
100
AcDbLine
 10
477.731515
 20
295.774945
 30
0.0
 11
477.836557
 21
295.722424
 31
0.0
  0
SPLINE
  5
4C3
330
20C
100
AcDbEntity
  8
7_ALL_FEATURES
  6
Continuous
 62
     9
100
AcDbSpline
 70
     0
 71
     3
 72
    21
 73
    17
 74
     0
 42
0.000000001
 43
0.0000001
 40
0.0
 40
0.0
 40
0.0
 40
0.0
 40
0.15429763
 40
0.2242613148
 40
0.2894678339
 40
0.3502328332
 40
0.4071238077
 40
0.4609840493
 40
0.5129200016
 40
0.5642343743
 40
0.6162988985
 40
0.6704023278
 40
0.7276287912
 40
0.7887953759
 40
0.8544403618
 40
1.0
 40
1.0
 40
1.0
 40
1.0
 10
477.9769997017
 20
295.7949856831
 30
0.0
 10
481.9106084613
 20
293.8916214438
 30
0.0
 10
487.4611181664
 20
290.720942363
 30
0.0
 10
493.9238935834
 20
285.6576308905
 30
0.0
 10
497.9031794056
 20
281.7714582293
 30
0.0
 10
501.1352085424
 20
277.7049387656
 30
0.0
 10
503.5873505477
 20
273.4894024233
 30
0.0
 10
505.2301646067
 20
269.160119994
 30
0.0
 10
506.0388121936
 20
264.7582602211
 30
0.0
 10
505.9983700762
 20
260.3327252583
 30
0.0
 10
505.1099657149
 20
255.9357713266
 30
0.0
 10
503.3894487858
 20
251.6155247558
 30
0.0
 10
500.8620120477
 20
247.4128224901
 30
0.0
 10
497.5574761709
 20
243.3617008588
 30
0.0
 10
491.9687545653
 20
238.0234320764
 30
0.0
 10
486.981923331
 20
234.6325858429
 30
0.0
 10
483.407808155
 20
232.5782816508
 30
0.0
  0
ARC
  5
4C4
330
20C
100
AcDbEntity
  8
7_ALL_FEATURES
  6
Continuous
 62
     9
100
AcDbCircle
 10
441.398544
 20
305.720272
 30
0.0
 40
84.3476674987
100
AcDbArc
 50
296.513668
 51
299.871001
  0
ARC
  5
4C5
330
20C
100
AcDbEntity
  8
7_ALL_FEATURES
  6
Continuous
 62
     9
100
AcDbCircle
 10
403.302272
 20
249.598689
 30
0.0
 40
40.2489024388
100
AcDbArc
 50
116.232146
 51
116.564659
  0
SPLINE
  5
4C6
330
20C
100
AcDbEntity
  8
7_ALL_FEATURES
  6
Continuous
 62
     9
100
AcDbSpline
 70
     0
 71
     3
 72
    20
 73
    16
 74
     0
 42
0.000000001
 43
0.0000001
 40
0.0
 40
0.0
 40
0.0
 40
0.0
 40
0.0622599953
 40
0.1290237439
 40
0.2725143558
 40
0.4224743148
 40
0.5697546266
 40
0.6396618206
 40
0.705737253
 40
0.7671976249
 40
0.823495778
 40
0.8744081838
 40
0.9201514549
 40
0.9615221381
 40
1.0
 40
1.0
 40
1.0
 40
1.0
 10
385.5118867752
 20
285.7023781597
 30
0.0
 10
386.9535028202
 20
286.4127583792
 30
0.0
 10
390.0290203224
 20
287.7102662487
 30
0.0
 10
396.7515884209
 20
289.8085483774
 30
0.0
 10
405.953718594
 20
291.4174273473
 30
0.0
 10
417.3590042029
 20
291.7502643752
 30
0.0
 10
426.8166387679
 20
290.6928548905
 30
0.0
 10
433.9422194841
 20
289.0202603536
 30
0.0
 10
438.7910009247
 20
287.4262373539
 30
0.0
 10
443.1392147783
 20
285.5038008355
 30
0.0
 10
446.9014331691
 20
283.2893258864
 30
0.0
 10
450.0042197817
 20
280.8226705168
 30
0.0
 10
452.3850453623
 20
278.1420444777
 30
0.0
 10
453.9857454625
 20
275.2895707241
 30
0.0
 10
454.5017008753
 20
273.2617406539
 30
0.0
 10
454.6029176628
 20
272.2736686815
 30
0.0
  0
SPLINE
  5
4C7
330
20C
100
AcDbEntity
  8
7_ALL_FEATURES
  6
Continuous
 62
     9
100
AcDbSpline
 70
     0
 71
     3
 72
    14
 73
    10
 74
     0
 42
0.000000001
 43
0.0000001
 40
0.0
 40
0.0
 40
0.0
 40
0.0
 40
0.1029198473
 40
0.2075426557
 40
0.316980999
 40
0.4337736708
 40
0.5597109582
 40
0.695890316
 40
1.0
 40
1.0
 40
1.0
 40
1.0
 10
454.6029176628
 20
272.2736686815
 30
0.0
 10
454.6750384861
 20
271.5696296977
 30
0.0
 10
454.6716977068
 20
270.1300207989
 30
0.0
 10
454.2090284048
 20
267.9851515912
 30
0.0
 10
453.2994592249
 20
265.8852694234
 30
0.0
 10
451.9598193114
 20
263.8553065568
 30
0.0
 10
450.2095632575
 20
261.9135811905
 30
0.0
 10
447.2469686769
 20
259.3749046273
 30
0.0
 10
444.6273281952
 20
257.8066141297
 30
0.0
 10
442.7569061211
 20
256.8714030927
 30
0.0
  0
SPLINE
  5
4C8
330
20C
100
AcDbEntity
  8
7_ALL_FEATURES
  6
Continuous
 62
     9
100
AcDbSpline
 70
     0
 71
     3
 72
    11
 73
     7
 74
     0
 42
0.000000001
 43
0.0000001
 40
0.0
 40
0.0
 40
0.0
 40
0.0
 40
0.2271393924
 40
0.4720141705
 40
0.7310678673
 40
1.0
 40
1.0
 40
1.0
 40
1.0
 10
343.9301633787
 20
297.7279884501
 30
0.0
 10
347.7388007266
 20
299.632307124
 30
0.0
 10
355.9131058149
 20
303.0807441442
 30
0.0
 10
369.0450276989
 20
307.0720956487
 30
0.0
 10
383.2520917068
 20
310.006217709
 30
0.0
 10
393.0913641078
 20
311.1946430317
 30
0.0
 10
398.1164518382
 20
311.603277623
 30
0.0
  0
LINE
  5
4C9
330
20C
100
AcDbEntity
  8
7_ALL_FEATURES
  6
Continuous
 62
     9
100
AcDbLine
 10
398.116452
 20
311.603278
 30
0.0
 11
398.151575
 21
311.606131
 31
0.0
  0
LINE
  5
4CA
330
20C
100
AcDbEntity
  8
7_ALL_FEATURES
  6
Continuous
 62
     9
100
AcDbLine
 10
398.152793
 20
311.491552
 30
0.0
 11
398.18778
 21
311.494574
 31
0.0
  0
SPLINE
  5
4CB
330
20C
100
AcDbEntity
  8
7_ALL_FEATURES
  6
Continuous
 62
     9
100
AcDbSpline
 70
     0
 71
     3
 72
    11
 73
     7
 74
     0
 42
0.000000001
 43
0.0000001
 40
0.0
 40
0.0
 40
0.0
 40
0.0
 40
0.2591273648
 40
0.516932276
 40
0.7661196829
 40
1.0
 40
1.0
 40
1.0
 40
1.0
 10
398.1515751912
 20
311.6061305827
 30
0.0
 10
404.5770687495
 20
312.1274618994
 30
0.0
 10
417.4552629019
 20
312.5282034579
 30
0.0
 10
436.5034757162
 20
311.2749150762
 30
0.0
 10
454.7118722326
 20
308.221152482
 30
0.0
 10
466.3061023087
 20
304.9289975118
 30
0.0
 10
471.7834583968
 20
302.9659365314
 30
0.0
  0
ARC
  5
4CC
330
20C
100
AcDbEntity
  8
7_ALL_FEATURES
  6
Continuous
 62
     9
100
AcDbCircle
 10
428.968398
 20
183.500721
 30
0.0
 40
126.9057407953
100
AcDbArc
 50
69.957512
 51
70.282861
  0
ARC
  5
4CD
330
20C
100
AcDbEntity
  8
7_ALL_FEATURES
  6
Continuous
 62
     9
100
AcDbCircle
 10
430.270915
 20
187.049353
 30
0.0
 40
123.1256240517
100
AcDbArc
 50
68.399323
 51
69.960983
  0
SPLINE
  5
4CE
330
20C
100
AcDbEntity
  8
7_ALL_FEATURES
  6
Continuous
 62
     9
100
AcDbSpline
 70
     0
 71
     3
 72
    23
 73
    19
 74
     0
 42
0.000000001
 43
0.0000001
 40
0.0
 40
0.0
 40
0.0
 40
0.0
 40
0.0815817969
 40
0.1582380163
 40
0.2297262373
 40
0.2960020455
 40
0.3572693582
 40
0.4140344307
 40
0.467153272
 40
0.5178419844
 40
0.5676077916
 40
0.6180810564
 40
0.6707966993
 40
0.7270165853
 40
0.787646844
 40
0.8532317189
 40
0.9240283896
 40
1.0
 40
1.0
 40
1.0
 40
1.0
 10
475.5978333101
 20
301.528127674
 30
0.0
 10
478.244396838
 20
300.4796146139
 30
0.0
 10
483.3076763134
 20
298.2609873687
 30
0.0
 10
490.3682530655
 20
294.4446627518
 30
0.0
 10
496.59710413
 20
290.2766478626
 30
0.0
 10
501.9266720207
 20
285.7989264826
 30
0.0
 10
506.2985356569
 20
281.0545352369
 30
0.0
 10
509.6607149655
 20
276.0875190948
 30
0.0
 10
511.965520577
 20
270.9453685335
 30
0.0
 10
513.1701135173
 20
265.6852784632
 30
0.0
 10
513.2459123942
 20
260.3794723461
 30
0.0
 10
512.1909903573
 20
255.1088051686
 30
0.0
 10
510.0311224308
 20
249.9472321449
 30
0.0
 10
506.8076316867
 20
244.9538409019
 30
0.0
 10
502.5677695842
 20
240.1773266371
 30
0.0
 10
497.3628733544
 20
235.661139873
 30
0.0
 10
491.2508940318
 20
231.4496386669
 30
0.0
 10
486.7678166872
 20
228.9573350206
 30
0.0
 10
484.4004528134
 20
227.764419599
 30
0.0
  0
ARC
  5
4CF
330
20C
100
AcDbEntity
  8
7_ALL_FEATURES
  6
Continuous
 62
     9
100
AcDbCircle
 10
440.594061
 20
314.699424
 30
0.0
 40
97.3483171518
100
AcDbArc
 50
296.564954
 51
296.743453
  0
SPLINE
  5
4D0
330
20C
100
AcDbEntity
  8
7_ALL_FEATURES
  6
Continuous
 62
     9
100
AcDbSpline
 70
     0
 71
     3
 72
    31
 73
    27
 74
     0
 42
0.000000001
 43
0.0000001
 40
0.0
 40
0.0
 40
0.0
 40
0.0
 40
0.0676717939
 40
0.1416020887
 40
0.2199893871
 40
0.3006852842
 40
0.3813811173
 40
0.4597683166
 40
0.5337003983
 40
0.6013706406
 40
0.6324659374
 40
0.6615933296
 40
0.6887365535
 40
0.7139613328
 40
0.7374315999
 40
0.7594251175
 40
0.7803409343
 40
0.8006854659
 40
0.8210300044
 40
0.8419459718
 40
0.8639394255
 40
0.8874096272
 40
0.9126346658
 40
0.9397764112
 40
0.9689083195
 40
1.0
 40
1.0
 40
1.0
 40
1.0
 10
484.1294045463
 20
227.6283678663
 30
0.0
 10
479.2879867323
 20
225.2076589593
 30
0.0
 10
468.7373641153
 20
220.9661781863
 30
0.0
 10
451.6843511424
 20
216.4868732962
 30
0.0
 10
433.2168163308
 20
213.7281099379
 30
0.0
 10
414.0298394922
 20
212.7968877624
 30
0.0
 10
394.8427667225
 20
213.7281221882
 30
0.0
 10
376.3753927196
 20
216.4866907171
 30
0.0
 10
359.3214370513
 20
220.9669918899
 30
0.0
 10
346.4564928286
 20
226.1370026552
 30
0.0
 10
337.47635907
 20
231.0593016176
 30
0.0
 10
331.6607352267
 20
234.9528749672
 30
0.0
 10
326.6288041373
 20
239.1168165072
 30
0.0
 10
322.4285753555
 20
243.5157300155
 30
0.0
 10
319.1025718888
 20
248.1129995966
 30
0.0
 10
316.6894418079
 20
252.8701905112
 30
0.0
 10
315.2236454479
 20
257.7431277576
 30
0.0
 10
314.731493021
 20
262.6781894785
 30
0.0
 10
315.223506208
 20
267.6132977943
 30
0.0
 10
316.6895295077
 20
272.486183544
 30
0.0
 10
319.1026642152
 20
277.2433492653
 30
0.0
 10
322.428548293
 20
281.8407352415
 30
0.0
 10
326.6287658076
 20
286.2394794181
 30
0.0
 10
331.6609399193
 20
290.4037387591
 30
0.0
 10
337.4763208673
 20
294.2966767932
 30
0.0
 10
341.7057829214
 20
296.6157982214
 30
0.0
 10
343.9301633787
 20
297.7279884501
 30
0.0
  0
SPLINE
  5
4D1
330
20C
100
AcDbEntity
  8
7_ALL_FEATURES
  6
Continuous
 62
     9
100
AcDbSpline
 70
     0
 71
     3
 72
    10
 73
     6
 74
     0
 42
0.000000001
 43
0.0000001
 40
0.0
 40
0.0
 40
0.0
 40
0.0
 40
0.229927263
 40
0.4747954242
 40
1.0
 40
1.0
 40
1.0
 40
1.0
 10
348.3447573961
 20
295.5206914414
 30
0.0
 10
351.15969564
 20
296.9281605634
 30
0.0
 10
357.1237509388
 20
299.5389220263
 30
0.0
 10
370.0977882859
 20
303.9348819089
 30
0.0
 10
380.4536733787
 20
306.1428004244
 30
0.0
 10
387.564466086
 20
307.1995801783
 30
0.0
  0
ARC
  5
4D2
330
20C
100
AcDbEntity
  8
7_ALL_FEATURES
  6
Continuous
 62
     9
100
AcDbCircle
 10
412.559714
 20
139.004624
 30
0.0
 40
170.0420705562
100
AcDbArc
 50
97.951269
 51
98.452793
  0
ARC
  5
4D3
330
20C
100
AcDbEntity
  8
7_ALL_FEATURES
  6
Continuous
 62
     9
100
AcDbCircle
 10
412.708721
 20
137.946209
 30
0.0
 40
171.1109225201
100
AcDbArc
 50
97.814355
 51
97.951658
  0
ARC
  5
4D4
330
20C
100
AcDbEntity
  8
7_ALL_FEATURES
  6
Continuous
 62
     9
100
AcDbCircle
 10
412.808229
 20
137.218276
 30
0.0
 40
171.8456246652
100
AcDbArc
 50
97.490669
 51
97.814226
  0
LINE
  5
4D5
330
20C
100
AcDbEntity
  8
7_ALL_FEATURES
  6
Continuous
 62
     9
100
AcDbLine
 10
390.405621
 20
307.597388
 30
0.0
 11
390.539987
 21
307.615002
 31
0.0
  0
LINE
  5
4D6
330
20C
100
AcDbEntity
  8
7_ALL_FEATURES
  6
Continuous
 62
     9
100
AcDbLine
 10
390.430841
 20
307.549437
 30
0.0
 11
390.563272
 21
307.570462
 31
0.0
  0
ARC
  5
4D7
330
20C
100
AcDbEntity
  8
7_ALL_FEATURES
  6
Continuous
 62
     9
100
AcDbCircle
 10
412.946207
 20
136.166997
 30
0.0
 40
172.9059203204
100
AcDbArc
 50
97.163089
 51
97.445681
  0
ARC
  5
4D8
330
20C
100
AcDbEntity
  8
7_ALL_FEATURES
  6
Continuous
 62
     9
100
AcDbCircle
 10
413.10398
 20
134.902446
 30
0.0
 40
174.1802752844
100
AcDbArc
 50
96.603227
 51
97.162714
  0
ARC
  5
4D9
330
20C
100
AcDbEntity
  8
7_ALL_FEATURES
  6
Continuous
 62
     9
100
AcDbCircle
 10
413.243527
 20
133.708802
 30
0.0
 40
175.3820482077
100
AcDbArc
 50
96.442507
 51
96.603672
  0
LINE
  5
4DA
330
20C
100
AcDbEntity
  8
7_ALL_FEATURES
  6
Continuous
 62
     9
100
AcDbLine
 10
393.564578
 20
307.983303
 30
0.0
 11
393.672738
 21
307.995482
 31
0.0
  0
LINE
  5
4DB
330
20C
100
AcDbEntity
  8
7_ALL_FEATURES
  6
Continuous
 62
     9
100
AcDbLine
 10
393.585413
 20
307.937176
 30
0.0
 11
393.694693
 21
307.946603
 31
0.0
  0
LINE
  5
4DC
330
20C
100
AcDbEntity
  8
7_ALL_FEATURES
  6
Continuous
 62
     9
100
AcDbLine
 10
393.672738
 20
307.995482
 30
0.0
 11
393.986165
 21
308.030393
 31
0.0
  0
LINE
  5
4DD
330
20C
100
AcDbEntity
  8
7_ALL_FEATURES
  6
Continuous
 62
     9
100
AcDbLine
 10
393.986165
 20
308.030393
 30
0.0
 11
394.022201
 21
308.034371
 31
0.0
  0
LINE
  5
4DE
330
20C
100
AcDbEntity
  8
7_ALL_FEATURES
  6
Continuous
 62
     9
100
AcDbLine
 10
394.011129
 20
307.973901
 30
0.0
 11
394.04749
 21
307.977037
 31
0.0
  0
ARC
  5
4DF
330
20C
100
AcDbEntity
  8
7_ALL_FEATURES
  6
Continuous
 62
     9
100
AcDbCircle
 10
414.027454
 20
125.016809
 30
0.0
 40
184.107680591
100
AcDbArc
 50
83.609691
 51
96.238111
  0
ARC
  5
4E0
330
20C
100
AcDbEntity
  8
7_ALL_FEATURES
  6
Continuous
 62
     9
100
AcDbCircle
 10
414.820519
 20
133.769807
 30
0.0
 40
175.3208967457
100
AcDbArc
 50
83.207237
 51
83.54888
  0
ARC
  5
4E1
330
20C
100
AcDbEntity
  8
7_ALL_FEATURES
  6
Continuous
 62
     9
100
AcDbCircle
 10
414.973792
 20
135.051263
 30
0.0
 40
174.0303077269
100
AcDbArc
 50
82.714061
 51
83.207444
  0
ARC
  5
4E2
330
20C
100
AcDbEntity
  8
7_ALL_FEATURES
  6
Continuous
 62
     9
100
AcDbCircle
 10
415.22121
 20
136.977694
 30
0.0
 40
172.0880533725
100
AcDbArc
 50
82.051257
 51
82.71443
  0
SPLINE
  5
4E3
330
20C
100
AcDbEntity
  8
7_ALL_FEATURES
  6
Continuous
 62
     9
100
AcDbSpline
 70
     0
 71
     3
 72
     9
 73
     5
 74
     0
 42
0.000000001
 43
0.0000001
 40
0.0
 40
0.0
 40
0.0
 40
0.0
 40
0.5190597081
 40
1.0
 40
1.0
 40
1.0
 40
1.0
 10
439.0187770744
 20
307.4123557087
 30
0.0
 10
445.0621345765
 20
306.5684491707
 30
0.0
 10
456.6291552727
 20
304.3232750117
 30
0.0
 10
467.8516114092
 20
300.6850515586
 30
0.0
 10
473.0797074543
 20
298.5325545133
 30
0.0
  0
ARC
  5
4E4
330
20C
100
AcDbEntity
  8
7_ALL_FEATURES
  6
Continuous
 62
     9
100
AcDbCircle
 10
432.148484
 20
199.115478
 30
0.0
 40
107.513349135
100
AcDbArc
 50
67.350214
 51
67.622437
  0
SPLINE
  5
4E5
330
20C
100
AcDbEntity
  8
7_ALL_FEATURES
  6
Continuous
 62
     9
100
AcDbSpline
 70
     0
 71
     3
 72
    22
 73
    18
 74
     0
 42
0.000000001
 43
0.0000001
 40
0.0
 40
0.0
 40
0.0
 40
0.0
 40
0.1584606206
 40
0.2303590131
 40
0.2972436445
 40
0.3593169742
 40
0.4170460653
 40
0.4712012209
 40
0.5228674699
 40
0.5733950371
 40
0.6242700557
 40
0.6769361193
 40
0.7326315309
 40
0.7922984696
 40
0.8565598471
 40
0.9257553344
 40
1.0
 40
1.0
 40
1.0
 40
1.0
 10
473.5515927998
 20
298.336961246
 30
0.0
 10
478.0277007864
 20
296.4691498572
 30
0.0
 10
484.3782111206
 20
293.3094292401
 30
0.0
 10
491.8883836609
 20
288.1523935688
 30
0.0
 10
496.57328193
 20
284.150764642
 30
0.0
 10
500.4458679203
 20
279.9269229309
 30
0.0
 10
503.4652615306
 20
275.5163301761
 30
0.0
 10
505.5938308642
 20
270.9575540365
 30
0.0
 10
506.7980342752
 20
266.2955179962
 30
0.0
 10
507.0542139314
 20
261.5855568296
 30
0.0
 10
506.3566307135
 20
256.8902832923
 30
0.0
 10
504.720191957
 20
252.2699114247
 30
0.0
 10
502.1742498434
 20
247.7747181885
 30
0.0
 10
498.7544809002
 20
243.4461573891
 30
0.0
 10
494.5000527329
 20
239.3209986291
 30
0.0
 10
489.4544306274
 20
235.4348040987
 30
0.0
 10
485.7237133335
 20
233.1065466149
 30
0.0
 10
483.7476142594
 20
231.9843873049
 30
0.0
  0
ARC
  5
4E6
330
20C
100
AcDbEntity
  8
7_ALL_FEATURES
  6
Continuous
 62
     9
100
AcDbCircle
 10
441.419795
 20
306.568023
 30
0.0
 40
85.7575824359
100
AcDbArc
 50
296.522525
 51
299.575844
  0
SPLINE
  5
4E7
330
20C
100
AcDbEntity
  8
7_ALL_FEATURES
  6
Continuous
 62
     9
100
AcDbSpline
 70
     0
 71
     3
 72
    31
 73
    27
 74
     0
 42
0.000000001
 43
0.0000001
 40
0.0
 40
0.0
 40
0.0
 40
0.0
 40
0.0676719606
 40
0.1416022291
 40
0.2199895067
 40
0.3006853834
 40
0.3813811904
 40
0.4597683629
 40
0.5337004197
 40
0.6013706403
 40
0.6324659278
 40
0.6615933122
 40
0.6887365295
 40
0.7139613028
 40
0.7374315647
 40
0.7594250784
 40
0.7803408904
 40
0.8006854161
 40
0.8210299474
 40
0.8419459073
 40
0.8639393462
 40
0.8874095399
 40
0.912634573
 40
0.9397762726
 40
0.9689082484
 40
1.0
 40
1.0
 40
1.0
 40
1.0
 10
479.714810529
 20
229.835664875
 30
0.0
 10
475.1782746937
 20
227.5673969574
 30
0.0
 10
465.2920780956
 20
223.5930236338
 30
0.0
 10
449.3129852386
 20
219.3958122903
 30
0.0
 10
432.008466958
 20
216.8107866161
 30
0.0
 10
414.0298140788
 20
215.9382126792
 30
0.0
 10
396.0510720836
 20
216.8108025982
 30
0.0
 10
378.746705527
 20
219.3956484367
 30
0.0
 10
362.7667454015
 20
223.5937974725
 30
0.0
 10
350.7119879667
 20
228.4382202983
 30
0.0
 10
342.2973897084
 20
233.0505311283
 30
0.0
 10
336.8480119362
 20
236.698901529
 30
0.0
 10
332.132972532
 20
240.6006131823
 30
0.0
 10
328.1972578593
 20
244.7224993296
 30
0.0
 10
325.0807128509
 20
249.0302497985
 30
0.0
 10
322.8195507025
 20
253.4878499535
 30
0.0
 10
321.4460632024
 20
258.0539076365
 30
0.0
 10
320.9849031389
 20
262.6781773112
 30
0.0
 10
321.4459280913
 20
267.3024909622
 30
0.0
 10
322.8196241462
 20
271.8685004051
 30
0.0
 10
325.0807852973
 20
276.3260783489
 30
0.0
 10
328.1972164414
 20
280.6339382406
 30
0.0
 10
332.132915309
 20
284.7556661235
 30
0.0
 10
336.8481804737
 20
288.6576825985
 30
0.0
 10
342.2973404291
 20
292.3054588972
 30
0.0
 10
346.2604547675
 20
294.4785401271
 30
0.0
 10
348.3447573961
 20
295.5206914414
 30
0.0
  0
SPLINE
  5
4E8
330
20C
100
AcDbEntity
  8
7_ALL_FEATURES
  6
Continuous
 62
     9
100
AcDbSpline
 70
     0
 71
     3
 72
    11
 73
     7
 74
     0
 42
0.000000001
 43
0.0000001
 40
0.0
 40
0.0
 40
0.0
 40
0.0
 40
0.2289474358
 40
0.4736950831
 40
0.731720213
 40
1.0
 40
1.0
 40
1.0
 40
1.0
 10
343.4000150237
 20
298.6255792538
 30
0.0
 10
346.6662267344
 20
300.2586851091
 30
0.0
 10
353.6131850916
 20
303.2667658103
 30
0.0
 10
364.7144819301
 20
306.911395226
 30
0.0
 10
376.6836039294
 20
309.7902495204
 30
0.0
 10
384.9767898402
 20
311.1443638206
 30
0.0
 10
389.2211396772
 20
311.6885264427
 30
0.0
  0
ARC
  5
4E9
330
20C
100
AcDbEntity
  8
7_ALL_FEATURES
  6
Continuous
 62
     9
100
AcDbCircle
 10
412.9231
 20
126.815248
 30
0.0
 40
186.3864591442
100
AcDbArc
 50
97.007191
 51
97.305838
  0
LINE
  5
4EA
330
20C
100
AcDbEntity
  8
7_ALL_FEATURES
  6
Continuous
 62
     9
100
AcDbLine
 10
390.185087
 20
311.809558
 30
0.0
 11
390.380433
 21
311.833465
 31
0.0
  0
LINE
  5
4EB
330
20C
100
AcDbEntity
  8
7_ALL_FEATURES
  6
Continuous
 62
     9
100
AcDbLine
 10
390.188322
 20
311.802978
 30
0.0
 11
390.380433
 21
311.833465
 31
0.0
  0
ARC
  5
4EC
330
20C
100
AcDbEntity
  8
7_ALL_FEATURES
  6
Continuous
 62
     9
100
AcDbCircle
 10
413.21644
 20
124.384656
 30
0.0
 40
188.8346865396
100
AcDbArc
 50
95.746297
 51
96.945848
  0
ARC
  5
4ED
330
20C
100
AcDbEntity
  8
7_ALL_FEATURES
  6
Continuous
 62
     9
100
AcDbCircle
 10
413.500744
 20
121.663672
 30
0.0
 40
191.5704639036
100
AcDbArc
 50
95.476757
 51
95.749419
  0
SPLINE
  5
4EE
330
20C
100
AcDbEntity
  8
7_ALL_FEATURES
  6
Continuous
 62
     9
100
AcDbSpline
 70
     0
 71
     3
 72
    20
 73
    16
 74
     0
 42
0.000000001
 43
0.0000001
 40
0.0
 40
0.0
 40
0.0
 40
0.0
 40
0.1546029447
 40
0.3086347528
 40
0.4569514645
 40
0.5275130396
 40
0.59496345
 40
0.6588763592
 40
0.718924242
 40
0.7749042556
 40
0.8267712332
 40
0.8746779461
 40
0.9190191888
 40
0.9604709993
 40
1.0
 40
1.0
 40
1.0
 40
1.0
 10
395.2168870271
 20
312.3596164181
 30
0.0
 10
402.2334053621
 20
313.0323695725
 30
0.0
 10
416.3248729677
 20
313.6100163992
 30
0.0
 10
437.1508705267
 20
312.2761034083
 30
0.0
 10
453.9410429639
 20
309.3419442133
 30
0.0
 10
466.5429064631
 20
305.9046357243
 30
0.0
 10
475.2502564302
 20
302.8916122889
 30
0.0
 10
483.2730137066
 20
299.4352574741
 30
0.0
 10
490.5228823358
 20
295.5729066953
 30
0.0
 10
496.9201636878
 20
291.3456759226
 30
0.0
 10
502.3945604547
 20
286.7968172167
 30
0.0
 10
506.8846770197
 20
281.9713239174
 30
0.0
 10
510.3361234836
 20
276.9138355191
 30
0.0
 10
512.6986731708
 20
271.6768442074
 30
0.0
 10
513.5295879133
 20
268.0476236046
 30
0.0
 10
513.7412595443
 20
266.2578810121
 30
0.0
  0
ARC
  5
4EF
330
20C
100
AcDbEntity
  8
7_ALL_FEATURES
  6
Continuous
 62
     9
100
AcDbCircle
 10
488.84679
 20
263.309776
 30
0.0
 40
25.0684249678
100
AcDbArc
 50
358.276099
 51
6.753745
  0
SPLINE
  5
4F0
330
20C
100
AcDbEntity
  8
7_ALL_FEATURES
  6
Continuous
 62
     9
100
AcDbSpline
 70
     0
 71
     3
 72
    20
 73
    16
 74
     0
 42
0.000000001
 43
0.0000001
 40
0.0
 40
0.0
 40
0.0
 40
0.0
 40
0.0627838689
 40
0.1302824876
 40
0.2755965074
 40
0.4273050069
 40
0.5755605146
 40
0.6454892345
 40
0.7112140488
 40
0.7719480957
 40
0.8271898341
 40
0.8768318118
 40
0.9213045004
 40
0.9617336212
 40
1.0
 40
1.0
 40
1.0
 40
1.0
 10
442.3261350727
 20
257.7077996904
 30
0.0
 10
440.8698278387
 20
256.9796460734
 30
0.0
 10
437.753746388
 20
255.6527400763
 30
0.0
 10
430.9233167004
 20
253.5198629889
 30
0.0
 10
421.5593779027
 20
251.9181716598
 30
0.0
 10
409.9788233169
 20
251.6669774419
 30
0.0
 10
400.4163516888
 20
252.8526156763
 30
0.0
 10
393.2717265045
 20
254.6650846745
 30
0.0
 10
388.4634468206
 20
256.36934336
 30
0.0
 10
384.2037518996
 20
258.4078800616
 30
0.0
 10
380.5810685539
 20
260.7405405746
 30
0.0
 10
377.6705346519
 20
263.3245629258
 30
0.0
 10
375.5370988181
 20
266.120011401
 30
0.0
 10
374.245749767
 20
269.0804570679
 30
0.0
 10
373.9890938949
 20
271.1406858617
 30
0.0
 10
374.0165924576
 20
272.1326832041
 30
0.0
  0
SPLINE
  5
4F1
330
20C
100
AcDbEntity
  8
7_ALL_FEATURES
  6
Continuous
 62
     9
100
AcDbSpline
 70
     0
 71
     3
 72
    28
 73
    24
 74
     0
 42
0.000000001
 43
0.0000001
 40
0.0
 40
0.0
 40
0.0
 40
0.0
 40
0.0668191809
 40
0.1393775509
 40
0.2162751083
 40
0.2958282134
 40
0.3762022288
 40
0.455516526
 40
0.5319495509
 40
0.6038480375
 40
0.6698512831
 40
0.729045351
 40
0.7560086352
 40
0.7812486773
 40
0.8270220311
 40
0.8481577645
 40
0.8685639868
 40
0.8886813831
 40
0.9089785429
 40
0.9299066315
 40
0.9518591989
 40
0.9751488283
 40
1.0
 40
1.0
 40
1.0
 40
1.0
 10
479.0522951513
 20
230.2436262484
 30
0.0
 10
475.0225486371
 20
228.2287529913
 30
0.0
 10
466.3032186988
 20
224.6408387352
 30
0.0
 10
452.2439922425
 20
220.6751795271
 30
0.0
 10
437.0130133976
 20
217.9914767744
 30
0.0
 10
421.0779098352
 20
216.6745442255
 30
0.0
 10
404.9261612063
 20
216.7647079487
 30
0.0
 10
389.0539259587
 20
218.2592602585
 30
0.0
 10
373.9477626838
 20
221.1116207844
 30
0.0
 10
360.0658741394
 20
225.2347064814
 30
0.0
 10
347.8286228335
 20
230.5036576344
 30
0.0
 10
339.0347103483
 20
235.8857151934
 30
0.0
 10
333.2326411925
 20
240.6772460508
 30
0.0
 10
328.6017017453
 20
245.3965809915
 30
0.0
 10
325.0311104412
 20
250.5949266263
 30
0.0
 10
322.9154048067
 20
256.1142774853
 30
0.0
 10
322.0926531821
 20
260.2111404186
 30
0.0
 10
322.0062505582
 20
264.3329392773
 30
0.0
 10
322.6567762157
 20
268.4390883004
 30
0.0
 10
324.0349401897
 20
272.4901258512
 30
0.0
 10
326.122808951
 20
276.451825959
 30
0.0
 10
328.8973872238
 20
280.2941484912
 30
0.0
 10
331.1135813962
 20
282.6773293304
 30
0.0
 10
332.317084658
 20
283.8432281541
 30
0.0
  0
ARC
  5
4F2
330
20C
100
AcDbEntity
  8
7_ALL_FEATURES
  6
Continuous
 62
     9
100
AcDbCircle
 10
365.766337
 20
249.314972
 30
0.0
 40
48.0734120852
100
AcDbArc
 50
133.877632
 51
134.090624
  0
SPLINE
  5
4F3
330
20C
100
AcDbEntity
  8
7_ALL_FEATURES
  6
Continuous
 62
     9
100
AcDbSpline
 70
     0
 71
     3
 72
     9
 73
     5
 74
     0
 42
0.000000001
 43
0.0000001
 40
0.0
 40
0.0
 40
0.0
 40
0.0
 40
0.4733858196
 40
1.0
 40
1.0
 40
1.0
 40
1.0
 10
332.4456711853
 20
283.9673338982
 30
0.0
 10
334.7324400158
 20
286.1662310345
 30
0.0
 10
340.0206205569
 20
290.342211757
 30
0.0
 10
345.850687369
 20
293.6878447347
 30
0.0
 10
349.0072727738
 20
295.2661374371
 30
0.0
  0
SPLINE
  5
4F4
330
20C
100
AcDbEntity
  8
7_ALL_FEATURES
  6
Continuous
 62
     9
100
AcDbSpline
 70
     0
 71
     3
 72
    27
 73
    23
 74
     0
 42
0.000000001
 43
0.0000001
 40
0.0
 40
0.0
 40
0.0
 40
0.0
 40
0.0676995891
 40
0.1416582522
 40
0.2200775047
 40
0.3008052261
 40
0.3815332279
 40
0.4599516011
 40
0.5339128324
 40
0.6016100213
 40
0.6617969055
 40
0.6889510312
 40
0.7141860992
 40
0.7595285264
 40
0.7804526175
 40
0.8008052277
 40
0.8211578843
 40
0.8420820234
 40
0.8874251412
 40
0.9126579471
 40
0.9398111897
 40
1.0
 40
1.0
 40
1.0
 40
1.0
 10
442.7569061211
 20
256.8714030927
 30
0.0
 10
440.7728484729
 20
255.8793742686
 30
0.0
 10
436.4491778635
 20
254.1411630404
 30
0.0
 10
429.4607360711
 20
252.3056505247
 30
0.0
 10
421.892692657
 20
251.175017256
 30
0.0
 10
414.0298091256
 20
250.7934158903
 30
0.0
 10
406.1667398594
 20
251.1750413779
 30
0.0
 10
398.5992373451
 20
252.3053925658
 30
0.0
 10
391.608783368
 20
254.1418543419
 30
0.0
 10
385.4548614934
 20
256.6159864904
 30
0.0
 10
381.060409985
 20
259.2232328432
 30
0.0
 10
378.2120369283
 20
261.5801878263
 30
0.0
 10
375.9973256988
 20
263.8975746754
 30
0.0
 10
374.3600779937
 20
266.4796863884
 30
0.0
 10
373.5387847822
 20
269.212451842
 30
0.0
 10
373.3368800783
 20
271.2349617186
 30
0.0
 10
373.5387105394
 20
273.2574919394
 30
0.0
 10
374.3602181989
 20
275.9902335712
 30
0.0
 10
375.9973872631
 20
278.5722313405
 30
0.0
 10
378.2120155973
 20
280.8897747578
 30
0.0
 10
381.059709392
 20
283.2464492444
 30
0.0
 10
383.5387209733
 20
284.7165548359
 30
0.0
 10
385.302661804
 20
285.5985252513
 30
0.0
  0
SPLINE
  5
4F5
330
20C
100
AcDbEntity
  8
7_ALL_FEATURES
  6
Continuous
 62
     9
100
AcDbSpline
 70
     0
 71
     3
 72
    13
 73
     9
 74
     0
 42
0.000000001
 43
0.0000001
 40
0.0
 40
0.0
 40
0.0
 40
0.0
 40
0.1026883768
 40
0.2078922792
 40
0.4352041919
 40
0.5616500757
 40
0.6977907525
 40
1.0
 40
1.0
 40
1.0
 40
1.0
 10
454.0427827583
 20
272.1409745854
 30
0.0
 10
454.0615267009
 20
271.4813914136
 30
0.0
 10
453.9656795884
 20
270.1384985987
 30
0.0
 10
453.2248272072
 20
267.4264376807
 30
0.0
 10
451.6636912968
 20
264.8525239162
 30
0.0
 10
449.5202277809
 20
262.5422836038
 30
0.0
 10
446.7463416847
 20
260.1896349737
 30
0.0
 10
444.3182400516
 20
258.7213766753
 30
0.0
 10
442.5879019122
 20
257.8399103172
 30
0.0
  0
ARC
  5
4F6
330
20C
100
AcDbEntity
  8
7_ALL_FEATURES
  6
Continuous
 62
     9
100
AcDbCircle
 10
424.857364
 20
292.646189
 30
0.0
 40
39.0621172725
100
AcDbArc
 50
296.564495
 51
296.99458
  0
ARC
  5
4F7
330
20C
100
AcDbEntity
  8
7_ALL_FEATURES
  6
Continuous
 62
     9
100
AcDbCircle
 10
339.252596
 20
263.307466
 30
0.0
 40
25.1082117483
100
AcDbArc
 50
173.142929
 51
181.715894
  0
SPLINE
  5
4F8
330
20C
100
AcDbEntity
  8
7_ALL_FEATURES
  6
Continuous
 62
     9
100
AcDbSpline
 70
     0
 71
     3
 72
    13
 73
     9
 74
     0
 42
0.000000001
 43
0.0000001
 40
0.0
 40
0.0
 40
0.0
 40
0.0
 40
0.1018705515
 40
0.2076408338
 40
0.3192384274
 40
0.4381338011
 40
0.7010085429
 40
1.0
 40
1.0
 40
1.0
 40
1.0
 10
314.3239816241
 20
266.3052099583
 30
0.0
 10
314.5068792123
 20
267.8280933327
 30
0.0
 10
315.1650495908
 20
270.9040795844
 30
0.0
 10
316.9641067011
 20
275.3831233116
 30
0.0
 10
319.56408568
 20
279.7491019884
 30
0.0
 10
324.2169518213
 20
285.5650149221
 30
0.0
 10
332.0444883564
 20
292.312915331
 30
0.0
 10
339.3734798468
 20
296.6123116653
 30
0.0
 10
343.4000150237
 20
298.6255792538
 30
0.0
  0
DIMENSION
  5
4F9
330
20C
100
AcDbEntity
  8
0
  6
Continuous
 62
     2
100
AcDbDimension
280
     0
  2
*D1
 10
220.274492
 20
343.111867
 30
0.0
 11
234.298006
 21
357.165319
 31
0.0
 70
   163
  1
%%c<>
 71
     1
 42
200.0
 73
     0
 74
     0
 75
     0
  3
DIMSTYLE_1
100
AcDbDiametricDimension
 15
63.869723
 25
218.462165
 35
0.0
 40
0.0
  0
DIMENSION
  5
4FA
330
20C
100
AcDbEntity
  8
0
  6
Continuous
 62
     2
100
AcDbDimension
280
     0
  2
*D2
 10
179.19378
 20
295.686056
 30
0.0
 11
158.257154
 21
289.707456
 31
0.0
 70
   163
  1
%%c<>
 71
     2
 42
80.0
 73
     0
 74
     0
 75
     0
  3
DIMSTYLE_2
100
AcDbDiametricDimension
 15
104.950434
 25
265.887976
 35
0.0
 40
0.0
  0
DIMENSION
  5
4FB
330
20C
100
AcDbEntity
  8
0
  6
Continuous
 62
     2
100
AcDbDimension
280
     0
  2
*D3
 10
270.790879
 20
130.011108
 30
0.0
 11
270.790879
 21
121.516597
 31
0.0
 70
   160
 71
     2
 42
17.243956
 73
     0
 74
     0
 75
     0
  3
DIMSTYLE_3
100
AcDbAlignedDimension
 13
260.600589
 23
112.767152
 33
0.0
 14
259.807559
 24
130.011108
 34
0.0
 50
90.0
100
AcDbRotatedDimension
  0
INSERT
  5
4FC
330
20C
100
AcDbEntity
  8
0
  6
Continuous
 62
     2
100
AcDbBlockReference
  2
LOGO2_BL0
 10
507.804324
 20
36.573716
 30
0.0
  0
ACAD_TABLE
  5
4FD
102
{ACAD_XDICTIONARY
360
554
102
}
330
20C
100
AcDbEntity
  8
0
  6
Continuous
 62
     2
160
              3232
310
A00C000017000000880000001D000000000000000000F03F000000000000000000000000000000005F288D05A7DF7E400000000000000000000000000000F03F00000000000000007DC58A826F09494000000000000000000000000000000000000000000000F03F0000000000000000000000000000000000000000000000
310
000000000000000000000000000000F03F54000000200000000200000000000000000000000000000000000000000000000000000000000000008056400000000000000000000000000000000000000000000000000000000000000000000000000000F03F5400000020000000020000000000000000000000000000000000
310
00000000000000000000000000000000000000000000000044C0000000000000000000000000000000000000000000000000000000000000F03F5400000020000000020000000000000000003E4000000000000018C00000000000000000000000000080564000000000000018C00000000000000000000000000000000000
310
00000000000000000000000000F03F5400000020000000020000000000000000003E4000000000000028C00000000000000000000000000080564000000000000028C0000000000000000000000000000000000000000000000000000000000000F03F5400000020000000020000000000000000003E4000000000000036C0
310
0000000000000000000000000080564000000000000036C0000000000000000000000000000000000000000000000000000000000000F03F54000000200000000200000000000000000000000000000000003BC0000000000000000000000000008056400000000000003BC000000000000000000000000000000000000000
310
0000000000000000000000F03F540000002000000002000000000000000000000000000000000044C00000000000000000000000000080564000000000000044C0000000000000000000000000000000000000000000000000000000000000F03F5400000020000000020000000000000000003E4000000000000000000000
310
0000000000000000000000003E400000000000003BC0000000000000000000000000000000000000000000000000000000000000F03F540000002000000002000000000000000080514000000000000000000000000000000000000000000080514000000000000028C0000000000000000000000000000000000000000000
310
000000000000000000F03F540000002000000002000000000000000080564000000000000000000000000000000000000000000080564000000000000044C0000000000000000000000000000000000000000000000000000000000000F03F0C000000100000000B000000C400000026000000CDCCCCCCCC7C3F4000000000
310
000012C0000000000000000000000000000000000000000000000000000000000000F03F000000000000F03F0000000000000000000000000000000041003000350037005F0043005F003000300037000000000014000000010000000000000000000840333333333333EB3F0000000000000000000000000000F03F000000
310
00000000000000000000000000000000000000000000000000000000000000000000000000740078007400000000000000BC000000260000003333333333DF514000000000000013C0000000000000000000000000000000000000000000000000000000000000F03F000000000000F03F0000000000000000000000000000
310
00005200650076003A0030003000000000000C000000010000000000000000000C40333333333333EB3F0000000000000000000000000000F03F00000000000000000000000000000000000000000000000000000000000000000000000000000000740078007400000000000000C000000026000000CDCCCCCCCC7C3F4000
310
000000008026C0000000000000000000000000000000000000000000000000000000000000F03F000000000000F03F000000000000000000000000000000005300630061006C0065003A0031003A003100000012000000010000000000000000000C40333333333333EB3F0000000000000000000000000000F03F00000000
310
000000000000000000000000000000000000000000000000000000000000000000000000740078007400000000000000B4000000260000003333333333DF514000000000008025C0000000000000000000000000000000000000000000000000000000000000F03F000000000000F03F000000000000000000000000000000
310
00410032000000000004000000010000000000000000000C40333333333333EB3F0000000000000000000000000000F03F00000000000000000000000000000000000000000000000000000000000000000000000000000000740078007400000000000000F000000026000000CDCCCCCCCC7C3F4000000000004032C00000
310
00000000000000000000000000000000000000000000000000000000F03F000000000000F03F00000000000000000000000000000000460052004F004E0054002E00530045004D0049002000500052004F0046004F004E0044004F00200054004F004E0044004F00200043004F004D0042004F003400000000004000000001
310
0000000000000000000440333333333333EB3F0000000000000000000000000000F03F00000000000000000000000000000000000000000000000000000000000000000000000000000000740078007400000000000000C800000026000000CDCCCCCCCC7C3F400000000000C039C000000000000000000000000000000000
310
0000000000000000000000000000F03F000000000000F03F0000000000000000000000000000000044004100540045003A00310032002E00310032002E003100390000001A000000010000000000000000000440333333333333EB3F0000000000000000000000000000F03F00000000000000000000000000000000000000
310
0000000000000000000000000000000000000000007400780074000000000000001801000026000000CDCCCCCCCCCCF73F0000000000903DC0000000000000000000000000000000000000000000000000000000000000F03F000000000000F03F0000000000000000000000000000000041006E007900200069006E007400
310
65006700720061006C0020006F00720020007000610072007400690061006C00200072006500700072006F00640075006300740069006F006E00730020006100720065002000700072006F0068006900620069007400650064000000000068000000010000000000000000000240333333333333EB3F000000000000000000
310
0000000000F03F000000000000000000000000000000000000000000000000000000000000000000000000000000007400780074000000000000002001000026000000CDCCCCCCCCCCF73F00000000007840C0000000000000000000000000000000000000000000000000000000000000F03F000000000000F03F00000000
310
00000000000000000000000077006900740068006F007500740020007000720069006F007200200061007500740068006F007200690073006100740069006F006E0020006F00660020004C002000260020004C0020004C007500630065002000260020004C006900670068007400200073002E0072002E006C002E002C0000
310
0072000000010000000000000000000240333333333333EB3F0000000000000000000000000000F03F00000000000000000000000000000000000000000000000000000000000000000000000000000000740078007400000000000000F800000026000000CDCCCCCCCCCCF73F00000000002842C000000000000000000000
310
0000000000000000000000000000000000000000F03F000000000000F03F0000000000000000000000000000000069006E0020006100630063006F007200640061006E006300650020007700690074006800200074006800650020006C0061007700200069006E00200066006F007200630065002E00000000004800000001
310
0000000000000000000240333333333333EB3F0000000000000000000000000000F03F00000000000000000000000000000000000000000000000000000000000000000000000000000000740078007400000000000000D800000026000000CDCCCCCCCCCCF73F0000000000D843C000000000000000000000000000000000
310
0000000000000000000000000000F03F000000000000F03F0000000000000000000000000000000041006C006C0020007200690067006800740073002000720065007300650072007600650064002E000000000028000000010000000000000000000240333333333333EB3F0000000000000000000000000000F03F000000
310
00000000000000000000000000000000000000000000000000000000000000000000000000740078007400000000000000080000001F000000
100
AcDbBlockReference
  2
*T5
 10
493.978277
 20
50.073716
 30
0.0
100
AcDbTable
342
526
343
213
 11
1.0
 21
0.0
 31
0.0
 90
       22
 91
        5
 92
        5
 93
        0
 94
        0
 95
        0
 96
        0
141
6.0
141
6.0
141
10.0
141
5.0
141
13.0
142
10.0
142
10.0
142
10.0
142
40.0
142
20.0
171
     1
172
     0
173
     0
174
     0
175
     3
176
     4
 91
       32
178
     0
145
0.0
140
3.5
 92
        0
301
CELL_VALUE
 93
        2
 90
        4
  1
 
 94
        0
300

302
 
304
ACVALUE_END
171
     1
172
     0
173
     1
174
     0
175
     1
176
     1
 91
        0
178
     0
145
0.0
 92
        0
301
CELL_VALUE
 93
        3
 90
        0
 91
        0
 94
        0
300

302

304
ACVALUE_END
171
     1
172
     0
173
     1
174
     0
175
     1
176
     1
 91
        0
178
     0
145
0.0
 92
        0
301
CELL_VALUE
 93
        3
 90
        0
 91
        0
 94
        0
300

302

304
ACVALUE_END
171
     1
172
     0
173
     0
174
     0
175
     1
176
     1
 91
       49
178
     0
145
0.0
170
     4
  7
TEXTSTYLE_5
140
3.0
 92
        0
301
CELL_VALUE
 93
        2
 90
        4
  1
A057_C_007
 94
        0
300

302
A057_C_007
304
ACVALUE_END
171
     1
172
     0
173
     0
174
     0
175
     1
176
     1
 91
       49
178
     0
145
0.0
170
     4
  7
TEXTSTYLE_5
140
3.5
 92
        0
301
CELL_VALUE
 93
        2
 90
        4
  1
Rev:00
 94
        0
300

302
Rev:00
304
ACVALUE_END
171
     1
172
     0
173
     1
174
     0
175
     1
176
     1
 91
        0
178
     0
145
0.0
 92
        0
301
CELL_VALUE
 93
        3
 90
        0
 91
        0
 94
        0
300

302

304
ACVALUE_END
171
     1
172
     0
173
     1
174
     0
175
     1
176
     1
 91
        0
178
     0
145
0.0
 92
        0
301
CELL_VALUE
 93
        3
 90
        0
 91
        0
 94
        0
300

302

304
ACVALUE_END
171
     1
172
     0
173
     1
174
     0
175
     1
176
     1
 91
        0
178
     0
145
0.0
 92
        0
301
CELL_VALUE
 93
        3
 90
        0
 91
        0
 94
        0
300

302

304
ACVALUE_END
171
     1
172
     0
173
     0
174
     0
175
     1
176
     1
 91
       49
178
     0
145
0.0
170
     1
  7
TEXTSTYLE_5
140
3.5
 92
        0
301
CELL_VALUE
 93
        2
 90
        4
  1
Scale:1:1
 94
        0
300

302
Scale:1:1
304
ACVALUE_END
171
     1
172
     0
173
     0
174
     0
175
     1
176
     1
 91
       49
178
     0
145
0.0
170
     4
  7
TEXTSTYLE_5
140
3.5
 92
        0
301
CELL_VALUE
 93
        2
 90
        4
  1
A2
 94
        0
300

302
A2
304
ACVALUE_END
171
     1
172
     0
173
     1
174
     0
175
     1
176
     1
 91
        0
178
     0
145
0.0
 92
        0
301
CELL_VALUE
 93
        3
 90
        0
 91
        0
 94
        0
300

302

304
ACVALUE_END
171
     1
172
     0
173
     1
174
     0
175
     1
176
     1
 91
        0
178
     0
145
0.0
 92
        0
301
CELL_VALUE
 93
        3
 90
        0
 91
        0
 94
        0
300

302

304
ACVALUE_END
171
     1
172
     0
173
     1
174
     0
175
     1
176
     1
 91
        0
178
     0
145
0.0
 92
        0
301
CELL_VALUE
 93
        3
 90
        0
 91
        0
 94
        0
300

302

304
ACVALUE_END
171
     1
172
     0
173
     0
174
     0
175
     2
176
     1
 91
       49
178
     0
145
0.0
170
     4
  7
TEXTSTYLE_5
140
2.5
 92
        0
301
CELL_VALUE
 93
        2
 90
        4
  1
FRONT.SEMI PROFONDO TONDO COMBO4
 94
        0
300

302
FRONT.SEMI PROFONDO TONDO COMBO4
304
ACVALUE_END
171
     1
172
     0
173
     1
174
     0
175
     1
176
     1
 91
        0
178
     0
145
0.0
 92
        0
301
CELL_VALUE
 93
        3
 90
        0
 91
        0
 94
        0
300

302

304
ACVALUE_END
171
     1
172
     0
173
     1
174
     0
175
     1
176
     1
 91
        0
178
     0
145
0.0
 92
        0
301
CELL_VALUE
 93
        3
 90
        0
 91
        0
 94
        0
300

302

304
ACVALUE_END
171
     1
172
     0
173
     1
174
     0
175
     1
176
     1
 91
        0
178
     0
145
0.0
 92
        0
301
CELL_VALUE
 93
        3
 90
        0
 91
        0
 94
        0
300

302

304
ACVALUE_END
171
     1
172
     0
173
     1
174
     0
175
     1
176
     1
 91
        0
178
     0
145
0.0
 92
        0
301
CELL_VALUE
 93
        3
 90
        0
 91
        0
 94
        0
300

302

304
ACVALUE_END
171
     1
172
     0
173
     0
174
     0
175
     2
176
     1
 91
       49
178
     0
145
0.0
170
     4
  7
TEXTSTYLE_5
140
2.5
 92
        0
301
CELL_VALUE
 93
        2
 90
        4
  1
DATE:12.12.19
 94
        0
300

302
DATE:12.12.19
304
ACVALUE_END
171
     1
172
     0
173
     1
174
     0
175
     1
176
     1
 91
        0
178
     0
145
0.0
 92
        0
301
CELL_VALUE
 93
        3
 90
        0
 91
        0
 94
        0
300

302

304
ACVALUE_END
171
     1
172
     0
173
     0
174
     0
175
     5
176
     1
 91
       49
178
     0
145
0.0
170
     4
  7
TEXTSTYLE_5
140
2.25
 92
        0
301
CELL_VALUE
 93
        2
 90
        4
  1
Any integral or partial reproductions are prohibited \Pwithout prior authorisation of L & L Luce & Light s.r.l., \Pin accordance with the law in force. \PAll rights reserved.
 94
        0
300

302
Any integral or partial reproductions are prohibited \Pwithout prior authorisation of L & L Luce & Light s.r.l., \Pin accordance with the law in force. \PAll rights reserved.
304
ACVALUE_END
171
     1
172
     0
173
     1
174
     0
175
     1
176
     1
 91
        0
178
     0
145
0.0
 92
        0
301
CELL_VALUE
 93
        3
 90
        0
 91
        0
 94
        0
300

302

304
ACVALUE_END
171
     1
172
     0
173
     1
174
     0
175
     1
176
     1
 91
        0
178
     0
145
0.0
 92
        0
301
CELL_VALUE
 93
        3
 90
        0
 91
        0
 94
        0
300

302

304
ACVALUE_END
171
     1
172
     0
173
     1
174
     0
175
     1
176
     1
 91
        0
178
     0
145
0.0
 92
        0
301
CELL_VALUE
 93
        3
 90
        0
 91
        0
 94
        0
300

302

304
ACVALUE_END
171
     1
172
     0
173
     1
174
     0
175
     1
176
     1
 91
        0
178
     0
145
0.0
 92
        0
301
CELL_VALUE
 93
        3
 90
        0
 91
        0
 94
        0
300

302

304
ACVALUE_END
  0
ENDSEC
  0
SECTION
  2
OBJECTS
  0
DICTIONARY
  5
C
330
0
100
AcDbDictionary
281
     1
  3
ACAD_DETAILVIEWSTYLE
350
55D
  3
ACAD_GROUP
350
D
  3
ACAD_IMAGE_DICT
350
54D
  3
ACAD_LAYOUT
350
1A
  3
ACAD_MATERIAL
350
541
  3
ACAD_MLEADERSTYLE
350
55C
  3
ACAD_MLINESTYLE
350
17
  3
ACAD_PLOTSETTINGS
350
19
  3
ACAD_PLOTSTYLENAME
350
E
  3
ACAD_SCALELIST
350
503
  3
ACAD_SECTIONVIEWSTYLE
350
55E
  3
ACAD_TABLESTYLE
350
525
  3
ACAD_VISUALSTYLE
350
528
  3
ACDB_RECOMPOSE_DATA
350
55A
  3
AcDbVariableDictionary
350
556
  3
HOST_DOC_SETTINGS
350
54B
  3
MCS_STREAM_DICT
350
547
  0
SUN
  5
54A
330
1F4
100
AcDbSun
 90
        1
290
     0
 63
     7
421
 16777215
 40
1.0
291
     1
 91
  2455826
 92
 54000000
292
     0
 70
     2
 71
   256
280
     1
  0
DICTIONARY
  5
554
330
4FD
100
AcDbDictionary
280
     1
281
     1
  3
ACAD_XREC_ROUNDTRIP
360
555
  0
DICTIONARY
  5
55D
102
{ACAD_REACTORS
330
C
102
}
330
C
100
AcDbDictionary
281
     1
  0
DICTIONARY
  5
D
102
{ACAD_REACTORS
330
C
102
}
330
C
100
AcDbDictionary
281
     1
  0
DICTIONARY
  5
54D
102
{ACAD_REACTORS
330
C
102
}
330
C
100
AcDbDictionary
281
     1
  0
DICTIONARY
  5
1A
102
{ACAD_REACTORS
330
C
102
}
330
C
100
AcDbDictionary
281
     1
  3
Layout1
350
500
  3
Model
350
4FF
  0
DICTIONARY
  5
541
102
{ACAD_REACTORS
330
C
102
}
330
C
100
AcDbDictionary
281
     1
  3
ByBlock
350
543
  3
ByLayer
350
542
  3
Global
350
544
  0
DICTIONARY
  5
55C
102
{ACAD_REACTORS
330
C
102
}
330
C
100
AcDbDictionary
281
     1
  0
DICTIONARY
  5
17
102
{ACAD_REACTORS
330
C
102
}
330
C
100
AcDbDictionary
281
     1
  3
Standard
350
18
  0
DICTIONARY
  5
19
102
{ACAD_REACTORS
330
C
102
}
330
C
100
AcDbDictionary
281
     1
  0
ACDBDICTIONARYWDFLT
  5
E
102
{ACAD_REACTORS
330
C
102
}
330
C
100
AcDbDictionary
281
     1
  3
Normal
350
F
100
AcDbDictionaryWithDefault
340
F
  0
DICTIONARY
  5
503
102
{ACAD_REACTORS
330
C
102
}
330
C
100
AcDbDictionary
281
     1
  3
A0
350
504
  3
A1
350
505
  3
A2
350
506
  3
A3
350
507
  3
A4
350
508
  3
A5
350
509
  3
A6
350
50A
  3
A7
350
50B
  3
A8
350
50C
  3
A9
350
50D
  3
B0
350
50E
  3
B1
350
50F
  3
B2
350
510
  3
B3
350
511
  3
B4
350
512
  3
B5
350
513
  3
B6
350
514
  3
B7
350
515
  3
B8
350
516
  3
B9
350
517
  3
C0
350
518
  3
C1
350
519
  3
C2
350
51A
  3
C3
350
51B
  3
C4
350
51C
  3
C5
350
51D
  3
C6
350
51E
  3
C7
350
51F
  3
C8
350
520
  3
C9
350
521
  3
D0
350
522
  3
D1
350
523
  3
D2
350
524
  0
DICTIONARY
  5
55E
102
{ACAD_REACTORS
330
C
102
}
330
C
100
AcDbDictionary
281
     1
  0
DICTIONARY
  5
525
102
{ACAD_REACTORS
330
C
102
}
330
C
100
AcDbDictionary
281
     1
  3
Standard
350
526
  0
DICTIONARY
  5
528
102
{ACAD_REACTORS
330
C
102
}
330
C
100
AcDbDictionary
281
     1
  3
2dWireframe
350
52D
  3
Basic
350
530
  3
Brighten
350
534
  3
ColorChange
350
538
  3
Conceptual
350
532
  3
Dim
350
533
  3
EdgeColorOff
350
53B
  3
Facepattern
350
537
  3
Flat
350
529
  3
FlatWithEdges
350
52A
  3
Gouraud
350
52B
  3
GouraudWithEdges
350
52C
  3
Hidden
350
52F
  3
JitterOff
350
539
  3
Linepattern
350
536
  3
OverhangOff
350
53A
  3
Realistic
350
531
  3
Shaded
350
540
  3
Shaded with edges
350
53F
  3
Shades of Gray
350
53C
  3
Sketchy
350
53D
  3
Thicken
350
535
  3
Wireframe
350
52E
  3
X-Ray
350
53E
  0
XRECORD
  5
55A
102
{ACAD_REACTORS
330
C
102
}
330
C
100
AcDbXrecord
280
     1
 90
        1
330
4FD
330
526
  0
DICTIONARY
  5
556
102
{ACAD_REACTORS
330
C
102
}
330
C
100
AcDbDictionary
281
     1
  3
CANNOSCALE
350
557
  3
CTABLESTYLE
350
55B
  0
DICTIONARY
  5
54B
102
{ACAD_REACTORS
330
C
102
}
330
C
100
AcDbDictionary
281
     1
  3
NCDocParameters
350
54C
  0
DICTIONARY
  5
547
102
{ACAD_REACTORS
330
C
102
}
330
C
100
AcDbDictionary
281
     1
  3
MC_VERSION_DATA
350
550
  3
MCS_DOCUMENT_ID
350
548
  3
MCS_PARAMS_DATA
350
54E
  0
XRECORD
  5
555
102
{ACAD_REACTORS
330
554
102
}
330
554
100
AcDbXrecord
280
     1
102
ACAD_ROUNDTRIP_2008_TABLE_ENTITY
360
552
 70
     2
 90
        1
 10
0.0
 20
0.0
 30
0.0
 90
        0
 90
        4
361
553
  0
LAYOUT
  5
500
102
{ACAD_REACTORS
330
1A
102
}
330
1A
100
AcDbPlotSettings
  1

  2
none_device
  4
ISO_A2_(594.00_x_420.00_MM)
  6

 40
0.0
 41
0.0
 42
0.0
 43
0.0
 44
594.0
 45
420.0
 46
0.0
 47
0.0
 48
0.0
 49
0.0
140
0.0
141
0.0
142
1.0
143
1.0
 70
     0
 72
     1
 73
     0
 74
     0
  7

 75
     0
 76
     0
 77
     2
 78
   300
147
1.0
148
0.0
149
0.0
100
AcDbLayout
  1
Layout1
 70
     0
 71
     1
 10
0.0
 20
0.0
 11
594.0
 21
420.0
 12
0.0
 22
0.0
 32
0.0
 14
0.0
 24
0.0
 34
0.0
 15
0.0
 25
0.0
 35
0.0
146
0.0
 13
0.0
 23
0.0
 33
0.0
 16
1.0
 26
0.0
 36
0.0
 17
0.0
 27
1.0
 37
0.0
 76
     0
330
20D
  0
LAYOUT
  5
4FF
102
{ACAD_REACTORS
330
1A
102
}
330
1A
100
AcDbPlotSettings
  1

  2
none_device
  4
ISO_A2_(594.00_x_420.00_MM)
  6

 40
0.0
 41
0.0
 42
0.0
 43
0.0
 44
594.0
 45
420.0
 46
0.0
 47
0.0
 48
0.0
 49
0.0
140
0.0
141
0.0
142
1.0
143
1.0
 70
  1024
 72
     1
 73
     0
 74
     0
  7

 75
     0
 76
     0
 77
     2
 78
   300
147
1.0
148
0.0
149
0.0
100
AcDbLayout
  1
Model
 70
     0
 71
     0
 10
0.0
 20
0.0
 11
594.0
 21
420.0
 12
0.0
 22
0.0
 32
0.0
 14
0.0
 24
0.0
 34
0.0
 15
0.0
 25
0.0
 35
0.0
146
0.0
 13
0.0
 23
0.0
 33
0.0
 16
1.0
 26
0.0
 36
0.0
 17
0.0
 27
1.0
 37
0.0
 76
     0
330
20C
331
1F4
  0
MATERIAL
  5
543
102
{ACAD_REACTORS
330
541
102
}
330
541
100
AcDbMaterial
  1
ByBlock
 72
     1
 94
      127
  0
MATERIAL
  5
542
102
{ACAD_REACTORS
330
541
102
}
330
541
100
AcDbMaterial
  1
ByLayer
 72
     1
 94
      127
  0
MATERIAL
  5
544
102
{ACAD_REACTORS
330
541
102
}
330
541
100
AcDbMaterial
  1
Global
 72
     1
 94
      127
  0
MLINESTYLE
  5
18
102
{ACAD_REACTORS
330
17
102
}
330
17
100
AcDbMlineStyle
  2
STANDARD
 70
     0
  3

 62
   256
 51
90.0
 52
90.0
 71
     2
 49
0.5
 62
   256
  6
BYLAYER
 49
-0.5
 62
   256
  6
BYLAYER
  0
ACDBPLACEHOLDER
  5
F
102
{ACAD_REACTORS
330
E
102
}
330
E
  0
SCALE
  5
504
102
{ACAD_REACTORS
330
503
102
}
330
503
100
AcDbScale
 70
     0
300
1:1
140
1.0
141
1.0
290
     1
  0
SCALE
  5
505
102
{ACAD_REACTORS
330
503
102
}
330
503
100
AcDbScale
 70
     0
300
1:2
140
1.0
141
2.0
290
     0
  0
SCALE
  5
506
102
{ACAD_REACTORS
330
503
102
}
330
503
100
AcDbScale
 70
     0
300
1:4
140
1.0
141
4.0
290
     0
  0
SCALE
  5
507
102
{ACAD_REACTORS
330
503
102
}
330
503
100
AcDbScale
 70
     0
300
1:5
140
1.0
141
5.0
290
     0
  0
SCALE
  5
508
102
{ACAD_REACTORS
330
503
102
}
330
503
100
AcDbScale
 70
     0
300
1:8
140
1.0
141
8.0
290
     0
  0
SCALE
  5
509
102
{ACAD_REACTORS
330
503
102
}
330
503
100
AcDbScale
 70
     0
300
1:10
140
1.0
141
10.0
290
     0
  0
SCALE
  5
50A
102
{ACAD_REACTORS
330
503
102
}
330
503
100
AcDbScale
 70
     0
300
1:16
140
1.0
141
16.0
290
     0
  0
SCALE
  5
50B
102
{ACAD_REACTORS
330
503
102
}
330
503
100
AcDbScale
 70
     0
300
1:20
140
1.0
141
20.0
290
     0
  0
SCALE
  5
50C
102
{ACAD_REACTORS
330
503
102
}
330
503
100
AcDbScale
 70
     0
300
1:30
140
1.0
141
30.0
290
     0
  0
SCALE
  5
50D
102
{ACAD_REACTORS
330
503
102
}
330
503
100
AcDbScale
 70
     0
300
1:40
140
1.0
141
40.0
290
     0
  0
SCALE
  5
50E
102
{ACAD_REACTORS
330
503
102
}
330
503
100
AcDbScale
 70
     0
300
1:50
140
1.0
141
50.0
290
     0
  0
SCALE
  5
50F
102
{ACAD_REACTORS
330
503
102
}
330
503
100
AcDbScale
 70
     0
300
1:100
140
1.0
141
100.0
290
     0
  0
SCALE
  5
510
102
{ACAD_REACTORS
330
503
102
}
330
503
100
AcDbScale
 70
     0
300
2:1
140
2.0
141
1.0
290
     0
  0
SCALE
  5
511
102
{ACAD_REACTORS
330
503
102
}
330
503
100
AcDbScale
 70
     0
300
4:1
140
4.0
141
1.0
290
     0
  0
SCALE
  5
512
102
{ACAD_REACTORS
330
503
102
}
330
503
100
AcDbScale
 70
     0
300
8:1
140
8.0
141
1.0
290
     0
  0
SCALE
  5
513
102
{ACAD_REACTORS
330
503
102
}
330
503
100
AcDbScale
 70
     0
300
10:1
140
10.0
141
1.0
290
     0
  0
SCALE
  5
514
102
{ACAD_REACTORS
330
503
102
}
330
503
100
AcDbScale
 70
     0
300
100:1
140
100.0
141
1.0
290
     0
  0
SCALE
  5
515
102
{ACAD_REACTORS
330
503
102
}
330
503
100
AcDbScale
 70
     0
300
1/128" = 1'-0"
140
0.007812
141
12.0
290
     0
  0
SCALE
  5
516
102
{ACAD_REACTORS
330
503
102
}
330
503
100
AcDbScale
 70
     0
300
1/64" = 1'-0"
140
0.015625
141
12.0
290
     0
  0
SCALE
  5
517
102
{ACAD_REACTORS
330
503
102
}
330
503
100
AcDbScale
 70
     0
300
1/32" = 1'-0"
140
0.03125
141
12.0
290
     0
  0
SCALE
  5
518
102
{ACAD_REACTORS
330
503
102
}
330
503
100
AcDbScale
 70
     0
300
1/16" = 1'-0"
140
0.0625
141
12.0
290
     0
  0
SCALE
  5
519
102
{ACAD_REACTORS
330
503
102
}
330
503
100
AcDbScale
 70
     0
300
3/32" = 1'-0"
140
0.09375
141
12.0
290
     0
  0
SCALE
  5
51A
102
{ACAD_REACTORS
330
503
102
}
330
503
100
AcDbScale
 70
     0
300
1/8" = 1'-0"
140
0.125
141
12.0
290
     0
  0
SCALE
  5
51B
102
{ACAD_REACTORS
330
503
102
}
330
503
100
AcDbScale
 70
     0
300
3/16" = 1'-0"
140
0.1875
141
12.0
290
     0
  0
SCALE
  5
51C
102
{ACAD_REACTORS
330
503
102
}
330
503
100
AcDbScale
 70
     0
300
1/4" = 1'-0"
140
0.25
141
12.0
290
     0
  0
SCALE
  5
51D
102
{ACAD_REACTORS
330
503
102
}
330
503
100
AcDbScale
 70
     0
300
3/8" = 1'-0"
140
0.375
141
12.0
290
     0
  0
SCALE
  5
51E
102
{ACAD_REACTORS
330
503
102
}
330
503
100
AcDbScale
 70
     0
300
1/2" = 1'-0"
140
0.5
141
12.0
290
     0
  0
SCALE
  5
51F
102
{ACAD_REACTORS
330
503
102
}
330
503
100
AcDbScale
 70
     0
300
3/4" = 1'-0"
140
0.75
141
12.0
290
     0
  0
SCALE
  5
520
102
{ACAD_REACTORS
330
503
102
}
330
503
100
AcDbScale
 70
     0
300
1" = 1'-0"
140
1.0
141
12.0
290
     0
  0
SCALE
  5
521
102
{ACAD_REACTORS
330
503
102
}
330
503
100
AcDbScale
 70
     0
300
1-1/2" = 1'-0"
140
1.5
141
12.0
290
     0
  0
SCALE
  5
522
102
{ACAD_REACTORS
330
503
102
}
330
503
100
AcDbScale
 70
     0
300
3" = 1'-0"
140
3.0
141
12.0
290
     0
  0
SCALE
  5
523
102
{ACAD_REACTORS
330
503
102
}
330
503
100
AcDbScale
 70
     0
300
6" = 1'-0"
140
6.0
141
12.0
290
     0
  0
SCALE
  5
524
102
{ACAD_REACTORS
330
503
102
}
330
503
100
AcDbScale
 70
     0
300
1'-0" = 1'-0"
140
12.0
141
12.0
290
     0
  0
TABLESTYLE
  5
526
102
{ACAD_REACTORS
330
525
102
}
102
{ACAD_XDICTIONARY
360
558
102
}
330
525
100
AcDbTableStyle
  3
Standard
 70
     0
 71
     0
 40
0.06
 41
0.06
280
     0
281
     0
  7
STANDARD
140
4.5
170
     2
 62
     0
 63
   257
283
     0
 90
        4
 91
        0
  1

274
    -2
284
     1
 64
     0
275
    -2
285
     1
 65
     0
276
    -2
286
     1
 66
     0
277
    -2
287
     1
 67
     0
278
    -2
288
     1
 68
     0
279
    -2
289
     1
 69
     0
  7
STANDARD
140
6.0
170
     5
 62
     0
 63
   257
283
     0
 90
        4
 91
        0
  1

274
    -2
284
     1
 64
     0
275
    -2
285
     1
 65
     0
276
    -2
286
     1
 66
     0
277
    -2
287
     1
 67
     0
278
    -2
288
     1
 68
     0
279
    -2
289
     1
 69
     0
  7
STANDARD
140
4.5
170
     5
 62
     0
 63
   257
283
     0
 90
        4
 91
        0
  1

274
    -2
284
     1
 64
     0
275
    -2
285
     1
 65
     0
276
    -2
286
     1
 66
     0
277
    -2
287
     1
 67
     0
278
    -2
288
     1
 68
     0
279
    -2
289
     1
 69
     0
  0
VISUALSTYLE
  5
52D
102
{ACAD_REACTORS
330
528
102
}
330
528
100
AcDbVisualStyle
  2
2dWireframe
 70
     4
177
     3
291
     0
 70
    58
 90
        0
176
     1
 90
        2
176
     1
 90
        0
176
     1
 90
        0
176
     1
 40
0.6
176
     1
 40
30.0
176
     1
 62
     7
420
 16777215
176
     1
 90
        1
176
     1
 90
        4
176
     1
 62
     7
176
     1
 62
   257
176
     1
 90
        1
176
     1
 90
        1
176
     1
 40
1.0
176
     1
 90
        0
176
     1
 62
   257
176
     1
 40
1.0
176
     1
 90
        1
176
     1
 90
        6
176
     1
 90
        2
176
     1
 62
     7
176
     1
 90
        5
176
     1
 90
        0
176
     1
 90
        0
176
     1
290
     0
176
     1
 90
        1
176
     1
 40
0.0
176
     1
 90
        0
176
     1
290
     1
176
     1
290
     1
176
     1
290
     0
176
     1
290
     0
176
     1
290
     0
176
     1
290
     0
176
     1
290
     0
176
     1
290
     0
176
     1
290
     0
176
     1
 90
       50
176
     1
 40
0.0
176
     1
 40
1.0
176
     1
 90
        0
176
     1
 62
    18
420
        0
176
     1
 90
       50
176
     1
 90
        3
176
     1
 62
     5
420
      255
176
     1
290
     0
176
     1
 90
       50
176
     1
 90
       50
176
     1
 90
       50
176
     1
290
     0
176
     1
 90
       50
176
     1
 62
   256
176
     0
 40
1.0
176
     0
 90
        2
176
     1
  1
strokes_ogs.tif
176
     1
290
     0
176
     1
 40
1.0
176
     1
 40
1.0
176
     1
  0
VISUALSTYLE
  5
530
102
{ACAD_REACTORS
330
528
102
}
330
528
100
AcDbVisualStyle
  2
Basic
 70
     7
177
     3
291
     1
 70
    58
 90
        1
176
     1
 90
        0
176
     1
 90
        1
176
     1
 90
        0
176
     1
 40
0.6
176
     1
 40
30.0
176
     1
 62
     7
420
 16777215
176
     1
 90
        0
176
     1
 90
        4
176
     1
 62
     7
176
     1
 62
   257
176
     1
 90
        1
176
     1
 90
        1
176
     1
 40
1.0
176
     1
 90
        8
176
     1
 62
     7
176
     1
 40
1.0
176
     1
 90
        1
176
     1
 90
        6
176
     1
 90
        2
176
     1
 62
     7
176
     1
 90
        5
176
     1
 90
        0
176
     1
 90
        0
176
     1
290
     0
176
     1
 90
        1
176
     1
 40
0.0
176
     1
 90
        0
176
     1
290
     0
176
     1
290
     1
176
     1
290
     1
176
     1
290
     0
176
     1
290
     0
176
     1
290
     0
176
     1
290
     0
176
     1
290
     0
176
     1
290
     0
176
     1
 90
       50
176
     1
 40
0.0
176
     1
 40
1.0
176
     1
 90
        0
176
     1
 62
    18
420
        0
176
     1
 90
       50
176
     1
 90
        3
176
     1
 62
     5
420
      255
176
     1
290
     0
176
     1
 90
       50
176
     1
 90
       50
176
     1
 90
       50
176
     1
290
     0
176
     1
 90
       50
176
     1
 62
   256
176
     0
 40
1.0
176
     0
 90
        2
176
     1
  1
strokes_ogs.tif
176
     1
290
     0
176
     1
 40
1.0
176
     1
 40
1.0
176
     1
  0
VISUALSTYLE
  5
534
102
{ACAD_REACTORS
330
528
102
}
330
528
100
AcDbVisualStyle
  2
Brighten
 70
    12
177
     3
291
     1
 70
    58
 90
        2
176
     1
 90
        2
176
     1
 90
        0
176
     1
 90
        0
176
     1
 40
0.6
176
     1
 40
30.0
176
     1
 62
     7
420
 16777215
176
     1
 90
        1
176
     1
 90
        4
176
     1
 62
     7
176
     1
 62
   257
176
     1
 90
        1
176
     1
 90
        1
176
     1
 40
1.0
176
     1
 90
        8
176
     1
 62
     7
176
     1
 40
1.0
176
     1
 90
        1
176
     1
 90
        6
176
     1
 90
        2
176
     1
 62
     7
176
     1
 90
        5
176
     1
 90
        0
176
     1
 90
        0
176
     1
290
     0
176
     1
 90
        1
176
     1
 40
50.0
176
     1
 90
        0
176
     1
290
     0
176
     1
290
     1
176
     1
290
     1
176
     1
290
     0
176
     1
290
     0
176
     1
290
     0
176
     1
290
     0
176
     1
290
     0
176
     1
290
     0
176
     1
 90
       50
176
     1
 40
0.0
176
     1
 40
1.0
176
     1
 90
        0
176
     1
 62
    18
420
        0
176
     1
 90
       50
176
     1
 90
        3
176
     1
 62
     5
420
      255
176
     1
290
     0
176
     1
 90
       50
176
     1
 90
       50
176
     1
 90
       50
176
     1
290
     0
176
     1
 90
       50
176
     1
 62
   256
176
     0
 40
1.0
176
     0
 90
        2
176
     1
  1
strokes_ogs.tif
176
     1
290
     0
176
     1
 40
1.0
176
     1
 40
1.0
176
     1
  0
VISUALSTYLE
  5
538
102
{ACAD_REACTORS
330
528
102
}
330
528
100
AcDbVisualStyle
  2
ColorChange
 70
    16
177
     3
291
     1
 70
    58
 90
        2
176
     1
 90
        2
176
     1
 90
        3
176
     1
 90
        0
176
     1
 40
0.6
176
     1
 40
30.0
176
     1
 62
     8
420
  8421504
176
     1
 90
        1
176
     1
 90
        4
176
     1
 62
     7
176
     1
 62
   257
176
     1
 90
        1
176
     1
 90
        1
176
     1
 40
1.0
176
     1
 90
        8
176
     1
 62
     8
420
  8421504
176
     1
 40
1.0
176
     1
 90
        1
176
     1
 90
        6
176
     1
 90
        2
176
     1
 62
     7
176
     1
 90
        5
176
     1
 90
        0
176
     1
 90
        0
176
     1
290
     0
176
     1
 90
        1
176
     1
 40
0.0
176
     1
 90
        0
176
     1
290
     0
176
     1
290
     1
176
     1
290
     1
176
     1
290
     0
176
     1
290
     0
176
     1
290
     0
176
     1
290
     0
176
     1
290
     0
176
     1
290
     0
176
     1
 90
       50
176
     1
 40
0.0
176
     1
 40
1.0
176
     1
 90
        0
176
     1
 62
    18
420
        0
176
     1
 90
       50
176
     1
 90
        3
176
     1
 62
     5
420
      255
176
     1
290
     0
176
     1
 90
       50
176
     1
 90
       50
176
     1
 90
       50
176
     1
290
     0
176
     1
 90
       50
176
     1
 62
   256
176
     0
 40
1.0
176
     0
 90
        2
176
     1
  1
strokes_ogs.tif
176
     1
290
     0
176
     1
 40
1.0
176
     1
 40
1.0
176
     1
  0
VISUALSTYLE
  5
532
102
{ACAD_REACTORS
330
528
102
}
330
528
100
AcDbVisualStyle
  2
Conceptual
 70
     9
177
     3
291
     0
 70
    58
 90
        3
176
     1
 90
        2
176
     1
 90
        0
176
     1
 90
        0
176
     1
 40
0.6
176
     1
 40
30.0
176
     1
 62
     7
420
 16777215
176
     1
 90
        2
176
     1
 90
        2
176
     1
 62
     7
176
     1
 62
   257
176
     1
 90
        1
176
     1
 90
        1
176
     1
 40
179.0
176
     1
 90
        8
176
     1
 62
     7
176
     1
 40
1.0
176
     1
 90
        1
176
     1
 90
        6
176
     1
 90
        2
176
     1
 62
     7
176
     1
 90
        3
176
     1
 90
        0
176
     1
 90
        0
176
     1
290
     0
176
     1
 90
        1
176
     1
 40
0.0
176
     1
 90
        0
176
     1
290
     0
176
     1
290
     1
176
     1
290
     1
176
     1
290
     0
176
     1
290
     0
176
     1
290
     0
176
     1
290
     0
176
     1
290
     0
176
     1
290
     0
176
     1
 90
       50
176
     1
 40
0.0
176
     1
 40
1.0
176
     1
 90
        0
176
     1
 62
    18
420
        0
176
     1
 90
       50
176
     1
 90
        3
176
     1
 62
     5
420
      255
176
     1
290
     0
176
     1
 90
       50
176
     1
 90
       50
176
     1
 90
       50
176
     1
290
     0
176
     1
 90
       50
176
     1
 62
   256
176
     0
 40
1.0
176
     0
 90
        2
176
     1
  1
strokes_ogs.tif
176
     1
290
     0
176
     1
 40
1.0
176
     1
 40
1.0
176
     1
  0
VISUALSTYLE
  5
533
102
{ACAD_REACTORS
330
528
102
}
330
528
100
AcDbVisualStyle
  2
Dim
 70
    11
177
     3
291
     1
 70
    58
 90
        2
176
     1
 90
        2
176
     1
 90
        0
176
     1
 90
        0
176
     1
 40
0.6
176
     1
 40
30.0
176
     1
 62
     7
420
 16777215
176
     1
 90
        1
176
     1
 90
        4
176
     1
 62
     7
176
     1
 62
   257
176
     1
 90
        1
176
     1
 90
        1
176
     1
 40
1.0
176
     1
 90
        8
176
     1
 62
     7
176
     1
 40
1.0
176
     1
 90
        1
176
     1
 90
        6
176
     1
 90
        2
176
     1
 62
     7
176
     1
 90
        5
176
     1
 90
        0
176
     1
 90
        0
176
     1
290
     0
176
     1
 90
        1
176
     1
 40
-50.0
176
     1
 90
        0
176
     1
290
     0
176
     1
290
     1
176
     1
290
     1
176
     1
290
     0
176
     1
290
     0
176
     1
290
     0
176
     1
290
     0
176
     1
290
     0
176
     1
290
     0
176
     1
 90
       50
176
     1
 40
0.0
176
     1
 40
1.0
176
     1
 90
        0
176
     1
 62
    18
420
        0
176
     1
 90
       50
176
     1
 90
        3
176
     1
 62
     5
420
      255
176
     1
290
     0
176
     1
 90
       50
176
     1
 90
       50
176
     1
 90
       50
176
     1
290
     0
176
     1
 90
       50
176
     1
 62
   256
176
     0
 40
1.0
176
     0
 90
        2
176
     1
  1
strokes_ogs.tif
176
     1
290
     0
176
     1
 40
1.0
176
     1
 40
1.0
176
     1
  0
VISUALSTYLE
  5
53B
102
{ACAD_REACTORS
330
528
102
}
330
528
100
AcDbVisualStyle
  2
EdgeColorOff
 70
    22
177
     3
291
     1
 70
    58
 90
        2
176
     0
 90
        2
176
     0
 90
        0
176
     0
 90
        0
176
     0
 40
0.6
176
     0
 40
30.0
176
     0
 62
     7
420
 16777215
176
     0
 90
        1
176
     0
 90
        4
176
     0
 62
     7
176
     0
 62
   257
176
     0
 90
        1
176
     0
 90
        1
176
     0
 40
1.0
176
     0
 90
        8
176
     2
 62
     7
176
     0
 40
1.0
176
     0
 90
        1
176
     0
 90
        6
176
     0
 90
        2
176
     0
 62
     7
176
     0
 90
        5
176
     0
 90
        0
176
     0
 90
        0
176
     0
290
     0
176
     0
 90
        1
176
     0
 40
0.0
176
     0
 90
        0
176
     0
290
     0
176
     0
290
     1
176
     0
290
     1
176
     0
290
     0
176
     0
290
     0
176
     0
290
     0
176
     0
290
     0
176
     0
290
     0
176
     0
290
     0
176
     0
 90
       50
176
     0
 40
0.0
176
     0
 40
1.0
176
     0
 90
        0
176
     0
 62
    18
420
        0
176
     0
 90
       50
176
     0
 90
        3
176
     0
 62
     5
420
      255
176
     0
290
     0
176
     0
 90
       50
176
     0
 90
       50
176
     0
 90
       50
176
     0
290
     0
176
     0
 90
       50
176
     0
 62
   256
176
     0
 40
1.0
176
     0
 90
        2
176
     0
  1
strokes_ogs.tif
176
     0
290
     0
176
     0
 40
1.0
176
     0
 40
1.0
176
     0
  0
VISUALSTYLE
  5
537
102
{ACAD_REACTORS
330
528
102
}
330
528
100
AcDbVisualStyle
  2
Facepattern
 70
    15
177
     3
291
     1
 70
    58
 90
        2
176
     1
 90
        2
176
     1
 90
        0
176
     1
 90
        0
176
     1
 40
0.6
176
     1
 40
30.0
176
     1
 62
     7
420
 16777215
176
     1
 90
        1
176
     1
 90
        4
176
     1
 62
     7
176
     1
 62
   257
176
     1
 90
        1
176
     1
 90
        1
176
     1
 40
1.0
176
     1
 90
        8
176
     1
 62
     7
176
     1
 40
1.0
176
     1
 90
        1
176
     1
 90
        6
176
     1
 90
        2
176
     1
 62
     7
176
     1
 90
        5
176
     1
 90
        0
176
     1
 90
        0
176
     1
290
     0
176
     1
 90
        1
176
     1
 40
0.0
176
     1
 90
        0
176
     1
290
     0
176
     1
290
     1
176
     1
290
     1
176
     1
290
     0
176
     1
290
     0
176
     1
290
     0
176
     1
290
     0
176
     1
290
     0
176
     1
290
     0
176
     1
 90
       50
176
     1
 40
0.0
176
     1
 40
1.0
176
     1
 90
        0
176
     1
 62
    18
420
        0
176
     1
 90
       50
176
     1
 90
        3
176
     1
 62
     5
420
      255
176
     1
290
     0
176
     1
 90
       50
176
     1
 90
       50
176
     1
 90
       50
176
     1
290
     0
176
     1
 90
       50
176
     1
 62
   256
176
     0
 40
1.0
176
     0
 90
        2
176
     1
  1
strokes_ogs.tif
176
     1
290
     0
176
     1
 40
1.0
176
     1
 40
1.0
176
     1
  0
VISUALSTYLE
  5
529
102
{ACAD_REACTORS
330
528
102
}
330
528
100
AcDbVisualStyle
  2
Flat
 70
     0
177
     3
291
     1
 70
    58
 90
        2
176
     1
 90
        1
176
     1
 90
        1
176
     1
 90
        2
176
     1
 40
0.6
176
     1
 40
30.0
176
     1
 62
     7
420
 16777215
176
     1
 90
        0
176
     1
 90
        0
176
     1
 62
     7
176
     1
 62
   257
176
     1
 90
        1
176
     1
 90
        1
176
     1
 40
1.0
176
     1
 90
        8
176
     1
 62
     7
176
     1
 40
1.0
176
     1
 90
        1
176
     1
 90
        6
176
     1
 90
        2
176
     1
 62
     7
176
     1
 90
        5
176
     1
 90
        0
176
     1
 90
        0
176
     1
290
     0
176
     1
 90
       13
176
     1
 40
0.0
176
     1
 90
        0
176
     1
290
     0
176
     1
290
     1
176
     1
290
     1
176
     1
290
     0
176
     1
290
     0
176
     1
290
     0
176
     1
290
     0
176
     1
290
     0
176
     1
290
     0
176
     1
 90
       50
176
     1
 40
0.0
176
     1
 40
1.0
176
     1
 90
        0
176
     1
 62
    18
420
        0
176
     1
 90
       50
176
     1
 90
        3
176
     1
 62
     5
420
      255
176
     1
290
     0
176
     1
 90
       50
176
     1
 90
       50
176
     1
 90
       50
176
     1
290
     0
176
     1
 90
       50
176
     1
 62
   256
176
     0
 40
1.0
176
     0
 90
        2
176
     1
  1
strokes_ogs.tif
176
     1
290
     0
176
     1
 40
1.0
176
     1
 40
1.0
176
     1
  0
VISUALSTYLE
  5
52A
102
{ACAD_REACTORS
330
528
102
}
330
528
100
AcDbVisualStyle
  2
FlatWithEdges
 70
     1
177
     3
291
     1
 70
    58
 90
        2
176
     1
 90
        1
176
     1
 90
        1
176
     1
 90
        2
176
     1
 40
0.6
176
     1
 40
30.0
176
     1
 62
     7
420
 16777215
176
     1
 90
        1
176
     1
 90
        0
176
     1
 62
     7
176
     1
 62
   257
176
     1
 90
        1
176
     1
 90
        1
176
     1
 40
1.0
176
     1
 90
        0
176
     1
 62
   257
176
     1
 40
1.0
176
     1
 90
        1
176
     1
 90
        6
176
     1
 90
        2
176
     1
 62
     7
176
     1
 90
        5
176
     1
 90
        0
176
     1
 90
        0
176
     1
290
     0
176
     1
 90
       13
176
     1
 40
0.0
176
     1
 90
        0
176
     1
290
     0
176
     1
290
     1
176
     1
290
     1
176
     1
290
     0
176
     1
290
     0
176
     1
290
     0
176
     1
290
     0
176
     1
290
     0
176
     1
290
     0
176
     1
 90
       50
176
     1
 40
0.0
176
     1
 40
1.0
176
     1
 90
        0
176
     1
 62
    18
420
        0
176
     1
 90
       50
176
     1
 90
        3
176
     1
 62
     5
420
      255
176
     1
290
     0
176
     1
 90
       50
176
     1
 90
       50
176
     1
 90
       50
176
     1
290
     0
176
     1
 90
       50
176
     1
 62
   256
176
     0
 40
1.0
176
     0
 90
        2
176
     1
  1
strokes_ogs.tif
176
     1
290
     0
176
     1
 40
1.0
176
     1
 40
1.0
176
     1
  0
VISUALSTYLE
  5
52B
102
{ACAD_REACTORS
330
528
102
}
330
528
100
AcDbVisualStyle
  2
Gouraud
 70
     2
177
     3
291
     1
 70
    58
 90
        2
176
     1
 90
        2
176
     1
 90
        1
176
     1
 90
        2
176
     1
 40
0.6
176
     1
 40
30.0
176
     1
 62
     7
420
 16777215
176
     1
 90
        0
176
     1
 90
        0
176
     1
 62
     7
176
     1
 62
   257
176
     1
 90
        1
176
     1
 90
        1
176
     1
 40
1.0
176
     1
 90
        0
176
     1
 62
     7
176
     1
 40
1.0
176
     1
 90
        1
176
     1
 90
        6
176
     1
 90
        2
176
     1
 62
     7
176
     1
 90
        5
176
     1
 90
        0
176
     1
 90
        0
176
     1
290
     0
176
     1
 90
       13
176
     1
 40
0.0
176
     1
 90
        0
176
     1
290
     0
176
     1
290
     1
176
     1
290
     1
176
     1
290
     0
176
     1
290
     0
176
     1
290
     0
176
     1
290
     0
176
     1
290
     0
176
     1
290
     0
176
     1
 90
       50
176
     1
 40
0.0
176
     1
 40
1.0
176
     1
 90
        0
176
     1
 62
    18
420
        0
176
     1
 90
       50
176
     1
 90
        3
176
     1
 62
     5
420
      255
176
     1
290
     0
176
     1
 90
       50
176
     1
 90
       50
176
     1
 90
       50
176
     1
290
     0
176
     1
 90
       50
176
     1
 62
   256
176
     0
 40
1.0
176
     0
 90
        2
176
     1
  1
strokes_ogs.tif
176
     1
290
     0
176
     1
 40
1.0
176
     1
 40
1.0
176
     1
  0
VISUALSTYLE
  5
52C
102
{ACAD_REACTORS
330
528
102
}
330
528
100
AcDbVisualStyle
  2
GouraudWithEdges
 70
     3
177
     3
291
     1
 70
    58
 90
        2
176
     1
 90
        2
176
     1
 90
        1
176
     1
 90
        2
176
     1
 40
0.6
176
     1
 40
30.0
176
     1
 62
     7
420
 16777215
176
     1
 90
        1
176
     1
 90
        0
176
     1
 62
     7
176
     1
 62
   257
176
     1
 90
        1
176
     1
 90
        1
176
     1
 40
1.0
176
     1
 90
        0
176
     1
 62
   257
176
     1
 40
1.0
176
     1
 90
        1
176
     1
 90
        6
176
     1
 90
        2
176
     1
 62
     7
176
     1
 90
        5
176
     1
 90
        0
176
     1
 90
        0
176
     1
290
     0
176
     1
 90
       13
176
     1
 40
0.0
176
     1
 90
        0
176
     1
290
     0
176
     1
290
     1
176
     1
290
     1
176
     1
290
     0
176
     1
290
     0
176
     1
290
     0
176
     1
290
     0
176
     1
290
     0
176
     1
290
     0
176
     1
 90
       50
176
     1
 40
0.0
176
     1
 40
1.0
176
     1
 90
        0
176
     1
 62
    18
420
        0
176
     1
 90
       50
176
     1
 90
        3
176
     1
 62
     5
420
      255
176
     1
290
     0
176
     1
 90
       50
176
     1
 90
       50
176
     1
 90
       50
176
     1
290
     0
176
     1
 90
       50
176
     1
 62
   256
176
     0
 40
1.0
176
     0
 90
        2
176
     1
  1
strokes_ogs.tif
176
     1
290
     0
176
     1
 40
1.0
176
     1
 40
1.0
176
     1
  0
VISUALSTYLE
  5
52F
102
{ACAD_REACTORS
330
528
102
}
330
528
100
AcDbVisualStyle
  2
Hidden
 70
     6
177
     3
291
     0
 70
    58
 90
        1
176
     1
 90
        2
176
     1
 90
        2
176
     1
 90
        0
176
     1
 40
0.6
176
     1
 40
30.0
176
     1
 62
     7
420
 16777215
176
     1
 90
        2
176
     1
 90
        2
176
     1
 62
     7
176
     1
 62
   257
176
     1
 90
        2
176
     1
 90
        1
176
     1
 40
40.0
176
     1
 90
        0
176
     1
 62
   257
176
     1
 40
1.0
176
     1
 90
        1
176
     1
 90
        6
176
     1
 90
        2
176
     1
 62
     7
176
     1
 90
        3
176
     1
 90
        0
176
     1
 90
        0
176
     1
290
     0
176
     1
 90
        1
176
     1
 40
0.0
176
     1
 90
        0
176
     1
290
     0
176
     1
290
     1
176
     1
290
     1
176
     1
290
     0
176
     1
290
     0
176
     1
290
     0
176
     1
290
     0
176
     1
290
     0
176
     1
290
     0
176
     1
 90
       50
176
     1
 40
0.0
176
     1
 40
1.0
176
     1
 90
        0
176
     1
 62
    18
420
        0
176
     1
 90
       50
176
     1
 90
        3
176
     1
 62
     5
420
      255
176
     1
290
     0
176
     1
 90
       50
176
     1
 90
       50
176
     1
 90
       50
176
     1
290
     0
176
     1
 90
       50
176
     1
 62
   256
176
     0
 40
1.0
176
     0
 90
        2
176
     1
  1
strokes_ogs.tif
176
     1
290
     0
176
     1
 40
1.0
176
     1
 40
1.0
176
     1
  0
VISUALSTYLE
  5
539
102
{ACAD_REACTORS
330
528
102
}
330
528
100
AcDbVisualStyle
  2
JitterOff
 70
    20
177
     3
291
     1
 70
    58
 90
        2
176
     0
 90
        2
176
     0
 90
        0
176
     0
 90
        0
176
     0
 40
0.6
176
     0
 40
30.0
176
     0
 62
     7
420
 16777215
176
     0
 90
        1
176
     0
 90
        4
176
     0
 62
     7
176
     0
 62
   257
176
     0
 90
        1
176
     0
 90
        1
176
     0
 40
1.0
176
     0
 90
       10
176
     2
 62
     7
176
     0
 40
1.0
176
     0
 90
        1
176
     0
 90
        6
176
     0
 90
        2
176
     0
 62
     7
176
     0
 90
        5
176
     0
 90
        0
176
     0
 90
        0
176
     0
290
     0
176
     0
 90
        1
176
     0
 40
0.0
176
     0
 90
        0
176
     0
290
     0
176
     0
290
     1
176
     0
290
     1
176
     0
290
     0
176
     0
290
     0
176
     0
290
     0
176
     0
290
     0
176
     0
290
     0
176
     0
290
     0
176
     0
 90
       50
176
     0
 40
0.0
176
     0
 40
1.0
176
     0
 90
        0
176
     0
 62
    18
420
        0
176
     0
 90
       50
176
     0
 90
        3
176
     0
 62
     5
420
      255
176
     0
290
     0
176
     0
 90
       50
176
     0
 90
       50
176
     0
 90
       50
176
     0
290
     0
176
     0
 90
       50
176
     0
 62
   256
176
     0
 40
1.0
176
     0
 90
        2
176
     0
  1
strokes_ogs.tif
176
     0
290
     0
176
     0
 40
1.0
176
     0
 40
1.0
176
     0
  0
VISUALSTYLE
  5
536
102
{ACAD_REACTORS
330
528
102
}
330
528
100
AcDbVisualStyle
  2
Linepattern
 70
    14
177
     3
291
     1
 70
    58
 90
        2
176
     1
 90
        2
176
     1
 90
        0
176
     1
 90
        0
176
     1
 40
0.6
176
     1
 40
30.0
176
     1
 62
     7
420
 16777215
176
     1
 90
        1
176
     1
 90
        4
176
     1
 62
     7
176
     1
 62
   257
176
     1
 90
        7
176
     1
 90
        7
176
     1
 40
1.0
176
     1
 90
        8
176
     1
 62
     7
176
     1
 40
1.0
176
     1
 90
        1
176
     1
 90
        6
176
     1
 90
        2
176
     1
 62
     7
176
     1
 90
        5
176
     1
 90
        0
176
     1
 90
        0
176
     1
290
     0
176
     1
 90
        1
176
     1
 40
0.0
176
     1
 90
        0
176
     1
290
     0
176
     1
290
     1
176
     1
290
     1
176
     1
290
     0
176
     1
290
     0
176
     1
290
     0
176
     1
290
     0
176
     1
290
     0
176
     1
290
     0
176
     1
 90
       50
176
     1
 40
0.0
176
     1
 40
1.0
176
     1
 90
        0
176
     1
 62
    18
420
        0
176
     1
 90
       50
176
     1
 90
        3
176
     1
 62
     5
420
      255
176
     1
290
     0
176
     1
 90
       50
176
     1
 90
       50
176
     1
 90
       50
176
     1
290
     0
176
     1
 90
       50
176
     1
 62
   256
176
     0
 40
1.0
176
     0
 90
        2
176
     1
  1
strokes_ogs.tif
176
     1
290
     0
176
     1
 40
1.0
176
     1
 40
1.0
176
     1
  0
VISUALSTYLE
  5
53A
102
{ACAD_REACTORS
330
528
102
}
330
528
100
AcDbVisualStyle
  2
OverhangOff
 70
    21
177
     3
291
     1
 70
    58
 90
        2
176
     0
 90
        2
176
     0
 90
        0
176
     0
 90
        0
176
     0
 40
0.6
176
     0
 40
30.0
176
     0
 62
     7
420
 16777215
176
     0
 90
        1
176
     0
 90
        4
176
     0
 62
     7
176
     0
 62
   257
176
     0
 90
        1
176
     0
 90
        1
176
     0
 40
1.0
176
     0
 90
        9
176
     2
 62
     7
176
     0
 40
1.0
176
     0
 90
        1
176
     0
 90
        6
176
     0
 90
        2
176
     0
 62
     7
176
     0
 90
        5
176
     0
 90
        0
176
     0
 90
        0
176
     0
290
     0
176
     0
 90
        1
176
     0
 40
0.0
176
     0
 90
        0
176
     0
290
     0
176
     0
290
     1
176
     0
290
     1
176
     0
290
     0
176
     0
290
     0
176
     0
290
     0
176
     0
290
     0
176
     0
290
     0
176
     0
290
     0
176
     0
 90
       50
176
     0
 40
0.0
176
     0
 40
1.0
176
     0
 90
        0
176
     0
 62
    18
420
        0
176
     0
 90
       50
176
     0
 90
        3
176
     0
 62
     5
420
      255
176
     0
290
     0
176
     0
 90
       50
176
     0
 90
       50
176
     0
 90
       50
176
     0
290
     0
176
     0
 90
       50
176
     0
 62
   256
176
     0
 40
1.0
176
     0
 90
        2
176
     0
  1
strokes_ogs.tif
176
     0
290
     0
176
     0
 40
1.0
176
     0
 40
1.0
176
     0
  0
VISUALSTYLE
  5
531
102
{ACAD_REACTORS
330
528
102
}
330
528
100
AcDbVisualStyle
  2
Realistic
 70
     8
177
     3
291
     0
 70
    58
 90
        2
176
     1
 90
        3
176
     1
 90
        0
176
     1
 90
        2
176
     1
 40
0.6
176
     1
 40
30.0
176
     1
 62
     7
420
 16777215
176
     1
 90
        0
176
     1
 90
        0
176
     1
 62
     7
176
     1
 62
   257
176
     1
 90
        1
176
     1
 90
        1
176
     1
 40
1.0
176
     1
 90
        8
176
     1
 62
   257
176
     1
 40
1.0
176
     1
 90
        1
176
     1
 90
        6
176
     1
 90
        2
176
     1
 62
     7
176
     1
 90
        3
176
     1
 90
        0
176
     1
 90
        0
176
     1
290
     0
176
     1
 90
       13
176
     1
 40
0.0
176
     1
 90
        0
176
     1
290
     0
176
     1
290
     1
176
     1
290
     1
176
     1
290
     0
176
     1
290
     0
176
     1
290
     0
176
     1
290
     0
176
     1
290
     0
176
     1
290
     0
176
     1
 90
       50
176
     1
 40
0.0
176
     1
 40
1.0
176
     1
 90
        0
176
     1
 62
    18
420
        0
176
     1
 90
       50
176
     1
 90
        3
176
     1
 62
     5
420
      255
176
     1
290
     0
176
     1
 90
       50
176
     1
 90
       50
176
     1
 90
       50
176
     1
290
     0
176
     1
 90
       50
176
     1
 62
   256
176
     0
 40
1.0
176
     0
 90
        2
176
     1
  1
strokes_ogs.tif
176
     1
290
     0
176
     1
 40
1.0
176
     1
 40
1.0
176
     1
  0
VISUALSTYLE
  5
540
102
{ACAD_REACTORS
330
528
102
}
330
528
100
AcDbVisualStyle
  2
Shaded
 70
    27
177
     3
291
     0
 70
    58
 90
        2
176
     1
 90
        2
176
     1
 90
        1
176
     1
 90
        2
176
     1
 40
0.6
176
     1
 40
30.0
176
     1
 62
     7
420
 16777215
176
     1
 90
        0
176
     1
 90
        4
176
     1
 62
     7
176
     1
 62
   257
176
     1
 90
        1
176
     1
 90
        1
176
     1
 40
1.0
176
     1
 90
        8
176
     1
 62
   257
176
     1
 40
1.0
176
     1
 90
        1
176
     1
 90
        6
176
     1
 90
        2
176
     1
 62
     8
420
  7895160
176
     1
 90
        3
176
     1
 90
        0
176
     1
 90
        0
176
     1
290
     0
176
     1
 90
        5
176
     1
 40
0.0
176
     1
 90
        0
176
     1
290
     0
176
     1
290
     1
176
     1
290
     1
176
     1
290
     0
176
     1
290
     0
176
     1
290
     0
176
     1
290
     0
176
     1
290
     0
176
     1
290
     0
176
     1
 90
       50
176
     1
 40
0.0
176
     1
 40
1.0
176
     1
 90
        0
176
     1
 62
    18
420
        0
176
     1
 90
       50
176
     1
 90
        3
176
     1
 62
     5
420
      255
176
     1
290
     0
176
     1
 90
       50
176
     1
 90
       50
176
     1
 90
       50
176
     1
290
     0
176
     1
 90
       50
176
     1
 62
   256
176
     0
 40
1.0
176
     0
 90
        2
176
     1
  1
strokes_ogs.tif
176
     1
290
     0
176
     1
 40
1.0
176
     1
 40
1.0
176
     1
  0
VISUALSTYLE
  5
53F
102
{ACAD_REACTORS
330
528
102
}
330
528
100
AcDbVisualStyle
  2
Shaded with edges
 70
    26
177
     3
291
     0
 70
    58
 90
        2
176
     1
 90
        2
176
     1
 90
        1
176
     1
 90
        2
176
     1
 40
0.6
176
     1
 40
30.0
176
     1
 62
     7
420
 16777215
176
     1
 90
        1
176
     1
 90
       10
176
     1
 62
     7
176
     1
 62
   257
176
     1
 90
        2
176
     1
 90
        1
176
     1
 40
1.0
176
     1
 90
        8
176
     1
 62
   257
176
     1
 40
1.0
176
     1
 90
        1
176
     1
 90
        6
176
     1
 90
        2
176
     1
 62
     7
176
     1
 90
        3
176
     1
 90
        0
176
     1
 90
        0
176
     1
290
     0
176
     1
 90
        5
176
     1
 40
0.0
176
     1
 90
        0
176
     1
290
     0
176
     1
290
     1
176
     1
290
     1
176
     1
290
     0
176
     1
290
     0
176
     1
290
     0
176
     1
290
     0
176
     1
290
     0
176
     1
290
     0
176
     1
 90
       50
176
     1
 40
0.0
176
     1
 40
1.0
176
     1
 90
        0
176
     1
 62
    18
420
        0
176
     1
 90
       50
176
     1
 90
        3
176
     1
 62
     5
420
      255
176
     1
290
     0
176
     1
 90
       50
176
     1
 90
       50
176
     1
 90
       50
176
     1
290
     0
176
     1
 90
       50
176
     1
 62
   256
176
     0
 40
1.0
176
     0
 90
        2
176
     1
  1
strokes_ogs.tif
176
     1
290
     0
176
     1
 40
1.0
176
     1
 40
1.0
176
     1
  0
VISUALSTYLE
  5
53C
102
{ACAD_REACTORS
330
528
102
}
330
528
100
AcDbVisualStyle
  2
Shades of Gray
 70
    23
177
     3
291
     0
 70
    58
 90
        2
176
     1
 90
        2
176
     1
 90
        3
176
     1
 90
        0
176
     1
 40
0.6
176
     1
 40
30.0
176
     1
 62
     7
420
 16777215
176
     1
 90
        2
176
     1
 90
        2
176
     1
 62
     7
176
     1
 62
     7
176
     1
 90
        1
176
     1
 90
        1
176
     1
 40
40.0
176
     1
 90
        8
176
     1
 62
     7
176
     1
 40
1.0
176
     1
 90
        1
176
     1
 90
        6
176
     1
 90
        2
176
     1
 62
     7
176
     1
 90
        3
176
     1
 90
        0
176
     1
 90
        0
176
     1
290
     0
176
     1
 90
        1
176
     1
 40
0.0
176
     1
 90
        0
176
     1
290
     0
176
     1
290
     1
176
     1
290
     1
176
     1
290
     0
176
     1
290
     0
176
     1
290
     0
176
     1
290
     0
176
     1
290
     0
176
     1
290
     0
176
     1
 90
       50
176
     1
 40
0.0
176
     1
 40
1.0
176
     1
 90
        0
176
     1
 62
    18
420
        0
176
     1
 90
       50
176
     1
 90
        3
176
     1
 62
     5
420
      255
176
     1
290
     0
176
     1
 90
       50
176
     1
 90
       50
176
     1
 90
       50
176
     1
290
     0
176
     1
 90
       50
176
     1
 62
   256
176
     0
 40
1.0
176
     0
 90
        2
176
     1
  1
strokes_ogs.tif
176
     1
290
     0
176
     1
 40
1.0
176
     1
 40
1.0
176
     1
  0
VISUALSTYLE
  5
53D
102
{ACAD_REACTORS
330
528
102
}
330
528
100
AcDbVisualStyle
  2
Sketchy
 70
    24
177
     3
291
     0
 70
    58
 90
        1
176
     1
 90
        2
176
     1
 90
        2
176
     1
 90
        0
176
     1
 40
0.6
176
     1
 40
30.0
176
     1
 62
     7
420
 16777215
176
     1
 90
        2
176
     1
 90
        2
176
     1
 62
     7
176
     1
 62
     7
176
     1
 90
        1
176
     1
 90
        1
176
     1
 40
40.0
176
     1
 90
       11
176
     1
 62
     7
176
     1
 40
1.0
176
     1
 90
        1
176
     1
 90
        6
176
     1
 90
        2
176
     1
 62
     7
176
     1
 90
        6
176
     1
 90
        0
176
     1
 90
        0
176
     1
290
     0
176
     1
 90
        1
176
     1
 40
0.0
176
     1
 90
        0
176
     1
290
     0
176
     1
290
     1
176
     1
290
     1
176
     1
290
     0
176
     1
290
     0
176
     1
290
     0
176
     1
290
     0
176
     1
290
     0
176
     1
290
     0
176
     1
 90
       50
176
     1
 40
0.0
176
     1
 40
1.0
176
     1
 90
        0
176
     1
 62
    18
420
        0
176
     1
 90
       50
176
     1
 90
        3
176
     1
 62
     5
420
      255
176
     1
290
     0
176
     1
 90
       50
176
     1
 90
       50
176
     1
 90
       50
176
     1
290
     0
176
     1
 90
       50
176
     1
 62
   256
176
     0
 40
1.0
176
     0
 90
        2
176
     1
  1
strokes_ogs.tif
176
     1
290
     0
176
     1
 40
1.0
176
     1
 40
1.0
176
     1
  0
VISUALSTYLE
  5
535
102
{ACAD_REACTORS
330
528
102
}
330
528
100
AcDbVisualStyle
  2
Thicken
 70
    13
177
     3
291
     1
 70
    58
 90
        2
176
     1
 90
        2
176
     1
 90
        0
176
     1
 90
        0
176
     1
 40
0.6
176
     1
 40
30.0
176
     1
 62
     7
420
 16777215
176
     1
 90
        1
176
     1
 90
        4
176
     1
 62
     7
176
     1
 62
   257
176
     1
 90
        1
176
     1
 90
        1
176
     1
 40
1.0
176
     1
 90
       12
176
     1
 62
     7
176
     1
 40
1.0
176
     1
 90
        1
176
     1
 90
        6
176
     1
 90
        2
176
     1
 62
     7
176
     1
 90
        5
176
     1
 90
        0
176
     1
 90
        0
176
     1
290
     0
176
     1
 90
        1
176
     1
 40
0.0
176
     1
 90
        0
176
     1
290
     0
176
     1
290
     1
176
     1
290
     1
176
     1
290
     0
176
     1
290
     0
176
     1
290
     0
176
     1
290
     0
176
     1
290
     0
176
     1
290
     0
176
     1
 90
       50
176
     1
 40
0.0
176
     1
 40
1.0
176
     1
 90
        0
176
     1
 62
    18
420
        0
176
     1
 90
       50
176
     1
 90
        3
176
     1
 62
     5
420
      255
176
     1
290
     0
176
     1
 90
       50
176
     1
 90
       50
176
     1
 90
       50
176
     1
290
     0
176
     1
 90
       50
176
     1
 62
   256
176
     0
 40
1.0
176
     0
 90
        2
176
     1
  1
strokes_ogs.tif
176
     1
290
     0
176
     1
 40
1.0
176
     1
 40
1.0
176
     1
  0
VISUALSTYLE
  5
52E
102
{ACAD_REACTORS
330
528
102
}
330
528
100
AcDbVisualStyle
  2
Wireframe
 70
     5
177
     3
291
     0
 70
    58
 90
        0
176
     1
 90
        2
176
     1
 90
        0
176
     1
 90
        0
176
     1
 40
0.6
176
     1
 40
30.0
176
     1
 62
     7
420
 16777215
176
     1
 90
        1
176
     1
 90
        4
176
     1
 62
     7
176
     1
 62
   257
176
     1
 90
        1
176
     1
 90
        1
176
     1
 40
1.0
176
     1
 90
        0
176
     1
 62
   257
176
     1
 40
1.0
176
     1
 90
        1
176
     1
 90
        6
176
     1
 90
        2
176
     1
 62
     7
176
     1
 90
        3
176
     1
 90
        0
176
     1
 90
        0
176
     1
290
     0
176
     1
 90
        1
176
     1
 40
0.0
176
     1
 90
        0
176
     1
290
     0
176
     1
290
     1
176
     1
290
     1
176
     1
290
     0
176
     1
290
     0
176
     1
290
     0
176
     1
290
     0
176
     1
290
     0
176
     1
290
     0
176
     1
 90
       50
176
     1
 40
0.0
176
     1
 40
1.0
176
     1
 90
        0
176
     1
 62
    18
420
        0
176
     1
 90
       50
176
     1
 90
        3
176
     1
 62
     5
420
      255
176
     1
290
     0
176
     1
 90
       50
176
     1
 90
       50
176
     1
 90
       50
176
     1
290
     0
176
     1
 90
       50
176
     1
 62
   256
176
     0
 40
1.0
176
     0
 90
        2
176
     1
  1
strokes_ogs.tif
176
     1
290
     0
176
     1
 40
1.0
176
     1
 40
1.0
176
     1
  0
VISUALSTYLE
  5
53E
102
{ACAD_REACTORS
330
528
102
}
330
528
100
AcDbVisualStyle
  2
X-Ray
 70
    25
177
     3
291
     0
 70
    58
 90
        2
176
     1
 90
        2
176
     1
 90
        1
176
     1
 90
        1
176
     1
 40
0.5
176
     1
 40
30.0
176
     1
 62
     7
420
 16777215
176
     1
 90
        1
176
     1
 90
        0
176
     1
 62
     7
176
     1
 62
   257
176
     1
 90
        1
176
     1
 90
        1
176
     1
 40
1.0
176
     1
 90
        8
176
     1
 62
     7
176
     1
 40
1.0
176
     1
 90
        1
176
     1
 90
        6
176
     1
 90
        2
176
     1
 62
     7
176
     1
 90
        3
176
     1
 90
        0
176
     1
 90
        0
176
     1
290
     0
176
     1
 90
       13
176
     1
 40
0.0
176
     1
 90
        0
176
     1
290
     0
176
     1
290
     1
176
     1
290
     1
176
     1
290
     0
176
     1
290
     0
176
     1
290
     0
176
     1
290
     0
176
     1
290
     0
176
     1
290
     0
176
     1
 90
       50
176
     1
 40
0.0
176
     1
 40
1.0
176
     1
 90
        0
176
     1
 62
    18
420
        0
176
     1
 90
       50
176
     1
 90
        3
176
     1
 62
     5
420
      255
176
     1
290
     0
176
     1
 90
       50
176
     1
 90
       50
176
     1
 90
       50
176
     1
290
     0
176
     1
 90
       50
176
     1
 62
   256
176
     0
 40
1.0
176
     0
 90
        2
176
     1
  1
strokes_ogs.tif
176
     1
290
     0
176
     1
 40
1.0
176
     1
 40
1.0
176
     1
  0
DICTIONARYVAR
  5
557
102
{ACAD_REACTORS
330
556
102
}
330
556
100
DictionaryVariables
280
     0
  1
1:1
  0
DICTIONARYVAR
  5
55B
102
{ACAD_REACTORS
330
556
102
}
330
556
100
DictionaryVariables
280
     0
  1
Standard
  0
CSACDOCUMENTOPTIONS
  5
54C
102
{ACAD_REACTORS
330
54B
102
}
330
54B
  0
XRECORD
  5
550
102
{ACAD_REACTORS
330
547
102
}
330
547
100
AcDbXrecord
280
     1
300
MC_VERSION_DATA
 90
       95
310
0600000002000000570000001C000000E404000000000000000000007801936764E5D8CF7A8393818115C460606066E0646662626666706006F214793899F8DE3171E725E6E53B3BBA2878E6951050AF75FEFFFFFF520032DE0F3057000000
  0
XRECORD
  5
548
102
{ACAD_REACTORS
330
547
102
}
330
547
100
AcDbXrecord
280
     1
300
MCS_DOCUMENT_ID
 90
       60
310
0600000002000000150000001C000000E404000000000000000000007801E3BD9CB921E68F11B7E7A4A5FE8F8EC91445FE07020071300BE915000000
  0
XRECORD
  5
54E
102
{ACAD_REACTORS
330
547
102
}
330
547
100
AcDbXrecord
280
     1
300
MCS_PARAMS_DATA
 90
     3313
310
0600000002000000F64B00001C000000E404000000000000000000007801C55C5B905C45199EE99EBDCCE67E5DA218172C303B91307B4B8C459531245054850D55591F78B236BB49B9BAC9E6B22A082A9655BE5865596569A965F9209288CF16503EC8834088C10B092404211702988430422E9084CDAEFFD7A7FBF4DFA7CF
310
D9D99D9D39930798FF3F7DCEF7DFFAFBBBFBCC6CDBFC46297252EECB48F9CDF5ED5234493921A5206D76815820B252E4F3225F128D7D5F59BF69E3162948D9A2D485B3131313747328BF06593E960915079422437734AA3BDAA5CCD053F5ED4FD2557D257BAB94DF007A03479F859BB2B22193C9108EC1CDCADC0464C27506
310
28605703E48886E0B986E10F03BF91E33707F8E3140E7A9091C8268236920C1C662240B94888A1C8E07600AE99C32D5131CA8B3925D172EFE62D7D6D9DABBA8ADDD6F17CE16D13F0457AE8AC9268DE32DABF73B07FCFA013F9BF8491D7C17E2550D8E8FFCA8DFE4E98B3929B331718B291824FFF72EB941D9E8E2211D5A93C
310
784A44C557923911258BD0C8640531AEEC61A924855B11378280384364A422680C0A928DB9C10CD89D581114199665B722B26E4590C82B0222AB08FAA8A60626C028E0044F81BA246F5360E167F2D27C56A10E05C058C13C59DEC6207679103AFC5DEADF992F2B284F67B31C8EE359B64A9665A62453228F64269D98455E3B
310
A4B35817F7EC92C86FB8EFFE8DBD5BEEDBDCAB0CD3B5FC8E99065A7E55D536E39DE7826237F1C8BBBCB3CFADFC93302087C80397EE69C2FF69CA32234F0763E41851010DA578E8294D435524988818E84710A7B2643B4F7C034F6CE5C9368F203BE8094C6268541D70D35EE4B585DAE170F4942EB8D2D422560A9917F34B62
310
CE86919D9F1F6DDBB36DD770FFC0B6BC682E898607BEB5737424F8D83B323AF07529CFC0B69BB96D9FD3CFF9B410ED79B1A42416161FEA29AEEDEEEC5ADF532C76DEF3C5AEEEB5CAECF97A60330D2C1C3579EAD0DA7621F20269BD6768746FDBF0D0DE51F3B0EE356B3ABBD6F474F7740D76770EACED08FCFC92BEAF13F701
310
B5AF7FEBF0B6B691ED6D7D23C3DBF6F4EF840FDA9AD583C58E81E240FFEAADDD5BD70EAC0E669D2A25F27FB610851F9335859F059541B9E5971EC7A5A7E83F2CE53DB9A4040555A2661A4DDBF2C560B2E54E7D5483931EF871F7C88E5DFDA3435B878687461F6EDB313248FE3596847C70DBDEBC682809D13B22E56A5856E4
310
E9998738519B6E2A89DCE6EDDBDB542AF4E4380F8F61A4965F57116093E5A052A06AF588670205D9A715FB49B140D81A90855F902680EBB8B3A3187EEA96F2B224E392BAF898328CB1AD47DA34C1601A1B421AD816D190715CC3F276A5DE067C546F03AED6DB808FEB6DC0B57A1BB00853B49EB3E0937A47E07ABD0D188301
310
71CB797197D3603B1D06BFCB6DB024827C0C834324E60945463B3712E196397079076E990B47228783C8E09631B8F129C211385B3E540C97413DC70673C524DEAD70BD23917B079179B782793791AE77D944EFDCDC5529988B13E1069D6092C472A7F777A6F648E4C184C88239C8822913E16AE29D48176E29E0727C316496
310
EF2A967C95165E504B0C2B218EEE82DD5C63513CD614C5091F6D6FA7551865CC5C5030A1E0A3E84BEC86CFD04EC5DD01AA74CBDB05AB8C403295A124BB2908C4B032B4682A032283FB103E391B4E03172C7199C4E0F88E871E8855ADA1482D3238FA1846E0B807A77785BFF935FE1D74369F5647D0D171CA5F4F09337C2559
310
105132935A503D6DBC7A94B54D2B6DF1E0339960F436A97441791E5EC104D40283580888C4FDED577B1FD8B4B9AF6FE30605D8AAD7F1F34A62F6DD5BBEC62E92057A31FEA25A9DB3F5FBD3C1729D9CD723B0BF0DE8402BB05A67160DDE4416E59079C0D9EAA575B7321F67115FC018C76AB5B3A33D06B68CBD9BFBDC93C073
310
800CC384FD360C544F539B6F02B1820953BE9D01DE01C0D85A6C50369A5AC4065C7760793B965800321749E4B50891C0C2AB0CAE9808178444974C70F875952A9381563C01BE9D08EAFA481283ABD8C7EF7870DAABE068E68833DFAC8EA0A3E3F87C0B07AA507B2311F0889285BDC333294C4E2DB27C67BA70ABD2857B688A
310
70552AA7873DB8489E55063D5D2DCBE9BB9E49F1E554A5083C922EDCA3E9C27D2F5DB8EF7B705EE9D87E1E920E88313AAE6AECF4FBD668D3D30DB4E51ADA9BEDB0D7AFCEB4DDED85F7C4ECF6551B3BCE2AFF6E835E49458EC94883D6E73C45753FAE614C3C0A0362777435D915EC025C33F7578776011DE6F3D066954C59D6
310
D76F86AC9CD58A53F4122CF0552BAE070AEA3B5AF15752304F1F47569D50AB71F41A31FA5A51C904CD43C6B0F51D2ACEFC112ACC4CC1B0FF086CE7AD5A4D096A005126387AAD451EE384D9C035A925859E39C1AA865EE9A9B8DA21CEE289167F7CF1D4C4BC7A125EC5AED5D8BB0B5A9D9144D134CFA71BF85A8D44BE568348
310
F6AA55A2F3CAEA4F6982FD21118CC249D3CBF852A586F244BA70FBD285DB9F085793EDE56E143F0AD06C6B4CB2242BDD3DD1419166C2865E81F9CE1648F3CBD84597B22E28992A3DDCE24C77F3F311A01C8A722828EC3CF15F7D987933F818F8E59BC138E5CD4CE8AC24C94E68BA32F5C3CBAB808B6B06B9936E642F9F804C
310
903AF2F3709D37832318A078E4B37AEBDCFAA66859945B9EBB25776BAE2DD3995995E9CA1433DDFA4DAC7ECE6FE93696E96BB06712968ED2661884A9EE40230F60D0D73DE8C858453B9E8E4212D5A9B0784A762662599FEDD18C9299F4094C728A91F536658E91CDA6DFC8E89F363B15B4CB31404FD2581CF722BBF229B517
310
430944E56AB2E2A8E3461950730F2B7ECA7BC570E389706E8BA9D241C744225C40C29385944F707279EA277D998065D9EAD604B1263E66D38513E9C2490F4EE7CC6E8AA89C3D9DA588701CA708AB6414C194931EE3FC0D4515D71A4FBFE712F8CB4A26532A6E8DCF01CA61A3745BE3F3C09F6E6B442F0CD7BAD36A8D2F002E
310
AE359E3BE646F6B8926D6BBC0CD9926FBEF08C5220B9BAE91D0E14769FF44B52301E3C00E8FA74C117BD24F396E22C7F1005F2DA2902EB76053DE720B0D3EE397F2F036AE8B24A3DE750225C4DF8F8A544B81AF69C7F2482D6C4C77F067093EF36FE359541FF8E0E8A50399BA22F63681CEF0EBDEBB2C3834A9E09EF1E0654
310
1D79F708F0A7CBBB956F495E015C1CEFEE3EEC46B65FC996771F856C09285F58A7148C77872F6104D6DC9A8897D30896D457015D1FDE3DEA25B91CEFF2EBD6EB0A68F718A0D3A6DDD7CA805699768F27C2D584925E4F84AB9476A39B03E744D09CD6610FF59F44E89A78FA46BA70DDDE0ADC144A4DBCEBF1E0221D416DC23D
310
1D715254A766A8A7AC60C1FF26021ED7783E889CD89C52F24C1ACF0940D5B1F19C047E7A8DE714E0E21ACFD5436EE339AB64DB78E44B91C6730003ECCB897CE1D28548E3798246B0C6731AD0536D3CB3E90740046E0B5FD5161351555C247A084506FA9607AAEBD39C44F1E2B63A5BDCA18E17B755B2E2664A322602C34C3A
310
0393625B51C09BC60D77315EF1E1C8DB80730A9C37D5B8CD0EBF3EA3A6FB4EA2A7C18B1B2746D53A5F7BB70C687C78291FE10E3A386EE3054657F9CB297E9CF703B0E71DFC4DA3397B4068C3CF33A1A81F02C2C920DB8E7ABF712005813923946BAE06DE453454B45CC32AF6311810C751E3F85A979E7874424F9299B34AB2
310
210DC430A45A3473162283FB2F3218C7FE178FBB1CF59692CDAD957C0DECAC3739580882F7E26636C4FC0874E66F42CE013F2EB274A4C323CBB88082C5B980AE4CFD4DC879C0C5B1FFF5E7DDC89E57324556799F2F34BC006EC70CD18A8318C0D9FF0AB6807CDBB19F46B0A4BE07E8B4D9FF8207EA504E3D7E65FA3E4C7226
310
B329B0E8D703AAFEBAA304E869379E693123CD68457958A4FF2F11AE86ECFF4119D078F6E7138AD87FF2370F86D6E1E38789702D76FED2134932CCA824CB8C811832A3160D33426421BD980847AF6F0C11D33DEECB1CFE9B7175D1F926045DE5BD8DBFBDBE94081764D0049324E6DDB40A8607F372225C4D16463974B5B836
310
F393232E193EA2E499B49986C93A780A6DA631A981D7A6CD34012EAECDFCFC5937B23F52B26D33BF83CCDBCC56A5C0ECD07DE7A7A7226D661D8D6033A419D0536D33E07F56B8C4CA7C0D48229F9610695A461A0883CE7B494E8DD95B004DF38E8247AB09FE45AC1A52EDAC32A0861DD8DA85D8A76276989D08579353913989
310
700119397510D9BB4CAB9DF096393711B4263ECE4B176E7EBA700B3C389DB3F0B5335AA6A7234288EA142D784A9083AFB414616018456CF24C3293C4CD2F49D3E5A5F0410CEE7E0F2E6A6FEA11580893E29AEE529C2FC11C4DF48D4AA628982DB44A422820F8563073C8F989CF2240392BED74F7768B819FDEDE6E09E0E29A
310
EE72FA030B3CB273954C91D5916E87CC9BEEFB4FAB1E6B73B10CFB6CBEB73B4423589D2D05F4CC9AAE2E4C768646F0614DBB4BD40606DDEA2539B5A67B13A0D36EBACBCA809A9055A7E9E24B8E0D79912B896C91FE0C1655C17843E129FA335B3277F4E8510807513CB9CC44868E210AF7FE19028691B0917E39482B125CF8
310
D4FF01F0B312DAF64B0000
  0
TABLECONTENT
  5
552
330
555
100
AcDbLinkedData
  1

300

100
AcDbLinkedTableData
 90
        5
300
COLUMN
  1
LINKEDTABLEDATACOLUMN_BEGIN
300

 91
        0
301
CUSTOMDATA
  1
DATAMAP_BEGIN
 90
        0
309
DATAMAP_END
309
LINKEDTABLEDATACOLUMN_END
  1
FORMATTEDTABLEDATACOLUMN_BEGIN
300
COLUMNTABLEFORMAT
  1
TABLEFORMAT_BEGIN
 90
        3
170
     0
309
TABLEFORMAT_END
309
FORMATTEDTABLEDATACOLUMN_END
  1
TABLECOLUMN_BEGIN
 90
        0
 40
10.0
309
TABLECOLUMN_END
300
COLUMN
  1
LINKEDTABLEDATACOLUMN_BEGIN
300

 91
        0
301
CUSTOMDATA
  1
DATAMAP_BEGIN
 90
        0
309
DATAMAP_END
309
LINKEDTABLEDATACOLUMN_END
  1
FORMATTEDTABLEDATACOLUMN_BEGIN
300
COLUMNTABLEFORMAT
  1
TABLEFORMAT_BEGIN
 90
        3
170
     0
309
TABLEFORMAT_END
309
FORMATTEDTABLEDATACOLUMN_END
  1
TABLECOLUMN_BEGIN
 90
        0
 40
10.0
309
TABLECOLUMN_END
300
COLUMN
  1
LINKEDTABLEDATACOLUMN_BEGIN
300

 91
        0
301
CUSTOMDATA
  1
DATAMAP_BEGIN
 90
        0
309
DATAMAP_END
309
LINKEDTABLEDATACOLUMN_END
  1
FORMATTEDTABLEDATACOLUMN_BEGIN
300
COLUMNTABLEFORMAT
  1
TABLEFORMAT_BEGIN
 90
        3
170
     0
309
TABLEFORMAT_END
309
FORMATTEDTABLEDATACOLUMN_END
  1
TABLECOLUMN_BEGIN
 90
        0
 40
10.0
309
TABLECOLUMN_END
300
COLUMN
  1
LINKEDTABLEDATACOLUMN_BEGIN
300

 91
        0
301
CUSTOMDATA
  1
DATAMAP_BEGIN
 90
        0
309
DATAMAP_END
309
LINKEDTABLEDATACOLUMN_END
  1
FORMATTEDTABLEDATACOLUMN_BEGIN
300
COLUMNTABLEFORMAT
  1
TABLEFORMAT_BEGIN
 90
        3
170
     0
309
TABLEFORMAT_END
309
FORMATTEDTABLEDATACOLUMN_END
  1
TABLECOLUMN_BEGIN
 90
        0
 40
40.0
309
TABLECOLUMN_END
300
COLUMN
  1
LINKEDTABLEDATACOLUMN_BEGIN
300

 91
        0
301
CUSTOMDATA
  1
DATAMAP_BEGIN
 90
        0
309
DATAMAP_END
309
LINKEDTABLEDATACOLUMN_END
  1
FORMATTEDTABLEDATACOLUMN_BEGIN
300
COLUMNTABLEFORMAT
  1
TABLEFORMAT_BEGIN
 90
        3
170
     0
309
TABLEFORMAT_END
309
FORMATTEDTABLEDATACOLUMN_END
  1
TABLECOLUMN_BEGIN
 90
        0
 40
20.0
309
TABLECOLUMN_END
 91
        5
301
ROW
  1
LINKEDTABLEDATAROW_BEGIN
 90
        5
300
CELL
  1
LINKEDTABLEDATACELL_BEGIN
 90
        0
300

 91
        0
301
CUSTOMDATA
  1
DATAMAP_BEGIN
 90
        1
300
ACAD_ROUNDTRIP_2008_CELL_CHECKSUM
301
DATAMAP_VALUE
 93
        2
 90
        2
140
32.0
 94
        0
300

302

304
ACVALUE_END
309
DATAMAP_END
 92
        0
 95
        1
302
CONTENT
  1
CELLCONTENT_BEGIN
 90
        1
300
VALUE
 93
        2
 90
        4
  1
 
 94
        0
300

302
 
304
ACVALUE_END
 91
        0
309
CELLCONTENT_END
  1
FORMATTEDCELLCONTENT_BEGIN
170
     1
300
CONTENTFORMAT
  1
CONTENTFORMAT_BEGIN
 90
      132
 91
        0
 92
      512
 93
        0
300

 40
0.0
140
1.0
 94
        1
 62
     0
340
0
144
3.5
309
CONTENTFORMAT_END
309
FORMATTEDCELLCONTENT_END
309
LINKEDTABLEDATACELL_END
  1
FORMATTEDTABLEDATACELL_BEGIN
300
CELLTABLEFORMAT
  1
TABLEFORMAT_BEGIN
 90
        1
170
     1
 91
        0
 92
        0
 62
   257
 93
        1
300
CONTENTFORMAT
  1
CONTENTFORMAT_BEGIN
 90
        0
 91
        0
 92
      512
 93
        0
300

 40
0.0
140
1.0
 94
        1
 62
     0
340
0
144
0.18
309
CONTENTFORMAT_END
171
     0
 94
        0
309
TABLEFORMAT_END
309
FORMATTEDTABLEDATACELL_END
  1
TABLECELL_BEGIN
 90
        0
 91
        0
309
TABLECELL_END
300
CELL
  1
LINKEDTABLEDATACELL_BEGIN
 90
        0
300

 91
        0
301
CUSTOMDATA
  1
DATAMAP_BEGIN
 90
        0
309
DATAMAP_END
 92
        0
 95
        0
309
LINKEDTABLEDATACELL_END
  1
FORMATTEDTABLEDATACELL_BEGIN
300
CELLTABLEFORMAT
  1
TABLEFORMAT_BEGIN
 90
        1
170
     1
 91
        0
 92
        0
 62
   257
 93
        1
300
CONTENTFORMAT
  1
CONTENTFORMAT_BEGIN
 90
        0
 91
        0
 92
      512
 93
        0
300

 40
0.0
140
1.0
 94
        1
 62
     0
340
0
144
0.18
309
CONTENTFORMAT_END
171
     0
 94
        0
309
TABLEFORMAT_END
309
FORMATTEDTABLEDATACELL_END
  1
TABLECELL_BEGIN
 90
        0
 91
        0
309
TABLECELL_END
300
CELL
  1
LINKEDTABLEDATACELL_BEGIN
 90
        0
300

 91
        0
301
CUSTOMDATA
  1
DATAMAP_BEGIN
 90
        0
309
DATAMAP_END
 92
        0
 95
        0
309
LINKEDTABLEDATACELL_END
  1
FORMATTEDTABLEDATACELL_BEGIN
300
CELLTABLEFORMAT
  1
TABLEFORMAT_BEGIN
 90
        1
170
     1
 91
        0
 92
        0
 62
   257
 93
        1
300
CONTENTFORMAT
  1
CONTENTFORMAT_BEGIN
 90
        0
 91
        0
 92
      512
 93
        0
300

 40
0.0
140
1.0
 94
        1
 62
     0
340
0
144
0.18
309
CONTENTFORMAT_END
171
     0
 94
        0
309
TABLEFORMAT_END
309
FORMATTEDTABLEDATACELL_END
  1
TABLECELL_BEGIN
 90
        0
 91
        0
309
TABLECELL_END
300
CELL
  1
LINKEDTABLEDATACELL_BEGIN
 90
        0
300

 91
        0
301
CUSTOMDATA
  1
DATAMAP_BEGIN
 90
        1
300
ACAD_ROUNDTRIP_2008_CELL_CHECKSUM
301
DATAMAP_VALUE
 93
        2
 90
        2
140
3448.0
 94
        0
300

302

304
ACVALUE_END
309
DATAMAP_END
 92
        0
 95
        1
302
CONTENT
  1
CELLCONTENT_BEGIN
 90
        1
300
VALUE
 93
        2
 90
        4
  1
A057_C_007
 94
        0
300

302
A057_C_007
304
ACVALUE_END
 91
        0
309
CELLCONTENT_END
  1
FORMATTEDCELLCONTENT_BEGIN
170
     1
300
CONTENTFORMAT
  1
CONTENTFORMAT_BEGIN
 90
      196
 91
        0
 92
      512
 93
        0
300

 40
0.0
140
1.0
 94
        1
 62
     0
340
20A
144
3.0
309
CONTENTFORMAT_END
309
FORMATTEDCELLCONTENT_END
309
LINKEDTABLEDATACELL_END
  1
FORMATTEDTABLEDATACELL_BEGIN
300
CELLTABLEFORMAT
  1
TABLEFORMAT_BEGIN
 90
        1
170
     1
 91
       16
 92
        0
 62
   257
 93
        1
300
CONTENTFORMAT
  1
CONTENTFORMAT_BEGIN
 90
       16
 91
        0
 92
      512
 93
        0
300

 40
0.0
140
1.0
 94
        4
 62
     0
340
0
144
0.18
309
CONTENTFORMAT_END
171
     0
 94
        4
 95
        1
302
GRIDFORMAT
  1
GRIDFORMAT_BEGIN
 90
       26
 91
        1
 62
     0
 92
       -2
340
0
 93
        0
 40
0.045
309
GRIDFORMAT_END
 95
        4
302
GRIDFORMAT
  1
GRIDFORMAT_BEGIN
 90
       26
 91
        1
 62
     0
 92
       -2
340
0
 93
        0
 40
0.045
309
GRIDFORMAT_END
 95
        8
302
GRIDFORMAT
  1
GRIDFORMAT_BEGIN
 90
       26
 91
        1
 62
     0
 92
       -2
340
0
 93
        0
 40
0.045
309
GRIDFORMAT_END
 95
       32
302
GRIDFORMAT
  1
GRIDFORMAT_BEGIN
 90
       26
 91
        1
 62
     0
 92
       -2
340
0
 93
        0
 40
0.045
309
GRIDFORMAT_END
309
TABLEFORMAT_END
309
FORMATTEDTABLEDATACELL_END
  1
TABLECELL_BEGIN
 90
        0
 91
        0
309
TABLECELL_END
300
CELL
  1
LINKEDTABLEDATACELL_BEGIN
 90
        0
300

 91
        0
301
CUSTOMDATA
  1
DATAMAP_BEGIN
 90
        1
300
ACAD_ROUNDTRIP_2008_CELL_CHECKSUM
301
DATAMAP_VALUE
 93
        2
 90
        2
140
1398.0
 94
        0
300

302

304
ACVALUE_END
309
DATAMAP_END
 92
        0
 95
        1
302
CONTENT
  1
CELLCONTENT_BEGIN
 90
        1
300
VALUE
 93
        2
 90
        4
  1
Rev:00
 94
        0
300

302
Rev:00
304
ACVALUE_END
 91
        0
309
CELLCONTENT_END
  1
FORMATTEDCELLCONTENT_BEGIN
170
     1
300
CONTENTFORMAT
  1
CONTENTFORMAT_BEGIN
 90
      196
 91
        0
 92
      512
 93
        0
300

 40
0.0
140
1.0
 94
        1
 62
     0
340
20A
144
3.5
309
CONTENTFORMAT_END
309
FORMATTEDCELLCONTENT_END
309
LINKEDTABLEDATACELL_END
  1
FORMATTEDTABLEDATACELL_BEGIN
300
CELLTABLEFORMAT
  1
TABLEFORMAT_BEGIN
 90
        1
170
     1
 91
       16
 92
        0
 62
   257
 93
        1
300
CONTENTFORMAT
  1
CONTENTFORMAT_BEGIN
 90
       16
 91
        0
 92
      512
 93
        0
300

 40
0.0
140
1.0
 94
        4
 62
     0
340
0
144
0.18
309
CONTENTFORMAT_END
171
     0
 94
        4
 95
        1
302
GRIDFORMAT
  1
GRIDFORMAT_BEGIN
 90
       26
 91
        1
 62
     0
 92
       -2
340
0
 93
        0
 40
0.045
309
GRIDFORMAT_END
 95
        4
302
GRIDFORMAT
  1
GRIDFORMAT_BEGIN
 90
       26
 91
        1
 62
     0
 92
       -2
340
0
 93
        0
 40
0.045
309
GRIDFORMAT_END
 95
        8
302
GRIDFORMAT
  1
GRIDFORMAT_BEGIN
 90
       26
 91
        1
 62
     0
 92
       -2
340
0
 93
        0
 40
0.045
309
GRIDFORMAT_END
 95
       32
302
GRIDFORMAT
  1
GRIDFORMAT_BEGIN
 90
       26
 91
        1
 62
     0
 92
       -2
340
0
 93
        0
 40
0.045
309
GRIDFORMAT_END
309
TABLEFORMAT_END
309
FORMATTEDTABLEDATACELL_END
  1
TABLECELL_BEGIN
 90
        0
 91
        0
309
TABLECELL_END
 91
        0
301
CUSTOMDATA
  1
DATAMAP_BEGIN
 90
        0
309
DATAMAP_END
309
LINKEDTABLEDATAROW_END
  1
FORMATTEDTABLEDATAROW_BEGIN
300
ROWTABLEFORMAT
  1
TABLEFORMAT_BEGIN
 90
        2
170
     0
309
TABLEFORMAT_END
309
FORMATTEDTABLEDATAROW_END
  1
TABLEROW_BEGIN
 90
        1
 40
6.0
309
TABLEROW_END
301
ROW
  1
LINKEDTABLEDATAROW_BEGIN
 90
        5
300
CELL
  1
LINKEDTABLEDATACELL_BEGIN
 90
        0
300

 91
        0
301
CUSTOMDATA
  1
DATAMAP_BEGIN
 90
        0
309
DATAMAP_END
 92
        0
 95
        0
309
LINKEDTABLEDATACELL_END
  1
FORMATTEDTABLEDATACELL_BEGIN
300
CELLTABLEFORMAT
  1
TABLEFORMAT_BEGIN
 90
        1
170
     1
 91
        0
 92
        0
 62
   257
 93
        1
300
CONTENTFORMAT
  1
CONTENTFORMAT_BEGIN
 90
        0
 91
        0
 92
      512
 93
        0
300

 40
0.0
140
1.0
 94
        1
 62
     0
340
0
144
0.18
309
CONTENTFORMAT_END
171
     0
 94
        0
309
TABLEFORMAT_END
309
FORMATTEDTABLEDATACELL_END
  1
TABLECELL_BEGIN
 90
        0
 91
        0
309
TABLECELL_END
300
CELL
  1
LINKEDTABLEDATACELL_BEGIN
 90
        0
300

 91
        0
301
CUSTOMDATA
  1
DATAMAP_BEGIN
 90
        0
309
DATAMAP_END
 92
        0
 95
        0
309
LINKEDTABLEDATACELL_END
  1
FORMATTEDTABLEDATACELL_BEGIN
300
CELLTABLEFORMAT
  1
TABLEFORMAT_BEGIN
 90
        1
170
     1
 91
        0
 92
        0
 62
   257
 93
        1
300
CONTENTFORMAT
  1
CONTENTFORMAT_BEGIN
 90
        0
 91
        0
 92
      512
 93
        0
300

 40
0.0
140
1.0
 94
        1
 62
     0
340
0
144
0.18
309
CONTENTFORMAT_END
171
     0
 94
        0
309
TABLEFORMAT_END
309
FORMATTEDTABLEDATACELL_END
  1
TABLECELL_BEGIN
 90
        0
 91
        0
309
TABLECELL_END
300
CELL
  1
LINKEDTABLEDATACELL_BEGIN
 90
        0
300

 91
        0
301
CUSTOMDATA
  1
DATAMAP_BEGIN
 90
        0
309
DATAMAP_END
 92
        0
 95
        0
309
LINKEDTABLEDATACELL_END
  1
FORMATTEDTABLEDATACELL_BEGIN
300
CELLTABLEFORMAT
  1
TABLEFORMAT_BEGIN
 90
        1
170
     1
 91
        0
 92
        0
 62
   257
 93
        1
300
CONTENTFORMAT
  1
CONTENTFORMAT_BEGIN
 90
        0
 91
        0
 92
      512
 93
        0
300

 40
0.0
140
1.0
 94
        1
 62
     0
340
0
144
0.18
309
CONTENTFORMAT_END
171
     0
 94
        0
309
TABLEFORMAT_END
309
FORMATTEDTABLEDATACELL_END
  1
TABLECELL_BEGIN
 90
        0
 91
        0
309
TABLECELL_END
300
CELL
  1
LINKEDTABLEDATACELL_BEGIN
 90
        0
300

 91
        0
301
CUSTOMDATA
  1
DATAMAP_BEGIN
 90
        1
300
ACAD_ROUNDTRIP_2008_CELL_CHECKSUM
301
DATAMAP_VALUE
 93
        2
 90
        2
140
3105.0
 94
        0
300

302

304
ACVALUE_END
309
DATAMAP_END
 92
        0
 95
        1
302
CONTENT
  1
CELLCONTENT_BEGIN
 90
        1
300
VALUE
 93
        2
 90
        4
  1
Scale:1:1
 94
        0
300

302
Scale:1:1
304
ACVALUE_END
 91
        0
309
CELLCONTENT_END
  1
FORMATTEDCELLCONTENT_BEGIN
170
     1
300
CONTENTFORMAT
  1
CONTENTFORMAT_BEGIN
 90
      196
 91
        0
 92
      512
 93
        0
300

 40
0.0
140
1.0
 94
        1
 62
     0
340
20A
144
3.5
309
CONTENTFORMAT_END
309
FORMATTEDCELLCONTENT_END
309
LINKEDTABLEDATACELL_END
  1
FORMATTEDTABLEDATACELL_BEGIN
300
CELLTABLEFORMAT
  1
TABLEFORMAT_BEGIN
 90
        1
170
     1
 91
       16
 92
        0
 62
   257
 93
        1
300
CONTENTFORMAT
  1
CONTENTFORMAT_BEGIN
 90
       16
 91
        0
 92
      512
 93
        0
300

 40
0.0
140
1.0
 94
        1
 62
     0
340
0
144
0.18
309
CONTENTFORMAT_END
171
     0
 94
        4
 95
        1
302
GRIDFORMAT
  1
GRIDFORMAT_BEGIN
 90
       26
 91
        1
 62
     0
 92
       -2
340
0
 93
        0
 40
0.045
309
GRIDFORMAT_END
 95
        4
302
GRIDFORMAT
  1
GRIDFORMAT_BEGIN
 90
       26
 91
        1
 62
     0
 92
       -2
340
0
 93
        0
 40
0.045
309
GRIDFORMAT_END
 95
        8
302
GRIDFORMAT
  1
GRIDFORMAT_BEGIN
 90
       26
 91
        1
 62
     0
 92
       -2
340
0
 93
        0
 40
0.045
309
GRIDFORMAT_END
 95
       32
302
GRIDFORMAT
  1
GRIDFORMAT_BEGIN
 90
       26
 91
        1
 62
     0
 92
       -2
340
0
 93
        0
 40
0.045
309
GRIDFORMAT_END
309
TABLEFORMAT_END
309
FORMATTEDTABLEDATACELL_END
  1
TABLECELL_BEGIN
 90
        0
 91
        0
309
TABLECELL_END
300
CELL
  1
LINKEDTABLEDATACELL_BEGIN
 90
        0
300

 91
        0
301
CUSTOMDATA
  1
DATAMAP_BEGIN
 90
        1
300
ACAD_ROUNDTRIP_2008_CELL_CHECKSUM
301
DATAMAP_VALUE
 93
        2
 90
        2
140
165.0
 94
        0
300

302

304
ACVALUE_END
309
DATAMAP_END
 92
        0
 95
        1
302
CONTENT
  1
CELLCONTENT_BEGIN
 90
        1
300
VALUE
 93
        2
 90
        4
  1
A2
 94
        0
300

302
A2
304
ACVALUE_END
 91
        0
309
CELLCONTENT_END
  1
FORMATTEDCELLCONTENT_BEGIN
170
     1
300
CONTENTFORMAT
  1
CONTENTFORMAT_BEGIN
 90
      196
 91
        0
 92
      512
 93
        0
300

 40
0.0
140
1.0
 94
        1
 62
     0
340
20A
144
3.5
309
CONTENTFORMAT_END
309
FORMATTEDCELLCONTENT_END
309
LINKEDTABLEDATACELL_END
  1
FORMATTEDTABLEDATACELL_BEGIN
300
CELLTABLEFORMAT
  1
TABLEFORMAT_BEGIN
 90
        1
170
     1
 91
       16
 92
        0
 62
   257
 93
        1
300
CONTENTFORMAT
  1
CONTENTFORMAT_BEGIN
 90
       16
 91
        0
 92
      512
 93
        0
300

 40
0.0
140
1.0
 94
        4
 62
     0
340
0
144
0.18
309
CONTENTFORMAT_END
171
     0
 94
        4
 95
        1
302
GRIDFORMAT
  1
GRIDFORMAT_BEGIN
 90
       26
 91
        1
 62
     0
 92
       -2
340
0
 93
        0
 40
0.045
309
GRIDFORMAT_END
 95
        4
302
GRIDFORMAT
  1
GRIDFORMAT_BEGIN
 90
       26
 91
        1
 62
     0
 92
       -2
340
0
 93
        0
 40
0.045
309
GRIDFORMAT_END
 95
        8
302
GRIDFORMAT
  1
GRIDFORMAT_BEGIN
 90
       26
 91
        1
 62
     0
 92
       -2
340
0
 93
        0
 40
0.045
309
GRIDFORMAT_END
 95
       32
302
GRIDFORMAT
  1
GRIDFORMAT_BEGIN
 90
       26
 91
        1
 62
     0
 92
       -2
340
0
 93
        0
 40
0.045
309
GRIDFORMAT_END
309
TABLEFORMAT_END
309
FORMATTEDTABLEDATACELL_END
  1
TABLECELL_BEGIN
 90
        0
 91
        0
309
TABLECELL_END
 91
        0
301
CUSTOMDATA
  1
DATAMAP_BEGIN
 90
        0
309
DATAMAP_END
309
LINKEDTABLEDATAROW_END
  1
FORMATTEDTABLEDATAROW_BEGIN
300
ROWTABLEFORMAT
  1
TABLEFORMAT_BEGIN
 90
        2
170
     0
309
TABLEFORMAT_END
309
FORMATTEDTABLEDATAROW_END
  1
TABLEROW_BEGIN
 90
        2
 40
6.0
309
TABLEROW_END
301
ROW
  1
LINKEDTABLEDATAROW_BEGIN
 90
        5
300
CELL
  1
LINKEDTABLEDATACELL_BEGIN
 90
        0
300

 91
        0
301
CUSTOMDATA
  1
DATAMAP_BEGIN
 90
        0
309
DATAMAP_END
 92
        0
 95
        0
309
LINKEDTABLEDATACELL_END
  1
FORMATTEDTABLEDATACELL_BEGIN
300
CELLTABLEFORMAT
  1
TABLEFORMAT_BEGIN
 90
        1
170
     1
 91
        0
 92
        0
 62
   257
 93
        1
300
CONTENTFORMAT
  1
CONTENTFORMAT_BEGIN
 90
        0
 91
        0
 92
      512
 93
        0
300

 40
0.0
140
1.0
 94
        1
 62
     0
340
0
144
0.18
309
CONTENTFORMAT_END
171
     0
 94
        0
309
TABLEFORMAT_END
309
FORMATTEDTABLEDATACELL_END
  1
TABLECELL_BEGIN
 90
        0
 91
        0
309
TABLECELL_END
300
CELL
  1
LINKEDTABLEDATACELL_BEGIN
 90
        0
300

 91
        0
301
CUSTOMDATA
  1
DATAMAP_BEGIN
 90
        0
309
DATAMAP_END
 92
        0
 95
        0
309
LINKEDTABLEDATACELL_END
  1
FORMATTEDTABLEDATACELL_BEGIN
300
CELLTABLEFORMAT
  1
TABLEFORMAT_BEGIN
 90
        1
170
     1
 91
        0
 92
        0
 62
   257
 93
        1
300
CONTENTFORMAT
  1
CONTENTFORMAT_BEGIN
 90
        0
 91
        0
 92
      512
 93
        0
300

 40
0.0
140
1.0
 94
        1
 62
     0
340
0
144
0.18
309
CONTENTFORMAT_END
171
     0
 94
        0
309
TABLEFORMAT_END
309
FORMATTEDTABLEDATACELL_END
  1
TABLECELL_BEGIN
 90
        0
 91
        0
309
TABLECELL_END
300
CELL
  1
LINKEDTABLEDATACELL_BEGIN
 90
        0
300

 91
        0
301
CUSTOMDATA
  1
DATAMAP_BEGIN
 90
        0
309
DATAMAP_END
 92
        0
 95
        0
309
LINKEDTABLEDATACELL_END
  1
FORMATTEDTABLEDATACELL_BEGIN
300
CELLTABLEFORMAT
  1
TABLEFORMAT_BEGIN
 90
        1
170
     1
 91
        0
 92
        0
 62
   257
 93
        1
300
CONTENTFORMAT
  1
CONTENTFORMAT_BEGIN
 90
        0
 91
        0
 92
      512
 93
        0
300

 40
0.0
140
1.0
 94
        1
 62
     0
340
0
144
0.18
309
CONTENTFORMAT_END
171
     0
 94
        0
309
TABLEFORMAT_END
309
FORMATTEDTABLEDATACELL_END
  1
TABLECELL_BEGIN
 90
        0
 91
        0
309
TABLECELL_END
300
CELL
  1
LINKEDTABLEDATACELL_BEGIN
 90
        0
300

 91
        0
301
CUSTOMDATA
  1
DATAMAP_BEGIN
 90
        1
300
ACAD_ROUNDTRIP_2008_CELL_CHECKSUM
301
DATAMAP_VALUE
 93
        2
 90
        2
140
36606.0
 94
        0
300

302

304
ACVALUE_END
309
DATAMAP_END
 92
        0
 95
        1
302
CONTENT
  1
CELLCONTENT_BEGIN
 90
        1
300
VALUE
 93
        2
 90
        4
  1
FRONT.SEMI PROFONDO TONDO COMBO4
 94
        0
300

302
FRONT.SEMI PROFONDO TONDO COMBO4
304
ACVALUE_END
 91
        0
309
CELLCONTENT_END
  1
FORMATTEDCELLCONTENT_BEGIN
170
     1
300
CONTENTFORMAT
  1
CONTENTFORMAT_BEGIN
 90
      196
 91
        0
 92
      512
 93
        0
300

 40
0.0
140
1.0
 94
        1
 62
     0
340
20A
144
2.5
309
CONTENTFORMAT_END
309
FORMATTEDCELLCONTENT_END
309
LINKEDTABLEDATACELL_END
  1
FORMATTEDTABLEDATACELL_BEGIN
300
CELLTABLEFORMAT
  1
TABLEFORMAT_BEGIN
 90
        1
170
     1
 91
       16
 92
        0
 62
   257
 93
        1
300
CONTENTFORMAT
  1
CONTENTFORMAT_BEGIN
 90
       16
 91
        0
 92
      512
 93
        0
300

 40
0.0
140
1.0
 94
        4
 62
     0
340
0
144
0.18
309
CONTENTFORMAT_END
171
     0
 94
        4
 95
        1
302
GRIDFORMAT
  1
GRIDFORMAT_BEGIN
 90
       26
 91
        1
 62
     0
 92
       -2
340
0
 93
        0
 40
0.045
309
GRIDFORMAT_END
 95
        4
302
GRIDFORMAT
  1
GRIDFORMAT_BEGIN
 90
       26
 91
        1
 62
     0
 92
       -2
340
0
 93
        0
 40
0.045
309
GRIDFORMAT_END
 95
        8
302
GRIDFORMAT
  1
GRIDFORMAT_BEGIN
 90
       26
 91
        1
 62
     0
 92
       -2
340
0
 93
        0
 40
0.045
309
GRIDFORMAT_END
 95
       32
302
GRIDFORMAT
  1
GRIDFORMAT_BEGIN
 90
       26
 91
        1
 62
     0
 92
       -2
340
0
 93
        0
 40
0.045
309
GRIDFORMAT_END
309
TABLEFORMAT_END
309
FORMATTEDTABLEDATACELL_END
  1
TABLECELL_BEGIN
 90
        0
 91
        0
309
TABLECELL_END
300
CELL
  1
LINKEDTABLEDATACELL_BEGIN
 90
        0
300

 91
        0
301
CUSTOMDATA
  1
DATAMAP_BEGIN
 90
        0
309
DATAMAP_END
 92
        0
 95
        0
309
LINKEDTABLEDATACELL_END
  1
FORMATTEDTABLEDATACELL_BEGIN
300
CELLTABLEFORMAT
  1
TABLEFORMAT_BEGIN
 90
        1
170
     1
 91
        0
 92
        0
 62
   257
 93
        1
300
CONTENTFORMAT
  1
CONTENTFORMAT_BEGIN
 90
        0
 91
        0
 92
      512
 93
        0
300

 40
0.0
140
1.0
 94
        1
 62
     0
340
0
144
0.18
309
CONTENTFORMAT_END
171
     0
 94
        0
309
TABLEFORMAT_END
309
FORMATTEDTABLEDATACELL_END
  1
TABLECELL_BEGIN
 90
        0
 91
        0
309
TABLECELL_END
 91
        0
301
CUSTOMDATA
  1
DATAMAP_BEGIN
 90
        0
309
DATAMAP_END
309
LINKEDTABLEDATAROW_END
  1
FORMATTEDTABLEDATAROW_BEGIN
300
ROWTABLEFORMAT
  1
TABLEFORMAT_BEGIN
 90
        2
170
     0
309
TABLEFORMAT_END
309
FORMATTEDTABLEDATAROW_END
  1
TABLEROW_BEGIN
 90
        3
 40
10.0
309
TABLEROW_END
301
ROW
  1
LINKEDTABLEDATAROW_BEGIN
 90
        5
300
CELL
  1
LINKEDTABLEDATACELL_BEGIN
 90
        0
300

 91
        0
301
CUSTOMDATA
  1
DATAMAP_BEGIN
 90
        0
309
DATAMAP_END
 92
        0
 95
        0
309
LINKEDTABLEDATACELL_END
  1
FORMATTEDTABLEDATACELL_BEGIN
300
CELLTABLEFORMAT
  1
TABLEFORMAT_BEGIN
 90
        1
170
     1
 91
        0
 92
        0
 62
   257
 93
        1
300
CONTENTFORMAT
  1
CONTENTFORMAT_BEGIN
 90
        0
 91
        0
 92
      512
 93
        0
300

 40
0.0
140
1.0
 94
        1
 62
     0
340
0
144
0.18
309
CONTENTFORMAT_END
171
     0
 94
        0
309
TABLEFORMAT_END
309
FORMATTEDTABLEDATACELL_END
  1
TABLECELL_BEGIN
 90
        0
 91
        0
309
TABLECELL_END
300
CELL
  1
LINKEDTABLEDATACELL_BEGIN
 90
        0
300

 91
        0
301
CUSTOMDATA
  1
DATAMAP_BEGIN
 90
        0
309
DATAMAP_END
 92
        0
 95
        0
309
LINKEDTABLEDATACELL_END
  1
FORMATTEDTABLEDATACELL_BEGIN
300
CELLTABLEFORMAT
  1
TABLEFORMAT_BEGIN
 90
        1
170
     1
 91
        0
 92
        0
 62
   257
 93
        1
300
CONTENTFORMAT
  1
CONTENTFORMAT_BEGIN
 90
        0
 91
        0
 92
      512
 93
        0
300

 40
0.0
140
1.0
 94
        1
 62
     0
340
0
144
0.18
309
CONTENTFORMAT_END
171
     0
 94
        0
309
TABLEFORMAT_END
309
FORMATTEDTABLEDATACELL_END
  1
TABLECELL_BEGIN
 90
        0
 91
        0
309
TABLECELL_END
300
CELL
  1
LINKEDTABLEDATACELL_BEGIN
 90
        0
300

 91
        0
301
CUSTOMDATA
  1
DATAMAP_BEGIN
 90
        0
309
DATAMAP_END
 92
        0
 95
        0
309
LINKEDTABLEDATACELL_END
  1
FORMATTEDTABLEDATACELL_BEGIN
300
CELLTABLEFORMAT
  1
TABLEFORMAT_BEGIN
 90
        1
170
     1
 91
        0
 92
        0
 62
   257
 93
        1
300
CONTENTFORMAT
  1
CONTENTFORMAT_BEGIN
 90
        0
 91
        0
 92
      512
 93
        0
300

 40
0.0
140
1.0
 94
        1
 62
     0
340
0
144
0.18
309
CONTENTFORMAT_END
171
     0
 94
        0
309
TABLEFORMAT_END
309
FORMATTEDTABLEDATACELL_END
  1
TABLECELL_BEGIN
 90
        0
 91
        0
309
TABLECELL_END
300
CELL
  1
LINKEDTABLEDATACELL_BEGIN
 90
        0
300

 91
        0
301
CUSTOMDATA
  1
DATAMAP_BEGIN
 90
        1
300
ACAD_ROUNDTRIP_2008_CELL_CHECKSUM
301
DATAMAP_VALUE
 93
        2
 90
        2
140
4804.0
 94
        0
300

302

304
ACVALUE_END
309
DATAMAP_END
 92
        0
 95
        1
302
CONTENT
  1
CELLCONTENT_BEGIN
 90
        1
300
VALUE
 93
        2
 90
        4
  1
DATE:12.12.19
 94
        0
300

302
DATE:12.12.19
304
ACVALUE_END
 91
        0
309
CELLCONTENT_END
  1
FORMATTEDCELLCONTENT_BEGIN
170
     1
300
CONTENTFORMAT
  1
CONTENTFORMAT_BEGIN
 90
      196
 91
        0
 92
      512
 93
        0
300

 40
0.0
140
1.0
 94
        1
 62
     0
340
20A
144
2.5
309
CONTENTFORMAT_END
309
FORMATTEDCELLCONTENT_END
309
LINKEDTABLEDATACELL_END
  1
FORMATTEDTABLEDATACELL_BEGIN
300
CELLTABLEFORMAT
  1
TABLEFORMAT_BEGIN
 90
        1
170
     1
 91
       16
 92
        0
 62
   257
 93
        1
300
CONTENTFORMAT
  1
CONTENTFORMAT_BEGIN
 90
       16
 91
        0
 92
      512
 93
        0
300

 40
0.0
140
1.0
 94
        4
 62
     0
340
0
144
0.18
309
CONTENTFORMAT_END
171
     0
 94
        4
 95
        1
302
GRIDFORMAT
  1
GRIDFORMAT_BEGIN
 90
       26
 91
        1
 62
     0
 92
       -2
340
0
 93
        0
 40
0.045
309
GRIDFORMAT_END
 95
        4
302
GRIDFORMAT
  1
GRIDFORMAT_BEGIN
 90
       26
 91
        1
 62
     0
 92
       -2
340
0
 93
        0
 40
0.045
309
GRIDFORMAT_END
 95
        8
302
GRIDFORMAT
  1
GRIDFORMAT_BEGIN
 90
       26
 91
        1
 62
     0
 92
       -2
340
0
 93
        0
 40
0.045
309
GRIDFORMAT_END
 95
       32
302
GRIDFORMAT
  1
GRIDFORMAT_BEGIN
 90
       26
 91
        1
 62
     0
 92
       -2
340
0
 93
        0
 40
0.045
309
GRIDFORMAT_END
309
TABLEFORMAT_END
309
FORMATTEDTABLEDATACELL_END
  1
TABLECELL_BEGIN
 90
        0
 91
        0
309
TABLECELL_END
300
CELL
  1
LINKEDTABLEDATACELL_BEGIN
 90
        0
300

 91
        0
301
CUSTOMDATA
  1
DATAMAP_BEGIN
 90
        0
309
DATAMAP_END
 92
        0
 95
        0
309
LINKEDTABLEDATACELL_END
  1
FORMATTEDTABLEDATACELL_BEGIN
300
CELLTABLEFORMAT
  1
TABLEFORMAT_BEGIN
 90
        1
170
     1
 91
        0
 92
        0
 62
   257
 93
        1
300
CONTENTFORMAT
  1
CONTENTFORMAT_BEGIN
 90
        0
 91
        0
 92
      512
 93
        0
300

 40
0.0
140
1.0
 94
        1
 62
     0
340
0
144
0.18
309
CONTENTFORMAT_END
171
     0
 94
        0
309
TABLEFORMAT_END
309
FORMATTEDTABLEDATACELL_END
  1
TABLECELL_BEGIN
 90
        0
 91
        0
309
TABLECELL_END
 91
        0
301
CUSTOMDATA
  1
DATAMAP_BEGIN
 90
        0
309
DATAMAP_END
309
LINKEDTABLEDATAROW_END
  1
FORMATTEDTABLEDATAROW_BEGIN
300
ROWTABLEFORMAT
  1
TABLEFORMAT_BEGIN
 90
        2
170
     0
309
TABLEFORMAT_END
309
FORMATTEDTABLEDATAROW_END
  1
TABLEROW_BEGIN
 90
        3
 40
5.0
309
TABLEROW_END
301
ROW
  1
LINKEDTABLEDATAROW_BEGIN
 90
        5
300
CELL
  1
LINKEDTABLEDATACELL_BEGIN
 90
        0
300

 91
        0
301
CUSTOMDATA
  1
DATAMAP_BEGIN
 90
        1
300
ACAD_ROUNDTRIP_2008_CELL_CHECKSUM
301
DATAMAP_VALUE
 93
        2
 90
        2
140
1361482.0
 94
        0
300

302

304
ACVALUE_END
309
DATAMAP_END
 92
        0
 95
        1
302
CONTENT
  1
CELLCONTENT_BEGIN
 90
        1
300
VALUE
 93
        2
 90
        4
  1
Any integral or partial reproductions are prohibited \Pwithout prior authorisation of L & L Luce & Light s.r.l., \Pin accordance with the law in force. \PAll rights reserved.
 94
        0
300

302
Any integral or partial reproductions are prohibited \Pwithout prior authorisation of L & L Luce & Light s.r.l., \Pin accordance with the law in force. \PAll rights reserved.
304
ACVALUE_END
 91
        0
309
CELLCONTENT_END
  1
FORMATTEDCELLCONTENT_BEGIN
170
     1
300
CONTENTFORMAT
  1
CONTENTFORMAT_BEGIN
 90
      196
 91
        0
 92
      512
 93
        0
300

 40
0.0
140
1.0
 94
        1
 62
     0
340
20A
144
2.25
309
CONTENTFORMAT_END
309
FORMATTEDCELLCONTENT_END
309
LINKEDTABLEDATACELL_END
  1
FORMATTEDTABLEDATACELL_BEGIN
300
CELLTABLEFORMAT
  1
TABLEFORMAT_BEGIN
 90
        1
170
     1
 91
       16
 92
        0
 62
   257
 93
        1
300
CONTENTFORMAT
  1
CONTENTFORMAT_BEGIN
 90
       16
 91
        0
 92
      512
 93
        0
300

 40
0.0
140
1.0
 94
        4
 62
     0
340
0
144
0.18
309
CONTENTFORMAT_END
171
     0
 94
        4
 95
        1
302
GRIDFORMAT
  1
GRIDFORMAT_BEGIN
 90
       26
 91
        1
 62
     0
 92
       -2
340
0
 93
        0
 40
0.045
309
GRIDFORMAT_END
 95
        4
302
GRIDFORMAT
  1
GRIDFORMAT_BEGIN
 90
       26
 91
        1
 62
     0
 92
       -2
340
0
 93
        0
 40
0.045
309
GRIDFORMAT_END
 95
        8
302
GRIDFORMAT
  1
GRIDFORMAT_BEGIN
 90
       26
 91
        1
 62
     0
 92
       -2
340
0
 93
        0
 40
0.045
309
GRIDFORMAT_END
 95
       32
302
GRIDFORMAT
  1
GRIDFORMAT_BEGIN
 90
       26
 91
        1
 62
     0
 92
       -2
340
0
 93
        0
 40
0.045
309
GRIDFORMAT_END
309
TABLEFORMAT_END
309
FORMATTEDTABLEDATACELL_END
  1
TABLECELL_BEGIN
 90
        0
 91
        0
309
TABLECELL_END
300
CELL
  1
LINKEDTABLEDATACELL_BEGIN
 90
        0
300

 91
        0
301
CUSTOMDATA
  1
DATAMAP_BEGIN
 90
        0
309
DATAMAP_END
 92
        0
 95
        0
309
LINKEDTABLEDATACELL_END
  1
FORMATTEDTABLEDATACELL_BEGIN
300
CELLTABLEFORMAT
  1
TABLEFORMAT_BEGIN
 90
        1
170
     1
 91
        0
 92
        0
 62
   257
 93
        1
300
CONTENTFORMAT
  1
CONTENTFORMAT_BEGIN
 90
        0
 91
        0
 92
      512
 93
        0
300

 40
0.0
140
1.0
 94
        1
 62
     0
340
0
144
0.18
309
CONTENTFORMAT_END
171
     0
 94
        0
309
TABLEFORMAT_END
309
FORMATTEDTABLEDATACELL_END
  1
TABLECELL_BEGIN
 90
        0
 91
        0
309
TABLECELL_END
300
CELL
  1
LINKEDTABLEDATACELL_BEGIN
 90
        0
300

 91
        0
301
CUSTOMDATA
  1
DATAMAP_BEGIN
 90
        0
309
DATAMAP_END
 92
        0
 95
        0
309
LINKEDTABLEDATACELL_END
  1
FORMATTEDTABLEDATACELL_BEGIN
300
CELLTABLEFORMAT
  1
TABLEFORMAT_BEGIN
 90
        1
170
     1
 91
        0
 92
        0
 62
   257
 93
        1
300
CONTENTFORMAT
  1
CONTENTFORMAT_BEGIN
 90
        0
 91
        0
 92
      512
 93
        0
300

 40
0.0
140
1.0
 94
        1
 62
     0
340
0
144
0.18
309
CONTENTFORMAT_END
171
     0
 94
        0
309
TABLEFORMAT_END
309
FORMATTEDTABLEDATACELL_END
  1
TABLECELL_BEGIN
 90
        0
 91
        0
309
TABLECELL_END
300
CELL
  1
LINKEDTABLEDATACELL_BEGIN
 90
        0
300

 91
        0
301
CUSTOMDATA
  1
DATAMAP_BEGIN
 90
        0
309
DATAMAP_END
 92
        0
 95
        0
309
LINKEDTABLEDATACELL_END
  1
FORMATTEDTABLEDATACELL_BEGIN
300
CELLTABLEFORMAT
  1
TABLEFORMAT_BEGIN
 90
        1
170
     1
 91
        0
 92
        0
 62
   257
 93
        1
300
CONTENTFORMAT
  1
CONTENTFORMAT_BEGIN
 90
        0
 91
        0
 92
      512
 93
        0
300

 40
0.0
140
1.0
 94
        1
 62
     0
340
0
144
0.18
309
CONTENTFORMAT_END
171
     0
 94
        0
309
TABLEFORMAT_END
309
FORMATTEDTABLEDATACELL_END
  1
TABLECELL_BEGIN
 90
        0
 91
        0
309
TABLECELL_END
300
CELL
  1
LINKEDTABLEDATACELL_BEGIN
 90
        0
300

 91
        0
301
CUSTOMDATA
  1
DATAMAP_BEGIN
 90
        0
309
DATAMAP_END
 92
        0
 95
        0
309
LINKEDTABLEDATACELL_END
  1
FORMATTEDTABLEDATACELL_BEGIN
300
CELLTABLEFORMAT
  1
TABLEFORMAT_BEGIN
 90
        1
170
     1
 91
        0
 92
        0
 62
   257
 93
        1
300
CONTENTFORMAT
  1
CONTENTFORMAT_BEGIN
 90
        0
 91
        0
 92
      512
 93
        0
300

 40
0.0
140
1.0
 94
        1
 62
     0
340
0
144
0.18
309
CONTENTFORMAT_END
171
     0
 94
        0
309
TABLEFORMAT_END
309
FORMATTEDTABLEDATACELL_END
  1
TABLECELL_BEGIN
 90
        0
 91
        0
309
TABLECELL_END
 91
        0
301
CUSTOMDATA
  1
DATAMAP_BEGIN
 90
        0
309
DATAMAP_END
309
LINKEDTABLEDATAROW_END
  1
FORMATTEDTABLEDATAROW_BEGIN
300
ROWTABLEFORMAT
  1
TABLEFORMAT_BEGIN
 90
        2
170
     0
309
TABLEFORMAT_END
309
FORMATTEDTABLEDATAROW_END
  1
TABLEROW_BEGIN
 90
        3
 40
13.0
309
TABLEROW_END
100
AcDbFormattedTableData
300
TABLEFORMAT
  1
TABLEFORMAT_BEGIN
 90
        4
170
     1
 91
    15360
 92
        0
 62
   257
 93
        1
300
CONTENTFORMAT
  1
CONTENTFORMAT_BEGIN
 90
        0
 91
        0
 92
      512
 93
        0
300

 40
0.0
140
1.0
 94
        1
 62
     0
340
0
144
0.18
309
CONTENTFORMAT_END
171
     1
301
MARGIN
  1
CELLMARGIN_BEGIN
 40
0.06
 40
0.06
 40
0.06
 40
0.06
 40
0.06
 40
0.06
309
CELLMARGIN_END
 94
        0
309
TABLEFORMAT_END
 90
        4
 91
        0
 92
        0
 93
        3
 94
        2
 91
        2
 92
        3
 93
        2
 94
        4
 91
        3
 92
        3
 93
        3
 94
        4
 91
        4
 92
        0
 93
        4
 94
        4
100
AcDbTableContent
340
526
  0
TABLEGEOMETRY
  5
553
330
555
100
AcDbTableGeometry
 90
        5
 91
        5
 92
       25
 93
        0
 40
0.0
 41
0.0
330
0
 94
        0
 93
        0
 40
0.0
 41
0.0
330
0
 94
        0
 93
        0
 40
0.0
 41
0.0
330
0
 94
        0
 93
        0
 40
0.0
 41
0.0
330
0
 94
        0
 93
        0
 40
0.0
 41
0.0
330
0
 94
        0
 93
        0
 40
0.0
 41
0.0
330
0
 94
        0
 93
        0
 40
0.0
 41
0.0
330
0
 94
        0
 93
        0
 40
0.0
 41
0.0
330
0
 94
        0
 93
        0
 40
0.0
 41
0.0
330
0
 94
        0
 93
        0
 40
0.0
 41
0.0
330
0
 94
        0
 93
        0
 40
0.0
 41
0.0
330
0
 94
        0
 93
        0
 40
0.0
 41
0.0
330
0
 94
        0
 93
        0
 40
0.0
 41
0.0
330
0
 94
        0
 93
        0
 40
0.0
 41
0.0
330
0
 94
        0
 93
        0
 40
0.0
 41
0.0
330
0
 94
        0
 93
        0
 40
0.0
 41
0.0
330
0
 94
        0
 93
        0
 40
0.0
 41
0.0
330
0
 94
        0
 93
        0
 40
0.0
 41
0.0
330
0
 94
        0
 93
        0
 40
0.0
 41
0.0
330
0
 94
        0
 93
        0
 40
0.0
 41
0.0
330
0
 94
        0
 93
        0
 40
0.0
 41
0.0
330
0
 94
        0
 93
        0
 40
0.0
 41
0.0
330
0
 94
        0
 93
        0
 40
0.0
 41
0.0
330
0
 94
        0
 93
        0
 40
0.0
 41
0.0
330
0
 94
        0
 93
        0
 40
0.0
 41
0.0
330
0
 94
        0
  0
DICTIONARY
  5
558
330
526
100
AcDbDictionary
280
     1
281
     1
  3
ACAD_ROUNDTRIP_2008_TABLESTYLE_CELLSTYLEMAP
360
559
  0
CELLSTYLEMAP
  5
559
102
{ACAD_REACTORS
330
558
102
}
330
558
100
AcDbCellStyleMap
 90
        3
300
CELLSTYLE
  1
TABLEFORMAT_BEGIN
 90
        5
170
     1
 91
        0
 92
        0
 62
   257
 93
        1
300
CONTENTFORMAT
  1
CONTENTFORMAT_BEGIN
 90
        0
 91
        0
 92
        4
 93
        0
300

 40
0.0
140
1.0
 94
        5
 62
     0
340
11
144
6.0
309
CONTENTFORMAT_END
171
     1
301
MARGIN
  1
CELLMARGIN_BEGIN
 40
1.5
 40
1.5
 40
1.5
 40
1.5
 40
1.5
 40
1.5
309
CELLMARGIN_END
 94
        6
 95
        1
302
GRIDFORMAT
  1
GRIDFORMAT_BEGIN
 90
        0
 91
        1
 62
     0
 92
       -2
340
14
 93
        0
 40
0.045
309
GRIDFORMAT_END
 95
        2
302
GRIDFORMAT
  1
GRIDFORMAT_BEGIN
 90
        0
 91
        1
 62
     0
 92
       -2
340
14
 93
        0
 40
0.045
309
GRIDFORMAT_END
 95
        4
302
GRIDFORMAT
  1
GRIDFORMAT_BEGIN
 90
        0
 91
        1
 62
     0
 92
       -2
340
14
 93
        0
 40
0.045
309
GRIDFORMAT_END
 95
        8
302
GRIDFORMAT
  1
GRIDFORMAT_BEGIN
 90
        0
 91
        1
 62
     0
 92
       -2
340
14
 93
        0
 40
0.045
309
GRIDFORMAT_END
 95
       16
302
GRIDFORMAT
  1
GRIDFORMAT_BEGIN
 90
        0
 91
        1
 62
     0
 92
       -2
340
14
 93
        0
 40
0.045
309
GRIDFORMAT_END
 95
       32
302
GRIDFORMAT
  1
GRIDFORMAT_BEGIN
 90
        0
 91
        1
 62
     0
 92
       -2
340
14
 93
        0
 40
0.045
309
GRIDFORMAT_END
309
TABLEFORMAT_END
  1
CELLSTYLE_BEGIN
 90
        1
 91
        1
300
_TITLE
309
CELLSTYLE_END
300
CELLSTYLE
  1
TABLEFORMAT_BEGIN
 90
        5
170
     1
 91
        0
 92
        0
 62
   257
 93
        1
300
CONTENTFORMAT
  1
CONTENTFORMAT_BEGIN
 90
        0
 91
        0
 92
        4
 93
        0
300

 40
0.0
140
1.0
 94
        5
 62
     0
340
11
144
4.5
309
CONTENTFORMAT_END
171
     1
301
MARGIN
  1
CELLMARGIN_BEGIN
 40
1.5
 40
1.5
 40
1.5
 40
1.5
 40
1.5
 40
1.5
309
CELLMARGIN_END
 94
        6
 95
        1
302
GRIDFORMAT
  1
GRIDFORMAT_BEGIN
 90
        0
 91
        1
 62
     0
 92
       -2
340
14
 93
        0
 40
0.045
309
GRIDFORMAT_END
 95
        2
302
GRIDFORMAT
  1
GRIDFORMAT_BEGIN
 90
        0
 91
        1
 62
     0
 92
       -2
340
14
 93
        0
 40
0.045
309
GRIDFORMAT_END
 95
        4
302
GRIDFORMAT
  1
GRIDFORMAT_BEGIN
 90
        0
 91
        1
 62
     0
 92
       -2
340
14
 93
        0
 40
0.045
309
GRIDFORMAT_END
 95
        8
302
GRIDFORMAT
  1
GRIDFORMAT_BEGIN
 90
        0
 91
        1
 62
     0
 92
       -2
340
14
 93
        0
 40
0.045
309
GRIDFORMAT_END
 95
       16
302
GRIDFORMAT
  1
GRIDFORMAT_BEGIN
 90
        0
 91
        1
 62
     0
 92
       -2
340
14
 93
        0
 40
0.045
309
GRIDFORMAT_END
 95
       32
302
GRIDFORMAT
  1
GRIDFORMAT_BEGIN
 90
        0
 91
        1
 62
     0
 92
       -2
340
14
 93
        0
 40
0.045
309
GRIDFORMAT_END
309
TABLEFORMAT_END
  1
CELLSTYLE_BEGIN
 90
        2
 91
        1
300
_HEADER
309
CELLSTYLE_END
300
CELLSTYLE
  1
TABLEFORMAT_BEGIN
 90
        5
170
     1
 91
        0
 92
        0
 62
   257
 93
        1
300
CONTENTFORMAT
  1
CONTENTFORMAT_BEGIN
 90
        0
 91
        0
 92
        4
 93
        0
300

 40
0.0
140
1.0
 94
        2
 62
     0
340
11
144
4.5
309
CONTENTFORMAT_END
171
     1
301
MARGIN
  1
CELLMARGIN_BEGIN
 40
1.5
 40
1.5
 40
1.5
 40
1.5
 40
1.5
 40
1.5
309
CELLMARGIN_END
 94
        6
 95
        1
302
GRIDFORMAT
  1
GRIDFORMAT_BEGIN
 90
        0
 91
        1
 62
     0
 92
       -2
340
14
 93
        0
 40
0.045
309
GRIDFORMAT_END
 95
        2
302
GRIDFORMAT
  1
GRIDFORMAT_BEGIN
 90
        0
 91
        1
 62
     0
 92
       -2
340
14
 93
        0
 40
0.045
309
GRIDFORMAT_END
 95
        4
302
GRIDFORMAT
  1
GRIDFORMAT_BEGIN
 90
        0
 91
        1
 62
     0
 92
       -2
340
14
 93
        0
 40
0.045
309
GRIDFORMAT_END
 95
        8
302
GRIDFORMAT
  1
GRIDFORMAT_BEGIN
 90
        0
 91
        1
 62
     0
 92
       -2
340
14
 93
        0
 40
0.045
309
GRIDFORMAT_END
 95
       16
302
GRIDFORMAT
  1
GRIDFORMAT_BEGIN
 90
        0
 91
        1
 62
     0
 92
       -2
340
14
 93
        0
 40
0.045
309
GRIDFORMAT_END
 95
       32
302
GRIDFORMAT
  1
GRIDFORMAT_BEGIN
 90
        0
 91
        1
 62
     0
 92
       -2
340
14
 93
        0
 40
0.045
309
GRIDFORMAT_END
309
TABLEFORMAT_END
  1
CELLSTYLE_BEGIN
 90
        3
 91
        2
300
_DATA
309
CELLSTYLE_END
  0
ENDSEC
  0
EOF
