  0
SECTION
  2
HEADER
  9
$ACADVER
  1
AC1027
  9
$ACADMAINTVER
 70
   105
  9
$DWGCODEPAGE
  3
ANSI_1252
  9
$REQUIREDVERSIONS
160
                 0
  9
$LASTSAVEDBY
  1
andrea.zolin
  9
$INSBASE
 10
0.0
 20
0.0
 30
0.0
  9
$EXTMIN
 10
0.0
 20
0.0
 30
0.0
  9
$EXTMAX
 10
841.0
 20
1500.0
 30
0.0
  9
$LIMMIN
 10
0.0
 20
0.0
  9
$LIMMAX
 10
841.0
 20
1500.0
  9
$ORTHOMODE
 70
     0
  9
$REGENMODE
 70
     1
  9
$FILLMODE
 70
     1
  9
$QTEXTMODE
 70
     0
  9
$MIRRTEXT
 70
     1
  9
$LTSCALE
 40
97.7777777778
  9
$ATTMODE
 70
     1
  9
$TEXTSIZE
 40
0.2
  9
$TRACEWID
 40
0.05
  9
$TEXTSTYLE
  7
STANDARD
  9
$CLAYER
  8
0
  9
$CELTYPE
  6
BYLAYER
  9
$CECOLOR
 62
   256
  9
$CELTSCALE
 40
1.0
  9
$DISPSILH
 70
     0
  9
$DIMSCALE
 40
1.0
  9
$DIMASZ
 40
2.5
  9
$DIMEXO
 40
0.75
  9
$DIMDLI
 40
67.5555555556
  9
$DIMRND
 40
0.0
  9
$DIMDLE
 40
0.0
  9
$DIMEXE
 40
0.75
  9
$DIMTP
 40
0.01
  9
$DIMTM
 40
0.01
  9
$DIMTXT
 40
3.0
  9
$DIMCEN
 40
16.0
  9
$DIMTSZ
 40
0.0
  9
$DIMTOL
 70
     1
  9
$DIMLIM
 70
     0
  9
$DIMTIH
 70
     1
  9
$DIMTOH
 70
     1
  9
$DIMSE1
 70
     0
  9
$DIMSE2
 70
     0
  9
$DIMTAD
 70
     0
  9
$DIMZIN
 70
     0
  9
$DIMBLK
  1
CLOSED
  9
$DIMASO
 70
     1
  9
$DIMSHO
 70
     1
  9
$DIMPOST
  1

  9
$DIMAPOST
  1

  9
$DIMALT
 70
     0
  9
$DIMALTD
 70
     2
  9
$DIMALTF
 40
25.4
  9
$DIMLFAC
 40
1.0
  9
$DIMTOFL
 70
     0
  9
$DIMTVP
 40
0.0
  9
$DIMTIX
 70
     0
  9
$DIMSOXD
 70
     0
  9
$DIMSAH
 70
     0
  9
$DIMBLK1
  1

  9
$DIMBLK2
  1

  9
$DIMSTYLE
  2
STANDARD
  9
$DIMCLRD
 70
     0
  9
$DIMCLRE
 70
     0
  9
$DIMCLRT
 70
     0
  9
$DIMTFAC
 40
1.0
  9
$DIMGAP
 40
0.625
  9
$DIMJUST
 70
     0
  9
$DIMSD1
 70
     0
  9
$DIMSD2
 70
     0
  9
$DIMTOLJ
 70
     1
  9
$DIMTZIN
 70
     0
  9
$DIMALTZ
 70
     0
  9
$DIMALTTZ
 70
     0
  9
$DIMUPT
 70
     0
  9
$DIMDEC
 70
     4
  9
$DIMTDEC
 70
     4
  9
$DIMALTU
 70
     2
  9
$DIMALTTD
 70
     2
  9
$DIMTXSTY
  7
STANDARD
  9
$DIMAUNIT
 70
     0
  9
$DIMADEC
 70
     0
  9
$DIMALTRND
 40
0.0
  9
$DIMAZIN
 70
     0
  9
$DIMDSEP
 70
    46
  9
$DIMATFIT
 70
     3
  9
$DIMFRAC
 70
     0
  9
$DIMLDRBLK
  1

  9
$DIMLUNIT
 70
     2
  9
$DIMLWD
 70
    -2
  9
$DIMLWE
 70
    -2
  9
$DIMTMOVE
 70
     2
  9
$DIMFXL
 40
1.0
  9
$DIMFXLON
 70
     0
  9
$DIMJOGANG
 40
0.7853981633974483
  9
$DIMTFILL
 70
     0
  9
$DIMTFILLCLR
 70
     0
  9
$DIMARCSYM
 70
     0
  9
$DIMLTYPE
  6

  9
$DIMLTEX1
  6

  9
$DIMLTEX2
  6

  9
$DIMTXTDIRECTION
 70
     0
  9
$LUNITS
 70
     2
  9
$LUPREC
 70
     4
  9
$SKETCHINC
 40
0.1
  9
$FILLETRAD
 40
0.5
  9
$AUNITS
 70
     0
  9
$AUPREC
 70
     0
  9
$MENU
  1
.
  9
$ELEVATION
 40
0.0
  9
$PELEVATION
 40
0.0
  9
$THICKNESS
 40
0.0
  9
$LIMCHECK
 70
     0
  9
$CHAMFERA
 40
0.0
  9
$CHAMFERB
 40
0.0
  9
$CHAMFERC
 40
0.0
  9
$CHAMFERD
 40
0.0
  9
$SKPOLY
 70
     0
  9
$TDCREATE
 40
2447893.041666667
  9
$TDUCREATE
 40
0.0
  9
$TDUPDATE
 40
2458466.687152489
  9
$TDUUPDATE
 40
2458466.645485822
  9
$TDINDWG
 40
0.0001780556
  9
$TDUSRTIMER
 40
0.0001780556
  9
$USRTIMER
 70
     1
  9
$ANGBASE
 50
0.0
  9
$ANGDIR
 70
     0
  9
$PDMODE
 70
     3
  9
$PDSIZE
 40
0.3125
  9
$PLINEWID
 40
0.0
  9
$SPLFRAME
 70
     0
  9
$SPLINETYPE
 70
     6
  9
$SPLINESEGS
 70
     8
  9
$HANDSEED
  5
5A8
  9
$SURFTAB1
 70
     6
  9
$SURFTAB2
 70
     6
  9
$SURFTYPE
 70
     6
  9
$SURFU
 70
     6
  9
$SURFV
 70
     6
  9
$UCSBASE
  2

  9
$UCSNAME
  2

  9
$UCSORG
 10
0.0
 20
0.0
 30
0.0
  9
$UCSXDIR
 10
1.0
 20
0.0
 30
0.0
  9
$UCSYDIR
 10
0.0
 20
1.0
 30
0.0
  9
$UCSORTHOREF
  2

  9
$UCSORTHOVIEW
 70
     0
  9
$UCSORGTOP
 10
0.0
 20
0.0
 30
0.0
  9
$UCSORGBOTTOM
 10
0.0
 20
0.0
 30
0.0
  9
$UCSORGLEFT
 10
0.0
 20
0.0
 30
0.0
  9
$UCSORGRIGHT
 10
0.0
 20
0.0
 30
0.0
  9
$UCSORGFRONT
 10
0.0
 20
0.0
 30
0.0
  9
$UCSORGBACK
 10
0.0
 20
0.0
 30
0.0
  9
$PUCSBASE
  2

  9
$PUCSNAME
  2

  9
$PUCSORG
 10
0.0
 20
0.0
 30
0.0
  9
$PUCSXDIR
 10
1.0
 20
0.0
 30
0.0
  9
$PUCSYDIR
 10
0.0
 20
1.0
 30
0.0
  9
$PUCSORTHOREF
  2

  9
$PUCSORTHOVIEW
 70
     0
  9
$PUCSORGTOP
 10
0.0
 20
0.0
 30
0.0
  9
$PUCSORGBOTTOM
 10
0.0
 20
0.0
 30
0.0
  9
$PUCSORGLEFT
 10
0.0
 20
0.0
 30
0.0
  9
$PUCSORGRIGHT
 10
0.0
 20
0.0
 30
0.0
  9
$PUCSORGFRONT
 10
0.0
 20
0.0
 30
0.0
  9
$PUCSORGBACK
 10
0.0
 20
0.0
 30
0.0
  9
$USERI1
 70
     0
  9
$USERI2
 70
     0
  9
$USERI3
 70
     0
  9
$USERI4
 70
     0
  9
$USERI5
 70
     0
  9
$USERR1
 40
0.0
  9
$USERR2
 40
0.0
  9
$USERR3
 40
0.0
  9
$USERR4
 40
0.0
  9
$USERR5
 40
0.0
  9
$WORLDVIEW
 70
     1
  9
$SHADEDGE
 70
     3
  9
$SHADEDIF
 70
    70
  9
$TILEMODE
 70
     0
  9
$MAXACTVP
 70
    64
  9
$PINSBASE
 10
0.0
 20
0.0
 30
0.0
  9
$PLIMCHECK
 70
     0
  9
$PEXTMIN
 10
0.0
 20
0.0
 30
0.0
  9
$PEXTMAX
 10
841.0
 20
1500.0
 30
0.0
  9
$PLIMMIN
 10
-43.77431906614786
 20
-116.7315175097276
  9
$PLIMMAX
 10
2407.587548638132
 20
1616.731517509728
  9
$UNITMODE
 70
     0
  9
$VISRETAIN
 70
     1
  9
$PLINEGEN
 70
     0
  9
$PSLTSCALE
 70
     1
  9
$TREEDEPTH
 70
  3020
  9
$CMLSTYLE
  2
STANDARD
  9
$CMLJUST
 70
     0
  9
$CMLSCALE
 40
1.0
  9
$PROXYGRAPHICS
 70
     1
  9
$MEASUREMENT
 70
     1
  9
$CELWEIGHT
370
    -1
  9
$ENDCAPS
280
     0
  9
$JOINSTYLE
280
     0
  9
$LWDISPLAY
290
     0
  9
$INSUNITS
 70
     0
  9
$HYPERLINKBASE
  1

  9
$STYLESHEET
  1

  9
$XEDIT
290
     1
  9
$CEPSNTYPE
380
     0
  9
$PSTYLEMODE
290
     1
  9
$FINGERPRINTGUID
  2
{5AC5B444-4743-4FAF-B98A-5700A7120794}
  9
$VERSIONGUID
  2
{FAEB1C32-E019-11D5-929B-00C0DF256EC4}
  9
$EXTNAMES
290
     1
  9
$PSVPSCALE
 40
0.0
  9
$OLESTARTUP
290
     0
  9
$SORTENTS
280
   127
  9
$INDEXCTL
280
     0
  9
$HIDETEXT
280
     1
  9
$XCLIPFRAME
280
     2
  9
$HALOGAP
280
     0
  9
$OBSCOLOR
 70
   257
  9
$OBSLTYPE
280
     0
  9
$INTERSECTIONDISPLAY
280
     0
  9
$INTERSECTIONCOLOR
 70
   257
  9
$DIMASSOC
280
     2
  9
$PROJECTNAME
  1

  9
$CAMERADISPLAY
290
     0
  9
$LENSLENGTH
 40
50.0
  9
$CAMERAHEIGHT
 40
0.0
  9
$STEPSPERSEC
 40
2.0
  9
$STEPSIZE
 40
6.0
  9
$3DDWFPREC
 40
2.0
  9
$PSOLWIDTH
 40
0.25
  9
$PSOLHEIGHT
 40
4.0
  9
$LOFTANG1
 40
1.570796326794897
  9
$LOFTANG2
 40
1.570796326794897
  9
$LOFTMAG1
 40
0.0
  9
$LOFTMAG2
 40
0.0
  9
$LOFTPARAM
 70
     7
  9
$LOFTNORMALS
280
     1
  9
$LATITUDE
 40
37.795
  9
$LONGITUDE
 40
-122.394
  9
$NORTHDIRECTION
 40
0.0
  9
$TIMEZONE
 70
 -8000
  9
$LIGHTGLYPHDISPLAY
280
     1
  9
$TILEMODELIGHTSYNCH
280
     1
  9
$SOLIDHIST
280
     0
  9
$SHOWHIST
280
     1
  9
$DWFFRAME
280
     2
  9
$DGNFRAME
280
     2
  9
$REALWORLDSCALE
290
     1
  9
$INTERFERECOLOR
 62
   256
  9
$CSHADOW
280
     0
  9
$SHADOWPLANELOCATION
 40
0.0
  0
ENDSEC
  0
SECTION
  2
CLASSES
  0
CLASS
  1
ACDBDICTIONARYWDFLT
  2
AcDbDictionaryWithDefault
  3
ObjectDBX Classes
 90
        0
 91
        4
280
     0
281
     0
  0
CLASS
  1
SCALE
  2
AcDbScale
  3
ObjectDBX Classes
 90
     1153
 91
        4
280
     0
281
     0
  0
CLASS
  1
VISUALSTYLE
  2
AcDbVisualStyle
  3
ObjectDBX Classes
 90
     4095
 91
        4
280
     0
281
     0
  0
CLASS
  1
MATERIAL
  2
AcDbMaterial
  3
ObjectDBX Classes
 90
     1153
 91
        4
280
     0
281
     0
  0
CLASS
  1
TABLESTYLE
  2
AcDbTableStyle
  3
ObjectDBX Classes
 90
     4095
 91
        4
280
     0
281
     0
  0
CLASS
  1
MLEADERSTYLE
  2
AcDbMLeaderStyle
  3
ACDB_MLEADERSTYLE_CLASS
 90
     4095
 91
        4
280
     0
281
     0
  0
CLASS
  1
DICTIONARYVAR
  2
AcDbDictionaryVar
  3
ObjectDBX Classes
 90
        0
 91
        4
280
     0
281
     0
  0
CLASS
  1
CELLSTYLEMAP
  2
AcDbCellStyleMap
  3
ObjectDBX Classes
 90
     1152
 91
        4
280
     0
281
     0
  0
ENDSEC
  0
SECTION
  2
TABLES
  0
TABLE
  2
VPORT
  5
8
330
0
100
AcDbSymbolTable
 70
     1
  0
VPORT
  5
1F4
330
8
100
AcDbSymbolTableRecord
100
AcDbViewportTableRecord
  2
*ACTIVE
 70
     0
 10
0.0
 20
0.0
 11
1.0
 21
1.0
 12
420.5
 22
750.0
 13
0.0
 23
0.0
 14
1.0
 24
1.0
 15
0.0
 25
0.0
 16
0.0
 26
0.0
 36
1.0
 17
0.0
 27
0.0
 37
0.0
 40
1500.0
 41
0.5606666667
 42
50.0
 43
0.0
 44
0.0
 50
0.0
 51
0.0
 71
     0
 72
   100
 73
     1
 74
     1
 75
     0
 76
     0
 77
     0
 78
     0
281
     0
 65
     1
110
0.0
120
0.0
130
0.0
111
1.0
121
0.0
131
0.0
112
0.0
122
1.0
132
0.0
 79
     0
146
0.0
348
581
 60
     3
 61
     5
292
     1
282
     1
141
0.0
142
0.0
 63
   256
  0
ENDTAB
  0
TABLE
  2
LTYPE
  5
5
330
0
100
AcDbSymbolTable
 70
     6
  0
LTYPE
  5
14
330
5
100
AcDbSymbolTableRecord
100
AcDbLinetypeTableRecord
  2
BYBLOCK
 70
     0
  3

 72
    65
 73
     0
 40
0.0
  0
LTYPE
  5
15
330
5
100
AcDbSymbolTableRecord
100
AcDbLinetypeTableRecord
  2
BYLAYER
 70
     0
  3

 72
    65
 73
     0
 40
0.0
  0
LTYPE
  5
16
330
5
100
AcDbSymbolTableRecord
100
AcDbLinetypeTableRecord
  2
CONTINUOUS
 70
     0
  3
Solid line
 72
    65
 73
     0
 40
0.0
  0
LTYPE
  5
1F5
330
5
100
AcDbSymbolTableRecord
100
AcDbLinetypeTableRecord
  2
CENTER
 70
     0
  3
____ _ ____ _ ____ _ ____ _ ____ _ ____ _ ____
 72
    65
 73
     4
 40
0.6
 49
0.375
 74
     0
 49
-0.075
 74
     0
 49
0.075
 74
     0
 49
-0.075
 74
     0
  0
LTYPE
  5
1F6
330
5
100
AcDbSymbolTableRecord
100
AcDbLinetypeTableRecord
  2
HIDDEN
 70
     0
  3
- - - - - - - - - - - - - - - - - - - -
 72
    65
 73
     2
 40
0.2
 49
0.1
 74
     0
 49
-0.1
 74
     0
  0
LTYPE
  5
1F7
330
5
100
AcDbSymbolTableRecord
100
AcDbLinetypeTableRecord
  2
PHANTOM
 70
     0
  3
_____ _ _ _____ _ _ _____ _ _ _____
 72
    65
 73
     6
 40
0.8
 49
0.45
 74
     0
 49
-0.05
 74
     0
 49
0.1
 74
     0
 49
-0.05
 74
     0
 49
0.1
 74
     0
 49
-0.05
 74
     0
  0
LTYPE
  5
1F8
330
5
100
AcDbSymbolTableRecord
100
AcDbLinetypeTableRecord
  2
DOT
 70
     0
  3
. . . . . . . . . . . . . . . . . . . .
 72
    65
 73
     2
 40
0.2
 49
0.1
 74
     0
 49
-0.1
 74
     0
  0
LTYPE
  5
1F9
330
5
100
AcDbSymbolTableRecord
100
AcDbLinetypeTableRecord
  2
DASHED
 70
     0
  3
- - - - - - - - - - - - - - - - - - - -
 72
    65
 73
     2
 40
0.2
 49
0.1
 74
     0
 49
-0.1
 74
     0
  0
ENDTAB
  0
TABLE
  2
LAYER
  5
2
330
0
100
AcDbSymbolTable
 70
    35
  0
LAYER
  5
10
330
2
100
AcDbSymbolTableRecord
100
AcDbLayerTableRecord
  2
0
 70
     0
 62
     7
  6
CONTINUOUS
370
    -3
390
556
347
598
348
0
  0
LAYER
  5
1FA
330
2
100
AcDbSymbolTableRecord
100
AcDbLayerTableRecord
  2
DEFAULT_1
 70
     0
 62
     7
  6
CENTER
370
    -3
390
556
347
598
348
0
  0
LAYER
  5
1FB
330
2
100
AcDbSymbolTableRecord
100
AcDbLayerTableRecord
  2
DEFAULT_2
 70
     0
 62
     8
  6
HIDDEN
370
    -3
390
556
347
598
348
0
  0
LAYER
  5
1FC
330
2
100
AcDbSymbolTableRecord
100
AcDbLayerTableRecord
  2
DEFAULT_3
 70
     0
 62
     7
  6
PHANTOM
370
    -3
390
556
347
598
348
0
  0
LAYER
  5
1FD
330
2
100
AcDbSymbolTableRecord
100
AcDbLayerTableRecord
  2
01_ALL_DTM_PLN
 70
     0
 62
     7
  6
CONTINUOUS
370
    -3
390
556
347
598
348
0
  0
LAYER
  5
1FE
330
2
100
AcDbSymbolTableRecord
100
AcDbLayerTableRecord
  2
01__ASM_ALL_DTM_PLN
 70
     0
 62
     7
  6
CONTINUOUS
370
    -3
390
556
347
598
348
0
  0
LAYER
  5
1FF
330
2
100
AcDbSymbolTableRecord
100
AcDbLayerTableRecord
  2
01__ASM_DEF_DTM_PLN
 70
     0
 62
     7
  6
CONTINUOUS
370
    -3
390
556
347
598
348
0
  0
LAYER
  5
200
330
2
100
AcDbSymbolTableRecord
100
AcDbLayerTableRecord
  2
01___PRT_ALL_DTM_PLN
 70
     0
 62
     7
  6
CONTINUOUS
370
    -3
390
556
347
598
348
0
  0
LAYER
  5
201
330
2
100
AcDbSymbolTableRecord
100
AcDbLayerTableRecord
  2
01___PRT_DEF_DTM_PLN
 70
     0
 62
     7
  6
CONTINUOUS
370
    -3
390
556
347
598
348
0
  0
LAYER
  5
202
330
2
100
AcDbSymbolTableRecord
100
AcDbLayerTableRecord
  2
02_ALL_AXES
 70
     0
 62
     7
  6
CONTINUOUS
370
    -3
390
556
347
598
348
0
  0
LAYER
  5
203
330
2
100
AcDbSymbolTableRecord
100
AcDbLayerTableRecord
  2
02__ASM_ALL_AXES
 70
     0
 62
     7
  6
CONTINUOUS
370
    -3
390
556
347
598
348
0
  0
LAYER
  5
204
330
2
100
AcDbSymbolTableRecord
100
AcDbLayerTableRecord
  2
02___PRT_ALL_AXES
 70
     0
 62
     7
  6
CONTINUOUS
370
    -3
390
556
347
598
348
0
  0
LAYER
  5
205
330
2
100
AcDbSymbolTableRecord
100
AcDbLayerTableRecord
  2
03_ALL_CURVES
 70
     0
 62
     7
  6
CONTINUOUS
370
    -3
390
556
347
598
348
0
  0
LAYER
  5
206
330
2
100
AcDbSymbolTableRecord
100
AcDbLayerTableRecord
  2
03__ASM_ALL_CURVES
 70
     0
 62
     7
  6
CONTINUOUS
370
    -3
390
556
347
598
348
0
  0
LAYER
  5
207
330
2
100
AcDbSymbolTableRecord
100
AcDbLayerTableRecord
  2
03___PRT_ALL_CURVES
 70
     0
 62
     7
  6
CONTINUOUS
370
    -3
390
556
347
598
348
0
  0
LAYER
  5
208
330
2
100
AcDbSymbolTableRecord
100
AcDbLayerTableRecord
  2
04_ALL_DTM_PNT
 70
     0
 62
     7
  6
CONTINUOUS
370
    -3
390
556
347
598
348
0
  0
LAYER
  5
209
330
2
100
AcDbSymbolTableRecord
100
AcDbLayerTableRecord
  2
04__ASM_ALL_DTM_PNT
 70
     0
 62
     7
  6
CONTINUOUS
370
    -3
390
556
347
598
348
0
  0
LAYER
  5
20A
330
2
100
AcDbSymbolTableRecord
100
AcDbLayerTableRecord
  2
04___PRT_ALL_DTM_PNT
 70
     0
 62
     7
  6
CONTINUOUS
370
    -3
390
556
347
598
348
0
  0
LAYER
  5
20B
330
2
100
AcDbSymbolTableRecord
100
AcDbLayerTableRecord
  2
05_ALL_DTM_CSYS
 70
     0
 62
     7
  6
CONTINUOUS
370
    -3
390
556
347
598
348
0
  0
LAYER
  5
20C
330
2
100
AcDbSymbolTableRecord
100
AcDbLayerTableRecord
  2
05__ASM_ALL_DTM_CSYS
 70
     0
 62
     7
  6
CONTINUOUS
370
    -3
390
556
347
598
348
0
  0
LAYER
  5
20D
330
2
100
AcDbSymbolTableRecord
100
AcDbLayerTableRecord
  2
05__ASM_DEF_DTM_CSYS
 70
     0
 62
     7
  6
CONTINUOUS
370
    -3
390
556
347
598
348
0
  0
LAYER
  5
20E
330
2
100
AcDbSymbolTableRecord
100
AcDbLayerTableRecord
  2
05___PRT_ALL_DTM_CSYS
 70
     0
 62
     7
  6
CONTINUOUS
370
    -3
390
556
347
598
348
0
  0
LAYER
  5
20F
330
2
100
AcDbSymbolTableRecord
100
AcDbLayerTableRecord
  2
05___PRT_DEF_DTM_CSYS
 70
     0
 62
     7
  6
CONTINUOUS
370
    -3
390
556
347
598
348
0
  0
LAYER
  5
210
330
2
100
AcDbSymbolTableRecord
100
AcDbLayerTableRecord
  2
06_ALL_SURFS
 70
     0
 62
     7
  6
CONTINUOUS
370
    -3
390
556
347
598
348
0
  0
LAYER
  5
211
330
2
100
AcDbSymbolTableRecord
100
AcDbLayerTableRecord
  2
06__ASM_ALL_SURFS
 70
     0
 62
     7
  6
CONTINUOUS
370
    -3
390
556
347
598
348
0
  0
LAYER
  5
212
330
2
100
AcDbSymbolTableRecord
100
AcDbLayerTableRecord
  2
06___PRT_ALL_SURFS
 70
     0
 62
     7
  6
CONTINUOUS
370
    -3
390
556
347
598
348
0
  0
LAYER
  5
213
330
2
100
AcDbSymbolTableRecord
100
AcDbLayerTableRecord
  2
07__ASM_ALL_SKELETONS
 70
     0
 62
     7
  6
CONTINUOUS
370
    -3
390
556
347
598
348
0
  0
LAYER
  5
214
330
2
100
AcDbSymbolTableRecord
100
AcDbLayerTableRecord
  2
1_ALL_PLANES
 70
     0
 62
     7
  6
CONTINUOUS
370
    -3
390
556
347
598
348
0
  0
LAYER
  5
215
330
2
100
AcDbSymbolTableRecord
100
AcDbLayerTableRecord
  2
2_ALL_CSYS
 70
     0
 62
     7
  6
CONTINUOUS
370
    -3
390
556
347
598
348
0
  0
LAYER
  5
216
330
2
100
AcDbSymbolTableRecord
100
AcDbLayerTableRecord
  2
3_ALL_AXES
 70
     0
 62
     7
  6
CONTINUOUS
370
    -3
390
556
347
598
348
0
  0
LAYER
  5
217
330
2
100
AcDbSymbolTableRecord
100
AcDbLayerTableRecord
  2
4_ALL_POINTS
 70
     0
 62
     7
  6
CONTINUOUS
370
    -3
390
556
347
598
348
0
  0
LAYER
  5
218
330
2
100
AcDbSymbolTableRecord
100
AcDbLayerTableRecord
  2
5_ALL_CURVES
 70
     0
 62
     7
  6
CONTINUOUS
370
    -3
390
556
347
598
348
0
  0
LAYER
  5
219
330
2
100
AcDbSymbolTableRecord
100
AcDbLayerTableRecord
  2
6_ALL_SURFS
 70
     0
 62
     7
  6
CONTINUOUS
370
    -3
390
556
347
598
348
0
  0
LAYER
  5
21A
330
2
100
AcDbSymbolTableRecord
100
AcDbLayerTableRecord
  2
7_ALL_FEATURES
 70
     0
 62
     7
  6
CONTINUOUS
370
    -3
390
556
347
598
348
0
  0
LAYER
  5
21B
330
2
100
AcDbSymbolTableRecord
100
AcDbLayerTableRecord
  2
9_SOLID
 70
     0
 62
     7
  6
CONTINUOUS
370
    -3
390
556
347
598
348
0
  0
ENDTAB
  0
TABLE
  2
STYLE
  5
3
330
0
100
AcDbSymbolTable
 70
     4
  0
STYLE
  5
11
330
3
100
AcDbSymbolTableRecord
100
AcDbTextStyleTableRecord
  2
STANDARD
 70
     0
 40
0.0
 41
1.0
 50
0.0
 71
     0
 42
0.2
  3
arial.ttf
  4

  0
STYLE
  5
21C
330
3
100
AcDbSymbolTableRecord
100
AcDbTextStyleTableRecord
  2
TEXTSTYLE_1
 70
     0
 40
0.0
 41
0.8
 50
0.0
 71
     0
 42
0.2
  3
gdt
  4

  0
STYLE
  5
21D
330
3
100
AcDbSymbolTableRecord
100
AcDbTextStyleTableRecord
  2
TEXTSTYLE_2
 70
     0
 40
0.0
 41
2.0
 50
0.0
 71
     0
 42
0.2
  3
txt
  4

  0
STYLE
  5
21E
330
3
100
AcDbSymbolTableRecord
100
AcDbTextStyleTableRecord
  2
TEXTSTYLE_3
 70
     0
 40
0.0
 41
0.85
 50
0.0
 71
     0
 42
0.2
  3
txt
  4

  0
ENDTAB
  0
TABLE
  2
VIEW
  5
6
330
0
100
AcDbSymbolTable
 70
     0
  0
ENDTAB
  0
TABLE
  2
UCS
  5
7
330
0
100
AcDbSymbolTable
 70
     0
  0
ENDTAB
  0
TABLE
  2
APPID
  5
9
330
0
100
AcDbSymbolTable
 70
     1
  0
APPID
  5
21F
330
9
100
AcDbSymbolTableRecord
100
AcDbRegAppTableRecord
  2
ACAD
 70
     0
  0
ENDTAB
  0
TABLE
  2
DIMSTYLE
  5
A
330
0
100
AcDbSymbolTable
 70
     5
100
AcDbDimStyleTable
  0
DIMSTYLE
105
229
330
A
100
AcDbSymbolTableRecord
100
AcDbDimStyleTableRecord
  2
STANDARD
 70
     0
 41
2.5
 42
0.75
 44
0.75
 47
0.01
 48
0.01
 71
     1
 73
     0
 74
     0
 77
     1
 78
     8
 79
     2
140
3.0
147
0.625
171
     1
178
     0
179
     2
271
     2
272
     2
284
     8
340
11
341
220
342
220
343
220
344
220
  0
DIMSTYLE
105
22A
330
A
100
AcDbSymbolTableRecord
100
AcDbDimStyleTableRecord
  2
DIMSTYLE_1
 70
     0
 41
2.5
 42
0.75
 44
0.75
 47
0.3
 48
0.3
 73
     0
 74
     0
 77
     1
 78
     8
 79
     2
140
3.0
147
0.75
171
     1
178
     0
179
     2
271
     2
272
     2
284
     8
340
11
341
220
342
220
343
220
344
220
  0
DIMSTYLE
105
22B
330
A
100
AcDbSymbolTableRecord
100
AcDbDimStyleTableRecord
  2
DIMSTYLE_2
 70
     0
 41
2.5
 42
0.75
 44
0.75
 47
0.1
 48
0.1
 73
     0
 74
     0
 77
     1
 78
     8
 79
     2
140
3.0
147
0.75
171
     1
178
     0
179
     2
271
     2
272
     2
284
     8
340
11
341
220
342
220
343
220
344
220
  0
DIMSTYLE
105
22C
330
A
100
AcDbSymbolTableRecord
100
AcDbDimStyleTableRecord
  2
DIMSTYLE_3
 70
     0
 41
2.5
 42
0.75
 44
0.75
 47
0.8
 48
0.8
 73
     0
 74
     0
 77
     1
 78
     8
 79
     2
140
3.0
147
0.75
171
     1
178
     0
179
     2
271
     2
272
     2
284
     8
340
11
341
220
342
220
343
220
344
220
  0
DIMSTYLE
105
22D
330
A
100
AcDbSymbolTableRecord
100
AcDbDimStyleTableRecord
  2
DIMSTYLE_4
 70
     0
 41
2.5
 42
0.75
 44
0.75
 47
0.2
 48
0.2
 73
     0
 74
     0
 77
     1
 78
     8
 79
     2
140
3.0
147
0.75
171
     1
178
     0
179
     2
271
     2
272
     2
284
     8
340
11
341
220
342
220
343
220
344
220
  0
ENDTAB
  0
TABLE
  2
BLOCK_RECORD
  5
1
330
0
100
AcDbSymbolTable
 70
     9
  0
BLOCK_RECORD
  5
1F
330
1
100
AcDbSymbolTableRecord
100
AcDbBlockTableRecord
  2
*MODEL_SPACE
340
57A
 70
     0
280
     1
281
     0
  0
BLOCK_RECORD
  5
1B
330
1
100
AcDbSymbolTableRecord
100
AcDbBlockTableRecord
  2
*PAPER_SPACE
340
57B
 70
     0
280
     1
281
     0
  0
BLOCK_RECORD
  5
220
330
1
100
AcDbSymbolTableRecord
100
AcDbBlockTableRecord
  2
_CLOSED
340
0
102
{BLKREFS
331
280
331
281
331
289
331
28A
331
294
331
295
331
29D
331
29E
331
2A6
331
2A7
331
2AF
331
2B0
102
}
 70
     0
280
     1
281
     0
  0
BLOCK_RECORD
  5
221
330
1
100
AcDbSymbolTableRecord
100
AcDbBlockTableRecord
  2
*D1
340
0
 70
     0
280
     1
281
     0
  0
BLOCK_RECORD
  5
222
330
1
100
AcDbSymbolTableRecord
100
AcDbBlockTableRecord
  2
*D2
340
0
 70
     0
280
     1
281
     0
  0
BLOCK_RECORD
  5
223
330
1
100
AcDbSymbolTableRecord
100
AcDbBlockTableRecord
  2
*D3
340
0
 70
     0
280
     1
281
     0
  0
BLOCK_RECORD
  5
224
330
1
100
AcDbSymbolTableRecord
100
AcDbBlockTableRecord
  2
*D4
340
0
 70
     0
280
     1
281
     0
  0
BLOCK_RECORD
  5
225
330
1
100
AcDbSymbolTableRecord
100
AcDbBlockTableRecord
  2
*D5
340
0
 70
     0
280
     1
281
     0
  0
BLOCK_RECORD
  5
226
330
1
100
AcDbSymbolTableRecord
100
AcDbBlockTableRecord
  2
*D6
340
0
 70
     0
280
     1
281
     0
  0
BLOCK_RECORD
  5
227
330
1
100
AcDbSymbolTableRecord
100
AcDbBlockTableRecord
  2
LOGO2_BL1
340
0
102
{BLKREFS
331
53E
102
}
 70
     0
280
     1
281
     0
  0
BLOCK_RECORD
  5
228
330
1
100
AcDbSymbolTableRecord
100
AcDbBlockTableRecord
  2
PROIEZIONE_EU_BL0
340
0
102
{BLKREFS
331
53B
102
}
 70
     0
280
     1
281
     0
  0
ENDTAB
  0
ENDSEC
  0
SECTION
  2
BLOCKS
  0
BLOCK
  5
20
330
1F
100
AcDbEntity
  8
0
100
AcDbBlockBegin
  2
*MODEL_SPACE
 70
     0
 10
0.0
 20
0.0
 30
0.0
  3
*MODEL_SPACE
  1

  0
ENDBLK
  5
21
330
1F
100
AcDbEntity
  8
0
100
AcDbBlockEnd
  0
BLOCK
  5
1C
330
1B
100
AcDbEntity
 67
     1
  8
0
100
AcDbBlockBegin
  2
*PAPER_SPACE
 70
     0
 10
0.0
 20
0.0
 30
0.0
  3
*PAPER_SPACE
  1

  0
ENDBLK
  5
1D
330
1B
100
AcDbEntity
 67
     1
  8
0
100
AcDbBlockEnd
  0
BLOCK
  5
274
330
220
100
AcDbEntity
  8
0
100
AcDbBlockBegin
  2
_CLOSED
 70
     0
 10
0.0
 20
0.0
 30
0.0
  3
_CLOSED
  1

  0
LINE
  5
275
330
220
100
AcDbEntity
  8
0
  6
ByBlock
 62
     0
100
AcDbLine
 10
0.0
 20
0.0
 30
0.0
 11
-1.0
 21
0.2
 31
0.0
  0
LINE
  5
276
330
220
100
AcDbEntity
  8
0
  6
ByBlock
 62
     0
100
AcDbLine
 10
-1.0
 20
0.2
 30
0.0
 11
-1.0
 21
-0.2
 31
0.0
  0
LINE
  5
277
330
220
100
AcDbEntity
  8
0
  6
ByBlock
 62
     0
100
AcDbLine
 10
-1.0
 20
-0.2
 30
0.0
 11
0.0
 21
0.0
 31
0.0
  0
LINE
  5
278
330
220
100
AcDbEntity
  8
0
  6
ByBlock
 62
     0
100
AcDbLine
 10
-1.0
 20
0.0
 30
0.0
 11
0.0
 21
0.0
 31
0.0
  0
ENDBLK
  5
279
330
220
100
AcDbEntity
  8
0
  6
ByBlock
 62
     0
100
AcDbBlockEnd
  0
BLOCK
  5
27A
330
221
100
AcDbEntity
  8
0
100
AcDbBlockBegin
  2
*D1
 70
     1
 10
0.0
 20
0.0
 30
0.0
  3
*D1
  1

  0
MTEXT
  5
27B
330
221
100
AcDbEntity
  8
0
  6
Continuous
 62
     2
100
AcDbMText
 10
318.8274169932
 20
1193.0888407939
 30
0.0
 40
3.0
 41
6.9925650558
 46
0.0
 71
     2
 72
     1
  1
105
 11
0.0
 21
1.0
 31
0.0
 73
     1
 44
1.0
  0
LINE
  5
27C
330
221
100
AcDbEntity
  8
0
  6
Continuous
 62
     2
100
AcDbLine
 10
332.4999251014
 20
1140.5888407939
 30
0.0
 11
321.8274169932
 21
1140.5888407939
 31
0.0
  0
LINE
  5
27D
330
221
100
AcDbEntity
  8
0
  6
Continuous
 62
     2
100
AcDbLine
 10
333.6335207771
 20
1245.5888407939
 30
0.0
 11
321.8274169932
 21
1245.5888407939
 31
0.0
  0
LINE
  5
27E
330
221
100
AcDbEntity
  8
0
  6
Continuous
 62
     2
100
AcDbLine
 10
322.5774169932
 20
1140.5888407939
 30
0.0
 11
322.5774169932
 21
1193.0888407939
 31
0.0
  0
LINE
  5
27F
330
221
100
AcDbEntity
  8
0
  6
Continuous
 62
     2
100
AcDbLine
 10
322.5774169932
 20
1245.5888407939
 30
0.0
 11
322.5774169932
 21
1193.0888407939
 31
0.0
  0
INSERT
  5
280
330
221
100
AcDbEntity
  8
0
  6
Continuous
 62
     2
100
AcDbBlockReference
  2
_CLOSED
 10
322.5774169932
 20
1140.5888407939
 30
0.0
 41
2.5
 42
2.5
 43
2.5
 50
270.0
  0
INSERT
  5
281
330
221
100
AcDbEntity
  8
0
  6
Continuous
 62
     2
100
AcDbBlockReference
  2
_CLOSED
 10
322.5774169932
 20
1245.5888407939
 30
0.0
 41
2.5
 42
2.5
 43
2.5
 50
90.0
  0
ENDBLK
  5
282
330
221
100
AcDbEntity
  8
0
  6
ByBlock
 62
     0
100
AcDbBlockEnd
  0
BLOCK
  5
283
330
222
100
AcDbEntity
  8
0
100
AcDbBlockBegin
  2
*D2
 70
     1
 10
0.0
 20
0.0
 30
0.0
  3
*D2
  1

  0
MTEXT
  5
284
330
222
100
AcDbEntity
  8
0
  6
Continuous
 62
     2
100
AcDbMText
 10
390.5514991554
 20
1261.6082797128
 30
0.0
 40
3.0
 41
6.9925650558
 46
0.0
 71
     2
 72
     1
  1
105
 73
     1
 44
1.0
  0
LINE
  5
285
330
222
100
AcDbEntity
  8
0
  6
Continuous
 62
     2
100
AcDbLine
 10
338.0514991554
 20
1250.5736170102
 30
0.0
 11
338.0514991554
 21
1258.6082797128
 31
0.0
  0
LINE
  5
286
330
222
100
AcDbEntity
  8
0
  6
Continuous
 62
     2
100
AcDbLine
 10
443.0514991554
 20
1249.4400213344
 30
0.0
 11
443.0514991554
 21
1258.6082797128
 31
0.0
  0
LINE
  5
287
330
222
100
AcDbEntity
  8
0
  6
Continuous
 62
     2
100
AcDbLine
 10
338.0514991554
 20
1257.8582797128
 30
0.0
 11
390.5514991554
 21
1257.8582797128
 31
0.0
  0
LINE
  5
288
330
222
100
AcDbEntity
  8
0
  6
Continuous
 62
     2
100
AcDbLine
 10
443.0514991554
 20
1257.8582797128
 30
0.0
 11
390.5514991554
 21
1257.8582797128
 31
0.0
  0
INSERT
  5
289
330
222
100
AcDbEntity
  8
0
  6
Continuous
 62
     2
100
AcDbBlockReference
  2
_CLOSED
 10
338.0514991554
 20
1257.8582797128
 30
0.0
 41
2.5
 42
2.5
 43
2.5
 50
180.0
  0
INSERT
  5
28A
330
222
100
AcDbEntity
  8
0
  6
Continuous
 62
     2
100
AcDbBlockReference
  2
_CLOSED
 10
443.0514991554
 20
1257.8582797128
 30
0.0
 41
2.5
 42
2.5
 43
2.5
  0
ENDBLK
  5
28B
330
222
100
AcDbEntity
  8
0
  6
ByBlock
 62
     0
100
AcDbBlockEnd
  0
BLOCK
  5
28C
330
223
100
AcDbEntity
  8
0
100
AcDbBlockBegin
  2
*D3
 70
     1
 10
0.0
 20
0.0
 30
0.0
  3
*D3
  1

  0
MTEXT
  5
28D
330
223
100
AcDbEntity
  8
0
  6
Continuous
 62
     2
100
AcDbMText
 10
310.8940808626
 20
349.7727770966
 30
0.0
 40
3.0
 41
2.3308550186
 46
0.0
 71
     3
 72
     1
  1
4
 11
0.0
 21
1.0
 31
0.0
 73
     1
 44
1.0
  0
LINE
  5
28E
330
223
100
AcDbEntity
  8
0
  6
Continuous
 62
     2
100
AcDbLine
 10
339.3014991554
 20
364.3806577115
 30
0.0
 11
313.8940808626
 21
364.3806577115
 31
0.0
  0
LINE
  5
28F
330
223
100
AcDbEntity
  8
0
  6
Continuous
 62
     2
100
AcDbLine
 10
339.3014991554
 20
368.3806577115
 30
0.0
 11
313.8940808626
 21
368.3806577115
 31
0.0
  0
LINE
  5
290
330
223
100
AcDbEntity
  8
0
  6
Continuous
 62
     2
100
AcDbLine
 10
314.6440808626
 20
364.3806577115
 30
0.0
 11
314.6440808626
 21
347.441922078
 31
0.0
  0
LINE
  5
291
330
223
100
AcDbEntity
  8
0
  6
Continuous
 62
     2
100
AcDbLine
 10
314.6440808626
 20
347.441922078
 30
0.0
 11
314.6440808626
 21
366.3806577115
 31
0.0
  0
LINE
  5
292
330
223
100
AcDbEntity
  8
0
  6
Continuous
 62
     2
100
AcDbLine
 10
314.6440808626
 20
368.3806577115
 30
0.0
 11
314.6440808626
 21
369.3806577115
 31
0.0
  0
LINE
  5
293
330
223
100
AcDbEntity
  8
0
  6
Continuous
 62
     2
100
AcDbLine
 10
314.6440808626
 20
369.3806577115
 30
0.0
 11
314.6440808626
 21
366.3806577115
 31
0.0
  0
INSERT
  5
294
330
223
100
AcDbEntity
  8
0
  6
Continuous
 62
     2
100
AcDbBlockReference
  2
_CLOSED
 10
314.6440808626
 20
364.3806577115
 30
0.0
 41
2.5
 42
2.5
 43
2.5
 50
90.0
  0
INSERT
  5
295
330
223
100
AcDbEntity
  8
0
  6
Continuous
 62
     2
100
AcDbBlockReference
  2
_CLOSED
 10
314.6440808626
 20
368.3806577115
 30
0.0
 41
2.5
 42
2.5
 43
2.5
 50
270.0
  0
ENDBLK
  5
296
330
223
100
AcDbEntity
  8
0
  6
ByBlock
 62
     0
100
AcDbBlockEnd
  0
BLOCK
  5
297
330
224
100
AcDbEntity
  8
0
100
AcDbBlockBegin
  2
*D4
 70
     1
 10
0.0
 20
0.0
 30
0.0
  3
*D4
  1

  0
MTEXT
  5
298
330
224
100
AcDbEntity
  8
0
  6
Continuous
 62
     2
100
AcDbMText
 10
310.8940808626
 20
705.8806577115
 30
0.0
 40
3.0
 41
6.9925650558
 46
0.0
 71
     2
 72
     1
  1
675
 11
0.0
 21
1.0
 31
0.0
 73
     1
 44
1.0
  0
LINE
  5
299
330
224
100
AcDbEntity
  8
0
  6
Continuous
 62
     2
100
AcDbLine
 10
339.3014991554
 20
368.3806577115
 30
0.0
 11
313.8940808626
 21
368.3806577115
 31
0.0
  0
LINE
  5
29A
330
224
100
AcDbEntity
  8
0
  6
Continuous
 62
     2
100
AcDbLine
 10
339.8014991554
 20
1043.3806577115
 30
0.0
 11
313.8940808626
 21
1043.3806577115
 31
0.0
  0
LINE
  5
29B
330
224
100
AcDbEntity
  8
0
  6
Continuous
 62
     2
100
AcDbLine
 10
314.6440808626
 20
368.3806577115
 30
0.0
 11
314.6440808626
 21
705.8806577115
 31
0.0
  0
LINE
  5
29C
330
224
100
AcDbEntity
  8
0
  6
Continuous
 62
     2
100
AcDbLine
 10
314.6440808626
 20
1043.3806577115
 30
0.0
 11
314.6440808626
 21
705.8806577115
 31
0.0
  0
INSERT
  5
29D
330
224
100
AcDbEntity
  8
0
  6
Continuous
 62
     2
100
AcDbBlockReference
  2
_CLOSED
 10
314.6440808626
 20
368.3806577115
 30
0.0
 41
2.5
 42
2.5
 43
2.5
 50
270.0
  0
INSERT
  5
29E
330
224
100
AcDbEntity
  8
0
  6
Continuous
 62
     2
100
AcDbBlockReference
  2
_CLOSED
 10
314.6440808626
 20
1043.3806577115
 30
0.0
 41
2.5
 42
2.5
 43
2.5
 50
90.0
  0
ENDBLK
  5
29F
330
224
100
AcDbEntity
  8
0
  6
ByBlock
 62
     0
100
AcDbBlockEnd
  0
BLOCK
  5
2A0
330
225
100
AcDbEntity
  8
0
100
AcDbBlockBegin
  2
*D5
 70
     1
 10
0.0
 20
0.0
 30
0.0
  3
*D5
  1

  0
MTEXT
  5
2A1
330
225
100
AcDbEntity
  8
0
  6
Continuous
 62
     2
100
AcDbMText
 10
310.8940808626
 20
1050.3806577115
 30
0.0
 40
3.0
 41
4.6617100372
 46
0.0
 71
     2
 72
     1
  1
14
 11
0.0
 21
1.0
 31
0.0
 73
     1
 44
1.0
  0
LINE
  5
2A2
330
225
100
AcDbEntity
  8
0
  6
Continuous
 62
     2
100
AcDbLine
 10
339.8014991554
 20
1043.3806577115
 30
0.0
 11
313.8940808626
 21
1043.3806577115
 31
0.0
  0
LINE
  5
2A3
330
225
100
AcDbEntity
  8
0
  6
Continuous
 62
     2
100
AcDbLine
 10
345.9014992131
 20
1057.3806577115
 30
0.0
 11
313.8940808626
 21
1057.3806577115
 31
0.0
  0
LINE
  5
2A4
330
225
100
AcDbEntity
  8
0
  6
Continuous
 62
     2
100
AcDbLine
 10
314.6440808626
 20
1043.3806577115
 30
0.0
 11
314.6440808626
 21
1050.3806577115
 31
0.0
  0
LINE
  5
2A5
330
225
100
AcDbEntity
  8
0
  6
Continuous
 62
     2
100
AcDbLine
 10
314.6440808626
 20
1057.3806577115
 30
0.0
 11
314.6440808626
 21
1050.3806577115
 31
0.0
  0
INSERT
  5
2A6
330
225
100
AcDbEntity
  8
0
  6
Continuous
 62
     2
100
AcDbBlockReference
  2
_CLOSED
 10
314.6440808626
 20
1043.3806577115
 30
0.0
 41
2.5
 42
2.5
 43
2.5
 50
270.0
  0
INSERT
  5
2A7
330
225
100
AcDbEntity
  8
0
  6
Continuous
 62
     2
100
AcDbBlockReference
  2
_CLOSED
 10
314.6440808626
 20
1057.3806577115
 30
0.0
 41
2.5
 42
2.5
 43
2.5
 50
90.0
  0
ENDBLK
  5
2A8
330
225
100
AcDbEntity
  8
0
  6
ByBlock
 62
     0
100
AcDbBlockEnd
  0
BLOCK
  5
2A9
330
226
100
AcDbEntity
  8
0
100
AcDbBlockBegin
  2
*D6
 70
     1
 10
0.0
 20
0.0
 30
0.0
  3
*D6
  1

  0
MTEXT
  5
2AA
330
226
100
AcDbEntity
  8
0
  6
Continuous
 62
     2
100
AcDbMText
 10
297.4148736743
 20
710.8806577115
 30
0.0
 40
3.0
 41
6.9925650558
 46
0.0
 71
     2
 72
     1
  1
693
 11
0.0
 21
1.0
 31
0.0
 73
     1
 44
1.0
  0
LINE
  5
2AB
330
226
100
AcDbEntity
  8
0
  6
Continuous
 62
     2
100
AcDbLine
 10
339.3014991554
 20
364.3806577115
 30
0.0
 11
300.4148736743
 21
364.3806577115
 31
0.0
  0
LINE
  5
2AC
330
226
100
AcDbEntity
  8
0
  6
Continuous
 62
     2
100
AcDbLine
 10
345.9014992131
 20
1057.3806577115
 30
0.0
 11
300.4148736743
 21
1057.3806577115
 31
0.0
  0
LINE
  5
2AD
330
226
100
AcDbEntity
  8
0
  6
Continuous
 62
     2
100
AcDbLine
 10
301.1648736743
 20
364.3806577115
 30
0.0
 11
301.1648736743
 21
710.8806577115
 31
0.0
  0
LINE
  5
2AE
330
226
100
AcDbEntity
  8
0
  6
Continuous
 62
     2
100
AcDbLine
 10
301.1648736743
 20
1057.3806577115
 30
0.0
 11
301.1648736743
 21
710.8806577115
 31
0.0
  0
INSERT
  5
2AF
330
226
100
AcDbEntity
  8
0
  6
Continuous
 62
     2
100
AcDbBlockReference
  2
_CLOSED
 10
301.1648736743
 20
364.3806577115
 30
0.0
 41
2.5
 42
2.5
 43
2.5
 50
270.0
  0
INSERT
  5
2B0
330
226
100
AcDbEntity
  8
0
  6
Continuous
 62
     2
100
AcDbBlockReference
  2
_CLOSED
 10
301.1648736743
 20
1057.3806577115
 30
0.0
 41
2.5
 42
2.5
 43
2.5
 50
90.0
  0
ENDBLK
  5
2B1
330
226
100
AcDbEntity
  8
0
  6
ByBlock
 62
     0
100
AcDbBlockEnd
  0
BLOCK
  5
22E
330
227
100
AcDbEntity
  8
0
100
AcDbBlockBegin
  2
LOGO2_BL1
 70
     0
 10
703.8259546673
 20
51.0318702492
 30
0.0
  3
LOGO2_BL1
  1

  0
LINE
  5
22F
330
227
100
AcDbEntity
  8
0
  6
Continuous
 62
     7
100
AcDbLine
 10
695.5688798955
 20
54.2273615881
 30
0.0
 11
694.2645389661
 21
54.2273615881
 31
0.0
  0
LINE
  5
230
330
227
100
AcDbEntity
  8
0
  6
Continuous
 62
     7
100
AcDbLine
 10
694.2645389661
 20
54.2273615881
 30
0.0
 11
694.2645389661
 21
43.7682955282
 31
0.0
  0
LINE
  5
231
330
227
100
AcDbEntity
  8
0
  6
Continuous
 62
     7
100
AcDbLine
 10
694.2645389661
 20
43.7682955282
 30
0.0
 11
698.7455938544
 21
43.7682955282
 31
0.0
  0
LINE
  5
232
330
227
100
AcDbEntity
  8
0
  6
Continuous
 62
     7
100
AcDbLine
 10
698.7455938544
 20
43.7682955282
 30
0.0
 11
698.7455938544
 21
44.9611498533
 31
0.0
  0
LINE
  5
233
330
227
100
AcDbEntity
  8
0
  6
Continuous
 62
     7
100
AcDbLine
 10
698.7455938544
 20
44.9611498533
 30
0.0
 11
695.5688798955
 21
44.9611498533
 31
0.0
  0
LINE
  5
234
330
227
100
AcDbEntity
  8
0
  6
Continuous
 62
     7
100
AcDbLine
 10
695.5688798955
 20
44.9611498533
 30
0.0
 11
695.5688798955
 21
54.2273615881
 31
0.0
  0
LINE
  5
235
330
227
100
AcDbEntity
  8
0
  6
Continuous
 62
     7
100
AcDbLine
 10
710.5052061118
 20
54.2273615881
 30
0.0
 11
709.2013885937
 21
54.2273615881
 31
0.0
  0
LINE
  5
236
330
227
100
AcDbEntity
  8
0
  6
Continuous
 62
     7
100
AcDbLine
 10
709.2013885937
 20
54.2273615881
 30
0.0
 11
709.2013885937
 21
43.7682955282
 31
0.0
  0
LINE
  5
237
330
227
100
AcDbEntity
  8
0
  6
Continuous
 62
     7
100
AcDbLine
 10
709.2013885937
 20
43.7682955282
 30
0.0
 11
713.6825743348
 21
43.7682955282
 31
0.0
  0
LINE
  5
238
330
227
100
AcDbEntity
  8
0
  6
Continuous
 62
     7
100
AcDbLine
 10
713.6825743348
 20
43.7682955282
 30
0.0
 11
713.6825743348
 21
44.9611498533
 31
0.0
  0
LINE
  5
239
330
227
100
AcDbEntity
  8
0
  6
Continuous
 62
     7
100
AcDbLine
 10
713.6825743348
 20
44.9611498533
 30
0.0
 11
710.5052061118
 21
44.9611498533
 31
0.0
  0
LINE
  5
23A
330
227
100
AcDbEntity
  8
0
  6
Continuous
 62
     7
100
AcDbLine
 10
710.5052061118
 20
44.9611498533
 30
0.0
 11
710.5052061118
 21
54.2273615881
 31
0.0
  0
LWPOLYLINE
  5
23B
330
227
100
AcDbEntity
  8
0
  6
Continuous
 62
     7
100
AcDbPolyline
 90
        2
 70
     0
 43
0.2
 10
692.6189338771
 20
40.4247442213
 10
692.6189338771
 20
38.567680972
  0
LWPOLYLINE
  5
23C
330
227
100
AcDbEntity
  8
0
  6
Continuous
 62
     7
100
AcDbPolyline
 90
        2
 70
     0
 43
0.2
 10
692.6189338771
 20
38.567680972
 10
693.4146498875
 20
38.567680972
  0
LWPOLYLINE
  5
23D
330
227
100
AcDbEntity
  8
0
  6
Continuous
 62
     7
100
AcDbPolyline
 90
        2
 70
     0
 43
0.2
 10
693.4146498875
 20
38.567680972
 10
693.4146498875
 20
38.7796625435
  0
LWPOLYLINE
  5
23E
330
227
100
AcDbEntity
  8
0
  6
Continuous
 62
     7
100
AcDbPolyline
 90
        2
 70
     0
 43
0.2
 10
693.4146498875
 20
38.7796625435
 10
692.850543372
 20
38.7796625435
  0
LWPOLYLINE
  5
23F
330
227
100
AcDbEntity
  8
0
  6
Continuous
 62
     7
100
AcDbPolyline
 90
        2
 70
     0
 43
0.2
 10
692.850543372
 20
38.7796625435
 10
692.850543372
 20
40.4247442213
  0
LWPOLYLINE
  5
240
330
227
100
AcDbEntity
  8
0
  6
Continuous
 62
     7
100
AcDbPolyline
 90
        2
 70
     0
 43
0.2
 10
692.850543372
 20
40.4247442213
 10
692.6189338771
 20
40.4247442213
  0
SPLINE
  5
241
330
227
100
AcDbEntity
  8
0
  6
Continuous
 62
     7
100
AcDbSpline
 70
     3
 71
     3
 72
    35
 73
    31
 74
     0
 42
0.000000001
 43
0.0000001
 40
0.0
 40
0.0
 40
0.0
 40
0.0
 40
1.0
 40
1.0
 40
1.0
 40
2.0
 40
2.0
 40
2.0
 40
3.0
 40
3.0
 40
3.0
 40
4.0
 40
4.0
 40
4.0
 40
5.0
 40
5.0
 40
5.0
 40
6.0
 40
6.0
 40
6.0
 40
7.0
 40
7.0
 40
7.0
 40
8.0
 40
8.0
 40
8.0
 40
9.0
 40
9.0
 40
9.0
 40
10.0
 40
10.0
 40
10.0
 40
10.0
 10
694.812943143
 20
39.7202326279
 30
0.0
 10
694.812943143
 20
39.7202326279
 30
0.0
 10
694.812943143
 20
39.0581173487
 30
0.0
 10
694.812943143
 20
39.0581173487
 30
0.0
 10
694.812943143
 20
38.7430237534
 30
0.0
 10
694.9608068318
 20
38.5284251254
 30
0.0
 10
695.3008933161
 20
38.5284251254
 30
0.0
 10
695.6404563891
 20
38.5284251254
 30
0.0
 10
695.7885817836
 20
38.7430237534
 30
0.0
 10
695.7885817836
 20
39.0581173487
 30
0.0
 10
695.7885817836
 20
39.0581173487
 30
0.0
 10
695.7885817836
 20
39.7202326279
 30
0.0
 10
695.7885817836
 20
39.7202326279
 30
0.0
 10
695.7885817836
 20
39.7202326279
 30
0.0
 10
695.5665245447
 20
39.7202326279
 30
0.0
 10
695.5665245447
 20
39.7202326279
 30
0.0
 10
695.5665245447
 20
39.7202326279
 30
0.0
 10
695.5665245447
 20
39.0832410905
 30
0.0
 10
695.5665245447
 20
39.0832410905
 30
0.0
 10
695.5665245447
 20
38.8974300833
 30
0.0
 10
695.5198100873
 20
38.7346491728
 30
0.0
 10
695.3008933161
 20
38.7346491728
 30
0.0
 10
695.0814531337
 20
38.7346491728
 30
0.0
 10
695.0347386762
 20
38.8974300833
 30
0.0
 10
695.0347386762
 20
39.0832410905
 30
0.0
 10
695.0347386762
 20
39.0832410905
 30
0.0
 10
695.0347386762
 20
39.7202326279
 30
0.0
 10
695.0347386762
 20
39.7202326279
 30
0.0
 10
695.0347386762
 20
39.7202326279
 30
0.0
 10
694.812943143
 20
39.7202326279
 30
0.0
 10
694.812943143
 20
39.7202326279
 30
0.0
  0
SPLINE
  5
242
330
227
100
AcDbEntity
  8
0
  6
Continuous
 62
     7
100
AcDbSpline
 70
     3
 71
     3
 72
    35
 73
    31
 74
     0
 42
0.000000001
 43
0.0000001
 40
0.0
 40
0.0
 40
0.0
 40
0.0
 40
1.0
 40
1.0
 40
1.0
 40
2.0
 40
2.0
 40
2.0
 40
3.0
 40
3.0
 40
3.0
 40
4.0
 40
4.0
 40
4.0
 40
5.0
 40
5.0
 40
5.0
 40
6.0
 40
6.0
 40
6.0
 40
7.0
 40
7.0
 40
7.0
 40
8.0
 40
8.0
 40
8.0
 40
9.0
 40
9.0
 40
9.0
 40
10.0
 40
10.0
 40
10.0
 40
10.0
 10
698.2117143408
 20
39.6788831361
 30
0.0
 10
698.1232578331
 20
39.7301774423
 30
0.0
 10
698.0098084365
 20
39.7553011841
 30
0.0
 10
697.9061730015
 20
39.7553011841
 30
0.0
 10
697.5513001483
 20
39.7553011841
 30
0.0
 10
697.2758549581
 20
39.4915018951
 30
0.0
 10
697.2758549581
 20
39.1340119854
 30
0.0
 10
697.2758549581
 20
38.7890839467
 30
0.0
 10
697.5543097632
 20
38.5289485367
 30
0.0
 10
697.8938728362
 20
38.5289485367
 30
0.0
 10
698.0098084365
 20
38.5289485367
 30
0.0
 10
698.1105651094
 20
38.5509318107
 30
0.0
 10
698.2117143408
 20
38.6048431734
 30
0.0
 10
698.2117143408
 20
38.6048431734
 30
0.0
 10
698.2117143408
 20
38.8874852689
 30
0.0
 10
698.2117143408
 20
38.8874852689
 30
0.0
 10
698.1278376819
 20
38.7943180596
 30
0.0
 10
698.0243330997
 20
38.7351725841
 30
0.0
 10
697.896228187
 20
38.7351725841
 30
0.0
 10
697.662525047
 20
38.7351725841
 30
0.0
 10
697.4972579328
 20
38.9073748978
 30
0.0
 10
697.4972579328
 20
39.1439567999
 30
0.0
 10
697.4972579328
 20
39.3559383715
 30
0.0
 10
697.6650112506
 20
39.5480303141
 30
0.0
 10
697.8818343766
 20
39.5480303141
 30
0.0
 10
698.0146499909
 20
39.5480303141
 30
0.0
 10
698.1232578331
 20
39.4941189515
 30
0.0
 10
698.2117143408
 20
39.3931005729
 30
0.0
 10
698.2117143408
 20
39.3931005729
 30
0.0
 10
698.2117143408
 20
39.6788831361
 30
0.0
 10
698.2117143408
 20
39.6788831361
 30
0.0
  0
SPLINE
  5
243
330
227
100
AcDbEntity
  8
0
  6
Continuous
 62
     7
100
AcDbSpline
 70
     3
 71
     3
 72
    32
 73
    28
 74
     0
 42
0.000000001
 43
0.0000001
 40
0.0
 40
0.0
 40
0.0
 40
0.0
 40
1.0
 40
1.0
 40
1.0
 40
2.0
 40
2.0
 40
2.0
 40
3.0
 40
3.0
 40
3.0
 40
4.0
 40
4.0
 40
4.0
 40
5.0
 40
5.0
 40
5.0
 40
6.0
 40
6.0
 40
6.0
 40
7.0
 40
7.0
 40
7.0
 40
8.0
 40
8.0
 40
8.0
 40
9.0
 40
9.0
 40
9.0
 40
9.0
 10
700.743585593
 20
39.1073180098
 30
0.0
 10
700.743585593
 20
39.1073180098
 30
0.0
 10
700.743585593
 20
39.1413397435
 30
0.0
 10
700.743585593
 20
39.1413397435
 30
0.0
 10
700.743585593
 20
39.4836507257
 30
0.0
 10
700.5707290152
 20
39.7553011841
 30
0.0
 10
700.2040794081
 20
39.7553011841
 30
0.0
 10
699.8324573937
 20
39.7553011841
 30
0.0
 10
699.6427208018
 20
39.4888848386
 30
0.0
 10
699.6427208018
 20
39.1340119854
 30
0.0
 10
699.6427208018
 20
38.7943180596
 30
0.0
 10
699.8567960186
 20
38.5284251254
 30
0.0
 10
700.2089209625
 20
38.5284251254
 30
0.0
 10
700.4329409937
 20
38.5284251254
 30
0.0
 10
700.6351086036
 20
38.64409902
 30
0.0
 10
700.743585593
 20
38.8435187207
 30
0.0
 10
700.743585593
 20
38.8435187207
 30
0.0
 10
700.5559426463
 20
38.9502946234
 30
0.0
 10
700.5559426463
 20
38.9502946234
 30
0.0
 10
700.4724585459
 20
38.8115906321
 30
0.0
 10
700.381254129
 20
38.7257511809
 30
0.0
 10
700.2116688717
 20
38.7257511809
 30
0.0
 10
699.9996873002
 20
38.7257511809
 30
0.0
 10
699.866740833
 20
38.9105153655
 30
0.0
 10
699.8643854822
 20
39.1073180098
 30
0.0
 10
699.8643854822
 20
39.1073180098
 30
0.0
 10
700.743585593
 20
39.1073180098
 30
0.0
 10
700.743585593
 20
39.1073180098
 30
0.0
  0
SPLINE
  5
244
330
227
100
AcDbEntity
  8
0
  6
Continuous
 62
     7
100
AcDbSpline
 70
     3
 71
     3
 72
    14
 73
    10
 74
     0
 42
0.000000001
 43
0.0000001
 40
0.0
 40
0.0
 40
0.0
 40
0.0
 40
1.0
 40
1.0
 40
1.0
 40
2.0
 40
2.0
 40
2.0
 40
3.0
 40
3.0
 40
3.0
 40
3.0
 10
699.8764239419
 20
39.2748096219
 30
0.0
 10
699.9040338873
 20
39.4396841776
 30
0.0
 10
700.0318770944
 20
39.5626858302
 30
0.0
 10
700.2040794081
 20
39.5626858302
 30
0.0
 10
700.381254129
 20
39.5626858302
 30
0.0
 10
700.4947035257
 20
39.4470119356
 30
0.0
 10
700.5219209126
 20
39.2748096219
 30
0.0
 10
700.5219209126
 20
39.2748096219
 30
0.0
 10
699.8764239419
 20
39.2748096219
 30
0.0
 10
699.8764239419
 20
39.2748096219
 30
0.0
  0
SPLINE
  5
245
330
227
100
AcDbEntity
  8
0
  6
Continuous
 62
     7
100
AcDbSpline
 70
     3
 71
     3
 72
    20
 73
    16
 74
     0
 42
0.000000001
 43
0.0000001
 40
0.0
 40
0.0
 40
0.0
 40
0.0
 40
1.0
 40
1.0
 40
1.0
 40
2.0
 40
2.0
 40
2.0
 40
3.0
 40
3.0
 40
3.0
 40
4.0
 40
4.0
 40
4.0
 40
5.0
 40
5.0
 40
5.0
 40
5.0
 10
702.7676170432
 20
39.484174137
 30
0.0
 10
702.7676170432
 20
39.484174137
 30
0.0
 10
703.1787566099
 20
38.9816993007
 30
0.0
 10
703.1787566099
 20
38.9816993007
 30
0.0
 10
703.0626901568
 20
38.866025406
 30
0.0
 10
702.9249021352
 20
38.7356959954
 30
0.0
 10
702.7529615272
 20
38.7356959954
 30
0.0
 10
702.5755251006
 20
38.7356959954
 30
0.0
 10
702.4080334885
 20
38.9000471398
 30
0.0
 10
702.4080334885
 20
39.0769601551
 30
0.0
 10
702.4080334885
 20
39.2549199929
 30
0.0
 10
702.6177905621
 20
39.3810621133
 30
0.0
 10
702.7453720635
 20
39.4689952097
 30
0.0
 10
702.7453720635
 20
39.4689952097
 30
0.0
 10
702.7676170432
 20
39.484174137
 30
0.0
 10
702.7676170432
 20
39.484174137
 30
0.0
  0
SPLINE
  5
246
330
227
100
AcDbEntity
  8
0
  6
Continuous
 62
     7
100
AcDbSpline
 70
     3
 71
     3
 72
    23
 73
    19
 74
     0
 42
0.000000001
 43
0.0000001
 40
0.0
 40
0.0
 40
0.0
 40
0.0
 40
1.0
 40
1.0
 40
1.0
 40
2.0
 40
2.0
 40
2.0
 40
3.0
 40
3.0
 40
3.0
 40
4.0
 40
4.0
 40
4.0
 40
5.0
 40
5.0
 40
5.0
 40
6.0
 40
6.0
 40
6.0
 40
6.0
 10
702.8169485571
 20
39.7751908131
 30
0.0
 10
702.8169485571
 20
39.7751908131
 30
0.0
 10
702.755316878
 20
39.8537025063
 30
0.0
 10
702.755316878
 20
39.8537025063
 30
0.0
 10
702.7014055153
 20
39.922269385
 30
0.0
 10
702.6446153906
 20
39.991359675
 30
0.0
 10
702.6446153906
 20
40.0850502955
 30
0.0
 10
702.6446153906
 20
40.2038646578
 30
0.0
 10
702.7405305091
 20
40.2813295284
 30
0.0
 10
702.8514937021
 20
40.2813295284
 30
0.0
 10
702.9747570604
 20
40.2813295284
 30
0.0
 10
703.0680551225
 20
40.2101455933
 30
0.0
 10
703.0680551225
 20
40.0798161826
 30
0.0
 10
703.0680551225
 20
39.9447760703
 30
0.0
 10
702.9399502098
 20
39.8683580223
 30
0.0
 10
702.8463904421
 20
39.7945570307
 30
0.0
 10
702.8463904421
 20
39.7945570307
 30
0.0
 10
702.8169485571
 20
39.7751908131
 30
0.0
 10
702.8169485571
 20
39.7751908131
 30
0.0
  0
SPLINE
  5
247
330
227
100
AcDbEntity
  8
0
  6
Continuous
 62
     7
100
AcDbSpline
 70
     3
 71
     3
 72
    50
 73
    46
 74
     0
 42
0.000000001
 43
0.0000001
 40
0.0
 40
0.0
 40
0.0
 40
0.0
 40
1.0
 40
1.0
 40
1.0
 40
2.0
 40
2.0
 40
2.0
 40
3.0
 40
3.0
 40
3.0
 40
4.0
 40
4.0
 40
4.0
 40
5.0
 40
5.0
 40
5.0
 40
6.0
 40
6.0
 40
6.0
 40
7.0
 40
7.0
 40
7.0
 40
8.0
 40
8.0
 40
8.0
 40
9.0
 40
9.0
 40
9.0
 40
10.0
 40
10.0
 40
10.0
 40
11.0
 40
11.0
 40
11.0
 40
12.0
 40
12.0
 40
12.0
 40
13.0
 40
13.0
 40
13.0
 40
14.0
 40
14.0
 40
14.0
 40
15.0
 40
15.0
 40
15.0
 40
15.0
 10
703.5191047998
 20
38.5682043832
 30
0.0
 10
703.5191047998
 20
38.5682043832
 30
0.0
 10
703.8044948045
 20
38.5682043832
 30
0.0
 10
703.8044948045
 20
38.5682043832
 30
0.0
 10
703.8044948045
 20
38.5682043832
 30
0.0
 10
703.4721286367
 20
38.9790822442
 30
0.0
 10
703.4721286367
 20
38.9790822442
 30
0.0
 10
703.4721286367
 20
38.9790822442
 30
0.0
 10
703.6986348715
 20
39.2449751785
 30
0.0
 10
703.6986348715
 20
39.2449751785
 30
0.0
 10
703.6986348715
 20
39.2449751785
 30
0.0
 10
703.5503786242
 20
39.3978112745
 30
0.0
 10
703.5503786242
 20
39.3978112745
 30
0.0
 10
703.5503786242
 20
39.3978112745
 30
0.0
 10
703.334471468
 20
39.1465738563
 30
0.0
 10
703.334471468
 20
39.1465738563
 30
0.0
 10
703.334471468
 20
39.1465738563
 30
0.0
 10
702.9474088206
 20
39.6145035477
 30
0.0
 10
702.9474088206
 20
39.6145035477
 30
0.0
 10
703.1028619731
 20
39.7286072085
 30
0.0
 10
703.2851399541
 20
39.8683580223
 30
0.0
 10
703.2851399541
 20
40.0777225375
 30
0.0
 10
703.2851399541
 20
40.3216321976
 30
0.0
 10
703.083103197
 20
40.4650468905
 30
0.0
 10
702.8565969622
 20
40.4650468905
 30
0.0
 10
702.6124255964
 20
40.4650468905
 30
0.0
 10
702.4280539702
 20
40.3143044396
 30
0.0
 10
702.4280539702
 20
40.0578329085
 30
0.0
 10
702.4280539702
 20
39.9002861109
 30
0.0
 10
702.526716998
 20
39.7626289422
 30
0.0
 10
702.6320535197
 20
39.6516657491
 30
0.0
 10
702.6320535197
 20
39.6516657491
 30
0.0
 10
702.5165104779
 20
39.5679199431
 30
0.0
 10
702.5165104779
 20
39.5679199431
 30
0.0
 10
702.3388123456
 20
39.4396841776
 30
0.0
 10
702.1914720681
 20
39.3119718233
 30
0.0
 10
702.1914720681
 20
39.0748665099
 30
0.0
 10
702.1914720681
 20
38.7545388017
 30
0.0
 10
702.4500372443
 20
38.5284251254
 30
0.0
 10
702.760420138
 20
38.5284251254
 30
0.0
 10
702.9793369092
 20
38.5284251254
 30
0.0
 10
703.1765321119
 20
38.6535204232
 30
0.0
 10
703.316806337
 20
38.8194418014
 30
0.0
 10
703.316806337
 20
38.8194418014
 30
0.0
 10
703.5191047998
 20
38.5682043832
 30
0.0
 10
703.5191047998
 20
38.5682043832
 30
0.0
  0
LWPOLYLINE
  5
248
330
227
100
AcDbEntity
  8
0
  6
Continuous
 62
     7
100
AcDbPolyline
 90
        2
 70
     0
 43
0.2
 10
705.4545488895
 20
40.4247442213
 10
705.2232011003
 20
40.4247442213
  0
LWPOLYLINE
  5
249
330
227
100
AcDbEntity
  8
0
  6
Continuous
 62
     7
100
AcDbPolyline
 90
        2
 70
     0
 43
0.2
 10
705.2232011003
 20
40.4247442213
 10
705.2232011003
 20
38.567680972
  0
LWPOLYLINE
  5
24A
330
227
100
AcDbEntity
  8
0
  6
Continuous
 62
     7
100
AcDbPolyline
 90
        2
 70
     0
 43
0.2
 10
705.2232011003
 20
38.567680972
 10
706.0185245522
 20
38.567680972
  0
LWPOLYLINE
  5
24B
330
227
100
AcDbEntity
  8
0
  6
Continuous
 62
     7
100
AcDbPolyline
 90
        2
 70
     0
 43
0.2
 10
706.0185245522
 20
38.567680972
 10
706.0185245522
 20
38.7796625435
  0
LWPOLYLINE
  5
24C
330
227
100
AcDbEntity
  8
0
  6
Continuous
 62
     7
100
AcDbPolyline
 90
        2
 70
     0
 43
0.2
 10
706.0185245522
 20
38.7796625435
 10
705.4545488895
 20
38.7796625435
  0
LWPOLYLINE
  5
24D
330
227
100
AcDbEntity
  8
0
  6
Continuous
 62
     7
100
AcDbPolyline
 90
        2
 70
     0
 43
0.2
 10
705.4545488895
 20
38.7796625435
 10
705.4545488895
 20
40.4247442213
  0
LWPOLYLINE
  5
24E
330
227
100
AcDbEntity
  8
0
  6
Continuous
 62
     7
100
AcDbPolyline
 90
        2
 70
     0
 43
0.2
 10
707.6976279637
 20
39.7202326279
 10
707.4764866946
 20
39.7202326279
  0
LWPOLYLINE
  5
24F
330
227
100
AcDbEntity
  8
0
  6
Continuous
 62
     7
100
AcDbPolyline
 90
        2
 70
     0
 43
0.2
 10
707.4764866946
 20
39.7202326279
 10
707.4764866946
 20
38.5682043832
  0
LWPOLYLINE
  5
250
330
227
100
AcDbEntity
  8
0
  6
Continuous
 62
     7
100
AcDbPolyline
 90
        2
 70
     0
 43
0.2
 10
707.4764866946
 20
38.5682043832
 10
707.6976279637
 20
38.5682043832
  0
LWPOLYLINE
  5
251
330
227
100
AcDbEntity
  8
0
  6
Continuous
 62
     7
100
AcDbPolyline
 90
        2
 70
     0
 43
0.2
 10
707.6976279637
 20
38.5682043832
 10
707.6976279637
 20
39.7202326279
  0
LWPOLYLINE
  5
252
330
227
100
AcDbEntity
  8
0
  6
Continuous
 62
     7
100
AcDbPolyline
 90
        2
 70
     1
 43
0.2
 10
707.4346046865
 20
40.2501865568
 42
1.0
 10
707.7397716774
 20
40.2501865568
 42
1.0
  0
SPLINE
  5
253
330
227
100
AcDbEntity
  8
0
  6
Continuous
 62
     7
100
AcDbSpline
 70
     3
 71
     3
 72
    17
 73
    13
 74
     0
 42
0.000000001
 43
0.0000001
 40
0.0
 40
0.0
 40
0.0
 40
0.0
 40
1.0
 40
1.0
 40
1.0
 40
2.0
 40
2.0
 40
2.0
 40
3.0
 40
3.0
 40
3.0
 40
4.0
 40
4.0
 40
4.0
 40
4.0
 10
709.8279119053
 20
38.7257511809
 30
0.0
 10
709.5939470596
 20
38.7257511809
 30
0.0
 10
709.463617649
 20
38.927787938
 30
0.0
 10
709.463617649
 20
39.1439567999
 30
0.0
 10
709.463617649
 20
39.3585554279
 30
0.0
 10
709.5994428782
 20
39.5574517173
 30
0.0
 10
709.8279119053
 20
39.5574517173
 30
0.0
 10
710.0673725695
 20
39.5574517173
 30
0.0
 10
710.2029360931
 20
39.3685002424
 30
0.0
 10
710.2029360931
 20
39.1439567999
 30
0.0
 10
710.2029360931
 20
38.9178431235
 30
0.0
 10
710.0697279203
 20
38.7257511809
 30
0.0
 10
709.8279119053
 20
38.7257511809
 30
0.0
  0
SPLINE
  5
254
330
227
100
AcDbEntity
  8
0
  6
Continuous
 62
     7
100
AcDbSpline
 70
     3
 71
     3
 72
    50
 73
    46
 74
     0
 42
0.000000001
 43
0.0000001
 40
0.0
 40
0.0
 40
0.0
 40
0.0
 40
1.0
 40
1.0
 40
1.0
 40
2.0
 40
2.0
 40
2.0
 40
3.0
 40
3.0
 40
3.0
 40
4.0
 40
4.0
 40
4.0
 40
5.0
 40
5.0
 40
5.0
 40
6.0
 40
6.0
 40
6.0
 40
7.0
 40
7.0
 40
7.0
 40
8.0
 40
8.0
 40
8.0
 40
9.0
 40
9.0
 40
9.0
 40
10.0
 40
10.0
 40
10.0
 40
11.0
 40
11.0
 40
11.0
 40
12.0
 40
12.0
 40
12.0
 40
13.0
 40
13.0
 40
13.0
 40
14.0
 40
14.0
 40
14.0
 40
15.0
 40
15.0
 40
15.0
 40
15.0
 10
710.4120389026
 20
39.7207560391
 30
0.0
 10
710.4120389026
 20
39.7207560391
 30
0.0
 10
710.1903742222
 20
39.7207560391
 30
0.0
 10
710.1903742222
 20
39.7207560391
 30
0.0
 10
710.1903742222
 20
39.7207560391
 30
0.0
 10
710.1903742222
 20
39.5234299836
 30
0.0
 10
710.1903742222
 20
39.5234299836
 30
0.0
 10
710.1903742222
 20
39.5234299836
 30
0.0
 10
710.1856635206
 20
39.5234299836
 30
0.0
 10
710.1856635206
 20
39.5234299836
 30
0.0
 10
710.0943282508
 20
39.6663212652
 30
0.0
 10
709.9564093765
 20
39.7547777729
 30
0.0
 10
709.7836836515
 20
39.7547777729
 30
0.0
 10
709.4513174837
 20
39.7547777729
 30
0.0
 10
709.2422146742
 20
39.4669015645
 30
0.0
 10
709.2422146742
 20
39.1512845579
 30
0.0
 10
709.2422146742
 20
38.8215354466
 30
0.0
 10
709.4392790241
 20
38.5284251254
 30
0.0
 10
709.7941518772
 20
38.5284251254
 30
0.0
 10
709.9564093765
 20
38.5284251254
 30
0.0
 10
710.096421896
 20
38.616881633
 30
0.0
 10
710.1856635206
 20
38.747734455
 30
0.0
 10
710.1856635206
 20
38.747734455
 30
0.0
 10
710.1903742222
 20
38.747734455
 30
0.0
 10
710.1903742222
 20
38.747734455
 30
0.0
 10
710.1903742222
 20
38.747734455
 30
0.0
 10
710.1903742222
 20
38.5284251254
 30
0.0
 10
710.1903742222
 20
38.5284251254
 30
0.0
 10
710.1903742222
 20
38.2918432233
 30
0.0
 10
710.1338458031
 20
38.1049853935
 30
0.0
 10
709.8606251108
 20
38.1049853935
 30
0.0
 10
709.658326648
 20
38.1049853935
 30
0.0
 10
709.5156970721
 20
38.2232763445
 30
0.0
 10
709.5156970721
 20
38.429500392
 30
0.0
 10
709.5156970721
 20
38.429500392
 30
0.0
 10
709.2940323917
 20
38.429500392
 30
0.0
 10
709.2940323917
 20
38.429500392
 30
0.0
 10
709.2990047989
 20
38.1049853935
 30
0.0
 10
709.5300908825
 20
37.9081827492
 30
0.0
 10
709.8504185907
 20
37.9081827492
 30
0.0
 10
710.2984586531
 20
37.9081827492
 30
0.0
 10
710.4120389026
 20
38.1934419011
 30
0.0
 10
710.4120389026
 20
38.5901876573
 30
0.0
 10
710.4120389026
 20
38.5901876573
 30
0.0
 10
710.4120389026
 20
39.7207560391
 30
0.0
 10
710.4120389026
 20
39.7207560391
 30
0.0
  0
SPLINE
  5
255
330
227
100
AcDbEntity
  8
0
  6
Continuous
 62
     7
100
AcDbSpline
 70
     3
 71
     3
 72
    44
 73
    40
 74
     0
 42
0.000000001
 43
0.0000001
 40
0.0
 40
0.0
 40
0.0
 40
0.0
 40
1.0
 40
1.0
 40
1.0
 40
2.0
 40
2.0
 40
2.0
 40
3.0
 40
3.0
 40
3.0
 40
4.0
 40
4.0
 40
4.0
 40
5.0
 40
5.0
 40
5.0
 40
6.0
 40
6.0
 40
6.0
 40
7.0
 40
7.0
 40
7.0
 40
8.0
 40
8.0
 40
8.0
 40
9.0
 40
9.0
 40
9.0
 40
10.0
 40
10.0
 40
10.0
 40
11.0
 40
11.0
 40
11.0
 40
12.0
 40
12.0
 40
12.0
 40
13.0
 40
13.0
 40
13.0
 40
13.0
 10
711.980964238
 20
40.7058160829
 30
0.0
 10
711.980964238
 20
40.7058160829
 30
0.0
 10
711.980964238
 20
38.567680972
 30
0.0
 10
711.980964238
 20
38.567680972
 30
0.0
 10
711.980964238
 20
38.567680972
 30
0.0
 10
712.2023672127
 20
38.567680972
 30
0.0
 10
712.2023672127
 20
38.567680972
 30
0.0
 10
712.2023672127
 20
38.567680972
 30
0.0
 10
712.2023672127
 20
39.0973731953
 30
0.0
 10
712.2023672127
 20
39.0973731953
 30
0.0
 10
712.2023672127
 20
39.3072611217
 30
0.0
 10
712.2023672127
 20
39.5579751286
 30
0.0
 10
712.4876263646
 20
39.5579751286
 30
0.0
 10
712.7145251579
 20
39.5579751286
 30
0.0
 10
712.7414808392
 20
39.4250286615
 30
0.0
 10
712.7414808392
 20
39.2287494285
 30
0.0
 10
712.7414808392
 20
39.2287494285
 30
0.0
 10
712.7414808392
 20
38.567680972
 30
0.0
 10
712.7414808392
 20
38.567680972
 30
0.0
 10
712.7414808392
 20
38.567680972
 30
0.0
 10
712.9634072253
 20
38.567680972
 30
0.0
 10
712.9634072253
 20
38.567680972
 30
0.0
 10
712.9634072253
 20
38.567680972
 30
0.0
 10
712.9634072253
 20
39.2549199929
 30
0.0
 10
712.9634072253
 20
39.2549199929
 30
0.0
 10
712.9634072253
 20
39.5354684432
 30
0.0
 10
712.8793997136
 20
39.7553011841
 30
0.0
 10
712.5543613038
 20
39.7553011841
 30
0.0
 10
712.41461049
 20
39.7553011841
 30
0.0
 10
712.27642991
 20
39.6888279506
 30
0.0
 10
712.2070779143
 20
39.5658262979
 30
0.0
 10
712.2070779143
 20
39.5658262979
 30
0.0
 10
712.2023672127
 20
39.5658262979
 30
0.0
 10
712.2023672127
 20
39.5658262979
 30
0.0
 10
712.2023672127
 20
39.5658262979
 30
0.0
 10
712.2023672127
 20
40.7058160829
 30
0.0
 10
712.2023672127
 20
40.7058160829
 30
0.0
 10
712.2023672127
 20
40.7058160829
 30
0.0
 10
711.980964238
 20
40.7058160829
 30
0.0
 10
711.980964238
 20
40.7058160829
 30
0.0
  0
LWPOLYLINE
  5
256
330
227
100
AcDbEntity
  8
0
  6
Continuous
 62
     7
100
AcDbPolyline
 90
        2
 70
     0
 43
0.2
 10
714.8031979022
 20
39.5134851691
 10
715.0196284697
 20
39.5134851691
  0
LWPOLYLINE
  5
257
330
227
100
AcDbEntity
  8
0
  6
Continuous
 62
     7
100
AcDbPolyline
 90
        2
 70
     0
 43
0.2
 10
715.0196284697
 20
39.5134851691
 10
715.0196284697
 20
39.7202326279
  0
LWPOLYLINE
  5
258
330
227
100
AcDbEntity
  8
0
  6
Continuous
 62
     7
100
AcDbPolyline
 90
        2
 70
     0
 43
0.2
 10
715.0196284697
 20
39.7202326279
 10
714.8031979022
 20
39.7202326279
  0
LWPOLYLINE
  5
259
330
227
100
AcDbEntity
  8
0
  6
Continuous
 62
     7
100
AcDbPolyline
 90
        2
 70
     0
 43
0.2
 10
714.8031979022
 20
39.7202326279
 10
714.8031979022
 20
40.1609449322
  0
LWPOLYLINE
  5
25A
330
227
100
AcDbEntity
  8
0
  6
Continuous
 62
     7
100
AcDbPolyline
 90
        2
 70
     0
 43
0.2
 10
714.8031979022
 20
40.1609449322
 10
714.5815332217
 20
40.1609449322
  0
LWPOLYLINE
  5
25B
330
227
100
AcDbEntity
  8
0
  6
Continuous
 62
     7
100
AcDbPolyline
 90
        2
 70
     0
 43
0.2
 10
714.5815332217
 20
40.1609449322
 10
714.5815332217
 20
39.7202326279
  0
LWPOLYLINE
  5
25C
330
227
100
AcDbEntity
  8
0
  6
Continuous
 62
     7
100
AcDbPolyline
 90
        2
 70
     0
 43
0.2
 10
714.5815332217
 20
39.7202326279
 10
714.4608869199
 20
39.7202326279
  0
LWPOLYLINE
  5
25D
330
227
100
AcDbEntity
  8
0
  6
Continuous
 62
     7
100
AcDbPolyline
 90
        2
 70
     0
 43
0.2
 10
714.4608869199
 20
39.7202326279
 10
714.4608869199
 20
39.5134851691
  0
LWPOLYLINE
  5
25E
330
227
100
AcDbEntity
  8
0
  6
Continuous
 62
     7
100
AcDbPolyline
 90
        2
 70
     0
 43
0.2
 10
714.4608869199
 20
39.5134851691
 10
714.5815332217
 20
39.5134851691
  0
LWPOLYLINE
  5
25F
330
227
100
AcDbEntity
  8
0
  6
Continuous
 62
     7
100
AcDbPolyline
 90
        2
 70
     0
 43
0.2
 10
714.5815332217
 20
39.5134851691
 10
714.5815332217
 20
38.567680972
  0
LWPOLYLINE
  5
260
330
227
100
AcDbEntity
  8
0
  6
Continuous
 62
     7
100
AcDbPolyline
 90
        2
 70
     0
 43
0.2
 10
714.5815332217
 20
38.567680972
 10
714.8031979022
 20
38.567680972
  0
LWPOLYLINE
  5
261
330
227
100
AcDbEntity
  8
0
  6
Continuous
 62
     7
100
AcDbPolyline
 90
        2
 70
     0
 43
0.2
 10
714.8031979022
 20
38.567680972
 10
714.8031979022
 20
39.5134851691
  0
SPLINE
  5
262
330
227
100
AcDbEntity
  8
0
  6
Continuous
 62
     7
100
AcDbSpline
 70
     3
 71
     3
 72
    20
 73
    16
 74
     0
 42
0.000000001
 43
0.0000001
 40
0.0
 40
0.0
 40
0.0
 40
0.0
 40
1.0
 40
1.0
 40
1.0
 40
2.0
 40
2.0
 40
2.0
 40
3.0
 40
3.0
 40
3.0
 40
4.0
 40
4.0
 40
4.0
 40
5.0
 40
5.0
 40
5.0
 40
5.0
 10
702.5852082094
 20
48.9286074153
 30
0.0
 10
702.5852082094
 20
48.9286074153
 30
0.0
 10
704.9015648639
 20
46.0990459931
 30
0.0
 10
704.9015648639
 20
46.0990459931
 30
0.0
 10
704.2499178105
 20
45.4468755284
 30
0.0
 10
703.4730446065
 20
44.7109592577
 30
0.0
 10
702.5018549618
 20
44.7109592577
 30
0.0
 10
701.5033170774
 20
44.7109592577
 30
0.0
 10
700.5599990838
 20
45.6405377049
 30
0.0
 10
700.5599990838
 20
46.6397298535
 30
0.0
 10
700.5599990838
 20
47.638922002
 30
0.0
 10
701.7388521569
 20
48.3455272407
 30
0.0
 10
702.4603746173
 20
48.8453850206
 30
0.0
 10
702.4603746173
 20
48.8453850206
 30
0.0
 10
702.5852082094
 20
48.9286074153
 30
0.0
 10
702.5852082094
 20
48.9286074153
 30
0.0
  0
SPLINE
  5
263
330
227
100
AcDbEntity
  8
0
  6
Continuous
 62
     7
100
AcDbSpline
 70
     3
 71
     3
 72
    23
 73
    19
 74
     0
 42
0.000000001
 43
0.0000001
 40
0.0
 40
0.0
 40
0.0
 40
0.0
 40
1.0
 40
1.0
 40
1.0
 40
2.0
 40
2.0
 40
2.0
 40
3.0
 40
3.0
 40
3.0
 40
4.0
 40
4.0
 40
4.0
 40
5.0
 40
5.0
 40
5.0
 40
6.0
 40
6.0
 40
6.0
 40
6.0
 10
702.862616192
 20
50.5663613351
 30
0.0
 10
702.862616192
 20
50.5663613351
 30
0.0
 10
702.5161179194
 20
51.0096906959
 30
0.0
 10
702.5161179194
 20
51.0096906959
 30
0.0
 10
702.2103148745
 20
51.3978001659
 30
0.0
 10
701.8914265473
 20
51.7863021943
 30
0.0
 10
701.8914265473
 20
52.3132465084
 30
0.0
 10
701.8914265473
 20
52.979418225
 30
0.0
 10
702.4327646718
 20
53.4231401443
 30
0.0
 10
703.056670927
 20
53.4231401443
 30
0.0
 10
703.750452589
 20
53.4231401443
 30
0.0
 10
704.2776586087
 20
53.0208985696
 30
0.0
 10
704.2776586087
 20
52.2858982686
 30
0.0
 10
704.2776586087
 20
51.522633758
 30
0.0
 10
703.5563978541
 20
51.0925205322
 30
0.0
 10
703.0293226872
 20
50.6768011168
 30
0.0
 10
703.0293226872
 20
50.6768011168
 30
0.0
 10
702.862616192
 20
50.5663613351
 30
0.0
 10
702.862616192
 20
50.5663613351
 30
0.0
  0
SPLINE
  5
264
330
227
100
AcDbEntity
  8
0
  6
Continuous
 62
     7
100
AcDbSpline
 70
     3
 71
     3
 72
    50
 73
    46
 74
     0
 42
0.000000001
 43
0.0000001
 40
0.0
 40
0.0
 40
0.0
 40
0.0
 40
1.0
 40
1.0
 40
1.0
 40
2.0
 40
2.0
 40
2.0
 40
3.0
 40
3.0
 40
3.0
 40
4.0
 40
4.0
 40
4.0
 40
5.0
 40
5.0
 40
5.0
 40
6.0
 40
6.0
 40
6.0
 40
7.0
 40
7.0
 40
7.0
 40
8.0
 40
8.0
 40
8.0
 40
9.0
 40
9.0
 40
9.0
 40
10.0
 40
10.0
 40
10.0
 40
11.0
 40
11.0
 40
11.0
 40
12.0
 40
12.0
 40
12.0
 40
13.0
 40
13.0
 40
13.0
 40
14.0
 40
14.0
 40
14.0
 40
15.0
 40
15.0
 40
15.0
 40
15.0
 10
706.8162033549
 20
43.767772117
 30
0.0
 10
706.8162033549
 20
43.767772117
 30
0.0
 10
708.4254313595
 20
43.767772117
 30
0.0
 10
708.4254313595
 20
43.767772117
 30
0.0
 10
708.4254313595
 20
43.767772117
 30
0.0
 10
706.5524040658
 20
46.0849138884
 30
0.0
 10
706.5524040658
 20
46.0849138884
 30
0.0
 10
706.5524040658
 20
46.0849138884
 30
0.0
 10
707.8287424913
 20
47.5823935829
 30
0.0
 10
707.8287424913
 20
47.5823935829
 30
0.0
 10
707.8287424913
 20
47.5823935829
 30
0.0
 10
706.9965185436
 20
48.4434051515
 30
0.0
 10
706.9965185436
 20
48.4434051515
 30
0.0
 10
706.9965185436
 20
48.4434051515
 30
0.0
 10
705.7759234203
 20
47.0281010291
 30
0.0
 10
705.7759234203
 20
47.0281010291
 30
0.0
 10
705.7759234203
 20
47.0281010291
 30
0.0
 10
703.5980090514
 20
49.6634768635
 30
0.0
 10
703.5980090514
 20
49.6634768635
 30
0.0
 10
704.4715824909
 20
50.3015152234
 30
0.0
 10
705.4982537321
 20
51.0925205322
 30
0.0
 10
705.4982537321
 20
52.2713736053
 30
0.0
 10
705.4982537321
 20
53.6450665303
 30
0.0
 10
704.3603575922
 20
54.4495496798
 30
0.0
 10
703.0850659893
 20
54.4495496798
 30
0.0
 10
701.71163477
 20
54.4495496798
 30
0.0
 10
700.6707005712
 20
53.6033244801
 30
0.0
 10
700.6707005712
 20
52.1606721179
 30
0.0
 10
700.6707005712
 20
51.2730974265
 30
0.0
 10
701.2260399476
 20
50.4962242225
 30
0.0
 10
701.8222054045
 20
49.8717945561
 30
0.0
 10
701.8222054045
 20
49.8717945561
 30
0.0
 10
701.1702966455
 20
49.4002009857
 30
0.0
 10
701.1702966455
 20
49.4002009857
 30
0.0
 10
700.171758761
 20
48.678940231
 30
0.0
 10
699.3388805492
 20
47.9576794764
 30
0.0
 10
699.3388805492
 20
46.62612116
 30
0.0
 10
699.3388805492
 20
44.822445862
 30
0.0
 10
700.7959267218
 20
43.5458457309
 30
0.0
 10
702.5434661592
 20
43.5458457309
 30
0.0
 10
703.7783242401
 20
43.5458457309
 30
0.0
 10
704.8876944647
 20
44.2540212034
 30
0.0
 10
705.6785689207
 20
45.1825528281
 30
0.0
 10
705.6785689207
 20
45.1825528281
 30
0.0
 10
706.8162033549
 20
43.767772117
 30
0.0
 10
706.8162033549
 20
43.767772117
 30
0.0
  0
LINE
  5
265
330
227
100
AcDbEntity
  8
0
  6
Continuous
 62
     7
100
AcDbLine
 10
692.6190647299
 20
41.7416470216
 30
0.0
 11
715.0329754575
 21
41.7416470216
 31
0.0
  0
LINE
  5
266
330
227
100
AcDbEntity
  8
0
  6
Continuous
 62
     7
100
AcDbLine
 10
715.0329754575
 20
41.7416470216
 30
0.0
 11
715.0329754575
 21
64.1555577492
 31
0.0
  0
LINE
  5
267
330
227
100
AcDbEntity
  8
0
  6
Continuous
 62
     7
100
AcDbLine
 10
715.0329754575
 20
64.1555577492
 30
0.0
 11
692.6190647299
 21
64.1555577492
 31
0.0
  0
LINE
  5
268
330
227
100
AcDbEntity
  8
0
  6
Continuous
 62
     7
100
AcDbLine
 10
692.6190647299
 20
64.1555577492
 30
0.0
 11
692.6190647299
 21
41.7416470216
 31
0.0
  0
ENDBLK
  5
269
330
227
100
AcDbEntity
  8
0
  6
ByBlock
 62
     0
100
AcDbBlockEnd
  0
BLOCK
  5
26A
330
228
100
AcDbEntity
  8
0
100
AcDbBlockBegin
  2
PROIEZIONE_EU_BL0
 70
     0
 10
704.9999076225
 20
76.6568702492
 30
0.0
  3
PROIEZIONE_EU_BL0
  1

  0
LWPOLYLINE
  5
26B
330
228
100
AcDbEntity
  8
DEFAULT_1
  6
CENTER
 62
     7
100
AcDbPolyline
 90
        2
 70
     0
 43
0.25
 10
711.1265282842
 20
81.6565643811
 10
711.1265692666
 20
71.6571761174
  0
LWPOLYLINE
  5
26C
330
228
100
AcDbEntity
  8
DEFAULT_1
  6
CENTER
 62
     7
100
AcDbPolyline
 90
        2
 70
     0
 43
0.25
 10
717.1265581093
 20
76.6571413844
 10
692.8732571358
 20
76.656870724
  0
LWPOLYLINE
  5
26D
330
228
100
AcDbEntity
  8
0
  6
Continuous
 62
     7
100
AcDbPolyline
 90
        2
 70
     1
 43
0.25
 10
707.5794181084
 20
76.638322495
 42
1.0
 10
714.685747207
 20
76.638322495
 42
1.0
  0
LWPOLYLINE
  5
26E
330
228
100
AcDbEntity
  8
0
  6
Continuous
 62
     7
100
AcDbPolyline
 90
        2
 70
     1
 43
0.25
 10
709.1291619368
 20
76.6562205396
 42
1.0
 10
713.1409136868
 20
76.6562205396
 42
1.0
  0
LWPOLYLINE
  5
26F
330
228
100
AcDbEntity
  8
0
  6
Continuous
 62
     7
100
AcDbPolyline
 90
        2
 70
     0
 43
0.25
 10
705.1265559032
 20
80.2320737445
 10
705.1265555487
 20
73.1318708362
  0
LWPOLYLINE
  5
270
330
228
100
AcDbEntity
  8
0
  6
Continuous
 62
     7
100
AcDbPolyline
 90
        2
 70
     0
 43
0.25
 10
705.126583985
 20
73.1318423998
 10
695.1320267139
 20
74.6519358126
  0
LWPOLYLINE
  5
271
330
228
100
AcDbEntity
  8
0
  6
Continuous
 62
     7
100
AcDbPolyline
 90
        2
 70
     0
 43
0.25
 10
695.1297167283
 20
74.6512582711
 10
695.1270498242
 20
78.6568968825
  0
LWPOLYLINE
  5
272
330
228
100
AcDbEntity
  8
0
  6
Continuous
 62
     7
100
AcDbPolyline
 90
        2
 70
     0
 43
0.25
 10
695.1270415481
 20
78.6568886064
 10
705.1267847854
 20
80.2320458265
  0
ENDBLK
  5
273
330
228
100
AcDbEntity
  8
0
  6
ByBlock
 62
     0
100
AcDbBlockEnd
  0
ENDSEC
  0
SECTION
  2
ENTITIES
  0
LINE
  5
2B2
330
1B
100
AcDbEntity
 67
     1
  8
0
  6
Continuous
 62
     7
100
AcDbLine
 10
0.0
 20
0.0
 30
0.0
 11
841.0
 21
0.0
 31
0.0
  0
LINE
  5
2B3
330
1B
100
AcDbEntity
 67
     1
  8
0
  6
Continuous
 62
     7
100
AcDbLine
 10
841.0
 20
0.0
 30
0.0
 11
841.0
 21
1500.0
 31
0.0
  0
LINE
  5
2B4
330
1B
100
AcDbEntity
 67
     1
  8
0
  6
Continuous
 62
     7
100
AcDbLine
 10
0.0
 20
1500.0
 30
0.0
 11
841.0
 21
1500.0
 31
0.0
  0
LINE
  5
2B5
330
1B
100
AcDbEntity
 67
     1
  8
0
  6
Continuous
 62
     7
100
AcDbLine
 10
0.0
 20
0.0
 30
0.0
 11
0.0
 21
1500.0
 31
0.0
  0
VIEWPORT
  5
2B6
330
1B
100
AcDbEntity
 67
     1
  8
0
100
AcDbViewport
 10
0.0
 20
0.0
 30
0.0
 40
2500.389105058366
 41
1768.132295719844
 68
     1
 69
     1
 12
1181.906614785992
 22
750.0
 13
0.0
 23
0.0
 14
1.0
 24
1.0
 15
0.0
 25
0.0
 16
0.0
 26
0.0
 36
1.0
 17
0.0
 27
0.0
 37
0.0
 42
50.0
 43
0.0
 44
0.0
 45
1768.132295719844
 50
0.0
 51
0.0
 72
   100
 90
   557216
  1

281
     0
 71
     1
 74
     0
110
0.0
120
0.0
130
0.0
111
1.0
121
0.0
131
0.0
112
0.0
122
1.0
132
0.0
 79
     0
146
0.0
170
     0
 61
     5
348
581
292
     1
282
     1
141
0.0
142
0.0
 63
   256
  0
LINE
  5
2B7
330
1B
100
AcDbEntity
 67
     1
  8
7_ALL_FEATURES
  6
Continuous
 62
     7
100
AcDbLine
 10
438.0514991554
 20
240.992894848
 30
0.0
 11
438.1993757407
 21
240.992894848
 31
0.0
  0
LINE
  5
2B8
330
1B
100
AcDbEntity
 67
     1
  8
7_ALL_FEATURES
  6
Continuous
 62
     7
100
AcDbLine
 10
438.1993757407
 20
240.992894848
 30
0.0
 11
438.5514991554
 21
240.992894848
 31
0.0
  0
LINE
  5
2B9
330
1B
100
AcDbEntity
 67
     1
  8
7_ALL_FEATURES
  6
Continuous
 62
     7
100
AcDbLine
 10
343.0514991554
 20
178.992894848
 30
0.0
 11
342.9036225701
 21
178.992894848
 31
0.0
  0
LINE
  5
2BA
330
1B
100
AcDbEntity
 67
     1
  8
7_ALL_FEATURES
  6
Continuous
 62
     7
100
AcDbLine
 10
342.9036225701
 20
178.992894848
 30
0.0
 11
342.5514991554
 21
178.992894848
 31
0.0
  0
LINE
  5
2BB
330
1B
100
AcDbEntity
 67
     1
  8
7_ALL_FEATURES
  6
Continuous
 62
     7
100
AcDbLine
 10
343.0514991554
 20
254.992894848
 30
0.0
 11
342.9036225701
 21
254.992894848
 31
0.0
  0
LINE
  5
2BC
330
1B
100
AcDbEntity
 67
     1
  8
7_ALL_FEATURES
  6
Continuous
 62
     7
100
AcDbLine
 10
342.9036225701
 20
254.992894848
 30
0.0
 11
342.5514991554
 21
254.992894848
 31
0.0
  0
LINE
  5
2BD
330
1B
100
AcDbEntity
 67
     1
  8
7_ALL_FEATURES
  6
Continuous
 62
     7
100
AcDbLine
 10
343.0514991554
 20
244.992894848
 30
0.0
 11
342.9036225701
 21
244.992894848
 31
0.0
  0
LINE
  5
2BE
330
1B
100
AcDbEntity
 67
     1
  8
7_ALL_FEATURES
  6
Continuous
 62
     7
100
AcDbLine
 10
342.9036225701
 20
244.992894848
 30
0.0
 11
342.5514991554
 21
244.992894848
 31
0.0
  0
LINE
  5
2BF
330
1B
100
AcDbEntity
 67
     1
  8
7_ALL_FEATURES
  6
Continuous
 62
     7
100
AcDbLine
 10
438.0514991554
 20
164.992894848
 30
0.0
 11
438.1993757407
 21
164.992894848
 31
0.0
  0
LINE
  5
2C0
330
1B
100
AcDbEntity
 67
     1
  8
7_ALL_FEATURES
  6
Continuous
 62
     7
100
AcDbLine
 10
438.1993757407
 20
164.992894848
 30
0.0
 11
438.5514991554
 21
164.992894848
 31
0.0
  0
LINE
  5
2C1
330
1B
100
AcDbEntity
 67
     1
  8
7_ALL_FEATURES
  6
Continuous
 62
     7
100
AcDbLine
 10
438.0514991554
 20
174.992894848
 30
0.0
 11
438.1993757407
 21
174.992894848
 31
0.0
  0
LINE
  5
2C2
330
1B
100
AcDbEntity
 67
     1
  8
7_ALL_FEATURES
  6
Continuous
 62
     7
100
AcDbLine
 10
438.1993757407
 20
174.992894848
 30
0.0
 11
438.5514991554
 21
174.992894848
 31
0.0
  0
LINE
  5
2C3
330
1B
100
AcDbEntity
 67
     1
  8
3_ALL_AXES
  6
Continuous
 62
     7
100
AcDbLine
 10
438.5514991554
 20
172.792894848
 30
0.0
 11
437.7514991554
 21
171.992894848
 31
0.0
  0
LINE
  5
2C4
330
1B
100
AcDbEntity
 67
     1
  8
3_ALL_AXES
  6
Continuous
 62
     7
100
AcDbLine
 10
438.5514991554
 20
166.192894848
 30
0.0
 11
437.7514991554
 21
166.992894848
 31
0.0
  0
LINE
  5
2C5
330
1B
100
AcDbEntity
 67
     1
  8
7_ALL_FEATURES
  6
Continuous
 62
     7
100
AcDbLine
 10
437.7514991554
 20
171.992894848
 30
0.0
 11
437.6674720177
 21
171.992894848
 31
0.0
  0
LINE
  5
2C6
330
1B
100
AcDbEntity
 67
     1
  8
7_ALL_FEATURES
  6
Continuous
 62
     7
100
AcDbLine
 10
437.7514991554
 20
166.992894848
 30
0.0
 11
437.6674720177
 21
166.992894848
 31
0.0
  0
LINE
  5
2C7
330
1B
100
AcDbEntity
 67
     1
  8
3_ALL_AXES
  6
Continuous
 62
     7
100
AcDbLine
 10
437.7514991554
 20
171.992894848
 30
0.0
 11
437.7514991554
 21
166.992894848
 31
0.0
  0
LINE
  5
2C8
330
1B
100
AcDbEntity
 67
     1
  8
3_ALL_AXES
  6
Continuous
 62
     7
100
AcDbLine
 10
342.5514991554
 20
247.192894848
 30
0.0
 11
343.3514991554
 21
247.992894848
 31
0.0
  0
LINE
  5
2C9
330
1B
100
AcDbEntity
 67
     1
  8
3_ALL_AXES
  6
Continuous
 62
     7
100
AcDbLine
 10
342.5514991554
 20
253.792894848
 30
0.0
 11
343.3514991554
 21
252.992894848
 31
0.0
  0
LINE
  5
2CA
330
1B
100
AcDbEntity
 67
     1
  8
7_ALL_FEATURES
  6
Continuous
 62
     7
100
AcDbLine
 10
343.3514991554
 20
247.992894848
 30
0.0
 11
343.4355262932
 21
247.992894848
 31
0.0
  0
LINE
  5
2CB
330
1B
100
AcDbEntity
 67
     1
  8
7_ALL_FEATURES
  6
Continuous
 62
     7
100
AcDbLine
 10
343.3514991554
 20
252.992894848
 30
0.0
 11
343.4355262932
 21
252.992894848
 31
0.0
  0
LINE
  5
2CC
330
1B
100
AcDbEntity
 67
     1
  8
3_ALL_AXES
  6
Continuous
 62
     7
100
AcDbLine
 10
343.3514991554
 20
247.992894848
 30
0.0
 11
343.3514991554
 21
252.992894848
 31
0.0
  0
LINE
  5
2CD
330
1B
100
AcDbEntity
 67
     1
  8
3_ALL_AXES
  6
Continuous
 62
     7
100
AcDbLine
 10
342.5514991554
 20
166.192894848
 30
0.0
 11
343.3514991554
 21
166.992894848
 31
0.0
  0
LINE
  5
2CE
330
1B
100
AcDbEntity
 67
     1
  8
3_ALL_AXES
  6
Continuous
 62
     7
100
AcDbLine
 10
342.5514991554
 20
172.792894848
 30
0.0
 11
343.3514991554
 21
171.992894848
 31
0.0
  0
LINE
  5
2CF
330
1B
100
AcDbEntity
 67
     1
  8
7_ALL_FEATURES
  6
Continuous
 62
     7
100
AcDbLine
 10
343.3514991554
 20
166.992894848
 30
0.0
 11
343.4355262932
 21
166.992894848
 31
0.0
  0
LINE
  5
2D0
330
1B
100
AcDbEntity
 67
     1
  8
7_ALL_FEATURES
  6
Continuous
 62
     7
100
AcDbLine
 10
343.3514991554
 20
171.992894848
 30
0.0
 11
343.4355262932
 21
171.992894848
 31
0.0
  0
LINE
  5
2D1
330
1B
100
AcDbEntity
 67
     1
  8
3_ALL_AXES
  6
Continuous
 62
     7
100
AcDbLine
 10
343.3514991554
 20
166.992894848
 30
0.0
 11
343.3514991554
 21
171.992894848
 31
0.0
  0
LINE
  5
2D2
330
1B
100
AcDbEntity
 67
     1
  8
3_ALL_AXES
  6
Continuous
 62
     7
100
AcDbLine
 10
438.5514991554
 20
253.792894848
 30
0.0
 11
437.7514991554
 21
252.992894848
 31
0.0
  0
LINE
  5
2D3
330
1B
100
AcDbEntity
 67
     1
  8
3_ALL_AXES
  6
Continuous
 62
     7
100
AcDbLine
 10
438.5514991554
 20
247.192894848
 30
0.0
 11
437.7514991554
 21
247.992894848
 31
0.0
  0
LINE
  5
2D4
330
1B
100
AcDbEntity
 67
     1
  8
7_ALL_FEATURES
  6
Continuous
 62
     7
100
AcDbLine
 10
437.7514991554
 20
252.992894848
 30
0.0
 11
437.6674720177
 21
252.992894848
 31
0.0
  0
LINE
  5
2D5
330
1B
100
AcDbEntity
 67
     1
  8
7_ALL_FEATURES
  6
Continuous
 62
     7
100
AcDbLine
 10
437.7514991554
 20
247.992894848
 30
0.0
 11
437.6674720177
 21
247.992894848
 31
0.0
  0
LINE
  5
2D6
330
1B
100
AcDbEntity
 67
     1
  8
3_ALL_AXES
  6
Continuous
 62
     7
100
AcDbLine
 10
437.7514991554
 20
252.992894848
 30
0.0
 11
437.7514991554
 21
247.992894848
 31
0.0
  0
LINE
  5
2D7
330
1B
100
AcDbEntity
 67
     1
  8
7_ALL_FEATURES
  6
Continuous
 62
     7
100
AcDbLine
 10
430.1854737516
 20
170.992894848
 30
0.0
 11
429.3194483478
 21
169.492894848
 31
0.0
  0
LINE
  5
2D8
330
1B
100
AcDbEntity
 67
     1
  8
7_ALL_FEATURES
  6
Continuous
 62
     7
100
AcDbLine
 10
429.3194483478
 20
169.492894848
 30
0.0
 11
430.1854737516
 21
167.992894848
 31
0.0
  0
LINE
  5
2D9
330
1B
100
AcDbEntity
 67
     1
  8
7_ALL_FEATURES
  6
Continuous
 62
     7
100
AcDbLine
 10
430.1854737516
 20
167.992894848
 30
0.0
 11
431.9175245592
 21
167.992894848
 31
0.0
  0
LINE
  5
2DA
330
1B
100
AcDbEntity
 67
     1
  8
7_ALL_FEATURES
  6
Continuous
 62
     7
100
AcDbLine
 10
431.9175245592
 20
167.992894848
 30
0.0
 11
432.783549963
 21
169.492894848
 31
0.0
  0
LINE
  5
2DB
330
1B
100
AcDbEntity
 67
     1
  8
7_ALL_FEATURES
  6
Continuous
 62
     7
100
AcDbLine
 10
432.783549963
 20
169.492894848
 30
0.0
 11
431.9175245592
 21
170.992894848
 31
0.0
  0
LINE
  5
2DC
330
1B
100
AcDbEntity
 67
     1
  8
7_ALL_FEATURES
  6
Continuous
 62
     7
100
AcDbLine
 10
431.9175245592
 20
170.992894848
 30
0.0
 11
430.1854737516
 21
170.992894848
 31
0.0
  0
ARC
  5
2DD
330
1B
100
AcDbEntity
 67
     1
  8
7_ALL_FEATURES
  6
Continuous
 62
     7
100
AcDbCircle
 10
431.0514991554
 20
169.492894848
 30
0.0
 40
3.5
100
AcDbArc
 50
0.0
 51
180.0
  0
ARC
  5
2DE
330
1B
100
AcDbEntity
 67
     1
  8
7_ALL_FEATURES
  6
Continuous
 62
     7
100
AcDbCircle
 10
431.0514991554
 20
169.492894848
 30
0.0
 40
3.5
100
AcDbArc
 50
180.0
 51
360.0
  0
ARC
  5
2DF
330
1B
100
AcDbEntity
 67
     1
  8
7_ALL_FEATURES
  6
Continuous
 62
     7
100
AcDbCircle
 10
431.0514991554
 20
169.492894848
 30
0.0
 40
3.5
100
AcDbArc
 50
0.0
 51
180.0
  0
ARC
  5
2E0
330
1B
100
AcDbEntity
 67
     1
  8
7_ALL_FEATURES
  6
Continuous
 62
     7
100
AcDbCircle
 10
431.0514991554
 20
169.492894848
 30
0.0
 40
3.5
100
AcDbArc
 50
180.0
 51
360.0
  0
ARC
  5
2E1
330
1B
100
AcDbEntity
 67
     1
  8
7_ALL_FEATURES
  6
Continuous
 62
     9
100
AcDbCircle
 10
431.0514991554
 20
169.492894848
 30
0.0
 40
3.3999999423
100
AcDbArc
 50
180.0
 51
360.0
  0
ARC
  5
2E2
330
1B
100
AcDbEntity
 67
     1
  8
7_ALL_FEATURES
  6
Continuous
 62
     9
100
AcDbCircle
 10
431.0514991554
 20
169.492894848
 30
0.0
 40
3.3999999423
100
AcDbArc
 50
0.0
 51
180.0
  0
LINE
  5
2E3
330
1B
100
AcDbEntity
 67
     1
  8
7_ALL_FEATURES
  6
Continuous
 62
     7
100
AcDbLine
 10
349.1854737516
 20
251.992894848
 30
0.0
 11
348.3194483478
 21
250.492894848
 31
0.0
  0
LINE
  5
2E4
330
1B
100
AcDbEntity
 67
     1
  8
7_ALL_FEATURES
  6
Continuous
 62
     7
100
AcDbLine
 10
348.3194483478
 20
250.492894848
 30
0.0
 11
349.1854737516
 21
248.992894848
 31
0.0
  0
LINE
  5
2E5
330
1B
100
AcDbEntity
 67
     1
  8
7_ALL_FEATURES
  6
Continuous
 62
     7
100
AcDbLine
 10
349.1854737516
 20
248.992894848
 30
0.0
 11
350.9175245592
 21
248.992894848
 31
0.0
  0
LINE
  5
2E6
330
1B
100
AcDbEntity
 67
     1
  8
7_ALL_FEATURES
  6
Continuous
 62
     7
100
AcDbLine
 10
350.9175245592
 20
248.992894848
 30
0.0
 11
351.783549963
 21
250.492894848
 31
0.0
  0
LINE
  5
2E7
330
1B
100
AcDbEntity
 67
     1
  8
7_ALL_FEATURES
  6
Continuous
 62
     7
100
AcDbLine
 10
351.783549963
 20
250.492894848
 30
0.0
 11
350.9175245592
 21
251.992894848
 31
0.0
  0
LINE
  5
2E8
330
1B
100
AcDbEntity
 67
     1
  8
7_ALL_FEATURES
  6
Continuous
 62
     7
100
AcDbLine
 10
350.9175245592
 20
251.992894848
 30
0.0
 11
349.1854737516
 21
251.992894848
 31
0.0
  0
ARC
  5
2E9
330
1B
100
AcDbEntity
 67
     1
  8
7_ALL_FEATURES
  6
Continuous
 62
     7
100
AcDbCircle
 10
350.0514991554
 20
250.492894848
 30
0.0
 40
3.5
100
AcDbArc
 50
0.0
 51
180.0
  0
ARC
  5
2EA
330
1B
100
AcDbEntity
 67
     1
  8
7_ALL_FEATURES
  6
Continuous
 62
     7
100
AcDbCircle
 10
350.0514991554
 20
250.492894848
 30
0.0
 40
3.5
100
AcDbArc
 50
180.0
 51
360.0
  0
ARC
  5
2EB
330
1B
100
AcDbEntity
 67
     1
  8
7_ALL_FEATURES
  6
Continuous
 62
     7
100
AcDbCircle
 10
350.0514991554
 20
250.492894848
 30
0.0
 40
3.5
100
AcDbArc
 50
0.0
 51
180.0
  0
ARC
  5
2EC
330
1B
100
AcDbEntity
 67
     1
  8
7_ALL_FEATURES
  6
Continuous
 62
     7
100
AcDbCircle
 10
350.0514991554
 20
250.492894848
 30
0.0
 40
3.5
100
AcDbArc
 50
180.0
 51
360.0
  0
ARC
  5
2ED
330
1B
100
AcDbEntity
 67
     1
  8
7_ALL_FEATURES
  6
Continuous
 62
     9
100
AcDbCircle
 10
350.0514991554
 20
250.492894848
 30
0.0
 40
3.3999999423
100
AcDbArc
 50
180.0
 51
360.0
  0
ARC
  5
2EE
330
1B
100
AcDbEntity
 67
     1
  8
7_ALL_FEATURES
  6
Continuous
 62
     9
100
AcDbCircle
 10
350.0514991554
 20
250.492894848
 30
0.0
 40
3.3999999423
100
AcDbArc
 50
0.0
 51
180.0
  0
ARC
  5
2EF
330
1B
100
AcDbEntity
 67
     1
  8
7_ALL_FEATURES
  6
Continuous
 62
     7
100
AcDbCircle
 10
350.0514991554
 20
250.492894848
 30
0.0
 40
4.4
100
AcDbArc
 50
0.0
 51
180.0
  0
ARC
  5
2F0
330
1B
100
AcDbEntity
 67
     1
  8
7_ALL_FEATURES
  6
Continuous
 62
     7
100
AcDbCircle
 10
350.0514991554
 20
250.492894848
 30
0.0
 40
4.4
100
AcDbArc
 50
180.0
 51
360.0
  0
ARC
  5
2F1
330
1B
100
AcDbEntity
 67
     1
  8
7_ALL_FEATURES
  6
Continuous
 62
     7
100
AcDbCircle
 10
350.0514991554
 20
250.492894848
 30
0.0
 40
3.9
100
AcDbArc
 50
0.0
 51
180.0
  0
ARC
  5
2F2
330
1B
100
AcDbEntity
 67
     1
  8
7_ALL_FEATURES
  6
Continuous
 62
     7
100
AcDbCircle
 10
350.0514991554
 20
250.492894848
 30
0.0
 40
3.9
100
AcDbArc
 50
180.0
 51
360.0
  0
ARC
  5
2F3
330
1B
100
AcDbEntity
 67
     1
  8
7_ALL_FEATURES
  6
Continuous
 62
     7
100
AcDbCircle
 10
431.0514991554
 20
169.492894848
 30
0.0
 40
4.4
100
AcDbArc
 50
0.0
 51
180.0
  0
ARC
  5
2F4
330
1B
100
AcDbEntity
 67
     1
  8
7_ALL_FEATURES
  6
Continuous
 62
     7
100
AcDbCircle
 10
431.0514991554
 20
169.492894848
 30
0.0
 40
4.4
100
AcDbArc
 50
180.0
 51
360.0
  0
ARC
  5
2F5
330
1B
100
AcDbEntity
 67
     1
  8
7_ALL_FEATURES
  6
Continuous
 62
     7
100
AcDbCircle
 10
431.0514991554
 20
169.492894848
 30
0.0
 40
3.9
100
AcDbArc
 50
0.0
 51
180.0
  0
ARC
  5
2F6
330
1B
100
AcDbEntity
 67
     1
  8
7_ALL_FEATURES
  6
Continuous
 62
     7
100
AcDbCircle
 10
431.0514991554
 20
169.492894848
 30
0.0
 40
3.9
100
AcDbArc
 50
180.0
 51
360.0
  0
LINE
  5
2F7
330
1B
100
AcDbEntity
 67
     1
  8
7_ALL_FEATURES
  6
Continuous
 62
     7
100
AcDbLine
 10
342.7014991554
 20
181.992894848
 30
0.0
 11
342.8078799
 21
179.992894848
 31
0.0
  0
LINE
  5
2F8
330
1B
100
AcDbEntity
 67
     1
  8
7_ALL_FEATURES
  6
Continuous
 62
     7
100
AcDbLine
 10
342.8078799
 20
239.992894848
 30
0.0
 11
342.7014991554
 21
237.992894848
 31
0.0
  0
LINE
  5
2F9
330
1B
100
AcDbEntity
 67
     1
  8
7_ALL_FEATURES
  6
Continuous
 62
     7
100
AcDbLine
 10
342.8078799
 20
239.992894848
 30
0.0
 11
342.9036225701
 21
239.992894848
 31
0.0
  0
LINE
  5
2FA
330
1B
100
AcDbEntity
 67
     1
  8
7_ALL_FEATURES
  6
Continuous
 62
     7
100
AcDbLine
 10
342.9036225701
 20
239.992894848
 30
0.0
 11
342.9036225701
 21
240.192894848
 31
0.0
  0
LINE
  5
2FB
330
1B
100
AcDbEntity
 67
     1
  8
7_ALL_FEATURES
  6
Continuous
 62
     7
100
AcDbLine
 10
342.9036225701
 20
240.192894848
 30
0.0
 11
342.9036225701
 21
244.992894848
 31
0.0
  0
LINE
  5
2FC
330
1B
100
AcDbEntity
 67
     1
  8
7_ALL_FEATURES
  6
Continuous
 62
     7
100
AcDbLine
 10
342.9036225701
 20
254.992894848
 30
0.0
 11
342.9036225701
 21
257.792894848
 31
0.0
  0
LINE
  5
2FD
330
1B
100
AcDbEntity
 67
     1
  8
7_ALL_FEATURES
  6
Continuous
 62
     7
100
AcDbLine
 10
342.9036225701
 20
162.192894848
 30
0.0
 11
342.9036225701
 21
166.5450182627
 31
0.0
  0
LINE
  5
2FE
330
1B
100
AcDbEntity
 67
     1
  8
7_ALL_FEATURES
  6
Continuous
 62
     7
100
AcDbLine
 10
342.9036225701
 20
178.992894848
 30
0.0
 11
342.9036225701
 21
179.792894848
 31
0.0
  0
LINE
  5
2FF
330
1B
100
AcDbEntity
 67
     1
  8
7_ALL_FEATURES
  6
Continuous
 62
     7
100
AcDbLine
 10
342.9036225701
 20
179.792894848
 30
0.0
 11
342.9036225701
 21
179.992894848
 31
0.0
  0
LINE
  5
300
330
1B
100
AcDbEntity
 67
     1
  8
7_ALL_FEATURES
  6
Continuous
 62
     7
100
AcDbLine
 10
342.9036225701
 20
179.992894848
 30
0.0
 11
342.8078799
 21
179.992894848
 31
0.0
  0
LINE
  5
301
330
1B
100
AcDbEntity
 67
     1
  8
7_ALL_FEATURES
  6
Continuous
 62
     7
100
AcDbLine
 10
345.8908943841
 20
163.1707189393
 30
0.0
 11
345.8615377896
 21
163.151445623
 31
0.0
  0
LINE
  5
302
330
1B
100
AcDbEntity
 67
     1
  8
7_ALL_FEATURES
  6
Continuous
 62
     7
100
AcDbLine
 10
345.8615377896
 20
163.151445623
 30
0.0
 11
344.4014991554
 21
162.192894848
 31
0.0
  0
LINE
  5
303
330
1B
100
AcDbEntity
 67
     1
  8
7_ALL_FEATURES
  6
Continuous
 62
     7
100
AcDbLine
 10
345.8943567293
 20
163.2381251866
 30
0.0
 11
345.8908943841
 21
163.1707189393
 31
0.0
  0
LINE
  5
304
330
1B
100
AcDbEntity
 67
     1
  8
7_ALL_FEATURES
  6
Continuous
 62
     7
100
AcDbLine
 10
345.8908943841
 20
256.8150707566
 30
0.0
 11
345.8943567293
 21
256.7476645093
 31
0.0
  0
LINE
  5
305
330
1B
100
AcDbEntity
 67
     1
  8
7_ALL_FEATURES
  6
Continuous
 62
     7
100
AcDbLine
 10
345.8908943841
 20
256.8150707566
 30
0.0
 11
345.8615377896
 21
256.8343440729
 31
0.0
  0
LINE
  5
306
330
1B
100
AcDbEntity
 67
     1
  8
7_ALL_FEATURES
  6
Continuous
 62
     7
100
AcDbLine
 10
345.8615377896
 20
256.8343440729
 30
0.0
 11
344.4014991554
 21
257.792894848
 31
0.0
  0
LINE
  5
307
330
1B
100
AcDbEntity
 67
     1
  8
7_ALL_FEATURES
  6
Continuous
 62
     7
100
AcDbLine
 10
342.9036225701
 20
162.192894848
 30
0.0
 11
344.4014991554
 21
162.192894848
 31
0.0
  0
LINE
  5
308
330
1B
100
AcDbEntity
 67
     1
  8
7_ALL_FEATURES
  6
Continuous
 62
     7
100
AcDbLine
 10
342.9036225701
 20
257.792894848
 30
0.0
 11
344.4014991554
 21
257.792894848
 31
0.0
  0
LINE
  5
309
330
1B
100
AcDbEntity
 67
     1
  8
7_ALL_FEATURES
  6
Continuous
 62
     7
100
AcDbLine
 10
344.3930177988
 20
256.8150707566
 30
0.0
 11
342.9036225701
 21
257.792894848
 31
0.0
  0
LINE
  5
30A
330
1B
100
AcDbEntity
 67
     1
  8
7_ALL_FEATURES
  6
Continuous
 62
     7
100
AcDbLine
 10
344.4653565651
 20
255.4067522576
 30
0.0
 11
344.3930177988
 21
256.8150707566
 31
0.0
  0
LINE
  5
30B
330
1B
100
AcDbEntity
 67
     1
  8
7_ALL_FEATURES
  6
Continuous
 62
     7
100
AcDbLine
 10
345.8908943841
 20
256.8150707566
 30
0.0
 11
345.8014991554
 21
256.8150707566
 31
0.0
  0
LINE
  5
30C
330
1B
100
AcDbEntity
 67
     1
  8
7_ALL_FEATURES
  6
Continuous
 62
     7
100
AcDbLine
 10
345.8014991554
 20
256.8150707566
 30
0.0
 11
344.3930177988
 21
256.8150707566
 31
0.0
  0
LINE
  5
30D
330
1B
100
AcDbEntity
 67
     1
  8
7_ALL_FEATURES
  6
Continuous
 62
     7
100
AcDbLine
 10
344.3930177988
 20
163.1707189393
 30
0.0
 11
345.8014991554
 21
163.1707189393
 31
0.0
  0
LINE
  5
30E
330
1B
100
AcDbEntity
 67
     1
  8
7_ALL_FEATURES
  6
Continuous
 62
     7
100
AcDbLine
 10
345.8014991554
 20
163.1707189393
 30
0.0
 11
345.8908943841
 21
163.1707189393
 31
0.0
  0
LINE
  5
30F
330
1B
100
AcDbEntity
 67
     1
  8
7_ALL_FEATURES
  6
Continuous
 62
     7
100
AcDbLine
 10
344.3930177988
 20
163.1707189393
 30
0.0
 11
344.4653565651
 21
164.5790374383
 31
0.0
  0
LINE
  5
310
330
1B
100
AcDbEntity
 67
     1
  8
7_ALL_FEATURES
  6
Continuous
 62
     7
100
AcDbLine
 10
344.3930177988
 20
163.1707189393
 30
0.0
 11
342.9036225701
 21
162.192894848
 31
0.0
  0
LINE
  5
311
330
1B
100
AcDbEntity
 67
     1
  8
7_ALL_FEATURES
  6
Continuous
 62
     7
100
AcDbLine
 10
438.4014991554
 20
237.992894848
 30
0.0
 11
438.2951184108
 21
239.992894848
 31
0.0
  0
LINE
  5
312
330
1B
100
AcDbEntity
 67
     1
  8
7_ALL_FEATURES
  6
Continuous
 62
     7
100
AcDbLine
 10
438.2951184108
 20
179.992894848
 30
0.0
 11
438.4014991554
 21
181.992894848
 31
0.0
  0
LINE
  5
313
330
1B
100
AcDbEntity
 67
     1
  8
7_ALL_FEATURES
  6
Continuous
 62
     7
100
AcDbLine
 10
438.2951184108
 20
179.992894848
 30
0.0
 11
438.1993757407
 21
179.992894848
 31
0.0
  0
LINE
  5
314
330
1B
100
AcDbEntity
 67
     1
  8
7_ALL_FEATURES
  6
Continuous
 62
     7
100
AcDbLine
 10
438.1993757407
 20
179.992894848
 30
0.0
 11
438.1993757407
 21
179.792894848
 31
0.0
  0
LINE
  5
315
330
1B
100
AcDbEntity
 67
     1
  8
7_ALL_FEATURES
  6
Continuous
 62
     7
100
AcDbLine
 10
438.1993757407
 20
179.792894848
 30
0.0
 11
438.1993757407
 21
174.992894848
 31
0.0
  0
LINE
  5
316
330
1B
100
AcDbEntity
 67
     1
  8
7_ALL_FEATURES
  6
Continuous
 62
     7
100
AcDbLine
 10
438.1993757407
 20
164.992894848
 30
0.0
 11
438.1993757407
 21
162.192894848
 31
0.0
  0
LINE
  5
317
330
1B
100
AcDbEntity
 67
     1
  8
7_ALL_FEATURES
  6
Continuous
 62
     7
100
AcDbLine
 10
438.1993757407
 20
257.792894848
 30
0.0
 11
438.1993757407
 21
253.4407714332
 31
0.0
  0
LINE
  5
318
330
1B
100
AcDbEntity
 67
     1
  8
7_ALL_FEATURES
  6
Continuous
 62
     7
100
AcDbLine
 10
438.1993757407
 20
240.992894848
 30
0.0
 11
438.1993757407
 21
240.192894848
 31
0.0
  0
LINE
  5
319
330
1B
100
AcDbEntity
 67
     1
  8
7_ALL_FEATURES
  6
Continuous
 62
     7
100
AcDbLine
 10
438.1993757407
 20
240.192894848
 30
0.0
 11
438.1993757407
 21
239.992894848
 31
0.0
  0
LINE
  5
31A
330
1B
100
AcDbEntity
 67
     1
  8
7_ALL_FEATURES
  6
Continuous
 62
     7
100
AcDbLine
 10
438.1993757407
 20
239.992894848
 30
0.0
 11
438.2951184108
 21
239.992894848
 31
0.0
  0
LINE
  5
31B
330
1B
100
AcDbEntity
 67
     1
  8
7_ALL_FEATURES
  6
Continuous
 62
     7
100
AcDbLine
 10
435.2121039267
 20
256.8150707566
 30
0.0
 11
435.2414605212
 21
256.8343440729
 31
0.0
  0
LINE
  5
31C
330
1B
100
AcDbEntity
 67
     1
  8
7_ALL_FEATURES
  6
Continuous
 62
     7
100
AcDbLine
 10
435.2414605212
 20
256.8343440729
 30
0.0
 11
436.7014991554
 21
257.792894848
 31
0.0
  0
LINE
  5
31D
330
1B
100
AcDbEntity
 67
     1
  8
7_ALL_FEATURES
  6
Continuous
 62
     7
100
AcDbLine
 10
435.2086415815
 20
256.7476645093
 30
0.0
 11
435.2121039267
 21
256.8150707566
 31
0.0
  0
LINE
  5
31E
330
1B
100
AcDbEntity
 67
     1
  8
7_ALL_FEATURES
  6
Continuous
 62
     7
100
AcDbLine
 10
435.2121039267
 20
163.1707189393
 30
0.0
 11
435.2086415815
 21
163.2381251866
 31
0.0
  0
LINE
  5
31F
330
1B
100
AcDbEntity
 67
     1
  8
7_ALL_FEATURES
  6
Continuous
 62
     7
100
AcDbLine
 10
435.2121039267
 20
163.1707189393
 30
0.0
 11
435.2414605212
 21
163.151445623
 31
0.0
  0
LINE
  5
320
330
1B
100
AcDbEntity
 67
     1
  8
7_ALL_FEATURES
  6
Continuous
 62
     7
100
AcDbLine
 10
435.2414605212
 20
163.151445623
 30
0.0
 11
436.7014991554
 21
162.192894848
 31
0.0
  0
LINE
  5
321
330
1B
100
AcDbEntity
 67
     1
  8
7_ALL_FEATURES
  6
Continuous
 62
     7
100
AcDbLine
 10
438.1993757407
 20
257.792894848
 30
0.0
 11
436.7014991554
 21
257.792894848
 31
0.0
  0
LINE
  5
322
330
1B
100
AcDbEntity
 67
     1
  8
7_ALL_FEATURES
  6
Continuous
 62
     7
100
AcDbLine
 10
438.1993757407
 20
162.192894848
 30
0.0
 11
436.7014991554
 21
162.192894848
 31
0.0
  0
LINE
  5
323
330
1B
100
AcDbEntity
 67
     1
  8
7_ALL_FEATURES
  6
Continuous
 62
     7
100
AcDbLine
 10
436.709980512
 20
163.1707189393
 30
0.0
 11
438.1993757407
 21
162.192894848
 31
0.0
  0
LINE
  5
324
330
1B
100
AcDbEntity
 67
     1
  8
7_ALL_FEATURES
  6
Continuous
 62
     7
100
AcDbLine
 10
436.6376417458
 20
164.5790374383
 30
0.0
 11
436.709980512
 21
163.1707189393
 31
0.0
  0
LINE
  5
325
330
1B
100
AcDbEntity
 67
     1
  8
7_ALL_FEATURES
  6
Continuous
 62
     7
100
AcDbLine
 10
435.2121039267
 20
163.1707189393
 30
0.0
 11
435.3014991554
 21
163.1707189393
 31
0.0
  0
LINE
  5
326
330
1B
100
AcDbEntity
 67
     1
  8
7_ALL_FEATURES
  6
Continuous
 62
     7
100
AcDbLine
 10
435.3014991554
 20
163.1707189393
 30
0.0
 11
436.709980512
 21
163.1707189393
 31
0.0
  0
LINE
  5
327
330
1B
100
AcDbEntity
 67
     1
  8
7_ALL_FEATURES
  6
Continuous
 62
     7
100
AcDbLine
 10
436.709980512
 20
256.8150707566
 30
0.0
 11
435.3014991554
 21
256.8150707566
 31
0.0
  0
LINE
  5
328
330
1B
100
AcDbEntity
 67
     1
  8
7_ALL_FEATURES
  6
Continuous
 62
     7
100
AcDbLine
 10
435.3014991554
 20
256.8150707566
 30
0.0
 11
435.2121039267
 21
256.8150707566
 31
0.0
  0
LINE
  5
329
330
1B
100
AcDbEntity
 67
     1
  8
7_ALL_FEATURES
  6
Continuous
 62
     7
100
AcDbLine
 10
436.709980512
 20
256.8150707566
 30
0.0
 11
436.6376417458
 21
255.4067522576
 31
0.0
  0
LINE
  5
32A
330
1B
100
AcDbEntity
 67
     1
  8
7_ALL_FEATURES
  6
Continuous
 62
     7
100
AcDbLine
 10
436.709980512
 20
256.8150707566
 30
0.0
 11
438.1993757407
 21
257.792894848
 31
0.0
  0
LINE
  5
32B
330
1B
100
AcDbEntity
 67
     1
  8
7_ALL_FEATURES
  6
Continuous
 62
     7
100
AcDbLine
 10
411.0514991554
 20
233.492894848
 30
0.0
 11
414.0514991554
 21
230.492894848
 31
0.0
  0
LINE
  5
32C
330
1B
100
AcDbEntity
 67
     1
  8
7_ALL_FEATURES
  6
Continuous
 62
     7
100
AcDbLine
 10
414.0514991554
 20
189.492894848
 30
0.0
 11
411.0514991554
 21
186.492894848
 31
0.0
  0
LINE
  5
32D
330
1B
100
AcDbEntity
 67
     1
  8
7_ALL_FEATURES
  6
Continuous
 62
     7
100
AcDbLine
 10
370.0514991554
 20
186.492894848
 30
0.0
 11
367.0514991554
 21
189.492894848
 31
0.0
  0
LINE
  5
32E
330
1B
100
AcDbEntity
 67
     1
  8
7_ALL_FEATURES
  6
Continuous
 62
     7
100
AcDbLine
 10
367.0514991554
 20
230.492894848
 30
0.0
 11
370.0514991554
 21
233.492894848
 31
0.0
  0
LINE
  5
32F
330
1B
100
AcDbEntity
 67
     1
  8
7_ALL_FEATURES
  6
Continuous
 62
     7
100
AcDbLine
 10
340.0514991554
 20
157.492894848
 30
0.0
 11
441.0514991554
 21
157.492894848
 31
0.0
  0
LINE
  5
330
330
1B
100
AcDbEntity
 67
     1
  8
7_ALL_FEATURES
  6
Continuous
 62
     7
100
AcDbLine
 10
441.0514991554
 20
157.492894848
 30
0.0
 11
443.0514991554
 21
159.492894848
 31
0.0
  0
LINE
  5
331
330
1B
100
AcDbEntity
 67
     1
  8
7_ALL_FEATURES
  6
Continuous
 62
     7
100
AcDbLine
 10
443.0514991554
 20
159.492894848
 30
0.0
 11
443.0514991554
 21
260.492894848
 31
0.0
  0
LINE
  5
332
330
1B
100
AcDbEntity
 67
     1
  8
7_ALL_FEATURES
  6
Continuous
 62
     7
100
AcDbLine
 10
443.0514991554
 20
260.492894848
 30
0.0
 11
441.0514991554
 21
262.492894848
 31
0.0
  0
LINE
  5
333
330
1B
100
AcDbEntity
 67
     1
  8
7_ALL_FEATURES
  6
Continuous
 62
     7
100
AcDbLine
 10
441.0514991554
 20
262.492894848
 30
0.0
 11
340.0514991554
 21
262.492894848
 31
0.0
  0
LINE
  5
334
330
1B
100
AcDbEntity
 67
     1
  8
7_ALL_FEATURES
  6
Continuous
 62
     7
100
AcDbLine
 10
340.0514991554
 20
262.492894848
 30
0.0
 11
338.0514991554
 21
260.492894848
 31
0.0
  0
LINE
  5
335
330
1B
100
AcDbEntity
 67
     1
  8
7_ALL_FEATURES
  6
Continuous
 62
     7
100
AcDbLine
 10
338.0514991554
 20
260.492894848
 30
0.0
 11
338.0514991554
 21
159.492894848
 31
0.0
  0
LINE
  5
336
330
1B
100
AcDbEntity
 67
     1
  8
7_ALL_FEATURES
  6
Continuous
 62
     7
100
AcDbLine
 10
338.0514991554
 20
159.492894848
 30
0.0
 11
340.0514991554
 21
157.492894848
 31
0.0
  0
ARC
  5
337
330
1B
100
AcDbEntity
 67
     1
  8
02___PRT_ALL_AXES
  6
Continuous
 62
     7
100
AcDbCircle
 10
390.5514991554
 20
209.992894848
 30
0.0
 40
36.5
100
AcDbArc
 50
215.0
 51
235.0
  0
ARC
  5
338
330
1B
100
AcDbEntity
 67
     1
  8
02___PRT_ALL_AXES
  6
Continuous
 62
     7
100
AcDbCircle
 10
367.6084417014
 20
177.2268130764
 30
0.0
 40
3.5
100
AcDbArc
 50
327.5720774023
 51
55.00000000000001
  0
ARC
  5
339
330
1B
100
AcDbEntity
 67
     1
  8
02___PRT_ALL_AXES
  6
Continuous
 62
     7
100
AcDbCircle
 10
357.7854173838
 20
187.0498373939
 30
0.0
 40
3.5
100
AcDbArc
 50
35.0
 51
122.4333145796
  0
ARC
  5
33A
330
1B
100
AcDbEntity
 67
     1
  8
02___PRT_ALL_AXES
  6
Continuous
 62
     7
100
AcDbCircle
 10
390.5514991554
 20
209.992894848
 30
0.0
 40
36.5
100
AcDbArc
 50
125.0
 51
145.0
  0
ARC
  5
33B
330
1B
100
AcDbEntity
 67
     1
  8
02___PRT_ALL_AXES
  6
Continuous
 62
     7
100
AcDbCircle
 10
357.7854173838
 20
232.935952302
 30
0.0
 40
3.5
100
AcDbArc
 50
145.0
 51
158.0661897851
  0
ARC
  5
33C
330
1B
100
AcDbEntity
 67
     1
  8
02___PRT_ALL_AXES
  6
Continuous
 62
     7
100
AcDbCircle
 10
357.7854173838
 20
232.935952302
 30
0.0
 40
3.5
100
AcDbArc
 50
201.6402795481
 51
325.0
  0
ARC
  5
33D
330
1B
100
AcDbEntity
 67
     1
  8
02___PRT_ALL_AXES
  6
Continuous
 62
     7
100
AcDbCircle
 10
390.5514991554
 20
209.992894848
 30
0.0
 40
43.5
100
AcDbArc
 50
125.0
 51
145.0
  0
ARC
  5
33E
330
1B
100
AcDbEntity
 67
     1
  8
02___PRT_ALL_AXES
  6
Continuous
 62
     7
100
AcDbCircle
 10
367.6084417014
 20
242.7589766195
 30
0.0
 40
3.5
100
AcDbArc
 50
305.0
 51
68.3597204519
  0
ARC
  5
33F
330
1B
100
AcDbEntity
 67
     1
  8
02___PRT_ALL_AXES
  6
Continuous
 62
     7
100
AcDbCircle
 10
367.6084417014
 20
242.7589766195
 30
0.0
 40
3.5
100
AcDbArc
 50
111.9338102149
 51
125.0
  0
ARC
  5
340
330
1B
100
AcDbEntity
 67
     1
  8
02___PRT_ALL_AXES
  6
Continuous
 62
     7
100
AcDbCircle
 10
390.5514991554
 20
209.992894848
 30
0.0
 40
36.5
100
AcDbArc
 50
35.0
 51
55.00000000000001
  0
ARC
  5
341
330
1B
100
AcDbEntity
 67
     1
  8
02___PRT_ALL_AXES
  6
Continuous
 62
     7
100
AcDbCircle
 10
413.4945566094
 20
242.7589766195
 30
0.0
 40
3.5
100
AcDbArc
 50
147.5720774023
 51
235.0
  0
ARC
  5
342
330
1B
100
AcDbEntity
 67
     1
  8
02___PRT_ALL_AXES
  6
Continuous
 62
     7
100
AcDbCircle
 10
423.317580927
 20
232.935952302
 30
0.0
 40
3.5
100
AcDbArc
 50
215.0
 51
302.4333145796
  0
ARC
  5
343
330
1B
100
AcDbEntity
 67
     1
  8
02___PRT_ALL_AXES
  6
Continuous
 62
     7
100
AcDbCircle
 10
390.5514991554
 20
209.992894848
 30
0.0
 40
36.5
100
AcDbArc
 50
305.0
 51
325.0
  0
ARC
  5
344
330
1B
100
AcDbEntity
 67
     1
  8
02___PRT_ALL_AXES
  6
Continuous
 62
     7
100
AcDbCircle
 10
423.317580927
 20
187.0498373939
 30
0.0
 40
3.5
100
AcDbArc
 50
325.0
 51
338.0661897851
  0
ARC
  5
345
330
1B
100
AcDbEntity
 67
     1
  8
02___PRT_ALL_AXES
  6
Continuous
 62
     7
100
AcDbCircle
 10
423.317580927
 20
187.0498373939
 30
0.0
 40
3.5
100
AcDbArc
 50
21.6402795481
 51
145.0
  0
ARC
  5
346
330
1B
100
AcDbEntity
 67
     1
  8
02___PRT_ALL_AXES
  6
Continuous
 62
     7
100
AcDbCircle
 10
390.5514991554
 20
209.992894848
 30
0.0
 40
43.5
100
AcDbArc
 50
305.0
 51
325.0
  0
ARC
  5
347
330
1B
100
AcDbEntity
 67
     1
  8
02___PRT_ALL_AXES
  6
Continuous
 62
     7
100
AcDbCircle
 10
413.4945566094
 20
177.2268130764
 30
0.0
 40
3.5
100
AcDbArc
 50
125.0
 51
248.3597204519
  0
ARC
  5
348
330
1B
100
AcDbEntity
 67
     1
  8
02___PRT_ALL_AXES
  6
Continuous
 62
     7
100
AcDbCircle
 10
413.4945566094
 20
177.2268130764
 30
0.0
 40
3.5
100
AcDbArc
 50
291.9338102149
 51
305.0
  0
LINE
  5
349
330
1B
100
AcDbEntity
 67
     1
  8
7_ALL_FEATURES
  6
Continuous
 62
     7
100
AcDbLine
 10
411.0514991554
 20
233.492894848
 30
0.0
 11
370.0514991554
 21
233.492894848
 31
0.0
  0
LINE
  5
34A
330
1B
100
AcDbEntity
 67
     1
  8
7_ALL_FEATURES
  6
Continuous
 62
     7
100
AcDbLine
 10
414.0514991554
 20
189.492894848
 30
0.0
 11
414.0514991554
 21
230.492894848
 31
0.0
  0
LINE
  5
34B
330
1B
100
AcDbEntity
 67
     1
  8
7_ALL_FEATURES
  6
Continuous
 62
     7
100
AcDbLine
 10
370.0514991554
 20
186.492894848
 30
0.0
 11
411.0514991554
 21
186.492894848
 31
0.0
  0
LINE
  5
34C
330
1B
100
AcDbEntity
 67
     1
  8
7_ALL_FEATURES
  6
Continuous
 62
     7
100
AcDbLine
 10
367.0514991554
 20
230.492894848
 30
0.0
 11
367.0514991554
 21
189.492894848
 31
0.0
  0
LINE
  5
34D
330
1B
100
AcDbEntity
 67
     1
  8
7_ALL_FEATURES
  6
Continuous
 62
     7
100
AcDbLine
 10
438.4014991554
 20
179.792894848
 30
0.0
 11
438.4014991554
 21
179.992894848
 31
0.0
  0
LINE
  5
34E
330
1B
100
AcDbEntity
 67
     1
  8
7_ALL_FEATURES
  6
Continuous
 62
     7
100
AcDbLine
 10
438.4014991554
 20
179.992894848
 30
0.0
 11
438.4014991554
 21
186.7571477835
 31
0.0
  0
LINE
  5
34F
330
1B
100
AcDbEntity
 67
     1
  8
7_ALL_FEATURES
  6
Continuous
 62
     7
100
AcDbLine
 10
438.4014991554
 20
188.2286419124
 30
0.0
 11
438.4014991554
 21
231.7571477835
 31
0.0
  0
LINE
  5
350
330
1B
100
AcDbEntity
 67
     1
  8
7_ALL_FEATURES
  6
Continuous
 62
     7
100
AcDbLine
 10
438.4014991554
 20
233.2286419124
 30
0.0
 11
438.4014991554
 21
239.992894848
 31
0.0
  0
LINE
  5
351
330
1B
100
AcDbEntity
 67
     1
  8
7_ALL_FEATURES
  6
Continuous
 62
     7
100
AcDbLine
 10
438.4014991554
 20
239.992894848
 30
0.0
 11
438.4014991554
 21
240.192894848
 31
0.0
  0
LINE
  5
352
330
1B
100
AcDbEntity
 67
     1
  8
7_ALL_FEATURES
  6
Continuous
 62
     7
100
AcDbLine
 10
438.1993757407
 20
179.792894848
 30
0.0
 11
438.4014991554
 21
179.792894848
 31
0.0
  0
LINE
  5
353
330
1B
100
AcDbEntity
 67
     1
  8
7_ALL_FEATURES
  6
Continuous
 62
     7
100
AcDbLine
 10
438.4014991554
 20
240.192894848
 30
0.0
 11
438.1993757407
 21
240.192894848
 31
0.0
  0
LINE
  5
354
330
1B
100
AcDbEntity
 67
     1
  8
7_ALL_FEATURES
  6
Continuous
 62
     7
100
AcDbLine
 10
342.9036225701
 20
240.192894848
 30
0.0
 11
342.7014991554
 21
240.192894848
 31
0.0
  0
LINE
  5
355
330
1B
100
AcDbEntity
 67
     1
  8
7_ALL_FEATURES
  6
Continuous
 62
     7
100
AcDbLine
 10
342.7014991554
 20
240.192894848
 30
0.0
 11
342.7014991554
 21
239.992894848
 31
0.0
  0
LINE
  5
356
330
1B
100
AcDbEntity
 67
     1
  8
7_ALL_FEATURES
  6
Continuous
 62
     7
100
AcDbLine
 10
342.7014991554
 20
239.992894848
 30
0.0
 11
342.7014991554
 21
233.2286419124
 31
0.0
  0
LINE
  5
357
330
1B
100
AcDbEntity
 67
     1
  8
7_ALL_FEATURES
  6
Continuous
 62
     7
100
AcDbLine
 10
342.7014991554
 20
231.7571477835
 30
0.0
 11
342.7014991554
 21
188.2286419124
 31
0.0
  0
LINE
  5
358
330
1B
100
AcDbEntity
 67
     1
  8
7_ALL_FEATURES
  6
Continuous
 62
     7
100
AcDbLine
 10
342.7014991554
 20
186.7571477835
 30
0.0
 11
342.7014991554
 21
179.992894848
 31
0.0
  0
LINE
  5
359
330
1B
100
AcDbEntity
 67
     1
  8
7_ALL_FEATURES
  6
Continuous
 62
     7
100
AcDbLine
 10
342.7014991554
 20
179.992894848
 30
0.0
 11
342.7014991554
 21
179.792894848
 31
0.0
  0
LINE
  5
35A
330
1B
100
AcDbEntity
 67
     1
  8
7_ALL_FEATURES
  6
Continuous
 62
     7
100
AcDbLine
 10
342.7014991554
 20
179.792894848
 30
0.0
 11
342.9036225701
 21
179.792894848
 31
0.0
  0
ARC
  5
35B
330
1B
100
AcDbEntity
 67
     1
  8
7_ALL_FEATURES
  6
Continuous
 62
     7
100
AcDbCircle
 10
419.5514991554
 20
180.992894848
 30
0.0
 40
7.0
100
AcDbArc
 50
270.0
 51
360.0
  0
ARC
  5
35C
330
1B
100
AcDbEntity
 67
     1
  8
7_ALL_FEATURES
  6
Continuous
 62
     7
100
AcDbCircle
 10
361.5514991554
 20
238.992894848
 30
0.0
 40
7.0
100
AcDbArc
 50
90.0
 51
180.0
  0
ARC
  5
35D
330
1B
100
AcDbEntity
 67
     1
  8
7_ALL_FEATURES
  6
Continuous
 62
     7
100
AcDbCircle
 10
390.5514991554
 20
209.992894848
 30
0.0
 40
40.0
100
AcDbArc
 50
158.0135970028
 51
291.9864029972
  0
ARC
  5
35E
330
1B
100
AcDbEntity
 67
     1
  8
7_ALL_FEATURES
  6
Continuous
 62
     7
100
AcDbCircle
 10
390.5514991554
 20
209.992894848
 30
0.0
 40
40.0
100
AcDbArc
 50
338.0135970027999
 51
111.9864029972
  0
ARC
  5
35F
330
1B
100
AcDbEntity
 67
     1
  8
7_ALL_FEATURES
  6
Continuous
 62
     7
100
AcDbCircle
 10
369.9602388734
 20
260.992894848
 30
0.0
 40
15.0
100
AcDbArc
 50
270.0
 51
291.9864029972
  0
ARC
  5
360
330
1B
100
AcDbEntity
 67
     1
  8
7_ALL_FEATURES
  6
Continuous
 62
     7
100
AcDbCircle
 10
441.5514991554
 20
189.401634566
 30
0.0
 40
15.0
100
AcDbArc
 50
158.0135970028
 51
180.0
  0
LINE
  5
361
330
1B
100
AcDbEntity
 67
     1
  8
7_ALL_FEATURES
  6
Continuous
 62
     7
100
AcDbLine
 10
426.5514991554
 20
180.992894848
 30
0.0
 11
426.5514991554
 21
189.401634566
 31
0.0
  0
LINE
  5
362
330
1B
100
AcDbEntity
 67
     1
  8
7_ALL_FEATURES
  6
Continuous
 62
     7
100
AcDbLine
 10
411.1427594374
 20
173.992894848
 30
0.0
 11
419.5514991554
 21
173.992894848
 31
0.0
  0
ARC
  5
363
330
1B
100
AcDbEntity
 67
     1
  8
7_ALL_FEATURES
  6
Continuous
 62
     7
100
AcDbCircle
 10
411.1427594374
 20
158.992894848
 30
0.0
 40
15.0
100
AcDbArc
 50
90.0
 51
111.9864029972
  0
ARC
  5
364
330
1B
100
AcDbEntity
 67
     1
  8
7_ALL_FEATURES
  6
Continuous
 62
     7
100
AcDbCircle
 10
339.5514991554
 20
230.5841551299
 30
0.0
 40
15.0
100
AcDbArc
 50
338.0135970027999
 51
360.0
  0
LINE
  5
365
330
1B
100
AcDbEntity
 67
     1
  8
7_ALL_FEATURES
  6
Continuous
 62
     7
100
AcDbLine
 10
354.5514991554
 20
238.992894848
 30
0.0
 11
354.5514991554
 21
230.5841551299
 31
0.0
  0
LINE
  5
366
330
1B
100
AcDbEntity
 67
     1
  8
7_ALL_FEATURES
  6
Continuous
 62
     7
100
AcDbLine
 10
369.9602388734
 20
245.992894848
 30
0.0
 11
361.5514991554
 21
245.992894848
 31
0.0
  0
LINE
  5
367
330
1B
100
AcDbEntity
 67
     1
  8
7_ALL_FEATURES
  6
Continuous
 62
     7
100
AcDbLine
 10
437.3014991554
 20
165.242894848
 30
0.0
 11
437.3014991554
 21
183.3604016538
 31
0.0
  0
ARC
  5
368
330
1B
100
AcDbEntity
 67
     1
  8
02___PRT_ALL_AXES
  6
Continuous
 62
     7
100
AcDbCircle
 10
430.4514991554
 20
187.492894848
 30
0.0
 40
8.0
100
AcDbArc
 50
328.8981049650999
 51
31.1018950349
  0
LINE
  5
369
330
1B
100
AcDbEntity
 67
     1
  8
02___PRT_ALL_AXES
  6
Continuous
 62
     7
100
AcDbLine
 10
437.3014991554
 20
191.6253880422
 30
0.0
 11
437.3014991554
 21
228.3604016538
 31
0.0
  0
ARC
  5
36A
330
1B
100
AcDbEntity
 67
     1
  8
02___PRT_ALL_AXES
  6
Continuous
 62
     7
100
AcDbCircle
 10
430.4514991554
 20
232.492894848
 30
0.0
 40
8.0
100
AcDbArc
 50
328.8981049652
 51
31.1018950349
  0
LINE
  5
36B
330
1B
100
AcDbEntity
 67
     1
  8
7_ALL_FEATURES
  6
Continuous
 62
     7
100
AcDbLine
 10
437.3014991554
 20
236.6253880422
 30
0.0
 11
437.3014991554
 21
254.742894848
 31
0.0
  0
LINE
  5
36C
330
1B
100
AcDbEntity
 67
     1
  8
7_ALL_FEATURES
  6
Continuous
 62
     7
100
AcDbLine
 10
437.3014991554
 20
254.742894848
 30
0.0
 11
435.3014991554
 21
256.742894848
 31
0.0
  0
LINE
  5
36D
330
1B
100
AcDbEntity
 67
     1
  8
7_ALL_FEATURES
  6
Continuous
 62
     7
100
AcDbLine
 10
435.3014991554
 20
256.742894848
 30
0.0
 11
417.1839923496
 21
256.742894848
 31
0.0
  0
ARC
  5
36E
330
1B
100
AcDbEntity
 67
     1
  8
02___PRT_ALL_AXES
  6
Continuous
 62
     7
100
AcDbCircle
 10
413.0514991554
 20
249.892894848
 30
0.0
 40
8.0
100
AcDbArc
 50
58.8981049651
 51
121.1018950349
  0
LINE
  5
36F
330
1B
100
AcDbEntity
 67
     1
  8
02___PRT_ALL_AXES
  6
Continuous
 62
     7
100
AcDbLine
 10
408.9190059612
 20
256.742894848
 30
0.0
 11
372.1839923496
 21
256.742894848
 31
0.0
  0
ARC
  5
370
330
1B
100
AcDbEntity
 67
     1
  8
02___PRT_ALL_AXES
  6
Continuous
 62
     7
100
AcDbCircle
 10
368.0514991554
 20
249.892894848
 30
0.0
 40
8.0
100
AcDbArc
 50
58.8981049651
 51
121.1018950349
  0
LINE
  5
371
330
1B
100
AcDbEntity
 67
     1
  8
7_ALL_FEATURES
  6
Continuous
 62
     7
100
AcDbLine
 10
363.9190059612
 20
256.742894848
 30
0.0
 11
345.8014991554
 21
256.742894848
 31
0.0
  0
LINE
  5
372
330
1B
100
AcDbEntity
 67
     1
  8
7_ALL_FEATURES
  6
Continuous
 62
     7
100
AcDbLine
 10
345.8014991554
 20
256.742894848
 30
0.0
 11
343.8014991554
 21
254.742894848
 31
0.0
  0
LINE
  5
373
330
1B
100
AcDbEntity
 67
     1
  8
7_ALL_FEATURES
  6
Continuous
 62
     7
100
AcDbLine
 10
343.8014991554
 20
254.742894848
 30
0.0
 11
343.8014991554
 21
236.6253880422
 31
0.0
  0
ARC
  5
374
330
1B
100
AcDbEntity
 67
     1
  8
02___PRT_ALL_AXES
  6
Continuous
 62
     7
100
AcDbCircle
 10
350.6514991554
 20
232.492894848
 30
0.0
 40
8.0
100
AcDbArc
 50
148.8981049651
 51
211.1018950348
  0
LINE
  5
375
330
1B
100
AcDbEntity
 67
     1
  8
02___PRT_ALL_AXES
  6
Continuous
 62
     7
100
AcDbLine
 10
343.8014991554
 20
228.3604016538
 30
0.0
 11
343.8014991554
 21
191.6253880422
 31
0.0
  0
ARC
  5
376
330
1B
100
AcDbEntity
 67
     1
  8
02___PRT_ALL_AXES
  6
Continuous
 62
     7
100
AcDbCircle
 10
350.6514991554
 20
187.492894848
 30
0.0
 40
8.0
100
AcDbArc
 50
148.8981049651
 51
211.1018950349
  0
LINE
  5
377
330
1B
100
AcDbEntity
 67
     1
  8
7_ALL_FEATURES
  6
Continuous
 62
     7
100
AcDbLine
 10
343.8014991554
 20
183.3604016538
 30
0.0
 11
343.8014991554
 21
165.242894848
 31
0.0
  0
LINE
  5
378
330
1B
100
AcDbEntity
 67
     1
  8
7_ALL_FEATURES
  6
Continuous
 62
     7
100
AcDbLine
 10
343.8014991554
 20
165.242894848
 30
0.0
 11
345.8014991554
 21
163.242894848
 31
0.0
  0
LINE
  5
379
330
1B
100
AcDbEntity
 67
     1
  8
7_ALL_FEATURES
  6
Continuous
 62
     7
100
AcDbLine
 10
345.8014991554
 20
163.242894848
 30
0.0
 11
363.9190059612
 21
163.242894848
 31
0.0
  0
ARC
  5
37A
330
1B
100
AcDbEntity
 67
     1
  8
02___PRT_ALL_AXES
  6
Continuous
 62
     7
100
AcDbCircle
 10
368.0514991554
 20
170.092894848
 30
0.0
 40
8.0
100
AcDbArc
 50
238.8981049651
 51
301.1018950349001
  0
LINE
  5
37B
330
1B
100
AcDbEntity
 67
     1
  8
7_ALL_FEATURES
  6
Continuous
 62
     7
100
AcDbLine
 10
435.3014991554
 20
163.242894848
 30
0.0
 11
437.3014991554
 21
165.242894848
 31
0.0
  0
LINE
  5
37C
330
1B
100
AcDbEntity
 67
     1
  8
7_ALL_FEATURES
  6
Continuous
 62
     7
100
AcDbLine
 10
417.1839923496
 20
163.242894848
 30
0.0
 11
435.3014991554
 21
163.242894848
 31
0.0
  0
ARC
  5
37D
330
1B
100
AcDbEntity
 67
     1
  8
02___PRT_ALL_AXES
  6
Continuous
 62
     7
100
AcDbCircle
 10
413.0514991554
 20
170.092894848
 30
0.0
 40
8.0
100
AcDbArc
 50
238.8981049652
 51
301.1018950348
  0
LINE
  5
37E
330
1B
100
AcDbEntity
 67
     1
  8
02___PRT_ALL_AXES
  6
Continuous
 62
     7
100
AcDbLine
 10
372.1839923496
 20
163.242894848
 30
0.0
 11
408.9190059612
 21
163.242894848
 31
0.0
  0
LINE
  5
37F
330
1B
100
AcDbEntity
 67
     1
  8
7_ALL_FEATURES
  6
Continuous
 62
     7
100
AcDbLine
 10
340.5514991554
 20
159.992894848
 30
0.0
 11
440.5514991554
 21
159.992894848
 31
0.0
  0
LINE
  5
380
330
1B
100
AcDbEntity
 67
     1
  8
7_ALL_FEATURES
  6
Continuous
 62
     7
100
AcDbLine
 10
340.5514991554
 20
259.992894848
 30
0.0
 11
340.5514991554
 21
159.992894848
 31
0.0
  0
LINE
  5
381
330
1B
100
AcDbEntity
 67
     1
  8
7_ALL_FEATURES
  6
Continuous
 62
     7
100
AcDbLine
 10
440.5514991554
 20
259.992894848
 30
0.0
 11
340.5514991554
 21
259.992894848
 31
0.0
  0
LINE
  5
382
330
1B
100
AcDbEntity
 67
     1
  8
7_ALL_FEATURES
  6
Continuous
 62
     7
100
AcDbLine
 10
440.5514991554
 20
159.992894848
 30
0.0
 11
440.5514991554
 21
259.992894848
 31
0.0
  0
LINE
  5
383
330
1B
100
AcDbEntity
 67
     1
  8
7_ALL_FEATURES
  6
Continuous
 62
     7
100
AcDbLine
 10
342.5514991554
 20
161.992894848
 30
0.0
 11
342.5514991554
 21
257.992894848
 31
0.0
  0
LINE
  5
384
330
1B
100
AcDbEntity
 67
     1
  8
7_ALL_FEATURES
  6
Continuous
 62
     7
100
AcDbLine
 10
438.5514991554
 20
161.992894848
 30
0.0
 11
342.5514991554
 21
161.992894848
 31
0.0
  0
LINE
  5
385
330
1B
100
AcDbEntity
 67
     1
  8
7_ALL_FEATURES
  6
Continuous
 62
     7
100
AcDbLine
 10
438.5514991554
 20
257.992894848
 30
0.0
 11
438.5514991554
 21
161.992894848
 31
0.0
  0
LINE
  5
386
330
1B
100
AcDbEntity
 67
     1
  8
7_ALL_FEATURES
  6
Continuous
 62
     7
100
AcDbLine
 10
342.5514991554
 20
257.992894848
 30
0.0
 11
438.5514991554
 21
257.992894848
 31
0.0
  0
LINE
  5
387
330
1B
100
AcDbEntity
 67
     1
  8
7_ALL_FEATURES
  6
Continuous
 62
     7
100
AcDbLine
 10
353.9514991554
 20
1053.3806577115
 30
0.0
 11
353.4514991554
 21
1053.3806577115
 31
0.0
  0
LINE
  5
388
330
1B
100
AcDbEntity
 67
     1
  8
7_ALL_FEATURES
  6
Continuous
 62
     7
100
AcDbLine
 10
353.4514991554
 20
1053.3806577115
 30
0.0
 11
352.1514991554
 21
1053.3806577115
 31
0.0
  0
LINE
  5
389
330
1B
100
AcDbEntity
 67
     1
  8
7_ALL_FEATURES
  6
Continuous
 62
     7
100
AcDbLine
 10
352.1514991554
 20
1053.3806577115
 30
0.0
 11
347.9514991554
 21
1053.3806577115
 31
0.0
  0
LINE
  5
38A
330
1B
100
AcDbEntity
 67
     1
  8
7_ALL_FEATURES
  6
Continuous
 62
     7
100
AcDbLine
 10
347.9514991554
 20
1053.3806577115
 30
0.0
 11
346.6514991554
 21
1053.3806577115
 31
0.0
  0
LINE
  5
38B
330
1B
100
AcDbEntity
 67
     1
  8
7_ALL_FEATURES
  6
Continuous
 62
     7
100
AcDbLine
 10
346.6514991554
 20
1053.3806577115
 30
0.0
 11
346.1514991554
 21
1053.3806577115
 31
0.0
  0
LINE
  5
38C
330
1B
100
AcDbEntity
 67
     1
  8
7_ALL_FEATURES
  6
Continuous
 62
     7
100
AcDbLine
 10
345.6514991554
 20
1052.8806577116
 30
0.0
 11
346.1514991554
 21
1053.3806577116
 31
0.0
  0
LINE
  5
38D
330
1B
100
AcDbEntity
 67
     1
  8
7_ALL_FEATURES
  6
Continuous
 62
     7
100
AcDbLine
 10
354.4514991554
 20
1052.8806577116
 30
0.0
 11
353.9514991554
 21
1053.3806577116
 31
0.0
  0
LINE
  5
38E
330
1B
100
AcDbEntity
 67
     1
  8
7_ALL_FEATURES
  6
Continuous
 62
     7
100
AcDbLine
 10
354.4514991554
 20
1048.6556577115
 30
0.0
 11
354.4514991554
 21
1043.3806577115
 31
0.0
  0
LINE
  5
38F
330
1B
100
AcDbEntity
 67
     1
  8
7_ALL_FEATURES
  6
Continuous
 62
     7
100
AcDbLine
 10
345.6514991554
 20
1048.6556577115
 30
0.0
 11
345.6514991554
 21
1043.3806577115
 31
0.0
  0
LINE
  5
390
330
1B
100
AcDbEntity
 67
     1
  8
7_ALL_FEATURES
  6
Continuous
 62
     7
100
AcDbLine
 10
354.4514991554
 20
1052.8806577115
 30
0.0
 11
354.4514991554
 21
1050.7056577115
 31
0.0
  0
LINE
  5
391
330
1B
100
AcDbEntity
 67
     1
  8
7_ALL_FEATURES
  6
Continuous
 62
     7
100
AcDbLine
 10
345.6514991554
 20
1052.8806577115
 30
0.0
 11
345.6514991554
 21
1050.7056577115
 31
0.0
  0
LINE
  5
392
330
1B
100
AcDbEntity
 67
     1
  8
02___PRT_ALL_AXES
  6
Continuous
 62
     7
100
AcDbLine
 10
354.4514991554
 20
1050.7056577115
 30
0.0
 11
353.4264991554
 21
1049.6806577115
 31
0.0
  0
LINE
  5
393
330
1B
100
AcDbEntity
 67
     1
  8
02___PRT_ALL_AXES
  6
Continuous
 62
     7
100
AcDbLine
 10
345.6514991554
 20
1050.7056577115
 30
0.0
 11
346.6764991554
 21
1049.6806577115
 31
0.0
  0
LINE
  5
394
330
1B
100
AcDbEntity
 67
     1
  8
02___PRT_ALL_AXES
  6
Continuous
 62
     7
100
AcDbLine
 10
353.4264991554
 20
1049.6806577115
 30
0.0
 11
354.4514991554
 21
1048.6556577115
 31
0.0
  0
LINE
  5
395
330
1B
100
AcDbEntity
 67
     1
  8
02___PRT_ALL_AXES
  6
Continuous
 62
     7
100
AcDbLine
 10
346.6764991554
 20
1049.6806577115
 30
0.0
 11
345.6514991554
 21
1048.6556577115
 31
0.0
  0
LINE
  5
396
330
1B
100
AcDbEntity
 67
     1
  8
02___PRT_ALL_AXES
  6
Continuous
 62
     7
100
AcDbLine
 10
353.4264991554
 20
1049.6806577115
 30
0.0
 11
346.6764991554
 21
1049.6806577115
 31
0.0
  0
LINE
  5
397
330
1B
100
AcDbEntity
 67
     1
  8
7_ALL_FEATURES
  6
Continuous
 62
     7
100
AcDbLine
 10
354.4514991554
 20
1052.8806577115
 30
0.0
 11
345.6514991554
 21
1052.8806577115
 31
0.0
  0
LINE
  5
398
330
1B
100
AcDbEntity
 67
     1
  8
02___PRT_ALL_AXES
  6
Continuous
 62
     7
100
AcDbLine
 10
354.4514991554
 20
1050.7056577115
 30
0.0
 11
345.6514991554
 21
1050.7056577115
 31
0.0
  0
LINE
  5
399
330
1B
100
AcDbEntity
 67
     1
  8
02___PRT_ALL_AXES
  6
Continuous
 62
     7
100
AcDbLine
 10
354.4514991554
 20
1048.6556577115
 30
0.0
 11
345.6514991554
 21
1048.6556577115
 31
0.0
  0
ARC
  5
39A
330
1B
100
AcDbEntity
 67
     1
  8
7_ALL_FEATURES
  6
Continuous
 62
     7
100
AcDbCircle
 10
346.6514991554
 20
1053.4806577115
 30
0.0
 40
0.1
100
AcDbArc
 50
180.0
 51
270.0
  0
ARC
  5
39B
330
1B
100
AcDbEntity
 67
     1
  8
7_ALL_FEATURES
  6
Continuous
 62
     7
100
AcDbCircle
 10
353.4514991554
 20
1053.4806577115
 30
0.0
 40
0.1
100
AcDbArc
 50
270.0
 51
360.0
  0
LINE
  5
39C
330
1B
100
AcDbEntity
 67
     1
  8
7_ALL_FEATURES
  6
Continuous
 62
     7
100
AcDbLine
 10
353.5514991554
 20
1057.2806577115
 30
0.0
 11
353.5514991554
 21
1053.4806577115
 31
0.0
  0
LINE
  5
39D
330
1B
100
AcDbEntity
 67
     1
  8
7_ALL_FEATURES
  6
Continuous
 62
     7
100
AcDbLine
 10
346.5514991554
 20
1057.2806577115
 30
0.0
 11
346.5514991554
 21
1053.4806577115
 31
0.0
  0
ARC
  5
39E
330
1B
100
AcDbEntity
 67
     1
  8
7_ALL_FEATURES
  6
Continuous
 62
     7
100
AcDbCircle
 10
346.6514991554
 20
1057.2806577115
 30
0.0
 40
0.1
100
AcDbArc
 50
90.0
 51
180.0
  0
ARC
  5
39F
330
1B
100
AcDbEntity
 67
     1
  8
7_ALL_FEATURES
  6
Continuous
 62
     7
100
AcDbCircle
 10
353.4514991554
 20
1057.2806577115
 30
0.0
 40
0.1
100
AcDbArc
 50
0.0
 51
90.0
  0
LINE
  5
3A0
330
1B
100
AcDbEntity
 67
     1
  8
7_ALL_FEATURES
  6
Continuous
 62
     7
100
AcDbLine
 10
353.4514991554
 20
1057.3806577115
 30
0.0
 11
351.783549963
 21
1057.3806577115
 31
0.0
  0
LINE
  5
3A1
330
1B
100
AcDbEntity
 67
     1
  8
7_ALL_FEATURES
  6
Continuous
 62
     7
100
AcDbLine
 10
351.783549963
 20
1057.3806577115
 30
0.0
 11
351.7519974238
 21
1057.3806577115
 31
0.0
  0
LINE
  5
3A2
330
1B
100
AcDbEntity
 67
     1
  8
7_ALL_FEATURES
  6
Continuous
 62
     7
100
AcDbLine
 10
351.7519974238
 20
1057.3806577115
 30
0.0
 11
350.9175245592
 21
1057.3806577115
 31
0.0
  0
LINE
  5
3A3
330
1B
100
AcDbEntity
 67
     1
  8
7_ALL_FEATURES
  6
Continuous
 62
     7
100
AcDbLine
 10
350.9175245592
 20
1057.3806577115
 30
0.0
 11
349.1854737516
 21
1057.3806577115
 31
0.0
  0
LINE
  5
3A4
330
1B
100
AcDbEntity
 67
     1
  8
7_ALL_FEATURES
  6
Continuous
 62
     7
100
AcDbLine
 10
349.1854737516
 20
1057.3806577115
 30
0.0
 11
348.3509552212
 21
1057.3806577115
 31
0.0
  0
LINE
  5
3A5
330
1B
100
AcDbEntity
 67
     1
  8
7_ALL_FEATURES
  6
Continuous
 62
     7
100
AcDbLine
 10
348.3509552212
 20
1057.3806577115
 30
0.0
 11
348.3194483478
 21
1057.3806577115
 31
0.0
  0
LINE
  5
3A6
330
1B
100
AcDbEntity
 67
     1
  8
7_ALL_FEATURES
  6
Continuous
 62
     7
100
AcDbLine
 10
348.3194483478
 20
1057.3806577115
 30
0.0
 11
346.6514991554
 21
1057.3806577115
 31
0.0
  0
LINE
  5
3A7
330
1B
100
AcDbEntity
 67
     1
  8
7_ALL_FEATURES
  6
Continuous
 62
     9
100
AcDbLine
 10
353.5514991554
 20
1053.4806577115
 30
0.0
 11
346.5514991554
 21
1053.4806577115
 31
0.0
  0
LINE
  5
3A8
330
1B
100
AcDbEntity
 67
     1
  8
7_ALL_FEATURES
  6
Continuous
 62
     9
100
AcDbLine
 10
353.5514991554
 20
1057.2806577115
 30
0.0
 11
346.5514991554
 21
1057.2806577115
 31
0.0
  0
LINE
  5
3A9
330
1B
100
AcDbEntity
 67
     1
  8
7_ALL_FEATURES
  6
Continuous
 62
     7
100
AcDbLine
 10
434.9514991554
 20
1053.3806577115
 30
0.0
 11
434.4514991554
 21
1053.3806577115
 31
0.0
  0
LINE
  5
3AA
330
1B
100
AcDbEntity
 67
     1
  8
7_ALL_FEATURES
  6
Continuous
 62
     7
100
AcDbLine
 10
434.4514991554
 20
1053.3806577115
 30
0.0
 11
433.1514991554
 21
1053.3806577115
 31
0.0
  0
LINE
  5
3AB
330
1B
100
AcDbEntity
 67
     1
  8
7_ALL_FEATURES
  6
Continuous
 62
     7
100
AcDbLine
 10
433.1514991554
 20
1053.3806577115
 30
0.0
 11
428.9514991554
 21
1053.3806577115
 31
0.0
  0
LINE
  5
3AC
330
1B
100
AcDbEntity
 67
     1
  8
7_ALL_FEATURES
  6
Continuous
 62
     7
100
AcDbLine
 10
428.9514991554
 20
1053.3806577115
 30
0.0
 11
427.6514991554
 21
1053.3806577115
 31
0.0
  0
LINE
  5
3AD
330
1B
100
AcDbEntity
 67
     1
  8
7_ALL_FEATURES
  6
Continuous
 62
     7
100
AcDbLine
 10
427.6514991554
 20
1053.3806577115
 30
0.0
 11
427.1514991554
 21
1053.3806577115
 31
0.0
  0
LINE
  5
3AE
330
1B
100
AcDbEntity
 67
     1
  8
7_ALL_FEATURES
  6
Continuous
 62
     7
100
AcDbLine
 10
426.6514991554
 20
1052.8806577116
 30
0.0
 11
427.1514991554
 21
1053.3806577116
 31
0.0
  0
LINE
  5
3AF
330
1B
100
AcDbEntity
 67
     1
  8
7_ALL_FEATURES
  6
Continuous
 62
     7
100
AcDbLine
 10
435.4514991554
 20
1052.8806577116
 30
0.0
 11
434.9514991554
 21
1053.3806577116
 31
0.0
  0
LINE
  5
3B0
330
1B
100
AcDbEntity
 67
     1
  8
7_ALL_FEATURES
  6
Continuous
 62
     7
100
AcDbLine
 10
435.4514991554
 20
1048.6556577115
 30
0.0
 11
435.4514991554
 21
1043.3806577115
 31
0.0
  0
LINE
  5
3B1
330
1B
100
AcDbEntity
 67
     1
  8
7_ALL_FEATURES
  6
Continuous
 62
     7
100
AcDbLine
 10
426.6514991554
 20
1048.6556577115
 30
0.0
 11
426.6514991554
 21
1043.3806577115
 31
0.0
  0
LINE
  5
3B2
330
1B
100
AcDbEntity
 67
     1
  8
7_ALL_FEATURES
  6
Continuous
 62
     7
100
AcDbLine
 10
435.4514991554
 20
1052.8806577115
 30
0.0
 11
435.4514991554
 21
1050.7056577115
 31
0.0
  0
LINE
  5
3B3
330
1B
100
AcDbEntity
 67
     1
  8
7_ALL_FEATURES
  6
Continuous
 62
     7
100
AcDbLine
 10
426.6514991554
 20
1052.8806577115
 30
0.0
 11
426.6514991554
 21
1050.7056577115
 31
0.0
  0
LINE
  5
3B4
330
1B
100
AcDbEntity
 67
     1
  8
02___PRT_ALL_AXES
  6
Continuous
 62
     7
100
AcDbLine
 10
435.4514991554
 20
1050.7056577115
 30
0.0
 11
434.4264991554
 21
1049.6806577115
 31
0.0
  0
LINE
  5
3B5
330
1B
100
AcDbEntity
 67
     1
  8
02___PRT_ALL_AXES
  6
Continuous
 62
     7
100
AcDbLine
 10
426.6514991554
 20
1050.7056577115
 30
0.0
 11
427.6764991554
 21
1049.6806577115
 31
0.0
  0
LINE
  5
3B6
330
1B
100
AcDbEntity
 67
     1
  8
02___PRT_ALL_AXES
  6
Continuous
 62
     7
100
AcDbLine
 10
434.4264991554
 20
1049.6806577115
 30
0.0
 11
435.4514991554
 21
1048.6556577115
 31
0.0
  0
LINE
  5
3B7
330
1B
100
AcDbEntity
 67
     1
  8
02___PRT_ALL_AXES
  6
Continuous
 62
     7
100
AcDbLine
 10
427.6764991554
 20
1049.6806577115
 30
0.0
 11
426.6514991554
 21
1048.6556577115
 31
0.0
  0
LINE
  5
3B8
330
1B
100
AcDbEntity
 67
     1
  8
02___PRT_ALL_AXES
  6
Continuous
 62
     7
100
AcDbLine
 10
434.4264991554
 20
1049.6806577115
 30
0.0
 11
427.6764991554
 21
1049.6806577115
 31
0.0
  0
LINE
  5
3B9
330
1B
100
AcDbEntity
 67
     1
  8
7_ALL_FEATURES
  6
Continuous
 62
     7
100
AcDbLine
 10
435.4514991554
 20
1052.8806577115
 30
0.0
 11
426.6514991554
 21
1052.8806577115
 31
0.0
  0
LINE
  5
3BA
330
1B
100
AcDbEntity
 67
     1
  8
02___PRT_ALL_AXES
  6
Continuous
 62
     7
100
AcDbLine
 10
435.4514991554
 20
1050.7056577115
 30
0.0
 11
426.6514991554
 21
1050.7056577115
 31
0.0
  0
LINE
  5
3BB
330
1B
100
AcDbEntity
 67
     1
  8
02___PRT_ALL_AXES
  6
Continuous
 62
     7
100
AcDbLine
 10
435.4514991554
 20
1048.6556577115
 30
0.0
 11
426.6514991554
 21
1048.6556577115
 31
0.0
  0
ARC
  5
3BC
330
1B
100
AcDbEntity
 67
     1
  8
7_ALL_FEATURES
  6
Continuous
 62
     7
100
AcDbCircle
 10
427.6514991554
 20
1053.4806577115
 30
0.0
 40
0.1
100
AcDbArc
 50
180.0
 51
270.0
  0
ARC
  5
3BD
330
1B
100
AcDbEntity
 67
     1
  8
7_ALL_FEATURES
  6
Continuous
 62
     7
100
AcDbCircle
 10
434.4514991554
 20
1053.4806577115
 30
0.0
 40
0.1
100
AcDbArc
 50
270.0
 51
360.0
  0
LINE
  5
3BE
330
1B
100
AcDbEntity
 67
     1
  8
7_ALL_FEATURES
  6
Continuous
 62
     7
100
AcDbLine
 10
434.5514991554
 20
1057.2806577115
 30
0.0
 11
434.5514991554
 21
1053.4806577115
 31
0.0
  0
LINE
  5
3BF
330
1B
100
AcDbEntity
 67
     1
  8
7_ALL_FEATURES
  6
Continuous
 62
     7
100
AcDbLine
 10
427.5514991554
 20
1057.2806577115
 30
0.0
 11
427.5514991554
 21
1053.4806577115
 31
0.0
  0
ARC
  5
3C0
330
1B
100
AcDbEntity
 67
     1
  8
7_ALL_FEATURES
  6
Continuous
 62
     7
100
AcDbCircle
 10
427.6514991554
 20
1057.2806577115
 30
0.0
 40
0.1
100
AcDbArc
 50
90.0
 51
180.0
  0
ARC
  5
3C1
330
1B
100
AcDbEntity
 67
     1
  8
7_ALL_FEATURES
  6
Continuous
 62
     7
100
AcDbCircle
 10
434.4514991554
 20
1057.2806577115
 30
0.0
 40
0.1
100
AcDbArc
 50
0.0
 51
90.0
  0
LINE
  5
3C2
330
1B
100
AcDbEntity
 67
     1
  8
7_ALL_FEATURES
  6
Continuous
 62
     7
100
AcDbLine
 10
434.4514991554
 20
1057.3806577115
 30
0.0
 11
432.783549963
 21
1057.3806577115
 31
0.0
  0
LINE
  5
3C3
330
1B
100
AcDbEntity
 67
     1
  8
7_ALL_FEATURES
  6
Continuous
 62
     7
100
AcDbLine
 10
432.783549963
 20
1057.3806577115
 30
0.0
 11
432.7519974238
 21
1057.3806577115
 31
0.0
  0
LINE
  5
3C4
330
1B
100
AcDbEntity
 67
     1
  8
7_ALL_FEATURES
  6
Continuous
 62
     7
100
AcDbLine
 10
432.7519974238
 20
1057.3806577115
 30
0.0
 11
431.9175245592
 21
1057.3806577115
 31
0.0
  0
LINE
  5
3C5
330
1B
100
AcDbEntity
 67
     1
  8
7_ALL_FEATURES
  6
Continuous
 62
     7
100
AcDbLine
 10
431.9175245592
 20
1057.3806577115
 30
0.0
 11
430.1854737516
 21
1057.3806577115
 31
0.0
  0
LINE
  5
3C6
330
1B
100
AcDbEntity
 67
     1
  8
7_ALL_FEATURES
  6
Continuous
 62
     7
100
AcDbLine
 10
430.1854737516
 20
1057.3806577115
 30
0.0
 11
429.3509552212
 21
1057.3806577115
 31
0.0
  0
LINE
  5
3C7
330
1B
100
AcDbEntity
 67
     1
  8
7_ALL_FEATURES
  6
Continuous
 62
     7
100
AcDbLine
 10
429.3509552212
 20
1057.3806577115
 30
0.0
 11
429.3194483478
 21
1057.3806577115
 31
0.0
  0
LINE
  5
3C8
330
1B
100
AcDbEntity
 67
     1
  8
7_ALL_FEATURES
  6
Continuous
 62
     7
100
AcDbLine
 10
429.3194483478
 20
1057.3806577115
 30
0.0
 11
427.6514991554
 21
1057.3806577115
 31
0.0
  0
LINE
  5
3C9
330
1B
100
AcDbEntity
 67
     1
  8
7_ALL_FEATURES
  6
Continuous
 62
     9
100
AcDbLine
 10
434.5514991554
 20
1053.4806577115
 30
0.0
 11
427.5514991554
 21
1053.4806577115
 31
0.0
  0
LINE
  5
3CA
330
1B
100
AcDbEntity
 67
     1
  8
7_ALL_FEATURES
  6
Continuous
 62
     9
100
AcDbLine
 10
434.5514991554
 20
1057.2806577115
 30
0.0
 11
427.5514991554
 21
1057.2806577115
 31
0.0
  0
LINE
  5
3CB
330
1B
100
AcDbEntity
 67
     1
  8
7_ALL_FEATURES
  6
Continuous
 62
     7
100
AcDbLine
 10
443.0514991554
 20
368.3806577115
 30
0.0
 11
443.0514991554
 21
364.3806577115
 31
0.0
  0
LINE
  5
3CC
330
1B
100
AcDbEntity
 67
     1
  8
7_ALL_FEATURES
  6
Continuous
 62
     7
100
AcDbLine
 10
340.0514991554
 20
364.3806577115
 30
0.0
 11
338.0514991554
 21
364.3806577115
 31
0.0
  0
LINE
  5
3CD
330
1B
100
AcDbEntity
 67
     1
  8
7_ALL_FEATURES
  6
Continuous
 62
     7
100
AcDbLine
 10
340.0514991554
 20
364.3806577115
 30
0.0
 11
441.0514991554
 21
364.3806577115
 31
0.0
  0
LINE
  5
3CE
330
1B
100
AcDbEntity
 67
     1
  8
7_ALL_FEATURES
  6
Continuous
 62
     7
100
AcDbLine
 10
443.0514991554
 20
364.3806577115
 30
0.0
 11
441.0514991554
 21
364.3806577115
 31
0.0
  0
LINE
  5
3CF
330
1B
100
AcDbEntity
 67
     1
  8
7_ALL_FEATURES
  6
Continuous
 62
     7
100
AcDbLine
 10
338.0514991554
 20
368.3806577115
 30
0.0
 11
338.0514991554
 21
364.3806577115
 31
0.0
  0
LINE
  5
3D0
330
1B
100
AcDbEntity
 67
     1
  8
7_ALL_FEATURES
  6
Continuous
 62
     7
100
AcDbLine
 10
340.0514991554
 20
368.3806577115
 30
0.0
 11
441.0514991554
 21
368.3806577115
 31
0.0
  0
LINE
  5
3D1
330
1B
100
AcDbEntity
 67
     1
  8
7_ALL_FEATURES
  6
Continuous
 62
     7
100
AcDbLine
 10
441.0514991554
 20
368.3806577115
 30
0.0
 11
443.0514991554
 21
368.3806577115
 31
0.0
  0
LINE
  5
3D2
330
1B
100
AcDbEntity
 67
     1
  8
7_ALL_FEATURES
  6
Continuous
 62
     7
100
AcDbLine
 10
338.0514991554
 20
368.3806577115
 30
0.0
 11
340.0514991554
 21
368.3806577115
 31
0.0
  0
LINE
  5
3D3
330
1B
100
AcDbEntity
 67
     1
  8
7_ALL_FEATURES
  6
Continuous
 62
     7
100
AcDbLine
 10
441.0514991554
 20
368.3806577115
 30
0.0
 11
441.0514991554
 21
364.3806577115
 31
0.0
  0
LINE
  5
3D4
330
1B
100
AcDbEntity
 67
     1
  8
7_ALL_FEATURES
  6
Continuous
 62
     7
100
AcDbLine
 10
340.0514991554
 20
368.3806577115
 30
0.0
 11
340.0514991554
 21
364.3806577115
 31
0.0
  0
LINE
  5
3D5
330
1B
100
AcDbEntity
 67
     1
  8
7_ALL_FEATURES
  6
Continuous
 62
     7
100
AcDbLine
 10
340.5514991554
 20
1043.3806577115
 30
0.0
 11
440.5514991554
 21
1043.3806577115
 31
0.0
  0
LINE
  5
3D6
330
1B
100
AcDbEntity
 67
     1
  8
7_ALL_FEATURES
  6
Continuous
 62
     7
100
AcDbLine
 10
340.5514991554
 20
368.3806577115
 30
0.0
 11
340.5514991554
 21
1043.3806577115
 31
0.0
  0
LINE
  5
3D7
330
1B
100
AcDbEntity
 67
     1
  8
7_ALL_FEATURES
  6
Continuous
 62
     7
100
AcDbLine
 10
440.5514991554
 20
368.3806577115
 30
0.0
 11
440.5514991554
 21
1043.3806577115
 31
0.0
  0
LINE
  5
3D8
330
1B
100
AcDbEntity
 67
     1
  8
7_ALL_FEATURES
  6
Continuous
 62
     7
100
AcDbLine
 10
342.7014991554
 20
1221.0888407939
 30
0.0
 11
342.8078799
 21
1223.0888407939
 31
0.0
  0
LINE
  5
3D9
330
1B
100
AcDbEntity
 67
     1
  8
7_ALL_FEATURES
  6
Continuous
 62
     7
100
AcDbLine
 10
342.8078799
 20
1163.0888407939
 30
0.0
 11
342.7014991554
 21
1165.0888407939
 31
0.0
  0
LINE
  5
3DA
330
1B
100
AcDbEntity
 67
     1
  8
7_ALL_FEATURES
  6
Continuous
 62
     7
100
AcDbLine
 10
342.9036225701
 20
1163.0888407939
 30
0.0
 11
342.9036225701
 21
1162.8888407939
 31
0.0
  0
LINE
  5
3DB
330
1B
100
AcDbEntity
 67
     1
  8
7_ALL_FEATURES
  6
Continuous
 62
     7
100
AcDbLine
 10
342.9036225701
 20
1223.2888407939
 30
0.0
 11
342.9036225701
 21
1223.0888407939
 31
0.0
  0
LINE
  5
3DC
330
1B
100
AcDbEntity
 67
     1
  8
7_ALL_FEATURES
  6
Continuous
 62
     7
100
AcDbLine
 10
344.4014991554
 20
1223.0888407939
 30
0.0
 11
344.3057564853
 21
1223.0888407939
 31
0.0
  0
LINE
  5
3DD
330
1B
100
AcDbEntity
 67
     1
  8
7_ALL_FEATURES
  6
Continuous
 62
     7
100
AcDbLine
 10
345.9972103244
 20
1164.8888407939
 30
0.0
 11
345.9972103244
 21
1169.8888407939
 31
0.0
  0
LINE
  5
3DE
330
1B
100
AcDbEntity
 67
     1
  8
7_ALL_FEATURES
  6
Continuous
 62
     7
100
AcDbLine
 10
344.3057564853
 20
1163.0888407939
 30
0.0
 11
344.4014991554
 21
1163.0888407939
 31
0.0
  0
LINE
  5
3DF
330
1B
100
AcDbEntity
 67
     1
  8
7_ALL_FEATURES
  6
Continuous
 62
     7
100
AcDbLine
 10
344.3057564853
 20
1223.0888407939
 30
0.0
 11
342.9036225701
 21
1223.0888407939
 31
0.0
  0
LINE
  5
3E0
330
1B
100
AcDbEntity
 67
     1
  8
7_ALL_FEATURES
  6
Continuous
 62
     7
100
AcDbLine
 10
342.9036225701
 20
1223.0888407939
 30
0.0
 11
342.8078799
 21
1223.0888407939
 31
0.0
  0
LINE
  5
3E1
330
1B
100
AcDbEntity
 67
     1
  8
7_ALL_FEATURES
  6
Continuous
 62
     7
100
AcDbLine
 10
344.3057564853
 20
1163.0888407939
 30
0.0
 11
342.8078799
 21
1163.0888407939
 31
0.0
  0
LINE
  5
3E2
330
1B
100
AcDbEntity
 67
     1
  8
7_ALL_FEATURES
  6
Continuous
 62
     7
100
AcDbLine
 10
344.1993757407
 20
1165.0888407939
 30
0.0
 11
344.21055404
 21
1164.8786843521
 31
0.0
  0
LINE
  5
3E3
330
1B
100
AcDbEntity
 67
     1
  8
7_ALL_FEATURES
  6
Continuous
 62
     7
100
AcDbLine
 10
344.21055404
 20
1164.8786843521
 30
0.0
 11
344.3057564853
 21
1163.0888407939
 31
0.0
  0
LINE
  5
3E4
330
1B
100
AcDbEntity
 67
     1
  8
7_ALL_FEATURES
  6
Continuous
 62
     7
100
AcDbLine
 10
344.1993757407
 20
1221.0888407939
 30
0.0
 11
344.1993757407
 21
1165.0888407939
 31
0.0
  0
LINE
  5
3E5
330
1B
100
AcDbEntity
 67
     1
  8
7_ALL_FEATURES
  6
Continuous
 62
     7
100
AcDbLine
 10
344.1993757407
 20
1221.0888407939
 30
0.0
 11
342.7014991554
 21
1221.0888407939
 31
0.0
  0
LINE
  5
3E6
330
1B
100
AcDbEntity
 67
     1
  8
7_ALL_FEATURES
  6
Continuous
 62
     7
100
AcDbLine
 10
344.1993757407
 20
1165.0888407939
 30
0.0
 11
342.7014991554
 21
1165.0888407939
 31
0.0
  0
LINE
  5
3E7
330
1B
100
AcDbEntity
 67
     1
  8
7_ALL_FEATURES
  6
Continuous
 62
     7
100
AcDbLine
 10
344.3057564853
 20
1223.0888407939
 30
0.0
 11
344.1993757407
 21
1221.0888407939
 31
0.0
  0
LINE
  5
3E8
330
1B
100
AcDbEntity
 67
     1
  8
7_ALL_FEATURES
  6
Continuous
 62
     7
100
AcDbLine
 10
438.4014991554
 20
1165.0888407939
 30
0.0
 11
438.2951184108
 21
1163.0888407939
 31
0.0
  0
LINE
  5
3E9
330
1B
100
AcDbEntity
 67
     1
  8
7_ALL_FEATURES
  6
Continuous
 62
     7
100
AcDbLine
 10
438.2951184108
 20
1223.0888407939
 30
0.0
 11
438.4014991554
 21
1221.0888407939
 31
0.0
  0
LINE
  5
3EA
330
1B
100
AcDbEntity
 67
     1
  8
7_ALL_FEATURES
  6
Continuous
 62
     7
100
AcDbLine
 10
438.1993757407
 20
1223.0888407939
 30
0.0
 11
438.1993757407
 21
1223.2888407939
 31
0.0
  0
LINE
  5
3EB
330
1B
100
AcDbEntity
 67
     1
  8
7_ALL_FEATURES
  6
Continuous
 62
     7
100
AcDbLine
 10
438.1993757407
 20
1162.8888407939
 30
0.0
 11
438.1993757407
 21
1163.0888407939
 31
0.0
  0
LINE
  5
3EC
330
1B
100
AcDbEntity
 67
     1
  8
7_ALL_FEATURES
  6
Continuous
 62
     7
100
AcDbLine
 10
436.7014991554
 20
1163.0888407939
 30
0.0
 11
436.7972418255
 21
1163.0888407939
 31
0.0
  0
LINE
  5
3ED
330
1B
100
AcDbEntity
 67
     1
  8
7_ALL_FEATURES
  6
Continuous
 62
     7
100
AcDbLine
 10
435.1057879864
 20
1169.8888407939
 30
0.0
 11
435.1057879864
 21
1164.8888407939
 31
0.0
  0
LINE
  5
3EE
330
1B
100
AcDbEntity
 67
     1
  8
7_ALL_FEATURES
  6
Continuous
 62
     7
100
AcDbLine
 10
436.7972418255
 20
1223.0888407939
 30
0.0
 11
436.7014991554
 21
1223.0888407939
 31
0.0
  0
LINE
  5
3EF
330
1B
100
AcDbEntity
 67
     1
  8
7_ALL_FEATURES
  6
Continuous
 62
     7
100
AcDbLine
 10
436.7972418255
 20
1163.0888407939
 30
0.0
 11
438.1993757407
 21
1163.0888407939
 31
0.0
  0
LINE
  5
3F0
330
1B
100
AcDbEntity
 67
     1
  8
7_ALL_FEATURES
  6
Continuous
 62
     7
100
AcDbLine
 10
438.1993757407
 20
1163.0888407939
 30
0.0
 11
438.2951184108
 21
1163.0888407939
 31
0.0
  0
LINE
  5
3F1
330
1B
100
AcDbEntity
 67
     1
  8
7_ALL_FEATURES
  6
Continuous
 62
     7
100
AcDbLine
 10
436.7972418255
 20
1223.0888407939
 30
0.0
 11
438.2951184108
 21
1223.0888407939
 31
0.0
  0
LINE
  5
3F2
330
1B
100
AcDbEntity
 67
     1
  8
7_ALL_FEATURES
  6
Continuous
 62
     7
100
AcDbLine
 10
436.9036225701
 20
1221.0888407939
 30
0.0
 11
436.7972418255
 21
1223.0888407939
 31
0.0
  0
LINE
  5
3F3
330
1B
100
AcDbEntity
 67
     1
  8
7_ALL_FEATURES
  6
Continuous
 62
     7
100
AcDbLine
 10
436.9036225701
 20
1165.0888407939
 30
0.0
 11
436.9036225701
 21
1221.0888407939
 31
0.0
  0
LINE
  5
3F4
330
1B
100
AcDbEntity
 67
     1
  8
7_ALL_FEATURES
  6
Continuous
 62
     7
100
AcDbLine
 10
436.9036225701
 20
1165.0888407939
 30
0.0
 11
438.4014991554
 21
1165.0888407939
 31
0.0
  0
LINE
  5
3F5
330
1B
100
AcDbEntity
 67
     1
  8
7_ALL_FEATURES
  6
Continuous
 62
     7
100
AcDbLine
 10
436.9036225701
 20
1221.0888407939
 30
0.0
 11
438.4014991554
 21
1221.0888407939
 31
0.0
  0
LINE
  5
3F6
330
1B
100
AcDbEntity
 67
     1
  8
7_ALL_FEATURES
  6
Continuous
 62
     7
100
AcDbLine
 10
436.7972418255
 20
1163.0888407939
 30
0.0
 11
436.8924442708
 21
1164.8786843521
 31
0.0
  0
LINE
  5
3F7
330
1B
100
AcDbEntity
 67
     1
  8
7_ALL_FEATURES
  6
Continuous
 62
     7
100
AcDbLine
 10
436.8924442708
 20
1164.8786843521
 30
0.0
 11
436.9036225701
 21
1165.0888407939
 31
0.0
  0
LINE
  5
3F8
330
1B
100
AcDbEntity
 67
     1
  8
7_ALL_FEATURES
  6
Continuous
 62
     7
100
AcDbLine
 10
368.8914711063
 20
1157.0888407939
 30
0.0
 11
366.3057057638
 21
1157.0888407939
 31
0.0
  0
LINE
  5
3F9
330
1B
100
AcDbEntity
 67
     1
  8
7_ALL_FEATURES
  6
Continuous
 62
     7
100
AcDbLine
 10
426.5514991554
 20
1217.3346341855
 30
0.0
 11
426.5514991554
 21
1214.748868843
 31
0.0
  0
LINE
  5
3FA
330
1B
100
AcDbEntity
 67
     1
  8
7_ALL_FEATURES
  6
Continuous
 62
     7
100
AcDbLine
 10
412.2115272045
 20
1229.0888407939
 30
0.0
 11
414.797292547
 21
1229.0888407939
 31
0.0
  0
LINE
  5
3FB
330
1B
100
AcDbEntity
 67
     1
  8
7_ALL_FEATURES
  6
Continuous
 62
     7
100
AcDbLine
 10
354.5514991554
 20
1168.8430474023
 30
0.0
 11
354.5514991554
 21
1171.4288127449
 31
0.0
  0
ARC
  5
3FC
330
1B
100
AcDbEntity
 67
     1
  8
7_ALL_FEATURES
  6
Continuous
 62
     7
100
AcDbCircle
 10
390.5514991554
 20
1193.0888407939
 30
0.0
 40
40.0
100
AcDbArc
 50
120.0092018144
 51
149.9908188104
  0
ARC
  5
3FD
330
1B
100
AcDbEntity
 67
     1
  8
7_ALL_FEATURES
  6
Continuous
 62
     7
100
AcDbCircle
 10
390.5514991554
 20
1193.0888407939
 30
0.0
 40
40.0
100
AcDbArc
 50
300.0092018144
 51
329.9908188104001
  0
LINE
  5
3FE
330
1B
100
AcDbEntity
 67
     1
  8
7_ALL_FEATURES
  6
Continuous
 62
     7
100
AcDbLine
 10
342.7014991554
 20
1162.8888407939
 30
0.0
 11
342.7014991554
 21
1223.2888407939
 31
0.0
  0
LINE
  5
3FF
330
1B
100
AcDbEntity
 67
     1
  8
7_ALL_FEATURES
  6
Continuous
 62
     7
100
AcDbLine
 10
344.4014991554
 20
1162.8888407939
 30
0.0
 11
342.7014991554
 21
1162.8888407939
 31
0.0
  0
LINE
  5
400
330
1B
100
AcDbEntity
 67
     1
  8
7_ALL_FEATURES
  6
Continuous
 62
     7
100
AcDbLine
 10
344.4014991554
 20
1164.8888407939
 30
0.0
 11
344.4014991554
 21
1162.8888407939
 31
0.0
  0
LINE
  5
401
330
1B
100
AcDbEntity
 67
     1
  8
7_ALL_FEATURES
  6
Continuous
 62
     7
100
AcDbLine
 10
346.4014991554
 20
1164.8888407939
 30
0.0
 11
344.4014991554
 21
1164.8888407939
 31
0.0
  0
LINE
  5
402
330
1B
100
AcDbEntity
 67
     1
  8
7_ALL_FEATURES
  6
Continuous
 62
     7
100
AcDbLine
 10
346.4014991554
 20
1169.8888407939
 30
0.0
 11
346.4014991554
 21
1164.8888407939
 31
0.0
  0
LINE
  5
403
330
1B
100
AcDbEntity
 67
     1
  8
7_ALL_FEATURES
  6
Continuous
 62
     7
100
AcDbLine
 10
344.4014991554
 20
1169.8888407939
 30
0.0
 11
346.4014991554
 21
1169.8888407939
 31
0.0
  0
LINE
  5
404
330
1B
100
AcDbEntity
 67
     1
  8
7_ALL_FEATURES
  6
Continuous
 62
     7
100
AcDbLine
 10
344.4014991554
 20
1180.4888407939
 30
0.0
 11
344.4014991554
 21
1169.8888407939
 31
0.0
  0
LINE
  5
405
330
1B
100
AcDbEntity
 67
     1
  8
7_ALL_FEATURES
  6
Continuous
 62
     7
100
AcDbLine
 10
345.1014991554
 20
1180.4888407939
 30
0.0
 11
344.4014991554
 21
1180.4888407939
 31
0.0
  0
LINE
  5
406
330
1B
100
AcDbEntity
 67
     1
  8
7_ALL_FEATURES
  6
Continuous
 62
     7
100
AcDbLine
 10
345.1014991554
 20
1185.1888407939
 30
0.0
 11
345.1014991554
 21
1180.4888407939
 31
0.0
  0
LINE
  5
407
330
1B
100
AcDbEntity
 67
     1
  8
7_ALL_FEATURES
  6
Continuous
 62
     7
100
AcDbLine
 10
344.4014991554
 20
1185.1888407939
 30
0.0
 11
345.1014991554
 21
1185.1888407939
 31
0.0
  0
LINE
  5
408
330
1B
100
AcDbEntity
 67
     1
  8
7_ALL_FEATURES
  6
Continuous
 62
     7
100
AcDbLine
 10
344.4014991554
 20
1200.9888407939
 30
0.0
 11
344.4014991554
 21
1185.1888407939
 31
0.0
  0
LINE
  5
409
330
1B
100
AcDbEntity
 67
     1
  8
7_ALL_FEATURES
  6
Continuous
 62
     7
100
AcDbLine
 10
345.1014991554
 20
1200.9888407939
 30
0.0
 11
344.4014991554
 21
1200.9888407939
 31
0.0
  0
LINE
  5
40A
330
1B
100
AcDbEntity
 67
     1
  8
7_ALL_FEATURES
  6
Continuous
 62
     7
100
AcDbLine
 10
345.1014991554
 20
1205.6888407939
 30
0.0
 11
345.1014991554
 21
1200.9888407939
 31
0.0
  0
LINE
  5
40B
330
1B
100
AcDbEntity
 67
     1
  8
7_ALL_FEATURES
  6
Continuous
 62
     7
100
AcDbLine
 10
344.4014991554
 20
1205.6888407939
 30
0.0
 11
345.1014991554
 21
1205.6888407939
 31
0.0
  0
LINE
  5
40C
330
1B
100
AcDbEntity
 67
     1
  8
7_ALL_FEATURES
  6
Continuous
 62
     7
100
AcDbLine
 10
344.4014991554
 20
1223.2888407939
 30
0.0
 11
344.4014991554
 21
1205.6888407939
 31
0.0
  0
LINE
  5
40D
330
1B
100
AcDbEntity
 67
     1
  8
7_ALL_FEATURES
  6
Continuous
 62
     7
100
AcDbLine
 10
342.7014991554
 20
1223.2888407939
 30
0.0
 11
344.4014991554
 21
1223.2888407939
 31
0.0
  0
LINE
  5
40E
330
1B
100
AcDbEntity
 67
     1
  8
7_ALL_FEATURES
  6
Continuous
 62
     7
100
AcDbLine
 10
438.4014991554
 20
1162.8888407939
 30
0.0
 11
436.7014991554
 21
1162.8888407939
 31
0.0
  0
LINE
  5
40F
330
1B
100
AcDbEntity
 67
     1
  8
7_ALL_FEATURES
  6
Continuous
 62
     7
100
AcDbLine
 10
438.4014991554
 20
1223.2888407939
 30
0.0
 11
438.4014991554
 21
1162.8888407939
 31
0.0
  0
LINE
  5
410
330
1B
100
AcDbEntity
 67
     1
  8
7_ALL_FEATURES
  6
Continuous
 62
     7
100
AcDbLine
 10
436.7014991554
 20
1223.2888407939
 30
0.0
 11
438.4014991554
 21
1223.2888407939
 31
0.0
  0
LINE
  5
411
330
1B
100
AcDbEntity
 67
     1
  8
7_ALL_FEATURES
  6
Continuous
 62
     7
100
AcDbLine
 10
436.7014991554
 20
1169.8888407939
 30
0.0
 11
436.7014991554
 21
1223.2888407939
 31
0.0
  0
LINE
  5
412
330
1B
100
AcDbEntity
 67
     1
  8
7_ALL_FEATURES
  6
Continuous
 62
     7
100
AcDbLine
 10
434.7014991554
 20
1169.8888407939
 30
0.0
 11
436.7014991554
 21
1169.8888407939
 31
0.0
  0
LINE
  5
413
330
1B
100
AcDbEntity
 67
     1
  8
7_ALL_FEATURES
  6
Continuous
 62
     7
100
AcDbLine
 10
434.7014991554
 20
1164.8888407939
 30
0.0
 11
434.7014991554
 21
1169.8888407939
 31
0.0
  0
LINE
  5
414
330
1B
100
AcDbEntity
 67
     1
  8
7_ALL_FEATURES
  6
Continuous
 62
     7
100
AcDbLine
 10
436.7014991554
 20
1164.8888407939
 30
0.0
 11
434.7014991554
 21
1164.8888407939
 31
0.0
  0
LINE
  5
415
330
1B
100
AcDbEntity
 67
     1
  8
7_ALL_FEATURES
  6
Continuous
 62
     7
100
AcDbLine
 10
436.7014991554
 20
1162.8888407939
 30
0.0
 11
436.7014991554
 21
1164.8888407939
 31
0.0
  0
LINE
  5
416
330
1B
100
AcDbEntity
 67
     1
  8
7_ALL_FEATURES
  6
Continuous
 62
     7
100
AcDbLine
 10
370.0514991554
 20
1216.5888407939
 30
0.0
 11
411.0514991554
 21
1216.5888407939
 31
0.0
  0
LINE
  5
417
330
1B
100
AcDbEntity
 67
     1
  8
7_ALL_FEATURES
  6
Continuous
 62
     7
100
AcDbLine
 10
367.0514991554
 20
1172.5888407939
 30
0.0
 11
367.0514991554
 21
1213.5888407939
 31
0.0
  0
LINE
  5
418
330
1B
100
AcDbEntity
 67
     1
  8
7_ALL_FEATURES
  6
Continuous
 62
     7
100
AcDbLine
 10
411.0514991554
 20
1169.5888407939
 30
0.0
 11
370.0514991554
 21
1169.5888407939
 31
0.0
  0
LINE
  5
419
330
1B
100
AcDbEntity
 67
     1
  8
7_ALL_FEATURES
  6
Continuous
 62
     7
100
AcDbLine
 10
414.0514991554
 20
1213.5888407939
 30
0.0
 11
414.0514991554
 21
1172.5888407939
 31
0.0
  0
ARC
  5
41A
330
1B
100
AcDbEntity
 67
     1
  8
02___PRT_ALL_AXES
  6
Continuous
 62
     7
100
AcDbCircle
 10
413.4945566094
 20
1225.8549225655
 30
0.0
 40
3.5
100
AcDbArc
 50
55.00000000000001
 51
235.0
  0
ARC
  5
41B
330
1B
100
AcDbEntity
 67
     1
  8
02___PRT_ALL_AXES
  6
Continuous
 62
     7
100
AcDbCircle
 10
390.5514991554
 20
1193.0888407939
 30
0.0
 40
36.5
100
AcDbArc
 50
35.0
 51
55.00000000000001
  0
ARC
  5
41C
330
1B
100
AcDbEntity
 67
     1
  8
02___PRT_ALL_AXES
  6
Continuous
 62
     7
100
AcDbCircle
 10
423.317580927
 20
1216.031898248
 30
0.0
 40
3.5
100
AcDbArc
 50
215.0
 51
35.0
  0
ARC
  5
41D
330
1B
100
AcDbEntity
 67
     1
  8
02___PRT_ALL_AXES
  6
Continuous
 62
     7
100
AcDbCircle
 10
390.5514991554
 20
1193.0888407939
 30
0.0
 40
43.5
100
AcDbArc
 50
35.0
 51
55.00000000000001
  0
ARC
  5
41E
330
1B
100
AcDbEntity
 67
     1
  8
02___PRT_ALL_AXES
  6
Continuous
 62
     7
100
AcDbCircle
 10
423.317580927
 20
1170.1457833399
 30
0.0
 40
3.5
100
AcDbArc
 50
325.0
 51
145.0
  0
ARC
  5
41F
330
1B
100
AcDbEntity
 67
     1
  8
02___PRT_ALL_AXES
  6
Continuous
 62
     7
100
AcDbCircle
 10
390.5514991554
 20
1193.0888407939
 30
0.0
 40
36.5
100
AcDbArc
 50
305.0
 51
325.0
  0
ARC
  5
420
330
1B
100
AcDbEntity
 67
     1
  8
02___PRT_ALL_AXES
  6
Continuous
 62
     7
100
AcDbCircle
 10
413.4945566094
 20
1160.3227590224
 30
0.0
 40
3.5
100
AcDbArc
 50
125.0
 51
305.0
  0
ARC
  5
421
330
1B
100
AcDbEntity
 67
     1
  8
02___PRT_ALL_AXES
  6
Continuous
 62
     7
100
AcDbCircle
 10
390.5514991554
 20
1193.0888407939
 30
0.0
 40
43.5
100
AcDbArc
 50
305.0
 51
325.0
  0
ARC
  5
422
330
1B
100
AcDbEntity
 67
     1
  8
02___PRT_ALL_AXES
  6
Continuous
 62
     7
100
AcDbCircle
 10
367.6084417014
 20
1160.3227590224
 30
0.0
 40
3.5
100
AcDbArc
 50
235.0
 51
55.00000000000001
  0
ARC
  5
423
330
1B
100
AcDbEntity
 67
     1
  8
02___PRT_ALL_AXES
  6
Continuous
 62
     7
100
AcDbCircle
 10
390.5514991554
 20
1193.0888407939
 30
0.0
 40
36.5
100
AcDbArc
 50
215.0
 51
235.0
  0
ARC
  5
424
330
1B
100
AcDbEntity
 67
     1
  8
02___PRT_ALL_AXES
  6
Continuous
 62
     7
100
AcDbCircle
 10
357.7854173838
 20
1170.1457833399
 30
0.0
 40
3.5
100
AcDbArc
 50
35.0
 51
215.0
  0
ARC
  5
425
330
1B
100
AcDbEntity
 67
     1
  8
02___PRT_ALL_AXES
  6
Continuous
 62
     7
100
AcDbCircle
 10
390.5514991554
 20
1193.0888407939
 30
0.0
 40
43.5
100
AcDbArc
 50
215.0
 51
235.0
  0
ARC
  5
426
330
1B
100
AcDbEntity
 67
     1
  8
02___PRT_ALL_AXES
  6
Continuous
 62
     7
100
AcDbCircle
 10
357.7854173838
 20
1216.031898248
 30
0.0
 40
3.5
100
AcDbArc
 50
145.0
 51
325.0
  0
ARC
  5
427
330
1B
100
AcDbEntity
 67
     1
  8
02___PRT_ALL_AXES
  6
Continuous
 62
     7
100
AcDbCircle
 10
390.5514991554
 20
1193.0888407939
 30
0.0
 40
36.5
100
AcDbArc
 50
125.0
 51
145.0
  0
ARC
  5
428
330
1B
100
AcDbEntity
 67
     1
  8
02___PRT_ALL_AXES
  6
Continuous
 62
     7
100
AcDbCircle
 10
367.6084417014
 20
1225.8549225655
 30
0.0
 40
3.5
100
AcDbArc
 50
305.0
 51
125.0
  0
ARC
  5
429
330
1B
100
AcDbEntity
 67
     1
  8
02___PRT_ALL_AXES
  6
Continuous
 62
     7
100
AcDbCircle
 10
390.5514991554
 20
1193.0888407939
 30
0.0
 40
43.5
100
AcDbArc
 50
125.0
 51
145.0
  0
LINE
  5
42A
330
1B
100
AcDbEntity
 67
     1
  8
7_ALL_FEATURES
  6
Continuous
 62
     7
100
AcDbLine
 10
340.0514991554
 20
1245.5888407939
 30
0.0
 11
338.0514991554
 21
1243.5888407939
 31
0.0
  0
LINE
  5
42B
330
1B
100
AcDbEntity
 67
     1
  8
7_ALL_FEATURES
  6
Continuous
 62
     7
100
AcDbLine
 10
340.0514991554
 20
1245.5888407939
 30
0.0
 11
441.0514991554
 21
1245.5888407939
 31
0.0
  0
LINE
  5
42C
330
1B
100
AcDbEntity
 67
     1
  8
7_ALL_FEATURES
  6
Continuous
 62
     7
100
AcDbLine
 10
443.0514991554
 20
1243.5888407939
 30
0.0
 11
441.0514991554
 21
1245.5888407939
 31
0.0
  0
LINE
  5
42D
330
1B
100
AcDbEntity
 67
     1
  8
7_ALL_FEATURES
  6
Continuous
 62
     7
100
AcDbLine
 10
443.0514991554
 20
1243.5888407939
 30
0.0
 11
443.0514991554
 21
1142.5888407939
 31
0.0
  0
LINE
  5
42E
330
1B
100
AcDbEntity
 67
     1
  8
7_ALL_FEATURES
  6
Continuous
 62
     7
100
AcDbLine
 10
441.0514991554
 20
1140.5888407939
 30
0.0
 11
443.0514991554
 21
1142.5888407939
 31
0.0
  0
LINE
  5
42F
330
1B
100
AcDbEntity
 67
     1
  8
7_ALL_FEATURES
  6
Continuous
 62
     7
100
AcDbLine
 10
441.0514991554
 20
1140.5888407939
 30
0.0
 11
340.0514991554
 21
1140.5888407939
 31
0.0
  0
LINE
  5
430
330
1B
100
AcDbEntity
 67
     1
  8
7_ALL_FEATURES
  6
Continuous
 62
     7
100
AcDbLine
 10
338.0514991554
 20
1142.5888407939
 30
0.0
 11
340.0514991554
 21
1140.5888407939
 31
0.0
  0
LINE
  5
431
330
1B
100
AcDbEntity
 67
     1
  8
7_ALL_FEATURES
  6
Continuous
 62
     7
100
AcDbLine
 10
338.0514991554
 20
1142.5888407939
 30
0.0
 11
338.0514991554
 21
1243.5888407939
 31
0.0
  0
LINE
  5
432
330
1B
100
AcDbEntity
 67
     1
  8
7_ALL_FEATURES
  6
Continuous
 62
     7
100
AcDbLine
 10
414.0514991554
 20
1172.5888407939
 30
0.0
 11
411.0514991554
 21
1169.5888407939
 31
0.0
  0
LINE
  5
433
330
1B
100
AcDbEntity
 67
     1
  8
7_ALL_FEATURES
  6
Continuous
 62
     7
100
AcDbLine
 10
411.0514991554
 20
1216.5888407939
 30
0.0
 11
414.0514991554
 21
1213.5888407939
 31
0.0
  0
LINE
  5
434
330
1B
100
AcDbEntity
 67
     1
  8
7_ALL_FEATURES
  6
Continuous
 62
     7
100
AcDbLine
 10
367.0514991554
 20
1213.5888407939
 30
0.0
 11
370.0514991554
 21
1216.5888407939
 31
0.0
  0
LINE
  5
435
330
1B
100
AcDbEntity
 67
     1
  8
7_ALL_FEATURES
  6
Continuous
 62
     7
100
AcDbLine
 10
370.0514991554
 20
1169.5888407939
 30
0.0
 11
367.0514991554
 21
1172.5888407939
 31
0.0
  0
LINE
  5
436
330
1B
100
AcDbEntity
 67
     1
  8
7_ALL_FEATURES
  6
Continuous
 62
     7
100
AcDbLine
 10
655.6447423986
 20
1053.3806577115
 30
0.0
 11
653.5447423986
 21
1053.3806577115
 31
0.0
  0
LINE
  5
437
330
1B
100
AcDbEntity
 67
     1
  8
7_ALL_FEATURES
  6
Continuous
 62
     7
100
AcDbLine
 10
653.5447423986
 20
1053.3806577115
 30
0.0
 11
652.2563551224
 21
1053.3806577115
 31
0.0
  0
LINE
  5
438
330
1B
100
AcDbEntity
 67
     1
  8
7_ALL_FEATURES
  6
Continuous
 62
     7
100
AcDbLine
 10
652.2563551224
 20
1053.3806577115
 30
0.0
 11
652.2447423986
 21
1053.3806577115
 31
0.0
  0
LINE
  5
439
330
1B
100
AcDbEntity
 67
     1
  8
7_ALL_FEATURES
  6
Continuous
 62
     7
100
AcDbLine
 10
652.2447423986
 20
1053.3806577115
 30
0.0
 11
651.7447423986
 21
1053.3806577115
 31
0.0
  0
LINE
  5
43A
330
1B
100
AcDbEntity
 67
     1
  8
7_ALL_FEATURES
  6
Continuous
 62
     7
100
AcDbLine
 10
651.7447423986
 20
1053.3806577115
 30
0.0
 11
651.2447423986
 21
1052.8806577115
 31
0.0
  0
LINE
  5
43B
330
1B
100
AcDbEntity
 67
     1
  8
7_ALL_FEATURES
  6
Continuous
 62
     7
100
AcDbLine
 10
659.5447423986
 20
1053.3806577115
 30
0.0
 11
659.0447423618
 21
1053.3806577115
 31
0.0
  0
LINE
  5
43C
330
1B
100
AcDbEntity
 67
     1
  8
7_ALL_FEATURES
  6
Continuous
 62
     7
100
AcDbLine
 10
659.0447423618
 20
1053.3806577115
 30
0.0
 11
659.0331296749
 21
1053.3806577115
 31
0.0
  0
LINE
  5
43D
330
1B
100
AcDbEntity
 67
     1
  8
7_ALL_FEATURES
  6
Continuous
 62
     7
100
AcDbLine
 10
659.0331296749
 20
1053.3806577115
 30
0.0
 11
657.7447423948
 21
1053.3806577115
 31
0.0
  0
LINE
  5
43E
330
1B
100
AcDbEntity
 67
     1
  8
7_ALL_FEATURES
  6
Continuous
 62
     7
100
AcDbLine
 10
657.7447423948
 20
1053.3806577115
 30
0.0
 11
655.6447423986
 21
1053.3806577115
 31
0.0
  0
LINE
  5
43F
330
1B
100
AcDbEntity
 67
     1
  8
7_ALL_FEATURES
  6
Continuous
 62
     7
100
AcDbLine
 10
659.5447423986
 20
1053.3806577115
 30
0.0
 11
660.0447423986
 21
1052.8806577115
 31
0.0
  0
LINE
  5
440
330
1B
100
AcDbEntity
 67
     1
  8
02___PRT_ALL_AXES
  6
Continuous
 62
     7
100
AcDbLine
 10
660.0447423986
 20
1043.3806577115
 30
0.0
 11
660.0447423986
 21
1048.6556577115
 31
0.0
  0
LINE
  5
441
330
1B
100
AcDbEntity
 67
     1
  8
02___PRT_ALL_AXES
  6
Continuous
 62
     7
100
AcDbLine
 10
660.0447423986
 20
1048.6556577115
 30
0.0
 11
659.0197423986
 21
1049.6806577115
 31
0.0
  0
LINE
  5
442
330
1B
100
AcDbEntity
 67
     1
  8
02___PRT_ALL_AXES
  6
Continuous
 62
     7
100
AcDbLine
 10
651.2447423986
 20
1050.7056577115
 30
0.0
 11
651.2447423986
 21
1052.8806577115
 31
0.0
  0
LINE
  5
443
330
1B
100
AcDbEntity
 67
     1
  8
02___PRT_ALL_AXES
  6
Continuous
 62
     7
100
AcDbLine
 10
652.2697423986
 20
1049.6806577115
 30
0.0
 11
651.2447423986
 21
1050.7056577115
 31
0.0
  0
LINE
  5
444
330
1B
100
AcDbEntity
 67
     1
  8
02___PRT_ALL_AXES
  6
Continuous
 62
     7
100
AcDbLine
 10
659.0197423986
 20
1049.6806577115
 30
0.0
 11
660.0447423986
 21
1050.7056577115
 31
0.0
  0
LINE
  5
445
330
1B
100
AcDbEntity
 67
     1
  8
02___PRT_ALL_AXES
  6
Continuous
 62
     7
100
AcDbLine
 10
651.2447423986
 20
1048.6556577115
 30
0.0
 11
652.2697423986
 21
1049.6806577115
 31
0.0
  0
LINE
  5
446
330
1B
100
AcDbEntity
 67
     1
  8
02___PRT_ALL_AXES
  6
Continuous
 62
     7
100
AcDbLine
 10
651.2447423986
 20
1043.3806577115
 30
0.0
 11
651.2447423986
 21
1048.6556577115
 31
0.0
  0
LINE
  5
447
330
1B
100
AcDbEntity
 67
     1
  8
02___PRT_ALL_AXES
  6
Continuous
 62
     7
100
AcDbLine
 10
660.0447423986
 20
1050.7056577115
 30
0.0
 11
660.0447423986
 21
1052.8806577115
 31
0.0
  0
LINE
  5
448
330
1B
100
AcDbEntity
 67
     1
  8
7_ALL_FEATURES
  6
Continuous
 62
     7
100
AcDbLine
 10
655.6447423986
 20
1052.8806577115
 30
0.0
 11
651.2447423986
 21
1052.8806577115
 31
0.0
  0
LINE
  5
449
330
1B
100
AcDbEntity
 67
     1
  8
02___PRT_ALL_AXES
  6
Continuous
 62
     7
100
AcDbLine
 10
660.0447423986
 20
1048.6556577115
 30
0.0
 11
655.6447423986
 21
1048.6556577115
 31
0.0
  0
LINE
  5
44A
330
1B
100
AcDbEntity
 67
     1
  8
02___PRT_ALL_AXES
  6
Continuous
 62
     7
100
AcDbLine
 10
651.2447423986
 20
1050.7056577115
 30
0.0
 11
655.6447423986
 21
1050.7056577115
 31
0.0
  0
LINE
  5
44B
330
1B
100
AcDbEntity
 67
     1
  8
02___PRT_ALL_AXES
  6
Continuous
 62
     7
100
AcDbLine
 10
659.0197423986
 20
1049.6806577115
 30
0.0
 11
655.6447423986
 21
1049.6806577115
 31
0.0
  0
LINE
  5
44C
330
1B
100
AcDbEntity
 67
     1
  8
02___PRT_ALL_AXES
  6
Continuous
 62
     7
100
AcDbLine
 10
652.2697423986
 20
1049.6806577115
 30
0.0
 11
655.6447423986
 21
1049.6806577115
 31
0.0
  0
LINE
  5
44D
330
1B
100
AcDbEntity
 67
     1
  8
02___PRT_ALL_AXES
  6
Continuous
 62
     7
100
AcDbLine
 10
651.2447423986
 20
1048.6556577115
 30
0.0
 11
655.6447423986
 21
1048.6556577115
 31
0.0
  0
LINE
  5
44E
330
1B
100
AcDbEntity
 67
     1
  8
7_ALL_FEATURES
  6
Continuous
 62
     7
100
AcDbLine
 10
660.0447423986
 20
1052.8806577115
 30
0.0
 11
655.6447423986
 21
1052.8806577115
 31
0.0
  0
LINE
  5
44F
330
1B
100
AcDbEntity
 67
     1
  8
02___PRT_ALL_AXES
  6
Continuous
 62
     7
100
AcDbLine
 10
660.0447423986
 20
1050.7056577115
 30
0.0
 11
655.6447423986
 21
1050.7056577115
 31
0.0
  0
ARC
  5
450
330
1B
100
AcDbEntity
 67
     1
  8
7_ALL_FEATURES
  6
Continuous
 62
     7
100
AcDbCircle
 10
652.2447423986
 20
1053.4806577115
 30
0.0
 40
0.1
100
AcDbArc
 50
180.0
 51
270.0
  0
ARC
  5
451
330
1B
100
AcDbEntity
 67
     1
  8
7_ALL_FEATURES
  6
Continuous
 62
     7
100
AcDbCircle
 10
659.0447423986
 20
1053.4806577115
 30
0.0
 40
0.1
100
AcDbArc
 50
270.0
 51
360.0
  0
ARC
  5
452
330
1B
100
AcDbEntity
 67
     1
  8
7_ALL_FEATURES
  6
Continuous
 62
     7
100
AcDbCircle
 10
652.2447423986
 20
1057.2806577115
 30
0.0
 40
0.1
100
AcDbArc
 50
90.0
 51
180.0
  0
LINE
  5
453
330
1B
100
AcDbEntity
 67
     1
  8
7_ALL_FEATURES
  6
Continuous
 62
     7
100
AcDbLine
 10
655.6447423986
 20
1057.3806577115
 30
0.0
 11
652.2447424003
 21
1057.3806577115
 31
0.0
  0
LINE
  5
454
330
1B
100
AcDbEntity
 67
     1
  8
7_ALL_FEATURES
  6
Continuous
 62
     7
100
AcDbLine
 10
652.2447423986
 20
1057.3806577115
 30
0.0
 11
655.6447423986
 21
1057.3806577115
 31
0.0
  0
LINE
  5
455
330
1B
100
AcDbEntity
 67
     1
  8
7_ALL_FEATURES
  6
Continuous
 62
     7
100
AcDbLine
 10
659.044742397
 20
1057.3806577115
 30
0.0
 11
658.9930819115
 21
1057.3806577115
 31
0.0
  0
LINE
  5
456
330
1B
100
AcDbEntity
 67
     1
  8
7_ALL_FEATURES
  6
Continuous
 62
     7
100
AcDbLine
 10
658.9930819115
 20
1057.3806577115
 30
0.0
 11
655.6447423986
 21
1057.3806577115
 31
0.0
  0
ARC
  5
457
330
1B
100
AcDbEntity
 67
     1
  8
7_ALL_FEATURES
  6
Continuous
 62
     7
100
AcDbCircle
 10
659.0447423986
 20
1057.2806577115
 30
0.0
 40
0.1
100
AcDbArc
 50
0.0
 51
90.0
  0
LINE
  5
458
330
1B
100
AcDbEntity
 67
     1
  8
7_ALL_FEATURES
  6
Continuous
 62
     7
100
AcDbLine
 10
659.0331296749
 20
1057.3806577115
 30
0.0
 11
659.0447423986
 21
1057.3806577115
 31
0.0
  0
LINE
  5
459
330
1B
100
AcDbEntity
 67
     1
  8
7_ALL_FEATURES
  6
Continuous
 62
     7
100
AcDbLine
 10
655.6447423986
 20
1057.3806577115
 30
0.0
 11
659.0331296749
 21
1057.3806577115
 31
0.0
  0
LINE
  5
45A
330
1B
100
AcDbEntity
 67
     1
  8
3_ALL_AXES
  6
Continuous
 62
     7
100
AcDbLine
 10
652.1447423986
 20
1053.4806577115
 30
0.0
 11
652.1447423986
 21
1057.2806577115
 31
0.0
  0
LINE
  5
45B
330
1B
100
AcDbEntity
 67
     1
  8
3_ALL_AXES
  6
Continuous
 62
     7
100
AcDbLine
 10
659.1447423986
 20
1053.4806577115
 30
0.0
 11
659.1447423986
 21
1057.2806577115
 31
0.0
  0
LINE
  5
45C
330
1B
100
AcDbEntity
 67
     1
  8
7_ALL_FEATURES
  6
Continuous
 62
     9
100
AcDbLine
 10
655.6447423986
 20
1057.2806577115
 30
0.0
 11
652.1447423986
 21
1057.2806577115
 31
0.0
  0
LINE
  5
45D
330
1B
100
AcDbEntity
 67
     1
  8
7_ALL_FEATURES
  6
Continuous
 62
     9
100
AcDbLine
 10
659.1447423986
 20
1057.2806577115
 30
0.0
 11
655.6447423986
 21
1057.2806577115
 31
0.0
  0
LINE
  5
45E
330
1B
100
AcDbEntity
 67
     1
  8
7_ALL_FEATURES
  6
Continuous
 62
     9
100
AcDbLine
 10
659.1447423986
 20
1053.4806577115
 30
0.0
 11
655.6447423986
 21
1053.4806577115
 31
0.0
  0
LINE
  5
45F
330
1B
100
AcDbEntity
 67
     1
  8
7_ALL_FEATURES
  6
Continuous
 62
     9
100
AcDbLine
 10
655.6447423986
 20
1053.4806577115
 30
0.0
 11
652.1447423986
 21
1053.4806577115
 31
0.0
  0
LINE
  5
460
330
1B
100
AcDbEntity
 67
     1
  8
7_ALL_FEATURES
  6
Continuous
 62
     7
100
AcDbLine
 10
573.7787169949
 20
380.1306577115
 30
0.0
 11
572.9126915911
 21
378.6306577115
 31
0.0
  0
LINE
  5
461
330
1B
100
AcDbEntity
 67
     1
  8
7_ALL_FEATURES
  6
Continuous
 62
     7
100
AcDbLine
 10
572.9126915911
 20
378.6306577115
 30
0.0
 11
573.7787169949
 21
377.1306577115
 31
0.0
  0
LINE
  5
462
330
1B
100
AcDbEntity
 67
     1
  8
7_ALL_FEATURES
  6
Continuous
 62
     7
100
AcDbLine
 10
573.7787169949
 20
377.1306577115
 30
0.0
 11
575.5107678024
 21
377.1306577115
 31
0.0
  0
LINE
  5
463
330
1B
100
AcDbEntity
 67
     1
  8
7_ALL_FEATURES
  6
Continuous
 62
     7
100
AcDbLine
 10
575.5107678024
 20
377.1306577115
 30
0.0
 11
576.3767932062
 21
378.6306577115
 31
0.0
  0
LINE
  5
464
330
1B
100
AcDbEntity
 67
     1
  8
7_ALL_FEATURES
  6
Continuous
 62
     7
100
AcDbLine
 10
576.3767932062
 20
378.6306577115
 30
0.0
 11
575.5107678024
 21
380.1306577115
 31
0.0
  0
LINE
  5
465
330
1B
100
AcDbEntity
 67
     1
  8
7_ALL_FEATURES
  6
Continuous
 62
     7
100
AcDbLine
 10
575.5107678024
 20
380.1306577115
 30
0.0
 11
573.7787169949
 21
380.1306577115
 31
0.0
  0
ARC
  5
466
330
1B
100
AcDbEntity
 67
     1
  8
3_ALL_AXES
  6
Continuous
 62
     7
100
AcDbCircle
 10
574.6447423986
 20
378.6306577115
 30
0.0
 40
5.0
100
AcDbArc
 50
0.0
 51
180.0
  0
ARC
  5
467
330
1B
100
AcDbEntity
 67
     1
  8
3_ALL_AXES
  6
Continuous
 62
     7
100
AcDbCircle
 10
574.6447423986
 20
378.6306577115
 30
0.0
 40
5.0
100
AcDbArc
 50
180.0
 51
360.0
  0
LINE
  5
468
330
1B
100
AcDbEntity
 67
     1
  8
7_ALL_FEATURES
  6
Continuous
 62
     7
100
AcDbLine
 10
654.7787169949
 20
380.1306577115
 30
0.0
 11
653.9126915911
 21
378.6306577115
 31
0.0
  0
LINE
  5
469
330
1B
100
AcDbEntity
 67
     1
  8
7_ALL_FEATURES
  6
Continuous
 62
     7
100
AcDbLine
 10
653.9126915911
 20
378.6306577115
 30
0.0
 11
654.7787169949
 21
377.1306577115
 31
0.0
  0
LINE
  5
46A
330
1B
100
AcDbEntity
 67
     1
  8
7_ALL_FEATURES
  6
Continuous
 62
     7
100
AcDbLine
 10
654.7787169949
 20
377.1306577115
 30
0.0
 11
656.5107678024
 21
377.1306577115
 31
0.0
  0
LINE
  5
46B
330
1B
100
AcDbEntity
 67
     1
  8
7_ALL_FEATURES
  6
Continuous
 62
     7
100
AcDbLine
 10
656.5107678024
 20
377.1306577115
 30
0.0
 11
657.3767932062
 21
378.6306577115
 31
0.0
  0
LINE
  5
46C
330
1B
100
AcDbEntity
 67
     1
  8
7_ALL_FEATURES
  6
Continuous
 62
     7
100
AcDbLine
 10
657.3767932062
 20
378.6306577115
 30
0.0
 11
656.5107678024
 21
380.1306577115
 31
0.0
  0
LINE
  5
46D
330
1B
100
AcDbEntity
 67
     1
  8
7_ALL_FEATURES
  6
Continuous
 62
     7
100
AcDbLine
 10
656.5107678024
 20
380.1306577115
 30
0.0
 11
654.7787169949
 21
380.1306577115
 31
0.0
  0
ARC
  5
46E
330
1B
100
AcDbEntity
 67
     1
  8
3_ALL_AXES
  6
Continuous
 62
     7
100
AcDbCircle
 10
655.6447423986
 20
378.6306577115
 30
0.0
 40
5.0
100
AcDbArc
 50
0.0
 51
180.0
  0
ARC
  5
46F
330
1B
100
AcDbEntity
 67
     1
  8
3_ALL_AXES
  6
Continuous
 62
     7
100
AcDbCircle
 10
655.6447423986
 20
378.6306577115
 30
0.0
 40
5.0
100
AcDbArc
 50
180.0
 51
360.0
  0
LINE
  5
470
330
1B
100
AcDbEntity
 67
     1
  8
7_ALL_FEATURES
  6
Continuous
 62
     7
100
AcDbLine
 10
574.6447423986
 20
1053.3806577115
 30
0.0
 11
572.5447423986
 21
1053.3806577115
 31
0.0
  0
LINE
  5
471
330
1B
100
AcDbEntity
 67
     1
  8
7_ALL_FEATURES
  6
Continuous
 62
     7
100
AcDbLine
 10
572.5447423986
 20
1053.3806577115
 30
0.0
 11
571.2563551224
 21
1053.3806577115
 31
0.0
  0
LINE
  5
472
330
1B
100
AcDbEntity
 67
     1
  8
7_ALL_FEATURES
  6
Continuous
 62
     7
100
AcDbLine
 10
571.2563551224
 20
1053.3806577115
 30
0.0
 11
571.2447423986
 21
1053.3806577115
 31
0.0
  0
LINE
  5
473
330
1B
100
AcDbEntity
 67
     1
  8
7_ALL_FEATURES
  6
Continuous
 62
     7
100
AcDbLine
 10
571.2447423986
 20
1053.3806577115
 30
0.0
 11
570.7447423986
 21
1053.3806577115
 31
0.0
  0
LINE
  5
474
330
1B
100
AcDbEntity
 67
     1
  8
7_ALL_FEATURES
  6
Continuous
 62
     7
100
AcDbLine
 10
570.7447423986
 20
1053.3806577115
 30
0.0
 11
570.2447423986
 21
1052.8806577115
 31
0.0
  0
LINE
  5
475
330
1B
100
AcDbEntity
 67
     1
  8
7_ALL_FEATURES
  6
Continuous
 62
     7
100
AcDbLine
 10
578.5447423986
 20
1053.3806577115
 30
0.0
 11
578.0447423618
 21
1053.3806577115
 31
0.0
  0
LINE
  5
476
330
1B
100
AcDbEntity
 67
     1
  8
7_ALL_FEATURES
  6
Continuous
 62
     7
100
AcDbLine
 10
578.0447423618
 20
1053.3806577115
 30
0.0
 11
578.0331296749
 21
1053.3806577115
 31
0.0
  0
LINE
  5
477
330
1B
100
AcDbEntity
 67
     1
  8
7_ALL_FEATURES
  6
Continuous
 62
     7
100
AcDbLine
 10
578.0331296749
 20
1053.3806577115
 30
0.0
 11
576.7447423948
 21
1053.3806577115
 31
0.0
  0
LINE
  5
478
330
1B
100
AcDbEntity
 67
     1
  8
7_ALL_FEATURES
  6
Continuous
 62
     7
100
AcDbLine
 10
576.7447423948
 20
1053.3806577115
 30
0.0
 11
574.6447423986
 21
1053.3806577115
 31
0.0
  0
LINE
  5
479
330
1B
100
AcDbEntity
 67
     1
  8
7_ALL_FEATURES
  6
Continuous
 62
     7
100
AcDbLine
 10
578.5447423986
 20
1053.3806577115
 30
0.0
 11
579.0447423986
 21
1052.8806577115
 31
0.0
  0
LINE
  5
47A
330
1B
100
AcDbEntity
 67
     1
  8
02___PRT_ALL_AXES
  6
Continuous
 62
     7
100
AcDbLine
 10
579.0447423986
 20
1043.3806577115
 30
0.0
 11
579.0447423986
 21
1048.6556577115
 31
0.0
  0
LINE
  5
47B
330
1B
100
AcDbEntity
 67
     1
  8
02___PRT_ALL_AXES
  6
Continuous
 62
     7
100
AcDbLine
 10
579.0447423986
 20
1048.6556577115
 30
0.0
 11
578.0197423986
 21
1049.6806577115
 31
0.0
  0
LINE
  5
47C
330
1B
100
AcDbEntity
 67
     1
  8
02___PRT_ALL_AXES
  6
Continuous
 62
     7
100
AcDbLine
 10
570.2447423986
 20
1050.7056577115
 30
0.0
 11
570.2447423986
 21
1052.8806577115
 31
0.0
  0
LINE
  5
47D
330
1B
100
AcDbEntity
 67
     1
  8
02___PRT_ALL_AXES
  6
Continuous
 62
     7
100
AcDbLine
 10
571.2697423986
 20
1049.6806577115
 30
0.0
 11
570.2447423986
 21
1050.7056577115
 31
0.0
  0
LINE
  5
47E
330
1B
100
AcDbEntity
 67
     1
  8
02___PRT_ALL_AXES
  6
Continuous
 62
     7
100
AcDbLine
 10
578.0197423986
 20
1049.6806577115
 30
0.0
 11
579.0447423986
 21
1050.7056577115
 31
0.0
  0
LINE
  5
47F
330
1B
100
AcDbEntity
 67
     1
  8
02___PRT_ALL_AXES
  6
Continuous
 62
     7
100
AcDbLine
 10
570.2447423986
 20
1048.6556577115
 30
0.0
 11
571.2697423986
 21
1049.6806577115
 31
0.0
  0
LINE
  5
480
330
1B
100
AcDbEntity
 67
     1
  8
02___PRT_ALL_AXES
  6
Continuous
 62
     7
100
AcDbLine
 10
570.2447423986
 20
1043.3806577115
 30
0.0
 11
570.2447423986
 21
1048.6556577115
 31
0.0
  0
LINE
  5
481
330
1B
100
AcDbEntity
 67
     1
  8
02___PRT_ALL_AXES
  6
Continuous
 62
     7
100
AcDbLine
 10
579.0447423986
 20
1050.7056577115
 30
0.0
 11
579.0447423986
 21
1052.8806577115
 31
0.0
  0
LINE
  5
482
330
1B
100
AcDbEntity
 67
     1
  8
7_ALL_FEATURES
  6
Continuous
 62
     7
100
AcDbLine
 10
574.6447423986
 20
1052.8806577115
 30
0.0
 11
570.2447423986
 21
1052.8806577115
 31
0.0
  0
LINE
  5
483
330
1B
100
AcDbEntity
 67
     1
  8
02___PRT_ALL_AXES
  6
Continuous
 62
     7
100
AcDbLine
 10
579.0447423986
 20
1048.6556577115
 30
0.0
 11
574.6447423986
 21
1048.6556577115
 31
0.0
  0
LINE
  5
484
330
1B
100
AcDbEntity
 67
     1
  8
02___PRT_ALL_AXES
  6
Continuous
 62
     7
100
AcDbLine
 10
570.2447423986
 20
1050.7056577115
 30
0.0
 11
574.6447423986
 21
1050.7056577115
 31
0.0
  0
LINE
  5
485
330
1B
100
AcDbEntity
 67
     1
  8
02___PRT_ALL_AXES
  6
Continuous
 62
     7
100
AcDbLine
 10
578.0197423986
 20
1049.6806577115
 30
0.0
 11
574.6447423986
 21
1049.6806577115
 31
0.0
  0
LINE
  5
486
330
1B
100
AcDbEntity
 67
     1
  8
02___PRT_ALL_AXES
  6
Continuous
 62
     7
100
AcDbLine
 10
571.2697423986
 20
1049.6806577115
 30
0.0
 11
574.6447423986
 21
1049.6806577115
 31
0.0
  0
LINE
  5
487
330
1B
100
AcDbEntity
 67
     1
  8
02___PRT_ALL_AXES
  6
Continuous
 62
     7
100
AcDbLine
 10
570.2447423986
 20
1048.6556577115
 30
0.0
 11
574.6447423986
 21
1048.6556577115
 31
0.0
  0
LINE
  5
488
330
1B
100
AcDbEntity
 67
     1
  8
7_ALL_FEATURES
  6
Continuous
 62
     7
100
AcDbLine
 10
579.0447423986
 20
1052.8806577115
 30
0.0
 11
574.6447423986
 21
1052.8806577115
 31
0.0
  0
LINE
  5
489
330
1B
100
AcDbEntity
 67
     1
  8
02___PRT_ALL_AXES
  6
Continuous
 62
     7
100
AcDbLine
 10
579.0447423986
 20
1050.7056577115
 30
0.0
 11
574.6447423986
 21
1050.7056577115
 31
0.0
  0
ARC
  5
48A
330
1B
100
AcDbEntity
 67
     1
  8
7_ALL_FEATURES
  6
Continuous
 62
     7
100
AcDbCircle
 10
571.2447423986
 20
1053.4806577115
 30
0.0
 40
0.1
100
AcDbArc
 50
180.0
 51
270.0
  0
ARC
  5
48B
330
1B
100
AcDbEntity
 67
     1
  8
7_ALL_FEATURES
  6
Continuous
 62
     7
100
AcDbCircle
 10
578.0447423986
 20
1053.4806577115
 30
0.0
 40
0.1
100
AcDbArc
 50
270.0
 51
360.0
  0
ARC
  5
48C
330
1B
100
AcDbEntity
 67
     1
  8
7_ALL_FEATURES
  6
Continuous
 62
     7
100
AcDbCircle
 10
571.2447423986
 20
1057.2806577115
 30
0.0
 40
0.1
100
AcDbArc
 50
90.0
 51
180.0
  0
LINE
  5
48D
330
1B
100
AcDbEntity
 67
     1
  8
7_ALL_FEATURES
  6
Continuous
 62
     7
100
AcDbLine
 10
574.6447423986
 20
1057.3806577115
 30
0.0
 11
571.2447424003
 21
1057.3806577115
 31
0.0
  0
LINE
  5
48E
330
1B
100
AcDbEntity
 67
     1
  8
7_ALL_FEATURES
  6
Continuous
 62
     7
100
AcDbLine
 10
571.2447423986
 20
1057.3806577115
 30
0.0
 11
574.6447423986
 21
1057.3806577115
 31
0.0
  0
LINE
  5
48F
330
1B
100
AcDbEntity
 67
     1
  8
7_ALL_FEATURES
  6
Continuous
 62
     7
100
AcDbLine
 10
578.044742397
 20
1057.3806577115
 30
0.0
 11
577.9930819115
 21
1057.3806577115
 31
0.0
  0
LINE
  5
490
330
1B
100
AcDbEntity
 67
     1
  8
7_ALL_FEATURES
  6
Continuous
 62
     7
100
AcDbLine
 10
577.9930819115
 20
1057.3806577115
 30
0.0
 11
574.6447423986
 21
1057.3806577115
 31
0.0
  0
ARC
  5
491
330
1B
100
AcDbEntity
 67
     1
  8
7_ALL_FEATURES
  6
Continuous
 62
     7
100
AcDbCircle
 10
578.0447423986
 20
1057.2806577115
 30
0.0
 40
0.1
100
AcDbArc
 50
0.0
 51
90.0
  0
LINE
  5
492
330
1B
100
AcDbEntity
 67
     1
  8
7_ALL_FEATURES
  6
Continuous
 62
     7
100
AcDbLine
 10
578.0331296749
 20
1057.3806577115
 30
0.0
 11
578.0447423986
 21
1057.3806577115
 31
0.0
  0
LINE
  5
493
330
1B
100
AcDbEntity
 67
     1
  8
7_ALL_FEATURES
  6
Continuous
 62
     7
100
AcDbLine
 10
574.6447423986
 20
1057.3806577115
 30
0.0
 11
578.0331296749
 21
1057.3806577115
 31
0.0
  0
LINE
  5
494
330
1B
100
AcDbEntity
 67
     1
  8
3_ALL_AXES
  6
Continuous
 62
     7
100
AcDbLine
 10
571.1447423986
 20
1053.4806577115
 30
0.0
 11
571.1447423986
 21
1057.2806577115
 31
0.0
  0
LINE
  5
495
330
1B
100
AcDbEntity
 67
     1
  8
3_ALL_AXES
  6
Continuous
 62
     7
100
AcDbLine
 10
578.1447423986
 20
1053.4806577115
 30
0.0
 11
578.1447423986
 21
1057.2806577115
 31
0.0
  0
LINE
  5
496
330
1B
100
AcDbEntity
 67
     1
  8
7_ALL_FEATURES
  6
Continuous
 62
     9
100
AcDbLine
 10
574.6447423986
 20
1057.2806577115
 30
0.0
 11
571.1447423986
 21
1057.2806577115
 31
0.0
  0
LINE
  5
497
330
1B
100
AcDbEntity
 67
     1
  8
7_ALL_FEATURES
  6
Continuous
 62
     9
100
AcDbLine
 10
578.1447423986
 20
1057.2806577115
 30
0.0
 11
574.6447423986
 21
1057.2806577115
 31
0.0
  0
LINE
  5
498
330
1B
100
AcDbEntity
 67
     1
  8
7_ALL_FEATURES
  6
Continuous
 62
     9
100
AcDbLine
 10
578.1447423986
 20
1053.4806577115
 30
0.0
 11
574.6447423986
 21
1053.4806577115
 31
0.0
  0
LINE
  5
499
330
1B
100
AcDbEntity
 67
     1
  8
7_ALL_FEATURES
  6
Continuous
 62
     9
100
AcDbLine
 10
574.6447423986
 20
1053.4806577115
 30
0.0
 11
571.1447423986
 21
1053.4806577115
 31
0.0
  0
LINE
  5
49A
330
1B
100
AcDbEntity
 67
     1
  8
7_ALL_FEATURES
  6
Continuous
 62
     7
100
AcDbLine
 10
667.6447423986
 20
364.3806577115
 30
0.0
 11
665.6447423986
 21
364.3806577115
 31
0.0
  0
LINE
  5
49B
330
1B
100
AcDbEntity
 67
     1
  8
7_ALL_FEATURES
  6
Continuous
 62
     7
100
AcDbLine
 10
562.6447423986
 20
368.3806577115
 30
0.0
 11
562.6447423986
 21
364.3806577115
 31
0.0
  0
LINE
  5
49C
330
1B
100
AcDbEntity
 67
     1
  8
7_ALL_FEATURES
  6
Continuous
 62
     7
100
AcDbLine
 10
667.6447423986
 20
368.3806577115
 30
0.0
 11
667.6447423986
 21
364.3806577115
 31
0.0
  0
LINE
  5
49D
330
1B
100
AcDbEntity
 67
     1
  8
7_ALL_FEATURES
  6
Continuous
 62
     7
100
AcDbLine
 10
564.6447423986
 20
364.3806577115
 30
0.0
 11
562.6447423986
 21
364.3806577115
 31
0.0
  0
LINE
  5
49E
330
1B
100
AcDbEntity
 67
     1
  8
7_ALL_FEATURES
  6
Continuous
 62
     7
100
AcDbLine
 10
564.6447423986
 20
364.3806577115
 30
0.0
 11
665.6447423986
 21
364.3806577115
 31
0.0
  0
LINE
  5
49F
330
1B
100
AcDbEntity
 67
     1
  8
7_ALL_FEATURES
  6
Continuous
 62
     7
100
AcDbLine
 10
562.6447423986
 20
368.3806577115
 30
0.0
 11
564.6447423986
 21
368.3806577115
 31
0.0
  0
LINE
  5
4A0
330
1B
100
AcDbEntity
 67
     1
  8
7_ALL_FEATURES
  6
Continuous
 62
     7
100
AcDbLine
 10
564.6447423986
 20
368.3806577115
 30
0.0
 11
665.6447423986
 21
368.3806577115
 31
0.0
  0
LINE
  5
4A1
330
1B
100
AcDbEntity
 67
     1
  8
7_ALL_FEATURES
  6
Continuous
 62
     7
100
AcDbLine
 10
665.6447423986
 20
368.3806577115
 30
0.0
 11
667.6447423986
 21
368.3806577115
 31
0.0
  0
LINE
  5
4A2
330
1B
100
AcDbEntity
 67
     1
  8
7_ALL_FEATURES
  6
Continuous
 62
     7
100
AcDbLine
 10
564.6447423986
 20
368.3806577115
 30
0.0
 11
564.6447423986
 21
364.3806577115
 31
0.0
  0
LINE
  5
4A3
330
1B
100
AcDbEntity
 67
     1
  8
7_ALL_FEATURES
  6
Continuous
 62
     7
100
AcDbLine
 10
665.6447423986
 20
368.3806577115
 30
0.0
 11
665.6447423986
 21
364.3806577115
 31
0.0
  0
LINE
  5
4A4
330
1B
100
AcDbEntity
 67
     1
  8
7_ALL_FEATURES
  6
Continuous
 62
     7
100
AcDbLine
 10
565.1447423986
 20
1043.3806577115
 30
0.0
 11
665.1447423986
 21
1043.3806577115
 31
0.0
  0
LINE
  5
4A5
330
1B
100
AcDbEntity
 67
     1
  8
7_ALL_FEATURES
  6
Continuous
 62
     7
100
AcDbLine
 10
665.1447423986
 20
368.3806577115
 30
0.0
 11
665.1447423986
 21
1043.3806577115
 31
0.0
  0
LINE
  5
4A6
330
1B
100
AcDbEntity
 67
     1
  8
7_ALL_FEATURES
  6
Continuous
 62
     7
100
AcDbLine
 10
565.1447423986
 20
368.3806577115
 30
0.0
 11
565.1447423986
 21
1043.3806577115
 31
0.0
  0
ARC
  5
4A7
330
1B
100
AcDbEntity
 67
     1
  8
02___PRT_ALL_AXES
  6
Continuous
 62
     7
100
AcDbCircle
 10
655.6447423986
 20
378.6306577115
 30
0.0
 40
5.25
100
AcDbArc
 50
0.0
 51
180.0
  0
ARC
  5
4A8
330
1B
100
AcDbEntity
 67
     1
  8
02___PRT_ALL_AXES
  6
Continuous
 62
     7
100
AcDbCircle
 10
655.6447423986
 20
378.6306577115
 30
0.0
 40
5.25
100
AcDbArc
 50
180.0
 51
360.0
  0
ARC
  5
4A9
330
1B
100
AcDbEntity
 67
     1
  8
02___PRT_ALL_AXES
  6
Continuous
 62
     7
100
AcDbCircle
 10
574.6447423986
 20
378.6306577115
 30
0.0
 40
5.25
100
AcDbArc
 50
180.0
 51
360.0
  0
ARC
  5
4AA
330
1B
100
AcDbEntity
 67
     1
  8
02___PRT_ALL_AXES
  6
Continuous
 62
     7
100
AcDbCircle
 10
574.6447423986
 20
378.6306577115
 30
0.0
 40
5.25
100
AcDbArc
 50
0.0
 51
180.0
  0
LINE
  5
4AB
330
1B
100
AcDbEntity
 67
     1
  8
7_ALL_FEATURES
  6
Continuous
 62
     7
100
AcDbLine
 10
209.6987964527
 20
1053.3806577115
 30
0.0
 11
207.5987964527
 21
1053.3806577115
 31
0.0
  0
LINE
  5
4AC
330
1B
100
AcDbEntity
 67
     1
  8
7_ALL_FEATURES
  6
Continuous
 62
     7
100
AcDbLine
 10
207.5987964527
 20
1053.3806577115
 30
0.0
 11
206.3104091765
 21
1053.3806577115
 31
0.0
  0
LINE
  5
4AD
330
1B
100
AcDbEntity
 67
     1
  8
7_ALL_FEATURES
  6
Continuous
 62
     7
100
AcDbLine
 10
206.3104091765
 20
1053.3806577115
 30
0.0
 11
206.2987964527
 21
1053.3806577115
 31
0.0
  0
LINE
  5
4AE
330
1B
100
AcDbEntity
 67
     1
  8
7_ALL_FEATURES
  6
Continuous
 62
     7
100
AcDbLine
 10
206.2987964527
 20
1053.3806577115
 30
0.0
 11
205.7987964527
 21
1053.3806577115
 31
0.0
  0
LINE
  5
4AF
330
1B
100
AcDbEntity
 67
     1
  8
7_ALL_FEATURES
  6
Continuous
 62
     7
100
AcDbLine
 10
213.5987964527
 20
1053.3806577115
 30
0.0
 11
213.0987964158
 21
1053.3806577115
 31
0.0
  0
LINE
  5
4B0
330
1B
100
AcDbEntity
 67
     1
  8
7_ALL_FEATURES
  6
Continuous
 62
     7
100
AcDbLine
 10
213.0987964158
 20
1053.3806577115
 30
0.0
 11
213.0871837289
 21
1053.3806577115
 31
0.0
  0
LINE
  5
4B1
330
1B
100
AcDbEntity
 67
     1
  8
7_ALL_FEATURES
  6
Continuous
 62
     7
100
AcDbLine
 10
213.0871837289
 20
1053.3806577115
 30
0.0
 11
211.7987964489
 21
1053.3806577115
 31
0.0
  0
LINE
  5
4B2
330
1B
100
AcDbEntity
 67
     1
  8
7_ALL_FEATURES
  6
Continuous
 62
     7
100
AcDbLine
 10
211.7987964489
 20
1053.3806577115
 30
0.0
 11
209.6987964527
 21
1053.3806577115
 31
0.0
  0
LINE
  5
4B3
330
1B
100
AcDbEntity
 67
     1
  8
7_ALL_FEATURES
  6
Continuous
 62
     7
100
AcDbLine
 10
213.5987964527
 20
1053.3806577115
 30
0.0
 11
214.0987964527
 21
1052.8806577115
 31
0.0
  0
LINE
  5
4B4
330
1B
100
AcDbEntity
 67
     1
  8
7_ALL_FEATURES
  6
Continuous
 62
     7
100
AcDbLine
 10
205.7987964527
 20
1053.3806577115
 30
0.0
 11
205.2987964527
 21
1052.8806577115
 31
0.0
  0
LINE
  5
4B5
330
1B
100
AcDbEntity
 67
     1
  8
02___PRT_ALL_AXES
  6
Continuous
 62
     7
100
AcDbLine
 10
214.0987964527
 20
1050.7056577115
 30
0.0
 11
214.0987964527
 21
1052.8806577115
 31
0.0
  0
LINE
  5
4B6
330
1B
100
AcDbEntity
 67
     1
  8
02___PRT_ALL_AXES
  6
Continuous
 62
     7
100
AcDbLine
 10
213.0737964527
 20
1049.6806577115
 30
0.0
 11
214.0987964527
 21
1050.7056577115
 31
0.0
  0
LINE
  5
4B7
330
1B
100
AcDbEntity
 67
     1
  8
02___PRT_ALL_AXES
  6
Continuous
 62
     7
100
AcDbLine
 10
205.2987964527
 20
1043.3806577115
 30
0.0
 11
205.2987964527
 21
1048.6556577115
 31
0.0
  0
LINE
  5
4B8
330
1B
100
AcDbEntity
 67
     1
  8
02___PRT_ALL_AXES
  6
Continuous
 62
     7
100
AcDbLine
 10
214.0987964527
 20
1048.6556577115
 30
0.0
 11
213.0737964527
 21
1049.6806577115
 31
0.0
  0
LINE
  5
4B9
330
1B
100
AcDbEntity
 67
     1
  8
02___PRT_ALL_AXES
  6
Continuous
 62
     7
100
AcDbLine
 10
205.2987964527
 20
1048.6556577115
 30
0.0
 11
206.3237964527
 21
1049.6806577115
 31
0.0
  0
LINE
  5
4BA
330
1B
100
AcDbEntity
 67
     1
  8
02___PRT_ALL_AXES
  6
Continuous
 62
     7
100
AcDbLine
 10
206.3237964527
 20
1049.6806577115
 30
0.0
 11
205.2987964527
 21
1050.7056577115
 31
0.0
  0
LINE
  5
4BB
330
1B
100
AcDbEntity
 67
     1
  8
02___PRT_ALL_AXES
  6
Continuous
 62
     7
100
AcDbLine
 10
214.0987964527
 20
1043.3806577115
 30
0.0
 11
214.0987964527
 21
1048.6556577115
 31
0.0
  0
LINE
  5
4BC
330
1B
100
AcDbEntity
 67
     1
  8
02___PRT_ALL_AXES
  6
Continuous
 62
     7
100
AcDbLine
 10
205.2987964527
 20
1050.7056577115
 30
0.0
 11
205.2987964527
 21
1052.8806577115
 31
0.0
  0
LINE
  5
4BD
330
1B
100
AcDbEntity
 67
     1
  8
02___PRT_ALL_AXES
  6
Continuous
 62
     7
100
AcDbLine
 10
209.6987964527
 20
1049.6806577115
 30
0.0
 11
206.3237964527
 21
1049.6806577115
 31
0.0
  0
LINE
  5
4BE
330
1B
100
AcDbEntity
 67
     1
  8
02___PRT_ALL_AXES
  6
Continuous
 62
     7
100
AcDbLine
 10
209.6987964527
 20
1048.6556577115
 30
0.0
 11
205.2987964527
 21
1048.6556577115
 31
0.0
  0
LINE
  5
4BF
330
1B
100
AcDbEntity
 67
     1
  8
02___PRT_ALL_AXES
  6
Continuous
 62
     7
100
AcDbLine
 10
209.6987964527
 20
1050.7056577115
 30
0.0
 11
214.0987964527
 21
1050.7056577115
 31
0.0
  0
LINE
  5
4C0
330
1B
100
AcDbEntity
 67
     1
  8
02___PRT_ALL_AXES
  6
Continuous
 62
     7
100
AcDbLine
 10
209.6987964527
 20
1048.6556577115
 30
0.0
 11
214.0987964527
 21
1048.6556577115
 31
0.0
  0
LINE
  5
4C1
330
1B
100
AcDbEntity
 67
     1
  8
7_ALL_FEATURES
  6
Continuous
 62
     7
100
AcDbLine
 10
214.0987964527
 20
1052.8806577115
 30
0.0
 11
209.6987964527
 21
1052.8806577115
 31
0.0
  0
LINE
  5
4C2
330
1B
100
AcDbEntity
 67
     1
  8
02___PRT_ALL_AXES
  6
Continuous
 62
     7
100
AcDbLine
 10
209.6987964527
 20
1049.6806577115
 30
0.0
 11
213.0737964527
 21
1049.6806577115
 31
0.0
  0
LINE
  5
4C3
330
1B
100
AcDbEntity
 67
     1
  8
7_ALL_FEATURES
  6
Continuous
 62
     7
100
AcDbLine
 10
209.6987964527
 20
1052.8806577115
 30
0.0
 11
205.2987964527
 21
1052.8806577115
 31
0.0
  0
LINE
  5
4C4
330
1B
100
AcDbEntity
 67
     1
  8
02___PRT_ALL_AXES
  6
Continuous
 62
     7
100
AcDbLine
 10
209.6987964527
 20
1050.7056577115
 30
0.0
 11
205.2987964527
 21
1050.7056577115
 31
0.0
  0
ARC
  5
4C5
330
1B
100
AcDbEntity
 67
     1
  8
7_ALL_FEATURES
  6
Continuous
 62
     7
100
AcDbCircle
 10
213.0987964527
 20
1053.4806577115
 30
0.0
 40
0.1
100
AcDbArc
 50
270.0
 51
360.0
  0
ARC
  5
4C6
330
1B
100
AcDbEntity
 67
     1
  8
7_ALL_FEATURES
  6
Continuous
 62
     7
100
AcDbCircle
 10
206.2987964527
 20
1053.4806577115
 30
0.0
 40
0.1
100
AcDbArc
 50
180.0
 51
270.0
  0
LINE
  5
4C7
330
1B
100
AcDbEntity
 67
     1
  8
7_ALL_FEATURES
  6
Continuous
 62
     7
100
AcDbLine
 10
213.0987964511
 20
1057.3806577115
 30
0.0
 11
213.0471359656
 21
1057.3806577115
 31
0.0
  0
LINE
  5
4C8
330
1B
100
AcDbEntity
 67
     1
  8
7_ALL_FEATURES
  6
Continuous
 62
     7
100
AcDbLine
 10
213.0471359656
 20
1057.3806577115
 30
0.0
 11
209.6987964527
 21
1057.3806577115
 31
0.0
  0
ARC
  5
4C9
330
1B
100
AcDbEntity
 67
     1
  8
7_ALL_FEATURES
  6
Continuous
 62
     7
100
AcDbCircle
 10
213.0987964527
 20
1057.2806577115
 30
0.0
 40
0.1
100
AcDbArc
 50
0.0
 51
90.0
  0
LINE
  5
4CA
330
1B
100
AcDbEntity
 67
     1
  8
7_ALL_FEATURES
  6
Continuous
 62
     7
100
AcDbLine
 10
213.0871837289
 20
1057.3806577115
 30
0.0
 11
213.0987964527
 21
1057.3806577115
 31
0.0
  0
LINE
  5
4CB
330
1B
100
AcDbEntity
 67
     1
  8
7_ALL_FEATURES
  6
Continuous
 62
     7
100
AcDbLine
 10
209.6987964527
 20
1057.3806577115
 30
0.0
 11
213.0871837289
 21
1057.3806577115
 31
0.0
  0
ARC
  5
4CC
330
1B
100
AcDbEntity
 67
     1
  8
7_ALL_FEATURES
  6
Continuous
 62
     7
100
AcDbCircle
 10
206.2987964527
 20
1057.2806577115
 30
0.0
 40
0.1
100
AcDbArc
 50
90.0
 51
180.0
  0
LINE
  5
4CD
330
1B
100
AcDbEntity
 67
     1
  8
7_ALL_FEATURES
  6
Continuous
 62
     7
100
AcDbLine
 10
209.6987964527
 20
1057.3806577115
 30
0.0
 11
206.2987964543
 21
1057.3806577115
 31
0.0
  0
LINE
  5
4CE
330
1B
100
AcDbEntity
 67
     1
  8
7_ALL_FEATURES
  6
Continuous
 62
     7
100
AcDbLine
 10
206.2987964527
 20
1057.3806577115
 30
0.0
 11
209.6987964527
 21
1057.3806577115
 31
0.0
  0
LINE
  5
4CF
330
1B
100
AcDbEntity
 67
     1
  8
3_ALL_AXES
  6
Continuous
 62
     7
100
AcDbLine
 10
213.1987964527
 20
1053.4806577115
 30
0.0
 11
213.1987964527
 21
1057.2806577115
 31
0.0
  0
LINE
  5
4D0
330
1B
100
AcDbEntity
 67
     1
  8
3_ALL_AXES
  6
Continuous
 62
     7
100
AcDbLine
 10
206.1987964527
 20
1053.4806577115
 30
0.0
 11
206.1987964527
 21
1057.2806577115
 31
0.0
  0
LINE
  5
4D1
330
1B
100
AcDbEntity
 67
     1
  8
7_ALL_FEATURES
  6
Continuous
 62
     9
100
AcDbLine
 10
209.6987964527
 20
1057.2806577115
 30
0.0
 11
206.1987964527
 21
1057.2806577115
 31
0.0
  0
LINE
  5
4D2
330
1B
100
AcDbEntity
 67
     1
  8
7_ALL_FEATURES
  6
Continuous
 62
     9
100
AcDbLine
 10
209.6987964527
 20
1053.4806577115
 30
0.0
 11
206.1987964527
 21
1053.4806577115
 31
0.0
  0
LINE
  5
4D3
330
1B
100
AcDbEntity
 67
     1
  8
7_ALL_FEATURES
  6
Continuous
 62
     9
100
AcDbLine
 10
213.1987964527
 20
1053.4806577115
 30
0.0
 11
209.6987964527
 21
1053.4806577115
 31
0.0
  0
LINE
  5
4D4
330
1B
100
AcDbEntity
 67
     1
  8
7_ALL_FEATURES
  6
Continuous
 62
     9
100
AcDbLine
 10
213.1987964527
 20
1057.2806577115
 30
0.0
 11
209.6987964527
 21
1057.2806577115
 31
0.0
  0
LINE
  5
4D5
330
1B
100
AcDbEntity
 67
     1
  8
7_ALL_FEATURES
  6
Continuous
 62
     7
100
AcDbLine
 10
127.8327710489
 20
380.1306577115
 30
0.0
 11
126.9667456451
 21
378.6306577115
 31
0.0
  0
LINE
  5
4D6
330
1B
100
AcDbEntity
 67
     1
  8
7_ALL_FEATURES
  6
Continuous
 62
     7
100
AcDbLine
 10
126.9667456451
 20
378.6306577115
 30
0.0
 11
127.8327710489
 21
377.1306577115
 31
0.0
  0
LINE
  5
4D7
330
1B
100
AcDbEntity
 67
     1
  8
7_ALL_FEATURES
  6
Continuous
 62
     7
100
AcDbLine
 10
127.8327710489
 20
377.1306577115
 30
0.0
 11
129.5648218565
 21
377.1306577115
 31
0.0
  0
LINE
  5
4D8
330
1B
100
AcDbEntity
 67
     1
  8
7_ALL_FEATURES
  6
Continuous
 62
     7
100
AcDbLine
 10
129.5648218565
 20
377.1306577115
 30
0.0
 11
130.4308472603
 21
378.6306577115
 31
0.0
  0
LINE
  5
4D9
330
1B
100
AcDbEntity
 67
     1
  8
7_ALL_FEATURES
  6
Continuous
 62
     7
100
AcDbLine
 10
130.4308472603
 20
378.6306577115
 30
0.0
 11
129.5648218565
 21
380.1306577115
 31
0.0
  0
LINE
  5
4DA
330
1B
100
AcDbEntity
 67
     1
  8
7_ALL_FEATURES
  6
Continuous
 62
     7
100
AcDbLine
 10
129.5648218565
 20
380.1306577115
 30
0.0
 11
127.8327710489
 21
380.1306577115
 31
0.0
  0
ARC
  5
4DB
330
1B
100
AcDbEntity
 67
     1
  8
3_ALL_AXES
  6
Continuous
 62
     7
100
AcDbCircle
 10
128.6987964527
 20
378.6306577115
 30
0.0
 40
5.0
100
AcDbArc
 50
0.0
 51
180.0
  0
ARC
  5
4DC
330
1B
100
AcDbEntity
 67
     1
  8
3_ALL_AXES
  6
Continuous
 62
     7
100
AcDbCircle
 10
128.6987964527
 20
378.6306577115
 30
0.0
 40
5.0
100
AcDbArc
 50
180.0
 51
360.0
  0
LINE
  5
4DD
330
1B
100
AcDbEntity
 67
     1
  8
7_ALL_FEATURES
  6
Continuous
 62
     7
100
AcDbLine
 10
208.8327710489
 20
380.1306577115
 30
0.0
 11
207.9667456451
 21
378.6306577115
 31
0.0
  0
LINE
  5
4DE
330
1B
100
AcDbEntity
 67
     1
  8
7_ALL_FEATURES
  6
Continuous
 62
     7
100
AcDbLine
 10
207.9667456451
 20
378.6306577115
 30
0.0
 11
208.8327710489
 21
377.1306577115
 31
0.0
  0
LINE
  5
4DF
330
1B
100
AcDbEntity
 67
     1
  8
7_ALL_FEATURES
  6
Continuous
 62
     7
100
AcDbLine
 10
208.8327710489
 20
377.1306577115
 30
0.0
 11
210.5648218565
 21
377.1306577115
 31
0.0
  0
LINE
  5
4E0
330
1B
100
AcDbEntity
 67
     1
  8
7_ALL_FEATURES
  6
Continuous
 62
     7
100
AcDbLine
 10
210.5648218565
 20
377.1306577115
 30
0.0
 11
211.4308472603
 21
378.6306577115
 31
0.0
  0
LINE
  5
4E1
330
1B
100
AcDbEntity
 67
     1
  8
7_ALL_FEATURES
  6
Continuous
 62
     7
100
AcDbLine
 10
211.4308472603
 20
378.6306577115
 30
0.0
 11
210.5648218565
 21
380.1306577115
 31
0.0
  0
LINE
  5
4E2
330
1B
100
AcDbEntity
 67
     1
  8
7_ALL_FEATURES
  6
Continuous
 62
     7
100
AcDbLine
 10
210.5648218565
 20
380.1306577115
 30
0.0
 11
208.8327710489
 21
380.1306577115
 31
0.0
  0
ARC
  5
4E3
330
1B
100
AcDbEntity
 67
     1
  8
3_ALL_AXES
  6
Continuous
 62
     7
100
AcDbCircle
 10
209.6987964527
 20
378.6306577115
 30
0.0
 40
5.0
100
AcDbArc
 50
0.0
 51
180.0
  0
ARC
  5
4E4
330
1B
100
AcDbEntity
 67
     1
  8
3_ALL_AXES
  6
Continuous
 62
     7
100
AcDbCircle
 10
209.6987964527
 20
378.6306577115
 30
0.0
 40
5.0
100
AcDbArc
 50
180.0
 51
360.0
  0
LINE
  5
4E5
330
1B
100
AcDbEntity
 67
     1
  8
7_ALL_FEATURES
  6
Continuous
 62
     7
100
AcDbLine
 10
128.6987964527
 20
1053.3806577115
 30
0.0
 11
126.5987964527
 21
1053.3806577115
 31
0.0
  0
LINE
  5
4E6
330
1B
100
AcDbEntity
 67
     1
  8
7_ALL_FEATURES
  6
Continuous
 62
     7
100
AcDbLine
 10
126.5987964527
 20
1053.3806577115
 30
0.0
 11
125.3104091765
 21
1053.3806577115
 31
0.0
  0
LINE
  5
4E7
330
1B
100
AcDbEntity
 67
     1
  8
7_ALL_FEATURES
  6
Continuous
 62
     7
100
AcDbLine
 10
125.3104091765
 20
1053.3806577115
 30
0.0
 11
125.2987964527
 21
1053.3806577115
 31
0.0
  0
LINE
  5
4E8
330
1B
100
AcDbEntity
 67
     1
  8
7_ALL_FEATURES
  6
Continuous
 62
     7
100
AcDbLine
 10
125.2987964527
 20
1053.3806577115
 30
0.0
 11
124.7987964527
 21
1053.3806577115
 31
0.0
  0
LINE
  5
4E9
330
1B
100
AcDbEntity
 67
     1
  8
7_ALL_FEATURES
  6
Continuous
 62
     7
100
AcDbLine
 10
132.5987964527
 20
1053.3806577115
 30
0.0
 11
132.0987964158
 21
1053.3806577115
 31
0.0
  0
LINE
  5
4EA
330
1B
100
AcDbEntity
 67
     1
  8
7_ALL_FEATURES
  6
Continuous
 62
     7
100
AcDbLine
 10
132.0987964158
 20
1053.3806577115
 30
0.0
 11
132.0871837289
 21
1053.3806577115
 31
0.0
  0
LINE
  5
4EB
330
1B
100
AcDbEntity
 67
     1
  8
7_ALL_FEATURES
  6
Continuous
 62
     7
100
AcDbLine
 10
132.0871837289
 20
1053.3806577115
 30
0.0
 11
130.7987964489
 21
1053.3806577115
 31
0.0
  0
LINE
  5
4EC
330
1B
100
AcDbEntity
 67
     1
  8
7_ALL_FEATURES
  6
Continuous
 62
     7
100
AcDbLine
 10
130.7987964489
 20
1053.3806577115
 30
0.0
 11
128.6987964527
 21
1053.3806577115
 31
0.0
  0
LINE
  5
4ED
330
1B
100
AcDbEntity
 67
     1
  8
7_ALL_FEATURES
  6
Continuous
 62
     7
100
AcDbLine
 10
132.5987964527
 20
1053.3806577115
 30
0.0
 11
133.0987964527
 21
1052.8806577115
 31
0.0
  0
LINE
  5
4EE
330
1B
100
AcDbEntity
 67
     1
  8
7_ALL_FEATURES
  6
Continuous
 62
     7
100
AcDbLine
 10
124.7987964527
 20
1053.3806577115
 30
0.0
 11
124.2987964527
 21
1052.8806577115
 31
0.0
  0
LINE
  5
4EF
330
1B
100
AcDbEntity
 67
     1
  8
02___PRT_ALL_AXES
  6
Continuous
 62
     7
100
AcDbLine
 10
133.0987964527
 20
1050.7056577115
 30
0.0
 11
133.0987964527
 21
1052.8806577115
 31
0.0
  0
LINE
  5
4F0
330
1B
100
AcDbEntity
 67
     1
  8
02___PRT_ALL_AXES
  6
Continuous
 62
     7
100
AcDbLine
 10
132.0737964527
 20
1049.6806577115
 30
0.0
 11
133.0987964527
 21
1050.7056577115
 31
0.0
  0
LINE
  5
4F1
330
1B
100
AcDbEntity
 67
     1
  8
02___PRT_ALL_AXES
  6
Continuous
 62
     7
100
AcDbLine
 10
124.2987964527
 20
1043.3806577115
 30
0.0
 11
124.2987964527
 21
1048.6556577115
 31
0.0
  0
LINE
  5
4F2
330
1B
100
AcDbEntity
 67
     1
  8
02___PRT_ALL_AXES
  6
Continuous
 62
     7
100
AcDbLine
 10
133.0987964527
 20
1048.6556577115
 30
0.0
 11
132.0737964527
 21
1049.6806577115
 31
0.0
  0
LINE
  5
4F3
330
1B
100
AcDbEntity
 67
     1
  8
02___PRT_ALL_AXES
  6
Continuous
 62
     7
100
AcDbLine
 10
124.2987964527
 20
1048.6556577115
 30
0.0
 11
125.3237964527
 21
1049.6806577115
 31
0.0
  0
LINE
  5
4F4
330
1B
100
AcDbEntity
 67
     1
  8
02___PRT_ALL_AXES
  6
Continuous
 62
     7
100
AcDbLine
 10
125.3237964527
 20
1049.6806577115
 30
0.0
 11
124.2987964527
 21
1050.7056577115
 31
0.0
  0
LINE
  5
4F5
330
1B
100
AcDbEntity
 67
     1
  8
02___PRT_ALL_AXES
  6
Continuous
 62
     7
100
AcDbLine
 10
133.0987964527
 20
1043.3806577115
 30
0.0
 11
133.0987964527
 21
1048.6556577115
 31
0.0
  0
LINE
  5
4F6
330
1B
100
AcDbEntity
 67
     1
  8
02___PRT_ALL_AXES
  6
Continuous
 62
     7
100
AcDbLine
 10
124.2987964527
 20
1050.7056577115
 30
0.0
 11
124.2987964527
 21
1052.8806577115
 31
0.0
  0
LINE
  5
4F7
330
1B
100
AcDbEntity
 67
     1
  8
02___PRT_ALL_AXES
  6
Continuous
 62
     7
100
AcDbLine
 10
128.6987964527
 20
1049.6806577115
 30
0.0
 11
125.3237964527
 21
1049.6806577115
 31
0.0
  0
LINE
  5
4F8
330
1B
100
AcDbEntity
 67
     1
  8
02___PRT_ALL_AXES
  6
Continuous
 62
     7
100
AcDbLine
 10
128.6987964527
 20
1048.6556577115
 30
0.0
 11
124.2987964527
 21
1048.6556577115
 31
0.0
  0
LINE
  5
4F9
330
1B
100
AcDbEntity
 67
     1
  8
02___PRT_ALL_AXES
  6
Continuous
 62
     7
100
AcDbLine
 10
128.6987964527
 20
1050.7056577115
 30
0.0
 11
133.0987964527
 21
1050.7056577115
 31
0.0
  0
LINE
  5
4FA
330
1B
100
AcDbEntity
 67
     1
  8
02___PRT_ALL_AXES
  6
Continuous
 62
     7
100
AcDbLine
 10
128.6987964527
 20
1048.6556577115
 30
0.0
 11
133.0987964527
 21
1048.6556577115
 31
0.0
  0
LINE
  5
4FB
330
1B
100
AcDbEntity
 67
     1
  8
7_ALL_FEATURES
  6
Continuous
 62
     7
100
AcDbLine
 10
133.0987964527
 20
1052.8806577115
 30
0.0
 11
128.6987964527
 21
1052.8806577115
 31
0.0
  0
LINE
  5
4FC
330
1B
100
AcDbEntity
 67
     1
  8
02___PRT_ALL_AXES
  6
Continuous
 62
     7
100
AcDbLine
 10
128.6987964527
 20
1049.6806577115
 30
0.0
 11
132.0737964527
 21
1049.6806577115
 31
0.0
  0
LINE
  5
4FD
330
1B
100
AcDbEntity
 67
     1
  8
7_ALL_FEATURES
  6
Continuous
 62
     7
100
AcDbLine
 10
128.6987964527
 20
1052.8806577115
 30
0.0
 11
124.2987964527
 21
1052.8806577115
 31
0.0
  0
LINE
  5
4FE
330
1B
100
AcDbEntity
 67
     1
  8
02___PRT_ALL_AXES
  6
Continuous
 62
     7
100
AcDbLine
 10
128.6987964527
 20
1050.7056577115
 30
0.0
 11
124.2987964527
 21
1050.7056577115
 31
0.0
  0
ARC
  5
4FF
330
1B
100
AcDbEntity
 67
     1
  8
7_ALL_FEATURES
  6
Continuous
 62
     7
100
AcDbCircle
 10
132.0987964527
 20
1053.4806577115
 30
0.0
 40
0.1
100
AcDbArc
 50
270.0
 51
360.0
  0
ARC
  5
500
330
1B
100
AcDbEntity
 67
     1
  8
7_ALL_FEATURES
  6
Continuous
 62
     7
100
AcDbCircle
 10
125.2987964527
 20
1053.4806577115
 30
0.0
 40
0.1
100
AcDbArc
 50
180.0
 51
270.0
  0
LINE
  5
501
330
1B
100
AcDbEntity
 67
     1
  8
7_ALL_FEATURES
  6
Continuous
 62
     7
100
AcDbLine
 10
132.0987964511
 20
1057.3806577115
 30
0.0
 11
132.0471359656
 21
1057.3806577115
 31
0.0
  0
LINE
  5
502
330
1B
100
AcDbEntity
 67
     1
  8
7_ALL_FEATURES
  6
Continuous
 62
     7
100
AcDbLine
 10
132.0471359656
 20
1057.3806577115
 30
0.0
 11
128.6987964527
 21
1057.3806577115
 31
0.0
  0
ARC
  5
503
330
1B
100
AcDbEntity
 67
     1
  8
7_ALL_FEATURES
  6
Continuous
 62
     7
100
AcDbCircle
 10
132.0987964527
 20
1057.2806577115
 30
0.0
 40
0.1
100
AcDbArc
 50
0.0
 51
90.0
  0
LINE
  5
504
330
1B
100
AcDbEntity
 67
     1
  8
7_ALL_FEATURES
  6
Continuous
 62
     7
100
AcDbLine
 10
132.0871837289
 20
1057.3806577115
 30
0.0
 11
132.0987964527
 21
1057.3806577115
 31
0.0
  0
LINE
  5
505
330
1B
100
AcDbEntity
 67
     1
  8
7_ALL_FEATURES
  6
Continuous
 62
     7
100
AcDbLine
 10
128.6987964527
 20
1057.3806577115
 30
0.0
 11
132.0871837289
 21
1057.3806577115
 31
0.0
  0
ARC
  5
506
330
1B
100
AcDbEntity
 67
     1
  8
7_ALL_FEATURES
  6
Continuous
 62
     7
100
AcDbCircle
 10
125.2987964527
 20
1057.2806577115
 30
0.0
 40
0.1
100
AcDbArc
 50
90.0
 51
180.0
  0
LINE
  5
507
330
1B
100
AcDbEntity
 67
     1
  8
7_ALL_FEATURES
  6
Continuous
 62
     7
100
AcDbLine
 10
128.6987964527
 20
1057.3806577115
 30
0.0
 11
125.2987964543
 21
1057.3806577115
 31
0.0
  0
LINE
  5
508
330
1B
100
AcDbEntity
 67
     1
  8
7_ALL_FEATURES
  6
Continuous
 62
     7
100
AcDbLine
 10
125.2987964527
 20
1057.3806577115
 30
0.0
 11
128.6987964527
 21
1057.3806577115
 31
0.0
  0
LINE
  5
509
330
1B
100
AcDbEntity
 67
     1
  8
3_ALL_AXES
  6
Continuous
 62
     7
100
AcDbLine
 10
132.1987964527
 20
1053.4806577115
 30
0.0
 11
132.1987964527
 21
1057.2806577115
 31
0.0
  0
LINE
  5
50A
330
1B
100
AcDbEntity
 67
     1
  8
3_ALL_AXES
  6
Continuous
 62
     7
100
AcDbLine
 10
125.1987964527
 20
1053.4806577115
 30
0.0
 11
125.1987964527
 21
1057.2806577115
 31
0.0
  0
LINE
  5
50B
330
1B
100
AcDbEntity
 67
     1
  8
7_ALL_FEATURES
  6
Continuous
 62
     9
100
AcDbLine
 10
128.6987964527
 20
1057.2806577115
 30
0.0
 11
125.1987964527
 21
1057.2806577115
 31
0.0
  0
LINE
  5
50C
330
1B
100
AcDbEntity
 67
     1
  8
7_ALL_FEATURES
  6
Continuous
 62
     9
100
AcDbLine
 10
128.6987964527
 20
1053.4806577115
 30
0.0
 11
125.1987964527
 21
1053.4806577115
 31
0.0
  0
LINE
  5
50D
330
1B
100
AcDbEntity
 67
     1
  8
7_ALL_FEATURES
  6
Continuous
 62
     9
100
AcDbLine
 10
132.1987964527
 20
1053.4806577115
 30
0.0
 11
128.6987964527
 21
1053.4806577115
 31
0.0
  0
LINE
  5
50E
330
1B
100
AcDbEntity
 67
     1
  8
7_ALL_FEATURES
  6
Continuous
 62
     9
100
AcDbLine
 10
132.1987964527
 20
1057.2806577115
 30
0.0
 11
128.6987964527
 21
1057.2806577115
 31
0.0
  0
LINE
  5
50F
330
1B
100
AcDbEntity
 67
     1
  8
7_ALL_FEATURES
  6
Continuous
 62
     7
100
AcDbLine
 10
221.6987964527
 20
368.3806577115
 30
0.0
 11
221.6987964527
 21
364.3806577115
 31
0.0
  0
LINE
  5
510
330
1B
100
AcDbEntity
 67
     1
  8
7_ALL_FEATURES
  6
Continuous
 62
     7
100
AcDbLine
 10
116.6987964527
 20
368.3806577115
 30
0.0
 11
116.6987964527
 21
364.3806577115
 31
0.0
  0
LINE
  5
511
330
1B
100
AcDbEntity
 67
     1
  8
7_ALL_FEATURES
  6
Continuous
 62
     7
100
AcDbLine
 10
116.6987964527
 20
368.3806577115
 30
0.0
 11
118.6987964527
 21
368.3806577115
 31
0.0
  0
LINE
  5
512
330
1B
100
AcDbEntity
 67
     1
  8
7_ALL_FEATURES
  6
Continuous
 62
     7
100
AcDbLine
 10
118.6987964527
 20
368.3806577115
 30
0.0
 11
219.6987964527
 21
368.3806577115
 31
0.0
  0
LINE
  5
513
330
1B
100
AcDbEntity
 67
     1
  8
7_ALL_FEATURES
  6
Continuous
 62
     7
100
AcDbLine
 10
219.6987964527
 20
368.3806577115
 30
0.0
 11
221.6987964527
 21
368.3806577115
 31
0.0
  0
LINE
  5
514
330
1B
100
AcDbEntity
 67
     1
  8
7_ALL_FEATURES
  6
Continuous
 62
     7
100
AcDbLine
 10
118.6987964527
 20
364.3806577115
 30
0.0
 11
116.6987964527
 21
364.3806577115
 31
0.0
  0
LINE
  5
515
330
1B
100
AcDbEntity
 67
     1
  8
7_ALL_FEATURES
  6
Continuous
 62
     7
100
AcDbLine
 10
118.6987964527
 20
364.3806577115
 30
0.0
 11
219.6987964527
 21
364.3806577115
 31
0.0
  0
LINE
  5
516
330
1B
100
AcDbEntity
 67
     1
  8
7_ALL_FEATURES
  6
Continuous
 62
     7
100
AcDbLine
 10
221.6987964527
 20
364.3806577115
 30
0.0
 11
219.6987964527
 21
364.3806577115
 31
0.0
  0
LINE
  5
517
330
1B
100
AcDbEntity
 67
     1
  8
7_ALL_FEATURES
  6
Continuous
 62
     7
100
AcDbLine
 10
118.6987964527
 20
368.3806577115
 30
0.0
 11
118.6987964527
 21
364.3806577115
 31
0.0
  0
LINE
  5
518
330
1B
100
AcDbEntity
 67
     1
  8
7_ALL_FEATURES
  6
Continuous
 62
     7
100
AcDbLine
 10
219.6987964527
 20
368.3806577115
 30
0.0
 11
219.6987964527
 21
364.3806577115
 31
0.0
  0
LINE
  5
519
330
1B
100
AcDbEntity
 67
     1
  8
7_ALL_FEATURES
  6
Continuous
 62
     7
100
AcDbLine
 10
119.1987964527
 20
1043.3806577115
 30
0.0
 11
219.1987964527
 21
1043.3806577115
 31
0.0
  0
LINE
  5
51A
330
1B
100
AcDbEntity
 67
     1
  8
7_ALL_FEATURES
  6
Continuous
 62
     7
100
AcDbLine
 10
119.1987964527
 20
368.3806577115
 30
0.0
 11
119.1987964527
 21
1043.3806577115
 31
0.0
  0
LINE
  5
51B
330
1B
100
AcDbEntity
 67
     1
  8
7_ALL_FEATURES
  6
Continuous
 62
     7
100
AcDbLine
 10
219.1987964527
 20
368.3806577115
 30
0.0
 11
219.1987964527
 21
1043.3806577115
 31
0.0
  0
ARC
  5
51C
330
1B
100
AcDbEntity
 67
     1
  8
02___PRT_ALL_AXES
  6
Continuous
 62
     7
100
AcDbCircle
 10
209.6987964527
 20
378.6306577115
 30
0.0
 40
5.25
100
AcDbArc
 50
180.0
 51
360.0
  0
ARC
  5
51D
330
1B
100
AcDbEntity
 67
     1
  8
02___PRT_ALL_AXES
  6
Continuous
 62
     7
100
AcDbCircle
 10
209.6987964527
 20
378.6306577115
 30
0.0
 40
5.25
100
AcDbArc
 50
0.0
 51
180.0
  0
ARC
  5
51E
330
1B
100
AcDbEntity
 67
     1
  8
02___PRT_ALL_AXES
  6
Continuous
 62
     7
100
AcDbCircle
 10
128.6987964527
 20
378.6306577115
 30
0.0
 40
5.25
100
AcDbArc
 50
180.0
 51
360.0
  0
ARC
  5
51F
330
1B
100
AcDbEntity
 67
     1
  8
02___PRT_ALL_AXES
  6
Continuous
 62
     7
100
AcDbCircle
 10
128.6987964527
 20
378.6306577115
 30
0.0
 40
5.25
100
AcDbArc
 50
0.0
 51
180.0
  0
DIMENSION
  5
520
330
1B
100
AcDbEntity
 67
     1
  8
0
  6
Continuous
 62
     2
100
AcDbDimension
280
     0
  2
*D1
 10
322.5774169932
 20
1245.5888407939
 30
0.0
 11
322.5774169932
 21
1193.2288728266
 31
0.0
 70
   160
 71
     5
 42
-1.0
 73
     0
 74
     0
 75
     0
  3
DIMSTYLE_1
100
AcDbAlignedDimension
 13
333.2499251014
 23
1140.5888407939
 33
0.0
 14
334.3835207771
 24
1245.5888407939
 34
0.0
 50
90.0
100
AcDbRotatedDimension
  0
DIMENSION
  5
521
330
1B
100
AcDbEntity
 67
     1
  8
0
  6
Continuous
 62
     2
100
AcDbDimension
280
     0
  2
*D2
 10
443.0514991554
 20
1257.8582797128
 30
0.0
 11
390.6915418837
 21
1257.8582797128
 31
0.0
 70
   160
 71
     5
 42
-1.0
 73
     0
 74
     0
 75
     0
  3
DIMSTYLE_1
100
AcDbAlignedDimension
 13
338.0514991554
 23
1249.8236170102
 33
0.0
 14
443.0514991554
 24
1248.6900213344
 34
0.0
100
AcDbRotatedDimension
  0
DIMENSION
  5
522
330
1B
100
AcDbEntity
 67
     1
  8
0
  6
Continuous
 62
     2
100
AcDbDimension
280
     0
  2
*D3
 10
314.6440808626
 20
368.3806577115
 30
0.0
 11
314.6440808626
 21
348.5348475088
 31
0.0
 70
   160
 71
     5
 42
-1.0
 73
     0
 74
     0
 75
     0
  3
DIMSTYLE_2
100
AcDbAlignedDimension
 13
340.0514991554
 23
364.3806577115
 33
0.0
 14
340.0514991554
 24
368.3806577115
 34
0.0
 50
90.0
100
AcDbRotatedDimension
  0
DIMENSION
  5
523
330
1B
100
AcDbEntity
 67
     1
  8
0
  6
Continuous
 62
     2
100
AcDbDimension
280
     0
  2
*D4
 10
314.6440808626
 20
1043.3806577115
 30
0.0
 11
314.6440808626
 21
705.8701500068
 31
0.0
 70
   160
 71
     5
 42
-1.0
 73
     0
 74
     0
 75
     0
  3
DIMSTYLE_3
100
AcDbAlignedDimension
 13
340.0514991554
 23
368.3806577115
 33
0.0
 14
340.5514991554
 24
1043.3806577115
 34
0.0
 50
90.0
100
AcDbRotatedDimension
  0
DIMENSION
  5
524
330
1B
100
AcDbEntity
 67
     1
  8
0
  6
Continuous
 62
     2
100
AcDbDimension
280
     0
  2
*D5
 10
314.6440808626
 20
1057.3806577115
 30
0.0
 11
314.6440808626
 21
1050.5120315091
 31
0.0
 70
   160
 71
     5
 42
-1.0
 73
     0
 74
     0
 75
     0
  3
DIMSTYLE_4
100
AcDbAlignedDimension
 13
340.5514991554
 23
1043.3806577115
 33
0.0
 14
346.6514992131
 24
1057.3806577115
 34
0.0
 50
90.0
100
AcDbRotatedDimension
  0
DIMENSION
  5
525
330
1B
100
AcDbEntity
 67
     1
  8
0
  6
Continuous
 62
     2
100
AcDbDimension
280
     0
  2
*D6
 10
301.1648736743
 20
1057.3806577115
 30
0.0
 11
301.1648736743
 21
710.8589871865
 31
0.0
 70
   160
 71
     5
 42
-1.0
 73
     0
 74
     0
 75
     0
  3
DIMSTYLE_3
100
AcDbAlignedDimension
 13
340.0514991554
 23
364.3806577115
 33
0.0
 14
346.6514992131
 24
1057.3806577115
 34
0.0
 50
90.0
100
AcDbRotatedDimension
  0
LINE
  5
526
330
1B
100
AcDbEntity
 67
     1
  8
0
  6
Continuous
 62
     2
100
AcDbLine
 10
689.9999076225
 20
85.0318702492
 30
0.0
 11
819.9999076225
 21
85.0318702492
 31
0.0
  0
LINE
  5
527
330
1B
100
AcDbEntity
 67
     1
  8
0
  6
Continuous
 62
     2
100
AcDbLine
 10
689.9999076225
 20
85.0318702492
 30
0.0
 11
689.9999076225
 21
19.0318702492
 31
0.0
  0
LINE
  5
528
330
1B
100
AcDbEntity
 67
     1
  8
0
  6
Continuous
 62
     2
100
AcDbLine
 10
719.9999076225
 20
77.0318702492
 30
0.0
 11
819.9999076225
 21
77.0318702492
 31
0.0
  0
LINE
  5
529
330
1B
100
AcDbEntity
 67
     1
  8
0
  6
Continuous
 62
     2
100
AcDbLine
 10
689.9999076225
 20
69.0318702492
 30
0.0
 11
819.9999076225
 21
69.0318702492
 31
0.0
  0
LINE
  5
52A
330
1B
100
AcDbEntity
 67
     1
  8
0
  6
Continuous
 62
     2
100
AcDbLine
 10
719.9999076225
 20
63.0318702492
 30
0.0
 11
819.9999076225
 21
63.0318702492
 31
0.0
  0
LINE
  5
52B
330
1B
100
AcDbEntity
 67
     1
  8
0
  6
Continuous
 62
     2
100
AcDbLine
 10
719.9999076225
 20
57.0318702492
 30
0.0
 11
819.9999076225
 21
57.0318702492
 31
0.0
  0
LINE
  5
52C
330
1B
100
AcDbEntity
 67
     1
  8
0
  6
Continuous
 62
     2
100
AcDbLine
 10
719.9999076225
 20
51.0318702492
 30
0.0
 11
819.9999076225
 21
51.0318702492
 31
0.0
  0
LINE
  5
52D
330
1B
100
AcDbEntity
 67
     1
  8
0
  6
Continuous
 62
     2
100
AcDbLine
 10
719.9999076225
 20
45.0318702492
 30
0.0
 11
819.9999076225
 21
45.0318702492
 31
0.0
  0
LINE
  5
52E
330
1B
100
AcDbEntity
 67
     1
  8
0
  6
Continuous
 62
     2
100
AcDbLine
 10
719.9999076225
 20
39.0318702492
 30
0.0
 11
819.9999076225
 21
39.0318702492
 31
0.0
  0
LINE
  5
52F
330
1B
100
AcDbEntity
 67
     1
  8
0
  6
Continuous
 62
     2
100
AcDbLine
 10
689.9999076225
 20
33.0318702492
 30
0.0
 11
819.9999076225
 21
33.0318702492
 31
0.0
  0
LINE
  5
530
330
1B
100
AcDbEntity
 67
     1
  8
0
  6
Continuous
 62
     2
100
AcDbLine
 10
689.9999076225
 20
27.0318702492
 30
0.0
 11
819.9999076225
 21
27.0318702492
 31
0.0
  0
LINE
  5
531
330
1B
100
AcDbEntity
 67
     1
  8
0
  6
Continuous
 62
     2
100
AcDbLine
 10
689.9999076225
 20
23.0318702492
 30
0.0
 11
819.9999076225
 21
23.0318702492
 31
0.0
  0
LINE
  5
532
330
1B
100
AcDbEntity
 67
     1
  8
0
  6
Continuous
 62
     2
100
AcDbLine
 10
689.9999076225
 20
19.0318702492
 30
0.0
 11
819.9999076225
 21
19.0318702492
 31
0.0
  0
LINE
  5
533
330
1B
100
AcDbEntity
 67
     1
  8
0
  6
Continuous
 62
     2
100
AcDbLine
 10
719.9999076225
 20
85.0318702492
 30
0.0
 11
719.9999076225
 21
27.0318702492
 31
0.0
  0
LINE
  5
534
330
1B
100
AcDbEntity
 67
     1
  8
0
  6
Continuous
 62
     2
100
AcDbLine
 10
739.9999076225
 20
69.0318702492
 30
0.0
 11
739.9999076225
 21
63.0318702492
 31
0.0
  0
LINE
  5
535
330
1B
100
AcDbEntity
 67
     1
  8
0
  6
Continuous
 62
     2
100
AcDbLine
 10
769.9999076225
 20
39.0318702492
 30
0.0
 11
769.9999076225
 21
27.0318702492
 31
0.0
  0
LINE
  5
536
330
1B
100
AcDbEntity
 67
     1
  8
0
  6
Continuous
 62
     2
100
AcDbLine
 10
779.9999076225
 20
69.0318702492
 30
0.0
 11
779.9999076225
 21
63.0318702492
 31
0.0
  0
LINE
  5
537
330
1B
100
AcDbEntity
 67
     1
  8
0
  6
Continuous
 62
     2
100
AcDbLine
 10
779.9999076225
 20
57.0318702492
 30
0.0
 11
779.9999076225
 21
51.0318702492
 31
0.0
  0
LINE
  5
538
330
1B
100
AcDbEntity
 67
     1
  8
0
  6
Continuous
 62
     2
100
AcDbLine
 10
799.9999076225
 20
69.0318702492
 30
0.0
 11
799.9999076225
 21
63.0318702492
 31
0.0
  0
LINE
  5
539
330
1B
100
AcDbEntity
 67
     1
  8
0
  6
Continuous
 62
     2
100
AcDbLine
 10
809.9999076225
 20
57.0318702492
 30
0.0
 11
809.9999076225
 21
51.0318702492
 31
0.0
  0
LINE
  5
53A
330
1B
100
AcDbEntity
 67
     1
  8
0
  6
Continuous
 62
     2
100
AcDbLine
 10
819.9999076225
 20
85.0318702492
 30
0.0
 11
819.9999076225
 21
19.0318702492
 31
0.0
  0
INSERT
  5
53B
330
1B
100
AcDbEntity
 67
     1
  8
0
  6
Continuous
 62
     2
100
AcDbBlockReference
  2
PROIEZIONE_EU_BL0
 10
704.9999076225
 20
76.6568702492
 30
0.0
  0
MTEXT
  5
53C
330
1B
100
AcDbEntity
 67
     1
  8
9_SOLID
  6
Continuous
 62
     2
100
AcDbMText
 10
721.4874076225
 20
83.4068702492
 30
0.0
 40
1.9
 41
142.3642857143
 46
0.0
 71
     1
 72
     1
  1
EN: Chamfer/radii unlisted 0.3x45°. Remove sharp edges.\PGen. tol.: hole H11, shaft h11, lenght Js12. UNI EN 22768 Medium Grande.
  7
TEXTSTYLE_3
 73
     1
 44
1.0
  0
MTEXT
  5
53D
330
1B
100
AcDbEntity
 67
     1
  8
9_SOLID
  6
Continuous
 62
     2
100
AcDbMText
 10
721.4874076225
 20
75.4068702492
 30
0.0
 40
1.9
 41
148.2678571429
 46
0.0
 71
     1
 72
     1
  1
IT: Sm./rac. non quotati 0.3x45°. Eliminare spigoli taglienti.\PToll. gen.: foro H11, albero h11, lunghezza Js12. UNI EN 22768 Grado Medio.
  7
TEXTSTYLE_3
 73
     1
 44
1.0
  0
INSERT
  5
53E
330
1B
100
AcDbEntity
 67
     1
  8
0
  6
Continuous
 62
     2
100
AcDbBlockReference
  2
LOGO2_BL1
 10
703.8259546673
 20
51.0318702492
 30
0.0
  0
MTEXT
  5
53F
330
1B
100
AcDbEntity
 67
     1
  8
9_SOLID
  6
Continuous
 62
     2
100
AcDbMText
 10
721.4874076225
 20
67.2818702492
 30
0.0
 40
3.0
 41
21.6428571429
 46
0.0
 71
     1
 72
     1
  1
Pj: 3D1
  7
TEXTSTYLE_3
 73
     1
 44
1.0
  0
MTEXT
  5
540
330
1B
100
AcDbEntity
 67
     1
  8
0
  6
Continuous
 62
     2
100
AcDbMText
 10
741.4874076225
 20
67.2818702492
 30
0.0
 40
3.0
 41
41.5714285714
 46
0.0
 71
     1
 72
     1
  1
% Check:  %
  7
TEXTSTYLE_3
 73
     1
 44
1.0
  0
MTEXT
  5
541
330
1B
100
AcDbEntity
 67
     1
  8
9_SOLID
  6
Continuous
 62
     2
100
AcDbMText
 10
781.4874076225
 20
67.2818702492
 30
0.0
 40
3.0
 41
19.5
 46
0.0
 71
     1
 72
     1
  1
Rev:00
  7
TEXTSTYLE_3
 73
     1
 44
1.0
  0
MTEXT
  5
542
330
1B
100
AcDbEntity
 67
     1
  8
9_SOLID
  6
Continuous
 62
     2
100
AcDbMText
 10
801.4874076225
 20
67.5318702492
 30
0.0
 40
3.0
 41
19.7142857143
 46
0.0
 71
     1
 72
     1
  1
Ver: A
  7
TEXTSTYLE_3
 73
     1
 44
1.0
  0
MTEXT
  5
543
330
1B
100
AcDbEntity
 67
     1
  8
9_SOLID
  6
Continuous
 62
     2
100
AcDbMText
 10
721.4874076225
 20
61.2818702492
 30
0.0
 40
3.0
 41
42.9642857143
 46
0.0
 71
     1
 72
     1
  1
Neutral code: 
  7
TEXTSTYLE_3
 73
     1
 44
1.0
  0
MTEXT
  5
544
330
1B
100
AcDbEntity
 67
     1
  8
0
  6
Continuous
 62
     2
100
AcDbMText
 10
721.4874076225
 20
55.2818702492
 30
0.0
 40
3.0
 41
22.9285714286
 46
0.0
 71
     1
 72
     1
  1
Code:  
  7
TEXTSTYLE_3
 73
     1
 44
1.0
  0
MTEXT
  5
545
330
1B
100
AcDbEntity
 67
     1
  8
9_SOLID
  6
Continuous
 62
     2
100
AcDbMText
 10
781.4874076225
 20
55.5318702492
 30
0.0
 40
3.0
 41
27.8571428571
 46
0.0
 71
     1
 72
     1
  1
Scale: 1:1
  7
TEXTSTYLE_3
 73
     1
 44
1.0
  0
MTEXT
  5
546
330
1B
100
AcDbEntity
 67
     1
  8
9_SOLID
  6
Continuous
 62
     2
100
AcDbMText
 10
814.9999076225
 20
55.5318702492
 30
0.0
 40
3.0
 41
36.4285714286
 46
0.0
 71
     2
 72
     1
  1
841 by 1500
  7
TEXTSTYLE_3
 73
     1
 44
1.0
  0
MTEXT
  5
547
330
1B
100
AcDbEntity
 67
     1
  8
9_SOLID
  6
Continuous
 62
     2
100
AcDbMText
 10
721.4874076225
 20
49.5318702492
 30
0.0
 40
3.0
 41
107.1428571429
 46
0.0
 71
     1
 72
     1
  1
It descr.: COLONNA LINEAR2 800mm
  7
TEXTSTYLE_3
 73
     1
 44
1.0
  0
MTEXT
  5
548
330
1B
100
AcDbEntity
 67
     1
  8
0
  6
Continuous
 62
     2
100
AcDbMText
 10
721.4874076225
 20
43.5318702492
 30
0.0
 40
3.0
 41
37.5
 46
0.0
 71
     1
 72
     1
  1
En descr.:  
  7
TEXTSTYLE_3
 73
     1
 44
1.0
  0
MTEXT
  5
549
330
1B
100
AcDbEntity
 67
     1
  8
9_SOLID
  6
Continuous
 62
     2
100
AcDbMText
 10
721.4874076225
 20
37.5318702492
 30
0.0
 40
3.0
 41
31.2857142857
 46
0.0
 71
     1
 72
     1
  1
Des.: S.Z.
  7
TEXTSTYLE_3
 73
     1
 44
1.0
  0
MTEXT
  5
54A
330
1B
100
AcDbEntity
 67
     1
  8
9_SOLID
  6
Continuous
 62
     2
100
AcDbMText
 10
771.4874076225
 20
37.5318702492
 30
0.0
 40
3.0
 41
34.8214285714
 46
0.0
 71
     1
 72
     1
  1
Check: A.P.
  7
TEXTSTYLE_3
 73
     1
 44
1.0
  0
MTEXT
  5
54B
330
1B
100
AcDbEntity
 67
     1
  8
9_SOLID
  6
Continuous
 62
     2
100
AcDbMText
 10
691.4874076225
 20
31.5318702492
 30
0.0
 40
3.0
 41
41.5714285714
 46
0.0
 71
     1
 72
     1
  1
Date: 11.12.18
  7
TEXTSTYLE_3
 73
     1
 44
1.0
  0
MTEXT
  5
54C
330
1B
100
AcDbEntity
 67
     1
  8
0
  6
Continuous
 62
     2
100
AcDbMText
 10
721.4874076225
 20
31.5318702492
 30
0.0
 40
3.0
 41
21.75
 46
0.0
 71
     1
 72
     1
  1
Mat.:  
  7
TEXTSTYLE_3
 73
     1
 44
1.0
  0
MTEXT
  5
54D
330
1B
100
AcDbEntity
 67
     1
  8
9_SOLID
  6
Continuous
 62
     2
100
AcDbMText
 10
771.4874076225
 20
31.0318702492
 30
0.0
 40
2.0
 41
42.3571428571
 46
0.0
 71
     1
 72
     1
  1
Disegno per catalogo
  7
TEXTSTYLE_3
 73
     1
 44
1.0
  0
MTEXT
  5
54E
330
1B
100
AcDbEntity
 67
     1
  8
9_SOLID
  6
Continuous
 62
     2
100
AcDbMText
 10
691.4874076225
 20
25.9318702492
 30
0.0
 40
1.8
 41
176.2071428571
 46
0.0
 71
     1
 72
     1
  1
It: A norma di legge si diffida da qualsiasi riproduzione senza nostra autorizzazione esplicita.
  7
TEXTSTYLE_3
 73
     1
 44
1.0
  0
MTEXT
  5
54F
330
1B
100
AcDbEntity
 67
     1
  8
9_SOLID
  6
Continuous
 62
     2
100
AcDbMText
 10
691.4874076225
 20
21.9318702492
 30
0.0
 40
1.8
 41
158.1428571429
 46
0.0
 71
     1
 72
     1
  1
En: According to the law, beware of any reproduction made without our authorization.
  7
TEXTSTYLE_3
 73
     1
 44
1.0
  0
ENDSEC
  0
SECTION
  2
OBJECTS
  0
DICTIONARY
  5
550
330
0
100
AcDbDictionary
281
     1
  3
ACAD_DETAILVIEWSTYLE
350
5A6
  3
ACAD_GROUP
350
551
  3
ACAD_LAYOUT
350
579
  3
ACAD_MATERIAL
350
595
  3
ACAD_MLEADERSTYLE
350
59B
  3
ACAD_MLINESTYLE
350
552
  3
ACAD_PLOTSETTINGS
350
554
  3
ACAD_PLOTSTYLENAME
350
555
  3
ACAD_SCALELIST
350
557
  3
ACAD_SECTIONVIEWSTYLE
350
5A7
  3
ACAD_TABLESTYLE
350
599
  3
ACAD_VISUALSTYLE
350
57C
  3
ACDB_RECOMPOSE_DATA
350
5A2
  3
AcDbVariableDictionary
350
59E
  3
APPDATA
350
59D
  0
DICTIONARY
  5
5A6
102
{ACAD_REACTORS
330
550
102
}
330
550
100
AcDbDictionary
281
     1
  0
DICTIONARY
  5
551
102
{ACAD_REACTORS
330
550
102
}
330
550
100
AcDbDictionary
281
     1
  0
DICTIONARY
  5
579
102
{ACAD_REACTORS
330
550
102
}
330
550
100
AcDbDictionary
281
     1
  3
Foglio 1
350
57B
  3
Model
350
57A
  0
DICTIONARY
  5
595
102
{ACAD_REACTORS
330
550
102
}
330
550
100
AcDbDictionary
281
     1
  3
ByBlock
350
597
  3
ByLayer
350
596
  3
Global
350
598
  0
DICTIONARY
  5
59B
102
{ACAD_REACTORS
330
550
102
}
330
550
100
AcDbDictionary
281
     1
  3
Standard
350
59C
  0
DICTIONARY
  5
552
102
{ACAD_REACTORS
330
550
102
}
330
550
100
AcDbDictionary
281
     1
  3
STANDARD
350
553
  0
DICTIONARY
  5
554
102
{ACAD_REACTORS
330
550
102
}
330
550
100
AcDbDictionary
281
     1
  0
ACDBDICTIONARYWDFLT
  5
555
102
{ACAD_REACTORS
330
550
102
}
330
550
100
AcDbDictionary
281
     1
  3
Normal
350
556
100
AcDbDictionaryWithDefault
340
556
  0
DICTIONARY
  5
557
102
{ACAD_REACTORS
330
550
102
}
330
550
100
AcDbDictionary
281
     1
  3
A0
350
558
  3
A1
350
559
  3
A2
350
55A
  3
A3
350
55B
  3
A4
350
55C
  3
A5
350
55D
  3
A6
350
55E
  3
A7
350
55F
  3
A8
350
560
  3
A9
350
561
  3
B0
350
562
  3
B1
350
563
  3
B2
350
564
  3
B3
350
565
  3
B4
350
566
  3
B5
350
567
  3
B6
350
568
  3
B7
350
569
  3
B8
350
56A
  3
B9
350
56B
  3
C0
350
56C
  3
C1
350
56D
  3
C2
350
56E
  3
C3
350
56F
  3
C4
350
570
  3
C5
350
571
  3
C6
350
572
  3
C7
350
573
  3
C8
350
574
  3
C9
350
575
  3
D0
350
576
  3
D1
350
577
  3
D2
350
578
  0
DICTIONARY
  5
5A7
102
{ACAD_REACTORS
330
550
102
}
330
550
100
AcDbDictionary
281
     1
  0
DICTIONARY
  5
599
102
{ACAD_REACTORS
330
550
102
}
330
550
100
AcDbDictionary
281
     1
  3
Standard
350
59A
  0
DICTIONARY
  5
57C
102
{ACAD_REACTORS
330
550
102
}
330
550
100
AcDbDictionary
281
     1
  3
2dWireframe
350
581
  3
Basic
350
584
  3
Brighten
350
588
  3
ColorChange
350
58C
  3
Conceptual
350
586
  3
Dim
350
587
  3
EdgeColorOff
350
58F
  3
Facepattern
350
58B
  3
Flat
350
57D
  3
FlatWithEdges
350
57E
  3
Gouraud
350
57F
  3
GouraudWithEdges
350
580
  3
Hidden
350
583
  3
JitterOff
350
58D
  3
Linepattern
350
58A
  3
OverhangOff
350
58E
  3
Realistic
350
585
  3
Shaded
350
594
  3
Shaded with edges
350
593
  3
Shades of Gray
350
590
  3
Sketchy
350
591
  3
Thicken
350
589
  3
Wireframe
350
582
  3
X-Ray
350
592
  0
XRECORD
  5
5A2
102
{ACAD_REACTORS
330
550
102
}
330
550
100
AcDbXrecord
280
     1
 90
        1
330
59A
  0
DICTIONARY
  5
59E
102
{ACAD_REACTORS
330
550
102
}
330
550
100
AcDbDictionary
281
     1
  3
CANNOSCALE
350
59F
  3
CMLEADERSTYLE
350
5A4
  3
CTABLESTYLE
350
5A3
  3
MSLTSCALE
350
5A5
  0
DICTIONARY
  5
59D
102
{ACAD_REACTORS
330
550
102
}
330
550
100
AcDbDictionary
281
     1
  0
LAYOUT
  5
57B
102
{ACAD_REACTORS
330
579
102
}
330
579
100
AcDbPlotSettings
  1

  2
none_device
  4
ISO_A3_(420.00_x_297.00_MM)
  6

 40
7.5
 41
20.0
 42
7.5
 43
20.0
 44
420.0
 45
297.0
 46
0.0
 47
0.0
 48
0.0
 49
0.0
140
0.0
141
0.0
142
1.0
143
5.836575875486381
 70
   688
 72
     1
 73
     0
 74
     1
  7

 75
     0
 76
     0
 77
     2
 78
   300
147
0.1713333333333333
148
0.0
149
0.0
100
AcDbLayout
  1
Foglio 1
 70
     1
 71
     1
 10
0.0
 20
0.0
 11
412.5
 21
277.0
 12
0.0
 22
0.0
 32
0.0
 14
0.0
 24
0.0
 34
0.0
 15
841.0
 25
1500.0
 35
0.0
146
0.0
 13
0.0
 23
0.0
 33
0.0
 16
1.0
 26
0.0
 36
0.0
 17
0.0
 27
1.0
 37
0.0
 76
     0
330
1B
331
2B6
  0
LAYOUT
  5
57A
102
{ACAD_REACTORS
330
579
102
}
330
579
100
AcDbPlotSettings
  1

  2
none_device
  4
Letter_(8.50_x_11.00_Inches)
  6

 40
6.35
 41
6.35
 42
6.35
 43
6.35
 44
215.9
 45
279.4
 46
0.0
 47
0.0
 48
0.0
 49
0.0
140
0.0
141
0.0
142
1.0
143
142.8571428571429
 70
  1712
 72
     0
 73
     0
 74
     0
  7

 75
     0
 76
     0
 77
     2
 78
   300
147
0.007
148
0.0000006349990599
149
0.0
100
AcDbLayout
  1
Model
 70
     1
 71
     0
 10
0.0
 20
0.0
 11
841.0
 21
1500.0
 12
0.0
 22
0.0
 32
0.0
 14
0.0
 24
0.0
 34
0.0
 15
841.0
 25
1500.0
 35
0.0
146
0.0
 13
0.0
 23
0.0
 33
0.0
 16
1.0
 26
0.0
 36
0.0
 17
0.0
 27
1.0
 37
0.0
 76
     0
330
1F
331
1F4
  0
MATERIAL
  5
597
102
{ACAD_REACTORS
330
595
102
}
330
595
100
AcDbMaterial
  1
ByBlock
 72
     1
 94
      127
  0
MATERIAL
  5
596
102
{ACAD_REACTORS
330
595
102
}
330
595
100
AcDbMaterial
  1
ByLayer
 72
     1
 94
      127
  0
MATERIAL
  5
598
102
{ACAD_REACTORS
330
595
102
}
330
595
100
AcDbMaterial
  1
Global
 72
     1
 94
      127
  0
MLEADERSTYLE
  5
59C
102
{ACAD_REACTORS
330
59B
102
}
330
59B
100
AcDbMLeaderStyle
179
     2
170
     2
171
     1
172
     0
 90
        2
 40
0.0
 41
0.0
173
     1
 91
-1056964608
340
14
 92
       -2
290
     1
 42
2.0
291
     1
 43
8.0
  3
Standard
341
0
 44
4.0
300

342
11
174
     1
178
     1
175
     1
176
     0
 93
-1056964608
 45
4.0
292
     0
297
     0
 46
4.0
343
0
 94
-1056964608
 47
1.0
 49
1.0
140
1.0
293
     1
141
0.0
294
     1
177
     0
142
1.0
295
     0
296
     0
143
3.75
271
     0
272
     9
273
     9
298
     0
  0
MLINESTYLE
  5
553
102
{ACAD_REACTORS
330
552
102
}
330
552
100
AcDbMlineStyle
  2
STANDARD
 70
     0
  3

 62
   256
 51
90.0
 52
90.0
 71
     2
 49
0.5
 62
   256
  6
BYLAYER
 49
-0.5
 62
   256
  6
BYLAYER
  0
ACDBPLACEHOLDER
  5
556
102
{ACAD_REACTORS
330
555
102
}
330
555
  0
SCALE
  5
558
102
{ACAD_REACTORS
330
557
102
}
330
557
100
AcDbScale
 70
     0
300
1:1
140
1.0
141
1.0
290
     1
  0
SCALE
  5
559
102
{ACAD_REACTORS
330
557
102
}
330
557
100
AcDbScale
 70
     0
300
1:2
140
1.0
141
2.0
290
     0
  0
SCALE
  5
55A
102
{ACAD_REACTORS
330
557
102
}
330
557
100
AcDbScale
 70
     0
300
1:4
140
1.0
141
4.0
290
     0
  0
SCALE
  5
55B
102
{ACAD_REACTORS
330
557
102
}
330
557
100
AcDbScale
 70
     0
300
1:5
140
1.0
141
5.0
290
     0
  0
SCALE
  5
55C
102
{ACAD_REACTORS
330
557
102
}
330
557
100
AcDbScale
 70
     0
300
1:8
140
1.0
141
8.0
290
     0
  0
SCALE
  5
55D
102
{ACAD_REACTORS
330
557
102
}
330
557
100
AcDbScale
 70
     0
300
1:10
140
1.0
141
10.0
290
     0
  0
SCALE
  5
55E
102
{ACAD_REACTORS
330
557
102
}
330
557
100
AcDbScale
 70
     0
300
1:16
140
1.0
141
16.0
290
     0
  0
SCALE
  5
55F
102
{ACAD_REACTORS
330
557
102
}
330
557
100
AcDbScale
 70
     0
300
1:20
140
1.0
141
20.0
290
     0
  0
SCALE
  5
560
102
{ACAD_REACTORS
330
557
102
}
330
557
100
AcDbScale
 70
     0
300
1:30
140
1.0
141
30.0
290
     0
  0
SCALE
  5
561
102
{ACAD_REACTORS
330
557
102
}
330
557
100
AcDbScale
 70
     0
300
1:40
140
1.0
141
40.0
290
     0
  0
SCALE
  5
562
102
{ACAD_REACTORS
330
557
102
}
330
557
100
AcDbScale
 70
     0
300
1:50
140
1.0
141
50.0
290
     0
  0
SCALE
  5
563
102
{ACAD_REACTORS
330
557
102
}
330
557
100
AcDbScale
 70
     0
300
1:100
140
1.0
141
100.0
290
     0
  0
SCALE
  5
564
102
{ACAD_REACTORS
330
557
102
}
330
557
100
AcDbScale
 70
     0
300
2:1
140
2.0
141
1.0
290
     0
  0
SCALE
  5
565
102
{ACAD_REACTORS
330
557
102
}
330
557
100
AcDbScale
 70
     0
300
4:1
140
4.0
141
1.0
290
     0
  0
SCALE
  5
566
102
{ACAD_REACTORS
330
557
102
}
330
557
100
AcDbScale
 70
     0
300
8:1
140
8.0
141
1.0
290
     0
  0
SCALE
  5
567
102
{ACAD_REACTORS
330
557
102
}
330
557
100
AcDbScale
 70
     0
300
10:1
140
10.0
141
1.0
290
     0
  0
SCALE
  5
568
102
{ACAD_REACTORS
330
557
102
}
330
557
100
AcDbScale
 70
     0
300
100:1
140
100.0
141
1.0
290
     0
  0
SCALE
  5
569
102
{ACAD_REACTORS
330
557
102
}
330
557
100
AcDbScale
 70
     0
300
1/128" = 1'-0"
140
0.0078125
141
12.0
290
     0
  0
SCALE
  5
56A
102
{ACAD_REACTORS
330
557
102
}
330
557
100
AcDbScale
 70
     0
300
1/64" = 1'-0"
140
0.015625
141
12.0
290
     0
  0
SCALE
  5
56B
102
{ACAD_REACTORS
330
557
102
}
330
557
100
AcDbScale
 70
     0
300
1/32" = 1'-0"
140
0.03125
141
12.0
290
     0
  0
SCALE
  5
56C
102
{ACAD_REACTORS
330
557
102
}
330
557
100
AcDbScale
 70
     0
300
1/16" = 1'-0"
140
0.0625
141
12.0
290
     0
  0
SCALE
  5
56D
102
{ACAD_REACTORS
330
557
102
}
330
557
100
AcDbScale
 70
     0
300
3/32" = 1'-0"
140
0.09375
141
12.0
290
     0
  0
SCALE
  5
56E
102
{ACAD_REACTORS
330
557
102
}
330
557
100
AcDbScale
 70
     0
300
1/8" = 1'-0"
140
0.125
141
12.0
290
     0
  0
SCALE
  5
56F
102
{ACAD_REACTORS
330
557
102
}
330
557
100
AcDbScale
 70
     0
300
3/16" = 1'-0"
140
0.1875
141
12.0
290
     0
  0
SCALE
  5
570
102
{ACAD_REACTORS
330
557
102
}
330
557
100
AcDbScale
 70
     0
300
1/4" = 1'-0"
140
0.25
141
12.0
290
     0
  0
SCALE
  5
571
102
{ACAD_REACTORS
330
557
102
}
330
557
100
AcDbScale
 70
     0
300
3/8" = 1'-0"
140
0.375
141
12.0
290
     0
  0
SCALE
  5
572
102
{ACAD_REACTORS
330
557
102
}
330
557
100
AcDbScale
 70
     0
300
1/2" = 1'-0"
140
0.5
141
12.0
290
     0
  0
SCALE
  5
573
102
{ACAD_REACTORS
330
557
102
}
330
557
100
AcDbScale
 70
     0
300
3/4" = 1'-0"
140
0.75
141
12.0
290
     0
  0
SCALE
  5
574
102
{ACAD_REACTORS
330
557
102
}
330
557
100
AcDbScale
 70
     0
300
1" = 1'-0"
140
1.0
141
12.0
290
     0
  0
SCALE
  5
575
102
{ACAD_REACTORS
330
557
102
}
330
557
100
AcDbScale
 70
     0
300
1-1/2" = 1'-0"
140
1.5
141
12.0
290
     0
  0
SCALE
  5
576
102
{ACAD_REACTORS
330
557
102
}
330
557
100
AcDbScale
 70
     0
300
3" = 1'-0"
140
3.0
141
12.0
290
     0
  0
SCALE
  5
577
102
{ACAD_REACTORS
330
557
102
}
330
557
100
AcDbScale
 70
     0
300
6" = 1'-0"
140
6.0
141
12.0
290
     0
  0
SCALE
  5
578
102
{ACAD_REACTORS
330
557
102
}
330
557
100
AcDbScale
 70
     0
300
1'-0" = 1'-0"
140
12.0
141
12.0
290
     0
  0
TABLESTYLE
  5
59A
102
{ACAD_REACTORS
330
599
102
}
102
{ACAD_XDICTIONARY
360
5A0
102
}
330
599
100
AcDbTableStyle
  3
Standard
 70
     0
 71
     0
 40
0.06
 41
0.06
280
     0
281
     0
  7
STANDARD
140
4.5
170
     2
 62
     0
 63
   257
283
     0
 90
        4
 91
        0
  1

274
    -2
284
     1
 64
     0
275
    -2
285
     1
 65
     0
276
    -2
286
     1
 66
     0
277
    -2
287
     1
 67
     0
278
    -2
288
     1
 68
     0
279
    -2
289
     1
 69
     0
  7
STANDARD
140
6.0
170
     5
 62
     0
 63
   257
283
     0
 90
        4
 91
        0
  1

274
    -2
284
     1
 64
     0
275
    -2
285
     1
 65
     0
276
    -2
286
     1
 66
     0
277
    -2
287
     1
 67
     0
278
    -2
288
     1
 68
     0
279
    -2
289
     1
 69
     0
  7
STANDARD
140
4.5
170
     5
 62
     0
 63
   257
283
     0
 90
        4
 91
        0
  1

274
    -2
284
     1
 64
     0
275
    -2
285
     1
 65
     0
276
    -2
286
     1
 66
     0
277
    -2
287
     1
 67
     0
278
    -2
288
     1
 68
     0
279
    -2
289
     1
 69
     0
  0
VISUALSTYLE
  5
581
102
{ACAD_REACTORS
330
57C
102
}
330
57C
100
AcDbVisualStyle
  2
2dWireframe
 70
     4
177
     3
291
     0
 70
    58
 90
        0
176
     1
 90
        2
176
     1
 90
        0
176
     1
 90
        0
176
     1
 40
0.6
176
     1
 40
30.0
176
     1
 62
     7
420
 16777215
176
     1
 90
        1
176
     1
 90
        4
176
     1
 62
     7
176
     1
 62
   257
176
     1
 90
        1
176
     1
 90
        1
176
     1
 40
1.0
176
     1
 90
        0
176
     1
 62
   257
176
     1
 40
1.0
176
     1
 90
        1
176
     1
 90
        6
176
     1
 90
        2
176
     1
 62
     7
176
     1
 90
        5
176
     1
 90
        0
176
     1
 90
        0
176
     1
290
     0
176
     1
 90
        1
176
     1
 40
0.0
176
     1
 90
        0
176
     1
290
     1
176
     1
290
     1
176
     1
290
     0
176
     1
290
     0
176
     1
290
     0
176
     1
290
     0
176
     1
290
     0
176
     1
290
     0
176
     1
290
     0
176
     1
 90
       50
176
     1
 40
0.0
176
     1
 40
1.0
176
     1
 90
        0
176
     1
 62
    18
420
        0
176
     1
 90
       50
176
     1
 90
        3
176
     1
 62
     5
420
      255
176
     1
290
     0
176
     1
 90
       50
176
     1
 90
       50
176
     1
 90
       50
176
     1
290
     0
176
     1
 90
       50
176
     1
 62
   256
176
     0
 40
1.0
176
     0
 90
        2
176
     1
  1
strokes_ogs.tif
176
     1
290
     0
176
     1
 40
1.0
176
     1
 40
1.0
176
     1
  0
VISUALSTYLE
  5
584
102
{ACAD_REACTORS
330
57C
102
}
330
57C
100
AcDbVisualStyle
  2
Basic
 70
     7
177
     3
291
     1
 70
    58
 90
        1
176
     1
 90
        0
176
     1
 90
        1
176
     1
 90
        0
176
     1
 40
0.6
176
     1
 40
30.0
176
     1
 62
     7
420
 16777215
176
     1
 90
        0
176
     1
 90
        4
176
     1
 62
     7
176
     1
 62
   257
176
     1
 90
        1
176
     1
 90
        1
176
     1
 40
1.0
176
     1
 90
        8
176
     1
 62
     7
176
     1
 40
1.0
176
     1
 90
        1
176
     1
 90
        6
176
     1
 90
        2
176
     1
 62
     7
176
     1
 90
        5
176
     1
 90
        0
176
     1
 90
        0
176
     1
290
     0
176
     1
 90
        1
176
     1
 40
0.0
176
     1
 90
        0
176
     1
290
     0
176
     1
290
     1
176
     1
290
     1
176
     1
290
     0
176
     1
290
     0
176
     1
290
     0
176
     1
290
     0
176
     1
290
     0
176
     1
290
     0
176
     1
 90
       50
176
     1
 40
0.0
176
     1
 40
1.0
176
     1
 90
        0
176
     1
 62
    18
420
        0
176
     1
 90
       50
176
     1
 90
        3
176
     1
 62
     5
420
      255
176
     1
290
     0
176
     1
 90
       50
176
     1
 90
       50
176
     1
 90
       50
176
     1
290
     0
176
     1
 90
       50
176
     1
 62
   256
176
     0
 40
1.0
176
     0
 90
        2
176
     1
  1
strokes_ogs.tif
176
     1
290
     0
176
     1
 40
1.0
176
     1
 40
1.0
176
     1
  0
VISUALSTYLE
  5
588
102
{ACAD_REACTORS
330
57C
102
}
330
57C
100
AcDbVisualStyle
  2
Brighten
 70
    12
177
     3
291
     1
 70
    58
 90
        2
176
     1
 90
        2
176
     1
 90
        0
176
     1
 90
        0
176
     1
 40
0.6
176
     1
 40
30.0
176
     1
 62
     7
420
 16777215
176
     1
 90
        1
176
     1
 90
        4
176
     1
 62
     7
176
     1
 62
   257
176
     1
 90
        1
176
     1
 90
        1
176
     1
 40
1.0
176
     1
 90
        8
176
     1
 62
     7
176
     1
 40
1.0
176
     1
 90
        1
176
     1
 90
        6
176
     1
 90
        2
176
     1
 62
     7
176
     1
 90
        5
176
     1
 90
        0
176
     1
 90
        0
176
     1
290
     0
176
     1
 90
        1
176
     1
 40
50.0
176
     1
 90
        0
176
     1
290
     0
176
     1
290
     1
176
     1
290
     1
176
     1
290
     0
176
     1
290
     0
176
     1
290
     0
176
     1
290
     0
176
     1
290
     0
176
     1
290
     0
176
     1
 90
       50
176
     1
 40
0.0
176
     1
 40
1.0
176
     1
 90
        0
176
     1
 62
    18
420
        0
176
     1
 90
       50
176
     1
 90
        3
176
     1
 62
     5
420
      255
176
     1
290
     0
176
     1
 90
       50
176
     1
 90
       50
176
     1
 90
       50
176
     1
290
     0
176
     1
 90
       50
176
     1
 62
   256
176
     0
 40
1.0
176
     0
 90
        2
176
     1
  1
strokes_ogs.tif
176
     1
290
     0
176
     1
 40
1.0
176
     1
 40
1.0
176
     1
  0
VISUALSTYLE
  5
58C
102
{ACAD_REACTORS
330
57C
102
}
330
57C
100
AcDbVisualStyle
  2
ColorChange
 70
    16
177
     3
291
     1
 70
    58
 90
        2
176
     1
 90
        2
176
     1
 90
        3
176
     1
 90
        0
176
     1
 40
0.6
176
     1
 40
30.0
176
     1
 62
     8
420
  8421504
176
     1
 90
        1
176
     1
 90
        4
176
     1
 62
     7
176
     1
 62
   257
176
     1
 90
        1
176
     1
 90
        1
176
     1
 40
1.0
176
     1
 90
        8
176
     1
 62
     8
420
  8421504
176
     1
 40
1.0
176
     1
 90
        1
176
     1
 90
        6
176
     1
 90
        2
176
     1
 62
     7
176
     1
 90
        5
176
     1
 90
        0
176
     1
 90
        0
176
     1
290
     0
176
     1
 90
        1
176
     1
 40
0.0
176
     1
 90
        0
176
     1
290
     0
176
     1
290
     1
176
     1
290
     1
176
     1
290
     0
176
     1
290
     0
176
     1
290
     0
176
     1
290
     0
176
     1
290
     0
176
     1
290
     0
176
     1
 90
       50
176
     1
 40
0.0
176
     1
 40
1.0
176
     1
 90
        0
176
     1
 62
    18
420
        0
176
     1
 90
       50
176
     1
 90
        3
176
     1
 62
     5
420
      255
176
     1
290
     0
176
     1
 90
       50
176
     1
 90
       50
176
     1
 90
       50
176
     1
290
     0
176
     1
 90
       50
176
     1
 62
   256
176
     0
 40
1.0
176
     0
 90
        2
176
     1
  1
strokes_ogs.tif
176
     1
290
     0
176
     1
 40
1.0
176
     1
 40
1.0
176
     1
  0
VISUALSTYLE
  5
586
102
{ACAD_REACTORS
330
57C
102
}
330
57C
100
AcDbVisualStyle
  2
Conceptual
 70
     9
177
     3
291
     0
 70
    58
 90
        3
176
     1
 90
        2
176
     1
 90
        0
176
     1
 90
        0
176
     1
 40
0.6
176
     1
 40
30.0
176
     1
 62
     7
420
 16777215
176
     1
 90
        2
176
     1
 90
        2
176
     1
 62
     7
176
     1
 62
   257
176
     1
 90
        1
176
     1
 90
        1
176
     1
 40
179.0
176
     1
 90
        8
176
     1
 62
     7
176
     1
 40
1.0
176
     1
 90
        1
176
     1
 90
        6
176
     1
 90
        2
176
     1
 62
     7
176
     1
 90
        3
176
     1
 90
        0
176
     1
 90
        0
176
     1
290
     0
176
     1
 90
        1
176
     1
 40
0.0
176
     1
 90
        0
176
     1
290
     0
176
     1
290
     1
176
     1
290
     1
176
     1
290
     0
176
     1
290
     0
176
     1
290
     0
176
     1
290
     0
176
     1
290
     0
176
     1
290
     0
176
     1
 90
       50
176
     1
 40
0.0
176
     1
 40
1.0
176
     1
 90
        0
176
     1
 62
    18
420
        0
176
     1
 90
       50
176
     1
 90
        3
176
     1
 62
     5
420
      255
176
     1
290
     0
176
     1
 90
       50
176
     1
 90
       50
176
     1
 90
       50
176
     1
290
     0
176
     1
 90
       50
176
     1
 62
   256
176
     0
 40
1.0
176
     0
 90
        2
176
     1
  1
strokes_ogs.tif
176
     1
290
     0
176
     1
 40
1.0
176
     1
 40
1.0
176
     1
  0
VISUALSTYLE
  5
587
102
{ACAD_REACTORS
330
57C
102
}
330
57C
100
AcDbVisualStyle
  2
Dim
 70
    11
177
     3
291
     1
 70
    58
 90
        2
176
     1
 90
        2
176
     1
 90
        0
176
     1
 90
        0
176
     1
 40
0.6
176
     1
 40
30.0
176
     1
 62
     7
420
 16777215
176
     1
 90
        1
176
     1
 90
        4
176
     1
 62
     7
176
     1
 62
   257
176
     1
 90
        1
176
     1
 90
        1
176
     1
 40
1.0
176
     1
 90
        8
176
     1
 62
     7
176
     1
 40
1.0
176
     1
 90
        1
176
     1
 90
        6
176
     1
 90
        2
176
     1
 62
     7
176
     1
 90
        5
176
     1
 90
        0
176
     1
 90
        0
176
     1
290
     0
176
     1
 90
        1
176
     1
 40
-50.0
176
     1
 90
        0
176
     1
290
     0
176
     1
290
     1
176
     1
290
     1
176
     1
290
     0
176
     1
290
     0
176
     1
290
     0
176
     1
290
     0
176
     1
290
     0
176
     1
290
     0
176
     1
 90
       50
176
     1
 40
0.0
176
     1
 40
1.0
176
     1
 90
        0
176
     1
 62
    18
420
        0
176
     1
 90
       50
176
     1
 90
        3
176
     1
 62
     5
420
      255
176
     1
290
     0
176
     1
 90
       50
176
     1
 90
       50
176
     1
 90
       50
176
     1
290
     0
176
     1
 90
       50
176
     1
 62
   256
176
     0
 40
1.0
176
     0
 90
        2
176
     1
  1
strokes_ogs.tif
176
     1
290
     0
176
     1
 40
1.0
176
     1
 40
1.0
176
     1
  0
VISUALSTYLE
  5
58F
102
{ACAD_REACTORS
330
57C
102
}
330
57C
100
AcDbVisualStyle
  2
EdgeColorOff
 70
    22
177
     3
291
     1
 70
    58
 90
        2
176
     0
 90
        2
176
     0
 90
        0
176
     0
 90
        0
176
     0
 40
0.6
176
     0
 40
30.0
176
     0
 62
     7
420
 16777215
176
     0
 90
        1
176
     0
 90
        4
176
     0
 62
     7
176
     0
 62
   257
176
     0
 90
        1
176
     0
 90
        1
176
     0
 40
1.0
176
     0
 90
        8
176
     2
 62
     7
176
     0
 40
1.0
176
     0
 90
        1
176
     0
 90
        6
176
     0
 90
        2
176
     0
 62
     7
176
     0
 90
        5
176
     0
 90
        0
176
     0
 90
        0
176
     0
290
     0
176
     0
 90
        1
176
     0
 40
0.0
176
     0
 90
        0
176
     0
290
     0
176
     0
290
     1
176
     0
290
     1
176
     0
290
     0
176
     0
290
     0
176
     0
290
     0
176
     0
290
     0
176
     0
290
     0
176
     0
290
     0
176
     0
 90
       50
176
     0
 40
0.0
176
     0
 40
1.0
176
     0
 90
        0
176
     0
 62
    18
420
        0
176
     0
 90
       50
176
     0
 90
        3
176
     0
 62
     5
420
      255
176
     0
290
     0
176
     0
 90
       50
176
     0
 90
       50
176
     0
 90
       50
176
     0
290
     0
176
     0
 90
       50
176
     0
 62
   256
176
     0
 40
1.0
176
     0
 90
        2
176
     0
  1
strokes_ogs.tif
176
     0
290
     0
176
     0
 40
1.0
176
     0
 40
1.0
176
     0
  0
VISUALSTYLE
  5
58B
102
{ACAD_REACTORS
330
57C
102
}
330
57C
100
AcDbVisualStyle
  2
Facepattern
 70
    15
177
     3
291
     1
 70
    58
 90
        2
176
     1
 90
        2
176
     1
 90
        0
176
     1
 90
        0
176
     1
 40
0.6
176
     1
 40
30.0
176
     1
 62
     7
420
 16777215
176
     1
 90
        1
176
     1
 90
        4
176
     1
 62
     7
176
     1
 62
   257
176
     1
 90
        1
176
     1
 90
        1
176
     1
 40
1.0
176
     1
 90
        8
176
     1
 62
     7
176
     1
 40
1.0
176
     1
 90
        1
176
     1
 90
        6
176
     1
 90
        2
176
     1
 62
     7
176
     1
 90
        5
176
     1
 90
        0
176
     1
 90
        0
176
     1
290
     0
176
     1
 90
        1
176
     1
 40
0.0
176
     1
 90
        0
176
     1
290
     0
176
     1
290
     1
176
     1
290
     1
176
     1
290
     0
176
     1
290
     0
176
     1
290
     0
176
     1
290
     0
176
     1
290
     0
176
     1
290
     0
176
     1
 90
       50
176
     1
 40
0.0
176
     1
 40
1.0
176
     1
 90
        0
176
     1
 62
    18
420
        0
176
     1
 90
       50
176
     1
 90
        3
176
     1
 62
     5
420
      255
176
     1
290
     0
176
     1
 90
       50
176
     1
 90
       50
176
     1
 90
       50
176
     1
290
     0
176
     1
 90
       50
176
     1
 62
   256
176
     0
 40
1.0
176
     0
 90
        2
176
     1
  1
strokes_ogs.tif
176
     1
290
     0
176
     1
 40
1.0
176
     1
 40
1.0
176
     1
  0
VISUALSTYLE
  5
57D
102
{ACAD_REACTORS
330
57C
102
}
330
57C
100
AcDbVisualStyle
  2
Flat
 70
     0
177
     3
291
     1
 70
    58
 90
        2
176
     1
 90
        1
176
     1
 90
        1
176
     1
 90
        2
176
     1
 40
0.6
176
     1
 40
30.0
176
     1
 62
     7
420
 16777215
176
     1
 90
        0
176
     1
 90
        0
176
     1
 62
     7
176
     1
 62
   257
176
     1
 90
        1
176
     1
 90
        1
176
     1
 40
1.0
176
     1
 90
        8
176
     1
 62
     7
176
     1
 40
1.0
176
     1
 90
        1
176
     1
 90
        6
176
     1
 90
        2
176
     1
 62
     7
176
     1
 90
        5
176
     1
 90
        0
176
     1
 90
        0
176
     1
290
     0
176
     1
 90
       13
176
     1
 40
0.0
176
     1
 90
        0
176
     1
290
     0
176
     1
290
     1
176
     1
290
     1
176
     1
290
     0
176
     1
290
     0
176
     1
290
     0
176
     1
290
     0
176
     1
290
     0
176
     1
290
     0
176
     1
 90
       50
176
     1
 40
0.0
176
     1
 40
1.0
176
     1
 90
        0
176
     1
 62
    18
420
        0
176
     1
 90
       50
176
     1
 90
        3
176
     1
 62
     5
420
      255
176
     1
290
     0
176
     1
 90
       50
176
     1
 90
       50
176
     1
 90
       50
176
     1
290
     0
176
     1
 90
       50
176
     1
 62
   256
176
     0
 40
1.0
176
     0
 90
        2
176
     1
  1
strokes_ogs.tif
176
     1
290
     0
176
     1
 40
1.0
176
     1
 40
1.0
176
     1
  0
VISUALSTYLE
  5
57E
102
{ACAD_REACTORS
330
57C
102
}
330
57C
100
AcDbVisualStyle
  2
FlatWithEdges
 70
     1
177
     3
291
     1
 70
    58
 90
        2
176
     1
 90
        1
176
     1
 90
        1
176
     1
 90
        2
176
     1
 40
0.6
176
     1
 40
30.0
176
     1
 62
     7
420
 16777215
176
     1
 90
        1
176
     1
 90
        0
176
     1
 62
     7
176
     1
 62
   257
176
     1
 90
        1
176
     1
 90
        1
176
     1
 40
1.0
176
     1
 90
        0
176
     1
 62
   257
176
     1
 40
1.0
176
     1
 90
        1
176
     1
 90
        6
176
     1
 90
        2
176
     1
 62
     7
176
     1
 90
        5
176
     1
 90
        0
176
     1
 90
        0
176
     1
290
     0
176
     1
 90
       13
176
     1
 40
0.0
176
     1
 90
        0
176
     1
290
     0
176
     1
290
     1
176
     1
290
     1
176
     1
290
     0
176
     1
290
     0
176
     1
290
     0
176
     1
290
     0
176
     1
290
     0
176
     1
290
     0
176
     1
 90
       50
176
     1
 40
0.0
176
     1
 40
1.0
176
     1
 90
        0
176
     1
 62
    18
420
        0
176
     1
 90
       50
176
     1
 90
        3
176
     1
 62
     5
420
      255
176
     1
290
     0
176
     1
 90
       50
176
     1
 90
       50
176
     1
 90
       50
176
     1
290
     0
176
     1
 90
       50
176
     1
 62
   256
176
     0
 40
1.0
176
     0
 90
        2
176
     1
  1
strokes_ogs.tif
176
     1
290
     0
176
     1
 40
1.0
176
     1
 40
1.0
176
     1
  0
VISUALSTYLE
  5
57F
102
{ACAD_REACTORS
330
57C
102
}
330
57C
100
AcDbVisualStyle
  2
Gouraud
 70
     2
177
     3
291
     1
 70
    58
 90
        2
176
     1
 90
        2
176
     1
 90
        1
176
     1
 90
        2
176
     1
 40
0.6
176
     1
 40
30.0
176
     1
 62
     7
420
 16777215
176
     1
 90
        0
176
     1
 90
        0
176
     1
 62
     7
176
     1
 62
   257
176
     1
 90
        1
176
     1
 90
        1
176
     1
 40
1.0
176
     1
 90
        0
176
     1
 62
     7
176
     1
 40
1.0
176
     1
 90
        1
176
     1
 90
        6
176
     1
 90
        2
176
     1
 62
     7
176
     1
 90
        5
176
     1
 90
        0
176
     1
 90
        0
176
     1
290
     0
176
     1
 90
       13
176
     1
 40
0.0
176
     1
 90
        0
176
     1
290
     0
176
     1
290
     1
176
     1
290
     1
176
     1
290
     0
176
     1
290
     0
176
     1
290
     0
176
     1
290
     0
176
     1
290
     0
176
     1
290
     0
176
     1
 90
       50
176
     1
 40
0.0
176
     1
 40
1.0
176
     1
 90
        0
176
     1
 62
    18
420
        0
176
     1
 90
       50
176
     1
 90
        3
176
     1
 62
     5
420
      255
176
     1
290
     0
176
     1
 90
       50
176
     1
 90
       50
176
     1
 90
       50
176
     1
290
     0
176
     1
 90
       50
176
     1
 62
   256
176
     0
 40
1.0
176
     0
 90
        2
176
     1
  1
strokes_ogs.tif
176
     1
290
     0
176
     1
 40
1.0
176
     1
 40
1.0
176
     1
  0
VISUALSTYLE
  5
580
102
{ACAD_REACTORS
330
57C
102
}
330
57C
100
AcDbVisualStyle
  2
GouraudWithEdges
 70
     3
177
     3
291
     1
 70
    58
 90
        2
176
     1
 90
        2
176
     1
 90
        1
176
     1
 90
        2
176
     1
 40
0.6
176
     1
 40
30.0
176
     1
 62
     7
420
 16777215
176
     1
 90
        1
176
     1
 90
        0
176
     1
 62
     7
176
     1
 62
   257
176
     1
 90
        1
176
     1
 90
        1
176
     1
 40
1.0
176
     1
 90
        0
176
     1
 62
   257
176
     1
 40
1.0
176
     1
 90
        1
176
     1
 90
        6
176
     1
 90
        2
176
     1
 62
     7
176
     1
 90
        5
176
     1
 90
        0
176
     1
 90
        0
176
     1
290
     0
176
     1
 90
       13
176
     1
 40
0.0
176
     1
 90
        0
176
     1
290
     0
176
     1
290
     1
176
     1
290
     1
176
     1
290
     0
176
     1
290
     0
176
     1
290
     0
176
     1
290
     0
176
     1
290
     0
176
     1
290
     0
176
     1
 90
       50
176
     1
 40
0.0
176
     1
 40
1.0
176
     1
 90
        0
176
     1
 62
    18
420
        0
176
     1
 90
       50
176
     1
 90
        3
176
     1
 62
     5
420
      255
176
     1
290
     0
176
     1
 90
       50
176
     1
 90
       50
176
     1
 90
       50
176
     1
290
     0
176
     1
 90
       50
176
     1
 62
   256
176
     0
 40
1.0
176
     0
 90
        2
176
     1
  1
strokes_ogs.tif
176
     1
290
     0
176
     1
 40
1.0
176
     1
 40
1.0
176
     1
  0
VISUALSTYLE
  5
583
102
{ACAD_REACTORS
330
57C
102
}
330
57C
100
AcDbVisualStyle
  2
Hidden
 70
     6
177
     3
291
     0
 70
    58
 90
        1
176
     1
 90
        2
176
     1
 90
        2
176
     1
 90
        0
176
     1
 40
0.6
176
     1
 40
30.0
176
     1
 62
     7
420
 16777215
176
     1
 90
        2
176
     1
 90
        2
176
     1
 62
     7
176
     1
 62
   257
176
     1
 90
        2
176
     1
 90
        1
176
     1
 40
40.0
176
     1
 90
        0
176
     1
 62
   257
176
     1
 40
1.0
176
     1
 90
        1
176
     1
 90
        6
176
     1
 90
        2
176
     1
 62
     7
176
     1
 90
        3
176
     1
 90
        0
176
     1
 90
        0
176
     1
290
     0
176
     1
 90
        1
176
     1
 40
0.0
176
     1
 90
        0
176
     1
290
     0
176
     1
290
     1
176
     1
290
     1
176
     1
290
     0
176
     1
290
     0
176
     1
290
     0
176
     1
290
     0
176
     1
290
     0
176
     1
290
     0
176
     1
 90
       50
176
     1
 40
0.0
176
     1
 40
1.0
176
     1
 90
        0
176
     1
 62
    18
420
        0
176
     1
 90
       50
176
     1
 90
        3
176
     1
 62
     5
420
      255
176
     1
290
     0
176
     1
 90
       50
176
     1
 90
       50
176
     1
 90
       50
176
     1
290
     0
176
     1
 90
       50
176
     1
 62
   256
176
     0
 40
1.0
176
     0
 90
        2
176
     1
  1
strokes_ogs.tif
176
     1
290
     0
176
     1
 40
1.0
176
     1
 40
1.0
176
     1
  0
VISUALSTYLE
  5
58D
102
{ACAD_REACTORS
330
57C
102
}
330
57C
100
AcDbVisualStyle
  2
JitterOff
 70
    20
177
     3
291
     1
 70
    58
 90
        2
176
     0
 90
        2
176
     0
 90
        0
176
     0
 90
        0
176
     0
 40
0.6
176
     0
 40
30.0
176
     0
 62
     7
420
 16777215
176
     0
 90
        1
176
     0
 90
        4
176
     0
 62
     7
176
     0
 62
   257
176
     0
 90
        1
176
     0
 90
        1
176
     0
 40
1.0
176
     0
 90
       10
176
     2
 62
     7
176
     0
 40
1.0
176
     0
 90
        1
176
     0
 90
        6
176
     0
 90
        2
176
     0
 62
     7
176
     0
 90
        5
176
     0
 90
        0
176
     0
 90
        0
176
     0
290
     0
176
     0
 90
        1
176
     0
 40
0.0
176
     0
 90
        0
176
     0
290
     0
176
     0
290
     1
176
     0
290
     1
176
     0
290
     0
176
     0
290
     0
176
     0
290
     0
176
     0
290
     0
176
     0
290
     0
176
     0
290
     0
176
     0
 90
       50
176
     0
 40
0.0
176
     0
 40
1.0
176
     0
 90
        0
176
     0
 62
    18
420
        0
176
     0
 90
       50
176
     0
 90
        3
176
     0
 62
     5
420
      255
176
     0
290
     0
176
     0
 90
       50
176
     0
 90
       50
176
     0
 90
       50
176
     0
290
     0
176
     0
 90
       50
176
     0
 62
   256
176
     0
 40
1.0
176
     0
 90
        2
176
     0
  1
strokes_ogs.tif
176
     0
290
     0
176
     0
 40
1.0
176
     0
 40
1.0
176
     0
  0
VISUALSTYLE
  5
58A
102
{ACAD_REACTORS
330
57C
102
}
330
57C
100
AcDbVisualStyle
  2
Linepattern
 70
    14
177
     3
291
     1
 70
    58
 90
        2
176
     1
 90
        2
176
     1
 90
        0
176
     1
 90
        0
176
     1
 40
0.6
176
     1
 40
30.0
176
     1
 62
     7
420
 16777215
176
     1
 90
        1
176
     1
 90
        4
176
     1
 62
     7
176
     1
 62
   257
176
     1
 90
        7
176
     1
 90
        7
176
     1
 40
1.0
176
     1
 90
        8
176
     1
 62
     7
176
     1
 40
1.0
176
     1
 90
        1
176
     1
 90
        6
176
     1
 90
        2
176
     1
 62
     7
176
     1
 90
        5
176
     1
 90
        0
176
     1
 90
        0
176
     1
290
     0
176
     1
 90
        1
176
     1
 40
0.0
176
     1
 90
        0
176
     1
290
     0
176
     1
290
     1
176
     1
290
     1
176
     1
290
     0
176
     1
290
     0
176
     1
290
     0
176
     1
290
     0
176
     1
290
     0
176
     1
290
     0
176
     1
 90
       50
176
     1
 40
0.0
176
     1
 40
1.0
176
     1
 90
        0
176
     1
 62
    18
420
        0
176
     1
 90
       50
176
     1
 90
        3
176
     1
 62
     5
420
      255
176
     1
290
     0
176
     1
 90
       50
176
     1
 90
       50
176
     1
 90
       50
176
     1
290
     0
176
     1
 90
       50
176
     1
 62
   256
176
     0
 40
1.0
176
     0
 90
        2
176
     1
  1
strokes_ogs.tif
176
     1
290
     0
176
     1
 40
1.0
176
     1
 40
1.0
176
     1
  0
VISUALSTYLE
  5
58E
102
{ACAD_REACTORS
330
57C
102
}
330
57C
100
AcDbVisualStyle
  2
OverhangOff
 70
    21
177
     3
291
     1
 70
    58
 90
        2
176
     0
 90
        2
176
     0
 90
        0
176
     0
 90
        0
176
     0
 40
0.6
176
     0
 40
30.0
176
     0
 62
     7
420
 16777215
176
     0
 90
        1
176
     0
 90
        4
176
     0
 62
     7
176
     0
 62
   257
176
     0
 90
        1
176
     0
 90
        1
176
     0
 40
1.0
176
     0
 90
        9
176
     2
 62
     7
176
     0
 40
1.0
176
     0
 90
        1
176
     0
 90
        6
176
     0
 90
        2
176
     0
 62
     7
176
     0
 90
        5
176
     0
 90
        0
176
     0
 90
        0
176
     0
290
     0
176
     0
 90
        1
176
     0
 40
0.0
176
     0
 90
        0
176
     0
290
     0
176
     0
290
     1
176
     0
290
     1
176
     0
290
     0
176
     0
290
     0
176
     0
290
     0
176
     0
290
     0
176
     0
290
     0
176
     0
290
     0
176
     0
 90
       50
176
     0
 40
0.0
176
     0
 40
1.0
176
     0
 90
        0
176
     0
 62
    18
420
        0
176
     0
 90
       50
176
     0
 90
        3
176
     0
 62
     5
420
      255
176
     0
290
     0
176
     0
 90
       50
176
     0
 90
       50
176
     0
 90
       50
176
     0
290
     0
176
     0
 90
       50
176
     0
 62
   256
176
     0
 40
1.0
176
     0
 90
        2
176
     0
  1
strokes_ogs.tif
176
     0
290
     0
176
     0
 40
1.0
176
     0
 40
1.0
176
     0
  0
VISUALSTYLE
  5
585
102
{ACAD_REACTORS
330
57C
102
}
330
57C
100
AcDbVisualStyle
  2
Realistic
 70
     8
177
     3
291
     0
 70
    58
 90
        2
176
     1
 90
        3
176
     1
 90
        0
176
     1
 90
        2
176
     1
 40
0.6
176
     1
 40
30.0
176
     1
 62
     7
420
 16777215
176
     1
 90
        0
176
     1
 90
        0
176
     1
 62
     7
176
     1
 62
   257
176
     1
 90
        1
176
     1
 90
        1
176
     1
 40
1.0
176
     1
 90
        8
176
     1
 62
   257
176
     1
 40
1.0
176
     1
 90
        1
176
     1
 90
        6
176
     1
 90
        2
176
     1
 62
     7
176
     1
 90
        3
176
     1
 90
        0
176
     1
 90
        0
176
     1
290
     0
176
     1
 90
       13
176
     1
 40
0.0
176
     1
 90
        0
176
     1
290
     0
176
     1
290
     1
176
     1
290
     1
176
     1
290
     0
176
     1
290
     0
176
     1
290
     0
176
     1
290
     0
176
     1
290
     0
176
     1
290
     0
176
     1
 90
       50
176
     1
 40
0.0
176
     1
 40
1.0
176
     1
 90
        0
176
     1
 62
    18
420
        0
176
     1
 90
       50
176
     1
 90
        3
176
     1
 62
     5
420
      255
176
     1
290
     0
176
     1
 90
       50
176
     1
 90
       50
176
     1
 90
       50
176
     1
290
     0
176
     1
 90
       50
176
     1
 62
   256
176
     0
 40
1.0
176
     0
 90
        2
176
     1
  1
strokes_ogs.tif
176
     1
290
     0
176
     1
 40
1.0
176
     1
 40
1.0
176
     1
  0
VISUALSTYLE
  5
594
102
{ACAD_REACTORS
330
57C
102
}
330
57C
100
AcDbVisualStyle
  2
Shaded
 70
    27
177
     3
291
     0
 70
    58
 90
        2
176
     1
 90
        2
176
     1
 90
        1
176
     1
 90
        2
176
     1
 40
0.6
176
     1
 40
30.0
176
     1
 62
     7
420
 16777215
176
     1
 90
        0
176
     1
 90
        4
176
     1
 62
     7
176
     1
 62
   257
176
     1
 90
        1
176
     1
 90
        1
176
     1
 40
1.0
176
     1
 90
        8
176
     1
 62
   257
176
     1
 40
1.0
176
     1
 90
        1
176
     1
 90
        6
176
     1
 90
        2
176
     1
 62
     8
420
  7895160
176
     1
 90
        3
176
     1
 90
        0
176
     1
 90
        0
176
     1
290
     0
176
     1
 90
        5
176
     1
 40
0.0
176
     1
 90
        0
176
     1
290
     0
176
     1
290
     1
176
     1
290
     1
176
     1
290
     0
176
     1
290
     0
176
     1
290
     0
176
     1
290
     0
176
     1
290
     0
176
     1
290
     0
176
     1
 90
       50
176
     1
 40
0.0
176
     1
 40
1.0
176
     1
 90
        0
176
     1
 62
    18
420
        0
176
     1
 90
       50
176
     1
 90
        3
176
     1
 62
     5
420
      255
176
     1
290
     0
176
     1
 90
       50
176
     1
 90
       50
176
     1
 90
       50
176
     1
290
     0
176
     1
 90
       50
176
     1
 62
   256
176
     0
 40
1.0
176
     0
 90
        2
176
     1
  1
strokes_ogs.tif
176
     1
290
     0
176
     1
 40
1.0
176
     1
 40
1.0
176
     1
  0
VISUALSTYLE
  5
593
102
{ACAD_REACTORS
330
57C
102
}
330
57C
100
AcDbVisualStyle
  2
Shaded with edges
 70
    26
177
     3
291
     0
 70
    58
 90
        2
176
     1
 90
        2
176
     1
 90
        1
176
     1
 90
        2
176
     1
 40
0.6
176
     1
 40
30.0
176
     1
 62
     7
420
 16777215
176
     1
 90
        1
176
     1
 90
       10
176
     1
 62
     7
176
     1
 62
   257
176
     1
 90
        2
176
     1
 90
        1
176
     1
 40
1.0
176
     1
 90
        8
176
     1
 62
   257
176
     1
 40
1.0
176
     1
 90
        1
176
     1
 90
        6
176
     1
 90
        2
176
     1
 62
     7
176
     1
 90
        3
176
     1
 90
        0
176
     1
 90
        0
176
     1
290
     0
176
     1
 90
        5
176
     1
 40
0.0
176
     1
 90
        0
176
     1
290
     0
176
     1
290
     1
176
     1
290
     1
176
     1
290
     0
176
     1
290
     0
176
     1
290
     0
176
     1
290
     0
176
     1
290
     0
176
     1
290
     0
176
     1
 90
       50
176
     1
 40
0.0
176
     1
 40
1.0
176
     1
 90
        0
176
     1
 62
    18
420
        0
176
     1
 90
       50
176
     1
 90
        3
176
     1
 62
     5
420
      255
176
     1
290
     0
176
     1
 90
       50
176
     1
 90
       50
176
     1
 90
       50
176
     1
290
     0
176
     1
 90
       50
176
     1
 62
   256
176
     0
 40
1.0
176
     0
 90
        2
176
     1
  1
strokes_ogs.tif
176
     1
290
     0
176
     1
 40
1.0
176
     1
 40
1.0
176
     1
  0
VISUALSTYLE
  5
590
102
{ACAD_REACTORS
330
57C
102
}
330
57C
100
AcDbVisualStyle
  2
Shades of Gray
 70
    23
177
     3
291
     0
 70
    58
 90
        2
176
     1
 90
        2
176
     1
 90
        3
176
     1
 90
        0
176
     1
 40
0.6
176
     1
 40
30.0
176
     1
 62
     7
420
 16777215
176
     1
 90
        2
176
     1
 90
        2
176
     1
 62
     7
176
     1
 62
     7
176
     1
 90
        1
176
     1
 90
        1
176
     1
 40
40.0
176
     1
 90
        8
176
     1
 62
     7
176
     1
 40
1.0
176
     1
 90
        1
176
     1
 90
        6
176
     1
 90
        2
176
     1
 62
     7
176
     1
 90
        3
176
     1
 90
        0
176
     1
 90
        0
176
     1
290
     0
176
     1
 90
        1
176
     1
 40
0.0
176
     1
 90
        0
176
     1
290
     0
176
     1
290
     1
176
     1
290
     1
176
     1
290
     0
176
     1
290
     0
176
     1
290
     0
176
     1
290
     0
176
     1
290
     0
176
     1
290
     0
176
     1
 90
       50
176
     1
 40
0.0
176
     1
 40
1.0
176
     1
 90
        0
176
     1
 62
    18
420
        0
176
     1
 90
       50
176
     1
 90
        3
176
     1
 62
     5
420
      255
176
     1
290
     0
176
     1
 90
       50
176
     1
 90
       50
176
     1
 90
       50
176
     1
290
     0
176
     1
 90
       50
176
     1
 62
   256
176
     0
 40
1.0
176
     0
 90
        2
176
     1
  1
strokes_ogs.tif
176
     1
290
     0
176
     1
 40
1.0
176
     1
 40
1.0
176
     1
  0
VISUALSTYLE
  5
591
102
{ACAD_REACTORS
330
57C
102
}
330
57C
100
AcDbVisualStyle
  2
Sketchy
 70
    24
177
     3
291
     0
 70
    58
 90
        1
176
     1
 90
        2
176
     1
 90
        2
176
     1
 90
        0
176
     1
 40
0.6
176
     1
 40
30.0
176
     1
 62
     7
420
 16777215
176
     1
 90
        2
176
     1
 90
        2
176
     1
 62
     7
176
     1
 62
     7
176
     1
 90
        1
176
     1
 90
        1
176
     1
 40
40.0
176
     1
 90
       11
176
     1
 62
     7
176
     1
 40
1.0
176
     1
 90
        1
176
     1
 90
        6
176
     1
 90
        2
176
     1
 62
     7
176
     1
 90
        6
176
     1
 90
        0
176
     1
 90
        0
176
     1
290
     0
176
     1
 90
        1
176
     1
 40
0.0
176
     1
 90
        0
176
     1
290
     0
176
     1
290
     1
176
     1
290
     1
176
     1
290
     0
176
     1
290
     0
176
     1
290
     0
176
     1
290
     0
176
     1
290
     0
176
     1
290
     0
176
     1
 90
       50
176
     1
 40
0.0
176
     1
 40
1.0
176
     1
 90
        0
176
     1
 62
    18
420
        0
176
     1
 90
       50
176
     1
 90
        3
176
     1
 62
     5
420
      255
176
     1
290
     0
176
     1
 90
       50
176
     1
 90
       50
176
     1
 90
       50
176
     1
290
     0
176
     1
 90
       50
176
     1
 62
   256
176
     0
 40
1.0
176
     0
 90
        2
176
     1
  1
strokes_ogs.tif
176
     1
290
     0
176
     1
 40
1.0
176
     1
 40
1.0
176
     1
  0
VISUALSTYLE
  5
589
102
{ACAD_REACTORS
330
57C
102
}
330
57C
100
AcDbVisualStyle
  2
Thicken
 70
    13
177
     3
291
     1
 70
    58
 90
        2
176
     1
 90
        2
176
     1
 90
        0
176
     1
 90
        0
176
     1
 40
0.6
176
     1
 40
30.0
176
     1
 62
     7
420
 16777215
176
     1
 90
        1
176
     1
 90
        4
176
     1
 62
     7
176
     1
 62
   257
176
     1
 90
        1
176
     1
 90
        1
176
     1
 40
1.0
176
     1
 90
       12
176
     1
 62
     7
176
     1
 40
1.0
176
     1
 90
        1
176
     1
 90
        6
176
     1
 90
        2
176
     1
 62
     7
176
     1
 90
        5
176
     1
 90
        0
176
     1
 90
        0
176
     1
290
     0
176
     1
 90
        1
176
     1
 40
0.0
176
     1
 90
        0
176
     1
290
     0
176
     1
290
     1
176
     1
290
     1
176
     1
290
     0
176
     1
290
     0
176
     1
290
     0
176
     1
290
     0
176
     1
290
     0
176
     1
290
     0
176
     1
 90
       50
176
     1
 40
0.0
176
     1
 40
1.0
176
     1
 90
        0
176
     1
 62
    18
420
        0
176
     1
 90
       50
176
     1
 90
        3
176
     1
 62
     5
420
      255
176
     1
290
     0
176
     1
 90
       50
176
     1
 90
       50
176
     1
 90
       50
176
     1
290
     0
176
     1
 90
       50
176
     1
 62
   256
176
     0
 40
1.0
176
     0
 90
        2
176
     1
  1
strokes_ogs.tif
176
     1
290
     0
176
     1
 40
1.0
176
     1
 40
1.0
176
     1
  0
VISUALSTYLE
  5
582
102
{ACAD_REACTORS
330
57C
102
}
330
57C
100
AcDbVisualStyle
  2
Wireframe
 70
     5
177
     3
291
     0
 70
    58
 90
        0
176
     1
 90
        2
176
     1
 90
        0
176
     1
 90
        0
176
     1
 40
0.6
176
     1
 40
30.0
176
     1
 62
     7
420
 16777215
176
     1
 90
        1
176
     1
 90
        4
176
     1
 62
     7
176
     1
 62
   257
176
     1
 90
        1
176
     1
 90
        1
176
     1
 40
1.0
176
     1
 90
        0
176
     1
 62
   257
176
     1
 40
1.0
176
     1
 90
        1
176
     1
 90
        6
176
     1
 90
        2
176
     1
 62
     7
176
     1
 90
        3
176
     1
 90
        0
176
     1
 90
        0
176
     1
290
     0
176
     1
 90
        1
176
     1
 40
0.0
176
     1
 90
        0
176
     1
290
     0
176
     1
290
     1
176
     1
290
     1
176
     1
290
     0
176
     1
290
     0
176
     1
290
     0
176
     1
290
     0
176
     1
290
     0
176
     1
290
     0
176
     1
 90
       50
176
     1
 40
0.0
176
     1
 40
1.0
176
     1
 90
        0
176
     1
 62
    18
420
        0
176
     1
 90
       50
176
     1
 90
        3
176
     1
 62
     5
420
      255
176
     1
290
     0
176
     1
 90
       50
176
     1
 90
       50
176
     1
 90
       50
176
     1
290
     0
176
     1
 90
       50
176
     1
 62
   256
176
     0
 40
1.0
176
     0
 90
        2
176
     1
  1
strokes_ogs.tif
176
     1
290
     0
176
     1
 40
1.0
176
     1
 40
1.0
176
     1
  0
VISUALSTYLE
  5
592
102
{ACAD_REACTORS
330
57C
102
}
330
57C
100
AcDbVisualStyle
  2
X-Ray
 70
    25
177
     3
291
     0
 70
    58
 90
        2
176
     1
 90
        2
176
     1
 90
        1
176
     1
 90
        1
176
     1
 40
0.5
176
     1
 40
30.0
176
     1
 62
     7
420
 16777215
176
     1
 90
        1
176
     1
 90
        0
176
     1
 62
     7
176
     1
 62
   257
176
     1
 90
        1
176
     1
 90
        1
176
     1
 40
1.0
176
     1
 90
        8
176
     1
 62
     7
176
     1
 40
1.0
176
     1
 90
        1
176
     1
 90
        6
176
     1
 90
        2
176
     1
 62
     7
176
     1
 90
        3
176
     1
 90
        0
176
     1
 90
        0
176
     1
290
     0
176
     1
 90
       13
176
     1
 40
0.0
176
     1
 90
        0
176
     1
290
     0
176
     1
290
     1
176
     1
290
     1
176
     1
290
     0
176
     1
290
     0
176
     1
290
     0
176
     1
290
     0
176
     1
290
     0
176
     1
290
     0
176
     1
 90
       50
176
     1
 40
0.0
176
     1
 40
1.0
176
     1
 90
        0
176
     1
 62
    18
420
        0
176
     1
 90
       50
176
     1
 90
        3
176
     1
 62
     5
420
      255
176
     1
290
     0
176
     1
 90
       50
176
     1
 90
       50
176
     1
 90
       50
176
     1
290
     0
176
     1
 90
       50
176
     1
 62
   256
176
     0
 40
1.0
176
     0
 90
        2
176
     1
  1
strokes_ogs.tif
176
     1
290
     0
176
     1
 40
1.0
176
     1
 40
1.0
176
     1
  0
DICTIONARYVAR
  5
59F
102
{ACAD_REACTORS
330
59E
102
}
330
59E
100
DictionaryVariables
280
     0
  1
1:1
  0
DICTIONARYVAR
  5
5A4
102
{ACAD_REACTORS
330
59E
102
}
330
59E
100
DictionaryVariables
280
     0
  1
Standard
  0
DICTIONARYVAR
  5
5A3
102
{ACAD_REACTORS
330
59E
102
}
330
59E
100
DictionaryVariables
280
     0
  1
Standard
  0
DICTIONARYVAR
  5
5A5
102
{ACAD_REACTORS
330
59E
102
}
330
59E
100
DictionaryVariables
280
     0
  1
0
  0
DICTIONARY
  5
5A0
330
59A
100
AcDbDictionary
280
     1
281
     1
  3
ACAD_ROUNDTRIP_2008_TABLESTYLE_CELLSTYLEMAP
360
5A1
  0
CELLSTYLEMAP
  5
5A1
102
{ACAD_REACTORS
330
5A0
102
}
330
5A0
100
AcDbCellStyleMap
 90
        3
300
CELLSTYLE
  1
TABLEFORMAT_BEGIN
 90
        5
170
     1
 91
        0
 92
    32768
 62
   257
 93
        1
300
CONTENTFORMAT
  1
CONTENTFORMAT_BEGIN
 90
        0
 91
        0
 92
        4
 93
        0
300

 40
0.0
140
1.0
 94
        5
 62
     0
340
11
144
6.0
309
CONTENTFORMAT_END
171
     1
301
MARGIN
  1
CELLMARGIN_BEGIN
 40
1.5
 40
1.5
 40
1.5
 40
1.5
 40
1.5
 40
1.5
309
CELLMARGIN_END
 94
        6
 95
        1
302
GRIDFORMAT
  1
GRIDFORMAT_BEGIN
 90
        0
 91
        1
 62
     0
 92
       -2
340
14
 93
        0
 40
0.045
309
GRIDFORMAT_END
 95
        2
302
GRIDFORMAT
  1
GRIDFORMAT_BEGIN
 90
        0
 91
        1
 62
     0
 92
       -2
340
14
 93
        0
 40
0.045
309
GRIDFORMAT_END
 95
        4
302
GRIDFORMAT
  1
GRIDFORMAT_BEGIN
 90
        0
 91
        1
 62
     0
 92
       -2
340
14
 93
        0
 40
0.045
309
GRIDFORMAT_END
 95
        8
302
GRIDFORMAT
  1
GRIDFORMAT_BEGIN
 90
        0
 91
        1
 62
     0
 92
       -2
340
14
 93
        0
 40
0.045
309
GRIDFORMAT_END
 95
       16
302
GRIDFORMAT
  1
GRIDFORMAT_BEGIN
 90
        0
 91
        1
 62
     0
 92
       -2
340
14
 93
        0
 40
0.045
309
GRIDFORMAT_END
 95
       32
302
GRIDFORMAT
  1
GRIDFORMAT_BEGIN
 90
        0
 91
        1
 62
     0
 92
       -2
340
14
 93
        0
 40
0.045
309
GRIDFORMAT_END
309
TABLEFORMAT_END
  1
CELLSTYLE_BEGIN
 90
        1
 91
        1
300
_TITLE
309
CELLSTYLE_END
300
CELLSTYLE
  1
TABLEFORMAT_BEGIN
 90
        5
170
     1
 91
        0
 92
        0
 62
   257
 93
        1
300
CONTENTFORMAT
  1
CONTENTFORMAT_BEGIN
 90
        0
 91
        0
 92
        4
 93
        0
300

 40
0.0
140
1.0
 94
        5
 62
     0
340
11
144
4.5
309
CONTENTFORMAT_END
171
     1
301
MARGIN
  1
CELLMARGIN_BEGIN
 40
1.5
 40
1.5
 40
1.5
 40
1.5
 40
1.5
 40
1.5
309
CELLMARGIN_END
 94
        6
 95
        1
302
GRIDFORMAT
  1
GRIDFORMAT_BEGIN
 90
        0
 91
        1
 62
     0
 92
       -2
340
14
 93
        0
 40
0.045
309
GRIDFORMAT_END
 95
        2
302
GRIDFORMAT
  1
GRIDFORMAT_BEGIN
 90
        0
 91
        1
 62
     0
 92
       -2
340
14
 93
        0
 40
0.045
309
GRIDFORMAT_END
 95
        4
302
GRIDFORMAT
  1
GRIDFORMAT_BEGIN
 90
        0
 91
        1
 62
     0
 92
       -2
340
14
 93
        0
 40
0.045
309
GRIDFORMAT_END
 95
        8
302
GRIDFORMAT
  1
GRIDFORMAT_BEGIN
 90
        0
 91
        1
 62
     0
 92
       -2
340
14
 93
        0
 40
0.045
309
GRIDFORMAT_END
 95
       16
302
GRIDFORMAT
  1
GRIDFORMAT_BEGIN
 90
        0
 91
        1
 62
     0
 92
       -2
340
14
 93
        0
 40
0.045
309
GRIDFORMAT_END
 95
       32
302
GRIDFORMAT
  1
GRIDFORMAT_BEGIN
 90
        0
 91
        1
 62
     0
 92
       -2
340
14
 93
        0
 40
0.045
309
GRIDFORMAT_END
309
TABLEFORMAT_END
  1
CELLSTYLE_BEGIN
 90
        2
 91
        1
300
_HEADER
309
CELLSTYLE_END
300
CELLSTYLE
  1
TABLEFORMAT_BEGIN
 90
        5
170
     1
 91
        0
 92
        0
 62
   257
 93
        1
300
CONTENTFORMAT
  1
CONTENTFORMAT_BEGIN
 90
        0
 91
        0
 92
        4
 93
        0
300

 40
0.0
140
1.0
 94
        2
 62
     0
340
11
144
4.5
309
CONTENTFORMAT_END
171
     1
301
MARGIN
  1
CELLMARGIN_BEGIN
 40
1.5
 40
1.5
 40
1.5
 40
1.5
 40
1.5
 40
1.5
309
CELLMARGIN_END
 94
        6
 95
        1
302
GRIDFORMAT
  1
GRIDFORMAT_BEGIN
 90
        0
 91
        1
 62
     0
 92
       -2
340
14
 93
        0
 40
0.045
309
GRIDFORMAT_END
 95
        2
302
GRIDFORMAT
  1
GRIDFORMAT_BEGIN
 90
        0
 91
        1
 62
     0
 92
       -2
340
14
 93
        0
 40
0.045
309
GRIDFORMAT_END
 95
        4
302
GRIDFORMAT
  1
GRIDFORMAT_BEGIN
 90
        0
 91
        1
 62
     0
 92
       -2
340
14
 93
        0
 40
0.045
309
GRIDFORMAT_END
 95
        8
302
GRIDFORMAT
  1
GRIDFORMAT_BEGIN
 90
        0
 91
        1
 62
     0
 92
       -2
340
14
 93
        0
 40
0.045
309
GRIDFORMAT_END
 95
       16
302
GRIDFORMAT
  1
GRIDFORMAT_BEGIN
 90
        0
 91
        1
 62
     0
 92
       -2
340
14
 93
        0
 40
0.045
309
GRIDFORMAT_END
 95
       32
302
GRIDFORMAT
  1
GRIDFORMAT_BEGIN
 90
        0
 91
        1
 62
     0
 92
       -2
340
14
 93
        0
 40
0.045
309
GRIDFORMAT_END
309
TABLEFORMAT_END
  1
CELLSTYLE_BEGIN
 90
        3
 91
        2
300
_DATA
309
CELLSTYLE_END
  0
ENDSEC
  0
EOF
