  0
SECTION
  2
HEADER
  9
$ACADVER
  1
AC1027
  9
$ACADMAINTVER
 70
   105
  9
$DWGCODEPAGE
  3
ANSI_1252
  9
$REQUIREDVERSIONS
160
                 0
  9
$LASTSAVEDBY
  1
andrea.zolin
  9
$INSBASE
 10
0.0
 20
0.0
 30
0.0
  9
$EXTMIN
 10
0.0
 20
0.0
 30
0.0
  9
$EXTMAX
 10
594.0
 20
420.0
 30
0.0
  9
$LIMMIN
 10
0.0
 20
0.0
  9
$LIMMAX
 10
594.0
 20
420.0
  9
$ORTHOMODE
 70
     0
  9
$REGENMODE
 70
     1
  9
$FILLMODE
 70
     1
  9
$QTEXTMODE
 70
     0
  9
$MIRRTEXT
 70
     1
  9
$LTSCALE
 40
32.67
  9
$ATTMODE
 70
     1
  9
$TEXTSIZE
 40
0.2
  9
$TRACEWID
 40
0.05
  9
$TEXTSTYLE
  7
STANDARD
  9
$CLAYER
  8
0
  9
$CELTYPE
  6
BYLAYER
  9
$CECOLOR
 62
   256
  9
$CELTSCALE
 40
1.0
  9
$DISPSILH
 70
     0
  9
$DIMSCALE
 40
1.0
  9
$DIMASZ
 40
2.5
  9
$DIMEXO
 40
0.75
  9
$DIMDLI
 40
22.572
  9
$DIMRND
 40
0.0
  9
$DIMDLE
 40
0.0
  9
$DIMEXE
 40
0.75
  9
$DIMTP
 40
0.01
  9
$DIMTM
 40
0.01
  9
$DIMTXT
 40
3.0
  9
$DIMCEN
 40
5.346
  9
$DIMTSZ
 40
0.0
  9
$DIMTOL
 70
     1
  9
$DIMLIM
 70
     0
  9
$DIMTIH
 70
     1
  9
$DIMTOH
 70
     1
  9
$DIMSE1
 70
     0
  9
$DIMSE2
 70
     0
  9
$DIMTAD
 70
     0
  9
$DIMZIN
 70
     0
  9
$DIMBLK
  1
CLOSED
  9
$DIMASO
 70
     1
  9
$DIMSHO
 70
     1
  9
$DIMPOST
  1

  9
$DIMAPOST
  1

  9
$DIMALT
 70
     0
  9
$DIMALTD
 70
     2
  9
$DIMALTF
 40
25.4
  9
$DIMLFAC
 40
1.0
  9
$DIMTOFL
 70
     0
  9
$DIMTVP
 40
0.0
  9
$DIMTIX
 70
     0
  9
$DIMSOXD
 70
     0
  9
$DIMSAH
 70
     0
  9
$DIMBLK1
  1

  9
$DIMBLK2
  1

  9
$DIMSTYLE
  2
STANDARD
  9
$DIMCLRD
 70
     0
  9
$DIMCLRE
 70
     0
  9
$DIMCLRT
 70
     0
  9
$DIMTFAC
 40
1.0
  9
$DIMGAP
 40
0.625
  9
$DIMJUST
 70
     0
  9
$DIMSD1
 70
     0
  9
$DIMSD2
 70
     0
  9
$DIMTOLJ
 70
     1
  9
$DIMTZIN
 70
     0
  9
$DIMALTZ
 70
     0
  9
$DIMALTTZ
 70
     0
  9
$DIMUPT
 70
     0
  9
$DIMDEC
 70
     4
  9
$DIMTDEC
 70
     4
  9
$DIMALTU
 70
     2
  9
$DIMALTTD
 70
     2
  9
$DIMTXSTY
  7
STANDARD
  9
$DIMAUNIT
 70
     0
  9
$DIMADEC
 70
     0
  9
$DIMALTRND
 40
0.0
  9
$DIMAZIN
 70
     0
  9
$DIMDSEP
 70
    44
  9
$DIMATFIT
 70
     3
  9
$DIMFRAC
 70
     0
  9
$DIMLDRBLK
  1

  9
$DIMLUNIT
 70
     2
  9
$DIMLWD
 70
    -2
  9
$DIMLWE
 70
    -2
  9
$DIMTMOVE
 70
     0
  9
$DIMFXL
 40
1.0
  9
$DIMFXLON
 70
     0
  9
$DIMJOGANG
 40
0.7853981633974483
  9
$DIMTFILL
 70
     0
  9
$DIMTFILLCLR
 70
     0
  9
$DIMARCSYM
 70
     0
  9
$DIMLTYPE
  6

  9
$DIMLTEX1
  6

  9
$DIMLTEX2
  6

  9
$DIMTXTDIRECTION
 70
     0
  9
$LUNITS
 70
     2
  9
$LUPREC
 70
     4
  9
$SKETCHINC
 40
0.1
  9
$FILLETRAD
 40
0.5
  9
$AUNITS
 70
     0
  9
$AUPREC
 70
     0
  9
$MENU
  1
.
  9
$ELEVATION
 40
0.0
  9
$PELEVATION
 40
0.0
  9
$THICKNESS
 40
0.0
  9
$LIMCHECK
 70
     0
  9
$CHAMFERA
 40
0.0
  9
$CHAMFERB
 40
0.0
  9
$CHAMFERC
 40
0.0
  9
$CHAMFERD
 40
0.0
  9
$SKPOLY
 70
     0
  9
$TDCREATE
 40
2447893.041666667
  9
$TDUCREATE
 40
0.0
  9
$TDUPDATE
 40
2458474.392246065
  9
$TDUUPDATE
 40
2458474.350579398
  9
$TDINDWG
 40
0.000251713
  9
$TDUSRTIMER
 40
0.000251713
  9
$USRTIMER
 70
     1
  9
$ANGBASE
 50
0.0
  9
$ANGDIR
 70
     0
  9
$PDMODE
 70
     3
  9
$PDSIZE
 40
0.3125
  9
$PLINEWID
 40
0.0
  9
$SPLFRAME
 70
     0
  9
$SPLINETYPE
 70
     6
  9
$SPLINESEGS
 70
     8
  9
$HANDSEED
  5
3E8
  9
$SURFTAB1
 70
     6
  9
$SURFTAB2
 70
     6
  9
$SURFTYPE
 70
     6
  9
$SURFU
 70
     6
  9
$SURFV
 70
     6
  9
$UCSBASE
  2

  9
$UCSNAME
  2

  9
$UCSORG
 10
0.0
 20
0.0
 30
0.0
  9
$UCSXDIR
 10
1.0
 20
0.0
 30
0.0
  9
$UCSYDIR
 10
0.0
 20
1.0
 30
0.0
  9
$UCSORTHOREF
  2

  9
$UCSORTHOVIEW
 70
     0
  9
$UCSORGTOP
 10
0.0
 20
0.0
 30
0.0
  9
$UCSORGBOTTOM
 10
0.0
 20
0.0
 30
0.0
  9
$UCSORGLEFT
 10
0.0
 20
0.0
 30
0.0
  9
$UCSORGRIGHT
 10
0.0
 20
0.0
 30
0.0
  9
$UCSORGFRONT
 10
0.0
 20
0.0
 30
0.0
  9
$UCSORGBACK
 10
0.0
 20
0.0
 30
0.0
  9
$PUCSBASE
  2

  9
$PUCSNAME
  2

  9
$PUCSORG
 10
0.0
 20
0.0
 30
0.0
  9
$PUCSXDIR
 10
1.0
 20
0.0
 30
0.0
  9
$PUCSYDIR
 10
0.0
 20
1.0
 30
0.0
  9
$PUCSORTHOREF
  2

  9
$PUCSORTHOVIEW
 70
     0
  9
$PUCSORGTOP
 10
0.0
 20
0.0
 30
0.0
  9
$PUCSORGBOTTOM
 10
0.0
 20
0.0
 30
0.0
  9
$PUCSORGLEFT
 10
0.0
 20
0.0
 30
0.0
  9
$PUCSORGRIGHT
 10
0.0
 20
0.0
 30
0.0
  9
$PUCSORGFRONT
 10
0.0
 20
0.0
 30
0.0
  9
$PUCSORGBACK
 10
0.0
 20
0.0
 30
0.0
  9
$USERI1
 70
     0
  9
$USERI2
 70
     0
  9
$USERI3
 70
     0
  9
$USERI4
 70
     0
  9
$USERI5
 70
     0
  9
$USERR1
 40
0.0
  9
$USERR2
 40
0.0
  9
$USERR3
 40
0.0
  9
$USERR4
 40
0.0
  9
$USERR5
 40
0.0
  9
$WORLDVIEW
 70
     1
  9
$SHADEDGE
 70
     3
  9
$SHADEDIF
 70
    70
  9
$TILEMODE
 70
     0
  9
$MAXACTVP
 70
    64
  9
$PINSBASE
 10
0.0
 20
0.0
 30
0.0
  9
$PLIMCHECK
 70
     0
  9
$PEXTMIN
 10
0.0
 20
0.0
 30
0.0
  9
$PEXTMAX
 10
595.0073414770666
 20
420.0
 30
0.0
  9
$PLIMMIN
 10
0.0
 20
0.0
  9
$PLIMMAX
 10
594.0
 20
420.0
  9
$UNITMODE
 70
     0
  9
$VISRETAIN
 70
     1
  9
$PLINEGEN
 70
     0
  9
$PSLTSCALE
 70
     1
  9
$TREEDEPTH
 70
  3020
  9
$CMLSTYLE
  2
Standard
  9
$CMLJUST
 70
     0
  9
$CMLSCALE
 40
1.0
  9
$PROXYGRAPHICS
 70
     1
  9
$MEASUREMENT
 70
     1
  9
$CELWEIGHT
370
    -1
  9
$ENDCAPS
280
     0
  9
$JOINSTYLE
280
     0
  9
$LWDISPLAY
290
     0
  9
$INSUNITS
 70
     4
  9
$HYPERLINKBASE
  1

  9
$STYLESHEET
  1

  9
$XEDIT
290
     1
  9
$CEPSNTYPE
380
     0
  9
$PSTYLEMODE
290
     1
  9
$FINGERPRINTGUID
  2
{F83457F6-2C29-491B-B14A-CE6AEC626299}
  9
$VERSIONGUID
  2
{FAEB1C32-E019-11D5-929B-00C0DF256EC4}
  9
$EXTNAMES
290
     1
  9
$PSVPSCALE
 40
0.0
  9
$OLESTARTUP
290
     0
  9
$SORTENTS
280
   127
  9
$INDEXCTL
280
     0
  9
$HIDETEXT
280
     1
  9
$XCLIPFRAME
280
     2
  9
$HALOGAP
280
     0
  9
$OBSCOLOR
 70
   257
  9
$OBSLTYPE
280
     0
  9
$INTERSECTIONDISPLAY
280
     0
  9
$INTERSECTIONCOLOR
 70
   257
  9
$DIMASSOC
280
     2
  9
$PROJECTNAME
  1

  9
$CAMERADISPLAY
290
     0
  9
$LENSLENGTH
 40
50.0
  9
$CAMERAHEIGHT
 40
0.0
  9
$STEPSPERSEC
 40
2.0
  9
$STEPSIZE
 40
6.0
  9
$3DDWFPREC
 40
2.0
  9
$PSOLWIDTH
 40
0.25
  9
$PSOLHEIGHT
 40
4.0
  9
$LOFTANG1
 40
1.570796326794897
  9
$LOFTANG2
 40
1.570796326794897
  9
$LOFTMAG1
 40
0.0
  9
$LOFTMAG2
 40
0.0
  9
$LOFTPARAM
 70
     7
  9
$LOFTNORMALS
280
     1
  9
$LATITUDE
 40
37.795
  9
$LONGITUDE
 40
-122.394
  9
$NORTHDIRECTION
 40
0.0
  9
$TIMEZONE
 70
 -8000
  9
$LIGHTGLYPHDISPLAY
280
     1
  9
$TILEMODELIGHTSYNCH
280
     1
  9
$SOLIDHIST
280
     0
  9
$SHOWHIST
280
     1
  9
$DWFFRAME
280
     2
  9
$DGNFRAME
280
     2
  9
$REALWORLDSCALE
290
     1
  9
$INTERFERECOLOR
 62
   256
  9
$CSHADOW
280
     0
  9
$SHADOWPLANELOCATION
 40
0.0
  0
ENDSEC
  0
SECTION
  2
CLASSES
  0
CLASS
  1
ACDBDICTIONARYWDFLT
  2
AcDbDictionaryWithDefault
  3
ObjectDBX Classes
 90
        0
 91
        4
280
     0
281
     0
  0
CLASS
  1
ACDBPLACEHOLDER
  2
AcDbPlaceHolder
  3
ObjectDBX Classes
 90
        0
 91
        1
280
     0
281
     0
  0
CLASS
  1
LAYOUT
  2
AcDbLayout
  3
ObjectDBX Classes
 90
        0
 91
        1
280
     0
281
     0
  0
CLASS
  1
SCALE
  2
AcDbScale
  3
ObjectDBX Classes
 90
     1153
 91
        4
280
     0
281
     0
  0
CLASS
  1
VISUALSTYLE
  2
AcDbVisualStyle
  3
ObjectDBX Classes
 90
     4095
 91
        4
280
     0
281
     0
  0
CLASS
  1
MATERIAL
  2
AcDbMaterial
  3
ObjectDBX Classes
 90
     1153
 91
        4
280
     0
281
     0
  0
CLASS
  1
TABLESTYLE
  2
AcDbTableStyle
  3
ObjectDBX Classes
 90
     4095
 91
        4
280
     0
281
     0
  0
CLASS
  1
MLEADERSTYLE
  2
AcDbMLeaderStyle
  3
ACDB_MLEADERSTYLE_CLASS
 90
     4095
 91
        4
280
     0
281
     0
  0
CLASS
  1
DICTIONARYVAR
  2
AcDbDictionaryVar
  3
ObjectDBX Classes
 90
        0
 91
        4
280
     0
281
     0
  0
CLASS
  1
CELLSTYLEMAP
  2
AcDbCellStyleMap
  3
ObjectDBX Classes
 90
     1152
 91
        4
280
     0
281
     0
  0
ENDSEC
  0
SECTION
  2
TABLES
  0
TABLE
  2
VPORT
  5
8
330
0
100
AcDbSymbolTable
 70
     1
  0
VPORT
  5
1F4
330
8
100
AcDbSymbolTableRecord
100
AcDbViewportTableRecord
  2
*ACTIVE
 70
     0
 10
0.0
 20
0.0
 11
1.0
 21
1.0
 12
297.0
 22
210.0
 13
0.0
 23
0.0
 14
1.0
 24
1.0
 15
0.0
 25
0.0
 16
0.0
 26
0.0
 36
1.0
 17
0.0
 27
0.0
 37
0.0
 40
420.0
 41
1.4142857143
 42
50.0
 43
0.0
 44
0.0
 50
0.0
 51
0.0
 71
     0
 72
   100
 73
     1
 74
     1
 75
     0
 76
     0
 77
     0
 78
     0
281
     0
 65
     1
110
0.0
120
0.0
130
0.0
111
1.0
121
0.0
131
0.0
112
0.0
122
1.0
132
0.0
 79
     0
146
0.0
348
3C1
 60
     3
 61
     5
292
     1
282
     1
141
0.0
142
0.0
 63
   256
  0
ENDTAB
  0
TABLE
  2
LTYPE
  5
5
330
0
100
AcDbSymbolTable
 70
     6
  0
LTYPE
  5
14
330
5
100
AcDbSymbolTableRecord
100
AcDbLinetypeTableRecord
  2
BYBLOCK
 70
     0
  3

 72
    65
 73
     0
 40
0.0
  0
LTYPE
  5
15
330
5
100
AcDbSymbolTableRecord
100
AcDbLinetypeTableRecord
  2
BYLAYER
 70
     0
  3

 72
    65
 73
     0
 40
0.0
  0
LTYPE
  5
16
330
5
100
AcDbSymbolTableRecord
100
AcDbLinetypeTableRecord
  2
CONTINUOUS
 70
     0
  3
Solid line
 72
    65
 73
     0
 40
0.0
  0
LTYPE
  5
1F5
330
5
100
AcDbSymbolTableRecord
100
AcDbLinetypeTableRecord
  2
CENTER
 70
     0
  3
____ _ ____ _ ____ _ ____ _ ____ _ ____ _ ____
 72
    65
 73
     4
 40
0.6
 49
0.375
 74
     0
 49
-0.075
 74
     0
 49
0.075
 74
     0
 49
-0.075
 74
     0
  0
LTYPE
  5
1F6
330
5
100
AcDbSymbolTableRecord
100
AcDbLinetypeTableRecord
  2
HIDDEN
 70
     0
  3
- - - - - - - - - - - - - - - - - - - -
 72
    65
 73
     2
 40
0.2
 49
0.1
 74
     0
 49
-0.1
 74
     0
  0
LTYPE
  5
1F7
330
5
100
AcDbSymbolTableRecord
100
AcDbLinetypeTableRecord
  2
PHANTOM
 70
     0
  3
_____ _ _ _____ _ _ _____ _ _ _____
 72
    65
 73
     6
 40
0.8
 49
0.45
 74
     0
 49
-0.05
 74
     0
 49
0.1
 74
     0
 49
-0.05
 74
     0
 49
0.1
 74
     0
 49
-0.05
 74
     0
  0
LTYPE
  5
1F8
330
5
100
AcDbSymbolTableRecord
100
AcDbLinetypeTableRecord
  2
DOT
 70
     0
  3
. . . . . . . . . . . . . . . . . . . .
 72
    65
 73
     2
 40
0.2
 49
0.1
 74
     0
 49
-0.1
 74
     0
  0
LTYPE
  5
1F9
330
5
100
AcDbSymbolTableRecord
100
AcDbLinetypeTableRecord
  2
DASHED
 70
     0
  3
- - - - - - - - - - - - - - - - - - - -
 72
    65
 73
     2
 40
0.2
 49
0.1
 74
     0
 49
-0.1
 74
     0
  0
ENDTAB
  0
TABLE
  2
LAYER
  5
2
330
0
100
AcDbSymbolTable
 70
    31
  0
LAYER
  5
10
330
2
100
AcDbSymbolTableRecord
100
AcDbLayerTableRecord
  2
0
 70
     0
 62
     7
  6
CONTINUOUS
370
    -3
390
F
347
3D8
348
0
  0
LAYER
  5
1FA
330
2
100
AcDbSymbolTableRecord
100
AcDbLayerTableRecord
  2
DEFAULT_1
 70
     0
 62
     7
  6
CENTER
370
    -3
390
F
347
3D8
348
0
  0
LAYER
  5
1FB
330
2
100
AcDbSymbolTableRecord
100
AcDbLayerTableRecord
  2
DEFAULT_2
 70
     0
 62
     8
  6
HIDDEN
370
    -3
390
F
347
3D8
348
0
  0
LAYER
  5
1FC
330
2
100
AcDbSymbolTableRecord
100
AcDbLayerTableRecord
  2
DEFAULT_3
 70
     0
 62
     7
  6
PHANTOM
370
    -3
390
F
347
3D8
348
0
  0
LAYER
  5
1FD
330
2
100
AcDbSymbolTableRecord
100
AcDbLayerTableRecord
  2
01_ALL_DTM_PLN
 70
     0
 62
     7
  6
CONTINUOUS
370
    -3
390
F
347
3D8
348
0
  0
LAYER
  5
1FE
330
2
100
AcDbSymbolTableRecord
100
AcDbLayerTableRecord
  2
01__ASM_ALL_DTM_PLN
 70
     0
 62
     7
  6
CONTINUOUS
370
    -3
390
F
347
3D8
348
0
  0
LAYER
  5
1FF
330
2
100
AcDbSymbolTableRecord
100
AcDbLayerTableRecord
  2
01__ASM_DEF_DTM_PLN
 70
     0
 62
     7
  6
CONTINUOUS
370
    -3
390
F
347
3D8
348
0
  0
LAYER
  5
200
330
2
100
AcDbSymbolTableRecord
100
AcDbLayerTableRecord
  2
01___PRT_ALL_DTM_PLN
 70
     0
 62
     7
  6
CONTINUOUS
370
    -3
390
F
347
3D8
348
0
  0
LAYER
  5
201
330
2
100
AcDbSymbolTableRecord
100
AcDbLayerTableRecord
  2
01___PRT_DEF_DTM_PLN
 70
     0
 62
     7
  6
CONTINUOUS
370
    -3
390
F
347
3D8
348
0
  0
LAYER
  5
202
330
2
100
AcDbSymbolTableRecord
100
AcDbLayerTableRecord
  2
02_ALL_AXES
 70
     0
 62
     7
  6
CONTINUOUS
370
    -3
390
F
347
3D8
348
0
  0
LAYER
  5
203
330
2
100
AcDbSymbolTableRecord
100
AcDbLayerTableRecord
  2
02__ASM_ALL_AXES
 70
     0
 62
     7
  6
CONTINUOUS
370
    -3
390
F
347
3D8
348
0
  0
LAYER
  5
204
330
2
100
AcDbSymbolTableRecord
100
AcDbLayerTableRecord
  2
02___PRT_ALL_AXES
 70
     0
 62
     7
  6
CONTINUOUS
370
    -3
390
F
347
3D8
348
0
  0
LAYER
  5
205
330
2
100
AcDbSymbolTableRecord
100
AcDbLayerTableRecord
  2
03_ALL_CURVES
 70
     0
 62
     7
  6
CONTINUOUS
370
    -3
390
F
347
3D8
348
0
  0
LAYER
  5
206
330
2
100
AcDbSymbolTableRecord
100
AcDbLayerTableRecord
  2
03__ASM_ALL_CURVES
 70
     0
 62
     7
  6
CONTINUOUS
370
    -3
390
F
347
3D8
348
0
  0
LAYER
  5
207
330
2
100
AcDbSymbolTableRecord
100
AcDbLayerTableRecord
  2
03___PRT_ALL_CURVES
 70
     0
 62
     7
  6
CONTINUOUS
370
    -3
390
F
347
3D8
348
0
  0
LAYER
  5
208
330
2
100
AcDbSymbolTableRecord
100
AcDbLayerTableRecord
  2
04_ALL_DTM_PNT
 70
     0
 62
     7
  6
CONTINUOUS
370
    -3
390
F
347
3D8
348
0
  0
LAYER
  5
209
330
2
100
AcDbSymbolTableRecord
100
AcDbLayerTableRecord
  2
04__ASM_ALL_DTM_PNT
 70
     0
 62
     7
  6
CONTINUOUS
370
    -3
390
F
347
3D8
348
0
  0
LAYER
  5
20A
330
2
100
AcDbSymbolTableRecord
100
AcDbLayerTableRecord
  2
04___PRT_ALL_DTM_PNT
 70
     0
 62
     7
  6
CONTINUOUS
370
    -3
390
F
347
3D8
348
0
  0
LAYER
  5
20B
330
2
100
AcDbSymbolTableRecord
100
AcDbLayerTableRecord
  2
05_ALL_DTM_CSYS
 70
     0
 62
     7
  6
CONTINUOUS
370
    -3
390
F
347
3D8
348
0
  0
LAYER
  5
20C
330
2
100
AcDbSymbolTableRecord
100
AcDbLayerTableRecord
  2
05__ASM_ALL_DTM_CSYS
 70
     0
 62
     7
  6
CONTINUOUS
370
    -3
390
F
347
3D8
348
0
  0
LAYER
  5
20D
330
2
100
AcDbSymbolTableRecord
100
AcDbLayerTableRecord
  2
05__ASM_DEF_DTM_CSYS
 70
     0
 62
     7
  6
CONTINUOUS
370
    -3
390
F
347
3D8
348
0
  0
LAYER
  5
20E
330
2
100
AcDbSymbolTableRecord
100
AcDbLayerTableRecord
  2
05___PRT_ALL_DTM_CSYS
 70
     0
 62
     7
  6
CONTINUOUS
370
    -3
390
F
347
3D8
348
0
  0
LAYER
  5
20F
330
2
100
AcDbSymbolTableRecord
100
AcDbLayerTableRecord
  2
05___PRT_DEF_DTM_CSYS
 70
     0
 62
     7
  6
CONTINUOUS
370
    -3
390
F
347
3D8
348
0
  0
LAYER
  5
210
330
2
100
AcDbSymbolTableRecord
100
AcDbLayerTableRecord
  2
06_ALL_SURFS
 70
     0
 62
     7
  6
CONTINUOUS
370
    -3
390
F
347
3D8
348
0
  0
LAYER
  5
211
330
2
100
AcDbSymbolTableRecord
100
AcDbLayerTableRecord
  2
06__ASM_ALL_SURFS
 70
     0
 62
     7
  6
CONTINUOUS
370
    -3
390
F
347
3D8
348
0
  0
LAYER
  5
212
330
2
100
AcDbSymbolTableRecord
100
AcDbLayerTableRecord
  2
06___PRT_ALL_SURFS
 70
     0
 62
     7
  6
CONTINUOUS
370
    -3
390
F
347
3D8
348
0
  0
LAYER
  5
213
330
2
100
AcDbSymbolTableRecord
100
AcDbLayerTableRecord
  2
07__ASM_ALL_SKELETONS
 70
     0
 62
     7
  6
CONTINUOUS
370
    -3
390
F
347
3D8
348
0
  0
LAYER
  5
214
330
2
100
AcDbSymbolTableRecord
100
AcDbLayerTableRecord
  2
3_ALL_AXES
 70
     0
 62
     7
  6
CONTINUOUS
370
    -3
390
F
347
3D8
348
0
  0
LAYER
  5
215
330
2
100
AcDbSymbolTableRecord
100
AcDbLayerTableRecord
  2
7_ALL_FEATURES
 70
     0
 62
     7
  6
CONTINUOUS
370
    -3
390
F
347
3D8
348
0
  0
LAYER
  5
216
330
2
100
AcDbSymbolTableRecord
100
AcDbLayerTableRecord
  2
8_ALL_NOTES_BALLOONS_SYMBOLS_GT
 70
     0
 62
     7
  6
CONTINUOUS
370
    -3
390
F
347
3D8
348
0
  0
LAYER
  5
217
330
2
100
AcDbSymbolTableRecord
100
AcDbLayerTableRecord
  2
9_SOLID
 70
     0
 62
     7
  6
CONTINUOUS
370
    -3
390
F
347
3D8
348
0
  0
ENDTAB
  0
TABLE
  2
STYLE
  5
3
330
0
100
AcDbSymbolTable
 70
     3
  0
STYLE
  5
11
330
3
100
AcDbSymbolTableRecord
100
AcDbTextStyleTableRecord
  2
STANDARD
 70
     0
 40
0.0
 41
0.85
 50
0.0
 71
     0
 42
0.2
  3
txt
  4

  0
STYLE
  5
218
330
3
100
AcDbSymbolTableRecord
100
AcDbTextStyleTableRecord
  2
TEXTSTYLE_1
 70
     0
 40
0.0
 41
0.8
 50
0.0
 71
     0
 42
0.2
  3
gdt
  4

  0
STYLE
  5
219
330
3
100
AcDbSymbolTableRecord
100
AcDbTextStyleTableRecord
  2
TEXTSTYLE_2
 70
     0
 40
0.0
 41
2.0
 50
0.0
 71
     0
 42
0.2
  3
txt
  4

  0
ENDTAB
  0
TABLE
  2
VIEW
  5
6
330
0
100
AcDbSymbolTable
 70
     0
  0
ENDTAB
  0
TABLE
  2
UCS
  5
7
330
0
100
AcDbSymbolTable
 70
     0
  0
ENDTAB
  0
TABLE
  2
APPID
  5
9
330
0
100
AcDbSymbolTable
 70
     1
  0
APPID
  5
21A
330
9
100
AcDbSymbolTableRecord
100
AcDbRegAppTableRecord
  2
ACAD
 70
     0
  0
ENDTAB
  0
TABLE
  2
DIMSTYLE
  5
A
330
0
100
AcDbSymbolTable
 70
     3
100
AcDbDimStyleTable
  0
DIMSTYLE
105
224
330
A
100
AcDbSymbolTableRecord
100
AcDbDimStyleTableRecord
  2
STANDARD
 70
     0
 41
2.5
 42
0.75
 44
0.75
 47
0.01
 48
0.01
 71
     1
 73
     0
 74
     0
 77
     1
 78
     8
 79
     2
140
3.0
147
0.625
171
     1
178
     0
179
     2
271
     2
272
     2
278
    44
284
     8
340
11
341
21D
342
21D
343
21D
344
21D
  0
DIMSTYLE
105
225
330
A
100
AcDbSymbolTableRecord
100
AcDbDimStyleTableRecord
  2
DIMSTYLE_1
 70
     0
 41
2.5
 42
0.75
 44
0.75
 47
0.3
 48
0.3
 73
     0
 74
     0
 77
     1
 78
     8
 79
     2
140
3.0
147
0.75
171
     1
178
     0
179
     2
271
     2
272
     2
278
    44
284
     8
340
11
341
21D
342
21D
343
21D
344
21D
  0
DIMSTYLE
105
226
330
A
100
AcDbSymbolTableRecord
100
AcDbDimStyleTableRecord
  2
DIMSTYLE_2
 70
     0
 41
2.5
 42
0.75
 44
0.75
 47
0.5
 48
0.5
 73
     0
 74
     0
 77
     1
 78
     8
 79
     2
140
3.0
147
0.75
171
     1
178
     0
179
     2
271
     2
272
     2
278
    44
284
     8
340
11
341
21D
342
21D
343
21D
344
21D
  0
ENDTAB
  0
TABLE
  2
BLOCK_RECORD
  5
1
330
0
100
AcDbSymbolTable
 70
     7
  0
BLOCK_RECORD
  5
21B
330
1
100
AcDbSymbolTableRecord
100
AcDbBlockTableRecord
  2
*Model_Space
340
398
 70
     0
280
     1
281
     0
  0
BLOCK_RECORD
  5
21C
330
1
100
AcDbSymbolTableRecord
100
AcDbBlockTableRecord
  2
*Paper_Space
340
399
 70
     0
280
     1
281
     0
  0
BLOCK_RECORD
  5
21D
330
1
100
AcDbSymbolTableRecord
100
AcDbBlockTableRecord
  2
_CLOSED
340
0
102
{BLKREFS
331
279
331
27A
331
282
331
283
331
28B
331
28C
331
294
331
295
102
}
 70
     0
280
     1
281
     0
  0
BLOCK_RECORD
  5
21E
330
1
100
AcDbSymbolTableRecord
100
AcDbBlockTableRecord
  2
*D1
340
0
 70
     0
280
     1
281
     0
  0
BLOCK_RECORD
  5
21F
330
1
100
AcDbSymbolTableRecord
100
AcDbBlockTableRecord
  2
*D2
340
0
 70
     0
280
     1
281
     0
  0
BLOCK_RECORD
  5
220
330
1
100
AcDbSymbolTableRecord
100
AcDbBlockTableRecord
  2
*D3
340
0
 70
     0
280
     1
281
     0
  0
BLOCK_RECORD
  5
221
330
1
100
AcDbSymbolTableRecord
100
AcDbBlockTableRecord
  2
*D4
340
0
 70
     0
280
     1
281
     0
  0
BLOCK_RECORD
  5
222
330
1
100
AcDbSymbolTableRecord
100
AcDbBlockTableRecord
  2
LOGO2_BL1
340
0
102
{BLKREFS
331
386
102
}
 70
     0
280
     1
281
     0
  0
BLOCK_RECORD
  5
223
330
1
100
AcDbSymbolTableRecord
100
AcDbBlockTableRecord
  2
PROIEZIONE_EU_BL0
340
0
102
{BLKREFS
331
383
102
}
 70
     0
280
     1
281
     0
  0
ENDTAB
  0
ENDSEC
  0
SECTION
  2
BLOCKS
  0
BLOCK
  5
20
330
21B
100
AcDbEntity
  8
0
100
AcDbBlockBegin
  2
*Model_Space
 70
     0
 10
0.0
 20
0.0
 30
0.0
  3
*Model_Space
  1

  0
ENDBLK
  5
21
330
21B
100
AcDbEntity
  8
0
100
AcDbBlockEnd
  0
BLOCK
  5
1C
330
21C
100
AcDbEntity
 67
     1
  8
0
100
AcDbBlockBegin
  2
*Paper_Space
 70
     0
 10
0.0
 20
0.0
 30
0.0
  3
*Paper_Space
  1

  0
ENDBLK
  5
1D
330
21C
100
AcDbEntity
 67
     1
  8
0
100
AcDbBlockEnd
  0
BLOCK
  5
26D
330
21D
100
AcDbEntity
  8
0
100
AcDbBlockBegin
  2
_CLOSED
 70
     0
 10
0.0
 20
0.0
 30
0.0
  3
_CLOSED
  1

  0
LINE
  5
26E
330
21D
100
AcDbEntity
  8
0
  6
ByBlock
 62
     0
100
AcDbLine
 10
0.0
 20
0.0
 30
0.0
 11
-1.0
 21
0.2
 31
0.0
  0
LINE
  5
26F
330
21D
100
AcDbEntity
  8
0
  6
ByBlock
 62
     0
100
AcDbLine
 10
-1.0
 20
0.2
 30
0.0
 11
-1.0
 21
-0.2
 31
0.0
  0
LINE
  5
270
330
21D
100
AcDbEntity
  8
0
  6
ByBlock
 62
     0
100
AcDbLine
 10
-1.0
 20
-0.2
 30
0.0
 11
0.0
 21
0.0
 31
0.0
  0
LINE
  5
271
330
21D
100
AcDbEntity
  8
0
  6
ByBlock
 62
     0
100
AcDbLine
 10
-1.0
 20
0.0
 30
0.0
 11
0.0
 21
0.0
 31
0.0
  0
ENDBLK
  5
272
330
21D
100
AcDbEntity
  8
0
  6
ByBlock
 62
     0
100
AcDbBlockEnd
  0
BLOCK
  5
273
330
21E
100
AcDbEntity
  8
0
100
AcDbBlockBegin
  2
*D1
 70
     1
 10
0.0
 20
0.0
 30
0.0
  3
*D1
  1

  0
MTEXT
  5
274
330
21E
100
AcDbEntity
  8
0
  6
Continuous
 62
     2
100
AcDbMText
 10
103.1313985513
 20
132.2484834896
 30
0.0
 40
3.0
 41
15.75
 46
0.0
 71
     2
 72
     1
  1
80,17
 73
     1
 44
0.9
  0
LINE
  5
275
330
21E
100
AcDbEntity
  8
0
  6
Continuous
 62
     2
100
AcDbLine
 10
63.045660327
 20
135.1049501154
 30
0.0
 11
63.045660327
 21
127.7484834896
 31
0.0
  0
LINE
  5
276
330
21E
100
AcDbEntity
  8
0
  6
Continuous
 62
     2
100
AcDbLine
 10
143.2171367756
 20
324.6805413316
 30
0.0
 11
143.2171367756
 21
127.7484834896
 31
0.0
  0
LINE
  5
277
330
21E
100
AcDbEntity
  8
0
  6
Continuous
 62
     2
100
AcDbLine
 10
63.045660327
 20
128.4984834896
 30
0.0
 11
103.1313985513
 21
128.4984834896
 31
0.0
  0
LINE
  5
278
330
21E
100
AcDbEntity
  8
0
  6
Continuous
 62
     2
100
AcDbLine
 10
143.2171367756
 20
128.4984834896
 30
0.0
 11
103.1313985513
 21
128.4984834896
 31
0.0
  0
INSERT
  5
279
330
21E
100
AcDbEntity
  8
0
  6
Continuous
 62
     2
100
AcDbBlockReference
  2
_CLOSED
 10
63.045660327
 20
128.4984834896
 30
0.0
 41
2.5
 42
2.5
 43
2.5
 50
180.0
  0
INSERT
  5
27A
330
21E
100
AcDbEntity
  8
0
  6
Continuous
 62
     2
100
AcDbBlockReference
  2
_CLOSED
 10
143.2171367756
 20
128.4984834896
 30
0.0
 41
2.5
 42
2.5
 43
2.5
  0
ENDBLK
  5
27B
330
21E
100
AcDbEntity
  8
0
  6
ByBlock
 62
     0
100
AcDbBlockEnd
  0
BLOCK
  5
27C
330
21F
100
AcDbEntity
  8
0
100
AcDbBlockBegin
  2
*D2
 70
     1
 10
0.0
 20
0.0
 30
0.0
  3
*D2
  1

  0
MTEXT
  5
27D
330
21F
100
AcDbEntity
  8
0
  6
Continuous
 62
     2
100
AcDbMText
 10
47.4713965713
 20
259.6359231485
 30
0.0
 40
3.0
 41
20.25
 46
0.0
 71
     2
 72
     1
  1
224,99
 11
0.0
 21
1.0
 31
0.0
 73
     1
 44
0.9
  0
LINE
  5
27E
330
21F
100
AcDbEntity
  8
0
  6
Continuous
 62
     2
100
AcDbLine
 10
59.1350184351
 20
147.1429568722
 30
0.0
 11
50.4713965713
 21
147.1429568722
 31
0.0
  0
LINE
  5
27F
330
21F
100
AcDbEntity
  8
0
  6
Continuous
 62
     2
100
AcDbLine
 10
69.8063731419
 20
372.1288894248
 30
0.0
 11
50.4713965713
 21
372.1288894248
 31
0.0
  0
LINE
  5
280
330
21F
100
AcDbEntity
  8
0
  6
Continuous
 62
     2
100
AcDbLine
 10
51.2213965713
 20
147.1429568722
 30
0.0
 11
51.2213965713
 21
259.6359231485
 31
0.0
  0
LINE
  5
281
330
21F
100
AcDbEntity
  8
0
  6
Continuous
 62
     2
100
AcDbLine
 10
51.2213965713
 20
372.1288894248
 30
0.0
 11
51.2213965713
 21
259.6359231485
 31
0.0
  0
INSERT
  5
282
330
21F
100
AcDbEntity
  8
0
  6
Continuous
 62
     2
100
AcDbBlockReference
  2
_CLOSED
 10
51.2213965713
 20
147.1429568722
 30
0.0
 41
2.5
 42
2.5
 43
2.5
 50
270.0
  0
INSERT
  5
283
330
21F
100
AcDbEntity
  8
0
  6
Continuous
 62
     2
100
AcDbBlockReference
  2
_CLOSED
 10
51.2213965713
 20
372.1288894248
 30
0.0
 41
2.5
 42
2.5
 43
2.5
 50
90.0
  0
ENDBLK
  5
284
330
21F
100
AcDbEntity
  8
0
  6
ByBlock
 62
     0
100
AcDbBlockEnd
  0
BLOCK
  5
285
330
220
100
AcDbEntity
  8
0
100
AcDbBlockBegin
  2
*D3
 70
     1
 10
0.0
 20
0.0
 30
0.0
  3
*D3
  1

  0
MTEXT
  5
286
330
220
100
AcDbEntity
  8
0
  6
Continuous
 62
     2
100
AcDbMText
 10
268.6060090561
 20
66.9912309759
 30
0.0
 40
3.0
 41
14.7857142857
 46
0.0
 71
     2
 72
     1
  1
55,15
 11
0.0
 21
1.0
 31
0.0
 73
     1
 44
0.9
  0
LINE
  5
287
330
220
100
AcDbEntity
  8
0
  6
Continuous
 62
     2
100
AcDbLine
 10
257.5972492033
 20
39.41712218
 30
0.0
 11
273.1060090561
 21
39.41712218
 31
0.0
  0
LINE
  5
288
330
220
100
AcDbEntity
  8
0
  6
Continuous
 62
     2
100
AcDbLine
 10
258.3196816357
 20
94.5653397718
 30
0.0
 11
273.1060090561
 21
94.5653397718
 31
0.0
  0
LINE
  5
289
330
220
100
AcDbEntity
  8
0
  6
Continuous
 62
     2
100
AcDbLine
 10
272.3560090561
 20
39.41712218
 30
0.0
 11
272.3560090561
 21
66.9912309759
 31
0.0
  0
LINE
  5
28A
330
220
100
AcDbEntity
  8
0
  6
Continuous
 62
     2
100
AcDbLine
 10
272.3560090561
 20
94.5653397718
 30
0.0
 11
272.3560090561
 21
66.9912309759
 31
0.0
  0
INSERT
  5
28B
330
220
100
AcDbEntity
  8
0
  6
Continuous
 62
     2
100
AcDbBlockReference
  2
_CLOSED
 10
272.3560090561
 20
39.41712218
 30
0.0
 41
2.5
 42
2.5
 43
2.5
 50
270.0
  0
INSERT
  5
28C
330
220
100
AcDbEntity
  8
0
  6
Continuous
 62
     2
100
AcDbBlockReference
  2
_CLOSED
 10
272.3560090561
 20
94.5653397718
 30
0.0
 41
2.5
 42
2.5
 43
2.5
 50
90.0
  0
ENDBLK
  5
28D
330
220
100
AcDbEntity
  8
0
  6
ByBlock
 62
     0
100
AcDbBlockEnd
  0
BLOCK
  5
28E
330
221
100
AcDbEntity
  8
0
100
AcDbBlockBegin
  2
*D4
 70
     1
 10
0.0
 20
0.0
 30
0.0
  3
*D4
  1

  0
MTEXT
  5
28F
330
221
100
AcDbEntity
  8
0
  6
Continuous
 62
     2
100
AcDbMText
 10
227.6514383924
 20
31.2582835233
 30
0.0
 40
3.0
 41
6.4285714286
 46
0.0
 71
     2
 72
     1
  1
55
 73
     1
 44
0.9
  0
LINE
  5
290
330
221
100
AcDbEntity
  8
0
  6
Continuous
 62
     2
100
AcDbLine
 10
255.1514383924
 20
34.0815816395
 30
0.0
 11
255.1514383924
 21
26.7582835233
 31
0.0
  0
LINE
  5
291
330
221
100
AcDbEntity
  8
0
  6
Continuous
 62
     2
100
AcDbLine
 10
200.1514383924
 20
34.9449633733
 30
0.0
 11
200.1514383924
 21
26.7582835233
 31
0.0
  0
LINE
  5
292
330
221
100
AcDbEntity
  8
0
  6
Continuous
 62
     2
100
AcDbLine
 10
255.1514383924
 20
27.5082835233
 30
0.0
 11
227.6514383924
 21
27.5082835233
 31
0.0
  0
LINE
  5
293
330
221
100
AcDbEntity
  8
0
  6
Continuous
 62
     2
100
AcDbLine
 10
200.1514383924
 20
27.5082835233
 30
0.0
 11
227.6514383924
 21
27.5082835233
 31
0.0
  0
INSERT
  5
294
330
221
100
AcDbEntity
  8
0
  6
Continuous
 62
     2
100
AcDbBlockReference
  2
_CLOSED
 10
255.1514383924
 20
27.5082835233
 30
0.0
 41
2.5
 42
2.5
 43
2.5
  0
INSERT
  5
295
330
221
100
AcDbEntity
  8
0
  6
Continuous
 62
     2
100
AcDbBlockReference
  2
_CLOSED
 10
200.1514383924
 20
27.5082835233
 30
0.0
 41
2.5
 42
2.5
 43
2.5
 50
180.0
  0
ENDBLK
  5
296
330
221
100
AcDbEntity
  8
0
  6
ByBlock
 62
     0
100
AcDbBlockEnd
  0
BLOCK
  5
227
330
222
100
AcDbEntity
  8
0
100
AcDbBlockBegin
  2
LOGO2_BL1
 70
     0
 10
471.2942218552
 20
37.941664739
 30
0.0
  3
LOGO2_BL1
  1

  0
LINE
  5
228
330
222
100
AcDbEntity
  8
0
  6
Continuous
 62
     7
100
AcDbLine
 10
463.0371470834
 20
41.1371560778
 30
0.0
 11
461.732806154
 21
41.1371560778
 31
0.0
  0
LINE
  5
229
330
222
100
AcDbEntity
  8
0
  6
Continuous
 62
     7
100
AcDbLine
 10
461.732806154
 20
41.1371560778
 30
0.0
 11
461.732806154
 21
30.678090018
 31
0.0
  0
LINE
  5
22A
330
222
100
AcDbEntity
  8
0
  6
Continuous
 62
     7
100
AcDbLine
 10
461.732806154
 20
30.678090018
 30
0.0
 11
466.2138610423
 21
30.678090018
 31
0.0
  0
LINE
  5
22B
330
222
100
AcDbEntity
  8
0
  6
Continuous
 62
     7
100
AcDbLine
 10
466.2138610423
 20
30.678090018
 30
0.0
 11
466.2138610423
 21
31.870944343
 31
0.0
  0
LINE
  5
22C
330
222
100
AcDbEntity
  8
0
  6
Continuous
 62
     7
100
AcDbLine
 10
466.2138610423
 20
31.870944343
 30
0.0
 11
463.0371470834
 21
31.870944343
 31
0.0
  0
LINE
  5
22D
330
222
100
AcDbEntity
  8
0
  6
Continuous
 62
     7
100
AcDbLine
 10
463.0371470834
 20
31.870944343
 30
0.0
 11
463.0371470834
 21
41.1371560778
 31
0.0
  0
LINE
  5
22E
330
222
100
AcDbEntity
  8
0
  6
Continuous
 62
     7
100
AcDbLine
 10
477.9734732997
 20
41.1371560778
 30
0.0
 11
476.6696557816
 21
41.1371560778
 31
0.0
  0
LINE
  5
22F
330
222
100
AcDbEntity
  8
0
  6
Continuous
 62
     7
100
AcDbLine
 10
476.6696557816
 20
41.1371560778
 30
0.0
 11
476.6696557816
 21
30.678090018
 31
0.0
  0
LINE
  5
230
330
222
100
AcDbEntity
  8
0
  6
Continuous
 62
     7
100
AcDbLine
 10
476.6696557816
 20
30.678090018
 30
0.0
 11
481.1508415227
 21
30.678090018
 31
0.0
  0
LINE
  5
231
330
222
100
AcDbEntity
  8
0
  6
Continuous
 62
     7
100
AcDbLine
 10
481.1508415227
 20
30.678090018
 30
0.0
 11
481.1508415227
 21
31.870944343
 31
0.0
  0
LINE
  5
232
330
222
100
AcDbEntity
  8
0
  6
Continuous
 62
     7
100
AcDbLine
 10
481.1508415227
 20
31.870944343
 30
0.0
 11
477.9734732997
 21
31.870944343
 31
0.0
  0
LINE
  5
233
330
222
100
AcDbEntity
  8
0
  6
Continuous
 62
     7
100
AcDbLine
 10
477.9734732997
 20
31.870944343
 30
0.0
 11
477.9734732997
 21
41.1371560778
 31
0.0
  0
LWPOLYLINE
  5
234
330
222
100
AcDbEntity
  8
0
  6
Continuous
 62
     7
100
AcDbPolyline
 90
        2
 70
     0
 43
0.2
 10
460.0872010649
 20
27.3345387111
 10
460.0872010649
 20
25.4774754617
  0
LWPOLYLINE
  5
235
330
222
100
AcDbEntity
  8
0
  6
Continuous
 62
     7
100
AcDbPolyline
 90
        2
 70
     0
 43
0.2
 10
460.0872010649
 20
25.4774754617
 10
460.8829170753
 20
25.4774754617
  0
LWPOLYLINE
  5
236
330
222
100
AcDbEntity
  8
0
  6
Continuous
 62
     7
100
AcDbPolyline
 90
        2
 70
     0
 43
0.2
 10
460.8829170753
 20
25.4774754617
 10
460.8829170753
 20
25.6894570333
  0
LWPOLYLINE
  5
237
330
222
100
AcDbEntity
  8
0
  6
Continuous
 62
     7
100
AcDbPolyline
 90
        2
 70
     0
 43
0.2
 10
460.8829170753
 20
25.6894570333
 10
460.3188105598
 20
25.6894570333
  0
LWPOLYLINE
  5
238
330
222
100
AcDbEntity
  8
0
  6
Continuous
 62
     7
100
AcDbPolyline
 90
        2
 70
     0
 43
0.2
 10
460.3188105598
 20
25.6894570333
 10
460.3188105598
 20
27.3345387111
  0
LWPOLYLINE
  5
239
330
222
100
AcDbEntity
  8
0
  6
Continuous
 62
     7
100
AcDbPolyline
 90
        2
 70
     0
 43
0.2
 10
460.3188105598
 20
27.3345387111
 10
460.0872010649
 20
27.3345387111
  0
SPLINE
  5
23A
330
222
100
AcDbEntity
  8
0
  6
Continuous
 62
     7
100
AcDbSpline
 70
     3
 71
     3
 72
    35
 73
    31
 74
     0
 42
0.000000001
 43
0.0000001
 40
0.0
 40
0.0
 40
0.0
 40
0.0
 40
1.0
 40
1.0
 40
1.0
 40
2.0
 40
2.0
 40
2.0
 40
3.0
 40
3.0
 40
3.0
 40
4.0
 40
4.0
 40
4.0
 40
5.0
 40
5.0
 40
5.0
 40
6.0
 40
6.0
 40
6.0
 40
7.0
 40
7.0
 40
7.0
 40
8.0
 40
8.0
 40
8.0
 40
9.0
 40
9.0
 40
9.0
 40
10.0
 40
10.0
 40
10.0
 40
10.0
 10
462.2812103309
 20
26.6300271176
 30
0.0
 10
462.2812103309
 20
26.6300271176
 30
0.0
 10
462.2812103309
 20
25.9679118384
 30
0.0
 10
462.2812103309
 20
25.9679118384
 30
0.0
 10
462.2812103309
 20
25.6528182431
 30
0.0
 10
462.4290740197
 20
25.4382196151
 30
0.0
 10
462.769160504
 20
25.4382196151
 30
0.0
 10
463.108723577
 20
25.4382196151
 30
0.0
 10
463.2568489714
 20
25.6528182431
 30
0.0
 10
463.2568489714
 20
25.9679118384
 30
0.0
 10
463.2568489714
 20
25.9679118384
 30
0.0
 10
463.2568489714
 20
26.6300271176
 30
0.0
 10
463.2568489714
 20
26.6300271176
 30
0.0
 10
463.2568489714
 20
26.6300271176
 30
0.0
 10
463.0347917326
 20
26.6300271176
 30
0.0
 10
463.0347917326
 20
26.6300271176
 30
0.0
 10
463.0347917326
 20
26.6300271176
 30
0.0
 10
463.0347917326
 20
25.9930355803
 30
0.0
 10
463.0347917326
 20
25.9930355803
 30
0.0
 10
463.0347917326
 20
25.8072245731
 30
0.0
 10
462.9880772751
 20
25.6444436625
 30
0.0
 10
462.769160504
 20
25.6444436625
 30
0.0
 10
462.5497203215
 20
25.6444436625
 30
0.0
 10
462.5030058641
 20
25.8072245731
 30
0.0
 10
462.5030058641
 20
25.9930355803
 30
0.0
 10
462.5030058641
 20
25.9930355803
 30
0.0
 10
462.5030058641
 20
26.6300271176
 30
0.0
 10
462.5030058641
 20
26.6300271176
 30
0.0
 10
462.5030058641
 20
26.6300271176
 30
0.0
 10
462.2812103309
 20
26.6300271176
 30
0.0
 10
462.2812103309
 20
26.6300271176
 30
0.0
  0
SPLINE
  5
23B
330
222
100
AcDbEntity
  8
0
  6
Continuous
 62
     7
100
AcDbSpline
 70
     3
 71
     3
 72
    35
 73
    31
 74
     0
 42
0.000000001
 43
0.0000001
 40
0.0
 40
0.0
 40
0.0
 40
0.0
 40
1.0
 40
1.0
 40
1.0
 40
2.0
 40
2.0
 40
2.0
 40
3.0
 40
3.0
 40
3.0
 40
4.0
 40
4.0
 40
4.0
 40
5.0
 40
5.0
 40
5.0
 40
6.0
 40
6.0
 40
6.0
 40
7.0
 40
7.0
 40
7.0
 40
8.0
 40
8.0
 40
8.0
 40
9.0
 40
9.0
 40
9.0
 40
10.0
 40
10.0
 40
10.0
 40
10.0
 10
465.6799815286
 20
26.5886776259
 30
0.0
 10
465.591525021
 20
26.6399719321
 30
0.0
 10
465.4780756243
 20
26.6650956739
 30
0.0
 10
465.3744401893
 20
26.6650956739
 30
0.0
 10
465.0195673362
 20
26.6650956739
 30
0.0
 10
464.7441221459
 20
26.4012963848
 30
0.0
 10
464.7441221459
 20
26.0438064752
 30
0.0
 10
464.7441221459
 20
25.6988784365
 30
0.0
 10
465.0225769511
 20
25.4387430264
 30
0.0
 10
465.3621400241
 20
25.4387430264
 30
0.0
 10
465.4780756243
 20
25.4387430264
 30
0.0
 10
465.5788322973
 20
25.4607263005
 30
0.0
 10
465.6799815286
 20
25.5146376631
 30
0.0
 10
465.6799815286
 20
25.5146376631
 30
0.0
 10
465.6799815286
 20
25.7972797586
 30
0.0
 10
465.6799815286
 20
25.7972797586
 30
0.0
 10
465.5961048698
 20
25.7041125494
 30
0.0
 10
465.4926002876
 20
25.6449670738
 30
0.0
 10
465.3644953749
 20
25.6449670738
 30
0.0
 10
465.1307922348
 20
25.6449670738
 30
0.0
 10
464.9655251207
 20
25.8171693875
 30
0.0
 10
464.9655251207
 20
26.0537512896
 30
0.0
 10
464.9655251207
 20
26.2657328612
 30
0.0
 10
465.1332784385
 20
26.4578248039
 30
0.0
 10
465.3501015645
 20
26.4578248039
 30
0.0
 10
465.4829171788
 20
26.4578248039
 30
0.0
 10
465.591525021
 20
26.4039134412
 30
0.0
 10
465.6799815286
 20
26.3028950627
 30
0.0
 10
465.6799815286
 20
26.3028950627
 30
0.0
 10
465.6799815286
 20
26.5886776259
 30
0.0
 10
465.6799815286
 20
26.5886776259
 30
0.0
  0
SPLINE
  5
23C
330
222
100
AcDbEntity
  8
0
  6
Continuous
 62
     7
100
AcDbSpline
 70
     3
 71
     3
 72
    32
 73
    28
 74
     0
 42
0.000000001
 43
0.0000001
 40
0.0
 40
0.0
 40
0.0
 40
0.0
 40
1.0
 40
1.0
 40
1.0
 40
2.0
 40
2.0
 40
2.0
 40
3.0
 40
3.0
 40
3.0
 40
4.0
 40
4.0
 40
4.0
 40
5.0
 40
5.0
 40
5.0
 40
6.0
 40
6.0
 40
6.0
 40
7.0
 40
7.0
 40
7.0
 40
8.0
 40
8.0
 40
8.0
 40
9.0
 40
9.0
 40
9.0
 40
9.0
 10
468.2118527809
 20
26.0171124995
 30
0.0
 10
468.2118527809
 20
26.0171124995
 30
0.0
 10
468.2118527809
 20
26.0511342332
 30
0.0
 10
468.2118527809
 20
26.0511342332
 30
0.0
 10
468.2118527809
 20
26.3934452155
 30
0.0
 10
468.0389962031
 20
26.6650956739
 30
0.0
 10
467.6723465959
 20
26.6650956739
 30
0.0
 10
467.3007245815
 20
26.6650956739
 30
0.0
 10
467.1109879897
 20
26.3986793284
 30
0.0
 10
467.1109879897
 20
26.0438064752
 30
0.0
 10
467.1109879897
 20
25.7041125494
 30
0.0
 10
467.3250632064
 20
25.4382196151
 30
0.0
 10
467.6771881503
 20
25.4382196151
 30
0.0
 10
467.9012081815
 20
25.4382196151
 30
0.0
 10
468.1033757915
 20
25.5538935097
 30
0.0
 10
468.2118527809
 20
25.7533132104
 30
0.0
 10
468.2118527809
 20
25.7533132104
 30
0.0
 10
468.0242098342
 20
25.8600891131
 30
0.0
 10
468.0242098342
 20
25.8600891131
 30
0.0
 10
467.9407257338
 20
25.7213851219
 30
0.0
 10
467.8495213169
 20
25.6355456706
 30
0.0
 10
467.6799360596
 20
25.6355456706
 30
0.0
 10
467.467954488
 20
25.6355456706
 30
0.0
 10
467.3350080209
 20
25.8203098553
 30
0.0
 10
467.3326526701
 20
26.0171124995
 30
0.0
 10
467.3326526701
 20
26.0171124995
 30
0.0
 10
468.2118527809
 20
26.0171124995
 30
0.0
 10
468.2118527809
 20
26.0171124995
 30
0.0
  0
SPLINE
  5
23D
330
222
100
AcDbEntity
  8
0
  6
Continuous
 62
     7
100
AcDbSpline
 70
     3
 71
     3
 72
    14
 73
    10
 74
     0
 42
0.000000001
 43
0.0000001
 40
0.0
 40
0.0
 40
0.0
 40
0.0
 40
1.0
 40
1.0
 40
1.0
 40
2.0
 40
2.0
 40
2.0
 40
3.0
 40
3.0
 40
3.0
 40
3.0
 10
467.3446911297
 20
26.1846041116
 30
0.0
 10
467.3723010751
 20
26.3494786673
 30
0.0
 10
467.5001442822
 20
26.4724803199
 30
0.0
 10
467.6723465959
 20
26.4724803199
 30
0.0
 10
467.8495213169
 20
26.4724803199
 30
0.0
 10
467.9629707135
 20
26.3568064253
 30
0.0
 10
467.9901881005
 20
26.1846041116
 30
0.0
 10
467.9901881005
 20
26.1846041116
 30
0.0
 10
467.3446911297
 20
26.1846041116
 30
0.0
 10
467.3446911297
 20
26.1846041116
 30
0.0
  0
SPLINE
  5
23E
330
222
100
AcDbEntity
  8
0
  6
Continuous
 62
     7
100
AcDbSpline
 70
     3
 71
     3
 72
    20
 73
    16
 74
     0
 42
0.000000001
 43
0.0000001
 40
0.0
 40
0.0
 40
0.0
 40
0.0
 40
1.0
 40
1.0
 40
1.0
 40
2.0
 40
2.0
 40
2.0
 40
3.0
 40
3.0
 40
3.0
 40
4.0
 40
4.0
 40
4.0
 40
5.0
 40
5.0
 40
5.0
 40
5.0
 10
470.2358842311
 20
26.3939686268
 30
0.0
 10
470.2358842311
 20
26.3939686268
 30
0.0
 10
470.6470237977
 20
25.8914937904
 30
0.0
 10
470.6470237977
 20
25.8914937904
 30
0.0
 10
470.5309573446
 20
25.7758198958
 30
0.0
 10
470.3931693231
 20
25.6454904851
 30
0.0
 10
470.221228715
 20
25.6454904851
 30
0.0
 10
470.0437922884
 20
25.6454904851
 30
0.0
 10
469.8763006763
 20
25.8098416295
 30
0.0
 10
469.8763006763
 20
25.9867546448
 30
0.0
 10
469.8763006763
 20
26.1647144827
 30
0.0
 10
470.0860577499
 20
26.2908566031
 30
0.0
 10
470.2136392514
 20
26.3787896994
 30
0.0
 10
470.2136392514
 20
26.3787896994
 30
0.0
 10
470.2358842311
 20
26.3939686268
 30
0.0
 10
470.2358842311
 20
26.3939686268
 30
0.0
  0
SPLINE
  5
23F
330
222
100
AcDbEntity
  8
0
  6
Continuous
 62
     7
100
AcDbSpline
 70
     3
 71
     3
 72
    23
 73
    19
 74
     0
 42
0.000000001
 43
0.0000001
 40
0.0
 40
0.0
 40
0.0
 40
0.0
 40
1.0
 40
1.0
 40
1.0
 40
2.0
 40
2.0
 40
2.0
 40
3.0
 40
3.0
 40
3.0
 40
4.0
 40
4.0
 40
4.0
 40
5.0
 40
5.0
 40
5.0
 40
6.0
 40
6.0
 40
6.0
 40
6.0
 10
470.285215745
 20
26.6849853028
 30
0.0
 10
470.285215745
 20
26.6849853028
 30
0.0
 10
470.2235840658
 20
26.763496996
 30
0.0
 10
470.2235840658
 20
26.763496996
 30
0.0
 10
470.1696727032
 20
26.8320638747
 30
0.0
 10
470.1128825784
 20
26.9011541647
 30
0.0
 10
470.1128825784
 20
26.9948447852
 30
0.0
 10
470.1128825784
 20
27.1136591476
 30
0.0
 10
470.2087976969
 20
27.1911240182
 30
0.0
 10
470.31976089
 20
27.1911240182
 30
0.0
 10
470.4430242483
 20
27.1911240182
 30
0.0
 10
470.5363223103
 20
27.119940083
 30
0.0
 10
470.5363223103
 20
26.9896106724
 30
0.0
 10
470.5363223103
 20
26.8545705601
 30
0.0
 10
470.4082173976
 20
26.7781525121
 30
0.0
 10
470.3146576299
 20
26.7043515205
 30
0.0
 10
470.3146576299
 20
26.7043515205
 30
0.0
 10
470.285215745
 20
26.6849853028
 30
0.0
 10
470.285215745
 20
26.6849853028
 30
0.0
  0
SPLINE
  5
240
330
222
100
AcDbEntity
  8
0
  6
Continuous
 62
     7
100
AcDbSpline
 70
     3
 71
     3
 72
    50
 73
    46
 74
     0
 42
0.000000001
 43
0.0000001
 40
0.0
 40
0.0
 40
0.0
 40
0.0
 40
1.0
 40
1.0
 40
1.0
 40
2.0
 40
2.0
 40
2.0
 40
3.0
 40
3.0
 40
3.0
 40
4.0
 40
4.0
 40
4.0
 40
5.0
 40
5.0
 40
5.0
 40
6.0
 40
6.0
 40
6.0
 40
7.0
 40
7.0
 40
7.0
 40
8.0
 40
8.0
 40
8.0
 40
9.0
 40
9.0
 40
9.0
 40
10.0
 40
10.0
 40
10.0
 40
11.0
 40
11.0
 40
11.0
 40
12.0
 40
12.0
 40
12.0
 40
13.0
 40
13.0
 40
13.0
 40
14.0
 40
14.0
 40
14.0
 40
15.0
 40
15.0
 40
15.0
 40
15.0
 10
470.9873719876
 20
25.477998873
 30
0.0
 10
470.9873719876
 20
25.477998873
 30
0.0
 10
471.2727619924
 20
25.477998873
 30
0.0
 10
471.2727619924
 20
25.477998873
 30
0.0
 10
471.2727619924
 20
25.477998873
 30
0.0
 10
470.9403958246
 20
25.888876734
 30
0.0
 10
470.9403958246
 20
25.888876734
 30
0.0
 10
470.9403958246
 20
25.888876734
 30
0.0
 10
471.1669020594
 20
26.1547696682
 30
0.0
 10
471.1669020594
 20
26.1547696682
 30
0.0
 10
471.1669020594
 20
26.1547696682
 30
0.0
 10
471.0186458121
 20
26.3076057643
 30
0.0
 10
471.0186458121
 20
26.3076057643
 30
0.0
 10
471.0186458121
 20
26.3076057643
 30
0.0
 10
470.8027386558
 20
26.0563683461
 30
0.0
 10
470.8027386558
 20
26.0563683461
 30
0.0
 10
470.8027386558
 20
26.0563683461
 30
0.0
 10
470.4156760085
 20
26.5242980374
 30
0.0
 10
470.4156760085
 20
26.5242980374
 30
0.0
 10
470.571129161
 20
26.6384016982
 30
0.0
 10
470.753407142
 20
26.7781525121
 30
0.0
 10
470.753407142
 20
26.9875170272
 30
0.0
 10
470.753407142
 20
27.2314266874
 30
0.0
 10
470.5513703848
 20
27.3748413802
 30
0.0
 10
470.32486415
 20
27.3748413802
 30
0.0
 10
470.0806927842
 20
27.3748413802
 30
0.0
 10
469.8963211581
 20
27.2240989293
 30
0.0
 10
469.8963211581
 20
26.9676273983
 30
0.0
 10
469.8963211581
 20
26.8100806006
 30
0.0
 10
469.9949841858
 20
26.6724234319
 30
0.0
 10
470.1003207075
 20
26.5614602389
 30
0.0
 10
470.1003207075
 20
26.5614602389
 30
0.0
 10
469.9847776657
 20
26.4777144328
 30
0.0
 10
469.9847776657
 20
26.4777144328
 30
0.0
 10
469.8070795335
 20
26.3494786673
 30
0.0
 10
469.659739256
 20
26.2217663131
 30
0.0
 10
469.659739256
 20
25.9846609996
 30
0.0
 10
469.659739256
 20
25.6643332915
 30
0.0
 10
469.9183044322
 20
25.4382196151
 30
0.0
 10
470.2286873259
 20
25.4382196151
 30
0.0
 10
470.447604097
 20
25.4382196151
 30
0.0
 10
470.6447992997
 20
25.5633149129
 30
0.0
 10
470.7850735249
 20
25.7292362912
 30
0.0
 10
470.7850735249
 20
25.7292362912
 30
0.0
 10
470.9873719876
 20
25.477998873
 30
0.0
 10
470.9873719876
 20
25.477998873
 30
0.0
  0
LWPOLYLINE
  5
241
330
222
100
AcDbEntity
  8
0
  6
Continuous
 62
     7
100
AcDbPolyline
 90
        2
 70
     0
 43
0.2
 10
472.9228160774
 20
27.3345387111
 10
472.6914682881
 20
27.3345387111
  0
LWPOLYLINE
  5
242
330
222
100
AcDbEntity
  8
0
  6
Continuous
 62
     7
100
AcDbPolyline
 90
        2
 70
     0
 43
0.2
 10
472.6914682881
 20
27.3345387111
 10
472.6914682881
 20
25.4774754617
  0
LWPOLYLINE
  5
243
330
222
100
AcDbEntity
  8
0
  6
Continuous
 62
     7
100
AcDbPolyline
 90
        2
 70
     0
 43
0.2
 10
472.6914682881
 20
25.4774754617
 10
473.48679174
 20
25.4774754617
  0
LWPOLYLINE
  5
244
330
222
100
AcDbEntity
  8
0
  6
Continuous
 62
     7
100
AcDbPolyline
 90
        2
 70
     0
 43
0.2
 10
473.48679174
 20
25.4774754617
 10
473.48679174
 20
25.6894570333
  0
LWPOLYLINE
  5
245
330
222
100
AcDbEntity
  8
0
  6
Continuous
 62
     7
100
AcDbPolyline
 90
        2
 70
     0
 43
0.2
 10
473.48679174
 20
25.6894570333
 10
472.9228160774
 20
25.6894570333
  0
LWPOLYLINE
  5
246
330
222
100
AcDbEntity
  8
0
  6
Continuous
 62
     7
100
AcDbPolyline
 90
        2
 70
     0
 43
0.2
 10
472.9228160774
 20
25.6894570333
 10
472.9228160774
 20
27.3345387111
  0
LWPOLYLINE
  5
247
330
222
100
AcDbEntity
  8
0
  6
Continuous
 62
     7
100
AcDbPolyline
 90
        2
 70
     0
 43
0.2
 10
475.1658951515
 20
26.6300271176
 10
474.9447538824
 20
26.6300271176
  0
LWPOLYLINE
  5
248
330
222
100
AcDbEntity
  8
0
  6
Continuous
 62
     7
100
AcDbPolyline
 90
        2
 70
     0
 43
0.2
 10
474.9447538824
 20
26.6300271176
 10
474.9447538824
 20
25.477998873
  0
LWPOLYLINE
  5
249
330
222
100
AcDbEntity
  8
0
  6
Continuous
 62
     7
100
AcDbPolyline
 90
        2
 70
     0
 43
0.2
 10
474.9447538824
 20
25.477998873
 10
475.1658951515
 20
25.477998873
  0
LWPOLYLINE
  5
24A
330
222
100
AcDbEntity
  8
0
  6
Continuous
 62
     7
100
AcDbPolyline
 90
        2
 70
     0
 43
0.2
 10
475.1658951515
 20
25.477998873
 10
475.1658951515
 20
26.6300271176
  0
LWPOLYLINE
  5
24B
330
222
100
AcDbEntity
  8
0
  6
Continuous
 62
     7
100
AcDbPolyline
 90
        2
 70
     1
 43
0.2
 10
474.9028718743
 20
27.1599810466
 42
1.0
 10
475.2080388653
 20
27.1599810466
 42
1.0
  0
SPLINE
  5
24C
330
222
100
AcDbEntity
  8
0
  6
Continuous
 62
     7
100
AcDbSpline
 70
     3
 71
     3
 72
    17
 73
    13
 74
     0
 42
0.000000001
 43
0.0000001
 40
0.0
 40
0.0
 40
0.0
 40
0.0
 40
1.0
 40
1.0
 40
1.0
 40
2.0
 40
2.0
 40
2.0
 40
3.0
 40
3.0
 40
3.0
 40
4.0
 40
4.0
 40
4.0
 40
4.0
 10
477.2961790932
 20
25.6355456706
 30
0.0
 10
477.0622142475
 20
25.6355456706
 30
0.0
 10
476.9318848368
 20
25.8375824278
 30
0.0
 10
476.9318848368
 20
26.0537512896
 30
0.0
 10
476.9318848368
 20
26.2683499177
 30
0.0
 10
477.067710066
 20
26.4672462071
 30
0.0
 10
477.2961790932
 20
26.4672462071
 30
0.0
 10
477.5356397574
 20
26.4672462071
 30
0.0
 10
477.6712032809
 20
26.2782947321
 30
0.0
 10
477.6712032809
 20
26.0537512896
 30
0.0
 10
477.6712032809
 20
25.8276376133
 30
0.0
 10
477.5379951082
 20
25.6355456706
 30
0.0
 10
477.2961790932
 20
25.6355456706
 30
0.0
  0
SPLINE
  5
24D
330
222
100
AcDbEntity
  8
0
  6
Continuous
 62
     7
100
AcDbSpline
 70
     3
 71
     3
 72
    50
 73
    46
 74
     0
 42
0.000000001
 43
0.0000001
 40
0.0
 40
0.0
 40
0.0
 40
0.0
 40
1.0
 40
1.0
 40
1.0
 40
2.0
 40
2.0
 40
2.0
 40
3.0
 40
3.0
 40
3.0
 40
4.0
 40
4.0
 40
4.0
 40
5.0
 40
5.0
 40
5.0
 40
6.0
 40
6.0
 40
6.0
 40
7.0
 40
7.0
 40
7.0
 40
8.0
 40
8.0
 40
8.0
 40
9.0
 40
9.0
 40
9.0
 40
10.0
 40
10.0
 40
10.0
 40
11.0
 40
11.0
 40
11.0
 40
12.0
 40
12.0
 40
12.0
 40
13.0
 40
13.0
 40
13.0
 40
14.0
 40
14.0
 40
14.0
 40
15.0
 40
15.0
 40
15.0
 40
15.0
 10
477.8803060904
 20
26.6305505289
 30
0.0
 10
477.8803060904
 20
26.6305505289
 30
0.0
 10
477.65864141
 20
26.6305505289
 30
0.0
 10
477.65864141
 20
26.6305505289
 30
0.0
 10
477.65864141
 20
26.6305505289
 30
0.0
 10
477.65864141
 20
26.4332244734
 30
0.0
 10
477.65864141
 20
26.4332244734
 30
0.0
 10
477.65864141
 20
26.4332244734
 30
0.0
 10
477.6539307084
 20
26.4332244734
 30
0.0
 10
477.6539307084
 20
26.4332244734
 30
0.0
 10
477.5625954387
 20
26.5761157549
 30
0.0
 10
477.4246765643
 20
26.6645722626
 30
0.0
 10
477.2519508393
 20
26.6645722626
 30
0.0
 10
476.9195846715
 20
26.6645722626
 30
0.0
 10
476.710481862
 20
26.3766960543
 30
0.0
 10
476.710481862
 20
26.0610790477
 30
0.0
 10
476.710481862
 20
25.7313299363
 30
0.0
 10
476.9075462119
 20
25.4382196151
 30
0.0
 10
477.2624190651
 20
25.4382196151
 30
0.0
 10
477.4246765643
 20
25.4382196151
 30
0.0
 10
477.5646890838
 20
25.5266761228
 30
0.0
 10
477.6539307084
 20
25.6575289447
 30
0.0
 10
477.6539307084
 20
25.6575289447
 30
0.0
 10
477.65864141
 20
25.6575289447
 30
0.0
 10
477.65864141
 20
25.6575289447
 30
0.0
 10
477.65864141
 20
25.6575289447
 30
0.0
 10
477.65864141
 20
25.4382196151
 30
0.0
 10
477.65864141
 20
25.4382196151
 30
0.0
 10
477.65864141
 20
25.201637713
 30
0.0
 10
477.6021129909
 20
25.0147798832
 30
0.0
 10
477.3288922987
 20
25.0147798832
 30
0.0
 10
477.1265938359
 20
25.0147798832
 30
0.0
 10
476.98396426
 20
25.1330708343
 30
0.0
 10
476.98396426
 20
25.3392948817
 30
0.0
 10
476.98396426
 20
25.3392948817
 30
0.0
 10
476.7622995795
 20
25.3392948817
 30
0.0
 10
476.7622995795
 20
25.3392948817
 30
0.0
 10
476.7672719868
 20
25.0147798832
 30
0.0
 10
476.9983580704
 20
24.817977239
 30
0.0
 10
477.3186857785
 20
24.817977239
 30
0.0
 10
477.766725841
 20
24.817977239
 30
0.0
 10
477.8803060904
 20
25.1032363909
 30
0.0
 10
477.8803060904
 20
25.4999821471
 30
0.0
 10
477.8803060904
 20
25.4999821471
 30
0.0
 10
477.8803060904
 20
26.6305505289
 30
0.0
 10
477.8803060904
 20
26.6305505289
 30
0.0
  0
SPLINE
  5
24E
330
222
100
AcDbEntity
  8
0
  6
Continuous
 62
     7
100
AcDbSpline
 70
     3
 71
     3
 72
    44
 73
    40
 74
     0
 42
0.000000001
 43
0.0000001
 40
0.0
 40
0.0
 40
0.0
 40
0.0
 40
1.0
 40
1.0
 40
1.0
 40
2.0
 40
2.0
 40
2.0
 40
3.0
 40
3.0
 40
3.0
 40
4.0
 40
4.0
 40
4.0
 40
5.0
 40
5.0
 40
5.0
 40
6.0
 40
6.0
 40
6.0
 40
7.0
 40
7.0
 40
7.0
 40
8.0
 40
8.0
 40
8.0
 40
9.0
 40
9.0
 40
9.0
 40
10.0
 40
10.0
 40
10.0
 40
11.0
 40
11.0
 40
11.0
 40
12.0
 40
12.0
 40
12.0
 40
13.0
 40
13.0
 40
13.0
 40
13.0
 10
479.4492314258
 20
27.6156105727
 30
0.0
 10
479.4492314258
 20
27.6156105727
 30
0.0
 10
479.4492314258
 20
25.4774754617
 30
0.0
 10
479.4492314258
 20
25.4774754617
 30
0.0
 10
479.4492314258
 20
25.4774754617
 30
0.0
 10
479.6706344006
 20
25.4774754617
 30
0.0
 10
479.6706344006
 20
25.4774754617
 30
0.0
 10
479.6706344006
 20
25.4774754617
 30
0.0
 10
479.6706344006
 20
26.007167685
 30
0.0
 10
479.6706344006
 20
26.007167685
 30
0.0
 10
479.6706344006
 20
26.2170556115
 30
0.0
 10
479.6706344006
 20
26.4677696184
 30
0.0
 10
479.9558935525
 20
26.4677696184
 30
0.0
 10
480.1827923458
 20
26.4677696184
 30
0.0
 10
480.2097480271
 20
26.3348231512
 30
0.0
 10
480.2097480271
 20
26.1385439183
 30
0.0
 10
480.2097480271
 20
26.1385439183
 30
0.0
 10
480.2097480271
 20
25.4774754617
 30
0.0
 10
480.2097480271
 20
25.4774754617
 30
0.0
 10
480.2097480271
 20
25.4774754617
 30
0.0
 10
480.4316744132
 20
25.4774754617
 30
0.0
 10
480.4316744132
 20
25.4774754617
 30
0.0
 10
480.4316744132
 20
25.4774754617
 30
0.0
 10
480.4316744132
 20
26.1647144827
 30
0.0
 10
480.4316744132
 20
26.1647144827
 30
0.0
 10
480.4316744132
 20
26.445262933
 30
0.0
 10
480.3476669014
 20
26.6650956739
 30
0.0
 10
480.0226284917
 20
26.6650956739
 30
0.0
 10
479.8828776778
 20
26.6650956739
 30
0.0
 10
479.7446970978
 20
26.5986224403
 30
0.0
 10
479.6753451022
 20
26.4756207877
 30
0.0
 10
479.6753451022
 20
26.4756207877
 30
0.0
 10
479.6706344006
 20
26.4756207877
 30
0.0
 10
479.6706344006
 20
26.4756207877
 30
0.0
 10
479.6706344006
 20
26.4756207877
 30
0.0
 10
479.6706344006
 20
27.6156105727
 30
0.0
 10
479.6706344006
 20
27.6156105727
 30
0.0
 10
479.6706344006
 20
27.6156105727
 30
0.0
 10
479.4492314258
 20
27.6156105727
 30
0.0
 10
479.4492314258
 20
27.6156105727
 30
0.0
  0
LWPOLYLINE
  5
24F
330
222
100
AcDbEntity
  8
0
  6
Continuous
 62
     7
100
AcDbPolyline
 90
        2
 70
     0
 43
0.2
 10
482.27146509
 20
26.4232796589
 10
482.4878956575
 20
26.4232796589
  0
LWPOLYLINE
  5
250
330
222
100
AcDbEntity
  8
0
  6
Continuous
 62
     7
100
AcDbPolyline
 90
        2
 70
     0
 43
0.2
 10
482.4878956575
 20
26.4232796589
 10
482.4878956575
 20
26.6300271176
  0
LWPOLYLINE
  5
251
330
222
100
AcDbEntity
  8
0
  6
Continuous
 62
     7
100
AcDbPolyline
 90
        2
 70
     0
 43
0.2
 10
482.4878956575
 20
26.6300271176
 10
482.27146509
 20
26.6300271176
  0
LWPOLYLINE
  5
252
330
222
100
AcDbEntity
  8
0
  6
Continuous
 62
     7
100
AcDbPolyline
 90
        2
 70
     0
 43
0.2
 10
482.27146509
 20
26.6300271176
 10
482.27146509
 20
27.070739422
  0
LWPOLYLINE
  5
253
330
222
100
AcDbEntity
  8
0
  6
Continuous
 62
     7
100
AcDbPolyline
 90
        2
 70
     0
 43
0.2
 10
482.27146509
 20
27.070739422
 10
482.0498004096
 20
27.070739422
  0
LWPOLYLINE
  5
254
330
222
100
AcDbEntity
  8
0
  6
Continuous
 62
     7
100
AcDbPolyline
 90
        2
 70
     0
 43
0.2
 10
482.0498004096
 20
27.070739422
 10
482.0498004096
 20
26.6300271176
  0
LWPOLYLINE
  5
255
330
222
100
AcDbEntity
  8
0
  6
Continuous
 62
     7
100
AcDbPolyline
 90
        2
 70
     0
 43
0.2
 10
482.0498004096
 20
26.6300271176
 10
481.9291541077
 20
26.6300271176
  0
LWPOLYLINE
  5
256
330
222
100
AcDbEntity
  8
0
  6
Continuous
 62
     7
100
AcDbPolyline
 90
        2
 70
     0
 43
0.2
 10
481.9291541077
 20
26.6300271176
 10
481.9291541077
 20
26.4232796589
  0
LWPOLYLINE
  5
257
330
222
100
AcDbEntity
  8
0
  6
Continuous
 62
     7
100
AcDbPolyline
 90
        2
 70
     0
 43
0.2
 10
481.9291541077
 20
26.4232796589
 10
482.0498004096
 20
26.4232796589
  0
LWPOLYLINE
  5
258
330
222
100
AcDbEntity
  8
0
  6
Continuous
 62
     7
100
AcDbPolyline
 90
        2
 70
     0
 43
0.2
 10
482.0498004096
 20
26.4232796589
 10
482.0498004096
 20
25.4774754617
  0
LWPOLYLINE
  5
259
330
222
100
AcDbEntity
  8
0
  6
Continuous
 62
     7
100
AcDbPolyline
 90
        2
 70
     0
 43
0.2
 10
482.0498004096
 20
25.4774754617
 10
482.27146509
 20
25.4774754617
  0
LWPOLYLINE
  5
25A
330
222
100
AcDbEntity
  8
0
  6
Continuous
 62
     7
100
AcDbPolyline
 90
        2
 70
     0
 43
0.2
 10
482.27146509
 20
25.4774754617
 10
482.27146509
 20
26.4232796589
  0
SPLINE
  5
25B
330
222
100
AcDbEntity
  8
0
  6
Continuous
 62
     7
100
AcDbSpline
 70
     3
 71
     3
 72
    20
 73
    16
 74
     0
 42
0.000000001
 43
0.0000001
 40
0.0
 40
0.0
 40
0.0
 40
0.0
 40
1.0
 40
1.0
 40
1.0
 40
2.0
 40
2.0
 40
2.0
 40
3.0
 40
3.0
 40
3.0
 40
4.0
 40
4.0
 40
4.0
 40
5.0
 40
5.0
 40
5.0
 40
5.0
 10
470.0534753973
 20
35.8384019051
 30
0.0
 10
470.0534753973
 20
35.8384019051
 30
0.0
 10
472.3698320517
 20
33.0088404829
 30
0.0
 10
472.3698320517
 20
33.0088404829
 30
0.0
 10
471.7181849983
 20
32.3566700182
 30
0.0
 10
470.9413117943
 20
31.6207537474
 30
0.0
 10
469.9701221497
 20
31.6207537474
 30
0.0
 10
468.9715842652
 20
31.6207537474
 30
0.0
 10
468.0282662717
 20
32.5503321947
 30
0.0
 10
468.0282662717
 20
33.5495243432
 30
0.0
 10
468.0282662717
 20
34.5487164918
 30
0.0
 10
469.2071193448
 20
35.2553217304
 30
0.0
 10
469.9286418051
 20
35.7551795103
 30
0.0
 10
469.9286418051
 20
35.7551795103
 30
0.0
 10
470.0534753973
 20
35.8384019051
 30
0.0
 10
470.0534753973
 20
35.8384019051
 30
0.0
  0
SPLINE
  5
25C
330
222
100
AcDbEntity
  8
0
  6
Continuous
 62
     7
100
AcDbSpline
 70
     3
 71
     3
 72
    23
 73
    19
 74
     0
 42
0.000000001
 43
0.0000001
 40
0.0
 40
0.0
 40
0.0
 40
0.0
 40
1.0
 40
1.0
 40
1.0
 40
2.0
 40
2.0
 40
2.0
 40
3.0
 40
3.0
 40
3.0
 40
4.0
 40
4.0
 40
4.0
 40
5.0
 40
5.0
 40
5.0
 40
6.0
 40
6.0
 40
6.0
 40
6.0
 10
470.3308833798
 20
37.4761558248
 30
0.0
 10
470.3308833798
 20
37.4761558248
 30
0.0
 10
469.9843851073
 20
37.9194851857
 30
0.0
 10
469.9843851073
 20
37.9194851857
 30
0.0
 10
469.6785820623
 20
38.3075946556
 30
0.0
 10
469.3596937352
 20
38.696096684
 30
0.0
 10
469.3596937352
 20
39.2230409981
 30
0.0
 10
469.3596937352
 20
39.8892127147
 30
0.0
 10
469.9010318597
 20
40.332934634
 30
0.0
 10
470.5249381148
 20
40.332934634
 30
0.0
 10
471.2187197769
 20
40.332934634
 30
0.0
 10
471.7459257966
 20
39.9306930593
 30
0.0
 10
471.7459257966
 20
39.1956927583
 30
0.0
 10
471.7459257966
 20
38.4324282478
 30
0.0
 10
471.0246650419
 20
38.002315022
 30
0.0
 10
470.497589875
 20
37.5865956066
 30
0.0
 10
470.497589875
 20
37.5865956066
 30
0.0
 10
470.3308833798
 20
37.4761558248
 30
0.0
 10
470.3308833798
 20
37.4761558248
 30
0.0
  0
SPLINE
  5
25D
330
222
100
AcDbEntity
  8
0
  6
Continuous
 62
     7
100
AcDbSpline
 70
     3
 71
     3
 72
    50
 73
    46
 74
     0
 42
0.000000001
 43
0.0000001
 40
0.0
 40
0.0
 40
0.0
 40
0.0
 40
1.0
 40
1.0
 40
1.0
 40
2.0
 40
2.0
 40
2.0
 40
3.0
 40
3.0
 40
3.0
 40
4.0
 40
4.0
 40
4.0
 40
5.0
 40
5.0
 40
5.0
 40
6.0
 40
6.0
 40
6.0
 40
7.0
 40
7.0
 40
7.0
 40
8.0
 40
8.0
 40
8.0
 40
9.0
 40
9.0
 40
9.0
 40
10.0
 40
10.0
 40
10.0
 40
11.0
 40
11.0
 40
11.0
 40
12.0
 40
12.0
 40
12.0
 40
13.0
 40
13.0
 40
13.0
 40
14.0
 40
14.0
 40
14.0
 40
15.0
 40
15.0
 40
15.0
 40
15.0
 10
474.2844705428
 20
30.6775666067
 30
0.0
 10
474.2844705428
 20
30.6775666067
 30
0.0
 10
475.8936985473
 20
30.6775666067
 30
0.0
 10
475.8936985473
 20
30.6775666067
 30
0.0
 10
475.8936985473
 20
30.6775666067
 30
0.0
 10
474.0206712537
 20
32.9947083781
 30
0.0
 10
474.0206712537
 20
32.9947083781
 30
0.0
 10
474.0206712537
 20
32.9947083781
 30
0.0
 10
475.2970096791
 20
34.4921880727
 30
0.0
 10
475.2970096791
 20
34.4921880727
 30
0.0
 10
475.2970096791
 20
34.4921880727
 30
0.0
 10
474.4647857314
 20
35.3531996412
 30
0.0
 10
474.4647857314
 20
35.3531996412
 30
0.0
 10
474.4647857314
 20
35.3531996412
 30
0.0
 10
473.2441906081
 20
33.9378955188
 30
0.0
 10
473.2441906081
 20
33.9378955188
 30
0.0
 10
473.2441906081
 20
33.9378955188
 30
0.0
 10
471.0662762393
 20
36.5732713533
 30
0.0
 10
471.0662762393
 20
36.5732713533
 30
0.0
 10
471.9398496787
 20
37.2113097132
 30
0.0
 10
472.9665209199
 20
38.002315022
 30
0.0
 10
472.9665209199
 20
39.1811680951
 30
0.0
 10
472.9665209199
 20
40.5548610201
 30
0.0
 10
471.8286247801
 20
41.3593441695
 30
0.0
 10
470.5533331772
 20
41.3593441695
 30
0.0
 10
469.1799019578
 20
41.3593441695
 30
0.0
 10
468.1389677591
 20
40.5131189699
 30
0.0
 10
468.1389677591
 20
39.0704666077
 30
0.0
 10
468.1389677591
 20
38.1828919163
 30
0.0
 10
468.6943071355
 20
37.4060187123
 30
0.0
 10
469.2904725924
 20
36.7815890458
 30
0.0
 10
469.2904725924
 20
36.7815890458
 30
0.0
 10
468.6385638333
 20
36.3099954755
 30
0.0
 10
468.6385638333
 20
36.3099954755
 30
0.0
 10
467.6400259489
 20
35.5887347208
 30
0.0
 10
466.8071477371
 20
34.8674739661
 30
0.0
 10
466.8071477371
 20
33.5359156498
 30
0.0
 10
466.8071477371
 20
31.7322403518
 30
0.0
 10
468.2641939097
 20
30.4556402206
 30
0.0
 10
470.0117333471
 20
30.4556402206
 30
0.0
 10
471.246591428
 20
30.4556402206
 30
0.0
 10
472.3559616526
 20
31.1638156931
 30
0.0
 10
473.1468361086
 20
32.0923473178
 30
0.0
 10
473.1468361086
 20
32.0923473178
 30
0.0
 10
474.2844705428
 20
30.6775666067
 30
0.0
 10
474.2844705428
 20
30.6775666067
 30
0.0
  0
LINE
  5
25E
330
222
100
AcDbEntity
  8
0
  6
Continuous
 62
     7
100
AcDbLine
 10
460.0873319178
 20
28.6514415113
 30
0.0
 11
482.5012426454
 21
28.6514415113
 31
0.0
  0
LINE
  5
25F
330
222
100
AcDbEntity
  8
0
  6
Continuous
 62
     7
100
AcDbLine
 10
482.5012426454
 20
28.6514415113
 30
0.0
 11
482.5012426454
 21
51.065352239
 31
0.0
  0
LINE
  5
260
330
222
100
AcDbEntity
  8
0
  6
Continuous
 62
     7
100
AcDbLine
 10
482.5012426454
 20
51.065352239
 30
0.0
 11
460.0873319178
 21
51.065352239
 31
0.0
  0
LINE
  5
261
330
222
100
AcDbEntity
  8
0
  6
Continuous
 62
     7
100
AcDbLine
 10
460.0873319178
 20
51.065352239
 30
0.0
 11
460.0873319178
 21
28.6514415113
 31
0.0
  0
ENDBLK
  5
262
330
222
100
AcDbEntity
  8
0
  6
ByBlock
 62
     0
100
AcDbBlockEnd
  0
BLOCK
  5
263
330
223
100
AcDbEntity
  8
0
100
AcDbBlockBegin
  2
PROIEZIONE_EU_BL0
 70
     0
 10
472.4681748104
 20
63.566664739
 30
0.0
  3
PROIEZIONE_EU_BL0
  1

  0
LWPOLYLINE
  5
264
330
223
100
AcDbEntity
  8
DEFAULT_1
  6
CENTER
 62
     7
100
AcDbPolyline
 90
        2
 70
     0
 43
0.25
 10
478.5947954721
 20
68.5663588709
 10
478.5948364544
 20
58.5669706071
  0
LWPOLYLINE
  5
265
330
223
100
AcDbEntity
  8
DEFAULT_1
  6
CENTER
 62
     7
100
AcDbPolyline
 90
        2
 70
     0
 43
0.25
 10
484.5948252971
 20
63.5669358741
 10
460.3415243237
 20
63.5666652137
  0
LWPOLYLINE
  5
266
330
223
100
AcDbEntity
  8
0
  6
Continuous
 62
     7
100
AcDbPolyline
 90
        2
 70
     1
 43
0.25
 10
475.0476852962
 20
63.5481169848
 42
1.0
 10
482.1540143949
 20
63.5481169848
 42
1.0
  0
LWPOLYLINE
  5
267
330
223
100
AcDbEntity
  8
0
  6
Continuous
 62
     7
100
AcDbPolyline
 90
        2
 70
     1
 43
0.25
 10
476.5974291246
 20
63.5660150294
 42
1.0
 10
480.6091808747
 20
63.5660150294
 42
1.0
  0
LWPOLYLINE
  5
268
330
223
100
AcDbEntity
  8
0
  6
Continuous
 62
     7
100
AcDbPolyline
 90
        2
 70
     0
 43
0.25
 10
472.5948230911
 20
67.1418682342
 10
472.5948227365
 20
60.0416653259
  0
LWPOLYLINE
  5
269
330
223
100
AcDbEntity
  8
0
  6
Continuous
 62
     7
100
AcDbPolyline
 90
        2
 70
     0
 43
0.25
 10
472.5948511729
 20
60.0416368895
 10
462.6002939017
 20
61.5617303024
  0
LWPOLYLINE
  5
26A
330
223
100
AcDbEntity
  8
0
  6
Continuous
 62
     7
100
AcDbPolyline
 90
        2
 70
     0
 43
0.25
 10
462.5979839161
 20
61.5610527608
 10
462.595317012
 20
65.5666913723
  0
LWPOLYLINE
  5
26B
330
223
100
AcDbEntity
  8
0
  6
Continuous
 62
     7
100
AcDbPolyline
 90
        2
 70
     0
 43
0.25
 10
462.595308736
 20
65.5666830962
 10
472.5950519733
 20
67.1418403163
  0
ENDBLK
  5
26C
330
223
100
AcDbEntity
  8
0
  6
ByBlock
 62
     0
100
AcDbBlockEnd
  0
ENDSEC
  0
SECTION
  2
ENTITIES
  0
LINE
  5
297
330
21C
100
AcDbEntity
 67
     1
  8
0
  6
Continuous
 62
     7
100
AcDbLine
 10
0.0
 20
0.0
 30
0.0
 11
594.0
 21
0.0
 31
0.0
  0
LINE
  5
298
330
21C
100
AcDbEntity
 67
     1
  8
0
  6
Continuous
 62
     7
100
AcDbLine
 10
594.0
 20
0.0
 30
0.0
 11
594.0
 21
420.0
 31
0.0
  0
LINE
  5
299
330
21C
100
AcDbEntity
 67
     1
  8
0
  6
Continuous
 62
     7
100
AcDbLine
 10
0.0
 20
420.0
 30
0.0
 11
594.0
 21
420.0
 31
0.0
  0
LINE
  5
29A
330
21C
100
AcDbEntity
 67
     1
  8
0
  6
Continuous
 62
     7
100
AcDbLine
 10
0.0
 20
0.0
 30
0.0
 11
0.0
 21
420.0
 31
0.0
  0
VIEWPORT
  5
29B
330
21C
100
AcDbEntity
 67
     1
  8
0
100
AcDbViewport
 10
297.0
 20
210.0
 30
0.0
 40
594.0
 41
420.0
 68
     1
 69
     1
 12
297.0
 22
210.0
 13
0.0
 23
0.0
 14
10.0
 24
10.0
 15
10.0
 25
10.0
 16
0.0
 26
0.0
 36
1.0
 17
0.0
 27
0.0
 37
0.0
 42
50.0
 43
0.0
 44
0.0
 45
420.0
 50
0.0
 51
0.0
 72
   100
 90
    32864
  1

281
     0
 71
     1
 74
     0
110
0.0
120
0.0
130
0.0
111
1.0
121
0.0
131
0.0
112
0.0
122
1.0
132
0.0
 79
     0
146
0.0
170
     0
 61
     5
348
3C1
292
     1
282
     1
141
0.0
142
0.0
 63
   256
  0
ARC
  5
29C
330
21C
100
AcDbEntity
 67
     1
  8
7_ALL_FEATURES
  6
Continuous
 62
     7
100
AcDbCircle
 10
103.0536912781
 20
174.1429568722
 30
0.0
 40
2.0
100
AcDbArc
 50
270.0
 51
355.0
  0
ARC
  5
29D
330
21C
100
AcDbEntity
 67
     1
  8
7_ALL_FEATURES
  6
Continuous
 62
     7
100
AcDbCircle
 10
85.1016947964
 20
174.1429568722
 30
0.0
 40
2.0
100
AcDbArc
 50
168.0
 51
270.0
  0
ARC
  5
29E
330
21C
100
AcDbEntity
 67
     1
  8
7_ALL_FEATURES
  6
Continuous
 62
     7
100
AcDbCircle
 10
114.9521495176
 20
310.1429568722
 30
0.0
 40
2.0
100
AcDbArc
 50
355.0
 51
90.0
  0
ARC
  5
29F
330
21C
100
AcDbEntity
 67
     1
  8
7_ALL_FEATURES
  6
Continuous
 62
     7
100
AcDbCircle
 10
114.0093871836
 20
310.1429568722
 30
0.0
 40
2.0
100
AcDbArc
 50
90.0
 51
168.0
  0
LINE
  5
2A0
330
21C
100
AcDbEntity
 67
     1
  8
7_ALL_FEATURES
  6
Continuous
 62
     7
100
AcDbLine
 10
103.0536912781
 20
172.1429568722
 30
0.0
 11
85.1016947964
 21
172.1429568722
 31
0.0
  0
LINE
  5
2A1
330
21C
100
AcDbEntity
 67
     1
  8
7_ALL_FEATURES
  6
Continuous
 62
     7
100
AcDbLine
 10
83.145399595
 20
174.5587802538
 30
0.0
 11
112.0530919821
 21
310.5587802538
 31
0.0
  0
LINE
  5
2A2
330
21C
100
AcDbEntity
 67
     1
  8
7_ALL_FEATURES
  6
Continuous
 62
     7
100
AcDbLine
 10
114.0093871836
 20
312.1429568722
 30
0.0
 11
114.9521495176
 21
312.1429568722
 31
0.0
  0
LINE
  5
2A3
330
21C
100
AcDbEntity
 67
     1
  8
7_ALL_FEATURES
  6
Continuous
 62
     7
100
AcDbLine
 10
116.9445389138
 20
309.9686453867
 30
0.0
 11
105.0460806742
 21
173.9686453867
 31
0.0
  0
ARC
  5
2A4
330
21C
100
AcDbEntity
 67
     1
  8
7_ALL_FEATURES
  6
Continuous
 62
     7
100
AcDbCircle
 10
123.231204223
 20
352.1429568722
 30
0.0
 40
4.1
100
AcDbArc
 50
90.0
 51
270.0
  0
ARC
  5
2A5
330
21C
100
AcDbEntity
 67
     1
  8
7_ALL_FEATURES
  6
Continuous
 62
     7
100
AcDbCircle
 10
123.231204223
 20
352.1429568722
 30
0.0
 40
4.1
100
AcDbArc
 50
270.0
 51
90.0
  0
ARC
  5
2A6
330
21C
100
AcDbEntity
 67
     1
  8
02___PRT_ALL_AXES
  6
Continuous
 62
     7
100
AcDbCircle
 10
136.0764368016
 20
350.1429568722
 30
0.0
 40
2.6
100
AcDbArc
 50
171.1501169016
 51
351.1501169016
  0
ARC
  5
2A7
330
21C
100
AcDbEntity
 67
     1
  8
02___PRT_ALL_AXES
  6
Continuous
 62
     7
100
AcDbCircle
 10
123.231204223
 20
352.1429568722
 30
0.0
 40
10.4
100
AcDbArc
 50
351.1501169016
 51
175.6698986853
  0
ARC
  5
2A8
330
21C
100
AcDbEntity
 67
     1
  8
02___PRT_ALL_AXES
  6
Continuous
 62
     7
100
AcDbCircle
 10
110.3859716443
 20
350.1429568722
 30
0.0
 40
2.6
100
AcDbArc
 50
188.8498830984
 51
8.8498830984
  0
LINE
  5
2A9
330
21C
100
AcDbEntity
 67
     1
  8
7_ALL_FEATURES
  6
Continuous
 62
     7
100
AcDbLine
 10
118.1938779187
 20
147.1429568722
 30
0.0
 11
63.045660327
 21
147.1429568722
 31
0.0
  0
LINE
  5
2AA
330
21C
100
AcDbEntity
 67
     1
  8
7_ALL_FEATURES
  6
Continuous
 62
     7
100
AcDbLine
 10
63.045660327
 20
147.1429568722
 30
0.0
 11
63.045660327
 21
150.1429568722
 31
0.0
  0
LINE
  5
2AB
330
21C
100
AcDbEntity
 67
     1
  8
7_ALL_FEATURES
  6
Continuous
 62
     7
100
AcDbLine
 10
63.045660327
 20
150.1429568722
 30
0.0
 11
63.045660327
 21
152.1429568722
 31
0.0
  0
LINE
  5
2AC
330
21C
100
AcDbEntity
 67
     1
  8
7_ALL_FEATURES
  6
Continuous
 62
     7
100
AcDbLine
 10
118.1938779187
 20
147.1429568722
 30
0.0
 11
118.1938779187
 21
150.1429568722
 31
0.0
  0
LINE
  5
2AD
330
21C
100
AcDbEntity
 67
     1
  8
7_ALL_FEATURES
  6
Continuous
 62
     7
100
AcDbLine
 10
118.1938779187
 20
150.1429568722
 30
0.0
 11
118.1938779187
 21
152.1429568722
 31
0.0
  0
ARC
  5
2AE
330
21C
100
AcDbEntity
 67
     1
  8
02___PRT_ALL_AXES
  6
Continuous
 62
     7
100
AcDbCircle
 10
123.231204223
 20
352.1429568722
 30
0.0
 40
15.6
100
AcDbArc
 50
351.1501169016
 51
177.2204850868
  0
LINE
  5
2AF
330
21C
100
AcDbEntity
 67
     1
  8
7_ALL_FEATURES
  6
Continuous
 62
     7
100
AcDbLine
 10
63.045660327
 20
152.1429568722
 30
0.0
 11
103.7294586606
 21
343.5451794804
 31
0.0
  0
LINE
  5
2B0
330
21C
100
AcDbEntity
 67
     1
  8
7_ALL_FEATURES
  6
Continuous
 62
     7
100
AcDbLine
 10
133.8589557848
 20
331.1956162083
 30
0.0
 11
118.1938779187
 21
152.1429568722
 31
0.0
  0
LINE
  5
2B1
330
21C
100
AcDbEntity
 67
     1
  8
7_ALL_FEATURES
  6
Continuous
 62
     7
100
AcDbLine
 10
142.1460257706
 20
352.1429568722
 30
0.0
 11
143.2171367756
 21
351.3929568722
 31
0.0
  0
LINE
  5
2B2
330
21C
100
AcDbEntity
 67
     1
  8
7_ALL_FEATURES
  6
Continuous
 62
     7
100
AcDbLine
 10
143.2171367756
 20
352.8929568722
 30
0.0
 11
142.1460257706
 21
352.1429568722
 31
0.0
  0
LINE
  5
2B3
330
21C
100
AcDbEntity
 67
     1
  8
7_ALL_FEATURES
  6
Continuous
 62
     7
100
AcDbLine
 10
123.231204223
 20
371.0577784198
 30
0.0
 11
123.981204223
 21
372.1288894248
 31
0.0
  0
LINE
  5
2B4
330
21C
100
AcDbEntity
 67
     1
  8
7_ALL_FEATURES
  6
Continuous
 62
     7
100
AcDbLine
 10
122.481204223
 20
372.1288894248
 30
0.0
 11
123.231204223
 21
371.0577784198
 31
0.0
  0
LINE
  5
2B5
330
21C
100
AcDbEntity
 67
     1
  8
7_ALL_FEATURES
  6
Continuous
 62
     7
100
AcDbLine
 10
104.3163826754
 20
352.1429568722
 30
0.0
 11
103.2452716703
 21
352.8929568722
 31
0.0
  0
LINE
  5
2B6
330
21C
100
AcDbEntity
 67
     1
  8
7_ALL_FEATURES
  6
Continuous
 62
     7
100
AcDbLine
 10
103.2452716703
 20
351.3929568722
 30
0.0
 11
104.3163826754
 21
352.1429568722
 31
0.0
  0
ARC
  5
2B7
330
21C
100
AcDbEntity
 67
     1
  8
7_ALL_FEATURES
  6
Continuous
 62
     7
100
AcDbCircle
 10
143.8209027657
 20
330.3240587809
 30
0.0
 40
10.0
100
AcDbArc
 50
133.3397650621
 51
175.0
  0
ARC
  5
2B8
330
21C
100
AcDbEntity
 67
     1
  8
7_ALL_FEATURES
  6
Continuous
 62
     7
100
AcDbCircle
 10
93.9479826533
 20
345.6242963886
 30
0.0
 40
10.0
100
AcDbArc
 50
348.0
 51
12.5498340237
  0
ARC
  5
2B9
330
21C
100
AcDbEntity
 67
     1
  8
7_ALL_FEATURES
  6
Continuous
 62
     7
100
AcDbCircle
 10
123.231204223
 20
352.1429568722
 30
0.0
 40
20.0
100
AcDbArc
 50
313.3397650621
 51
357.8509043731
  0
ARC
  5
2BA
330
21C
100
AcDbEntity
 67
     1
  8
7_ALL_FEATURES
  6
Continuous
 62
     7
100
AcDbCircle
 10
123.231204223
 20
352.1429568722
 30
0.0
 40
20.0
100
AcDbArc
 50
2.1490956269
 51
87.85090437309998
  0
ARC
  5
2BB
330
21C
100
AcDbEntity
 67
     1
  8
7_ALL_FEATURES
  6
Continuous
 62
     7
100
AcDbCircle
 10
123.231204223
 20
352.1429568722
 30
0.0
 40
20.0
100
AcDbArc
 50
92.1490956269
 51
177.8509043731
  0
ARC
  5
2BC
330
21C
100
AcDbEntity
 67
     1
  8
7_ALL_FEATURES
  6
Continuous
 62
     7
100
AcDbCircle
 10
123.231204223
 20
352.1429568722
 30
0.0
 40
20.0
100
AcDbArc
 50
182.1490956269
 51
192.5498340237
  0
LINE
  5
2BD
330
21C
100
AcDbEntity
 67
     1
  8
02___PRT_ALL_AXES
  6
Continuous
 62
     7
100
AcDbLine
 10
112.8608899356
 20
352.9281839607
 30
0.0
 11
112.95501816
 21
350.5429568722
 31
0.0
  0
LINE
  5
2BE
330
21C
100
AcDbEntity
 67
     1
  8
02___PRT_ALL_AXES
  6
Continuous
 62
     7
100
AcDbLine
 10
107.6495570166
 20
352.8994423886
 30
0.0
 11
107.8169251286
 21
349.7429568722
 31
0.0
  0
LINE
  5
2BF
330
21C
100
AcDbEntity
 67
     1
  8
7_ALL_FEATURES
  6
Continuous
 62
     9
100
AcDbLine
 10
118.1938779187
 20
152.1429568722
 30
0.0
 11
63.045660327
 21
152.1429568722
 31
0.0
  0
ARC
  5
2C0
330
21C
100
AcDbEntity
 67
     1
  8
7_ALL_FEATURES
  6
Continuous
 62
     7
100
AcDbCircle
 10
401.1514383924
 20
152.1429568722
 30
0.0
 40
5.0
100
AcDbArc
 50
270.0
 51
360.0
  0
LINE
  5
2C1
330
21C
100
AcDbEntity
 67
     1
  8
7_ALL_FEATURES
  6
Continuous
 62
     7
100
AcDbLine
 10
406.1514383924
 20
152.1429568722
 30
0.0
 11
406.1514383924
 21
172.1429568722
 31
0.0
  0
LINE
  5
2C2
330
21C
100
AcDbEntity
 67
     1
  8
7_ALL_FEATURES
  6
Continuous
 62
     7
100
AcDbLine
 10
406.1514383924
 20
172.1429568722
 30
0.0
 11
406.1514383924
 21
173.9686453867
 31
0.0
  0
LINE
  5
2C3
330
21C
100
AcDbEntity
 67
     1
  8
7_ALL_FEATURES
  6
Continuous
 62
     7
100
AcDbLine
 10
406.1514383924
 20
173.9686453867
 30
0.0
 11
406.1514383924
 21
343.5451794804
 31
0.0
  0
LINE
  5
2C4
330
21C
100
AcDbEntity
 67
     1
  8
7_ALL_FEATURES
  6
Continuous
 62
     7
100
AcDbLine
 10
406.1514383924
 20
352.1429568722
 30
0.0
 11
406.1514383924
 21
352.8929568722
 31
0.0
  0
LINE
  5
2C5
330
21C
100
AcDbEntity
 67
     1
  8
7_ALL_FEATURES
  6
Continuous
 62
     7
100
AcDbLine
 10
406.1514383924
 20
351.3929568722
 30
0.0
 11
406.1514383924
 21
352.1429568722
 31
0.0
  0
LINE
  5
2C6
330
21C
100
AcDbEntity
 67
     1
  8
7_ALL_FEATURES
  6
Continuous
 62
     7
100
AcDbLine
 10
403.1514383924
 20
372.1288894248
 30
0.0
 11
406.1514383924
 21
372.1288894248
 31
0.0
  0
LINE
  5
2C7
330
21C
100
AcDbEntity
 67
     1
  8
7_ALL_FEATURES
  6
Continuous
 62
     7
100
AcDbLine
 10
351.1514383924
 20
150.1429568722
 30
0.0
 11
351.1514383924
 21
147.1429568722
 31
0.0
  0
LINE
  5
2C8
330
21C
100
AcDbEntity
 67
     1
  8
7_ALL_FEATURES
  6
Continuous
 62
     7
100
AcDbLine
 10
406.1514383924
 20
347.7971832164
 30
0.0
 11
406.1514383924
 21
343.5451794804
 31
0.0
  0
LINE
  5
2C9
330
21C
100
AcDbEntity
 67
     1
  8
7_ALL_FEATURES
  6
Continuous
 62
     7
100
AcDbLine
 10
354.1514383924
 20
147.1429568722
 30
0.0
 11
351.1514383924
 21
147.1429568722
 31
0.0
  0
LINE
  5
2CA
330
21C
100
AcDbEntity
 67
     1
  8
7_ALL_FEATURES
  6
Continuous
 62
     7
100
AcDbLine
 10
401.1514383924
 20
147.1429568722
 30
0.0
 11
354.1514383924
 21
147.1429568722
 31
0.0
  0
LINE
  5
2CB
330
21C
100
AcDbEntity
 67
     1
  8
7_ALL_FEATURES
  6
Continuous
 62
     7
100
AcDbLine
 10
406.1514383924
 20
352.8929568722
 30
0.0
 11
406.1514383924
 21
362.3585797186
 31
0.0
  0
LINE
  5
2CC
330
21C
100
AcDbEntity
 67
     1
  8
7_ALL_FEATURES
  6
Continuous
 62
     7
100
AcDbLine
 10
406.1514383924
 20
362.3585797186
 30
0.0
 11
406.1514383924
 21
362.542277358
 31
0.0
  0
LINE
  5
2CD
330
21C
100
AcDbEntity
 67
     1
  8
7_ALL_FEATURES
  6
Continuous
 62
     7
100
AcDbLine
 10
406.1514383924
 20
362.542277358
 30
0.0
 11
406.1514383924
 21
372.1288894248
 31
0.0
  0
LINE
  5
2CE
330
21C
100
AcDbEntity
 67
     1
  8
7_ALL_FEATURES
  6
Continuous
 62
     7
100
AcDbLine
 10
403.1514383924
 20
372.1288894248
 30
0.0
 11
406.1514383924
 21
372.1288894248
 31
0.0
  0
LINE
  5
2CF
330
21C
100
AcDbEntity
 67
     1
  8
7_ALL_FEATURES
  6
Continuous
 62
     7
100
AcDbLine
 10
406.1514383924
 20
347.7971832164
 30
0.0
 11
406.1514383924
 21
351.3929568722
 31
0.0
  0
LINE
  5
2D0
330
21C
100
AcDbEntity
 67
     1
  8
7_ALL_FEATURES
  6
Continuous
 62
     9
100
AcDbLine
 10
403.1514383924
 20
347.7971832164
 30
0.0
 11
406.1514383924
 21
347.7971832164
 31
0.0
  0
LINE
  5
2D1
330
21C
100
AcDbEntity
 67
     1
  8
7_ALL_FEATURES
  6
Continuous
 62
     9
100
AcDbLine
 10
354.1514383924
 20
150.1429568722
 30
0.0
 11
354.1514383924
 21
147.1429568722
 31
0.0
  0
LINE
  5
2D2
330
21C
100
AcDbEntity
 67
     1
  8
7_ALL_FEATURES
  6
Continuous
 62
     7
100
AcDbLine
 10
406.1514383924
 20
152.1429568722
 30
0.0
 11
403.1514383924
 21
152.1429568722
 31
0.0
  0
LINE
  5
2D3
330
21C
100
AcDbEntity
 67
     1
  8
7_ALL_FEATURES
  6
Continuous
 62
     7
100
AcDbLine
 10
403.1514383924
 20
351.3929568722
 30
0.0
 11
406.1514383924
 21
351.3929568722
 31
0.0
  0
LINE
  5
2D4
330
21C
100
AcDbEntity
 67
     1
  8
7_ALL_FEATURES
  6
Continuous
 62
     9
100
AcDbLine
 10
401.1514383924
 20
147.1429568722
 30
0.0
 11
401.1514383924
 21
150.1429568722
 31
0.0
  0
LINE
  5
2D5
330
21C
100
AcDbEntity
 67
     1
  8
7_ALL_FEATURES
  6
Continuous
 62
     9
100
AcDbLine
 10
403.1514383924
 20
343.5451794804
 30
0.0
 11
406.1514383924
 21
343.5451794804
 31
0.0
  0
LINE
  5
2D6
330
21C
100
AcDbEntity
 67
     1
  8
7_ALL_FEATURES
  6
Continuous
 62
     7
100
AcDbLine
 10
403.1514383924
 20
352.1429568722
 30
0.0
 11
406.1514383924
 21
352.1429568722
 31
0.0
  0
LINE
  5
2D7
330
21C
100
AcDbEntity
 67
     1
  8
7_ALL_FEATURES
  6
Continuous
 62
     7
100
AcDbLine
 10
403.1514383924
 20
352.8929568722
 30
0.0
 11
406.1514383924
 21
352.8929568722
 31
0.0
  0
ARC
  5
2D8
330
21C
100
AcDbEntity
 67
     1
  8
0
  6
Continuous
 62
     7
100
AcDbCircle
 10
205.1514383924
 20
152.1429568722
 30
0.0
 40
5.0
100
AcDbArc
 50
180.0
 51
270.0
  0
LINE
  5
2D9
330
21C
100
AcDbEntity
 67
     1
  8
0
  6
Continuous
 62
     7
100
AcDbLine
 10
200.1514383924
 20
352.1429568722
 30
0.0
 11
200.1514383924
 21
352.8929568722
 31
0.0
  0
LINE
  5
2DA
330
21C
100
AcDbEntity
 67
     1
  8
0
  6
Continuous
 62
     7
100
AcDbLine
 10
200.1514383924
 20
152.1429568722
 30
0.0
 11
200.1514383924
 21
172.1429568722
 31
0.0
  0
LINE
  5
2DB
330
21C
100
AcDbEntity
 67
     1
  8
0
  6
Continuous
 62
     7
100
AcDbLine
 10
200.1514383924
 20
172.1429568722
 30
0.0
 11
200.1514383924
 21
173.9686453867
 31
0.0
  0
LINE
  5
2DC
330
21C
100
AcDbEntity
 67
     1
  8
0
  6
Continuous
 62
     7
100
AcDbLine
 10
200.1514383924
 20
173.9686453867
 30
0.0
 11
200.1514383924
 21
343.5451794804
 31
0.0
  0
LINE
  5
2DD
330
21C
100
AcDbEntity
 67
     1
  8
0
  6
Continuous
 62
     7
100
AcDbLine
 10
200.1514383924
 20
351.3929568722
 30
0.0
 11
200.1514383924
 21
352.1429568722
 31
0.0
  0
LINE
  5
2DE
330
21C
100
AcDbEntity
 67
     1
  8
0
  6
Continuous
 62
     7
100
AcDbLine
 10
203.1514383924
 20
372.1288894248
 30
0.0
 11
200.1514383924
 21
372.1288894248
 31
0.0
  0
LINE
  5
2DF
330
21C
100
AcDbEntity
 67
     1
  8
0
  6
Continuous
 62
     7
100
AcDbLine
 10
255.1514383924
 20
150.1429568722
 30
0.0
 11
255.1514383924
 21
147.1429568722
 31
0.0
  0
LINE
  5
2E0
330
21C
100
AcDbEntity
 67
     1
  8
0
  6
Continuous
 62
     7
100
AcDbLine
 10
205.1514383924
 20
147.1429568722
 30
0.0
 11
252.1514383924
 21
147.1429568722
 31
0.0
  0
LINE
  5
2E1
330
21C
100
AcDbEntity
 67
     1
  8
0
  6
Continuous
 62
     7
100
AcDbLine
 10
252.1514383924
 20
147.1429568722
 30
0.0
 11
255.1514383924
 21
147.1429568722
 31
0.0
  0
LINE
  5
2E2
330
21C
100
AcDbEntity
 67
     1
  8
0
  6
Continuous
 62
     7
100
AcDbLine
 10
200.1514383924
 20
347.7971832164
 30
0.0
 11
200.1514383924
 21
343.5451794804
 31
0.0
  0
LINE
  5
2E3
330
21C
100
AcDbEntity
 67
     1
  8
0
  6
Continuous
 62
     7
100
AcDbLine
 10
203.1514383924
 20
372.1288894248
 30
0.0
 11
200.1514383924
 21
372.1288894248
 31
0.0
  0
LINE
  5
2E4
330
21C
100
AcDbEntity
 67
     1
  8
0
  6
Continuous
 62
     7
100
AcDbLine
 10
200.1514383924
 20
352.8929568722
 30
0.0
 11
200.1514383924
 21
362.3585797186
 31
0.0
  0
LINE
  5
2E5
330
21C
100
AcDbEntity
 67
     1
  8
0
  6
Continuous
 62
     7
100
AcDbLine
 10
200.1514383924
 20
362.3585797186
 30
0.0
 11
200.1514383924
 21
362.542277358
 31
0.0
  0
LINE
  5
2E6
330
21C
100
AcDbEntity
 67
     1
  8
0
  6
Continuous
 62
     7
100
AcDbLine
 10
200.1514383924
 20
362.542277358
 30
0.0
 11
200.1514383924
 21
372.1288894248
 31
0.0
  0
LINE
  5
2E7
330
21C
100
AcDbEntity
 67
     1
  8
0
  6
Continuous
 62
     7
100
AcDbLine
 10
200.1514383924
 20
347.7971832164
 30
0.0
 11
200.1514383924
 21
351.3929568722
 31
0.0
  0
LINE
  5
2E8
330
21C
100
AcDbEntity
 67
     1
  8
0
  6
Continuous
 62
     9
100
AcDbLine
 10
203.1514383924
 20
347.7971832164
 30
0.0
 11
200.1514383924
 21
347.7971832164
 31
0.0
  0
LINE
  5
2E9
330
21C
100
AcDbEntity
 67
     1
  8
0
  6
Continuous
 62
     9
100
AcDbLine
 10
252.1514383924
 20
150.1429568722
 30
0.0
 11
252.1514383924
 21
147.1429568722
 31
0.0
  0
LINE
  5
2EA
330
21C
100
AcDbEntity
 67
     1
  8
0
  6
Continuous
 62
     7
100
AcDbLine
 10
200.1514383924
 20
152.1429568722
 30
0.0
 11
203.1514383924
 21
152.1429568722
 31
0.0
  0
LINE
  5
2EB
330
21C
100
AcDbEntity
 67
     1
  8
0
  6
Continuous
 62
     7
100
AcDbLine
 10
203.1514383924
 20
351.3929568722
 30
0.0
 11
200.1514383924
 21
351.3929568722
 31
0.0
  0
LINE
  5
2EC
330
21C
100
AcDbEntity
 67
     1
  8
0
  6
Continuous
 62
     9
100
AcDbLine
 10
203.1514383924
 20
343.5451794804
 30
0.0
 11
200.1514383924
 21
343.5451794804
 31
0.0
  0
LINE
  5
2ED
330
21C
100
AcDbEntity
 67
     1
  8
0
  6
Continuous
 62
     7
100
AcDbLine
 10
203.1514383924
 20
352.1429568722
 30
0.0
 11
200.1514383924
 21
352.1429568722
 31
0.0
  0
LINE
  5
2EE
330
21C
100
AcDbEntity
 67
     1
  8
0
  6
Continuous
 62
     9
100
AcDbLine
 10
205.1514383924
 20
147.1429568722
 30
0.0
 11
205.1514383924
 21
150.1429568722
 31
0.0
  0
LINE
  5
2EF
330
21C
100
AcDbEntity
 67
     1
  8
0
  6
Continuous
 62
     7
100
AcDbLine
 10
203.1514383924
 20
352.8929568722
 30
0.0
 11
200.1514383924
 21
352.8929568722
 31
0.0
  0
LINE
  5
2F0
330
21C
100
AcDbEntity
 67
     1
  8
7_ALL_FEATURES
  6
Continuous
 62
     3
100
AcDbLine
 10
403.1514383924
 20
351.3929568722
 30
0.0
 11
403.1514383924
 21
352.1429568722
 31
0.0
  0
LINE
  5
2F1
330
21C
100
AcDbEntity
 67
     1
  8
7_ALL_FEATURES
  6
Continuous
 62
     3
100
AcDbLine
 10
403.1514383924
 20
152.1429568722
 30
0.0
 11
403.1514383924
 21
172.1429568722
 31
0.0
  0
LINE
  5
2F2
330
21C
100
AcDbEntity
 67
     1
  8
7_ALL_FEATURES
  6
Continuous
 62
     3
100
AcDbLine
 10
403.1514383924
 20
172.1429568722
 30
0.0
 11
403.1514383924
 21
173.9686453867
 31
0.0
  0
LINE
  5
2F3
330
21C
100
AcDbEntity
 67
     1
  8
7_ALL_FEATURES
  6
Continuous
 62
     3
100
AcDbLine
 10
403.1514383924
 20
173.9686453867
 30
0.0
 11
403.1514383924
 21
343.5451794804
 31
0.0
  0
LINE
  5
2F4
330
21C
100
AcDbEntity
 67
     1
  8
7_ALL_FEATURES
  6
Continuous
 62
     3
100
AcDbLine
 10
403.1514383924
 20
352.1429568722
 30
0.0
 11
403.1514383924
 21
352.8929568722
 31
0.0
  0
LINE
  5
2F5
330
21C
100
AcDbEntity
 67
     1
  8
7_ALL_FEATURES
  6
Continuous
 62
     3
100
AcDbLine
 10
401.1514383924
 20
150.1429568722
 30
0.0
 11
354.1514383924
 21
150.1429568722
 31
0.0
  0
LINE
  5
2F6
330
21C
100
AcDbEntity
 67
     1
  8
7_ALL_FEATURES
  6
Continuous
 62
     3
100
AcDbLine
 10
351.1514383924
 20
150.1429568722
 30
0.0
 11
354.1514383924
 21
150.1429568722
 31
0.0
  0
ARC
  5
2F7
330
21C
100
AcDbEntity
 67
     1
  8
7_ALL_FEATURES
  6
Continuous
 62
     3
100
AcDbCircle
 10
401.1514383924
 20
152.1429568722
 30
0.0
 40
2.0
100
AcDbArc
 50
270.0
 51
360.0
  0
LINE
  5
2F8
330
21C
100
AcDbEntity
 67
     1
  8
7_ALL_FEATURES
  6
Continuous
 62
     3
100
AcDbLine
 10
403.1514383924
 20
343.5451794804
 30
0.0
 11
403.1514383924
 21
347.7971832164
 31
0.0
  0
LINE
  5
2F9
330
21C
100
AcDbEntity
 67
     1
  8
7_ALL_FEATURES
  6
Continuous
 62
     3
100
AcDbLine
 10
403.1514383924
 20
352.8929568722
 30
0.0
 11
403.1514383924
 21
362.3585797186
 31
0.0
  0
LINE
  5
2FA
330
21C
100
AcDbEntity
 67
     1
  8
7_ALL_FEATURES
  6
Continuous
 62
     3
100
AcDbLine
 10
403.1514383924
 20
362.3585797186
 30
0.0
 11
403.1514383924
 21
362.542277358
 31
0.0
  0
LINE
  5
2FB
330
21C
100
AcDbEntity
 67
     1
  8
7_ALL_FEATURES
  6
Continuous
 62
     3
100
AcDbLine
 10
403.1514383924
 20
362.542277358
 30
0.0
 11
403.1514383924
 21
372.1288894248
 31
0.0
  0
LINE
  5
2FC
330
21C
100
AcDbEntity
 67
     1
  8
7_ALL_FEATURES
  6
Continuous
 62
     3
100
AcDbLine
 10
403.1514383924
 20
347.7971832164
 30
0.0
 11
403.1514383924
 21
351.3929568722
 31
0.0
  0
LINE
  5
2FD
330
21C
100
AcDbEntity
 67
     1
  8
0
  6
Continuous
 62
     3
100
AcDbLine
 10
203.1514383924
 20
351.3929568722
 30
0.0
 11
203.1514383924
 21
352.1429568722
 31
0.0
  0
LINE
  5
2FE
330
21C
100
AcDbEntity
 67
     1
  8
0
  6
Continuous
 62
     3
100
AcDbLine
 10
203.1514383924
 20
352.1429568722
 30
0.0
 11
203.1514383924
 21
352.8929568722
 31
0.0
  0
LINE
  5
2FF
330
21C
100
AcDbEntity
 67
     1
  8
0
  6
Continuous
 62
     3
100
AcDbLine
 10
203.1514383924
 20
152.1429568722
 30
0.0
 11
203.1514383924
 21
172.1429568722
 31
0.0
  0
LINE
  5
300
330
21C
100
AcDbEntity
 67
     1
  8
0
  6
Continuous
 62
     3
100
AcDbLine
 10
203.1514383924
 20
172.1429568722
 30
0.0
 11
203.1514383924
 21
173.9686453867
 31
0.0
  0
LINE
  5
301
330
21C
100
AcDbEntity
 67
     1
  8
0
  6
Continuous
 62
     3
100
AcDbLine
 10
203.1514383924
 20
173.9686453867
 30
0.0
 11
203.1514383924
 21
343.5451794804
 31
0.0
  0
LINE
  5
302
330
21C
100
AcDbEntity
 67
     1
  8
0
  6
Continuous
 62
     3
100
AcDbLine
 10
255.1514383924
 20
150.1429568722
 30
0.0
 11
252.1514383924
 21
150.1429568722
 31
0.0
  0
LINE
  5
303
330
21C
100
AcDbEntity
 67
     1
  8
0
  6
Continuous
 62
     3
100
AcDbLine
 10
205.1514383924
 20
150.1429568722
 30
0.0
 11
252.1514383924
 21
150.1429568722
 31
0.0
  0
ARC
  5
304
330
21C
100
AcDbEntity
 67
     1
  8
0
  6
Continuous
 62
     3
100
AcDbCircle
 10
205.1514383924
 20
152.1429568722
 30
0.0
 40
2.0
100
AcDbArc
 50
180.0
 51
270.0
  0
LINE
  5
305
330
21C
100
AcDbEntity
 67
     1
  8
0
  6
Continuous
 62
     3
100
AcDbLine
 10
203.1514383924
 20
343.5451794804
 30
0.0
 11
203.1514383924
 21
347.7971832164
 31
0.0
  0
LINE
  5
306
330
21C
100
AcDbEntity
 67
     1
  8
0
  6
Continuous
 62
     3
100
AcDbLine
 10
203.1514383924
 20
352.8929568722
 30
0.0
 11
203.1514383924
 21
362.3585797186
 31
0.0
  0
LINE
  5
307
330
21C
100
AcDbEntity
 67
     1
  8
0
  6
Continuous
 62
     3
100
AcDbLine
 10
203.1514383924
 20
362.3585797186
 30
0.0
 11
203.1514383924
 21
362.542277358
 31
0.0
  0
LINE
  5
308
330
21C
100
AcDbEntity
 67
     1
  8
0
  6
Continuous
 62
     3
100
AcDbLine
 10
203.1514383924
 20
362.542277358
 30
0.0
 11
203.1514383924
 21
372.1288894248
 31
0.0
  0
LINE
  5
309
330
21C
100
AcDbEntity
 67
     1
  8
0
  6
Continuous
 62
     3
100
AcDbLine
 10
203.1514383924
 20
347.7971832164
 30
0.0
 11
203.1514383924
 21
351.3929568722
 31
0.0
  0
LINE
  5
30A
330
21C
100
AcDbEntity
 67
     1
  8
7_ALL_FEATURES
  6
Continuous
 62
     7
100
AcDbLine
 10
406.1514383924
 20
39.41712218
 30
0.0
 11
406.1514383924
 21
59.4733088799
 31
0.0
  0
LINE
  5
30B
330
21C
100
AcDbEntity
 67
     1
  8
7_ALL_FEATURES
  6
Continuous
 62
     7
100
AcDbLine
 10
406.1514383924
 20
59.4733088799
 30
0.0
 11
406.1514383924
 21
61.4731566495
 31
0.0
  0
LINE
  5
30C
330
21C
100
AcDbEntity
 67
     1
  8
7_ALL_FEATURES
  6
Continuous
 62
     7
100
AcDbLine
 10
406.1514383924
 20
61.4731566495
 30
0.0
 11
406.1514383924
 21
79.4251531311
 31
0.0
  0
LINE
  5
30D
330
21C
100
AcDbEntity
 67
     1
  8
7_ALL_FEATURES
  6
Continuous
 62
     7
100
AcDbLine
 10
406.1514383924
 20
79.4251531311
 30
0.0
 11
406.1514383924
 21
79.6167335233
 31
0.0
  0
LINE
  5
30E
330
21C
100
AcDbEntity
 67
     1
  8
7_ALL_FEATURES
  6
Continuous
 62
     7
100
AcDbLine
 10
406.1514383924
 20
99.602666076
 30
0.0
 11
406.1514383924
 21
100.352666076
 31
0.0
  0
LINE
  5
30F
330
21C
100
AcDbEntity
 67
     1
  8
7_ALL_FEATURES
  6
Continuous
 62
     7
100
AcDbLine
 10
406.1514383924
 20
98.852666076
 30
0.0
 11
406.1514383924
 21
99.602666076
 31
0.0
  0
LINE
  5
310
330
21C
100
AcDbEntity
 67
     1
  8
7_ALL_FEATURES
  6
Continuous
 62
     7
100
AcDbLine
 10
403.1514383924
 20
79.6167335233
 30
0.0
 11
406.1514383924
 21
79.6167335233
 31
0.0
  0
LINE
  5
311
330
21C
100
AcDbEntity
 67
     1
  8
7_ALL_FEATURES
  6
Continuous
 62
     7
100
AcDbLine
 10
403.1514383924
 20
119.5885986287
 30
0.0
 11
406.1514383924
 21
119.5885986287
 31
0.0
  0
LINE
  5
312
330
21C
100
AcDbEntity
 67
     1
  8
7_ALL_FEATURES
  6
Continuous
 62
     7
100
AcDbLine
 10
406.1514383924
 20
39.41712218
 30
0.0
 11
403.1514383924
 21
39.41712218
 31
0.0
  0
LINE
  5
313
330
21C
100
AcDbEntity
 67
     1
  8
7_ALL_FEATURES
  6
Continuous
 62
     7
100
AcDbLine
 10
406.1514383924
 20
100.352666076
 30
0.0
 11
406.1514383924
 21
109.8189253596
 31
0.0
  0
LINE
  5
314
330
21C
100
AcDbEntity
 67
     1
  8
7_ALL_FEATURES
  6
Continuous
 62
     7
100
AcDbLine
 10
406.1514383924
 20
109.8189253596
 30
0.0
 11
406.1514383924
 21
110.0023168373
 31
0.0
  0
LINE
  5
315
330
21C
100
AcDbEntity
 67
     1
  8
7_ALL_FEATURES
  6
Continuous
 62
     7
100
AcDbLine
 10
406.1514383924
 20
110.0023168373
 30
0.0
 11
406.1514383924
 21
119.5885986287
 31
0.0
  0
LINE
  5
316
330
21C
100
AcDbEntity
 67
     1
  8
7_ALL_FEATURES
  6
Continuous
 62
     7
100
AcDbLine
 10
403.1514383924
 20
119.5885986287
 30
0.0
 11
406.1514383924
 21
119.5885986287
 31
0.0
  0
LINE
  5
317
330
21C
100
AcDbEntity
 67
     1
  8
7_ALL_FEATURES
  6
Continuous
 62
     7
100
AcDbLine
 10
406.1514383924
 20
79.6167335233
 30
0.0
 11
406.1514383924
 21
89.2030153146
 31
0.0
  0
LINE
  5
318
330
21C
100
AcDbEntity
 67
     1
  8
7_ALL_FEATURES
  6
Continuous
 62
     7
100
AcDbLine
 10
406.1514383924
 20
89.2030153146
 30
0.0
 11
406.1514383924
 21
89.3861288435
 31
0.0
  0
LINE
  5
319
330
21C
100
AcDbEntity
 67
     1
  8
7_ALL_FEATURES
  6
Continuous
 62
     7
100
AcDbLine
 10
406.1514383924
 20
89.3861288435
 30
0.0
 11
406.1514383924
 21
98.852666076
 31
0.0
  0
LINE
  5
31A
330
21C
100
AcDbEntity
 67
     1
  8
7_ALL_FEATURES
  6
Continuous
 62
     7
100
AcDbLine
 10
403.1514383924
 20
79.6167335233
 30
0.0
 11
406.1514383924
 21
79.6167335233
 31
0.0
  0
LINE
  5
31B
330
21C
100
AcDbEntity
 67
     1
  8
7_ALL_FEATURES
  6
Continuous
 62
     7
100
AcDbLine
 10
403.1514383924
 20
99.602666076
 30
0.0
 11
406.1514383924
 21
99.602666076
 31
0.0
  0
LINE
  5
31C
330
21C
100
AcDbEntity
 67
     1
  8
7_ALL_FEATURES
  6
Continuous
 62
     7
100
AcDbLine
 10
403.1514383924
 20
100.352666076
 30
0.0
 11
406.1514383924
 21
100.352666076
 31
0.0
  0
LINE
  5
31D
330
21C
100
AcDbEntity
 67
     1
  8
7_ALL_FEATURES
  6
Continuous
 62
     7
100
AcDbLine
 10
403.1514383924
 20
98.852666076
 30
0.0
 11
406.1514383924
 21
98.852666076
 31
0.0
  0
LINE
  5
31E
330
21C
100
AcDbEntity
 67
     1
  8
0
  6
Continuous
 62
     7
100
AcDbLine
 10
200.1514383924
 20
98.852666076
 30
0.0
 11
200.1514383924
 21
99.602666076
 31
0.0
  0
LINE
  5
31F
330
21C
100
AcDbEntity
 67
     1
  8
0
  6
Continuous
 62
     7
100
AcDbLine
 10
200.1514383924
 20
99.602666076
 30
0.0
 11
200.1514383924
 21
100.352666076
 31
0.0
  0
LINE
  5
320
330
21C
100
AcDbEntity
 67
     1
  8
0
  6
Continuous
 62
     7
100
AcDbLine
 10
200.1514383924
 20
39.41712218
 30
0.0
 11
200.1514383924
 21
59.4733088799
 31
0.0
  0
LINE
  5
321
330
21C
100
AcDbEntity
 67
     1
  8
0
  6
Continuous
 62
     7
100
AcDbLine
 10
200.1514383924
 20
59.4733088799
 30
0.0
 11
200.1514383924
 21
61.4731566495
 31
0.0
  0
LINE
  5
322
330
21C
100
AcDbEntity
 67
     1
  8
0
  6
Continuous
 62
     7
100
AcDbLine
 10
200.1514383924
 20
61.4731566495
 30
0.0
 11
200.1514383924
 21
79.4251531311
 31
0.0
  0
LINE
  5
323
330
21C
100
AcDbEntity
 67
     1
  8
0
  6
Continuous
 62
     7
100
AcDbLine
 10
200.1514383924
 20
79.4251531311
 30
0.0
 11
200.1514383924
 21
79.6167335233
 31
0.0
  0
LINE
  5
324
330
21C
100
AcDbEntity
 67
     1
  8
0
  6
Continuous
 62
     7
100
AcDbLine
 10
203.1514383924
 20
79.6167335233
 30
0.0
 11
200.1514383924
 21
79.6167335233
 31
0.0
  0
LINE
  5
325
330
21C
100
AcDbEntity
 67
     1
  8
0
  6
Continuous
 62
     7
100
AcDbLine
 10
203.1514383924
 20
119.5885986287
 30
0.0
 11
200.1514383924
 21
119.5885986287
 31
0.0
  0
LINE
  5
326
330
21C
100
AcDbEntity
 67
     1
  8
0
  6
Continuous
 62
     7
100
AcDbLine
 10
200.1514383924
 20
39.41712218
 30
0.0
 11
203.1514383924
 21
39.41712218
 31
0.0
  0
LINE
  5
327
330
21C
100
AcDbEntity
 67
     1
  8
0
  6
Continuous
 62
     7
100
AcDbLine
 10
200.1514383924
 20
100.352666076
 30
0.0
 11
200.1514383924
 21
109.8189253596
 31
0.0
  0
LINE
  5
328
330
21C
100
AcDbEntity
 67
     1
  8
0
  6
Continuous
 62
     7
100
AcDbLine
 10
200.1514383924
 20
109.8189253596
 30
0.0
 11
200.1514383924
 21
110.0023168373
 31
0.0
  0
LINE
  5
329
330
21C
100
AcDbEntity
 67
     1
  8
0
  6
Continuous
 62
     7
100
AcDbLine
 10
200.1514383924
 20
110.0023168373
 30
0.0
 11
200.1514383924
 21
119.5885986287
 31
0.0
  0
LINE
  5
32A
330
21C
100
AcDbEntity
 67
     1
  8
0
  6
Continuous
 62
     7
100
AcDbLine
 10
203.1514383924
 20
119.5885986287
 30
0.0
 11
200.1514383924
 21
119.5885986287
 31
0.0
  0
LINE
  5
32B
330
21C
100
AcDbEntity
 67
     1
  8
0
  6
Continuous
 62
     7
100
AcDbLine
 10
200.1514383924
 20
79.6167335233
 30
0.0
 11
200.1514383924
 21
89.2030153146
 31
0.0
  0
LINE
  5
32C
330
21C
100
AcDbEntity
 67
     1
  8
0
  6
Continuous
 62
     7
100
AcDbLine
 10
200.1514383924
 20
89.2030153146
 30
0.0
 11
200.1514383924
 21
89.3861288435
 31
0.0
  0
LINE
  5
32D
330
21C
100
AcDbEntity
 67
     1
  8
0
  6
Continuous
 62
     7
100
AcDbLine
 10
200.1514383924
 20
89.3861288435
 30
0.0
 11
200.1514383924
 21
98.852666076
 31
0.0
  0
LINE
  5
32E
330
21C
100
AcDbEntity
 67
     1
  8
0
  6
Continuous
 62
     7
100
AcDbLine
 10
203.1514383924
 20
79.6167335233
 30
0.0
 11
200.1514383924
 21
79.6167335233
 31
0.0
  0
LINE
  5
32F
330
21C
100
AcDbEntity
 67
     1
  8
0
  6
Continuous
 62
     7
100
AcDbLine
 10
203.1514383924
 20
99.602666076
 30
0.0
 11
200.1514383924
 21
99.602666076
 31
0.0
  0
LINE
  5
330
330
21C
100
AcDbEntity
 67
     1
  8
0
  6
Continuous
 62
     7
100
AcDbLine
 10
203.1514383924
 20
100.352666076
 30
0.0
 11
200.1514383924
 21
100.352666076
 31
0.0
  0
LINE
  5
331
330
21C
100
AcDbEntity
 67
     1
  8
0
  6
Continuous
 62
     7
100
AcDbLine
 10
203.1514383924
 20
98.852666076
 30
0.0
 11
200.1514383924
 21
98.852666076
 31
0.0
  0
LINE
  5
332
330
21C
100
AcDbEntity
 67
     1
  8
7_ALL_FEATURES
  6
Continuous
 62
     3
100
AcDbLine
 10
403.1514383924
 20
39.41712218
 30
0.0
 11
403.1514383924
 21
59.4733088799
 31
0.0
  0
LINE
  5
333
330
21C
100
AcDbEntity
 67
     1
  8
7_ALL_FEATURES
  6
Continuous
 62
     3
100
AcDbLine
 10
403.1514383924
 20
59.4733088799
 30
0.0
 11
403.1514383924
 21
61.4731566495
 31
0.0
  0
LINE
  5
334
330
21C
100
AcDbEntity
 67
     1
  8
7_ALL_FEATURES
  6
Continuous
 62
     3
100
AcDbLine
 10
403.1514383924
 20
61.4731566495
 30
0.0
 11
403.1514383924
 21
79.4251531311
 31
0.0
  0
LINE
  5
335
330
21C
100
AcDbEntity
 67
     1
  8
7_ALL_FEATURES
  6
Continuous
 62
     3
100
AcDbLine
 10
403.1514383924
 20
79.4251531311
 30
0.0
 11
403.1514383924
 21
79.6167335233
 31
0.0
  0
LINE
  5
336
330
21C
100
AcDbEntity
 67
     1
  8
7_ALL_FEATURES
  6
Continuous
 62
     3
100
AcDbLine
 10
403.1514383924
 20
99.602666076
 30
0.0
 11
403.1514383924
 21
100.352666076
 31
0.0
  0
LINE
  5
337
330
21C
100
AcDbEntity
 67
     1
  8
7_ALL_FEATURES
  6
Continuous
 62
     3
100
AcDbLine
 10
403.1514383924
 20
98.852666076
 30
0.0
 11
403.1514383924
 21
99.602666076
 31
0.0
  0
ARC
  5
338
330
21C
100
AcDbEntity
 67
     1
  8
7_ALL_FEATURES
  6
Continuous
 62
     3
100
AcDbCircle
 10
354.1514383924
 20
91.5653397718
 30
0.0
 40
3.0
100
AcDbArc
 50
90.0
 51
180.0
  0
LINE
  5
339
330
21C
100
AcDbEntity
 67
     1
  8
7_ALL_FEATURES
  6
Continuous
 62
     3
100
AcDbLine
 10
354.1514383924
 20
94.5653397718
 30
0.0
 11
401.1514383924
 21
94.5653397718
 31
0.0
  0
LINE
  5
33A
330
21C
100
AcDbEntity
 67
     1
  8
7_ALL_FEATURES
  6
Continuous
 62
     3
100
AcDbLine
 10
401.1514383924
 20
39.41712218
 30
0.0
 11
354.1514383924
 21
39.41712218
 31
0.0
  0
ARC
  5
33B
330
21C
100
AcDbEntity
 67
     1
  8
7_ALL_FEATURES
  6
Continuous
 62
     3
100
AcDbCircle
 10
354.1514383924
 20
42.41712218
 30
0.0
 40
3.0
100
AcDbArc
 50
180.0
 51
270.0
  0
LINE
  5
33C
330
21C
100
AcDbEntity
 67
     1
  8
7_ALL_FEATURES
  6
Continuous
 62
     3
100
AcDbLine
 10
351.1514383924
 20
42.41712218
 30
0.0
 11
351.1514383924
 21
91.5653397718
 31
0.0
  0
LINE
  5
33D
330
21C
100
AcDbEntity
 67
     1
  8
02___PRT_ALL_AXES
  6
Continuous
 62
     3
100
AcDbLine
 10
392.1514383924
 20
69.9912309759
 30
0.0
 11
392.1514383924
 21
63.9912309759
 31
0.0
  0
ARC
  5
33E
330
21C
100
AcDbEntity
 67
     1
  8
02___PRT_ALL_AXES
  6
Continuous
 62
     3
100
AcDbCircle
 10
389.1514383924
 20
69.9912309759
 30
0.0
 40
3.0
100
AcDbArc
 50
0.0
 51
180.0
  0
LINE
  5
33F
330
21C
100
AcDbEntity
 67
     1
  8
02___PRT_ALL_AXES
  6
Continuous
 62
     3
100
AcDbLine
 10
386.1514383924
 20
63.9912309759
 30
0.0
 11
386.1514383924
 21
69.9912309759
 31
0.0
  0
ARC
  5
340
330
21C
100
AcDbEntity
 67
     1
  8
02___PRT_ALL_AXES
  6
Continuous
 62
     3
100
AcDbCircle
 10
389.1514383924
 20
63.9912309759
 30
0.0
 40
3.0
100
AcDbArc
 50
180.0
 51
360.0
  0
LINE
  5
341
330
21C
100
AcDbEntity
 67
     1
  8
02___PRT_ALL_AXES
  6
Continuous
 62
     3
100
AcDbLine
 10
364.6514383924
 20
69.9912309759
 30
0.0
 11
373.6514383924
 21
69.9912309759
 31
0.0
  0
ARC
  5
342
330
21C
100
AcDbEntity
 67
     1
  8
02___PRT_ALL_AXES
  6
Continuous
 62
     3
100
AcDbCircle
 10
364.6514383924
 20
66.9912309759
 30
0.0
 40
3.0
100
AcDbArc
 50
90.0
 51
270.0
  0
LINE
  5
343
330
21C
100
AcDbEntity
 67
     1
  8
02___PRT_ALL_AXES
  6
Continuous
 62
     3
100
AcDbLine
 10
373.6514383924
 20
63.9912309759
 30
0.0
 11
364.6514383924
 21
63.9912309759
 31
0.0
  0
ARC
  5
344
330
21C
100
AcDbEntity
 67
     1
  8
02___PRT_ALL_AXES
  6
Continuous
 62
     3
100
AcDbCircle
 10
373.6514383924
 20
66.9912309759
 30
0.0
 40
3.0
100
AcDbArc
 50
270.0
 51
90.0
  0
LINE
  5
345
330
21C
100
AcDbEntity
 67
     1
  8
7_ALL_FEATURES
  6
Continuous
 62
     3
100
AcDbLine
 10
401.1514383924
 20
94.5653397718
 30
0.0
 11
403.1514383924
 21
94.5653397718
 31
0.0
  0
LINE
  5
346
330
21C
100
AcDbEntity
 67
     1
  8
7_ALL_FEATURES
  6
Continuous
 62
     3
100
AcDbLine
 10
401.1514383924
 20
39.41712218
 30
0.0
 11
403.1514383924
 21
39.41712218
 31
0.0
  0
LINE
  5
347
330
21C
100
AcDbEntity
 67
     1
  8
7_ALL_FEATURES
  6
Continuous
 62
     3
100
AcDbLine
 10
403.1514383924
 20
100.352666076
 30
0.0
 11
403.1514383924
 21
109.8189253596
 31
0.0
  0
LINE
  5
348
330
21C
100
AcDbEntity
 67
     1
  8
7_ALL_FEATURES
  6
Continuous
 62
     3
100
AcDbLine
 10
403.1514383924
 20
109.8189253596
 30
0.0
 11
403.1514383924
 21
110.0023168373
 31
0.0
  0
LINE
  5
349
330
21C
100
AcDbEntity
 67
     1
  8
7_ALL_FEATURES
  6
Continuous
 62
     3
100
AcDbLine
 10
403.1514383924
 20
110.0023168373
 30
0.0
 11
403.1514383924
 21
119.5885986287
 31
0.0
  0
LINE
  5
34A
330
21C
100
AcDbEntity
 67
     1
  8
7_ALL_FEATURES
  6
Continuous
 62
     3
100
AcDbLine
 10
403.1514383924
 20
79.6167335233
 30
0.0
 11
403.1514383924
 21
89.2030153146
 31
0.0
  0
LINE
  5
34B
330
21C
100
AcDbEntity
 67
     1
  8
7_ALL_FEATURES
  6
Continuous
 62
     3
100
AcDbLine
 10
403.1514383924
 20
89.2030153146
 30
0.0
 11
403.1514383924
 21
89.3861288435
 31
0.0
  0
LINE
  5
34C
330
21C
100
AcDbEntity
 67
     1
  8
7_ALL_FEATURES
  6
Continuous
 62
     3
100
AcDbLine
 10
403.1514383924
 20
89.3861288435
 30
0.0
 11
403.1514383924
 21
98.852666076
 31
0.0
  0
LINE
  5
34D
330
21C
100
AcDbEntity
 67
     1
  8
7_ALL_FEATURES
  6
Continuous
 62
     9
100
AcDbLine
 10
401.1514383924
 20
94.5653397718
 30
0.0
 11
401.1514383924
 21
39.41712218
 31
0.0
  0
LINE
  5
34E
330
21C
100
AcDbEntity
 67
     1
  8
0
  6
Continuous
 62
     3
100
AcDbLine
 10
203.1514383924
 20
98.852666076
 30
0.0
 11
203.1514383924
 21
99.602666076
 31
0.0
  0
LINE
  5
34F
330
21C
100
AcDbEntity
 67
     1
  8
0
  6
Continuous
 62
     3
100
AcDbLine
 10
203.1514383924
 20
99.602666076
 30
0.0
 11
203.1514383924
 21
100.352666076
 31
0.0
  0
LINE
  5
350
330
21C
100
AcDbEntity
 67
     1
  8
0
  6
Continuous
 62
     3
100
AcDbLine
 10
203.1514383924
 20
39.41712218
 30
0.0
 11
203.1514383924
 21
59.4733088799
 31
0.0
  0
LINE
  5
351
330
21C
100
AcDbEntity
 67
     1
  8
0
  6
Continuous
 62
     3
100
AcDbLine
 10
203.1514383924
 20
59.4733088799
 30
0.0
 11
203.1514383924
 21
61.4731566495
 31
0.0
  0
LINE
  5
352
330
21C
100
AcDbEntity
 67
     1
  8
0
  6
Continuous
 62
     3
100
AcDbLine
 10
203.1514383924
 20
61.4731566495
 30
0.0
 11
203.1514383924
 21
79.4251531311
 31
0.0
  0
LINE
  5
353
330
21C
100
AcDbEntity
 67
     1
  8
0
  6
Continuous
 62
     3
100
AcDbLine
 10
203.1514383924
 20
79.4251531311
 30
0.0
 11
203.1514383924
 21
79.6167335233
 31
0.0
  0
ARC
  5
354
330
21C
100
AcDbEntity
 67
     1
  8
0
  6
Continuous
 62
     3
100
AcDbCircle
 10
252.1514383924
 20
91.5653397718
 30
0.0
 40
3.0
100
AcDbArc
 50
0.0
 51
90.0
  0
LINE
  5
355
330
21C
100
AcDbEntity
 67
     1
  8
0
  6
Continuous
 62
     3
100
AcDbLine
 10
255.1514383924
 20
42.41712218
 30
0.0
 11
255.1514383924
 21
91.5653397718
 31
0.0
  0
ARC
  5
356
330
21C
100
AcDbEntity
 67
     1
  8
0
  6
Continuous
 62
     3
100
AcDbCircle
 10
252.1514383924
 20
42.41712218
 30
0.0
 40
3.0
100
AcDbArc
 50
270.0
 51
360.0
  0
LINE
  5
357
330
21C
100
AcDbEntity
 67
     1
  8
0
  6
Continuous
 62
     3
100
AcDbLine
 10
205.1514383924
 20
39.41712218
 30
0.0
 11
252.1514383924
 21
39.41712218
 31
0.0
  0
LINE
  5
358
330
21C
100
AcDbEntity
 67
     1
  8
0
  6
Continuous
 62
     3
100
AcDbLine
 10
252.1514383924
 20
94.5653397718
 30
0.0
 11
205.1514383924
 21
94.5653397718
 31
0.0
  0
LINE
  5
359
330
21C
100
AcDbEntity
 67
     1
  8
0
  6
Continuous
 62
     3
100
AcDbLine
 10
214.1514383924
 20
69.9912309759
 30
0.0
 11
214.1514383924
 21
63.9912309759
 31
0.0
  0
ARC
  5
35A
330
21C
100
AcDbEntity
 67
     1
  8
0
  6
Continuous
 62
     3
100
AcDbCircle
 10
217.1514383924
 20
63.9912309759
 30
0.0
 40
3.0
100
AcDbArc
 50
180.0
 51
360.0
  0
LINE
  5
35B
330
21C
100
AcDbEntity
 67
     1
  8
0
  6
Continuous
 62
     3
100
AcDbLine
 10
220.1514383924
 20
63.9912309759
 30
0.0
 11
220.1514383924
 21
69.9912309759
 31
0.0
  0
ARC
  5
35C
330
21C
100
AcDbEntity
 67
     1
  8
0
  6
Continuous
 62
     3
100
AcDbCircle
 10
217.1514383924
 20
69.9912309759
 30
0.0
 40
3.0
100
AcDbArc
 50
0.0
 51
180.0
  0
LINE
  5
35D
330
21C
100
AcDbEntity
 67
     1
  8
0
  6
Continuous
 62
     3
100
AcDbLine
 10
241.6514383924
 20
69.9912309759
 30
0.0
 11
232.6514383924
 21
69.9912309759
 31
0.0
  0
ARC
  5
35E
330
21C
100
AcDbEntity
 67
     1
  8
0
  6
Continuous
 62
     3
100
AcDbCircle
 10
232.6514383924
 20
66.9912309759
 30
0.0
 40
3.0
100
AcDbArc
 50
90.0
 51
270.0
  0
LINE
  5
35F
330
21C
100
AcDbEntity
 67
     1
  8
0
  6
Continuous
 62
     3
100
AcDbLine
 10
232.6514383924
 20
63.9912309759
 30
0.0
 11
241.6514383924
 21
63.9912309759
 31
0.0
  0
ARC
  5
360
330
21C
100
AcDbEntity
 67
     1
  8
0
  6
Continuous
 62
     3
100
AcDbCircle
 10
241.6514383924
 20
66.9912309759
 30
0.0
 40
3.0
100
AcDbArc
 50
270.0
 51
90.0
  0
LINE
  5
361
330
21C
100
AcDbEntity
 67
     1
  8
0
  6
Continuous
 62
     3
100
AcDbLine
 10
205.1514383924
 20
39.41712218
 30
0.0
 11
203.1514383924
 21
39.41712218
 31
0.0
  0
LINE
  5
362
330
21C
100
AcDbEntity
 67
     1
  8
0
  6
Continuous
 62
     3
100
AcDbLine
 10
205.1514383924
 20
94.5653397718
 30
0.0
 11
203.1514383924
 21
94.5653397718
 31
0.0
  0
LINE
  5
363
330
21C
100
AcDbEntity
 67
     1
  8
0
  6
Continuous
 62
     3
100
AcDbLine
 10
203.1514383924
 20
100.352666076
 30
0.0
 11
203.1514383924
 21
109.8189253596
 31
0.0
  0
LINE
  5
364
330
21C
100
AcDbEntity
 67
     1
  8
0
  6
Continuous
 62
     3
100
AcDbLine
 10
203.1514383924
 20
109.8189253596
 30
0.0
 11
203.1514383924
 21
110.0023168373
 31
0.0
  0
LINE
  5
365
330
21C
100
AcDbEntity
 67
     1
  8
0
  6
Continuous
 62
     3
100
AcDbLine
 10
203.1514383924
 20
110.0023168373
 30
0.0
 11
203.1514383924
 21
119.5885986287
 31
0.0
  0
LINE
  5
366
330
21C
100
AcDbEntity
 67
     1
  8
0
  6
Continuous
 62
     3
100
AcDbLine
 10
203.1514383924
 20
79.6167335233
 30
0.0
 11
203.1514383924
 21
89.2030153146
 31
0.0
  0
LINE
  5
367
330
21C
100
AcDbEntity
 67
     1
  8
0
  6
Continuous
 62
     3
100
AcDbLine
 10
203.1514383924
 20
89.2030153146
 30
0.0
 11
203.1514383924
 21
89.3861288435
 31
0.0
  0
LINE
  5
368
330
21C
100
AcDbEntity
 67
     1
  8
0
  6
Continuous
 62
     3
100
AcDbLine
 10
203.1514383924
 20
89.3861288435
 30
0.0
 11
203.1514383924
 21
98.852666076
 31
0.0
  0
LINE
  5
369
330
21C
100
AcDbEntity
 67
     1
  8
0
  6
Continuous
 62
     9
100
AcDbLine
 10
205.1514383924
 20
94.5653397718
 30
0.0
 11
205.1514383924
 21
39.41712218
 31
0.0
  0
DIMENSION
  5
36A
330
21C
100
AcDbEntity
 67
     1
  8
0
  6
Continuous
 62
     2
100
AcDbDimension
280
     0
  2
*D1
 10
143.2171367756
 20
128.4984834896
 30
0.0
 11
102.7028274994
 21
128.4984834896
 31
0.0
 70
   160
 71
     2
 42
80.1714764486
 73
     0
 74
     0
 75
     0
  3
DIMSTYLE_1
100
AcDbAlignedDimension
 13
63.045660327
 23
135.8549501154
 33
0.0
 14
143.2171367756
 24
325.4305413316
 34
0.0
100
AcDbRotatedDimension
  0
DIMENSION
  5
36B
330
21C
100
AcDbEntity
 67
     1
  8
0
  6
Continuous
 62
     2
100
AcDbDimension
280
     0
  2
*D2
 10
51.2213965713
 20
372.1288894248
 30
0.0
 11
51.2213965713
 21
259.2073518488
 31
0.0
 70
   160
 71
     2
 42
224.9859325527
 73
     0
 74
     0
 75
     0
  3
DIMSTYLE_2
100
AcDbAlignedDimension
 13
59.8850184351
 23
147.1429568722
 33
0.0
 14
70.5563731419
 24
372.1288894248
 34
0.0
 50
90.0
100
AcDbRotatedDimension
  0
DIMENSION
  5
36C
330
21C
100
AcDbEntity
 67
     1
  8
0
  6
Continuous
 62
     2
100
AcDbDimension
280
     0
  2
*D3
 10
272.3560090561
 20
94.5653397718
 30
0.0
 11
272.3560090561
 21
66.5626624236
 31
0.0
 70
   160
 71
     2
 42
55.1482175917
 73
     0
 74
     0
 75
     0
  3
DIMSTYLE_1
100
AcDbAlignedDimension
 13
256.8472492033
 23
39.41712218
 33
0.0
 14
257.5696816357
 24
94.5653397718
 34
0.0
 50
90.0
100
AcDbRotatedDimension
  0
DIMENSION
  5
36D
330
21C
100
AcDbEntity
 67
     1
  8
0
  6
Continuous
 62
     2
100
AcDbDimension
280
     0
  2
*D4
 10
200.1514383924
 20
27.5082835233
 30
0.0
 11
227.2228645935
 21
27.5082835233
 31
0.0
 70
   160
 71
     2
 42
55.0
 73
     0
 74
     0
 75
     0
  3
DIMSTYLE_1
100
AcDbAlignedDimension
 13
255.1514383924
 23
34.8315816395
 33
0.0
 14
200.1514383924
 24
35.6949633733
 34
0.0
 50
180.0
100
AcDbRotatedDimension
  0
LINE
  5
36E
330
21C
100
AcDbEntity
 67
     1
  8
0
  6
Continuous
 62
     2
100
AcDbLine
 10
457.4681748104
 20
71.941664739
 30
0.0
 11
587.4681748104
 21
71.941664739
 31
0.0
  0
LINE
  5
36F
330
21C
100
AcDbEntity
 67
     1
  8
0
  6
Continuous
 62
     2
100
AcDbLine
 10
457.4681748104
 20
71.941664739
 30
0.0
 11
457.4681748104
 21
5.941664739
 31
0.0
  0
LINE
  5
370
330
21C
100
AcDbEntity
 67
     1
  8
0
  6
Continuous
 62
     2
100
AcDbLine
 10
487.4681748104
 20
63.941664739
 30
0.0
 11
587.4681748104
 21
63.941664739
 31
0.0
  0
LINE
  5
371
330
21C
100
AcDbEntity
 67
     1
  8
0
  6
Continuous
 62
     2
100
AcDbLine
 10
457.4681748104
 20
55.941664739
 30
0.0
 11
587.4681748104
 21
55.941664739
 31
0.0
  0
LINE
  5
372
330
21C
100
AcDbEntity
 67
     1
  8
0
  6
Continuous
 62
     2
100
AcDbLine
 10
487.4681748104
 20
49.941664739
 30
0.0
 11
587.4681748104
 21
49.941664739
 31
0.0
  0
LINE
  5
373
330
21C
100
AcDbEntity
 67
     1
  8
0
  6
Continuous
 62
     2
100
AcDbLine
 10
487.4681748104
 20
43.941664739
 30
0.0
 11
587.4681748104
 21
43.941664739
 31
0.0
  0
LINE
  5
374
330
21C
100
AcDbEntity
 67
     1
  8
0
  6
Continuous
 62
     2
100
AcDbLine
 10
487.4681748104
 20
37.941664739
 30
0.0
 11
587.4681748104
 21
37.941664739
 31
0.0
  0
LINE
  5
375
330
21C
100
AcDbEntity
 67
     1
  8
0
  6
Continuous
 62
     2
100
AcDbLine
 10
487.4681748104
 20
31.941664739
 30
0.0
 11
587.4681748104
 21
31.941664739
 31
0.0
  0
LINE
  5
376
330
21C
100
AcDbEntity
 67
     1
  8
0
  6
Continuous
 62
     2
100
AcDbLine
 10
487.4681748104
 20
25.941664739
 30
0.0
 11
587.4681748104
 21
25.941664739
 31
0.0
  0
LINE
  5
377
330
21C
100
AcDbEntity
 67
     1
  8
0
  6
Continuous
 62
     2
100
AcDbLine
 10
457.4681748104
 20
19.941664739
 30
0.0
 11
587.4681748104
 21
19.941664739
 31
0.0
  0
LINE
  5
378
330
21C
100
AcDbEntity
 67
     1
  8
0
  6
Continuous
 62
     2
100
AcDbLine
 10
457.4681748104
 20
13.941664739
 30
0.0
 11
587.4681748104
 21
13.941664739
 31
0.0
  0
LINE
  5
379
330
21C
100
AcDbEntity
 67
     1
  8
0
  6
Continuous
 62
     2
100
AcDbLine
 10
457.4681748104
 20
9.941664739
 30
0.0
 11
587.4681748104
 21
9.941664739
 31
0.0
  0
LINE
  5
37A
330
21C
100
AcDbEntity
 67
     1
  8
0
  6
Continuous
 62
     2
100
AcDbLine
 10
457.4681748104
 20
5.941664739
 30
0.0
 11
587.4681748104
 21
5.941664739
 31
0.0
  0
LINE
  5
37B
330
21C
100
AcDbEntity
 67
     1
  8
0
  6
Continuous
 62
     2
100
AcDbLine
 10
487.4681748104
 20
71.941664739
 30
0.0
 11
487.4681748104
 21
13.941664739
 31
0.0
  0
LINE
  5
37C
330
21C
100
AcDbEntity
 67
     1
  8
0
  6
Continuous
 62
     2
100
AcDbLine
 10
507.4681748104
 20
55.941664739
 30
0.0
 11
507.4681748104
 21
49.941664739
 31
0.0
  0
LINE
  5
37D
330
21C
100
AcDbEntity
 67
     1
  8
0
  6
Continuous
 62
     2
100
AcDbLine
 10
537.4681748104
 20
25.941664739
 30
0.0
 11
537.4681748104
 21
13.941664739
 31
0.0
  0
LINE
  5
37E
330
21C
100
AcDbEntity
 67
     1
  8
0
  6
Continuous
 62
     2
100
AcDbLine
 10
547.4681748104
 20
55.941664739
 30
0.0
 11
547.4681748104
 21
49.941664739
 31
0.0
  0
LINE
  5
37F
330
21C
100
AcDbEntity
 67
     1
  8
0
  6
Continuous
 62
     2
100
AcDbLine
 10
547.4681748104
 20
43.941664739
 30
0.0
 11
547.4681748104
 21
37.941664739
 31
0.0
  0
LINE
  5
380
330
21C
100
AcDbEntity
 67
     1
  8
0
  6
Continuous
 62
     2
100
AcDbLine
 10
567.4681748104
 20
55.941664739
 30
0.0
 11
567.4681748104
 21
49.941664739
 31
0.0
  0
LINE
  5
381
330
21C
100
AcDbEntity
 67
     1
  8
0
  6
Continuous
 62
     2
100
AcDbLine
 10
577.4681748104
 20
43.941664739
 30
0.0
 11
577.4681748104
 21
37.941664739
 31
0.0
  0
LINE
  5
382
330
21C
100
AcDbEntity
 67
     1
  8
0
  6
Continuous
 62
     2
100
AcDbLine
 10
587.4681748104
 20
71.941664739
 30
0.0
 11
587.4681748104
 21
5.941664739
 31
0.0
  0
INSERT
  5
383
330
21C
100
AcDbEntity
 67
     1
  8
0
  6
Continuous
 62
     2
100
AcDbBlockReference
  2
PROIEZIONE_EU_BL0
 10
472.4681748104
 20
63.566664739
 30
0.0
  0
MTEXT
  5
384
330
21C
100
AcDbEntity
 67
     1
  8
9_SOLID
  6
Continuous
 62
     2
100
AcDbMText
 10
488.9556748104
 20
70.316664739
 30
0.0
 40
1.9
 41
142.3642857143
 46
0.0
 71
     1
 72
     1
  1
EN: Chamfer/radii unlisted 0.3x45°. Remove sharp edges.\PGen. tol.: hole H11, shaft h11, lenght Js12. UNI EN 22768 Medium Grande.
 73
     1
 44
0.9
  0
MTEXT
  5
385
330
21C
100
AcDbEntity
 67
     1
  8
9_SOLID
  6
Continuous
 62
     2
100
AcDbMText
 10
488.9556748104
 20
62.316664739
 30
0.0
 40
1.9
 41
148.2678571429
 46
0.0
 71
     1
 72
     1
  1
IT: Sm./rac. non quotati 0.3x45°. Eliminare spigoli taglienti.\PToll. gen.: foro H11, albero h11, lunghezza Js12. UNI EN 22768 Grado Medio.
 73
     1
 44
0.9
  0
INSERT
  5
386
330
21C
100
AcDbEntity
 67
     1
  8
0
  6
Continuous
 62
     2
100
AcDbBlockReference
  2
LOGO2_BL1
 10
471.2942218552
 20
37.941664739
 30
0.0
  0
MTEXT
  5
387
330
21C
100
AcDbEntity
 67
     1
  8
9_SOLID
  6
Continuous
 62
     2
100
AcDbMText
 10
488.9556748104
 20
54.191664739
 30
0.0
 40
3.0
 41
21.1071428571
 46
0.0
 71
     1
 72
     1
  1
Pj: 561
 73
     1
 44
0.9
  0
MTEXT
  5
388
330
21C
100
AcDbEntity
 67
     1
  8
9_SOLID
  6
Continuous
 62
     2
100
AcDbMText
 10
508.9556748104
 20
54.191664739
 30
0.0
 40
3.0
 41
38.0357142857
 46
0.0
 71
     1
 72
     1
  1
% Check: %
 73
     1
 44
0.9
  0
MTEXT
  5
389
330
21C
100
AcDbEntity
 67
     1
  8
9_SOLID
  6
Continuous
 62
     2
100
AcDbMText
 10
548.9556748104
 20
54.191664739
 30
0.0
 40
3.0
 41
19.5
 46
0.0
 71
     1
 72
     1
  1
Rev:00
 73
     1
 44
0.9
  0
MTEXT
  5
38A
330
21C
100
AcDbEntity
 67
     1
  8
9_SOLID
  6
Continuous
 62
     2
100
AcDbMText
 10
568.9556748104
 20
54.441664739
 30
0.0
 40
3.0
 41
19.7142857143
 46
0.0
 71
     1
 72
     1
  1
Ver: A
 73
     1
 44
0.9
  0
MTEXT
  5
38B
330
21C
100
AcDbEntity
 67
     1
  8
9_SOLID
  6
Continuous
 62
     2
100
AcDbMText
 10
488.9556748104
 20
48.191664739
 30
0.0
 40
3.0
 41
73.3928571429
 46
0.0
 71
     1
 72
     1
  1
Neutral code: 561_C_003
 73
     1
 44
0.9
  0
MTEXT
  5
38C
330
21C
100
AcDbEntity
 67
     1
  8
9_SOLID
  6
Continuous
 62
     2
100
AcDbMText
 10
488.9556748104
 20
42.191664739
 30
0.0
 40
3.0
 41
43.5
 46
0.0
 71
     1
 72
     1
  1
Code: WM0802
 73
     1
 44
0.9
  0
MTEXT
  5
38D
330
21C
100
AcDbEntity
 67
     1
  8
9_SOLID
  6
Continuous
 62
     2
100
AcDbMText
 10
548.9556748104
 20
42.441664739
 30
0.0
 40
3.0
 41
27.8571428571
 46
0.0
 71
     1
 72
     1
  1
Scale: 1:1
 73
     1
 44
0.9
  0
MTEXT
  5
38E
330
21C
100
AcDbEntity
 67
     1
  8
9_SOLID
  6
Continuous
 62
     2
100
AcDbMText
 10
582.4681748104
 20
42.441664739
 30
0.0
 40
3.0
 41
8.25
 46
0.0
 71
     2
 72
     1
  1
A2
 73
     1
 44
0.9
  0
MTEXT
  5
38F
330
21C
100
AcDbEntity
 67
     1
  8
9_SOLID
  6
Continuous
 62
     2
100
AcDbMText
 10
488.9556748104
 20
36.316664739
 30
0.0
 40
2.75
 41
141.4285714286
 46
0.0
 71
     1
 72
     1
  1
It descr.: COPPIA STAFFE H.200 FISS. RIVERWALL
 73
     1
 44
0.9
  0
MTEXT
  5
390
330
21C
100
AcDbEntity
 67
     1
  8
9_SOLID
  6
Continuous
 62
     2
100
AcDbMText
 10
488.9556748104
 20
30.441664739
 30
0.0
 40
3.0
 41
33.9642857143
 46
0.0
 71
     1
 72
     1
  1
En descr.: 
 73
     1
 44
0.9
  0
MTEXT
  5
391
330
21C
100
AcDbEntity
 67
     1
  8
9_SOLID
  6
Continuous
 62
     2
100
AcDbMText
 10
488.9556748104
 20
24.441664739
 30
0.0
 40
3.0
 41
31.6071428571
 46
0.0
 71
     1
 72
     1
  1
Des.: A.G.
 73
     1
 44
0.9
  0
MTEXT
  5
392
330
21C
100
AcDbEntity
 67
     1
  8
9_SOLID
  6
Continuous
 62
     2
100
AcDbMText
 10
538.9556748104
 20
24.441664739
 30
0.0
 40
3.0
 41
22.2857142857
 46
0.0
 71
     1
 72
     1
  1
Check: 
 73
     1
 44
0.9
  0
MTEXT
  5
393
330
21C
100
AcDbEntity
 67
     1
  8
9_SOLID
  6
Continuous
 62
     2
100
AcDbMText
 10
458.9556748104
 20
18.441664739
 30
0.0
 40
3.0
 41
42.5357142857
 46
0.0
 71
     1
 72
     1
  1
Date: 12.12.18
 73
     1
 44
0.9
  0
MTEXT
  5
394
330
21C
100
AcDbEntity
 67
     1
  8
9_SOLID
  6
Continuous
 62
     2
100
AcDbMText
 10
488.9556748104
 20
18.441664739
 30
0.0
 40
3.0
 41
18.2142857143
 46
0.0
 71
     1
 72
     1
  1
Mat.: 
 73
     1
 44
0.9
  0
MTEXT
  5
395
330
21C
100
AcDbEntity
 67
     1
  8
9_SOLID
  6
Continuous
 62
     2
100
AcDbMText
 10
538.9556748104
 20
17.941664739
 30
0.0
 40
2.0
 41
42.3571428571
 46
0.0
 71
     1
 72
     1
  1
Disegno per catalogo
 73
     1
 44
0.9
  0
MTEXT
  5
396
330
21C
100
AcDbEntity
 67
     1
  8
9_SOLID
  6
Continuous
 62
     2
100
AcDbMText
 10
458.9556748104
 20
12.841664739
 30
0.0
 40
1.8
 41
176.2071428571
 46
0.0
 71
     1
 72
     1
  1
It: A norma di legge si diffida da qualsiasi riproduzione senza nostra autorizzazione esplicita.
 73
     1
 44
0.9
  0
MTEXT
  5
397
330
21C
100
AcDbEntity
 67
     1
  8
9_SOLID
  6
Continuous
 62
     2
100
AcDbMText
 10
458.9556748104
 20
8.841664739
 30
0.0
 40
1.8
 41
158.1428571429
 46
0.0
 71
     1
 72
     1
  1
En: According to the law, beware of any reproduction made without our authorization.
 73
     1
 44
0.9
  0
ENDSEC
  0
SECTION
  2
OBJECTS
  0
DICTIONARY
  5
C
330
0
100
AcDbDictionary
281
     1
  3
ACAD_DETAILVIEWSTYLE
350
3E6
  3
ACAD_GROUP
350
D
  3
ACAD_LAYOUT
350
1A
  3
ACAD_MATERIAL
350
3D5
  3
ACAD_MLEADERSTYLE
350
3DB
  3
ACAD_MLINESTYLE
350
17
  3
ACAD_PLOTSETTINGS
350
19
  3
ACAD_PLOTSTYLENAME
350
E
  3
ACAD_SCALELIST
350
39A
  3
ACAD_SECTIONVIEWSTYLE
350
3E7
  3
ACAD_TABLESTYLE
350
3D9
  3
ACAD_VISUALSTYLE
350
3BC
  3
ACDB_RECOMPOSE_DATA
350
3E2
  3
AcDbVariableDictionary
350
3DE
  3
APPDATA
350
3DD
  0
DICTIONARY
  5
3E6
102
{ACAD_REACTORS
330
C
102
}
330
C
100
AcDbDictionary
281
     1
  0
DICTIONARY
  5
D
102
{ACAD_REACTORS
330
C
102
}
330
C
100
AcDbDictionary
281
     1
  0
DICTIONARY
  5
1A
102
{ACAD_REACTORS
330
C
102
}
330
C
100
AcDbDictionary
281
     1
  3
561_C_003_1
350
399
  3
Model
350
398
  0
DICTIONARY
  5
3D5
102
{ACAD_REACTORS
330
C
102
}
330
C
100
AcDbDictionary
281
     1
  3
ByBlock
350
3D7
  3
ByLayer
350
3D6
  3
Global
350
3D8
  0
DICTIONARY
  5
3DB
102
{ACAD_REACTORS
330
C
102
}
330
C
100
AcDbDictionary
281
     1
  3
Standard
350
3DC
  0
DICTIONARY
  5
17
102
{ACAD_REACTORS
330
C
102
}
330
C
100
AcDbDictionary
281
     1
  3
Standard
350
18
  0
DICTIONARY
  5
19
102
{ACAD_REACTORS
330
C
102
}
330
C
100
AcDbDictionary
281
     1
  0
ACDBDICTIONARYWDFLT
  5
E
102
{ACAD_REACTORS
330
C
102
}
330
C
100
AcDbDictionary
281
     1
  3
Normal
350
F
100
AcDbDictionaryWithDefault
340
F
  0
DICTIONARY
  5
39A
102
{ACAD_REACTORS
330
C
102
}
330
C
100
AcDbDictionary
281
     1
  3
A0
350
39B
  3
A1
350
39C
  3
A2
350
39D
  3
A3
350
39E
  3
A4
350
39F
  3
A5
350
3A0
  3
A6
350
3A1
  3
A7
350
3A2
  3
A8
350
3A3
  3
A9
350
3A4
  3
B0
350
3A5
  3
B1
350
3A6
  3
B2
350
3A7
  3
B3
350
3A8
  3
B4
350
3A9
  3
B5
350
3AA
  3
B6
350
3AB
  3
B7
350
3AC
  3
B8
350
3AD
  3
B9
350
3AE
  3
C0
350
3AF
  3
C1
350
3B0
  3
C2
350
3B1
  3
C3
350
3B2
  3
C4
350
3B3
  3
C5
350
3B4
  3
C6
350
3B5
  3
C7
350
3B6
  3
C8
350
3B7
  3
C9
350
3B8
  3
D0
350
3B9
  3
D1
350
3BA
  3
D2
350
3BB
  0
DICTIONARY
  5
3E7
102
{ACAD_REACTORS
330
C
102
}
330
C
100
AcDbDictionary
281
     1
  0
DICTIONARY
  5
3D9
102
{ACAD_REACTORS
330
C
102
}
330
C
100
AcDbDictionary
281
     1
  3
Standard
350
3DA
  0
DICTIONARY
  5
3BC
102
{ACAD_REACTORS
330
C
102
}
330
C
100
AcDbDictionary
281
     1
  3
2dWireframe
350
3C1
  3
Basic
350
3C4
  3
Brighten
350
3C8
  3
ColorChange
350
3CC
  3
Conceptual
350
3C6
  3
Dim
350
3C7
  3
EdgeColorOff
350
3CF
  3
Facepattern
350
3CB
  3
Flat
350
3BD
  3
FlatWithEdges
350
3BE
  3
Gouraud
350
3BF
  3
GouraudWithEdges
350
3C0
  3
Hidden
350
3C3
  3
JitterOff
350
3CD
  3
Linepattern
350
3CA
  3
OverhangOff
350
3CE
  3
Realistic
350
3C5
  3
Shaded
350
3D4
  3
Shaded with edges
350
3D3
  3
Shades of Gray
350
3D0
  3
Sketchy
350
3D1
  3
Thicken
350
3C9
  3
Wireframe
350
3C2
  3
X-Ray
350
3D2
  0
XRECORD
  5
3E2
102
{ACAD_REACTORS
330
C
102
}
330
C
100
AcDbXrecord
280
     1
 90
        1
330
3DA
  0
DICTIONARY
  5
3DE
102
{ACAD_REACTORS
330
C
102
}
330
C
100
AcDbDictionary
281
     1
  3
CANNOSCALE
350
3DF
  3
CMLEADERSTYLE
350
3E4
  3
CTABLESTYLE
350
3E3
  3
MSLTSCALE
350
3E5
  0
DICTIONARY
  5
3DD
102
{ACAD_REACTORS
330
C
102
}
330
C
100
AcDbDictionary
281
     1
  0
LAYOUT
  5
399
102
{ACAD_REACTORS
330
1A
102
}
330
1A
100
AcDbPlotSettings
  1

  2
none_device
  4
ISO_A2_(594.00_x_420.00_MM)
  6

 40
0.0
 41
0.0
 42
0.0
 43
0.0
 44
594.0
 45
420.0
 46
0.0
 47
0.0
 48
0.0
 49
0.0
140
0.0
141
0.0
142
1.0
143
1.0
 70
     0
 72
     1
 73
     0
 74
     0
  7

 75
     0
 76
     0
 77
     2
 78
   300
147
1.0
148
0.0
149
0.0
100
AcDbLayout
  1
561_C_003_1
 70
     0
 71
     1
 10
0.0
 20
0.0
 11
594.0
 21
420.0
 12
0.0
 22
0.0
 32
0.0
 14
0.0
 24
0.0
 34
0.0
 15
595.0073414770666
 25
420.0
 35
0.0
146
0.0
 13
0.0
 23
0.0
 33
0.0
 16
1.0
 26
0.0
 36
0.0
 17
0.0
 27
1.0
 37
0.0
 76
     0
330
21C
331
29B
  0
LAYOUT
  5
398
102
{ACAD_REACTORS
330
1A
102
}
330
1A
100
AcDbPlotSettings
  1

  2
none_device
  4

  6

 40
0.0
 41
0.0
 42
0.0
 43
0.0
 44
594.0
 45
420.0
 46
0.0
 47
0.0
 48
0.0
 49
0.0
140
0.0
141
0.0
142
1.0
143
1.0
 70
  1024
 72
     1
 73
     0
 74
     0
  7

 75
     0
 76
     0
 77
     2
 78
   300
147
1.0
148
0.0
149
0.0
100
AcDbLayout
  1
Model
 70
     0
 71
     0
 10
0.0
 20
0.0
 11
594.0
 21
420.0
 12
0.0
 22
0.0
 32
0.0
 14
0.0
 24
0.0
 34
0.0
 15
0.0
 25
0.0
 35
0.0
146
0.0
 13
0.0
 23
0.0
 33
0.0
 16
1.0
 26
0.0
 36
0.0
 17
0.0
 27
1.0
 37
0.0
 76
     0
330
21B
331
1F4
  0
MATERIAL
  5
3D7
102
{ACAD_REACTORS
330
3D5
102
}
330
3D5
100
AcDbMaterial
  1
ByBlock
 72
     1
 94
      127
  0
MATERIAL
  5
3D6
102
{ACAD_REACTORS
330
3D5
102
}
330
3D5
100
AcDbMaterial
  1
ByLayer
 72
     1
 94
      127
  0
MATERIAL
  5
3D8
102
{ACAD_REACTORS
330
3D5
102
}
330
3D5
100
AcDbMaterial
  1
Global
 72
     1
 94
      127
  0
MLEADERSTYLE
  5
3DC
102
{ACAD_REACTORS
330
3DB
102
}
330
3DB
100
AcDbMLeaderStyle
179
     2
170
     2
171
     1
172
     0
 90
        2
 40
0.0
 41
0.0
173
     1
 91
-1056964608
340
14
 92
       -2
290
     1
 42
2.0
291
     1
 43
8.0
  3
Standard
341
0
 44
4.0
300

342
11
174
     1
178
     1
175
     1
176
     0
 93
-1056964608
 45
4.0
292
     0
297
     0
 46
4.0
343
0
 94
-1056964608
 47
1.0
 49
1.0
140
1.0
293
     1
141
0.0
294
     1
177
     0
142
1.0
295
     0
296
     0
143
3.75
271
     0
272
     9
273
     9
298
     0
  0
MLINESTYLE
  5
18
102
{ACAD_REACTORS
330
17
102
}
330
17
100
AcDbMlineStyle
  2
STANDARD
 70
     0
  3

 62
   256
 51
90.0
 52
90.0
 71
     2
 49
0.5
 62
   256
  6
BYLAYER
 49
-0.5
 62
   256
  6
BYLAYER
  0
ACDBPLACEHOLDER
  5
F
102
{ACAD_REACTORS
330
E
102
}
330
E
  0
SCALE
  5
39B
102
{ACAD_REACTORS
330
39A
102
}
330
39A
100
AcDbScale
 70
     0
300
1:1
140
1.0
141
1.0
290
     1
  0
SCALE
  5
39C
102
{ACAD_REACTORS
330
39A
102
}
330
39A
100
AcDbScale
 70
     0
300
1:2
140
1.0
141
2.0
290
     0
  0
SCALE
  5
39D
102
{ACAD_REACTORS
330
39A
102
}
330
39A
100
AcDbScale
 70
     0
300
1:4
140
1.0
141
4.0
290
     0
  0
SCALE
  5
39E
102
{ACAD_REACTORS
330
39A
102
}
330
39A
100
AcDbScale
 70
     0
300
1:5
140
1.0
141
5.0
290
     0
  0
SCALE
  5
39F
102
{ACAD_REACTORS
330
39A
102
}
330
39A
100
AcDbScale
 70
     0
300
1:8
140
1.0
141
8.0
290
     0
  0
SCALE
  5
3A0
102
{ACAD_REACTORS
330
39A
102
}
330
39A
100
AcDbScale
 70
     0
300
1:10
140
1.0
141
10.0
290
     0
  0
SCALE
  5
3A1
102
{ACAD_REACTORS
330
39A
102
}
330
39A
100
AcDbScale
 70
     0
300
1:16
140
1.0
141
16.0
290
     0
  0
SCALE
  5
3A2
102
{ACAD_REACTORS
330
39A
102
}
330
39A
100
AcDbScale
 70
     0
300
1:20
140
1.0
141
20.0
290
     0
  0
SCALE
  5
3A3
102
{ACAD_REACTORS
330
39A
102
}
330
39A
100
AcDbScale
 70
     0
300
1:30
140
1.0
141
30.0
290
     0
  0
SCALE
  5
3A4
102
{ACAD_REACTORS
330
39A
102
}
330
39A
100
AcDbScale
 70
     0
300
1:40
140
1.0
141
40.0
290
     0
  0
SCALE
  5
3A5
102
{ACAD_REACTORS
330
39A
102
}
330
39A
100
AcDbScale
 70
     0
300
1:50
140
1.0
141
50.0
290
     0
  0
SCALE
  5
3A6
102
{ACAD_REACTORS
330
39A
102
}
330
39A
100
AcDbScale
 70
     0
300
1:100
140
1.0
141
100.0
290
     0
  0
SCALE
  5
3A7
102
{ACAD_REACTORS
330
39A
102
}
330
39A
100
AcDbScale
 70
     0
300
2:1
140
2.0
141
1.0
290
     0
  0
SCALE
  5
3A8
102
{ACAD_REACTORS
330
39A
102
}
330
39A
100
AcDbScale
 70
     0
300
4:1
140
4.0
141
1.0
290
     0
  0
SCALE
  5
3A9
102
{ACAD_REACTORS
330
39A
102
}
330
39A
100
AcDbScale
 70
     0
300
8:1
140
8.0
141
1.0
290
     0
  0
SCALE
  5
3AA
102
{ACAD_REACTORS
330
39A
102
}
330
39A
100
AcDbScale
 70
     0
300
10:1
140
10.0
141
1.0
290
     0
  0
SCALE
  5
3AB
102
{ACAD_REACTORS
330
39A
102
}
330
39A
100
AcDbScale
 70
     0
300
100:1
140
100.0
141
1.0
290
     0
  0
SCALE
  5
3AC
102
{ACAD_REACTORS
330
39A
102
}
330
39A
100
AcDbScale
 70
     0
300
1/128" = 1'-0"
140
0.0078125
141
12.0
290
     0
  0
SCALE
  5
3AD
102
{ACAD_REACTORS
330
39A
102
}
330
39A
100
AcDbScale
 70
     0
300
1/64" = 1'-0"
140
0.015625
141
12.0
290
     0
  0
SCALE
  5
3AE
102
{ACAD_REACTORS
330
39A
102
}
330
39A
100
AcDbScale
 70
     0
300
1/32" = 1'-0"
140
0.03125
141
12.0
290
     0
  0
SCALE
  5
3AF
102
{ACAD_REACTORS
330
39A
102
}
330
39A
100
AcDbScale
 70
     0
300
1/16" = 1'-0"
140
0.0625
141
12.0
290
     0
  0
SCALE
  5
3B0
102
{ACAD_REACTORS
330
39A
102
}
330
39A
100
AcDbScale
 70
     0
300
3/32" = 1'-0"
140
0.09375
141
12.0
290
     0
  0
SCALE
  5
3B1
102
{ACAD_REACTORS
330
39A
102
}
330
39A
100
AcDbScale
 70
     0
300
1/8" = 1'-0"
140
0.125
141
12.0
290
     0
  0
SCALE
  5
3B2
102
{ACAD_REACTORS
330
39A
102
}
330
39A
100
AcDbScale
 70
     0
300
3/16" = 1'-0"
140
0.1875
141
12.0
290
     0
  0
SCALE
  5
3B3
102
{ACAD_REACTORS
330
39A
102
}
330
39A
100
AcDbScale
 70
     0
300
1/4" = 1'-0"
140
0.25
141
12.0
290
     0
  0
SCALE
  5
3B4
102
{ACAD_REACTORS
330
39A
102
}
330
39A
100
AcDbScale
 70
     0
300
3/8" = 1'-0"
140
0.375
141
12.0
290
     0
  0
SCALE
  5
3B5
102
{ACAD_REACTORS
330
39A
102
}
330
39A
100
AcDbScale
 70
     0
300
1/2" = 1'-0"
140
0.5
141
12.0
290
     0
  0
SCALE
  5
3B6
102
{ACAD_REACTORS
330
39A
102
}
330
39A
100
AcDbScale
 70
     0
300
3/4" = 1'-0"
140
0.75
141
12.0
290
     0
  0
SCALE
  5
3B7
102
{ACAD_REACTORS
330
39A
102
}
330
39A
100
AcDbScale
 70
     0
300
1" = 1'-0"
140
1.0
141
12.0
290
     0
  0
SCALE
  5
3B8
102
{ACAD_REACTORS
330
39A
102
}
330
39A
100
AcDbScale
 70
     0
300
1-1/2" = 1'-0"
140
1.5
141
12.0
290
     0
  0
SCALE
  5
3B9
102
{ACAD_REACTORS
330
39A
102
}
330
39A
100
AcDbScale
 70
     0
300
3" = 1'-0"
140
3.0
141
12.0
290
     0
  0
SCALE
  5
3BA
102
{ACAD_REACTORS
330
39A
102
}
330
39A
100
AcDbScale
 70
     0
300
6" = 1'-0"
140
6.0
141
12.0
290
     0
  0
SCALE
  5
3BB
102
{ACAD_REACTORS
330
39A
102
}
330
39A
100
AcDbScale
 70
     0
300
1'-0" = 1'-0"
140
12.0
141
12.0
290
     0
  0
TABLESTYLE
  5
3DA
102
{ACAD_REACTORS
330
3D9
102
}
102
{ACAD_XDICTIONARY
360
3E0
102
}
330
3D9
100
AcDbTableStyle
  3
Standard
 70
     0
 71
     0
 40
0.06
 41
0.06
280
     0
281
     0
  7
STANDARD
140
4.5
170
     2
 62
     0
 63
   257
283
     0
 90
        4
 91
        0
  1

274
    -2
284
     1
 64
     0
275
    -2
285
     1
 65
     0
276
    -2
286
     1
 66
     0
277
    -2
287
     1
 67
     0
278
    -2
288
     1
 68
     0
279
    -2
289
     1
 69
     0
  7
STANDARD
140
6.0
170
     5
 62
     0
 63
   257
283
     0
 90
        4
 91
        0
  1

274
    -2
284
     1
 64
     0
275
    -2
285
     1
 65
     0
276
    -2
286
     1
 66
     0
277
    -2
287
     1
 67
     0
278
    -2
288
     1
 68
     0
279
    -2
289
     1
 69
     0
  7
STANDARD
140
4.5
170
     5
 62
     0
 63
   257
283
     0
 90
        4
 91
        0
  1

274
    -2
284
     1
 64
     0
275
    -2
285
     1
 65
     0
276
    -2
286
     1
 66
     0
277
    -2
287
     1
 67
     0
278
    -2
288
     1
 68
     0
279
    -2
289
     1
 69
     0
  0
VISUALSTYLE
  5
3C1
102
{ACAD_REACTORS
330
3BC
102
}
330
3BC
100
AcDbVisualStyle
  2
2dWireframe
 70
     4
177
     3
291
     0
 70
    58
 90
        0
176
     1
 90
        2
176
     1
 90
        0
176
     1
 90
        0
176
     1
 40
0.6
176
     1
 40
30.0
176
     1
 62
     7
420
 16777215
176
     1
 90
        1
176
     1
 90
        4
176
     1
 62
     7
176
     1
 62
   257
176
     1
 90
        1
176
     1
 90
        1
176
     1
 40
1.0
176
     1
 90
        0
176
     1
 62
   257
176
     1
 40
1.0
176
     1
 90
        1
176
     1
 90
        6
176
     1
 90
        2
176
     1
 62
     7
176
     1
 90
        5
176
     1
 90
        0
176
     1
 90
        0
176
     1
290
     0
176
     1
 90
        1
176
     1
 40
0.0
176
     1
 90
        0
176
     1
290
     1
176
     1
290
     1
176
     1
290
     0
176
     1
290
     0
176
     1
290
     0
176
     1
290
     0
176
     1
290
     0
176
     1
290
     0
176
     1
290
     0
176
     1
 90
       50
176
     1
 40
0.0
176
     1
 40
1.0
176
     1
 90
        0
176
     1
 62
    18
420
        0
176
     1
 90
       50
176
     1
 90
        3
176
     1
 62
     5
420
      255
176
     1
290
     0
176
     1
 90
       50
176
     1
 90
       50
176
     1
 90
       50
176
     1
290
     0
176
     1
 90
       50
176
     1
 62
   256
176
     0
 40
1.0
176
     0
 90
        2
176
     1
  1
strokes_ogs.tif
176
     1
290
     0
176
     1
 40
1.0
176
     1
 40
1.0
176
     1
  0
VISUALSTYLE
  5
3C4
102
{ACAD_REACTORS
330
3BC
102
}
330
3BC
100
AcDbVisualStyle
  2
Basic
 70
     7
177
     3
291
     1
 70
    58
 90
        1
176
     1
 90
        0
176
     1
 90
        1
176
     1
 90
        0
176
     1
 40
0.6
176
     1
 40
30.0
176
     1
 62
     7
420
 16777215
176
     1
 90
        0
176
     1
 90
        4
176
     1
 62
     7
176
     1
 62
   257
176
     1
 90
        1
176
     1
 90
        1
176
     1
 40
1.0
176
     1
 90
        8
176
     1
 62
     7
176
     1
 40
1.0
176
     1
 90
        1
176
     1
 90
        6
176
     1
 90
        2
176
     1
 62
     7
176
     1
 90
        5
176
     1
 90
        0
176
     1
 90
        0
176
     1
290
     0
176
     1
 90
        1
176
     1
 40
0.0
176
     1
 90
        0
176
     1
290
     0
176
     1
290
     1
176
     1
290
     1
176
     1
290
     0
176
     1
290
     0
176
     1
290
     0
176
     1
290
     0
176
     1
290
     0
176
     1
290
     0
176
     1
 90
       50
176
     1
 40
0.0
176
     1
 40
1.0
176
     1
 90
        0
176
     1
 62
    18
420
        0
176
     1
 90
       50
176
     1
 90
        3
176
     1
 62
     5
420
      255
176
     1
290
     0
176
     1
 90
       50
176
     1
 90
       50
176
     1
 90
       50
176
     1
290
     0
176
     1
 90
       50
176
     1
 62
   256
176
     0
 40
1.0
176
     0
 90
        2
176
     1
  1
strokes_ogs.tif
176
     1
290
     0
176
     1
 40
1.0
176
     1
 40
1.0
176
     1
  0
VISUALSTYLE
  5
3C8
102
{ACAD_REACTORS
330
3BC
102
}
330
3BC
100
AcDbVisualStyle
  2
Brighten
 70
    12
177
     3
291
     1
 70
    58
 90
        2
176
     1
 90
        2
176
     1
 90
        0
176
     1
 90
        0
176
     1
 40
0.6
176
     1
 40
30.0
176
     1
 62
     7
420
 16777215
176
     1
 90
        1
176
     1
 90
        4
176
     1
 62
     7
176
     1
 62
   257
176
     1
 90
        1
176
     1
 90
        1
176
     1
 40
1.0
176
     1
 90
        8
176
     1
 62
     7
176
     1
 40
1.0
176
     1
 90
        1
176
     1
 90
        6
176
     1
 90
        2
176
     1
 62
     7
176
     1
 90
        5
176
     1
 90
        0
176
     1
 90
        0
176
     1
290
     0
176
     1
 90
        1
176
     1
 40
50.0
176
     1
 90
        0
176
     1
290
     0
176
     1
290
     1
176
     1
290
     1
176
     1
290
     0
176
     1
290
     0
176
     1
290
     0
176
     1
290
     0
176
     1
290
     0
176
     1
290
     0
176
     1
 90
       50
176
     1
 40
0.0
176
     1
 40
1.0
176
     1
 90
        0
176
     1
 62
    18
420
        0
176
     1
 90
       50
176
     1
 90
        3
176
     1
 62
     5
420
      255
176
     1
290
     0
176
     1
 90
       50
176
     1
 90
       50
176
     1
 90
       50
176
     1
290
     0
176
     1
 90
       50
176
     1
 62
   256
176
     0
 40
1.0
176
     0
 90
        2
176
     1
  1
strokes_ogs.tif
176
     1
290
     0
176
     1
 40
1.0
176
     1
 40
1.0
176
     1
  0
VISUALSTYLE
  5
3CC
102
{ACAD_REACTORS
330
3BC
102
}
330
3BC
100
AcDbVisualStyle
  2
ColorChange
 70
    16
177
     3
291
     1
 70
    58
 90
        2
176
     1
 90
        2
176
     1
 90
        3
176
     1
 90
        0
176
     1
 40
0.6
176
     1
 40
30.0
176
     1
 62
     8
420
  8421504
176
     1
 90
        1
176
     1
 90
        4
176
     1
 62
     7
176
     1
 62
   257
176
     1
 90
        1
176
     1
 90
        1
176
     1
 40
1.0
176
     1
 90
        8
176
     1
 62
     8
420
  8421504
176
     1
 40
1.0
176
     1
 90
        1
176
     1
 90
        6
176
     1
 90
        2
176
     1
 62
     7
176
     1
 90
        5
176
     1
 90
        0
176
     1
 90
        0
176
     1
290
     0
176
     1
 90
        1
176
     1
 40
0.0
176
     1
 90
        0
176
     1
290
     0
176
     1
290
     1
176
     1
290
     1
176
     1
290
     0
176
     1
290
     0
176
     1
290
     0
176
     1
290
     0
176
     1
290
     0
176
     1
290
     0
176
     1
 90
       50
176
     1
 40
0.0
176
     1
 40
1.0
176
     1
 90
        0
176
     1
 62
    18
420
        0
176
     1
 90
       50
176
     1
 90
        3
176
     1
 62
     5
420
      255
176
     1
290
     0
176
     1
 90
       50
176
     1
 90
       50
176
     1
 90
       50
176
     1
290
     0
176
     1
 90
       50
176
     1
 62
   256
176
     0
 40
1.0
176
     0
 90
        2
176
     1
  1
strokes_ogs.tif
176
     1
290
     0
176
     1
 40
1.0
176
     1
 40
1.0
176
     1
  0
VISUALSTYLE
  5
3C6
102
{ACAD_REACTORS
330
3BC
102
}
330
3BC
100
AcDbVisualStyle
  2
Conceptual
 70
     9
177
     3
291
     0
 70
    58
 90
        3
176
     1
 90
        2
176
     1
 90
        0
176
     1
 90
        0
176
     1
 40
0.6
176
     1
 40
30.0
176
     1
 62
     7
420
 16777215
176
     1
 90
        2
176
     1
 90
        2
176
     1
 62
     7
176
     1
 62
   257
176
     1
 90
        1
176
     1
 90
        1
176
     1
 40
179.0
176
     1
 90
        8
176
     1
 62
     7
176
     1
 40
1.0
176
     1
 90
        1
176
     1
 90
        6
176
     1
 90
        2
176
     1
 62
     7
176
     1
 90
        3
176
     1
 90
        0
176
     1
 90
        0
176
     1
290
     0
176
     1
 90
        1
176
     1
 40
0.0
176
     1
 90
        0
176
     1
290
     0
176
     1
290
     1
176
     1
290
     1
176
     1
290
     0
176
     1
290
     0
176
     1
290
     0
176
     1
290
     0
176
     1
290
     0
176
     1
290
     0
176
     1
 90
       50
176
     1
 40
0.0
176
     1
 40
1.0
176
     1
 90
        0
176
     1
 62
    18
420
        0
176
     1
 90
       50
176
     1
 90
        3
176
     1
 62
     5
420
      255
176
     1
290
     0
176
     1
 90
       50
176
     1
 90
       50
176
     1
 90
       50
176
     1
290
     0
176
     1
 90
       50
176
     1
 62
   256
176
     0
 40
1.0
176
     0
 90
        2
176
     1
  1
strokes_ogs.tif
176
     1
290
     0
176
     1
 40
1.0
176
     1
 40
1.0
176
     1
  0
VISUALSTYLE
  5
3C7
102
{ACAD_REACTORS
330
3BC
102
}
330
3BC
100
AcDbVisualStyle
  2
Dim
 70
    11
177
     3
291
     1
 70
    58
 90
        2
176
     1
 90
        2
176
     1
 90
        0
176
     1
 90
        0
176
     1
 40
0.6
176
     1
 40
30.0
176
     1
 62
     7
420
 16777215
176
     1
 90
        1
176
     1
 90
        4
176
     1
 62
     7
176
     1
 62
   257
176
     1
 90
        1
176
     1
 90
        1
176
     1
 40
1.0
176
     1
 90
        8
176
     1
 62
     7
176
     1
 40
1.0
176
     1
 90
        1
176
     1
 90
        6
176
     1
 90
        2
176
     1
 62
     7
176
     1
 90
        5
176
     1
 90
        0
176
     1
 90
        0
176
     1
290
     0
176
     1
 90
        1
176
     1
 40
-50.0
176
     1
 90
        0
176
     1
290
     0
176
     1
290
     1
176
     1
290
     1
176
     1
290
     0
176
     1
290
     0
176
     1
290
     0
176
     1
290
     0
176
     1
290
     0
176
     1
290
     0
176
     1
 90
       50
176
     1
 40
0.0
176
     1
 40
1.0
176
     1
 90
        0
176
     1
 62
    18
420
        0
176
     1
 90
       50
176
     1
 90
        3
176
     1
 62
     5
420
      255
176
     1
290
     0
176
     1
 90
       50
176
     1
 90
       50
176
     1
 90
       50
176
     1
290
     0
176
     1
 90
       50
176
     1
 62
   256
176
     0
 40
1.0
176
     0
 90
        2
176
     1
  1
strokes_ogs.tif
176
     1
290
     0
176
     1
 40
1.0
176
     1
 40
1.0
176
     1
  0
VISUALSTYLE
  5
3CF
102
{ACAD_REACTORS
330
3BC
102
}
330
3BC
100
AcDbVisualStyle
  2
EdgeColorOff
 70
    22
177
     3
291
     1
 70
    58
 90
        2
176
     0
 90
        2
176
     0
 90
        0
176
     0
 90
        0
176
     0
 40
0.6
176
     0
 40
30.0
176
     0
 62
     7
420
 16777215
176
     0
 90
        1
176
     0
 90
        4
176
     0
 62
     7
176
     0
 62
   257
176
     0
 90
        1
176
     0
 90
        1
176
     0
 40
1.0
176
     0
 90
        8
176
     2
 62
     7
176
     0
 40
1.0
176
     0
 90
        1
176
     0
 90
        6
176
     0
 90
        2
176
     0
 62
     7
176
     0
 90
        5
176
     0
 90
        0
176
     0
 90
        0
176
     0
290
     0
176
     0
 90
        1
176
     0
 40
0.0
176
     0
 90
        0
176
     0
290
     0
176
     0
290
     1
176
     0
290
     1
176
     0
290
     0
176
     0
290
     0
176
     0
290
     0
176
     0
290
     0
176
     0
290
     0
176
     0
290
     0
176
     0
 90
       50
176
     0
 40
0.0
176
     0
 40
1.0
176
     0
 90
        0
176
     0
 62
    18
420
        0
176
     0
 90
       50
176
     0
 90
        3
176
     0
 62
     5
420
      255
176
     0
290
     0
176
     0
 90
       50
176
     0
 90
       50
176
     0
 90
       50
176
     0
290
     0
176
     0
 90
       50
176
     0
 62
   256
176
     0
 40
1.0
176
     0
 90
        2
176
     0
  1
strokes_ogs.tif
176
     0
290
     0
176
     0
 40
1.0
176
     0
 40
1.0
176
     0
  0
VISUALSTYLE
  5
3CB
102
{ACAD_REACTORS
330
3BC
102
}
330
3BC
100
AcDbVisualStyle
  2
Facepattern
 70
    15
177
     3
291
     1
 70
    58
 90
        2
176
     1
 90
        2
176
     1
 90
        0
176
     1
 90
        0
176
     1
 40
0.6
176
     1
 40
30.0
176
     1
 62
     7
420
 16777215
176
     1
 90
        1
176
     1
 90
        4
176
     1
 62
     7
176
     1
 62
   257
176
     1
 90
        1
176
     1
 90
        1
176
     1
 40
1.0
176
     1
 90
        8
176
     1
 62
     7
176
     1
 40
1.0
176
     1
 90
        1
176
     1
 90
        6
176
     1
 90
        2
176
     1
 62
     7
176
     1
 90
        5
176
     1
 90
        0
176
     1
 90
        0
176
     1
290
     0
176
     1
 90
        1
176
     1
 40
0.0
176
     1
 90
        0
176
     1
290
     0
176
     1
290
     1
176
     1
290
     1
176
     1
290
     0
176
     1
290
     0
176
     1
290
     0
176
     1
290
     0
176
     1
290
     0
176
     1
290
     0
176
     1
 90
       50
176
     1
 40
0.0
176
     1
 40
1.0
176
     1
 90
        0
176
     1
 62
    18
420
        0
176
     1
 90
       50
176
     1
 90
        3
176
     1
 62
     5
420
      255
176
     1
290
     0
176
     1
 90
       50
176
     1
 90
       50
176
     1
 90
       50
176
     1
290
     0
176
     1
 90
       50
176
     1
 62
   256
176
     0
 40
1.0
176
     0
 90
        2
176
     1
  1
strokes_ogs.tif
176
     1
290
     0
176
     1
 40
1.0
176
     1
 40
1.0
176
     1
  0
VISUALSTYLE
  5
3BD
102
{ACAD_REACTORS
330
3BC
102
}
330
3BC
100
AcDbVisualStyle
  2
Flat
 70
     0
177
     3
291
     1
 70
    58
 90
        2
176
     1
 90
        1
176
     1
 90
        1
176
     1
 90
        2
176
     1
 40
0.6
176
     1
 40
30.0
176
     1
 62
     7
420
 16777215
176
     1
 90
        0
176
     1
 90
        0
176
     1
 62
     7
176
     1
 62
   257
176
     1
 90
        1
176
     1
 90
        1
176
     1
 40
1.0
176
     1
 90
        8
176
     1
 62
     7
176
     1
 40
1.0
176
     1
 90
        1
176
     1
 90
        6
176
     1
 90
        2
176
     1
 62
     7
176
     1
 90
        5
176
     1
 90
        0
176
     1
 90
        0
176
     1
290
     0
176
     1
 90
       13
176
     1
 40
0.0
176
     1
 90
        0
176
     1
290
     0
176
     1
290
     1
176
     1
290
     1
176
     1
290
     0
176
     1
290
     0
176
     1
290
     0
176
     1
290
     0
176
     1
290
     0
176
     1
290
     0
176
     1
 90
       50
176
     1
 40
0.0
176
     1
 40
1.0
176
     1
 90
        0
176
     1
 62
    18
420
        0
176
     1
 90
       50
176
     1
 90
        3
176
     1
 62
     5
420
      255
176
     1
290
     0
176
     1
 90
       50
176
     1
 90
       50
176
     1
 90
       50
176
     1
290
     0
176
     1
 90
       50
176
     1
 62
   256
176
     0
 40
1.0
176
     0
 90
        2
176
     1
  1
strokes_ogs.tif
176
     1
290
     0
176
     1
 40
1.0
176
     1
 40
1.0
176
     1
  0
VISUALSTYLE
  5
3BE
102
{ACAD_REACTORS
330
3BC
102
}
330
3BC
100
AcDbVisualStyle
  2
FlatWithEdges
 70
     1
177
     3
291
     1
 70
    58
 90
        2
176
     1
 90
        1
176
     1
 90
        1
176
     1
 90
        2
176
     1
 40
0.6
176
     1
 40
30.0
176
     1
 62
     7
420
 16777215
176
     1
 90
        1
176
     1
 90
        0
176
     1
 62
     7
176
     1
 62
   257
176
     1
 90
        1
176
     1
 90
        1
176
     1
 40
1.0
176
     1
 90
        0
176
     1
 62
   257
176
     1
 40
1.0
176
     1
 90
        1
176
     1
 90
        6
176
     1
 90
        2
176
     1
 62
     7
176
     1
 90
        5
176
     1
 90
        0
176
     1
 90
        0
176
     1
290
     0
176
     1
 90
       13
176
     1
 40
0.0
176
     1
 90
        0
176
     1
290
     0
176
     1
290
     1
176
     1
290
     1
176
     1
290
     0
176
     1
290
     0
176
     1
290
     0
176
     1
290
     0
176
     1
290
     0
176
     1
290
     0
176
     1
 90
       50
176
     1
 40
0.0
176
     1
 40
1.0
176
     1
 90
        0
176
     1
 62
    18
420
        0
176
     1
 90
       50
176
     1
 90
        3
176
     1
 62
     5
420
      255
176
     1
290
     0
176
     1
 90
       50
176
     1
 90
       50
176
     1
 90
       50
176
     1
290
     0
176
     1
 90
       50
176
     1
 62
   256
176
     0
 40
1.0
176
     0
 90
        2
176
     1
  1
strokes_ogs.tif
176
     1
290
     0
176
     1
 40
1.0
176
     1
 40
1.0
176
     1
  0
VISUALSTYLE
  5
3BF
102
{ACAD_REACTORS
330
3BC
102
}
330
3BC
100
AcDbVisualStyle
  2
Gouraud
 70
     2
177
     3
291
     1
 70
    58
 90
        2
176
     1
 90
        2
176
     1
 90
        1
176
     1
 90
        2
176
     1
 40
0.6
176
     1
 40
30.0
176
     1
 62
     7
420
 16777215
176
     1
 90
        0
176
     1
 90
        0
176
     1
 62
     7
176
     1
 62
   257
176
     1
 90
        1
176
     1
 90
        1
176
     1
 40
1.0
176
     1
 90
        0
176
     1
 62
     7
176
     1
 40
1.0
176
     1
 90
        1
176
     1
 90
        6
176
     1
 90
        2
176
     1
 62
     7
176
     1
 90
        5
176
     1
 90
        0
176
     1
 90
        0
176
     1
290
     0
176
     1
 90
       13
176
     1
 40
0.0
176
     1
 90
        0
176
     1
290
     0
176
     1
290
     1
176
     1
290
     1
176
     1
290
     0
176
     1
290
     0
176
     1
290
     0
176
     1
290
     0
176
     1
290
     0
176
     1
290
     0
176
     1
 90
       50
176
     1
 40
0.0
176
     1
 40
1.0
176
     1
 90
        0
176
     1
 62
    18
420
        0
176
     1
 90
       50
176
     1
 90
        3
176
     1
 62
     5
420
      255
176
     1
290
     0
176
     1
 90
       50
176
     1
 90
       50
176
     1
 90
       50
176
     1
290
     0
176
     1
 90
       50
176
     1
 62
   256
176
     0
 40
1.0
176
     0
 90
        2
176
     1
  1
strokes_ogs.tif
176
     1
290
     0
176
     1
 40
1.0
176
     1
 40
1.0
176
     1
  0
VISUALSTYLE
  5
3C0
102
{ACAD_REACTORS
330
3BC
102
}
330
3BC
100
AcDbVisualStyle
  2
GouraudWithEdges
 70
     3
177
     3
291
     1
 70
    58
 90
        2
176
     1
 90
        2
176
     1
 90
        1
176
     1
 90
        2
176
     1
 40
0.6
176
     1
 40
30.0
176
     1
 62
     7
420
 16777215
176
     1
 90
        1
176
     1
 90
        0
176
     1
 62
     7
176
     1
 62
   257
176
     1
 90
        1
176
     1
 90
        1
176
     1
 40
1.0
176
     1
 90
        0
176
     1
 62
   257
176
     1
 40
1.0
176
     1
 90
        1
176
     1
 90
        6
176
     1
 90
        2
176
     1
 62
     7
176
     1
 90
        5
176
     1
 90
        0
176
     1
 90
        0
176
     1
290
     0
176
     1
 90
       13
176
     1
 40
0.0
176
     1
 90
        0
176
     1
290
     0
176
     1
290
     1
176
     1
290
     1
176
     1
290
     0
176
     1
290
     0
176
     1
290
     0
176
     1
290
     0
176
     1
290
     0
176
     1
290
     0
176
     1
 90
       50
176
     1
 40
0.0
176
     1
 40
1.0
176
     1
 90
        0
176
     1
 62
    18
420
        0
176
     1
 90
       50
176
     1
 90
        3
176
     1
 62
     5
420
      255
176
     1
290
     0
176
     1
 90
       50
176
     1
 90
       50
176
     1
 90
       50
176
     1
290
     0
176
     1
 90
       50
176
     1
 62
   256
176
     0
 40
1.0
176
     0
 90
        2
176
     1
  1
strokes_ogs.tif
176
     1
290
     0
176
     1
 40
1.0
176
     1
 40
1.0
176
     1
  0
VISUALSTYLE
  5
3C3
102
{ACAD_REACTORS
330
3BC
102
}
330
3BC
100
AcDbVisualStyle
  2
Hidden
 70
     6
177
     3
291
     0
 70
    58
 90
        1
176
     1
 90
        2
176
     1
 90
        2
176
     1
 90
        0
176
     1
 40
0.6
176
     1
 40
30.0
176
     1
 62
     7
420
 16777215
176
     1
 90
        2
176
     1
 90
        2
176
     1
 62
     7
176
     1
 62
   257
176
     1
 90
        2
176
     1
 90
        1
176
     1
 40
40.0
176
     1
 90
        0
176
     1
 62
   257
176
     1
 40
1.0
176
     1
 90
        1
176
     1
 90
        6
176
     1
 90
        2
176
     1
 62
     7
176
     1
 90
        3
176
     1
 90
        0
176
     1
 90
        0
176
     1
290
     0
176
     1
 90
        1
176
     1
 40
0.0
176
     1
 90
        0
176
     1
290
     0
176
     1
290
     1
176
     1
290
     1
176
     1
290
     0
176
     1
290
     0
176
     1
290
     0
176
     1
290
     0
176
     1
290
     0
176
     1
290
     0
176
     1
 90
       50
176
     1
 40
0.0
176
     1
 40
1.0
176
     1
 90
        0
176
     1
 62
    18
420
        0
176
     1
 90
       50
176
     1
 90
        3
176
     1
 62
     5
420
      255
176
     1
290
     0
176
     1
 90
       50
176
     1
 90
       50
176
     1
 90
       50
176
     1
290
     0
176
     1
 90
       50
176
     1
 62
   256
176
     0
 40
1.0
176
     0
 90
        2
176
     1
  1
strokes_ogs.tif
176
     1
290
     0
176
     1
 40
1.0
176
     1
 40
1.0
176
     1
  0
VISUALSTYLE
  5
3CD
102
{ACAD_REACTORS
330
3BC
102
}
330
3BC
100
AcDbVisualStyle
  2
JitterOff
 70
    20
177
     3
291
     1
 70
    58
 90
        2
176
     0
 90
        2
176
     0
 90
        0
176
     0
 90
        0
176
     0
 40
0.6
176
     0
 40
30.0
176
     0
 62
     7
420
 16777215
176
     0
 90
        1
176
     0
 90
        4
176
     0
 62
     7
176
     0
 62
   257
176
     0
 90
        1
176
     0
 90
        1
176
     0
 40
1.0
176
     0
 90
       10
176
     2
 62
     7
176
     0
 40
1.0
176
     0
 90
        1
176
     0
 90
        6
176
     0
 90
        2
176
     0
 62
     7
176
     0
 90
        5
176
     0
 90
        0
176
     0
 90
        0
176
     0
290
     0
176
     0
 90
        1
176
     0
 40
0.0
176
     0
 90
        0
176
     0
290
     0
176
     0
290
     1
176
     0
290
     1
176
     0
290
     0
176
     0
290
     0
176
     0
290
     0
176
     0
290
     0
176
     0
290
     0
176
     0
290
     0
176
     0
 90
       50
176
     0
 40
0.0
176
     0
 40
1.0
176
     0
 90
        0
176
     0
 62
    18
420
        0
176
     0
 90
       50
176
     0
 90
        3
176
     0
 62
     5
420
      255
176
     0
290
     0
176
     0
 90
       50
176
     0
 90
       50
176
     0
 90
       50
176
     0
290
     0
176
     0
 90
       50
176
     0
 62
   256
176
     0
 40
1.0
176
     0
 90
        2
176
     0
  1
strokes_ogs.tif
176
     0
290
     0
176
     0
 40
1.0
176
     0
 40
1.0
176
     0
  0
VISUALSTYLE
  5
3CA
102
{ACAD_REACTORS
330
3BC
102
}
330
3BC
100
AcDbVisualStyle
  2
Linepattern
 70
    14
177
     3
291
     1
 70
    58
 90
        2
176
     1
 90
        2
176
     1
 90
        0
176
     1
 90
        0
176
     1
 40
0.6
176
     1
 40
30.0
176
     1
 62
     7
420
 16777215
176
     1
 90
        1
176
     1
 90
        4
176
     1
 62
     7
176
     1
 62
   257
176
     1
 90
        7
176
     1
 90
        7
176
     1
 40
1.0
176
     1
 90
        8
176
     1
 62
     7
176
     1
 40
1.0
176
     1
 90
        1
176
     1
 90
        6
176
     1
 90
        2
176
     1
 62
     7
176
     1
 90
        5
176
     1
 90
        0
176
     1
 90
        0
176
     1
290
     0
176
     1
 90
        1
176
     1
 40
0.0
176
     1
 90
        0
176
     1
290
     0
176
     1
290
     1
176
     1
290
     1
176
     1
290
     0
176
     1
290
     0
176
     1
290
     0
176
     1
290
     0
176
     1
290
     0
176
     1
290
     0
176
     1
 90
       50
176
     1
 40
0.0
176
     1
 40
1.0
176
     1
 90
        0
176
     1
 62
    18
420
        0
176
     1
 90
       50
176
     1
 90
        3
176
     1
 62
     5
420
      255
176
     1
290
     0
176
     1
 90
       50
176
     1
 90
       50
176
     1
 90
       50
176
     1
290
     0
176
     1
 90
       50
176
     1
 62
   256
176
     0
 40
1.0
176
     0
 90
        2
176
     1
  1
strokes_ogs.tif
176
     1
290
     0
176
     1
 40
1.0
176
     1
 40
1.0
176
     1
  0
VISUALSTYLE
  5
3CE
102
{ACAD_REACTORS
330
3BC
102
}
330
3BC
100
AcDbVisualStyle
  2
OverhangOff
 70
    21
177
     3
291
     1
 70
    58
 90
        2
176
     0
 90
        2
176
     0
 90
        0
176
     0
 90
        0
176
     0
 40
0.6
176
     0
 40
30.0
176
     0
 62
     7
420
 16777215
176
     0
 90
        1
176
     0
 90
        4
176
     0
 62
     7
176
     0
 62
   257
176
     0
 90
        1
176
     0
 90
        1
176
     0
 40
1.0
176
     0
 90
        9
176
     2
 62
     7
176
     0
 40
1.0
176
     0
 90
        1
176
     0
 90
        6
176
     0
 90
        2
176
     0
 62
     7
176
     0
 90
        5
176
     0
 90
        0
176
     0
 90
        0
176
     0
290
     0
176
     0
 90
        1
176
     0
 40
0.0
176
     0
 90
        0
176
     0
290
     0
176
     0
290
     1
176
     0
290
     1
176
     0
290
     0
176
     0
290
     0
176
     0
290
     0
176
     0
290
     0
176
     0
290
     0
176
     0
290
     0
176
     0
 90
       50
176
     0
 40
0.0
176
     0
 40
1.0
176
     0
 90
        0
176
     0
 62
    18
420
        0
176
     0
 90
       50
176
     0
 90
        3
176
     0
 62
     5
420
      255
176
     0
290
     0
176
     0
 90
       50
176
     0
 90
       50
176
     0
 90
       50
176
     0
290
     0
176
     0
 90
       50
176
     0
 62
   256
176
     0
 40
1.0
176
     0
 90
        2
176
     0
  1
strokes_ogs.tif
176
     0
290
     0
176
     0
 40
1.0
176
     0
 40
1.0
176
     0
  0
VISUALSTYLE
  5
3C5
102
{ACAD_REACTORS
330
3BC
102
}
330
3BC
100
AcDbVisualStyle
  2
Realistic
 70
     8
177
     3
291
     0
 70
    58
 90
        2
176
     1
 90
        3
176
     1
 90
        0
176
     1
 90
        2
176
     1
 40
0.6
176
     1
 40
30.0
176
     1
 62
     7
420
 16777215
176
     1
 90
        0
176
     1
 90
        0
176
     1
 62
     7
176
     1
 62
   257
176
     1
 90
        1
176
     1
 90
        1
176
     1
 40
1.0
176
     1
 90
        8
176
     1
 62
   257
176
     1
 40
1.0
176
     1
 90
        1
176
     1
 90
        6
176
     1
 90
        2
176
     1
 62
     7
176
     1
 90
        3
176
     1
 90
        0
176
     1
 90
        0
176
     1
290
     0
176
     1
 90
       13
176
     1
 40
0.0
176
     1
 90
        0
176
     1
290
     0
176
     1
290
     1
176
     1
290
     1
176
     1
290
     0
176
     1
290
     0
176
     1
290
     0
176
     1
290
     0
176
     1
290
     0
176
     1
290
     0
176
     1
 90
       50
176
     1
 40
0.0
176
     1
 40
1.0
176
     1
 90
        0
176
     1
 62
    18
420
        0
176
     1
 90
       50
176
     1
 90
        3
176
     1
 62
     5
420
      255
176
     1
290
     0
176
     1
 90
       50
176
     1
 90
       50
176
     1
 90
       50
176
     1
290
     0
176
     1
 90
       50
176
     1
 62
   256
176
     0
 40
1.0
176
     0
 90
        2
176
     1
  1
strokes_ogs.tif
176
     1
290
     0
176
     1
 40
1.0
176
     1
 40
1.0
176
     1
  0
VISUALSTYLE
  5
3D4
102
{ACAD_REACTORS
330
3BC
102
}
330
3BC
100
AcDbVisualStyle
  2
Shaded
 70
    27
177
     3
291
     0
 70
    58
 90
        2
176
     1
 90
        2
176
     1
 90
        1
176
     1
 90
        2
176
     1
 40
0.6
176
     1
 40
30.0
176
     1
 62
     7
420
 16777215
176
     1
 90
        0
176
     1
 90
        4
176
     1
 62
     7
176
     1
 62
   257
176
     1
 90
        1
176
     1
 90
        1
176
     1
 40
1.0
176
     1
 90
        8
176
     1
 62
   257
176
     1
 40
1.0
176
     1
 90
        1
176
     1
 90
        6
176
     1
 90
        2
176
     1
 62
     8
420
  7895160
176
     1
 90
        3
176
     1
 90
        0
176
     1
 90
        0
176
     1
290
     0
176
     1
 90
        5
176
     1
 40
0.0
176
     1
 90
        0
176
     1
290
     0
176
     1
290
     1
176
     1
290
     1
176
     1
290
     0
176
     1
290
     0
176
     1
290
     0
176
     1
290
     0
176
     1
290
     0
176
     1
290
     0
176
     1
 90
       50
176
     1
 40
0.0
176
     1
 40
1.0
176
     1
 90
        0
176
     1
 62
    18
420
        0
176
     1
 90
       50
176
     1
 90
        3
176
     1
 62
     5
420
      255
176
     1
290
     0
176
     1
 90
       50
176
     1
 90
       50
176
     1
 90
       50
176
     1
290
     0
176
     1
 90
       50
176
     1
 62
   256
176
     0
 40
1.0
176
     0
 90
        2
176
     1
  1
strokes_ogs.tif
176
     1
290
     0
176
     1
 40
1.0
176
     1
 40
1.0
176
     1
  0
VISUALSTYLE
  5
3D3
102
{ACAD_REACTORS
330
3BC
102
}
330
3BC
100
AcDbVisualStyle
  2
Shaded with edges
 70
    26
177
     3
291
     0
 70
    58
 90
        2
176
     1
 90
        2
176
     1
 90
        1
176
     1
 90
        2
176
     1
 40
0.6
176
     1
 40
30.0
176
     1
 62
     7
420
 16777215
176
     1
 90
        1
176
     1
 90
       10
176
     1
 62
     7
176
     1
 62
   257
176
     1
 90
        2
176
     1
 90
        1
176
     1
 40
1.0
176
     1
 90
        8
176
     1
 62
   257
176
     1
 40
1.0
176
     1
 90
        1
176
     1
 90
        6
176
     1
 90
        2
176
     1
 62
     7
176
     1
 90
        3
176
     1
 90
        0
176
     1
 90
        0
176
     1
290
     0
176
     1
 90
        5
176
     1
 40
0.0
176
     1
 90
        0
176
     1
290
     0
176
     1
290
     1
176
     1
290
     1
176
     1
290
     0
176
     1
290
     0
176
     1
290
     0
176
     1
290
     0
176
     1
290
     0
176
     1
290
     0
176
     1
 90
       50
176
     1
 40
0.0
176
     1
 40
1.0
176
     1
 90
        0
176
     1
 62
    18
420
        0
176
     1
 90
       50
176
     1
 90
        3
176
     1
 62
     5
420
      255
176
     1
290
     0
176
     1
 90
       50
176
     1
 90
       50
176
     1
 90
       50
176
     1
290
     0
176
     1
 90
       50
176
     1
 62
   256
176
     0
 40
1.0
176
     0
 90
        2
176
     1
  1
strokes_ogs.tif
176
     1
290
     0
176
     1
 40
1.0
176
     1
 40
1.0
176
     1
  0
VISUALSTYLE
  5
3D0
102
{ACAD_REACTORS
330
3BC
102
}
330
3BC
100
AcDbVisualStyle
  2
Shades of Gray
 70
    23
177
     3
291
     0
 70
    58
 90
        2
176
     1
 90
        2
176
     1
 90
        3
176
     1
 90
        0
176
     1
 40
0.6
176
     1
 40
30.0
176
     1
 62
     7
420
 16777215
176
     1
 90
        2
176
     1
 90
        2
176
     1
 62
     7
176
     1
 62
     7
176
     1
 90
        1
176
     1
 90
        1
176
     1
 40
40.0
176
     1
 90
        8
176
     1
 62
     7
176
     1
 40
1.0
176
     1
 90
        1
176
     1
 90
        6
176
     1
 90
        2
176
     1
 62
     7
176
     1
 90
        3
176
     1
 90
        0
176
     1
 90
        0
176
     1
290
     0
176
     1
 90
        1
176
     1
 40
0.0
176
     1
 90
        0
176
     1
290
     0
176
     1
290
     1
176
     1
290
     1
176
     1
290
     0
176
     1
290
     0
176
     1
290
     0
176
     1
290
     0
176
     1
290
     0
176
     1
290
     0
176
     1
 90
       50
176
     1
 40
0.0
176
     1
 40
1.0
176
     1
 90
        0
176
     1
 62
    18
420
        0
176
     1
 90
       50
176
     1
 90
        3
176
     1
 62
     5
420
      255
176
     1
290
     0
176
     1
 90
       50
176
     1
 90
       50
176
     1
 90
       50
176
     1
290
     0
176
     1
 90
       50
176
     1
 62
   256
176
     0
 40
1.0
176
     0
 90
        2
176
     1
  1
strokes_ogs.tif
176
     1
290
     0
176
     1
 40
1.0
176
     1
 40
1.0
176
     1
  0
VISUALSTYLE
  5
3D1
102
{ACAD_REACTORS
330
3BC
102
}
330
3BC
100
AcDbVisualStyle
  2
Sketchy
 70
    24
177
     3
291
     0
 70
    58
 90
        1
176
     1
 90
        2
176
     1
 90
        2
176
     1
 90
        0
176
     1
 40
0.6
176
     1
 40
30.0
176
     1
 62
     7
420
 16777215
176
     1
 90
        2
176
     1
 90
        2
176
     1
 62
     7
176
     1
 62
     7
176
     1
 90
        1
176
     1
 90
        1
176
     1
 40
40.0
176
     1
 90
       11
176
     1
 62
     7
176
     1
 40
1.0
176
     1
 90
        1
176
     1
 90
        6
176
     1
 90
        2
176
     1
 62
     7
176
     1
 90
        6
176
     1
 90
        0
176
     1
 90
        0
176
     1
290
     0
176
     1
 90
        1
176
     1
 40
0.0
176
     1
 90
        0
176
     1
290
     0
176
     1
290
     1
176
     1
290
     1
176
     1
290
     0
176
     1
290
     0
176
     1
290
     0
176
     1
290
     0
176
     1
290
     0
176
     1
290
     0
176
     1
 90
       50
176
     1
 40
0.0
176
     1
 40
1.0
176
     1
 90
        0
176
     1
 62
    18
420
        0
176
     1
 90
       50
176
     1
 90
        3
176
     1
 62
     5
420
      255
176
     1
290
     0
176
     1
 90
       50
176
     1
 90
       50
176
     1
 90
       50
176
     1
290
     0
176
     1
 90
       50
176
     1
 62
   256
176
     0
 40
1.0
176
     0
 90
        2
176
     1
  1
strokes_ogs.tif
176
     1
290
     0
176
     1
 40
1.0
176
     1
 40
1.0
176
     1
  0
VISUALSTYLE
  5
3C9
102
{ACAD_REACTORS
330
3BC
102
}
330
3BC
100
AcDbVisualStyle
  2
Thicken
 70
    13
177
     3
291
     1
 70
    58
 90
        2
176
     1
 90
        2
176
     1
 90
        0
176
     1
 90
        0
176
     1
 40
0.6
176
     1
 40
30.0
176
     1
 62
     7
420
 16777215
176
     1
 90
        1
176
     1
 90
        4
176
     1
 62
     7
176
     1
 62
   257
176
     1
 90
        1
176
     1
 90
        1
176
     1
 40
1.0
176
     1
 90
       12
176
     1
 62
     7
176
     1
 40
1.0
176
     1
 90
        1
176
     1
 90
        6
176
     1
 90
        2
176
     1
 62
     7
176
     1
 90
        5
176
     1
 90
        0
176
     1
 90
        0
176
     1
290
     0
176
     1
 90
        1
176
     1
 40
0.0
176
     1
 90
        0
176
     1
290
     0
176
     1
290
     1
176
     1
290
     1
176
     1
290
     0
176
     1
290
     0
176
     1
290
     0
176
     1
290
     0
176
     1
290
     0
176
     1
290
     0
176
     1
 90
       50
176
     1
 40
0.0
176
     1
 40
1.0
176
     1
 90
        0
176
     1
 62
    18
420
        0
176
     1
 90
       50
176
     1
 90
        3
176
     1
 62
     5
420
      255
176
     1
290
     0
176
     1
 90
       50
176
     1
 90
       50
176
     1
 90
       50
176
     1
290
     0
176
     1
 90
       50
176
     1
 62
   256
176
     0
 40
1.0
176
     0
 90
        2
176
     1
  1
strokes_ogs.tif
176
     1
290
     0
176
     1
 40
1.0
176
     1
 40
1.0
176
     1
  0
VISUALSTYLE
  5
3C2
102
{ACAD_REACTORS
330
3BC
102
}
330
3BC
100
AcDbVisualStyle
  2
Wireframe
 70
     5
177
     3
291
     0
 70
    58
 90
        0
176
     1
 90
        2
176
     1
 90
        0
176
     1
 90
        0
176
     1
 40
0.6
176
     1
 40
30.0
176
     1
 62
     7
420
 16777215
176
     1
 90
        1
176
     1
 90
        4
176
     1
 62
     7
176
     1
 62
   257
176
     1
 90
        1
176
     1
 90
        1
176
     1
 40
1.0
176
     1
 90
        0
176
     1
 62
   257
176
     1
 40
1.0
176
     1
 90
        1
176
     1
 90
        6
176
     1
 90
        2
176
     1
 62
     7
176
     1
 90
        3
176
     1
 90
        0
176
     1
 90
        0
176
     1
290
     0
176
     1
 90
        1
176
     1
 40
0.0
176
     1
 90
        0
176
     1
290
     0
176
     1
290
     1
176
     1
290
     1
176
     1
290
     0
176
     1
290
     0
176
     1
290
     0
176
     1
290
     0
176
     1
290
     0
176
     1
290
     0
176
     1
 90
       50
176
     1
 40
0.0
176
     1
 40
1.0
176
     1
 90
        0
176
     1
 62
    18
420
        0
176
     1
 90
       50
176
     1
 90
        3
176
     1
 62
     5
420
      255
176
     1
290
     0
176
     1
 90
       50
176
     1
 90
       50
176
     1
 90
       50
176
     1
290
     0
176
     1
 90
       50
176
     1
 62
   256
176
     0
 40
1.0
176
     0
 90
        2
176
     1
  1
strokes_ogs.tif
176
     1
290
     0
176
     1
 40
1.0
176
     1
 40
1.0
176
     1
  0
VISUALSTYLE
  5
3D2
102
{ACAD_REACTORS
330
3BC
102
}
330
3BC
100
AcDbVisualStyle
  2
X-Ray
 70
    25
177
     3
291
     0
 70
    58
 90
        2
176
     1
 90
        2
176
     1
 90
        1
176
     1
 90
        1
176
     1
 40
0.5
176
     1
 40
30.0
176
     1
 62
     7
420
 16777215
176
     1
 90
        1
176
     1
 90
        0
176
     1
 62
     7
176
     1
 62
   257
176
     1
 90
        1
176
     1
 90
        1
176
     1
 40
1.0
176
     1
 90
        8
176
     1
 62
     7
176
     1
 40
1.0
176
     1
 90
        1
176
     1
 90
        6
176
     1
 90
        2
176
     1
 62
     7
176
     1
 90
        3
176
     1
 90
        0
176
     1
 90
        0
176
     1
290
     0
176
     1
 90
       13
176
     1
 40
0.0
176
     1
 90
        0
176
     1
290
     0
176
     1
290
     1
176
     1
290
     1
176
     1
290
     0
176
     1
290
     0
176
     1
290
     0
176
     1
290
     0
176
     1
290
     0
176
     1
290
     0
176
     1
 90
       50
176
     1
 40
0.0
176
     1
 40
1.0
176
     1
 90
        0
176
     1
 62
    18
420
        0
176
     1
 90
       50
176
     1
 90
        3
176
     1
 62
     5
420
      255
176
     1
290
     0
176
     1
 90
       50
176
     1
 90
       50
176
     1
 90
       50
176
     1
290
     0
176
     1
 90
       50
176
     1
 62
   256
176
     0
 40
1.0
176
     0
 90
        2
176
     1
  1
strokes_ogs.tif
176
     1
290
     0
176
     1
 40
1.0
176
     1
 40
1.0
176
     1
  0
DICTIONARYVAR
  5
3DF
102
{ACAD_REACTORS
330
3DE
102
}
330
3DE
100
DictionaryVariables
280
     0
  1
1:1
  0
DICTIONARYVAR
  5
3E4
102
{ACAD_REACTORS
330
3DE
102
}
330
3DE
100
DictionaryVariables
280
     0
  1
Standard
  0
DICTIONARYVAR
  5
3E3
102
{ACAD_REACTORS
330
3DE
102
}
330
3DE
100
DictionaryVariables
280
     0
  1
Standard
  0
DICTIONARYVAR
  5
3E5
102
{ACAD_REACTORS
330
3DE
102
}
330
3DE
100
DictionaryVariables
280
     0
  1
0
  0
DICTIONARY
  5
3E0
330
3DA
100
AcDbDictionary
280
     1
281
     1
  3
ACAD_ROUNDTRIP_2008_TABLESTYLE_CELLSTYLEMAP
360
3E1
  0
CELLSTYLEMAP
  5
3E1
102
{ACAD_REACTORS
330
3E0
102
}
330
3E0
100
AcDbCellStyleMap
 90
        3
300
CELLSTYLE
  1
TABLEFORMAT_BEGIN
 90
        5
170
     1
 91
        0
 92
    32768
 62
   257
 93
        1
300
CONTENTFORMAT
  1
CONTENTFORMAT_BEGIN
 90
        0
 91
        0
 92
        4
 93
        0
300

 40
0.0
140
1.0
 94
        5
 62
     0
340
11
144
6.0
309
CONTENTFORMAT_END
171
     1
301
MARGIN
  1
CELLMARGIN_BEGIN
 40
1.5
 40
1.5
 40
1.5
 40
1.5
 40
1.5
 40
1.5
309
CELLMARGIN_END
 94
        6
 95
        1
302
GRIDFORMAT
  1
GRIDFORMAT_BEGIN
 90
        0
 91
        1
 62
     0
 92
       -2
340
14
 93
        0
 40
0.045
309
GRIDFORMAT_END
 95
        2
302
GRIDFORMAT
  1
GRIDFORMAT_BEGIN
 90
        0
 91
        1
 62
     0
 92
       -2
340
14
 93
        0
 40
0.045
309
GRIDFORMAT_END
 95
        4
302
GRIDFORMAT
  1
GRIDFORMAT_BEGIN
 90
        0
 91
        1
 62
     0
 92
       -2
340
14
 93
        0
 40
0.045
309
GRIDFORMAT_END
 95
        8
302
GRIDFORMAT
  1
GRIDFORMAT_BEGIN
 90
        0
 91
        1
 62
     0
 92
       -2
340
14
 93
        0
 40
0.045
309
GRIDFORMAT_END
 95
       16
302
GRIDFORMAT
  1
GRIDFORMAT_BEGIN
 90
        0
 91
        1
 62
     0
 92
       -2
340
14
 93
        0
 40
0.045
309
GRIDFORMAT_END
 95
       32
302
GRIDFORMAT
  1
GRIDFORMAT_BEGIN
 90
        0
 91
        1
 62
     0
 92
       -2
340
14
 93
        0
 40
0.045
309
GRIDFORMAT_END
309
TABLEFORMAT_END
  1
CELLSTYLE_BEGIN
 90
        1
 91
        1
300
_TITLE
309
CELLSTYLE_END
300
CELLSTYLE
  1
TABLEFORMAT_BEGIN
 90
        5
170
     1
 91
        0
 92
        0
 62
   257
 93
        1
300
CONTENTFORMAT
  1
CONTENTFORMAT_BEGIN
 90
        0
 91
        0
 92
        4
 93
        0
300

 40
0.0
140
1.0
 94
        5
 62
     0
340
11
144
4.5
309
CONTENTFORMAT_END
171
     1
301
MARGIN
  1
CELLMARGIN_BEGIN
 40
1.5
 40
1.5
 40
1.5
 40
1.5
 40
1.5
 40
1.5
309
CELLMARGIN_END
 94
        6
 95
        1
302
GRIDFORMAT
  1
GRIDFORMAT_BEGIN
 90
        0
 91
        1
 62
     0
 92
       -2
340
14
 93
        0
 40
0.045
309
GRIDFORMAT_END
 95
        2
302
GRIDFORMAT
  1
GRIDFORMAT_BEGIN
 90
        0
 91
        1
 62
     0
 92
       -2
340
14
 93
        0
 40
0.045
309
GRIDFORMAT_END
 95
        4
302
GRIDFORMAT
  1
GRIDFORMAT_BEGIN
 90
        0
 91
        1
 62
     0
 92
       -2
340
14
 93
        0
 40
0.045
309
GRIDFORMAT_END
 95
        8
302
GRIDFORMAT
  1
GRIDFORMAT_BEGIN
 90
        0
 91
        1
 62
     0
 92
       -2
340
14
 93
        0
 40
0.045
309
GRIDFORMAT_END
 95
       16
302
GRIDFORMAT
  1
GRIDFORMAT_BEGIN
 90
        0
 91
        1
 62
     0
 92
       -2
340
14
 93
        0
 40
0.045
309
GRIDFORMAT_END
 95
       32
302
GRIDFORMAT
  1
GRIDFORMAT_BEGIN
 90
        0
 91
        1
 62
     0
 92
       -2
340
14
 93
        0
 40
0.045
309
GRIDFORMAT_END
309
TABLEFORMAT_END
  1
CELLSTYLE_BEGIN
 90
        2
 91
        1
300
_HEADER
309
CELLSTYLE_END
300
CELLSTYLE
  1
TABLEFORMAT_BEGIN
 90
        5
170
     1
 91
        0
 92
        0
 62
   257
 93
        1
300
CONTENTFORMAT
  1
CONTENTFORMAT_BEGIN
 90
        0
 91
        0
 92
        4
 93
        0
300

 40
0.0
140
1.0
 94
        2
 62
     0
340
11
144
4.5
309
CONTENTFORMAT_END
171
     1
301
MARGIN
  1
CELLMARGIN_BEGIN
 40
1.5
 40
1.5
 40
1.5
 40
1.5
 40
1.5
 40
1.5
309
CELLMARGIN_END
 94
        6
 95
        1
302
GRIDFORMAT
  1
GRIDFORMAT_BEGIN
 90
        0
 91
        1
 62
     0
 92
       -2
340
14
 93
        0
 40
0.045
309
GRIDFORMAT_END
 95
        2
302
GRIDFORMAT
  1
GRIDFORMAT_BEGIN
 90
        0
 91
        1
 62
     0
 92
       -2
340
14
 93
        0
 40
0.045
309
GRIDFORMAT_END
 95
        4
302
GRIDFORMAT
  1
GRIDFORMAT_BEGIN
 90
        0
 91
        1
 62
     0
 92
       -2
340
14
 93
        0
 40
0.045
309
GRIDFORMAT_END
 95
        8
302
GRIDFORMAT
  1
GRIDFORMAT_BEGIN
 90
        0
 91
        1
 62
     0
 92
       -2
340
14
 93
        0
 40
0.045
309
GRIDFORMAT_END
 95
       16
302
GRIDFORMAT
  1
GRIDFORMAT_BEGIN
 90
        0
 91
        1
 62
     0
 92
       -2
340
14
 93
        0
 40
0.045
309
GRIDFORMAT_END
 95
       32
302
GRIDFORMAT
  1
GRIDFORMAT_BEGIN
 90
        0
 91
        1
 62
     0
 92
       -2
340
14
 93
        0
 40
0.045
309
GRIDFORMAT_END
309
TABLEFORMAT_END
  1
CELLSTYLE_BEGIN
 90
        3
 91
        2
300
_DATA
309
CELLSTYLE_END
  0
ENDSEC
  0
EOF
