  0
SECTION
  2
HEADER
  9
$ACADVER
  1
AC1027
  9
$ACADMAINTVER
 70
   105
  9
$DWGCODEPAGE
  3
ANSI_1252
  9
$REQUIREDVERSIONS
160
                 0
  9
$LASTSAVEDBY
  1
andrea.zolin
  9
$INSBASE
 10
0.0
 20
0.0
 30
0.0
  9
$EXTMIN
 10
0.0
 20
0.0
 30
0.0
  9
$EXTMAX
 10
297.0
 20
210.0
 30
0.0
  9
$LIMMIN
 10
0.0
 20
0.0
  9
$LIMMAX
 10
297.0
 20
210.0
  9
$ORTHOMODE
 70
     0
  9
$REGENMODE
 70
     1
  9
$FILLMODE
 70
     1
  9
$QTEXTMODE
 70
     0
  9
$MIRRTEXT
 70
     1
  9
$LTSCALE
 40
16.335
  9
$ATTMODE
 70
     1
  9
$TEXTSIZE
 40
0.2
  9
$TRACEWID
 40
0.05
  9
$TEXTSTYLE
  7
STANDARD
  9
$CLAYER
  8
0
  9
$CELTYPE
  6
BYLAYER
  9
$CECOLOR
 62
   256
  9
$CELTSCALE
 40
1.0
  9
$DISPSILH
 70
     0
  9
$DIMSCALE
 40
1.0
  9
$DIMASZ
 40
2.5
  9
$DIMEXO
 40
0.75
  9
$DIMDLI
 40
11.286
  9
$DIMRND
 40
0.0
  9
$DIMDLE
 40
0.0
  9
$DIMEXE
 40
0.75
  9
$DIMTP
 40
0.01
  9
$DIMTM
 40
0.01
  9
$DIMTXT
 40
3.0
  9
$DIMCEN
 40
2.673
  9
$DIMTSZ
 40
0.0
  9
$DIMTOL
 70
     1
  9
$DIMLIM
 70
     0
  9
$DIMTIH
 70
     1
  9
$DIMTOH
 70
     1
  9
$DIMSE1
 70
     0
  9
$DIMSE2
 70
     0
  9
$DIMTAD
 70
     0
  9
$DIMZIN
 70
     0
  9
$DIMBLK
  1
CLOSED
  9
$DIMASO
 70
     1
  9
$DIMSHO
 70
     1
  9
$DIMPOST
  1

  9
$DIMAPOST
  1

  9
$DIMALT
 70
     0
  9
$DIMALTD
 70
     2
  9
$DIMALTF
 40
25.4
  9
$DIMLFAC
 40
1.0
  9
$DIMTOFL
 70
     0
  9
$DIMTVP
 40
0.0
  9
$DIMTIX
 70
     0
  9
$DIMSOXD
 70
     0
  9
$DIMSAH
 70
     0
  9
$DIMBLK1
  1

  9
$DIMBLK2
  1

  9
$DIMSTYLE
  2
STANDARD
  9
$DIMCLRD
 70
     0
  9
$DIMCLRE
 70
     0
  9
$DIMCLRT
 70
     0
  9
$DIMTFAC
 40
1.0
  9
$DIMGAP
 40
0.625
  9
$DIMJUST
 70
     0
  9
$DIMSD1
 70
     0
  9
$DIMSD2
 70
     0
  9
$DIMTOLJ
 70
     1
  9
$DIMTZIN
 70
     0
  9
$DIMALTZ
 70
     0
  9
$DIMALTTZ
 70
     0
  9
$DIMUPT
 70
     0
  9
$DIMDEC
 70
     4
  9
$DIMTDEC
 70
     4
  9
$DIMALTU
 70
     2
  9
$DIMALTTD
 70
     2
  9
$DIMTXSTY
  7
STANDARD
  9
$DIMAUNIT
 70
     0
  9
$DIMADEC
 70
     0
  9
$DIMALTRND
 40
0.0
  9
$DIMAZIN
 70
     0
  9
$DIMDSEP
 70
    46
  9
$DIMATFIT
 70
     3
  9
$DIMFRAC
 70
     0
  9
$DIMLDRBLK
  1

  9
$DIMLUNIT
 70
     2
  9
$DIMLWD
 70
    -2
  9
$DIMLWE
 70
    -2
  9
$DIMTMOVE
 70
     2
  9
$DIMFXL
 40
1.0
  9
$DIMFXLON
 70
     0
  9
$DIMJOGANG
 40
0.7853981633974483
  9
$DIMTFILL
 70
     0
  9
$DIMTFILLCLR
 70
     0
  9
$DIMARCSYM
 70
     0
  9
$DIMLTYPE
  6

  9
$DIMLTEX1
  6

  9
$DIMLTEX2
  6

  9
$DIMTXTDIRECTION
 70
     0
  9
$LUNITS
 70
     2
  9
$LUPREC
 70
     4
  9
$SKETCHINC
 40
0.1
  9
$FILLETRAD
 40
0.5
  9
$AUNITS
 70
     0
  9
$AUPREC
 70
     0
  9
$MENU
  1
.
  9
$ELEVATION
 40
0.0
  9
$PELEVATION
 40
0.0
  9
$THICKNESS
 40
0.0
  9
$LIMCHECK
 70
     0
  9
$CHAMFERA
 40
0.0
  9
$CHAMFERB
 40
0.0
  9
$CHAMFERC
 40
0.0
  9
$CHAMFERD
 40
0.0
  9
$SKPOLY
 70
     0
  9
$TDCREATE
 40
2447893.041666667
  9
$TDUCREATE
 40
0.0
  9
$TDUPDATE
 40
2458466.653157558
  9
$TDUUPDATE
 40
2458466.611490891
  9
$TDINDWG
 40
0.0003403588
  9
$TDUSRTIMER
 40
0.0003403588
  9
$USRTIMER
 70
     1
  9
$ANGBASE
 50
0.0
  9
$ANGDIR
 70
     0
  9
$PDMODE
 70
     3
  9
$PDSIZE
 40
0.3125
  9
$PLINEWID
 40
0.0
  9
$SPLFRAME
 70
     0
  9
$SPLINETYPE
 70
     6
  9
$SPLINESEGS
 70
     8
  9
$HANDSEED
  5
3CA
  9
$SURFTAB1
 70
     6
  9
$SURFTAB2
 70
     6
  9
$SURFTYPE
 70
     6
  9
$SURFU
 70
     6
  9
$SURFV
 70
     6
  9
$UCSBASE
  2

  9
$UCSNAME
  2

  9
$UCSORG
 10
0.0
 20
0.0
 30
0.0
  9
$UCSXDIR
 10
1.0
 20
0.0
 30
0.0
  9
$UCSYDIR
 10
0.0
 20
1.0
 30
0.0
  9
$UCSORTHOREF
  2

  9
$UCSORTHOVIEW
 70
     0
  9
$UCSORGTOP
 10
0.0
 20
0.0
 30
0.0
  9
$UCSORGBOTTOM
 10
0.0
 20
0.0
 30
0.0
  9
$UCSORGLEFT
 10
0.0
 20
0.0
 30
0.0
  9
$UCSORGRIGHT
 10
0.0
 20
0.0
 30
0.0
  9
$UCSORGFRONT
 10
0.0
 20
0.0
 30
0.0
  9
$UCSORGBACK
 10
0.0
 20
0.0
 30
0.0
  9
$PUCSBASE
  2

  9
$PUCSNAME
  2

  9
$PUCSORG
 10
0.0
 20
0.0
 30
0.0
  9
$PUCSXDIR
 10
1.0
 20
0.0
 30
0.0
  9
$PUCSYDIR
 10
0.0
 20
1.0
 30
0.0
  9
$PUCSORTHOREF
  2

  9
$PUCSORTHOVIEW
 70
     0
  9
$PUCSORGTOP
 10
0.0
 20
0.0
 30
0.0
  9
$PUCSORGBOTTOM
 10
0.0
 20
0.0
 30
0.0
  9
$PUCSORGLEFT
 10
0.0
 20
0.0
 30
0.0
  9
$PUCSORGRIGHT
 10
0.0
 20
0.0
 30
0.0
  9
$PUCSORGFRONT
 10
0.0
 20
0.0
 30
0.0
  9
$PUCSORGBACK
 10
0.0
 20
0.0
 30
0.0
  9
$USERI1
 70
     0
  9
$USERI2
 70
     0
  9
$USERI3
 70
     0
  9
$USERI4
 70
     0
  9
$USERI5
 70
     0
  9
$USERR1
 40
0.0
  9
$USERR2
 40
0.0
  9
$USERR3
 40
0.0
  9
$USERR4
 40
0.0
  9
$USERR5
 40
0.0
  9
$WORLDVIEW
 70
     1
  9
$SHADEDGE
 70
     3
  9
$SHADEDIF
 70
    70
  9
$TILEMODE
 70
     0
  9
$MAXACTVP
 70
    64
  9
$PINSBASE
 10
0.0
 20
0.0
 30
0.0
  9
$PLIMCHECK
 70
     0
  9
$PEXTMIN
 10
0.0
 20
0.0
 30
0.0
  9
$PEXTMAX
 10
299.7485078822667
 20
210.0
 30
0.0
  9
$PLIMMIN
 10
-6.1284046692607
 20
-16.34241245136187
  9
$PLIMMAX
 10
337.0622568093385
 20
226.3424124513618
  9
$UNITMODE
 70
     0
  9
$VISRETAIN
 70
     1
  9
$PLINEGEN
 70
     0
  9
$PSLTSCALE
 70
     1
  9
$TREEDEPTH
 70
  3020
  9
$CMLSTYLE
  2
STANDARD
  9
$CMLJUST
 70
     0
  9
$CMLSCALE
 40
1.0
  9
$PROXYGRAPHICS
 70
     1
  9
$MEASUREMENT
 70
     1
  9
$CELWEIGHT
370
    -1
  9
$ENDCAPS
280
     0
  9
$JOINSTYLE
280
     0
  9
$LWDISPLAY
290
     0
  9
$INSUNITS
 70
     0
  9
$HYPERLINKBASE
  1

  9
$STYLESHEET
  1

  9
$XEDIT
290
     1
  9
$CEPSNTYPE
380
     0
  9
$PSTYLEMODE
290
     1
  9
$FINGERPRINTGUID
  2
{5A5FE869-80F0-4F28-8CFB-FFE2B9160DBB}
  9
$VERSIONGUID
  2
{FAEB1C32-E019-11D5-929B-00C0DF256EC4}
  9
$EXTNAMES
290
     1
  9
$PSVPSCALE
 40
0.0
  9
$OLESTARTUP
290
     0
  9
$SORTENTS
280
   127
  9
$INDEXCTL
280
     0
  9
$HIDETEXT
280
     1
  9
$XCLIPFRAME
280
     2
  9
$HALOGAP
280
     0
  9
$OBSCOLOR
 70
   257
  9
$OBSLTYPE
280
     0
  9
$INTERSECTIONDISPLAY
280
     0
  9
$INTERSECTIONCOLOR
 70
   257
  9
$DIMASSOC
280
     2
  9
$PROJECTNAME
  1

  9
$CAMERADISPLAY
290
     0
  9
$LENSLENGTH
 40
50.0
  9
$CAMERAHEIGHT
 40
0.0
  9
$STEPSPERSEC
 40
2.0
  9
$STEPSIZE
 40
6.0
  9
$3DDWFPREC
 40
2.0
  9
$PSOLWIDTH
 40
0.25
  9
$PSOLHEIGHT
 40
4.0
  9
$LOFTANG1
 40
1.570796326794897
  9
$LOFTANG2
 40
1.570796326794897
  9
$LOFTMAG1
 40
0.0
  9
$LOFTMAG2
 40
0.0
  9
$LOFTPARAM
 70
     7
  9
$LOFTNORMALS
280
     1
  9
$LATITUDE
 40
37.795
  9
$LONGITUDE
 40
-122.394
  9
$NORTHDIRECTION
 40
0.0
  9
$TIMEZONE
 70
 -8000
  9
$LIGHTGLYPHDISPLAY
280
     1
  9
$TILEMODELIGHTSYNCH
280
     1
  9
$SOLIDHIST
280
     0
  9
$SHOWHIST
280
     1
  9
$DWFFRAME
280
     2
  9
$DGNFRAME
280
     2
  9
$REALWORLDSCALE
290
     1
  9
$INTERFERECOLOR
 62
   256
  9
$CSHADOW
280
     0
  9
$SHADOWPLANELOCATION
 40
0.0
  0
ENDSEC
  0
SECTION
  2
CLASSES
  0
CLASS
  1
ACDBDICTIONARYWDFLT
  2
AcDbDictionaryWithDefault
  3
ObjectDBX Classes
 90
        0
 91
        4
280
     0
281
     0
  0
CLASS
  1
SCALE
  2
AcDbScale
  3
ObjectDBX Classes
 90
     1153
 91
        4
280
     0
281
     0
  0
CLASS
  1
VISUALSTYLE
  2
AcDbVisualStyle
  3
ObjectDBX Classes
 90
     4095
 91
        4
280
     0
281
     0
  0
CLASS
  1
MATERIAL
  2
AcDbMaterial
  3
ObjectDBX Classes
 90
     1153
 91
        4
280
     0
281
     0
  0
CLASS
  1
TABLESTYLE
  2
AcDbTableStyle
  3
ObjectDBX Classes
 90
     4095
 91
        4
280
     0
281
     0
  0
CLASS
  1
MLEADERSTYLE
  2
AcDbMLeaderStyle
  3
ACDB_MLEADERSTYLE_CLASS
 90
     4095
 91
        4
280
     0
281
     0
  0
CLASS
  1
DICTIONARYVAR
  2
AcDbDictionaryVar
  3
ObjectDBX Classes
 90
        0
 91
        4
280
     0
281
     0
  0
CLASS
  1
CELLSTYLEMAP
  2
AcDbCellStyleMap
  3
ObjectDBX Classes
 90
     1152
 91
        4
280
     0
281
     0
  0
ENDSEC
  0
SECTION
  2
TABLES
  0
TABLE
  2
VPORT
  5
8
330
0
100
AcDbSymbolTable
 70
     1
  0
VPORT
  5
1F4
330
8
100
AcDbSymbolTableRecord
100
AcDbViewportTableRecord
  2
*ACTIVE
 70
     0
 10
0.0
 20
0.0
 11
1.0
 21
1.0
 12
148.5
 22
105.0
 13
0.0
 23
0.0
 14
1.0
 24
1.0
 15
0.0
 25
0.0
 16
0.0
 26
0.0
 36
1.0
 17
0.0
 27
0.0
 37
0.0
 40
210.0
 41
1.4142857143
 42
50.0
 43
0.0
 44
0.0
 50
0.0
 51
0.0
 71
     0
 72
   100
 73
     1
 74
     1
 75
     0
 76
     0
 77
     0
 78
     0
281
     0
 65
     1
110
0.0
120
0.0
130
0.0
111
1.0
121
0.0
131
0.0
112
0.0
122
1.0
132
0.0
 79
     0
146
0.0
348
3A3
 60
     3
 61
     5
292
     1
282
     1
141
0.0
142
0.0
 63
   256
  0
ENDTAB
  0
TABLE
  2
LTYPE
  5
5
330
0
100
AcDbSymbolTable
 70
     6
  0
LTYPE
  5
14
330
5
100
AcDbSymbolTableRecord
100
AcDbLinetypeTableRecord
  2
BYBLOCK
 70
     0
  3

 72
    65
 73
     0
 40
0.0
  0
LTYPE
  5
15
330
5
100
AcDbSymbolTableRecord
100
AcDbLinetypeTableRecord
  2
BYLAYER
 70
     0
  3

 72
    65
 73
     0
 40
0.0
  0
LTYPE
  5
16
330
5
100
AcDbSymbolTableRecord
100
AcDbLinetypeTableRecord
  2
CONTINUOUS
 70
     0
  3
Solid line
 72
    65
 73
     0
 40
0.0
  0
LTYPE
  5
1F5
330
5
100
AcDbSymbolTableRecord
100
AcDbLinetypeTableRecord
  2
CENTER
 70
     0
  3
____ _ ____ _ ____ _ ____ _ ____ _ ____ _ ____
 72
    65
 73
     4
 40
0.6
 49
0.375
 74
     0
 49
-0.075
 74
     0
 49
0.075
 74
     0
 49
-0.075
 74
     0
  0
LTYPE
  5
1F6
330
5
100
AcDbSymbolTableRecord
100
AcDbLinetypeTableRecord
  2
HIDDEN
 70
     0
  3
- - - - - - - - - - - - - - - - - - - -
 72
    65
 73
     2
 40
0.2
 49
0.1
 74
     0
 49
-0.1
 74
     0
  0
LTYPE
  5
1F7
330
5
100
AcDbSymbolTableRecord
100
AcDbLinetypeTableRecord
  2
PHANTOM
 70
     0
  3
_____ _ _ _____ _ _ _____ _ _ _____
 72
    65
 73
     6
 40
0.8
 49
0.45
 74
     0
 49
-0.05
 74
     0
 49
0.1
 74
     0
 49
-0.05
 74
     0
 49
0.1
 74
     0
 49
-0.05
 74
     0
  0
LTYPE
  5
1F8
330
5
100
AcDbSymbolTableRecord
100
AcDbLinetypeTableRecord
  2
DOT
 70
     0
  3
. . . . . . . . . . . . . . . . . . . .
 72
    65
 73
     2
 40
0.2
 49
0.1
 74
     0
 49
-0.1
 74
     0
  0
LTYPE
  5
1F9
330
5
100
AcDbSymbolTableRecord
100
AcDbLinetypeTableRecord
  2
DASHED
 70
     0
  3
- - - - - - - - - - - - - - - - - - - -
 72
    65
 73
     2
 40
0.2
 49
0.1
 74
     0
 49
-0.1
 74
     0
  0
ENDTAB
  0
TABLE
  2
LAYER
  5
2
330
0
100
AcDbSymbolTable
 70
    35
  0
LAYER
  5
10
330
2
100
AcDbSymbolTableRecord
100
AcDbLayerTableRecord
  2
0
 70
     0
 62
     7
  6
CONTINUOUS
370
    -3
390
378
347
3BA
348
0
  0
LAYER
  5
1FA
330
2
100
AcDbSymbolTableRecord
100
AcDbLayerTableRecord
  2
DEFAULT_1
 70
     0
 62
     7
  6
CENTER
370
    -3
390
378
347
3BA
348
0
  0
LAYER
  5
1FB
330
2
100
AcDbSymbolTableRecord
100
AcDbLayerTableRecord
  2
DEFAULT_2
 70
     0
 62
     8
  6
HIDDEN
370
    -3
390
378
347
3BA
348
0
  0
LAYER
  5
1FC
330
2
100
AcDbSymbolTableRecord
100
AcDbLayerTableRecord
  2
DEFAULT_3
 70
     0
 62
     7
  6
PHANTOM
370
    -3
390
378
347
3BA
348
0
  0
LAYER
  5
1FD
330
2
100
AcDbSymbolTableRecord
100
AcDbLayerTableRecord
  2
01_ALL_DTM_PLN
 70
     0
 62
     7
  6
CONTINUOUS
370
    -3
390
378
347
3BA
348
0
  0
LAYER
  5
1FE
330
2
100
AcDbSymbolTableRecord
100
AcDbLayerTableRecord
  2
01__ASM_ALL_DTM_PLN
 70
     0
 62
     7
  6
CONTINUOUS
370
    -3
390
378
347
3BA
348
0
  0
LAYER
  5
1FF
330
2
100
AcDbSymbolTableRecord
100
AcDbLayerTableRecord
  2
01__ASM_DEF_DTM_PLN
 70
     0
 62
     7
  6
CONTINUOUS
370
    -3
390
378
347
3BA
348
0
  0
LAYER
  5
200
330
2
100
AcDbSymbolTableRecord
100
AcDbLayerTableRecord
  2
01___PRT_ALL_DTM_PLN
 70
     0
 62
     7
  6
CONTINUOUS
370
    -3
390
378
347
3BA
348
0
  0
LAYER
  5
201
330
2
100
AcDbSymbolTableRecord
100
AcDbLayerTableRecord
  2
01___PRT_DEF_DTM_PLN
 70
     0
 62
     7
  6
CONTINUOUS
370
    -3
390
378
347
3BA
348
0
  0
LAYER
  5
202
330
2
100
AcDbSymbolTableRecord
100
AcDbLayerTableRecord
  2
02_ALL_AXES
 70
     0
 62
     7
  6
CONTINUOUS
370
    -3
390
378
347
3BA
348
0
  0
LAYER
  5
203
330
2
100
AcDbSymbolTableRecord
100
AcDbLayerTableRecord
  2
02__ASM_ALL_AXES
 70
     0
 62
     7
  6
CONTINUOUS
370
    -3
390
378
347
3BA
348
0
  0
LAYER
  5
204
330
2
100
AcDbSymbolTableRecord
100
AcDbLayerTableRecord
  2
02___PRT_ALL_AXES
 70
     0
 62
     7
  6
CONTINUOUS
370
    -3
390
378
347
3BA
348
0
  0
LAYER
  5
205
330
2
100
AcDbSymbolTableRecord
100
AcDbLayerTableRecord
  2
03_ALL_CURVES
 70
     0
 62
     7
  6
CONTINUOUS
370
    -3
390
378
347
3BA
348
0
  0
LAYER
  5
206
330
2
100
AcDbSymbolTableRecord
100
AcDbLayerTableRecord
  2
03__ASM_ALL_CURVES
 70
     0
 62
     7
  6
CONTINUOUS
370
    -3
390
378
347
3BA
348
0
  0
LAYER
  5
207
330
2
100
AcDbSymbolTableRecord
100
AcDbLayerTableRecord
  2
03___PRT_ALL_CURVES
 70
     0
 62
     7
  6
CONTINUOUS
370
    -3
390
378
347
3BA
348
0
  0
LAYER
  5
208
330
2
100
AcDbSymbolTableRecord
100
AcDbLayerTableRecord
  2
04_ALL_DTM_PNT
 70
     0
 62
     7
  6
CONTINUOUS
370
    -3
390
378
347
3BA
348
0
  0
LAYER
  5
209
330
2
100
AcDbSymbolTableRecord
100
AcDbLayerTableRecord
  2
04__ASM_ALL_DTM_PNT
 70
     0
 62
     7
  6
CONTINUOUS
370
    -3
390
378
347
3BA
348
0
  0
LAYER
  5
20A
330
2
100
AcDbSymbolTableRecord
100
AcDbLayerTableRecord
  2
04___PRT_ALL_DTM_PNT
 70
     0
 62
     7
  6
CONTINUOUS
370
    -3
390
378
347
3BA
348
0
  0
LAYER
  5
20B
330
2
100
AcDbSymbolTableRecord
100
AcDbLayerTableRecord
  2
05_ALL_DTM_CSYS
 70
     0
 62
     7
  6
CONTINUOUS
370
    -3
390
378
347
3BA
348
0
  0
LAYER
  5
20C
330
2
100
AcDbSymbolTableRecord
100
AcDbLayerTableRecord
  2
05__ASM_ALL_DTM_CSYS
 70
     0
 62
     7
  6
CONTINUOUS
370
    -3
390
378
347
3BA
348
0
  0
LAYER
  5
20D
330
2
100
AcDbSymbolTableRecord
100
AcDbLayerTableRecord
  2
05__ASM_DEF_DTM_CSYS
 70
     0
 62
     7
  6
CONTINUOUS
370
    -3
390
378
347
3BA
348
0
  0
LAYER
  5
20E
330
2
100
AcDbSymbolTableRecord
100
AcDbLayerTableRecord
  2
05___PRT_ALL_DTM_CSYS
 70
     0
 62
     7
  6
CONTINUOUS
370
    -3
390
378
347
3BA
348
0
  0
LAYER
  5
20F
330
2
100
AcDbSymbolTableRecord
100
AcDbLayerTableRecord
  2
05___PRT_DEF_DTM_CSYS
 70
     0
 62
     7
  6
CONTINUOUS
370
    -3
390
378
347
3BA
348
0
  0
LAYER
  5
210
330
2
100
AcDbSymbolTableRecord
100
AcDbLayerTableRecord
  2
06_ALL_SURFS
 70
     0
 62
     7
  6
CONTINUOUS
370
    -3
390
378
347
3BA
348
0
  0
LAYER
  5
211
330
2
100
AcDbSymbolTableRecord
100
AcDbLayerTableRecord
  2
06__ASM_ALL_SURFS
 70
     0
 62
     7
  6
CONTINUOUS
370
    -3
390
378
347
3BA
348
0
  0
LAYER
  5
212
330
2
100
AcDbSymbolTableRecord
100
AcDbLayerTableRecord
  2
06___PRT_ALL_SURFS
 70
     0
 62
     7
  6
CONTINUOUS
370
    -3
390
378
347
3BA
348
0
  0
LAYER
  5
213
330
2
100
AcDbSymbolTableRecord
100
AcDbLayerTableRecord
  2
07__ASM_ALL_SKELETONS
 70
     0
 62
     7
  6
CONTINUOUS
370
    -3
390
378
347
3BA
348
0
  0
LAYER
  5
214
330
2
100
AcDbSymbolTableRecord
100
AcDbLayerTableRecord
  2
1_ALL_PLANES
 70
     0
 62
     7
  6
CONTINUOUS
370
    -3
390
378
347
3BA
348
0
  0
LAYER
  5
215
330
2
100
AcDbSymbolTableRecord
100
AcDbLayerTableRecord
  2
2_ALL_CSYS
 70
     0
 62
     7
  6
CONTINUOUS
370
    -3
390
378
347
3BA
348
0
  0
LAYER
  5
216
330
2
100
AcDbSymbolTableRecord
100
AcDbLayerTableRecord
  2
3_ALL_AXES
 70
     0
 62
     7
  6
CONTINUOUS
370
    -3
390
378
347
3BA
348
0
  0
LAYER
  5
217
330
2
100
AcDbSymbolTableRecord
100
AcDbLayerTableRecord
  2
4_ALL_POINTS
 70
     0
 62
     7
  6
CONTINUOUS
370
    -3
390
378
347
3BA
348
0
  0
LAYER
  5
218
330
2
100
AcDbSymbolTableRecord
100
AcDbLayerTableRecord
  2
5_ALL_CURVES
 70
     0
 62
     7
  6
CONTINUOUS
370
    -3
390
378
347
3BA
348
0
  0
LAYER
  5
219
330
2
100
AcDbSymbolTableRecord
100
AcDbLayerTableRecord
  2
6_ALL_SURFS
 70
     0
 62
     7
  6
CONTINUOUS
370
    -3
390
378
347
3BA
348
0
  0
LAYER
  5
21A
330
2
100
AcDbSymbolTableRecord
100
AcDbLayerTableRecord
  2
7_ALL_FEATURES
 70
     0
 62
     7
  6
CONTINUOUS
370
    -3
390
378
347
3BA
348
0
  0
LAYER
  5
21B
330
2
100
AcDbSymbolTableRecord
100
AcDbLayerTableRecord
  2
9_SOLID
 70
     0
 62
     7
  6
CONTINUOUS
370
    -3
390
378
347
3BA
348
0
  0
ENDTAB
  0
TABLE
  2
STYLE
  5
3
330
0
100
AcDbSymbolTable
 70
     4
  0
STYLE
  5
11
330
3
100
AcDbSymbolTableRecord
100
AcDbTextStyleTableRecord
  2
STANDARD
 70
     0
 40
0.0
 41
1.0
 50
0.0
 71
     0
 42
0.2
  3
arial.ttf
  4

  0
STYLE
  5
21C
330
3
100
AcDbSymbolTableRecord
100
AcDbTextStyleTableRecord
  2
TEXTSTYLE_1
 70
     0
 40
0.0
 41
0.8
 50
0.0
 71
     0
 42
0.2
  3
gdt
  4

  0
STYLE
  5
21D
330
3
100
AcDbSymbolTableRecord
100
AcDbTextStyleTableRecord
  2
TEXTSTYLE_2
 70
     0
 40
0.0
 41
2.0
 50
0.0
 71
     0
 42
0.2
  3
txt
  4

  0
STYLE
  5
21E
330
3
100
AcDbSymbolTableRecord
100
AcDbTextStyleTableRecord
  2
TEXTSTYLE_3
 70
     0
 40
0.0
 41
0.85
 50
0.0
 71
     0
 42
0.2
  3
txt
  4

  0
ENDTAB
  0
TABLE
  2
VIEW
  5
6
330
0
100
AcDbSymbolTable
 70
     0
  0
ENDTAB
  0
TABLE
  2
UCS
  5
7
330
0
100
AcDbSymbolTable
 70
     0
  0
ENDTAB
  0
TABLE
  2
APPID
  5
9
330
0
100
AcDbSymbolTable
 70
     1
  0
APPID
  5
21F
330
9
100
AcDbSymbolTableRecord
100
AcDbRegAppTableRecord
  2
ACAD
 70
     0
  0
ENDTAB
  0
TABLE
  2
DIMSTYLE
  5
A
330
0
100
AcDbSymbolTable
 70
     3
100
AcDbDimStyleTable
  0
DIMSTYLE
105
226
330
A
100
AcDbSymbolTableRecord
100
AcDbDimStyleTableRecord
  2
STANDARD
 70
     0
 41
2.5
 42
0.75
 44
0.75
 47
0.01
 48
0.01
 71
     1
 73
     0
 74
     0
 77
     1
 78
     8
 79
     2
140
3.0
147
0.625
171
     1
178
     0
179
     2
271
     2
272
     2
284
     8
340
11
341
220
342
220
343
220
344
220
  0
DIMSTYLE
105
227
330
A
100
AcDbSymbolTableRecord
100
AcDbDimStyleTableRecord
  2
DIMSTYLE_1
 70
     0
 41
2.5
 42
0.75
 44
0.75
 47
0.3
 48
0.3
 73
     0
 74
     0
 77
     1
 78
     8
 79
     2
140
3.0
147
0.75
171
     1
178
     0
179
     2
271
     2
272
     2
284
     8
340
11
341
220
342
220
343
220
344
220
  0
DIMSTYLE
105
228
330
A
100
AcDbSymbolTableRecord
100
AcDbDimStyleTableRecord
  2
DIMSTYLE_2
 70
     0
 41
2.5
 42
0.75
 44
0.75
 47
0.2
 48
0.2
 73
     0
 74
     0
 77
     1
 78
     8
 79
     2
140
3.0
147
0.75
171
     1
178
     0
179
     2
271
     2
272
     2
284
     8
340
11
341
220
342
220
343
220
344
220
  0
ENDTAB
  0
TABLE
  2
BLOCK_RECORD
  5
1
330
0
100
AcDbSymbolTable
 70
     6
  0
BLOCK_RECORD
  5
1F
330
1
100
AcDbSymbolTableRecord
100
AcDbBlockTableRecord
  2
*MODEL_SPACE
340
39C
 70
     0
280
     1
281
     0
  0
BLOCK_RECORD
  5
1B
330
1
100
AcDbSymbolTableRecord
100
AcDbBlockTableRecord
  2
*PAPER_SPACE
340
39D
 70
     0
280
     1
281
     0
  0
BLOCK_RECORD
  5
220
330
1
100
AcDbSymbolTableRecord
100
AcDbBlockTableRecord
  2
_CLOSED
340
0
102
{BLKREFS
331
27B
331
27C
331
284
331
285
331
28D
331
28E
102
}
 70
     0
280
     1
281
     0
  0
BLOCK_RECORD
  5
221
330
1
100
AcDbSymbolTableRecord
100
AcDbBlockTableRecord
  2
*D1
340
0
 70
     0
280
     1
281
     0
  0
BLOCK_RECORD
  5
222
330
1
100
AcDbSymbolTableRecord
100
AcDbBlockTableRecord
  2
*D2
340
0
 70
     0
280
     1
281
     0
  0
BLOCK_RECORD
  5
223
330
1
100
AcDbSymbolTableRecord
100
AcDbBlockTableRecord
  2
*D3
340
0
 70
     0
280
     1
281
     0
  0
BLOCK_RECORD
  5
224
330
1
100
AcDbSymbolTableRecord
100
AcDbBlockTableRecord
  2
LOGO2_BL1
340
0
102
{BLKREFS
331
360
102
}
 70
     0
280
     1
281
     0
  0
BLOCK_RECORD
  5
225
330
1
100
AcDbSymbolTableRecord
100
AcDbBlockTableRecord
  2
PROIEZIONE_EU_BL0
340
0
102
{BLKREFS
331
35D
102
}
 70
     0
280
     1
281
     0
  0
ENDTAB
  0
ENDSEC
  0
SECTION
  2
BLOCKS
  0
BLOCK
  5
20
330
1F
100
AcDbEntity
  8
0
100
AcDbBlockBegin
  2
*MODEL_SPACE
 70
     0
 10
0.0
 20
0.0
 30
0.0
  3
*MODEL_SPACE
  1

  0
ENDBLK
  5
21
330
1F
100
AcDbEntity
  8
0
100
AcDbBlockEnd
  0
BLOCK
  5
1C
330
1B
100
AcDbEntity
 67
     1
  8
0
100
AcDbBlockBegin
  2
*PAPER_SPACE
 70
     0
 10
0.0
 20
0.0
 30
0.0
  3
*PAPER_SPACE
  1

  0
ENDBLK
  5
1D
330
1B
100
AcDbEntity
 67
     1
  8
0
100
AcDbBlockEnd
  0
BLOCK
  5
26F
330
220
100
AcDbEntity
  8
0
100
AcDbBlockBegin
  2
_CLOSED
 70
     0
 10
0.0
 20
0.0
 30
0.0
  3
_CLOSED
  1

  0
LINE
  5
270
330
220
100
AcDbEntity
  8
0
  6
ByBlock
 62
     0
100
AcDbLine
 10
0.0
 20
0.0
 30
0.0
 11
-1.0
 21
0.2
 31
0.0
  0
LINE
  5
271
330
220
100
AcDbEntity
  8
0
  6
ByBlock
 62
     0
100
AcDbLine
 10
-1.0
 20
0.2
 30
0.0
 11
-1.0
 21
-0.2
 31
0.0
  0
LINE
  5
272
330
220
100
AcDbEntity
  8
0
  6
ByBlock
 62
     0
100
AcDbLine
 10
-1.0
 20
-0.2
 30
0.0
 11
0.0
 21
0.0
 31
0.0
  0
LINE
  5
273
330
220
100
AcDbEntity
  8
0
  6
ByBlock
 62
     0
100
AcDbLine
 10
-1.0
 20
0.0
 30
0.0
 11
0.0
 21
0.0
 31
0.0
  0
ENDBLK
  5
274
330
220
100
AcDbEntity
  8
0
  6
ByBlock
 62
     0
100
AcDbBlockEnd
  0
BLOCK
  5
275
330
221
100
AcDbEntity
  8
0
100
AcDbBlockBegin
  2
*D1
 70
     1
 10
0.0
 20
0.0
 30
0.0
  3
*D1
  1

  0
MTEXT
  5
276
330
221
100
AcDbEntity
  8
0
  6
Continuous
 62
     2
100
AcDbMText
 10
72.0468069046
 20
90.252738758
 30
0.0
 40
3.0
 41
10.4832713755
 46
0.0
 71
     2
 72
     1
  1
32,99
 73
     1
 44
1.0
  0
LINE
  5
277
330
221
100
AcDbEntity
  8
0
  6
Continuous
 62
     2
100
AcDbLine
 10
55.5506205677
 20
100.3897858182
 30
0.0
 11
55.5506205677
 21
85.752738758
 31
0.0
  0
LINE
  5
278
330
221
100
AcDbEntity
  8
0
  6
Continuous
 62
     2
100
AcDbLine
 10
88.5429932414
 20
100.6719859871
 30
0.0
 11
88.5429932414
 21
85.752738758
 31
0.0
  0
LINE
  5
279
330
221
100
AcDbEntity
  8
0
  6
Continuous
 62
     2
100
AcDbLine
 10
55.5506205677
 20
86.502738758
 30
0.0
 11
72.0468069046
 21
86.502738758
 31
0.0
  0
LINE
  5
27A
330
221
100
AcDbEntity
  8
0
  6
Continuous
 62
     2
100
AcDbLine
 10
88.5429932414
 20
86.502738758
 30
0.0
 11
72.0468069046
 21
86.502738758
 31
0.0
  0
INSERT
  5
27B
330
221
100
AcDbEntity
  8
0
  6
Continuous
 62
     2
100
AcDbBlockReference
  2
_CLOSED
 10
55.5506205677
 20
86.502738758
 30
0.0
 41
2.5
 42
2.5
 43
2.5
 50
180.0
  0
INSERT
  5
27C
330
221
100
AcDbEntity
  8
0
  6
Continuous
 62
     2
100
AcDbBlockReference
  2
_CLOSED
 10
88.5429932414
 20
86.502738758
 30
0.0
 41
2.5
 42
2.5
 43
2.5
  0
ENDBLK
  5
27D
330
221
100
AcDbEntity
  8
0
  6
ByBlock
 62
     0
100
AcDbBlockEnd
  0
BLOCK
  5
27E
330
222
100
AcDbEntity
  8
0
100
AcDbBlockBegin
  2
*D2
 70
     1
 10
0.0
 20
0.0
 30
0.0
  3
*D2
  1

  0
MTEXT
  5
27F
330
222
100
AcDbEntity
  8
0
  6
Continuous
 62
     2
100
AcDbMText
 10
35.8924986238
 20
126.8576509713
 30
0.0
 40
3.0
 41
10.4832713755
 46
0.0
 71
     2
 72
     1
  1
41,07
 11
0.0
 21
1.0
 31
0.0
 73
     1
 44
1.0
  0
LINE
  5
280
330
222
100
AcDbEntity
  8
0
  6
Continuous
 62
     2
100
AcDbLine
 10
49.3346155001
 20
106.3235907168
 30
0.0
 11
38.8924986238
 21
106.3235907168
 31
0.0
  0
LINE
  5
281
330
222
100
AcDbEntity
  8
0
  6
Continuous
 62
     2
100
AcDbLine
 10
51.2074620473
 20
147.3917112257
 30
0.0
 11
38.8924986238
 21
147.3917112257
 31
0.0
  0
LINE
  5
282
330
222
100
AcDbEntity
  8
0
  6
Continuous
 62
     2
100
AcDbLine
 10
39.6424986238
 20
106.3235907168
 30
0.0
 11
39.6424986238
 21
126.8576509713
 31
0.0
  0
LINE
  5
283
330
222
100
AcDbEntity
  8
0
  6
Continuous
 62
     2
100
AcDbLine
 10
39.6424986238
 20
147.3917112257
 30
0.0
 11
39.6424986238
 21
126.8576509713
 31
0.0
  0
INSERT
  5
284
330
222
100
AcDbEntity
  8
0
  6
Continuous
 62
     2
100
AcDbBlockReference
  2
_CLOSED
 10
39.6424986238
 20
106.3235907168
 30
0.0
 41
2.5
 42
2.5
 43
2.5
 50
270.0
  0
INSERT
  5
285
330
222
100
AcDbEntity
  8
0
  6
Continuous
 62
     2
100
AcDbBlockReference
  2
_CLOSED
 10
39.6424986238
 20
147.3917112257
 30
0.0
 41
2.5
 42
2.5
 43
2.5
 50
90.0
  0
ENDBLK
  5
286
330
222
100
AcDbEntity
  8
0
  6
ByBlock
 62
     0
100
AcDbBlockEnd
  0
BLOCK
  5
287
330
223
100
AcDbEntity
  8
0
100
AcDbBlockBegin
  2
*D3
 70
     1
 10
0.0
 20
0.0
 30
0.0
  3
*D3
  1

  0
MTEXT
  5
288
330
223
100
AcDbEntity
  8
0
  6
Continuous
 62
     2
100
AcDbMText
 10
160.8419953547
 20
162.2384383385
 30
0.0
 40
3.0
 41
4.6617100372
 46
0.0
 71
     2
 72
     1
  1
19
 73
     1
 44
1.0
  0
LINE
  5
289
330
223
100
AcDbEntity
  8
0
  6
Continuous
 62
     2
100
AcDbLine
 10
151.3419953547
 20
152.7083797645
 30
0.0
 11
151.3419953547
 21
159.2384383385
 31
0.0
  0
LINE
  5
28A
330
223
100
AcDbEntity
  8
0
  6
Continuous
 62
     2
100
AcDbLine
 10
170.3419953547
 20
152.4261795956
 30
0.0
 11
170.3419953547
 21
159.2384383385
 31
0.0
  0
LINE
  5
28B
330
223
100
AcDbEntity
  8
0
  6
Continuous
 62
     2
100
AcDbLine
 10
151.3419953547
 20
158.4884383385
 30
0.0
 11
160.8419953547
 21
158.4884383385
 31
0.0
  0
LINE
  5
28C
330
223
100
AcDbEntity
  8
0
  6
Continuous
 62
     2
100
AcDbLine
 10
170.3419953547
 20
158.4884383385
 30
0.0
 11
160.8419953547
 21
158.4884383385
 31
0.0
  0
INSERT
  5
28D
330
223
100
AcDbEntity
  8
0
  6
Continuous
 62
     2
100
AcDbBlockReference
  2
_CLOSED
 10
151.3419953547
 20
158.4884383385
 30
0.0
 41
2.5
 42
2.5
 43
2.5
 50
180.0
  0
INSERT
  5
28E
330
223
100
AcDbEntity
  8
0
  6
Continuous
 62
     2
100
AcDbBlockReference
  2
_CLOSED
 10
170.3419953547
 20
158.4884383385
 30
0.0
 41
2.5
 42
2.5
 43
2.5
  0
ENDBLK
  5
28F
330
223
100
AcDbEntity
  8
0
  6
ByBlock
 62
     0
100
AcDbBlockEnd
  0
BLOCK
  5
229
330
224
100
AcDbEntity
  8
0
100
AcDbBlockBegin
  2
LOGO2_BL1
 70
     0
 10
176.0353882604
 20
37.175706075
 30
0.0
  3
LOGO2_BL1
  1

  0
LINE
  5
22A
330
224
100
AcDbEntity
  8
0
  6
Continuous
 62
     7
100
AcDbLine
 10
167.7783134886
 20
40.3711974139
 30
0.0
 11
166.4739725592
 21
40.3711974139
 31
0.0
  0
LINE
  5
22B
330
224
100
AcDbEntity
  8
0
  6
Continuous
 62
     7
100
AcDbLine
 10
166.4739725592
 20
40.3711974139
 30
0.0
 11
166.4739725592
 21
29.912131354
 31
0.0
  0
LINE
  5
22C
330
224
100
AcDbEntity
  8
0
  6
Continuous
 62
     7
100
AcDbLine
 10
166.4739725592
 20
29.912131354
 30
0.0
 11
170.9550274475
 21
29.912131354
 31
0.0
  0
LINE
  5
22D
330
224
100
AcDbEntity
  8
0
  6
Continuous
 62
     7
100
AcDbLine
 10
170.9550274475
 20
29.912131354
 30
0.0
 11
170.9550274475
 21
31.104985679
 31
0.0
  0
LINE
  5
22E
330
224
100
AcDbEntity
  8
0
  6
Continuous
 62
     7
100
AcDbLine
 10
170.9550274475
 20
31.104985679
 30
0.0
 11
167.7783134886
 21
31.104985679
 31
0.0
  0
LINE
  5
22F
330
224
100
AcDbEntity
  8
0
  6
Continuous
 62
     7
100
AcDbLine
 10
167.7783134886
 20
31.104985679
 30
0.0
 11
167.7783134886
 21
40.3711974139
 31
0.0
  0
LINE
  5
230
330
224
100
AcDbEntity
  8
0
  6
Continuous
 62
     7
100
AcDbLine
 10
182.7146397049
 20
40.3711974139
 30
0.0
 11
181.4108221868
 21
40.3711974139
 31
0.0
  0
LINE
  5
231
330
224
100
AcDbEntity
  8
0
  6
Continuous
 62
     7
100
AcDbLine
 10
181.4108221868
 20
40.3711974139
 30
0.0
 11
181.4108221868
 21
29.912131354
 31
0.0
  0
LINE
  5
232
330
224
100
AcDbEntity
  8
0
  6
Continuous
 62
     7
100
AcDbLine
 10
181.4108221868
 20
29.912131354
 30
0.0
 11
185.8920079279
 21
29.912131354
 31
0.0
  0
LINE
  5
233
330
224
100
AcDbEntity
  8
0
  6
Continuous
 62
     7
100
AcDbLine
 10
185.8920079279
 20
29.912131354
 30
0.0
 11
185.8920079279
 21
31.104985679
 31
0.0
  0
LINE
  5
234
330
224
100
AcDbEntity
  8
0
  6
Continuous
 62
     7
100
AcDbLine
 10
185.8920079279
 20
31.104985679
 30
0.0
 11
182.7146397049
 21
31.104985679
 31
0.0
  0
LINE
  5
235
330
224
100
AcDbEntity
  8
0
  6
Continuous
 62
     7
100
AcDbLine
 10
182.7146397049
 20
31.104985679
 30
0.0
 11
182.7146397049
 21
40.3711974139
 31
0.0
  0
LWPOLYLINE
  5
236
330
224
100
AcDbEntity
  8
0
  6
Continuous
 62
     7
100
AcDbPolyline
 90
        2
 70
     0
 43
0.2
 10
164.8283674702
 20
26.5685800471
 10
164.8283674702
 20
24.7115167977
  0
LWPOLYLINE
  5
237
330
224
100
AcDbEntity
  8
0
  6
Continuous
 62
     7
100
AcDbPolyline
 90
        2
 70
     0
 43
0.2
 10
164.8283674702
 20
24.7115167977
 10
165.6240834805
 20
24.7115167977
  0
LWPOLYLINE
  5
238
330
224
100
AcDbEntity
  8
0
  6
Continuous
 62
     7
100
AcDbPolyline
 90
        2
 70
     0
 43
0.2
 10
165.6240834805
 20
24.7115167977
 10
165.6240834805
 20
24.9234983693
  0
LWPOLYLINE
  5
239
330
224
100
AcDbEntity
  8
0
  6
Continuous
 62
     7
100
AcDbPolyline
 90
        2
 70
     0
 43
0.2
 10
165.6240834805
 20
24.9234983693
 10
165.059976965
 20
24.9234983693
  0
LWPOLYLINE
  5
23A
330
224
100
AcDbEntity
  8
0
  6
Continuous
 62
     7
100
AcDbPolyline
 90
        2
 70
     0
 43
0.2
 10
165.059976965
 20
24.9234983693
 10
165.059976965
 20
26.5685800471
  0
LWPOLYLINE
  5
23B
330
224
100
AcDbEntity
  8
0
  6
Continuous
 62
     7
100
AcDbPolyline
 90
        2
 70
     0
 43
0.2
 10
165.059976965
 20
26.5685800471
 10
164.8283674702
 20
26.5685800471
  0
SPLINE
  5
23C
330
224
100
AcDbEntity
  8
0
  6
Continuous
 62
     7
100
AcDbSpline
 70
     3
 71
     3
 72
    35
 73
    31
 74
     0
 42
0.000000001
 43
0.0000001
 40
0.0
 40
0.0
 40
0.0
 40
0.0
 40
1.0
 40
1.0
 40
1.0
 40
2.0
 40
2.0
 40
2.0
 40
3.0
 40
3.0
 40
3.0
 40
4.0
 40
4.0
 40
4.0
 40
5.0
 40
5.0
 40
5.0
 40
6.0
 40
6.0
 40
6.0
 40
7.0
 40
7.0
 40
7.0
 40
8.0
 40
8.0
 40
8.0
 40
9.0
 40
9.0
 40
9.0
 40
10.0
 40
10.0
 40
10.0
 40
10.0
 10
167.0223767361
 20
25.8640684536
 30
0.0
 10
167.0223767361
 20
25.8640684536
 30
0.0
 10
167.0223767361
 20
25.2019531744
 30
0.0
 10
167.0223767361
 20
25.2019531744
 30
0.0
 10
167.0223767361
 20
24.8868595791
 30
0.0
 10
167.1702404249
 20
24.6722609511
 30
0.0
 10
167.5103269092
 20
24.6722609511
 30
0.0
 10
167.8498899822
 20
24.6722609511
 30
0.0
 10
167.9980153767
 20
24.8868595791
 30
0.0
 10
167.9980153767
 20
25.2019531744
 30
0.0
 10
167.9980153767
 20
25.2019531744
 30
0.0
 10
167.9980153767
 20
25.8640684536
 30
0.0
 10
167.9980153767
 20
25.8640684536
 30
0.0
 10
167.9980153767
 20
25.8640684536
 30
0.0
 10
167.7759581378
 20
25.8640684536
 30
0.0
 10
167.7759581378
 20
25.8640684536
 30
0.0
 10
167.7759581378
 20
25.8640684536
 30
0.0
 10
167.7759581378
 20
25.2270769163
 30
0.0
 10
167.7759581378
 20
25.2270769163
 30
0.0
 10
167.7759581378
 20
25.0412659091
 30
0.0
 10
167.7292436804
 20
24.8784849985
 30
0.0
 10
167.5103269092
 20
24.8784849985
 30
0.0
 10
167.2908867268
 20
24.8784849985
 30
0.0
 10
167.2441722693
 20
25.0412659091
 30
0.0
 10
167.2441722693
 20
25.2270769163
 30
0.0
 10
167.2441722693
 20
25.2270769163
 30
0.0
 10
167.2441722693
 20
25.8640684536
 30
0.0
 10
167.2441722693
 20
25.8640684536
 30
0.0
 10
167.2441722693
 20
25.8640684536
 30
0.0
 10
167.0223767361
 20
25.8640684536
 30
0.0
 10
167.0223767361
 20
25.8640684536
 30
0.0
  0
SPLINE
  5
23D
330
224
100
AcDbEntity
  8
0
  6
Continuous
 62
     7
100
AcDbSpline
 70
     3
 71
     3
 72
    35
 73
    31
 74
     0
 42
0.000000001
 43
0.0000001
 40
0.0
 40
0.0
 40
0.0
 40
0.0
 40
1.0
 40
1.0
 40
1.0
 40
2.0
 40
2.0
 40
2.0
 40
3.0
 40
3.0
 40
3.0
 40
4.0
 40
4.0
 40
4.0
 40
5.0
 40
5.0
 40
5.0
 40
6.0
 40
6.0
 40
6.0
 40
7.0
 40
7.0
 40
7.0
 40
8.0
 40
8.0
 40
8.0
 40
9.0
 40
9.0
 40
9.0
 40
10.0
 40
10.0
 40
10.0
 40
10.0
 10
170.4211479339
 20
25.8227189619
 30
0.0
 10
170.3326914262
 20
25.8740132681
 30
0.0
 10
170.2192420296
 20
25.8991370099
 30
0.0
 10
170.1156065946
 20
25.8991370099
 30
0.0
 10
169.7607337414
 20
25.8991370099
 30
0.0
 10
169.4852885512
 20
25.6353377208
 30
0.0
 10
169.4852885512
 20
25.2778478112
 30
0.0
 10
169.4852885512
 20
24.9329197725
 30
0.0
 10
169.7637433563
 20
24.6727843624
 30
0.0
 10
170.1033064293
 20
24.6727843624
 30
0.0
 10
170.2192420296
 20
24.6727843624
 30
0.0
 10
170.3199987025
 20
24.6947676365
 30
0.0
 10
170.4211479339
 20
24.7486789991
 30
0.0
 10
170.4211479339
 20
24.7486789991
 30
0.0
 10
170.4211479339
 20
25.0313210946
 30
0.0
 10
170.4211479339
 20
25.0313210946
 30
0.0
 10
170.337271275
 20
24.9381538854
 30
0.0
 10
170.2337666928
 20
24.8790084098
 30
0.0
 10
170.1056617801
 20
24.8790084098
 30
0.0
 10
169.8719586401
 20
24.8790084098
 30
0.0
 10
169.7066915259
 20
25.0512107235
 30
0.0
 10
169.7066915259
 20
25.2877926257
 30
0.0
 10
169.7066915259
 20
25.4997741972
 30
0.0
 10
169.8744448437
 20
25.6918661399
 30
0.0
 10
170.0912679697
 20
25.6918661399
 30
0.0
 10
170.224083584
 20
25.6918661399
 30
0.0
 10
170.3326914262
 20
25.6379547772
 30
0.0
 10
170.4211479339
 20
25.5369363987
 30
0.0
 10
170.4211479339
 20
25.5369363987
 30
0.0
 10
170.4211479339
 20
25.8227189619
 30
0.0
 10
170.4211479339
 20
25.8227189619
 30
0.0
  0
SPLINE
  5
23E
330
224
100
AcDbEntity
  8
0
  6
Continuous
 62
     7
100
AcDbSpline
 70
     3
 71
     3
 72
    32
 73
    28
 74
     0
 42
0.000000001
 43
0.0000001
 40
0.0
 40
0.0
 40
0.0
 40
0.0
 40
1.0
 40
1.0
 40
1.0
 40
2.0
 40
2.0
 40
2.0
 40
3.0
 40
3.0
 40
3.0
 40
4.0
 40
4.0
 40
4.0
 40
5.0
 40
5.0
 40
5.0
 40
6.0
 40
6.0
 40
6.0
 40
7.0
 40
7.0
 40
7.0
 40
8.0
 40
8.0
 40
8.0
 40
9.0
 40
9.0
 40
9.0
 40
9.0
 10
172.9530191861
 20
25.2511538355
 30
0.0
 10
172.9530191861
 20
25.2511538355
 30
0.0
 10
172.9530191861
 20
25.2851755692
 30
0.0
 10
172.9530191861
 20
25.2851755692
 30
0.0
 10
172.9530191861
 20
25.6274865515
 30
0.0
 10
172.7801626083
 20
25.8991370099
 30
0.0
 10
172.4135130011
 20
25.8991370099
 30
0.0
 10
172.0418909868
 20
25.8991370099
 30
0.0
 10
171.8521543949
 20
25.6327206644
 30
0.0
 10
171.8521543949
 20
25.2778478112
 30
0.0
 10
171.8521543949
 20
24.9381538854
 30
0.0
 10
172.0662296116
 20
24.6722609511
 30
0.0
 10
172.4183545556
 20
24.6722609511
 30
0.0
 10
172.6423745868
 20
24.6722609511
 30
0.0
 10
172.8445421967
 20
24.7879348457
 30
0.0
 10
172.9530191861
 20
24.9873545464
 30
0.0
 10
172.9530191861
 20
24.9873545464
 30
0.0
 10
172.7653762394
 20
25.0941304491
 30
0.0
 10
172.7653762394
 20
25.0941304491
 30
0.0
 10
172.681892139
 20
24.9554264579
 30
0.0
 10
172.5906877221
 20
24.8695870066
 30
0.0
 10
172.4211024648
 20
24.8695870066
 30
0.0
 10
172.2091208932
 20
24.8695870066
 30
0.0
 10
172.0761744261
 20
25.0543511913
 30
0.0
 10
172.0738190753
 20
25.2511538355
 30
0.0
 10
172.0738190753
 20
25.2511538355
 30
0.0
 10
172.9530191861
 20
25.2511538355
 30
0.0
 10
172.9530191861
 20
25.2511538355
 30
0.0
  0
SPLINE
  5
23F
330
224
100
AcDbEntity
  8
0
  6
Continuous
 62
     7
100
AcDbSpline
 70
     3
 71
     3
 72
    14
 73
    10
 74
     0
 42
0.000000001
 43
0.0000001
 40
0.0
 40
0.0
 40
0.0
 40
0.0
 40
1.0
 40
1.0
 40
1.0
 40
2.0
 40
2.0
 40
2.0
 40
3.0
 40
3.0
 40
3.0
 40
3.0
 10
172.0858575349
 20
25.4186454476
 30
0.0
 10
172.1134674804
 20
25.5835200033
 30
0.0
 10
172.2413106874
 20
25.706521656
 30
0.0
 10
172.4135130011
 20
25.706521656
 30
0.0
 10
172.5906877221
 20
25.706521656
 30
0.0
 10
172.7041371187
 20
25.5908477613
 30
0.0
 10
172.7313545057
 20
25.4186454476
 30
0.0
 10
172.7313545057
 20
25.4186454476
 30
0.0
 10
172.0858575349
 20
25.4186454476
 30
0.0
 10
172.0858575349
 20
25.4186454476
 30
0.0
  0
SPLINE
  5
240
330
224
100
AcDbEntity
  8
0
  6
Continuous
 62
     7
100
AcDbSpline
 70
     3
 71
     3
 72
    20
 73
    16
 74
     0
 42
0.000000001
 43
0.0000001
 40
0.0
 40
0.0
 40
0.0
 40
0.0
 40
1.0
 40
1.0
 40
1.0
 40
2.0
 40
2.0
 40
2.0
 40
3.0
 40
3.0
 40
3.0
 40
4.0
 40
4.0
 40
4.0
 40
5.0
 40
5.0
 40
5.0
 40
5.0
 10
174.9770506363
 20
25.6280099628
 30
0.0
 10
174.9770506363
 20
25.6280099628
 30
0.0
 10
175.3881902029
 20
25.1255351264
 30
0.0
 10
175.3881902029
 20
25.1255351264
 30
0.0
 10
175.2721237498
 20
25.0098612318
 30
0.0
 10
175.1343357283
 20
24.8795318211
 30
0.0
 10
174.9623951203
 20
24.8795318211
 30
0.0
 10
174.7849586937
 20
24.8795318211
 30
0.0
 10
174.6174670815
 20
25.0438829655
 30
0.0
 10
174.6174670815
 20
25.2207959808
 30
0.0
 10
174.6174670815
 20
25.3987558187
 30
0.0
 10
174.8272241552
 20
25.5248979391
 30
0.0
 10
174.9548056566
 20
25.6128310354
 30
0.0
 10
174.9548056566
 20
25.6128310354
 30
0.0
 10
174.9770506363
 20
25.6280099628
 30
0.0
 10
174.9770506363
 20
25.6280099628
 30
0.0
  0
SPLINE
  5
241
330
224
100
AcDbEntity
  8
0
  6
Continuous
 62
     7
100
AcDbSpline
 70
     3
 71
     3
 72
    23
 73
    19
 74
     0
 42
0.000000001
 43
0.0000001
 40
0.0
 40
0.0
 40
0.0
 40
0.0
 40
1.0
 40
1.0
 40
1.0
 40
2.0
 40
2.0
 40
2.0
 40
3.0
 40
3.0
 40
3.0
 40
4.0
 40
4.0
 40
4.0
 40
5.0
 40
5.0
 40
5.0
 40
6.0
 40
6.0
 40
6.0
 40
6.0
 10
175.0263821502
 20
25.9190266388
 30
0.0
 10
175.0263821502
 20
25.9190266388
 30
0.0
 10
174.964750471
 20
25.997538332
 30
0.0
 10
174.964750471
 20
25.997538332
 30
0.0
 10
174.9108391084
 20
26.0661052107
 30
0.0
 10
174.8540489837
 20
26.1351955007
 30
0.0
 10
174.8540489837
 20
26.2288861212
 30
0.0
 10
174.8540489837
 20
26.3477004836
 30
0.0
 10
174.9499641022
 20
26.4251653542
 30
0.0
 10
175.0609272952
 20
26.4251653542
 30
0.0
 10
175.1841906535
 20
26.4251653542
 30
0.0
 10
175.2774887156
 20
26.353981419
 30
0.0
 10
175.2774887156
 20
26.2236520084
 30
0.0
 10
175.2774887156
 20
26.0886118961
 30
0.0
 10
175.1493838028
 20
26.0121938481
 30
0.0
 10
175.0558240351
 20
25.9383928565
 30
0.0
 10
175.0558240351
 20
25.9383928565
 30
0.0
 10
175.0263821502
 20
25.9190266388
 30
0.0
 10
175.0263821502
 20
25.9190266388
 30
0.0
  0
SPLINE
  5
242
330
224
100
AcDbEntity
  8
0
  6
Continuous
 62
     7
100
AcDbSpline
 70
     3
 71
     3
 72
    50
 73
    46
 74
     0
 42
0.000000001
 43
0.0000001
 40
0.0
 40
0.0
 40
0.0
 40
0.0
 40
1.0
 40
1.0
 40
1.0
 40
2.0
 40
2.0
 40
2.0
 40
3.0
 40
3.0
 40
3.0
 40
4.0
 40
4.0
 40
4.0
 40
5.0
 40
5.0
 40
5.0
 40
6.0
 40
6.0
 40
6.0
 40
7.0
 40
7.0
 40
7.0
 40
8.0
 40
8.0
 40
8.0
 40
9.0
 40
9.0
 40
9.0
 40
10.0
 40
10.0
 40
10.0
 40
11.0
 40
11.0
 40
11.0
 40
12.0
 40
12.0
 40
12.0
 40
13.0
 40
13.0
 40
13.0
 40
14.0
 40
14.0
 40
14.0
 40
15.0
 40
15.0
 40
15.0
 40
15.0
 10
175.7285383929
 20
24.712040209
 30
0.0
 10
175.7285383929
 20
24.712040209
 30
0.0
 10
176.0139283976
 20
24.712040209
 30
0.0
 10
176.0139283976
 20
24.712040209
 30
0.0
 10
176.0139283976
 20
24.712040209
 30
0.0
 10
175.6815622298
 20
25.12291807
 30
0.0
 10
175.6815622298
 20
25.12291807
 30
0.0
 10
175.6815622298
 20
25.12291807
 30
0.0
 10
175.9080684646
 20
25.3888110042
 30
0.0
 10
175.9080684646
 20
25.3888110042
 30
0.0
 10
175.9080684646
 20
25.3888110042
 30
0.0
 10
175.7598122173
 20
25.5416471003
 30
0.0
 10
175.7598122173
 20
25.5416471003
 30
0.0
 10
175.7598122173
 20
25.5416471003
 30
0.0
 10
175.5439050611
 20
25.2904096821
 30
0.0
 10
175.5439050611
 20
25.2904096821
 30
0.0
 10
175.5439050611
 20
25.2904096821
 30
0.0
 10
175.1568424137
 20
25.7583393735
 30
0.0
 10
175.1568424137
 20
25.7583393735
 30
0.0
 10
175.3122955662
 20
25.8724430342
 30
0.0
 10
175.4945735472
 20
26.0121938481
 30
0.0
 10
175.4945735472
 20
26.2215583632
 30
0.0
 10
175.4945735472
 20
26.4654680234
 30
0.0
 10
175.2925367901
 20
26.6088827162
 30
0.0
 10
175.0660305553
 20
26.6088827162
 30
0.0
 10
174.8218591895
 20
26.6088827162
 30
0.0
 10
174.6374875633
 20
26.4581402653
 30
0.0
 10
174.6374875633
 20
26.2016687343
 30
0.0
 10
174.6374875633
 20
26.0441219366
 30
0.0
 10
174.7361505911
 20
25.9064647679
 30
0.0
 10
174.8414871128
 20
25.7955015749
 30
0.0
 10
174.8414871128
 20
25.7955015749
 30
0.0
 10
174.725944071
 20
25.7117557688
 30
0.0
 10
174.725944071
 20
25.7117557688
 30
0.0
 10
174.5482459387
 20
25.5835200033
 30
0.0
 10
174.4009056612
 20
25.4558076491
 30
0.0
 10
174.4009056612
 20
25.2187023357
 30
0.0
 10
174.4009056612
 20
24.8983746275
 30
0.0
 10
174.6594708374
 20
24.6722609511
 30
0.0
 10
174.9698537311
 20
24.6722609511
 30
0.0
 10
175.1887705023
 20
24.6722609511
 30
0.0
 10
175.385965705
 20
24.7973562489
 30
0.0
 10
175.5262399301
 20
24.9632776272
 30
0.0
 10
175.5262399301
 20
24.9632776272
 30
0.0
 10
175.7285383929
 20
24.712040209
 30
0.0
 10
175.7285383929
 20
24.712040209
 30
0.0
  0
LWPOLYLINE
  5
243
330
224
100
AcDbEntity
  8
0
  6
Continuous
 62
     7
100
AcDbPolyline
 90
        2
 70
     0
 43
0.2
 10
177.6639824826
 20
26.5685800471
 10
177.4326346934
 20
26.5685800471
  0
LWPOLYLINE
  5
244
330
224
100
AcDbEntity
  8
0
  6
Continuous
 62
     7
100
AcDbPolyline
 90
        2
 70
     0
 43
0.2
 10
177.4326346934
 20
26.5685800471
 10
177.4326346934
 20
24.7115167977
  0
LWPOLYLINE
  5
245
330
224
100
AcDbEntity
  8
0
  6
Continuous
 62
     7
100
AcDbPolyline
 90
        2
 70
     0
 43
0.2
 10
177.4326346934
 20
24.7115167977
 10
178.2279581453
 20
24.7115167977
  0
LWPOLYLINE
  5
246
330
224
100
AcDbEntity
  8
0
  6
Continuous
 62
     7
100
AcDbPolyline
 90
        2
 70
     0
 43
0.2
 10
178.2279581453
 20
24.7115167977
 10
178.2279581453
 20
24.9234983693
  0
LWPOLYLINE
  5
247
330
224
100
AcDbEntity
  8
0
  6
Continuous
 62
     7
100
AcDbPolyline
 90
        2
 70
     0
 43
0.2
 10
178.2279581453
 20
24.9234983693
 10
177.6639824826
 20
24.9234983693
  0
LWPOLYLINE
  5
248
330
224
100
AcDbEntity
  8
0
  6
Continuous
 62
     7
100
AcDbPolyline
 90
        2
 70
     0
 43
0.2
 10
177.6639824826
 20
24.9234983693
 10
177.6639824826
 20
26.5685800471
  0
LWPOLYLINE
  5
249
330
224
100
AcDbEntity
  8
0
  6
Continuous
 62
     7
100
AcDbPolyline
 90
        2
 70
     0
 43
0.2
 10
179.9070615568
 20
25.8640684536
 10
179.6859202876
 20
25.8640684536
  0
LWPOLYLINE
  5
24A
330
224
100
AcDbEntity
  8
0
  6
Continuous
 62
     7
100
AcDbPolyline
 90
        2
 70
     0
 43
0.2
 10
179.6859202876
 20
25.8640684536
 10
179.6859202876
 20
24.712040209
  0
LWPOLYLINE
  5
24B
330
224
100
AcDbEntity
  8
0
  6
Continuous
 62
     7
100
AcDbPolyline
 90
        2
 70
     0
 43
0.2
 10
179.6859202876
 20
24.712040209
 10
179.9070615568
 20
24.712040209
  0
LWPOLYLINE
  5
24C
330
224
100
AcDbEntity
  8
0
  6
Continuous
 62
     7
100
AcDbPolyline
 90
        2
 70
     0
 43
0.2
 10
179.9070615568
 20
24.712040209
 10
179.9070615568
 20
25.8640684536
  0
SPLINE
  5
24D
330
224
100
AcDbEntity
  8
0
  6
Continuous
 62
     7
100
AcDbSpline
 70
     3
 71
     3
 72
    17
 73
    13
 74
     0
 42
0.000000001
 43
0.0000001
 40
0.0
 40
0.0
 40
0.0
 40
0.0
 40
1.0
 40
1.0
 40
1.0
 40
2.0
 40
2.0
 40
2.0
 40
3.0
 40
3.0
 40
3.0
 40
4.0
 40
4.0
 40
4.0
 40
4.0
 10
179.796621775
 20
26.546596773
 30
0.0
 10
179.7126142633
 20
26.546596773
 30
0.0
 10
179.6440473846
 20
26.477506483
 30
0.0
 10
179.6440473846
 20
26.3916670318
 30
0.0
 10
179.6440473846
 20
26.3073978144
 30
0.0
 10
179.7126142633
 20
26.2414479922
 30
0.0
 10
179.796621775
 20
26.2414479922
 30
0.0
 10
179.8803675811
 20
26.2414479922
 30
0.0
 10
179.9491961654
 20
26.3073978144
 30
0.0
 10
179.9491961654
 20
26.3916670318
 30
0.0
 10
179.9491961654
 20
26.477506483
 30
0.0
 10
179.8803675811
 20
26.546596773
 30
0.0
 10
179.796621775
 20
26.546596773
 30
0.0
  0
SPLINE
  5
24E
330
224
100
AcDbEntity
  8
0
  6
Continuous
 62
     7
100
AcDbSpline
 70
     3
 71
     3
 72
    17
 73
    13
 74
     0
 42
0.000000001
 43
0.0000001
 40
0.0
 40
0.0
 40
0.0
 40
0.0
 40
1.0
 40
1.0
 40
1.0
 40
2.0
 40
2.0
 40
2.0
 40
3.0
 40
3.0
 40
3.0
 40
4.0
 40
4.0
 40
4.0
 40
4.0
 10
182.0373454984
 20
24.8695870066
 30
0.0
 10
181.8033806527
 20
24.8695870066
 30
0.0
 10
181.673051242
 20
25.0716237638
 30
0.0
 10
181.673051242
 20
25.2877926257
 30
0.0
 10
181.673051242
 20
25.5023912537
 30
0.0
 10
181.8088764712
 20
25.7012875431
 30
0.0
 10
182.0373454984
 20
25.7012875431
 30
0.0
 10
182.2768061626
 20
25.7012875431
 30
0.0
 10
182.4123696862
 20
25.5123360682
 30
0.0
 10
182.4123696862
 20
25.2877926257
 30
0.0
 10
182.4123696862
 20
25.0616789493
 30
0.0
 10
182.2791615134
 20
24.8695870066
 30
0.0
 10
182.0373454984
 20
24.8695870066
 30
0.0
  0
SPLINE
  5
24F
330
224
100
AcDbEntity
  8
0
  6
Continuous
 62
     7
100
AcDbSpline
 70
     3
 71
     3
 72
    50
 73
    46
 74
     0
 42
0.000000001
 43
0.0000001
 40
0.0
 40
0.0
 40
0.0
 40
0.0
 40
1.0
 40
1.0
 40
1.0
 40
2.0
 40
2.0
 40
2.0
 40
3.0
 40
3.0
 40
3.0
 40
4.0
 40
4.0
 40
4.0
 40
5.0
 40
5.0
 40
5.0
 40
6.0
 40
6.0
 40
6.0
 40
7.0
 40
7.0
 40
7.0
 40
8.0
 40
8.0
 40
8.0
 40
9.0
 40
9.0
 40
9.0
 40
10.0
 40
10.0
 40
10.0
 40
11.0
 40
11.0
 40
11.0
 40
12.0
 40
12.0
 40
12.0
 40
13.0
 40
13.0
 40
13.0
 40
14.0
 40
14.0
 40
14.0
 40
15.0
 40
15.0
 40
15.0
 40
15.0
 10
182.6214724957
 20
25.8645918649
 30
0.0
 10
182.6214724957
 20
25.8645918649
 30
0.0
 10
182.3998078152
 20
25.8645918649
 30
0.0
 10
182.3998078152
 20
25.8645918649
 30
0.0
 10
182.3998078152
 20
25.8645918649
 30
0.0
 10
182.3998078152
 20
25.6672658094
 30
0.0
 10
182.3998078152
 20
25.6672658094
 30
0.0
 10
182.3998078152
 20
25.6672658094
 30
0.0
 10
182.3950971137
 20
25.6672658094
 30
0.0
 10
182.3950971137
 20
25.6672658094
 30
0.0
 10
182.3037618439
 20
25.8101570909
 30
0.0
 10
182.1658429696
 20
25.8986135986
 30
0.0
 10
181.9931172446
 20
25.8986135986
 30
0.0
 10
181.6607510768
 20
25.8986135986
 30
0.0
 10
181.4516482673
 20
25.6107373903
 30
0.0
 10
181.4516482673
 20
25.2951203837
 30
0.0
 10
181.4516482673
 20
24.9653712723
 30
0.0
 10
181.6487126171
 20
24.6722609511
 30
0.0
 10
182.0035854703
 20
24.6722609511
 30
0.0
 10
182.1658429696
 20
24.6722609511
 30
0.0
 10
182.3058554891
 20
24.7607174588
 30
0.0
 10
182.3950971137
 20
24.8915702807
 30
0.0
 10
182.3950971137
 20
24.8915702807
 30
0.0
 10
182.3998078152
 20
24.8915702807
 30
0.0
 10
182.3998078152
 20
24.8915702807
 30
0.0
 10
182.3998078152
 20
24.8915702807
 30
0.0
 10
182.3998078152
 20
24.6722609511
 30
0.0
 10
182.3998078152
 20
24.6722609511
 30
0.0
 10
182.3998078152
 20
24.435679049
 30
0.0
 10
182.3432793962
 20
24.2488212192
 30
0.0
 10
182.0700587039
 20
24.2488212192
 30
0.0
 10
181.8677602411
 20
24.2488212192
 30
0.0
 10
181.7251306652
 20
24.3671121703
 30
0.0
 10
181.7251306652
 20
24.5733362177
 30
0.0
 10
181.7251306652
 20
24.5733362177
 30
0.0
 10
181.5034659848
 20
24.5733362177
 30
0.0
 10
181.5034659848
 20
24.5733362177
 30
0.0
 10
181.508438392
 20
24.2488212192
 30
0.0
 10
181.7395244756
 20
24.052018575
 30
0.0
 10
182.0598521838
 20
24.052018575
 30
0.0
 10
182.5078922462
 20
24.052018575
 30
0.0
 10
182.6214724957
 20
24.3372777269
 30
0.0
 10
182.6214724957
 20
24.7340234831
 30
0.0
 10
182.6214724957
 20
24.7340234831
 30
0.0
 10
182.6214724957
 20
25.8645918649
 30
0.0
 10
182.6214724957
 20
25.8645918649
 30
0.0
  0
SPLINE
  5
250
330
224
100
AcDbEntity
  8
0
  6
Continuous
 62
     7
100
AcDbSpline
 70
     3
 71
     3
 72
    44
 73
    40
 74
     0
 42
0.000000001
 43
0.0000001
 40
0.0
 40
0.0
 40
0.0
 40
0.0
 40
1.0
 40
1.0
 40
1.0
 40
2.0
 40
2.0
 40
2.0
 40
3.0
 40
3.0
 40
3.0
 40
4.0
 40
4.0
 40
4.0
 40
5.0
 40
5.0
 40
5.0
 40
6.0
 40
6.0
 40
6.0
 40
7.0
 40
7.0
 40
7.0
 40
8.0
 40
8.0
 40
8.0
 40
9.0
 40
9.0
 40
9.0
 40
10.0
 40
10.0
 40
10.0
 40
11.0
 40
11.0
 40
11.0
 40
12.0
 40
12.0
 40
12.0
 40
13.0
 40
13.0
 40
13.0
 40
13.0
 10
184.190397831
 20
26.8496519087
 30
0.0
 10
184.190397831
 20
26.8496519087
 30
0.0
 10
184.190397831
 20
24.7115167977
 30
0.0
 10
184.190397831
 20
24.7115167977
 30
0.0
 10
184.190397831
 20
24.7115167977
 30
0.0
 10
184.4118008058
 20
24.7115167977
 30
0.0
 10
184.4118008058
 20
24.7115167977
 30
0.0
 10
184.4118008058
 20
24.7115167977
 30
0.0
 10
184.4118008058
 20
25.241209021
 30
0.0
 10
184.4118008058
 20
25.241209021
 30
0.0
 10
184.4118008058
 20
25.4510969475
 30
0.0
 10
184.4118008058
 20
25.7018109544
 30
0.0
 10
184.6970599577
 20
25.7018109544
 30
0.0
 10
184.923958751
 20
25.7018109544
 30
0.0
 10
184.9509144323
 20
25.5688644872
 30
0.0
 10
184.9509144323
 20
25.3725852543
 30
0.0
 10
184.9509144323
 20
25.3725852543
 30
0.0
 10
184.9509144323
 20
24.7115167977
 30
0.0
 10
184.9509144323
 20
24.7115167977
 30
0.0
 10
184.9509144323
 20
24.7115167977
 30
0.0
 10
185.1728408184
 20
24.7115167977
 30
0.0
 10
185.1728408184
 20
24.7115167977
 30
0.0
 10
185.1728408184
 20
24.7115167977
 30
0.0
 10
185.1728408184
 20
25.3987558187
 30
0.0
 10
185.1728408184
 20
25.3987558187
 30
0.0
 10
185.1728408184
 20
25.679304269
 30
0.0
 10
185.0888333067
 20
25.8991370099
 30
0.0
 10
184.7637948969
 20
25.8991370099
 30
0.0
 10
184.624044083
 20
25.8991370099
 30
0.0
 10
184.485863503
 20
25.8326637763
 30
0.0
 10
184.4165115074
 20
25.7096621237
 30
0.0
 10
184.4165115074
 20
25.7096621237
 30
0.0
 10
184.4118008058
 20
25.7096621237
 30
0.0
 10
184.4118008058
 20
25.7096621237
 30
0.0
 10
184.4118008058
 20
25.7096621237
 30
0.0
 10
184.4118008058
 20
26.8496519087
 30
0.0
 10
184.4118008058
 20
26.8496519087
 30
0.0
 10
184.4118008058
 20
26.8496519087
 30
0.0
 10
184.190397831
 20
26.8496519087
 30
0.0
 10
184.190397831
 20
26.8496519087
 30
0.0
  0
LWPOLYLINE
  5
251
330
224
100
AcDbEntity
  8
0
  6
Continuous
 62
     7
100
AcDbPolyline
 90
        2
 70
     0
 43
0.2
 10
187.0126314952
 20
25.6573209949
 10
187.2290620628
 20
25.6573209949
  0
LWPOLYLINE
  5
252
330
224
100
AcDbEntity
  8
0
  6
Continuous
 62
     7
100
AcDbPolyline
 90
        2
 70
     0
 43
0.2
 10
187.2290620628
 20
25.6573209949
 10
187.2290620628
 20
25.8640684536
  0
LWPOLYLINE
  5
253
330
224
100
AcDbEntity
  8
0
  6
Continuous
 62
     7
100
AcDbPolyline
 90
        2
 70
     0
 43
0.2
 10
187.2290620628
 20
25.8640684536
 10
187.0126314952
 20
25.8640684536
  0
LWPOLYLINE
  5
254
330
224
100
AcDbEntity
  8
0
  6
Continuous
 62
     7
100
AcDbPolyline
 90
        2
 70
     0
 43
0.2
 10
187.0126314952
 20
25.8640684536
 10
187.0126314952
 20
26.304780758
  0
LWPOLYLINE
  5
255
330
224
100
AcDbEntity
  8
0
  6
Continuous
 62
     7
100
AcDbPolyline
 90
        2
 70
     0
 43
0.2
 10
187.0126314952
 20
26.304780758
 10
186.7909668148
 20
26.304780758
  0
LWPOLYLINE
  5
256
330
224
100
AcDbEntity
  8
0
  6
Continuous
 62
     7
100
AcDbPolyline
 90
        2
 70
     0
 43
0.2
 10
186.7909668148
 20
26.304780758
 10
186.7909668148
 20
25.8640684536
  0
LWPOLYLINE
  5
257
330
224
100
AcDbEntity
  8
0
  6
Continuous
 62
     7
100
AcDbPolyline
 90
        2
 70
     0
 43
0.2
 10
186.7909668148
 20
25.8640684536
 10
186.670320513
 20
25.8640684536
  0
LWPOLYLINE
  5
258
330
224
100
AcDbEntity
  8
0
  6
Continuous
 62
     7
100
AcDbPolyline
 90
        2
 70
     0
 43
0.2
 10
186.670320513
 20
25.8640684536
 10
186.670320513
 20
25.6573209949
  0
LWPOLYLINE
  5
259
330
224
100
AcDbEntity
  8
0
  6
Continuous
 62
     7
100
AcDbPolyline
 90
        2
 70
     0
 43
0.2
 10
186.670320513
 20
25.6573209949
 10
186.7909668148
 20
25.6573209949
  0
LWPOLYLINE
  5
25A
330
224
100
AcDbEntity
  8
0
  6
Continuous
 62
     7
100
AcDbPolyline
 90
        2
 70
     0
 43
0.2
 10
186.7909668148
 20
25.6573209949
 10
186.7909668148
 20
24.7115167977
  0
LWPOLYLINE
  5
25B
330
224
100
AcDbEntity
  8
0
  6
Continuous
 62
     7
100
AcDbPolyline
 90
        2
 70
     0
 43
0.2
 10
186.7909668148
 20
24.7115167977
 10
187.0126314952
 20
24.7115167977
  0
LWPOLYLINE
  5
25C
330
224
100
AcDbEntity
  8
0
  6
Continuous
 62
     7
100
AcDbPolyline
 90
        2
 70
     0
 43
0.2
 10
187.0126314952
 20
24.7115167977
 10
187.0126314952
 20
25.6573209949
  0
SPLINE
  5
25D
330
224
100
AcDbEntity
  8
0
  6
Continuous
 62
     7
100
AcDbSpline
 70
     3
 71
     3
 72
    20
 73
    16
 74
     0
 42
0.000000001
 43
0.0000001
 40
0.0
 40
0.0
 40
0.0
 40
0.0
 40
1.0
 40
1.0
 40
1.0
 40
2.0
 40
2.0
 40
2.0
 40
3.0
 40
3.0
 40
3.0
 40
4.0
 40
4.0
 40
4.0
 40
5.0
 40
5.0
 40
5.0
 40
5.0
 10
174.7946418025
 20
35.0724432411
 30
0.0
 10
174.7946418025
 20
35.0724432411
 30
0.0
 10
177.110998457
 20
32.2428818189
 30
0.0
 10
177.110998457
 20
32.2428818189
 30
0.0
 10
176.4593514036
 20
31.5907113542
 30
0.0
 10
175.6824781995
 20
30.8547950834
 30
0.0
 10
174.7112885549
 20
30.8547950834
 30
0.0
 10
173.7127506705
 20
30.8547950834
 30
0.0
 10
172.7694326769
 20
31.7843735307
 30
0.0
 10
172.7694326769
 20
32.7835656792
 30
0.0
 10
172.7694326769
 20
33.7827578278
 30
0.0
 10
173.94828575
 20
34.4893630664
 30
0.0
 10
174.6698082103
 20
34.9892208463
 30
0.0
 10
174.6698082103
 20
34.9892208463
 30
0.0
 10
174.7946418025
 20
35.0724432411
 30
0.0
 10
174.7946418025
 20
35.0724432411
 30
0.0
  0
SPLINE
  5
25E
330
224
100
AcDbEntity
  8
0
  6
Continuous
 62
     7
100
AcDbSpline
 70
     3
 71
     3
 72
    23
 73
    19
 74
     0
 42
0.000000001
 43
0.0000001
 40
0.0
 40
0.0
 40
0.0
 40
0.0
 40
1.0
 40
1.0
 40
1.0
 40
2.0
 40
2.0
 40
2.0
 40
3.0
 40
3.0
 40
3.0
 40
4.0
 40
4.0
 40
4.0
 40
5.0
 40
5.0
 40
5.0
 40
6.0
 40
6.0
 40
6.0
 40
6.0
 10
175.0720497851
 20
36.7101971608
 30
0.0
 10
175.0720497851
 20
36.7101971608
 30
0.0
 10
174.7255515125
 20
37.1535265217
 30
0.0
 10
174.7255515125
 20
37.1535265217
 30
0.0
 10
174.4197484676
 20
37.5416359916
 30
0.0
 10
174.1008601404
 20
37.93013802
 30
0.0
 10
174.1008601404
 20
38.4570823341
 30
0.0
 10
174.1008601404
 20
39.1232540507
 30
0.0
 10
174.6421982649
 20
39.56697597
 30
0.0
 10
175.26610452
 20
39.56697597
 30
0.0
 10
175.9598861821
 20
39.56697597
 30
0.0
 10
176.4870922018
 20
39.1647343953
 30
0.0
 10
176.4870922018
 20
38.4297340943
 30
0.0
 10
176.4870922018
 20
37.6664695838
 30
0.0
 10
175.7658314471
 20
37.236356358
 30
0.0
 10
175.2387562802
 20
36.8206369426
 30
0.0
 10
175.2387562802
 20
36.8206369426
 30
0.0
 10
175.0720497851
 20
36.7101971608
 30
0.0
 10
175.0720497851
 20
36.7101971608
 30
0.0
  0
SPLINE
  5
25F
330
224
100
AcDbEntity
  8
0
  6
Continuous
 62
     7
100
AcDbSpline
 70
     3
 71
     3
 72
    50
 73
    46
 74
     0
 42
0.000000001
 43
0.0000001
 40
0.0
 40
0.0
 40
0.0
 40
0.0
 40
1.0
 40
1.0
 40
1.0
 40
2.0
 40
2.0
 40
2.0
 40
3.0
 40
3.0
 40
3.0
 40
4.0
 40
4.0
 40
4.0
 40
5.0
 40
5.0
 40
5.0
 40
6.0
 40
6.0
 40
6.0
 40
7.0
 40
7.0
 40
7.0
 40
8.0
 40
8.0
 40
8.0
 40
9.0
 40
9.0
 40
9.0
 40
10.0
 40
10.0
 40
10.0
 40
11.0
 40
11.0
 40
11.0
 40
12.0
 40
12.0
 40
12.0
 40
13.0
 40
13.0
 40
13.0
 40
14.0
 40
14.0
 40
14.0
 40
15.0
 40
15.0
 40
15.0
 40
15.0
 10
179.025636948
 20
29.9116079427
 30
0.0
 10
179.025636948
 20
29.9116079427
 30
0.0
 10
180.6348649525
 20
29.9116079427
 30
0.0
 10
180.6348649525
 20
29.9116079427
 30
0.0
 10
180.6348649525
 20
29.9116079427
 30
0.0
 10
178.7618376589
 20
32.2287497141
 30
0.0
 10
178.7618376589
 20
32.2287497141
 30
0.0
 10
178.7618376589
 20
32.2287497141
 30
0.0
 10
180.0381760844
 20
33.7262294087
 30
0.0
 10
180.0381760844
 20
33.7262294087
 30
0.0
 10
180.0381760844
 20
33.7262294087
 30
0.0
 10
179.2059521367
 20
34.5872409772
 30
0.0
 10
179.2059521367
 20
34.5872409772
 30
0.0
 10
179.2059521367
 20
34.5872409772
 30
0.0
 10
177.9853570133
 20
33.1719368548
 30
0.0
 10
177.9853570133
 20
33.1719368548
 30
0.0
 10
177.9853570133
 20
33.1719368548
 30
0.0
 10
175.8074426445
 20
35.8073126893
 30
0.0
 10
175.8074426445
 20
35.8073126893
 30
0.0
 10
176.681016084
 20
36.4453510492
 30
0.0
 10
177.7076873251
 20
37.236356358
 30
0.0
 10
177.7076873251
 20
38.4152094311
 30
0.0
 10
177.7076873251
 20
39.7889023561
 30
0.0
 10
176.5697911853
 20
40.5933855056
 30
0.0
 10
175.2944995824
 20
40.5933855056
 30
0.0
 10
173.921068363
 20
40.5933855056
 30
0.0
 10
172.8801341643
 20
39.7471603059
 30
0.0
 10
172.8801341643
 20
38.3045079437
 30
0.0
 10
172.8801341643
 20
37.4169332523
 30
0.0
 10
173.4354735407
 20
36.6400600483
 30
0.0
 10
174.0316389976
 20
36.0156303818
 30
0.0
 10
174.0316389976
 20
36.0156303818
 30
0.0
 10
173.3797302386
 20
35.5440368115
 30
0.0
 10
173.3797302386
 20
35.5440368115
 30
0.0
 10
172.3811923541
 20
34.8227760568
 30
0.0
 10
171.5483141423
 20
34.1015153021
 30
0.0
 10
171.5483141423
 20
32.7699569858
 30
0.0
 10
171.5483141423
 20
30.9662816878
 30
0.0
 10
173.0053603149
 20
29.6896815566
 30
0.0
 10
174.7528997523
 20
29.6896815566
 30
0.0
 10
175.9877578332
 20
29.6896815566
 30
0.0
 10
177.0971280578
 20
30.3978570291
 30
0.0
 10
177.8880025138
 20
31.3263886538
 30
0.0
 10
177.8880025138
 20
31.3263886538
 30
0.0
 10
179.025636948
 20
29.9116079427
 30
0.0
 10
179.025636948
 20
29.9116079427
 30
0.0
  0
LINE
  5
260
330
224
100
AcDbEntity
  8
0
  6
Continuous
 62
     7
100
AcDbLine
 10
164.828498323
 20
27.8854828474
 30
0.0
 11
187.2424090506
 21
27.8854828474
 31
0.0
  0
LINE
  5
261
330
224
100
AcDbEntity
  8
0
  6
Continuous
 62
     7
100
AcDbLine
 10
187.2424090506
 20
27.8854828474
 30
0.0
 11
187.2424090506
 21
50.299393575
 31
0.0
  0
LINE
  5
262
330
224
100
AcDbEntity
  8
0
  6
Continuous
 62
     7
100
AcDbLine
 10
187.2424090506
 20
50.299393575
 30
0.0
 11
164.828498323
 21
50.299393575
 31
0.0
  0
LINE
  5
263
330
224
100
AcDbEntity
  8
0
  6
Continuous
 62
     7
100
AcDbLine
 10
164.828498323
 20
50.299393575
 30
0.0
 11
164.828498323
 21
27.8854828474
 31
0.0
  0
ENDBLK
  5
264
330
224
100
AcDbEntity
  8
0
  6
ByBlock
 62
     0
100
AcDbBlockEnd
  0
BLOCK
  5
265
330
225
100
AcDbEntity
  8
0
100
AcDbBlockBegin
  2
PROIEZIONE_EU_BL0
 70
     0
 10
177.2093412156
 20
62.800706075
 30
0.0
  3
PROIEZIONE_EU_BL0
  1

  0
LWPOLYLINE
  5
266
330
225
100
AcDbEntity
  8
DEFAULT_1
  6
CENTER
 62
     7
100
AcDbPolyline
 90
        2
 70
     0
 43
0.25
 10
183.3359618773
 20
67.8004002069
 10
183.3360028596
 20
57.8010119431
  0
LWPOLYLINE
  5
267
330
225
100
AcDbEntity
  8
DEFAULT_1
  6
CENTER
 62
     7
100
AcDbPolyline
 90
        2
 70
     0
 43
0.25
 10
189.3359917023
 20
62.8009772101
 10
165.0826907289
 20
62.8007065497
  0
LWPOLYLINE
  5
268
330
225
100
AcDbEntity
  8
0
  6
Continuous
 62
     7
100
AcDbPolyline
 90
        2
 70
     1
 43
0.25
 10
179.7888517015
 20
62.7821583208
 42
1.0
 10
186.8951808001
 20
62.7821583208
 42
1.0
  0
LWPOLYLINE
  5
269
330
225
100
AcDbEntity
  8
0
  6
Continuous
 62
     7
100
AcDbPolyline
 90
        2
 70
     1
 43
0.25
 10
181.3385955299
 20
62.8000563654
 42
1.0
 10
185.3503472799
 20
62.8000563654
 42
1.0
  0
LWPOLYLINE
  5
26A
330
225
100
AcDbEntity
  8
0
  6
Continuous
 62
     7
100
AcDbPolyline
 90
        2
 70
     0
 43
0.25
 10
177.3359894963
 20
66.3759095702
 10
177.3359891417
 20
59.2757066619
  0
LWPOLYLINE
  5
26B
330
225
100
AcDbEntity
  8
0
  6
Continuous
 62
     7
100
AcDbPolyline
 90
        2
 70
     0
 43
0.25
 10
177.3360175781
 20
59.2756782255
 10
167.341460307
 20
60.7957716384
  0
LWPOLYLINE
  5
26C
330
225
100
AcDbEntity
  8
0
  6
Continuous
 62
     7
100
AcDbPolyline
 90
        2
 70
     0
 43
0.25
 10
167.3391503214
 20
60.7950940968
 10
167.3364834173
 20
64.8007327083
  0
LWPOLYLINE
  5
26D
330
225
100
AcDbEntity
  8
0
  6
Continuous
 62
     7
100
AcDbPolyline
 90
        2
 70
     0
 43
0.25
 10
167.3364751412
 20
64.8007244322
 10
177.3362183785
 20
66.3758816523
  0
ENDBLK
  5
26E
330
225
100
AcDbEntity
  8
0
  6
ByBlock
 62
     0
100
AcDbBlockEnd
  0
ENDSEC
  0
SECTION
  2
ENTITIES
  0
LINE
  5
290
330
1B
100
AcDbEntity
 67
     1
  8
0
  6
Continuous
 62
     7
100
AcDbLine
 10
0.0
 20
0.0
 30
0.0
 11
297.0
 21
0.0
 31
0.0
  0
LINE
  5
291
330
1B
100
AcDbEntity
 67
     1
  8
0
  6
Continuous
 62
     7
100
AcDbLine
 10
297.0
 20
0.0
 30
0.0
 11
297.0
 21
210.0
 31
0.0
  0
LINE
  5
292
330
1B
100
AcDbEntity
 67
     1
  8
0
  6
Continuous
 62
     7
100
AcDbLine
 10
0.0
 20
210.0
 30
0.0
 11
297.0
 21
210.0
 31
0.0
  0
LINE
  5
293
330
1B
100
AcDbEntity
 67
     1
  8
0
  6
Continuous
 62
     7
100
AcDbLine
 10
0.0
 20
0.0
 30
0.0
 11
0.0
 21
210.0
 31
0.0
  0
VIEWPORT
  5
294
330
1B
100
AcDbEntity
 67
     1
  8
0
100
AcDbViewport
 10
0.0
 20
0.0
 30
0.0
 40
350.0544747081711
 41
247.5385214007782
 68
     1
 69
     1
 12
165.4669260700389
 22
105.0
 13
0.0
 23
0.0
 14
1.0
 24
1.0
 15
0.0
 25
0.0
 16
0.0
 26
0.0
 36
1.0
 17
0.0
 27
0.0
 37
0.0
 42
50.0
 43
0.0
 44
0.0
 45
247.5385214007782
 50
0.0
 51
0.0
 72
   100
 90
   557216
  1

281
     0
 71
     1
 74
     0
110
0.0
120
0.0
130
0.0
111
1.0
121
0.0
131
0.0
112
0.0
122
1.0
132
0.0
 79
     0
146
0.0
170
     0
 61
     5
348
3A3
292
     1
282
     1
141
0.0
142
0.0
 63
   256
  0
LINE
  5
295
330
1B
100
AcDbEntity
 67
     1
  8
7_ALL_FEATURES
  6
Continuous
 62
     7
100
AcDbLine
 10
78.9709768207
 20
119.7696406704
 30
0.0
 11
79.8835776509
 21
126.5336232945
 31
0.0
  0
LINE
  5
296
330
1B
100
AcDbEntity
 67
     1
  8
02___PRT_ALL_AXES
  6
Continuous
 62
     7
100
AcDbLine
 10
84.3202449134
 20
125.0141215276
 30
0.0
 11
84.2333339781
 21
124.369958125
 31
0.0
  0
LINE
  5
297
330
1B
100
AcDbEntity
 67
     1
  8
02___PRT_ALL_AXES
  6
Continuous
 62
     7
100
AcDbLine
 10
84.2333339781
 20
124.369958125
 30
0.0
 11
83.7409327631
 21
120.7203961786
 31
0.0
  0
LINE
  5
298
330
1B
100
AcDbEntity
 67
     1
  8
02___PRT_ALL_AXES
  6
Continuous
 62
     7
100
AcDbLine
 10
83.7409327631
 20
120.7203961786
 30
0.0
 11
83.7386101927
 21
120.7031818329
 31
0.0
  0
LINE
  5
299
330
1B
100
AcDbEntity
 67
     1
  8
02___PRT_ALL_AXES
  6
Continuous
 62
     7
100
AcDbLine
 10
83.7386101927
 20
120.7031818329
 30
0.0
 11
83.6516992574
 21
120.0590184303
 31
0.0
  0
ARC
  5
29A
330
1B
100
AcDbEntity
 67
     1
  8
7_ALL_FEATURES
  6
Continuous
 62
     7
100
AcDbCircle
 10
79.2682830065
 20
119.7295279311
 30
0.0
 40
0.3
100
AcDbArc
 50
172.3160181703
 51
257.3160181703
  0
ARC
  5
29B
330
1B
100
AcDbEntity
 67
     1
  8
7_ALL_FEATURES
  6
Continuous
 62
     7
100
AcDbCircle
 10
80.1808838367
 20
126.4935105552
 30
0.0
 40
0.3
100
AcDbArc
 50
87.31601817030001
 51
172.3160181703
  0
LINE
  5
29C
330
1B
100
AcDbEntity
 67
     1
  8
02___PRT_ALL_AXES
  6
Continuous
 62
     7
100
AcDbLine
 10
83.7386101927
 20
120.7031818329
 30
0.0
 11
83.6395081307
 21
120.716552746
 31
0.0
  0
LINE
  5
29D
330
1B
100
AcDbEntity
 67
     1
  8
02___PRT_ALL_AXES
  6
Continuous
 62
     7
100
AcDbLine
 10
84.2333339781
 20
124.369958125
 30
0.0
 11
84.1342319162
 21
124.3833290381
 31
0.0
  0
LINE
  5
29E
330
1B
100
AcDbEntity
 67
     1
  8
02___PRT_ALL_AXES
  6
Continuous
 62
     7
100
AcDbLine
 10
85.9950790135
 20
120.9299784285
 30
0.0
 11
83.6516992574
 21
120.0590184303
 31
0.0
  0
LINE
  5
29F
330
1B
100
AcDbEntity
 67
     1
  8
7_ALL_FEATURES
  6
Continuous
 62
     7
100
AcDbLine
 10
81.872188026
 20
118.8359731419
 30
0.0
 11
79.2024109668
 21
119.4368491406
 31
0.0
  0
LINE
  5
2A0
330
1B
100
AcDbEntity
 67
     1
  8
02___PRT_ALL_AXES
  6
Continuous
 62
     7
100
AcDbLine
 10
86.3490149491
 20
123.5532683036
 30
0.0
 11
84.3202449134
 21
125.0141215276
 31
0.0
  0
LINE
  5
2A1
330
1B
100
AcDbEntity
 67
     1
  8
7_ALL_FEATURES
  6
Continuous
 62
     7
100
AcDbLine
 10
82.9284901625
 20
126.6650360358
 30
0.0
 11
80.1949319936
 21
126.7931814568
 31
0.0
  0
ARC
  5
2A2
330
1B
100
AcDbEntity
 67
     1
  8
02___PRT_ALL_AXES
  6
Continuous
 62
     7
100
AcDbCircle
 10
85.4725030146
 20
122.3360062822
 30
0.0
 40
1.5
100
AcDbArc
 50
352.3160181703
 51
54.2435312344
  0
ARC
  5
2A3
330
1B
100
AcDbEntity
 67
     1
  8
02___PRT_ALL_AXES
  6
Continuous
 62
     7
100
AcDbCircle
 10
85.4725030146
 20
122.3360062822
 30
0.0
 40
1.5
100
AcDbArc
 50
290.3885051061
 51
352.3160181703
  0
LINE
  5
2A4
330
1B
100
AcDbEntity
 67
     1
  8
02___PRT_ALL_AXES
  6
Continuous
 62
     9
100
AcDbLine
 10
86.3490149491
 20
123.5532683036
 30
0.0
 11
85.9950790135
 21
120.9299784285
 31
0.0
  0
LINE
  5
2A5
330
1B
100
AcDbEntity
 67
     1
  8
7_ALL_FEATURES
  6
Continuous
 62
     9
100
AcDbLine
 10
79.2024109668
 20
119.4368491406
 30
0.0
 11
80.1949319936
 21
126.7931814568
 31
0.0
  0
LINE
  5
2A6
330
1B
100
AcDbEntity
 67
     1
  8
7_ALL_FEATURES
  6
Continuous
 62
     7
100
AcDbLine
 10
64.2100361582
 20
126.5336232945
 30
0.0
 11
65.1226369885
 21
119.7696406704
 31
0.0
  0
LINE
  5
2A7
330
1B
100
AcDbEntity
 67
     1
  8
02___PRT_ALL_AXES
  6
Continuous
 62
     7
100
AcDbLine
 10
60.4419145517
 20
120.0590184303
 30
0.0
 11
60.3550036165
 21
120.7031818329
 31
0.0
  0
LINE
  5
2A8
330
1B
100
AcDbEntity
 67
     1
  8
02___PRT_ALL_AXES
  6
Continuous
 62
     7
100
AcDbLine
 10
60.3550036165
 20
120.7031818329
 30
0.0
 11
60.352681046
 21
120.7203961786
 31
0.0
  0
LINE
  5
2A9
330
1B
100
AcDbEntity
 67
     1
  8
02___PRT_ALL_AXES
  6
Continuous
 62
     7
100
AcDbLine
 10
60.352681046
 20
120.7203961786
 30
0.0
 11
59.8626024015
 21
124.3527437793
 31
0.0
  0
LINE
  5
2AA
330
1B
100
AcDbEntity
 67
     1
  8
02___PRT_ALL_AXES
  6
Continuous
 62
     7
100
AcDbLine
 10
59.8626024015
 20
124.3527437793
 30
0.0
 11
59.860279831
 21
124.369958125
 31
0.0
  0
LINE
  5
2AB
330
1B
100
AcDbEntity
 67
     1
  8
02___PRT_ALL_AXES
  6
Continuous
 62
     7
100
AcDbLine
 10
59.860279831
 20
124.369958125
 30
0.0
 11
59.7733688957
 21
125.0141215276
 31
0.0
  0
ARC
  5
2AC
330
1B
100
AcDbEntity
 67
     1
  8
7_ALL_FEATURES
  6
Continuous
 62
     7
100
AcDbCircle
 10
63.9127299724
 20
126.4935105552
 30
0.0
 40
0.3
100
AcDbArc
 50
7.6839818297
 51
92.68398182970002
  0
ARC
  5
2AD
330
1B
100
AcDbEntity
 67
     1
  8
7_ALL_FEATURES
  6
Continuous
 62
     7
100
AcDbCircle
 10
64.8253308026
 20
119.7295279311
 30
0.0
 40
0.3
100
AcDbArc
 50
282.6839818297
 51
7.6839818297
  0
LINE
  5
2AE
330
1B
100
AcDbEntity
 67
     1
  8
02___PRT_ALL_AXES
  6
Continuous
 62
     7
100
AcDbLine
 10
59.860279831
 20
124.369958125
 30
0.0
 11
59.959381893
 21
124.3833290381
 31
0.0
  0
LINE
  5
2AF
330
1B
100
AcDbEntity
 67
     1
  8
02___PRT_ALL_AXES
  6
Continuous
 62
     7
100
AcDbLine
 10
60.3550036165
 20
120.7031818329
 30
0.0
 11
60.4541056784
 21
120.716552746
 31
0.0
  0
LINE
  5
2B0
330
1B
100
AcDbEntity
 67
     1
  8
02___PRT_ALL_AXES
  6
Continuous
 62
     7
100
AcDbLine
 10
57.7445988601
 20
123.5532683036
 30
0.0
 11
59.7733688957
 21
125.0141215276
 31
0.0
  0
LINE
  5
2B1
330
1B
100
AcDbEntity
 67
     1
  8
7_ALL_FEATURES
  6
Continuous
 62
     7
100
AcDbLine
 10
61.1651236467
 20
126.6650360358
 30
0.0
 11
63.8986818155
 21
126.7931814568
 31
0.0
  0
LINE
  5
2B2
330
1B
100
AcDbEntity
 67
     1
  8
02___PRT_ALL_AXES
  6
Continuous
 62
     7
100
AcDbLine
 10
58.0985347956
 20
120.9299784285
 30
0.0
 11
60.4419145517
 21
120.0590184303
 31
0.0
  0
LINE
  5
2B3
330
1B
100
AcDbEntity
 67
     1
  8
7_ALL_FEATURES
  6
Continuous
 62
     7
100
AcDbLine
 10
62.2214257831
 20
118.8359731419
 30
0.0
 11
64.8912028423
 21
119.4368491406
 31
0.0
  0
ARC
  5
2B4
330
1B
100
AcDbEntity
 67
     1
  8
02___PRT_ALL_AXES
  6
Continuous
 62
     7
100
AcDbCircle
 10
58.6211107945
 20
122.3360062822
 30
0.0
 40
1.5
100
AcDbArc
 50
187.6839818297
 51
249.6114948939
  0
ARC
  5
2B5
330
1B
100
AcDbEntity
 67
     1
  8
02___PRT_ALL_AXES
  6
Continuous
 62
     7
100
AcDbCircle
 10
58.6211107945
 20
122.3360062822
 30
0.0
 40
1.5
100
AcDbArc
 50
125.7564687656
 51
187.6839818297
  0
LINE
  5
2B6
330
1B
100
AcDbEntity
 67
     1
  8
02___PRT_ALL_AXES
  6
Continuous
 62
     9
100
AcDbLine
 10
58.0985347956
 20
120.9299784285
 30
0.0
 11
57.7445988601
 21
123.5532683036
 31
0.0
  0
LINE
  5
2B7
330
1B
100
AcDbEntity
 67
     1
  8
7_ALL_FEATURES
  6
Continuous
 62
     9
100
AcDbLine
 10
63.8986818155
 20
126.7931814568
 30
0.0
 11
64.8912028423
 21
119.4368491406
 31
0.0
  0
LINE
  5
2B8
330
1B
100
AcDbEntity
 67
     1
  8
02___PRT_ALL_AXES
  6
Continuous
 62
     7
100
AcDbLine
 10
58.5506205677
 20
107.8235907168
 30
0.0
 11
72.0468069046
 21
107.8235907168
 31
0.0
  0
ARC
  5
2B9
330
1B
100
AcDbEntity
 67
     1
  8
02___PRT_ALL_AXES
  6
Continuous
 62
     7
100
AcDbCircle
 10
58.5506205677
 20
109.3235907168
 30
0.0
 40
1.5
100
AcDbArc
 50
156.9898842033
 51
270.0
  0
LINE
  5
2BA
330
1B
100
AcDbEntity
 67
     1
  8
02___PRT_ALL_AXES
  6
Continuous
 62
     7
100
AcDbLine
 10
61.6707754273
 20
114.7878624361
 30
0.0
 11
57.1699667867
 21
109.9099311786
 31
0.0
  0
ARC
  5
2BB
330
1B
100
AcDbEntity
 67
     1
  8
02___PRT_ALL_AXES
  6
Continuous
 62
     7
100
AcDbCircle
 10
59.4659377568
 20
116.8222396987
 30
0.0
 40
3.0
100
AcDbArc
 50
317.3026440946
 51
7.6839818297
  0
LINE
  5
2BC
330
1B
100
AcDbEntity
 67
     1
  8
02___PRT_ALL_AXES
  6
Continuous
 62
     7
100
AcDbLine
 10
60.9475498146
 20
128.2776420854
 30
0.0
 11
62.4389996152
 21
117.2233670923
 31
0.0
  0
ARC
  5
2BD
330
1B
100
AcDbEntity
 67
     1
  8
02___PRT_ALL_AXES
  6
Continuous
 62
     7
100
AcDbCircle
 10
62.4340807438
 20
128.4782057822
 30
0.0
 40
1.5
100
AcDbArc
 50
155.8977654988
 51
187.6839818297
  0
LINE
  5
2BE
330
1B
100
AcDbEntity
 67
     1
  8
02___PRT_ALL_AXES
  6
Continuous
 62
     7
100
AcDbLine
 10
65.4661839524
 20
138.929023242
 30
0.0
 11
61.0648533659
 21
129.0907548723
 31
0.0
  0
ARC
  5
2BF
330
1B
100
AcDbEntity
 67
     1
  8
02___PRT_ALL_AXES
  6
Continuous
 62
     7
100
AcDbCircle
 10
62.7277291967
 20
140.1541214222
 30
0.0
 40
3.0
100
AcDbArc
 50
335.8977654988
 51
35.3624618871
  0
LINE
  5
2C0
330
1B
100
AcDbEntity
 67
     1
  8
7_ALL_FEATURES
  6
Continuous
 62
     7
100
AcDbLine
 10
79.9298111578
 20
143.3141755021
 30
0.0
 11
82.8235461875
 21
147.3917112257
 31
0.0
  0
LINE
  5
2C1
330
1B
100
AcDbEntity
 67
     1
  8
7_ALL_FEATURES
  6
Continuous
 62
     7
100
AcDbLine
 10
64.1638026514
 20
143.3141755021
 30
0.0
 11
65.1742506309
 21
141.89036244
 31
0.0
  0
LINE
  5
2C2
330
1B
100
AcDbEntity
 67
     1
  8
7_ALL_FEATURES
  6
Continuous
 62
     7
100
AcDbLine
 10
61.2700676217
 20
147.3917112257
 30
0.0
 11
64.1638026514
 21
143.3141755021
 31
0.0
  0
LINE
  5
2C3
330
1B
100
AcDbEntity
 67
     1
  8
7_ALL_FEATURES
  6
Continuous
 62
     7
100
AcDbLine
 10
61.2700676217
 20
147.3917112257
 30
0.0
 11
60.0468069046
 21
146.5235907168
 31
0.0
  0
LINE
  5
2C4
330
1B
100
AcDbEntity
 67
     1
  8
7_ALL_FEATURES
  6
Continuous
 62
     7
100
AcDbLine
 10
82.8235461875
 20
147.3917112257
 30
0.0
 11
84.0468069046
 21
146.5235907168
 31
0.0
  0
LINE
  5
2C5
330
1B
100
AcDbEntity
 67
     1
  8
7_ALL_FEATURES
  6
Continuous
 62
     7
100
AcDbLine
 10
78.9193631782
 20
141.89036244
 30
0.0
 11
79.9298111578
 21
143.3141755021
 31
0.0
  0
ARC
  5
2C6
330
1B
100
AcDbEntity
 67
     1
  8
02___PRT_ALL_AXES
  6
Continuous
 62
     7
100
AcDbCircle
 10
81.3658846124
 20
140.1541214222
 30
0.0
 40
3.0
100
AcDbArc
 50
144.6375381129
 51
204.1022345012
  0
LINE
  5
2C7
330
1B
100
AcDbEntity
 67
     1
  8
02___PRT_ALL_AXES
  6
Continuous
 62
     7
100
AcDbLine
 10
83.0287604432
 20
129.0907548723
 30
0.0
 11
78.6274298567
 21
138.929023242
 31
0.0
  0
ARC
  5
2C8
330
1B
100
AcDbEntity
 67
     1
  8
02___PRT_ALL_AXES
  6
Continuous
 62
     7
100
AcDbCircle
 10
81.6595330653
 20
128.4782057822
 30
0.0
 40
1.5
100
AcDbArc
 50
352.3160181703
 51
24.1022345012
  0
LINE
  5
2C9
330
1B
100
AcDbEntity
 67
     1
  8
02___PRT_ALL_AXES
  6
Continuous
 62
     7
100
AcDbLine
 10
72.0468069046
 20
107.8235907168
 30
0.0
 11
85.5429932414
 21
107.8235907168
 31
0.0
  0
LINE
  5
2CA
330
1B
100
AcDbEntity
 67
     1
  8
02___PRT_ALL_AXES
  6
Continuous
 62
     7
100
AcDbLine
 10
81.6546141939
 20
117.2233670923
 30
0.0
 11
83.1460639946
 21
128.2776420854
 31
0.0
  0
ARC
  5
2CB
330
1B
100
AcDbEntity
 67
     1
  8
02___PRT_ALL_AXES
  6
Continuous
 62
     7
100
AcDbCircle
 10
85.5429932414
 20
109.3235907168
 30
0.0
 40
1.5
100
AcDbArc
 50
270.0
 51
23.0101157967
  0
ARC
  5
2CC
330
1B
100
AcDbEntity
 67
     1
  8
02___PRT_ALL_AXES
  6
Continuous
 62
     7
100
AcDbCircle
 10
84.6276760523
 20
116.8222396987
 30
0.0
 40
3.0
100
AcDbArc
 50
172.3160181703
 51
222.6973559054
  0
LINE
  5
2CD
330
1B
100
AcDbEntity
 67
     1
  8
02___PRT_ALL_AXES
  6
Continuous
 62
     7
100
AcDbLine
 10
86.9236470224
 20
109.9099311786
 30
0.0
 11
82.4228383818
 21
114.7878624361
 31
0.0
  0
LINE
  5
2CE
330
1B
100
AcDbEntity
 67
     1
  8
02___PRT_ALL_AXES
  6
Continuous
 62
     9
100
AcDbLine
 10
59.6956259881
 20
129.7033039624
 30
0.0
 11
61.0648533659
 21
129.0907548723
 31
0.0
  0
LINE
  5
2CF
330
1B
100
AcDbEntity
 67
     1
  8
02___PRT_ALL_AXES
  6
Continuous
 62
     9
100
AcDbLine
 10
84.397987821
 20
129.7033039624
 30
0.0
 11
83.0287604432
 21
129.0907548723
 31
0.0
  0
LINE
  5
2D0
330
1B
100
AcDbEntity
 67
     1
  8
7_ALL_FEATURES
  6
Continuous
 62
     9
100
AcDbLine
 10
64.1638026514
 20
143.3141755021
 30
0.0
 11
62.9405419343
 21
142.4460549932
 31
0.0
  0
LINE
  5
2D1
330
1B
100
AcDbEntity
 67
     1
  8
02___PRT_ALL_AXES
  6
Continuous
 62
     9
100
AcDbLine
 10
55.9219728417
 20
110.7693469661
 30
0.0
 11
57.1699667867
 21
109.9099311786
 31
0.0
  0
LINE
  5
2D2
330
1B
100
AcDbEntity
 67
     1
  8
02___PRT_ALL_AXES
  6
Continuous
 62
     9
100
AcDbLine
 10
60.952468686
 20
117.0228033955
 30
0.0
 11
62.4389996152
 21
117.2233670923
 31
0.0
  0
LINE
  5
2D3
330
1B
100
AcDbEntity
 67
     1
  8
02___PRT_ALL_AXES
  6
Continuous
 62
     9
100
AcDbLine
 10
72.0468069046
 20
106.3235907168
 30
0.0
 11
72.0468069046
 21
107.8235907168
 31
0.0
  0
LINE
  5
2D4
330
1B
100
AcDbEntity
 67
     1
  8
02___PRT_ALL_AXES
  6
Continuous
 62
     9
100
AcDbLine
 10
64.0969565745
 20
139.5415723321
 30
0.0
 11
65.4661839524
 21
138.929023242
 31
0.0
  0
LINE
  5
2D5
330
1B
100
AcDbEntity
 67
     1
  8
02___PRT_ALL_AXES
  6
Continuous
 62
     9
100
AcDbLine
 10
84.6325949238
 20
128.0770783886
 30
0.0
 11
83.1460639946
 21
128.2776420854
 31
0.0
  0
LINE
  5
2D6
330
1B
100
AcDbEntity
 67
     1
  8
02___PRT_ALL_AXES
  6
Continuous
 62
     9
100
AcDbLine
 10
58.5506205677
 20
106.3235907168
 30
0.0
 11
58.5506205677
 21
107.8235907168
 31
0.0
  0
LINE
  5
2D7
330
1B
100
AcDbEntity
 67
     1
  8
02___PRT_ALL_AXES
  6
Continuous
 62
     9
100
AcDbLine
 10
59.4610188854
 20
128.0770783886
 30
0.0
 11
60.9475498146
 21
128.2776420854
 31
0.0
  0
LINE
  5
2D8
330
1B
100
AcDbEntity
 67
     1
  8
02___PRT_ALL_AXES
  6
Continuous
 62
     9
100
AcDbLine
 10
85.5429932414
 20
106.3235907168
 30
0.0
 11
85.5429932414
 21
107.8235907168
 31
0.0
  0
LINE
  5
2D9
330
1B
100
AcDbEntity
 67
     1
  8
02___PRT_ALL_AXES
  6
Continuous
 62
     9
100
AcDbLine
 10
80.1426238953
 20
141.0222419311
 30
0.0
 11
78.9193631782
 21
141.89036244
 31
0.0
  0
LINE
  5
2DA
330
1B
100
AcDbEntity
 67
     1
  8
02___PRT_ALL_AXES
  6
Continuous
 62
     9
100
AcDbLine
 10
83.1411451231
 20
117.0228033955
 30
0.0
 11
81.6546141939
 21
117.2233670923
 31
0.0
  0
LINE
  5
2DB
330
1B
100
AcDbEntity
 67
     1
  8
02___PRT_ALL_AXES
  6
Continuous
 62
     9
100
AcDbLine
 10
63.9509899138
 20
141.0222419311
 30
0.0
 11
65.1742506309
 21
141.89036244
 31
0.0
  0
LINE
  5
2DC
330
1B
100
AcDbEntity
 67
     1
  8
02___PRT_ALL_AXES
  6
Continuous
 62
     9
100
AcDbLine
 10
60.5683565921
 20
115.8050510674
 30
0.0
 11
61.6707754273
 21
114.7878624361
 31
0.0
  0
LINE
  5
2DD
330
1B
100
AcDbEntity
 67
     1
  8
7_ALL_FEATURES
  6
Continuous
 62
     9
100
AcDbLine
 10
79.9298111578
 20
143.3141755021
 30
0.0
 11
81.1530718749
 21
142.4460549932
 31
0.0
  0
LINE
  5
2DE
330
1B
100
AcDbEntity
 67
     1
  8
02___PRT_ALL_AXES
  6
Continuous
 62
     9
100
AcDbLine
 10
88.1716409674
 20
110.7693469661
 30
0.0
 11
86.9236470224
 21
109.9099311786
 31
0.0
  0
LINE
  5
2DF
330
1B
100
AcDbEntity
 67
     1
  8
02___PRT_ALL_AXES
  6
Continuous
 62
     9
100
AcDbLine
 10
83.5252572171
 20
115.8050510674
 30
0.0
 11
82.4228383818
 21
114.7878624361
 31
0.0
  0
LINE
  5
2E0
330
1B
100
AcDbEntity
 67
     1
  8
02___PRT_ALL_AXES
  6
Continuous
 62
     9
100
AcDbLine
 10
79.9966572346
 20
139.5415723321
 30
0.0
 11
78.6274298567
 21
138.929023242
 31
0.0
  0
LINE
  5
2E1
330
1B
100
AcDbEntity
 67
     1
  8
7_ALL_FEATURES
  6
Continuous
 62
     3
100
AcDbLine
 10
84.0468069046
 20
146.5235907168
 30
0.0
 11
81.1530718749
 21
142.4460549932
 31
0.0
  0
LINE
  5
2E2
330
1B
100
AcDbEntity
 67
     1
  8
02___PRT_ALL_AXES
  6
Continuous
 62
     3
100
AcDbLine
 10
58.5506205677
 20
106.3235907168
 30
0.0
 11
72.0468069046
 21
106.3235907168
 31
0.0
  0
LINE
  5
2E3
330
1B
100
AcDbEntity
 67
     1
  8
7_ALL_FEATURES
  6
Continuous
 62
     3
100
AcDbLine
 10
62.9405419343
 20
142.4460549932
 30
0.0
 11
60.0468069046
 21
146.5235907168
 31
0.0
  0
ARC
  5
2E4
330
1B
100
AcDbEntity
 67
     1
  8
02___PRT_ALL_AXES
  6
Continuous
 62
     3
100
AcDbCircle
 10
58.5506205677
 20
109.3235907168
 30
0.0
 40
3.0
100
AcDbArc
 50
151.1892062571
 51
270.0
  0
LINE
  5
2E5
330
1B
100
AcDbEntity
 67
     1
  8
02___PRT_ALL_AXES
  6
Continuous
 62
     3
100
AcDbLine
 10
60.5683565921
 20
115.8050510674
 30
0.0
 11
55.9219728417
 21
110.7693469661
 31
0.0
  0
ARC
  5
2E6
330
1B
100
AcDbEntity
 67
     1
  8
02___PRT_ALL_AXES
  6
Continuous
 62
     3
100
AcDbCircle
 10
59.4659377568
 20
116.8222396987
 30
0.0
 40
1.5
100
AcDbArc
 50
317.3026440946
 51
7.6839818297
  0
LINE
  5
2E7
330
1B
100
AcDbEntity
 67
     1
  8
02___PRT_ALL_AXES
  6
Continuous
 62
     3
100
AcDbLine
 10
59.4610188854
 20
128.0770783886
 30
0.0
 11
60.952468686
 21
117.0228033955
 31
0.0
  0
ARC
  5
2E8
330
1B
100
AcDbEntity
 67
     1
  8
02___PRT_ALL_AXES
  6
Continuous
 62
     3
100
AcDbCircle
 10
62.4340807438
 20
128.4782057822
 30
0.0
 40
3.0
100
AcDbArc
 50
155.8977654988
 51
187.6839818297
  0
LINE
  5
2E9
330
1B
100
AcDbEntity
 67
     1
  8
02___PRT_ALL_AXES
  6
Continuous
 62
     3
100
AcDbLine
 10
64.0969565745
 20
139.5415723321
 30
0.0
 11
59.6956259881
 21
129.7033039624
 31
0.0
  0
ARC
  5
2EA
330
1B
100
AcDbEntity
 67
     1
  8
02___PRT_ALL_AXES
  6
Continuous
 62
     3
100
AcDbCircle
 10
62.7277291967
 20
140.1541214222
 30
0.0
 40
1.5
100
AcDbArc
 50
335.8977654988
 51
35.3624618871
  0
LINE
  5
2EB
330
1B
100
AcDbEntity
 67
     1
  8
7_ALL_FEATURES
  6
Continuous
 62
     3
100
AcDbLine
 10
62.9405419343
 20
142.4460549932
 30
0.0
 11
63.9509899138
 21
141.0222419311
 31
0.0
  0
LINE
  5
2EC
330
1B
100
AcDbEntity
 67
     1
  8
7_ALL_FEATURES
  6
Continuous
 62
     3
100
AcDbLine
 10
80.1426238953
 20
141.0222419311
 30
0.0
 11
81.1530718749
 21
142.4460549932
 31
0.0
  0
ARC
  5
2ED
330
1B
100
AcDbEntity
 67
     1
  8
02___PRT_ALL_AXES
  6
Continuous
 62
     3
100
AcDbCircle
 10
81.3658846124
 20
140.1541214222
 30
0.0
 40
1.5
100
AcDbArc
 50
144.6375381129
 51
204.1022345012
  0
LINE
  5
2EE
330
1B
100
AcDbEntity
 67
     1
  8
02___PRT_ALL_AXES
  6
Continuous
 62
     3
100
AcDbLine
 10
84.397987821
 20
129.7033039624
 30
0.0
 11
79.9966572346
 21
139.5415723321
 31
0.0
  0
LINE
  5
2EF
330
1B
100
AcDbEntity
 67
     1
  8
02___PRT_ALL_AXES
  6
Continuous
 62
     3
100
AcDbLine
 10
72.0468069046
 20
106.3235907168
 30
0.0
 11
85.5429932414
 21
106.3235907168
 31
0.0
  0
ARC
  5
2F0
330
1B
100
AcDbEntity
 67
     1
  8
02___PRT_ALL_AXES
  6
Continuous
 62
     3
100
AcDbCircle
 10
81.6595330653
 20
128.4782057822
 30
0.0
 40
3.0
100
AcDbArc
 50
352.3160181703
 51
24.1022345012
  0
ARC
  5
2F1
330
1B
100
AcDbEntity
 67
     1
  8
02___PRT_ALL_AXES
  6
Continuous
 62
     3
100
AcDbCircle
 10
85.5429932414
 20
109.3235907168
 30
0.0
 40
3.0
100
AcDbArc
 50
270.0
 51
28.8107937429
  0
LINE
  5
2F2
330
1B
100
AcDbEntity
 67
     1
  8
02___PRT_ALL_AXES
  6
Continuous
 62
     3
100
AcDbLine
 10
83.1411451231
 20
117.0228033955
 30
0.0
 11
84.6325949238
 21
128.0770783886
 31
0.0
  0
LINE
  5
2F3
330
1B
100
AcDbEntity
 67
     1
  8
02___PRT_ALL_AXES
  6
Continuous
 62
     3
100
AcDbLine
 10
88.1716409674
 20
110.7693469661
 30
0.0
 11
83.5252572171
 21
115.8050510674
 31
0.0
  0
ARC
  5
2F4
330
1B
100
AcDbEntity
 67
     1
  8
02___PRT_ALL_AXES
  6
Continuous
 62
     3
100
AcDbCircle
 10
84.6276760523
 20
116.8222396987
 30
0.0
 40
1.5
100
AcDbArc
 50
172.3160181703
 51
222.6973559054
  0
SPLINE
  5
2F5
330
1B
100
AcDbEntity
 67
     1
  8
02___PRT_ALL_AXES
  6
Continuous
 62
     7
100
AcDbSpline
 70
     0
 71
     3
 72
    29
 73
    25
 74
     0
 42
0.000000001
 43
0.0000001
 40
0.0
 40
0.0
 40
0.0
 40
0.0
 40
0.0627497437
 40
0.0941457992
 40
0.1255278662
 40
0.1881566364
 40
0.2506836252
 40
0.2819435359
 40
0.3131762597
 40
0.3443833751
 40
0.3755675174
 40
0.4378048703
 40
0.5
 40
0.5621951297
 40
0.6244324826
 40
0.6556166249
 40
0.6868237403
 40
0.7180564641
 40
0.7493163748
 40
0.8118433636
 40
0.8744721338
 40
0.9058542008
 40
0.9372502563
 40
1.0
 40
1.0
 40
1.0
 40
1.0
 10
160.8419953547
 20
120.0590184303
 30
0.0
 10
161.0053482188
 20
120.0590184303
 30
0.0
 10
161.2513020763
 20
120.0830211807
 30
0.0
 10
161.5688054329
 20
120.1618799714
 30
0.0
 10
161.8769541829
 20
120.2711110254
 30
0.0
 10
162.2395524686
 20
120.4630264119
 30
0.0
 10
162.5576119399
 20
120.721721391
 30
0.0
 10
162.7775499986
 20
120.9622115659
 30
0.0
 10
162.9239536552
 20
121.1578205723
 30
0.0
 10
163.0503014382
 20
121.3667183316
 30
0.0
 10
163.1902636369
 20
121.6598951871
 30
0.0
 10
163.3097695167
 20
122.0499912488
 30
0.0
 10
163.3580978877
 20
122.5365699789
 30
0.0
 10
163.3097695167
 20
123.0231487091
 30
0.0
 10
163.1902636369
 20
123.4132447708
 30
0.0
 10
163.0503014382
 20
123.7064216263
 30
0.0
 10
162.9239536552
 20
123.9153193856
 30
0.0
 10
162.7775499986
 20
124.110928392
 30
0.0
 10
162.5576119399
 20
124.3514185669
 30
0.0
 10
162.2395524686
 20
124.610113546
 30
0.0
 10
161.8769541829
 20
124.8020289325
 30
0.0
 10
161.5688054329
 20
124.9112599865
 30
0.0
 10
161.2513020763
 20
124.9901187772
 30
0.0
 10
161.0053482188
 20
125.0141215276
 30
0.0
 10
160.8419953547
 20
125.0141215276
 30
0.0
  0
SPLINE
  5
2F6
330
1B
100
AcDbEntity
 67
     1
  8
02___PRT_ALL_AXES
  6
Continuous
 62
     7
100
AcDbSpline
 70
     0
 71
     3
 72
    29
 73
    25
 74
     0
 42
0.000000001
 43
0.0000001
 40
0.0
 40
0.0
 40
0.0
 40
0.0
 40
0.0627497437
 40
0.0941457992
 40
0.1255278662
 40
0.1881566364
 40
0.2506836252
 40
0.2819435359
 40
0.3131762597
 40
0.3443833751
 40
0.3755675174
 40
0.4378048703
 40
0.5
 40
0.5621951297
 40
0.6244324826
 40
0.6556166249
 40
0.6868237403
 40
0.7180564641
 40
0.7493163748
 40
0.8118433636
 40
0.8744721338
 40
0.9058542008
 40
0.9372502563
 40
1.0
 40
1.0
 40
1.0
 40
1.0
 10
160.8419953547
 20
120.0590184303
 30
0.0
 10
160.6786424907
 20
120.0590184303
 30
0.0
 10
160.4326886332
 20
120.0830211807
 30
0.0
 10
160.1151852766
 20
120.1618799714
 30
0.0
 10
159.8070365266
 20
120.2711110254
 30
0.0
 10
159.4444382409
 20
120.4630264119
 30
0.0
 10
159.1263787695
 20
120.721721391
 30
0.0
 10
158.9064407108
 20
120.9622115659
 30
0.0
 10
158.7600370543
 20
121.1578205723
 30
0.0
 10
158.6336892713
 20
121.3667183316
 30
0.0
 10
158.4937270726
 20
121.6598951871
 30
0.0
 10
158.3742211927
 20
122.0499912488
 30
0.0
 10
158.3258928217
 20
122.5365699789
 30
0.0
 10
158.3742211927
 20
123.0231487091
 30
0.0
 10
158.4937270726
 20
123.4132447708
 30
0.0
 10
158.6336892713
 20
123.7064216263
 30
0.0
 10
158.7600370543
 20
123.9153193856
 30
0.0
 10
158.9064407108
 20
124.110928392
 30
0.0
 10
159.1263787695
 20
124.3514185669
 30
0.0
 10
159.4444382409
 20
124.610113546
 30
0.0
 10
159.8070365266
 20
124.8020289325
 30
0.0
 10
160.1151852766
 20
124.9112599865
 30
0.0
 10
160.4326886332
 20
124.9901187772
 30
0.0
 10
160.6786424907
 20
125.0141215276
 30
0.0
 10
160.8419953547
 20
125.0141215276
 30
0.0
  0
SPLINE
  5
2F7
330
1B
100
AcDbEntity
 67
     1
  8
02___PRT_ALL_AXES
  6
Continuous
 62
     9
100
AcDbSpline
 70
     0
 71
     3
 72
    27
 73
    23
 74
     0
 42
0.000000001
 43
0.0000001
 40
0.0
 40
0.0
 40
0.0
 40
0.0
 40
0.0627592119
 40
0.0941620276
 40
0.1255466058
 40
0.1881853796
 40
0.2507216167
 40
0.281986269
 40
0.3132237933
 40
0.375548573
 40
0.4377954001
 40
0.5
 40
0.5622045999
 40
0.624451427
 40
0.6867762067
 40
0.718013731
 40
0.7492783833
 40
0.8118146204
 40
0.8744533942
 40
0.9058379724
 40
0.9372407881
 40
1.0
 40
1.0
 40
1.0
 40
1.0
 10
160.8419953547
 20
120.9299784285
 30
0.0
 10
160.7555145559
 20
120.9299784285
 30
0.0
 10
160.6253009635
 20
120.9426849082
 30
0.0
 10
160.4572117381
 20
120.9844351894
 30
0.0
 10
160.2940746486
 20
121.0422646757
 30
0.0
 10
160.1021127755
 20
121.1438678153
 30
0.0
 10
159.9337325533
 20
121.2808202972
 30
0.0
 10
159.817286167
 20
121.4081458921
 30
0.0
 10
159.7140671851
 20
121.5460407868
 30
0.0
 10
159.6113731767
 20
121.736314276
 30
0.0
 10
159.5355495829
 20
121.9839913194
 30
0.0
 10
159.5099270213
 20
122.241623366
 30
0.0
 10
159.5355495829
 20
122.4992554127
 30
0.0
 10
159.6113731767
 20
122.746932456
 30
0.0
 10
159.7140671851
 20
122.9372059453
 30
0.0
 10
159.817286167
 20
123.0751008399
 30
0.0
 10
159.9337325533
 20
123.2024264348
 30
0.0
 10
160.1021127755
 20
123.3393789167
 30
0.0
 10
160.2940746486
 20
123.4409820563
 30
0.0
 10
160.4572117381
 20
123.4988115426
 30
0.0
 10
160.6253009635
 20
123.5405618238
 30
0.0
 10
160.7555145559
 20
123.5532683036
 30
0.0
 10
160.8419953547
 20
123.5532683036
 30
0.0
  0
SPLINE
  5
2F8
330
1B
100
AcDbEntity
 67
     1
  8
02___PRT_ALL_AXES
  6
Continuous
 62
     9
100
AcDbSpline
 70
     0
 71
     3
 72
    27
 73
    23
 74
     0
 42
0.000000001
 43
0.0000001
 40
0.0
 40
0.0
 40
0.0
 40
0.0
 40
0.0627592119
 40
0.0941620276
 40
0.1255466058
 40
0.1881853796
 40
0.2507216167
 40
0.281986269
 40
0.3132237933
 40
0.375548573
 40
0.4377954001
 40
0.5
 40
0.5622045999
 40
0.624451427
 40
0.6867762067
 40
0.718013731
 40
0.7492783833
 40
0.8118146204
 40
0.8744533942
 40
0.9058379724
 40
0.9372407881
 40
1.0
 40
1.0
 40
1.0
 40
1.0
 10
160.8419953547
 20
120.9299784285
 30
0.0
 10
160.9284761536
 20
120.9299784285
 30
0.0
 10
161.0586897459
 20
120.9426849082
 30
0.0
 10
161.2267789713
 20
120.9844351894
 30
0.0
 10
161.3899160608
 20
121.0422646757
 30
0.0
 10
161.581877934
 20
121.1438678153
 30
0.0
 10
161.7502581561
 20
121.2808202972
 30
0.0
 10
161.8667045425
 20
121.4081458921
 30
0.0
 10
161.9699235244
 20
121.5460407868
 30
0.0
 10
162.0726175328
 20
121.736314276
 30
0.0
 10
162.1484411266
 20
121.9839913194
 30
0.0
 10
162.1740636882
 20
122.241623366
 30
0.0
 10
162.1484411266
 20
122.4992554127
 30
0.0
 10
162.0726175328
 20
122.746932456
 30
0.0
 10
161.9699235244
 20
122.9372059453
 30
0.0
 10
161.8667045425
 20
123.0751008399
 30
0.0
 10
161.7502581561
 20
123.2024264348
 30
0.0
 10
161.581877934
 20
123.3393789167
 30
0.0
 10
161.3899160608
 20
123.4409820563
 30
0.0
 10
161.2267789713
 20
123.4988115426
 30
0.0
 10
161.0586897459
 20
123.5405618238
 30
0.0
 10
160.9284761536
 20
123.5532683036
 30
0.0
 10
160.8419953547
 20
123.5532683036
 30
0.0
  0
SPLINE
  5
2F9
330
1B
100
AcDbEntity
 67
     1
  8
02___PRT_ALL_AXES
  6
Continuous
 62
     7
100
AcDbSpline
 70
     0
 71
     3
 72
    29
 73
    25
 74
     0
 42
0.000000001
 43
0.0000001
 40
0.0
 40
0.0
 40
0.0
 40
0.0
 40
0.0627497437
 40
0.0941457992
 40
0.1255278662
 40
0.1881566364
 40
0.2506836252
 40
0.2819435359
 40
0.3131762597
 40
0.3443833751
 40
0.3755675174
 40
0.4378048703
 40
0.5
 40
0.5621951297
 40
0.6244324826
 40
0.6556166249
 40
0.6868237403
 40
0.7180564641
 40
0.7493163748
 40
0.8118433636
 40
0.8744721338
 40
0.9058542008
 40
0.9372502563
 40
1.0
 40
1.0
 40
1.0
 40
1.0
 10
260.8419953547
 20
120.0590184303
 30
0.0
 10
261.0053482188
 20
120.0590184303
 30
0.0
 10
261.2513020763
 20
120.0830211807
 30
0.0
 10
261.5688054329
 20
120.1618799714
 30
0.0
 10
261.8769541829
 20
120.2711110254
 30
0.0
 10
262.2395524686
 20
120.4630264119
 30
0.0
 10
262.5576119399
 20
120.721721391
 30
0.0
 10
262.7775499986
 20
120.9622115659
 30
0.0
 10
262.9239536552
 20
121.1578205723
 30
0.0
 10
263.0503014382
 20
121.3667183316
 30
0.0
 10
263.1902636369
 20
121.6598951871
 30
0.0
 10
263.3097695167
 20
122.0499912488
 30
0.0
 10
263.3580978877
 20
122.5365699789
 30
0.0
 10
263.3097695167
 20
123.0231487091
 30
0.0
 10
263.1902636369
 20
123.4132447708
 30
0.0
 10
263.0503014382
 20
123.7064216263
 30
0.0
 10
262.9239536552
 20
123.9153193856
 30
0.0
 10
262.7775499986
 20
124.110928392
 30
0.0
 10
262.5576119399
 20
124.3514185669
 30
0.0
 10
262.2395524686
 20
124.610113546
 30
0.0
 10
261.8769541829
 20
124.8020289325
 30
0.0
 10
261.5688054329
 20
124.9112599865
 30
0.0
 10
261.2513020763
 20
124.9901187772
 30
0.0
 10
261.0053482188
 20
125.0141215276
 30
0.0
 10
260.8419953547
 20
125.0141215276
 30
0.0
  0
SPLINE
  5
2FA
330
1B
100
AcDbEntity
 67
     1
  8
02___PRT_ALL_AXES
  6
Continuous
 62
     7
100
AcDbSpline
 70
     0
 71
     3
 72
    29
 73
    25
 74
     0
 42
0.000000001
 43
0.0000001
 40
0.0
 40
0.0
 40
0.0
 40
0.0
 40
0.0627497437
 40
0.0941457992
 40
0.1255278662
 40
0.1881566364
 40
0.2506836252
 40
0.2819435359
 40
0.3131762597
 40
0.3443833751
 40
0.3755675174
 40
0.4378048703
 40
0.5
 40
0.5621951297
 40
0.6244324826
 40
0.6556166249
 40
0.6868237403
 40
0.7180564641
 40
0.7493163748
 40
0.8118433636
 40
0.8744721338
 40
0.9058542008
 40
0.9372502563
 40
1.0
 40
1.0
 40
1.0
 40
1.0
 10
260.8419953547
 20
120.0590184303
 30
0.0
 10
260.6786424907
 20
120.0590184303
 30
0.0
 10
260.4326886332
 20
120.0830211807
 30
0.0
 10
260.1151852766
 20
120.1618799714
 30
0.0
 10
259.8070365266
 20
120.2711110254
 30
0.0
 10
259.4444382409
 20
120.4630264119
 30
0.0
 10
259.1263787695
 20
120.721721391
 30
0.0
 10
258.9064407108
 20
120.9622115659
 30
0.0
 10
258.7600370543
 20
121.1578205723
 30
0.0
 10
258.6336892713
 20
121.3667183316
 30
0.0
 10
258.4937270726
 20
121.6598951871
 30
0.0
 10
258.3742211927
 20
122.0499912488
 30
0.0
 10
258.3258928217
 20
122.5365699789
 30
0.0
 10
258.3742211927
 20
123.0231487091
 30
0.0
 10
258.4937270726
 20
123.4132447708
 30
0.0
 10
258.6336892713
 20
123.7064216263
 30
0.0
 10
258.7600370543
 20
123.9153193856
 30
0.0
 10
258.9064407108
 20
124.110928392
 30
0.0
 10
259.1263787695
 20
124.3514185669
 30
0.0
 10
259.4444382409
 20
124.610113546
 30
0.0
 10
259.8070365266
 20
124.8020289325
 30
0.0
 10
260.1151852766
 20
124.9112599865
 30
0.0
 10
260.4326886332
 20
124.9901187772
 30
0.0
 10
260.6786424907
 20
125.0141215276
 30
0.0
 10
260.8419953547
 20
125.0141215276
 30
0.0
  0
SPLINE
  5
2FB
330
1B
100
AcDbEntity
 67
     1
  8
02___PRT_ALL_AXES
  6
Continuous
 62
     9
100
AcDbSpline
 70
     0
 71
     3
 72
    27
 73
    23
 74
     0
 42
0.000000001
 43
0.0000001
 40
0.0
 40
0.0
 40
0.0
 40
0.0
 40
0.0627592119
 40
0.0941620276
 40
0.1255466058
 40
0.1881853796
 40
0.2507216167
 40
0.281986269
 40
0.3132237933
 40
0.375548573
 40
0.4377954001
 40
0.5
 40
0.5622045999
 40
0.624451427
 40
0.6867762067
 40
0.718013731
 40
0.7492783833
 40
0.8118146204
 40
0.8744533942
 40
0.9058379724
 40
0.9372407881
 40
1.0
 40
1.0
 40
1.0
 40
1.0
 10
260.8419953547
 20
120.9299784285
 30
0.0
 10
260.7555145559
 20
120.9299784285
 30
0.0
 10
260.6253009635
 20
120.9426849082
 30
0.0
 10
260.4572117381
 20
120.9844351894
 30
0.0
 10
260.2940746486
 20
121.0422646757
 30
0.0
 10
260.1021127755
 20
121.1438678153
 30
0.0
 10
259.9337325533
 20
121.2808202972
 30
0.0
 10
259.817286167
 20
121.4081458921
 30
0.0
 10
259.7140671851
 20
121.5460407868
 30
0.0
 10
259.6113731767
 20
121.736314276
 30
0.0
 10
259.5355495829
 20
121.9839913194
 30
0.0
 10
259.5099270213
 20
122.241623366
 30
0.0
 10
259.5355495829
 20
122.4992554127
 30
0.0
 10
259.6113731767
 20
122.746932456
 30
0.0
 10
259.7140671851
 20
122.9372059453
 30
0.0
 10
259.817286167
 20
123.0751008399
 30
0.0
 10
259.9337325533
 20
123.2024264348
 30
0.0
 10
260.1021127755
 20
123.3393789167
 30
0.0
 10
260.2940746486
 20
123.4409820563
 30
0.0
 10
260.4572117381
 20
123.4988115426
 30
0.0
 10
260.6253009635
 20
123.5405618238
 30
0.0
 10
260.7555145559
 20
123.5532683036
 30
0.0
 10
260.8419953547
 20
123.5532683036
 30
0.0
  0
SPLINE
  5
2FC
330
1B
100
AcDbEntity
 67
     1
  8
02___PRT_ALL_AXES
  6
Continuous
 62
     9
100
AcDbSpline
 70
     0
 71
     3
 72
    27
 73
    23
 74
     0
 42
0.000000001
 43
0.0000001
 40
0.0
 40
0.0
 40
0.0
 40
0.0
 40
0.0627592119
 40
0.0941620276
 40
0.1255466058
 40
0.1881853796
 40
0.2507216167
 40
0.281986269
 40
0.3132237933
 40
0.375548573
 40
0.4377954001
 40
0.5
 40
0.5622045999
 40
0.624451427
 40
0.6867762067
 40
0.718013731
 40
0.7492783833
 40
0.8118146204
 40
0.8744533942
 40
0.9058379724
 40
0.9372407881
 40
1.0
 40
1.0
 40
1.0
 40
1.0
 10
260.8419953547
 20
120.9299784285
 30
0.0
 10
260.9284761536
 20
120.9299784285
 30
0.0
 10
261.0586897459
 20
120.9426849082
 30
0.0
 10
261.2267789713
 20
120.9844351894
 30
0.0
 10
261.3899160608
 20
121.0422646757
 30
0.0
 10
261.581877934
 20
121.1438678153
 30
0.0
 10
261.7502581561
 20
121.2808202972
 30
0.0
 10
261.8667045425
 20
121.4081458921
 30
0.0
 10
261.9699235244
 20
121.5460407868
 30
0.0
 10
262.0726175328
 20
121.736314276
 30
0.0
 10
262.1484411266
 20
121.9839913194
 30
0.0
 10
262.1740636882
 20
122.241623366
 30
0.0
 10
262.1484411266
 20
122.4992554127
 30
0.0
 10
262.0726175328
 20
122.746932456
 30
0.0
 10
261.9699235244
 20
122.9372059453
 30
0.0
 10
261.8667045425
 20
123.0751008399
 30
0.0
 10
261.7502581561
 20
123.2024264348
 30
0.0
 10
261.581877934
 20
123.3393789167
 30
0.0
 10
261.3899160608
 20
123.4409820563
 30
0.0
 10
261.2267789713
 20
123.4988115426
 30
0.0
 10
261.0586897459
 20
123.5405618238
 30
0.0
 10
260.9284761536
 20
123.5532683036
 30
0.0
 10
260.8419953547
 20
123.5532683036
 30
0.0
  0
SPLINE
  5
2FD
330
1B
100
AcDbEntity
 67
     1
  8
7_ALL_FEATURES
  6
Continuous
 62
     7
100
AcDbSpline
 70
     0
 71
     3
 72
    22
 73
    18
 74
     0
 42
0.000000001
 43
0.0000001
 40
0.0
 40
0.0
 40
0.0
 40
0.0
 40
0.1369765709
 40
0.2049755442
 40
0.2723389095
 40
0.3388844977
 40
0.4044554364
 40
0.4689261269
 40
0.5322078696
 40
0.5942539134
 40
0.6550636185
 40
0.714685277
 40
0.7732171076
 40
0.8308058851
 40
0.8876427267
 40
0.9439557257
 40
1.0
 40
1.0
 40
1.0
 40
1.0
 10
165.3419953547
 20
147.3917112257
 30
0.0
 10
165.6681930707
 20
147.3917112257
 30
0.0
 10
166.1575544638
 20
147.3526667704
 30
0.0
 10
166.7935022581
 20
147.2229432864
 30
0.0
 10
167.2557175486
 20
147.0883085845
 30
0.0
 10
167.6995587652
 20
146.9174071745
 30
0.0
 10
168.1208445325
 20
146.7118507477
 30
0.0
 10
168.5155133776
 20
146.4735843473
 30
0.0
 10
168.8797749273
 20
146.2048601435
 30
0.0
 10
169.2101132284
 20
145.908219903
 30
0.0
 10
169.5033261163
 20
145.5864737365
 30
0.0
 10
169.7565517142
 20
145.2426786531
 30
0.0
 10
169.9672966987
 20
144.8801135977
 30
0.0
 10
170.1334638428
 20
144.5022649056
 30
0.0
 10
170.2533808266
 20
144.1127657602
 30
0.0
 10
170.3258276787
 20
143.7154862619
 30
0.0
 10
170.3419953547
 20
143.4476400366
 30
0.0
 10
170.3419953547
 20
143.3141755021
 30
0.0
  0
LINE
  5
2FE
330
1B
100
AcDbEntity
 67
     1
  8
7_ALL_FEATURES
  6
Continuous
 62
     7
100
AcDbLine
 10
156.3419953547
 20
147.3917112257
 30
0.0
 11
165.3419953547
 21
147.3917112257
 31
0.0
  0
SPLINE
  5
2FF
330
1B
100
AcDbEntity
 67
     1
  8
7_ALL_FEATURES
  6
Continuous
 62
     7
100
AcDbSpline
 70
     0
 71
     3
 72
    22
 73
    18
 74
     0
 42
0.000000001
 43
0.0000001
 40
0.0
 40
0.0
 40
0.0
 40
0.0
 40
0.0560442743
 40
0.1123572733
 40
0.1691941149
 40
0.2267828924
 40
0.285314723
 40
0.3449363815
 40
0.4057460866
 40
0.4677921304
 40
0.5310738731
 40
0.5955445636
 40
0.6611155023
 40
0.7276610905
 40
0.7950244558
 40
0.8630234291
 40
1.0
 40
1.0
 40
1.0
 40
1.0
 10
151.3419953547
 20
143.3141755021
 30
0.0
 10
151.3419953547
 20
143.4476400366
 30
0.0
 10
151.3581630308
 20
143.7154862619
 30
0.0
 10
151.4306098829
 20
144.1127657602
 30
0.0
 10
151.5505268667
 20
144.5022649056
 30
0.0
 10
151.7166940107
 20
144.8801135977
 30
0.0
 10
151.9274389953
 20
145.2426786531
 30
0.0
 10
152.1806645932
 20
145.5864737365
 30
0.0
 10
152.4738774811
 20
145.908219903
 30
0.0
 10
152.8042157822
 20
146.2048601435
 30
0.0
 10
153.1684773319
 20
146.4735843473
 30
0.0
 10
153.563146177
 20
146.7118507477
 30
0.0
 10
153.9844319442
 20
146.9174071745
 30
0.0
 10
154.4282731609
 20
147.0883085845
 30
0.0
 10
154.8904884513
 20
147.2229432864
 30
0.0
 10
155.5264362457
 20
147.3526667704
 30
0.0
 10
156.0157976388
 20
147.3917112257
 30
0.0
 10
156.3419953547
 20
147.3917112257
 30
0.0
  0
LINE
  5
300
330
1B
100
AcDbEntity
 67
     1
  8
7_ALL_FEATURES
  6
Continuous
 62
     7
100
AcDbLine
 10
170.3419953547
 20
143.3141755021
 30
0.0
 11
170.3419953547
 21
142.4460549932
 31
0.0
  0
LINE
  5
301
330
1B
100
AcDbEntity
 67
     1
  8
7_ALL_FEATURES
  6
Continuous
 62
     7
100
AcDbLine
 10
151.3419953547
 20
143.3141755021
 30
0.0
 11
151.3419953547
 21
142.4460549932
 31
0.0
  0
LINE
  5
302
330
1B
100
AcDbEntity
 67
     1
  8
7_ALL_FEATURES
  6
Continuous
 62
     9
100
AcDbLine
 10
156.3419953547
 20
147.3917112257
 30
0.0
 11
156.3419953547
 21
146.5235907168
 31
0.0
  0
LINE
  5
303
330
1B
100
AcDbEntity
 67
     1
  8
7_ALL_FEATURES
  6
Continuous
 62
     9
100
AcDbLine
 10
165.3419953547
 20
147.3917112257
 30
0.0
 11
165.3419953547
 21
146.5235907168
 31
0.0
  0
SPLINE
  5
304
330
1B
100
AcDbEntity
 67
     1
  8
7_ALL_FEATURES
  6
Continuous
 62
     7
100
AcDbSpline
 70
     0
 71
     3
 72
    22
 73
    18
 74
     0
 42
0.000000001
 43
0.0000001
 40
0.0
 40
0.0
 40
0.0
 40
0.0
 40
0.1369765709
 40
0.2049755442
 40
0.2723389095
 40
0.3388844977
 40
0.4044554364
 40
0.4689261269
 40
0.5322078696
 40
0.5942539134
 40
0.6550636185
 40
0.714685277
 40
0.7732171076
 40
0.8308058851
 40
0.8876427267
 40
0.9439557257
 40
1.0
 40
1.0
 40
1.0
 40
1.0
 10
265.3419953547
 20
147.3917112257
 30
0.0
 10
265.6681930707
 20
147.3917112257
 30
0.0
 10
266.1575544638
 20
147.3526667704
 30
0.0
 10
266.7935022581
 20
147.2229432864
 30
0.0
 10
267.2557175486
 20
147.0883085845
 30
0.0
 10
267.6995587652
 20
146.9174071745
 30
0.0
 10
268.1208445325
 20
146.7118507477
 30
0.0
 10
268.5155133776
 20
146.4735843473
 30
0.0
 10
268.8797749273
 20
146.2048601435
 30
0.0
 10
269.2101132284
 20
145.908219903
 30
0.0
 10
269.5033261163
 20
145.5864737365
 30
0.0
 10
269.7565517142
 20
145.2426786531
 30
0.0
 10
269.9672966987
 20
144.8801135977
 30
0.0
 10
270.1334638428
 20
144.5022649056
 30
0.0
 10
270.2533808266
 20
144.1127657602
 30
0.0
 10
270.3258276787
 20
143.7154862619
 30
0.0
 10
270.3419953547
 20
143.4476400366
 30
0.0
 10
270.3419953547
 20
143.3141755021
 30
0.0
  0
LINE
  5
305
330
1B
100
AcDbEntity
 67
     1
  8
7_ALL_FEATURES
  6
Continuous
 62
     7
100
AcDbLine
 10
256.3419953547
 20
147.3917112257
 30
0.0
 11
265.3419953547
 21
147.3917112257
 31
0.0
  0
SPLINE
  5
306
330
1B
100
AcDbEntity
 67
     1
  8
7_ALL_FEATURES
  6
Continuous
 62
     7
100
AcDbSpline
 70
     0
 71
     3
 72
    22
 73
    18
 74
     0
 42
0.000000001
 43
0.0000001
 40
0.0
 40
0.0
 40
0.0
 40
0.0
 40
0.0560442743
 40
0.1123572733
 40
0.1691941149
 40
0.2267828924
 40
0.285314723
 40
0.3449363815
 40
0.4057460866
 40
0.4677921304
 40
0.5310738731
 40
0.5955445636
 40
0.6611155023
 40
0.7276610905
 40
0.7950244558
 40
0.8630234291
 40
1.0
 40
1.0
 40
1.0
 40
1.0
 10
251.3419953547
 20
143.3141755021
 30
0.0
 10
251.3419953547
 20
143.4476400366
 30
0.0
 10
251.3581630308
 20
143.7154862619
 30
0.0
 10
251.4306098829
 20
144.1127657602
 30
0.0
 10
251.5505268667
 20
144.5022649056
 30
0.0
 10
251.7166940107
 20
144.8801135977
 30
0.0
 10
251.9274389953
 20
145.2426786531
 30
0.0
 10
252.1806645932
 20
145.5864737365
 30
0.0
 10
252.4738774811
 20
145.908219903
 30
0.0
 10
252.8042157822
 20
146.2048601435
 30
0.0
 10
253.1684773319
 20
146.4735843473
 30
0.0
 10
253.563146177
 20
146.7118507477
 30
0.0
 10
253.9844319442
 20
146.9174071745
 30
0.0
 10
254.4282731609
 20
147.0883085845
 30
0.0
 10
254.8904884513
 20
147.2229432864
 30
0.0
 10
255.5264362457
 20
147.3526667704
 30
0.0
 10
256.0157976388
 20
147.3917112257
 30
0.0
 10
256.3419953547
 20
147.3917112257
 30
0.0
  0
LINE
  5
307
330
1B
100
AcDbEntity
 67
     1
  8
7_ALL_FEATURES
  6
Continuous
 62
     7
100
AcDbLine
 10
270.3419953547
 20
143.3141755021
 30
0.0
 11
270.3419953547
 21
142.4460549932
 31
0.0
  0
LINE
  5
308
330
1B
100
AcDbEntity
 67
     1
  8
7_ALL_FEATURES
  6
Continuous
 62
     7
100
AcDbLine
 10
251.3419953547
 20
143.3141755021
 30
0.0
 11
251.3419953547
 21
142.4460549932
 31
0.0
  0
LINE
  5
309
330
1B
100
AcDbEntity
 67
     1
  8
7_ALL_FEATURES
  6
Continuous
 62
     9
100
AcDbLine
 10
256.3419953547
 20
147.3917112257
 30
0.0
 11
256.3419953547
 21
146.5235907168
 31
0.0
  0
LINE
  5
30A
330
1B
100
AcDbEntity
 67
     1
  8
7_ALL_FEATURES
  6
Continuous
 62
     9
100
AcDbLine
 10
265.3419953547
 20
147.3917112257
 30
0.0
 11
265.3419953547
 21
146.5235907168
 31
0.0
  0
LINE
  5
30B
330
1B
100
AcDbEntity
 67
     1
  8
02___PRT_ALL_AXES
  6
Continuous
 62
     3
100
AcDbLine
 10
170.3419953547
 20
110.7693469661
 30
0.0
 11
170.3419953547
 21
107.8235907168
 31
0.0
  0
LINE
  5
30C
330
1B
100
AcDbEntity
 67
     1
  8
02___PRT_ALL_AXES
  6
Continuous
 62
     3
100
AcDbLine
 10
170.3419953547
 20
107.8235907168
 30
0.0
 11
170.3419953547
 21
106.3235907168
 31
0.0
  0
LINE
  5
30D
330
1B
100
AcDbEntity
 67
     1
  8
02___PRT_ALL_AXES
  6
Continuous
 62
     3
100
AcDbLine
 10
151.3419953547
 20
110.7693469661
 30
0.0
 11
151.3419953547
 21
107.8235907168
 31
0.0
  0
LINE
  5
30E
330
1B
100
AcDbEntity
 67
     1
  8
02___PRT_ALL_AXES
  6
Continuous
 62
     3
100
AcDbLine
 10
151.3419953547
 20
107.8235907168
 30
0.0
 11
151.3419953547
 21
106.3235907168
 31
0.0
  0
LINE
  5
30F
330
1B
100
AcDbEntity
 67
     1
  8
02___PRT_ALL_AXES
  6
Continuous
 62
     3
100
AcDbLine
 10
170.3419953547
 20
115.8050510674
 30
0.0
 11
170.3419953547
 21
110.7693469661
 31
0.0
  0
LINE
  5
310
330
1B
100
AcDbEntity
 67
     1
  8
02___PRT_ALL_AXES
  6
Continuous
 62
     3
100
AcDbLine
 10
151.3419953547
 20
106.3235907168
 30
0.0
 11
170.3419953547
 21
106.3235907168
 31
0.0
  0
LINE
  5
311
330
1B
100
AcDbEntity
 67
     1
  8
02___PRT_ALL_AXES
  6
Continuous
 62
     3
100
AcDbLine
 10
151.3419953547
 20
115.8050510674
 30
0.0
 11
151.3419953547
 21
110.7693469661
 31
0.0
  0
LINE
  5
312
330
1B
100
AcDbEntity
 67
     1
  8
02___PRT_ALL_AXES
  6
Continuous
 62
     3
100
AcDbLine
 10
170.3419953547
 20
117.0228033955
 30
0.0
 11
170.3419953547
 21
115.8050510674
 31
0.0
  0
LINE
  5
313
330
1B
100
AcDbEntity
 67
     1
  8
02___PRT_ALL_AXES
  6
Continuous
 62
     3
100
AcDbLine
 10
151.3419953547
 20
117.0228033955
 30
0.0
 11
151.3419953547
 21
115.8050510674
 31
0.0
  0
LINE
  5
314
330
1B
100
AcDbEntity
 67
     1
  8
02___PRT_ALL_AXES
  6
Continuous
 62
     3
100
AcDbLine
 10
170.3419953547
 20
128.0770783886
 30
0.0
 11
170.3419953547
 21
117.0228033955
 31
0.0
  0
LINE
  5
315
330
1B
100
AcDbEntity
 67
     1
  8
02___PRT_ALL_AXES
  6
Continuous
 62
     3
100
AcDbLine
 10
151.3419953547
 20
128.0770783886
 30
0.0
 11
151.3419953547
 21
117.0228033955
 31
0.0
  0
LINE
  5
316
330
1B
100
AcDbEntity
 67
     1
  8
02___PRT_ALL_AXES
  6
Continuous
 62
     3
100
AcDbLine
 10
170.3419953547
 20
129.7033039624
 30
0.0
 11
170.3419953547
 21
128.0770783886
 31
0.0
  0
LINE
  5
317
330
1B
100
AcDbEntity
 67
     1
  8
02___PRT_ALL_AXES
  6
Continuous
 62
     3
100
AcDbLine
 10
151.3419953547
 20
129.7033039624
 30
0.0
 11
151.3419953547
 21
128.0770783886
 31
0.0
  0
LINE
  5
318
330
1B
100
AcDbEntity
 67
     1
  8
02___PRT_ALL_AXES
  6
Continuous
 62
     3
100
AcDbLine
 10
170.3419953547
 20
139.5415723321
 30
0.0
 11
170.3419953547
 21
129.7033039624
 31
0.0
  0
LINE
  5
319
330
1B
100
AcDbEntity
 67
     1
  8
02___PRT_ALL_AXES
  6
Continuous
 62
     3
100
AcDbLine
 10
151.3419953547
 20
139.5415723321
 30
0.0
 11
151.3419953547
 21
129.7033039624
 31
0.0
  0
LINE
  5
31A
330
1B
100
AcDbEntity
 67
     1
  8
02___PRT_ALL_AXES
  6
Continuous
 62
     3
100
AcDbLine
 10
170.3419953547
 20
141.0222419311
 30
0.0
 11
170.3419953547
 21
139.5415723321
 31
0.0
  0
LINE
  5
31B
330
1B
100
AcDbEntity
 67
     1
  8
02___PRT_ALL_AXES
  6
Continuous
 62
     3
100
AcDbLine
 10
151.3419953547
 20
141.0222419311
 30
0.0
 11
151.3419953547
 21
139.5415723321
 31
0.0
  0
LINE
  5
31C
330
1B
100
AcDbEntity
 67
     1
  8
7_ALL_FEATURES
  6
Continuous
 62
     3
100
AcDbLine
 10
170.3419953547
 20
142.4460549932
 30
0.0
 11
170.3419953547
 21
141.0222419311
 31
0.0
  0
LINE
  5
31D
330
1B
100
AcDbEntity
 67
     1
  8
7_ALL_FEATURES
  6
Continuous
 62
     3
100
AcDbLine
 10
151.3419953547
 20
142.4460549932
 30
0.0
 11
151.3419953547
 21
141.0222419311
 31
0.0
  0
SPLINE
  5
31E
330
1B
100
AcDbEntity
 67
     1
  8
7_ALL_FEATURES
  6
Continuous
 62
     3
100
AcDbSpline
 70
     0
 71
     3
 72
    22
 73
    18
 74
     0
 42
0.000000001
 43
0.0000001
 40
0.0
 40
0.0
 40
0.0
 40
0.0
 40
0.1369765709
 40
0.2049755442
 40
0.2723389095
 40
0.3388844977
 40
0.4044554364
 40
0.4689261269
 40
0.5322078696
 40
0.5942539134
 40
0.6550636185
 40
0.714685277
 40
0.7732171076
 40
0.8308058851
 40
0.8876427267
 40
0.9439557257
 40
1.0
 40
1.0
 40
1.0
 40
1.0
 10
156.3419953547
 20
146.5235907168
 30
0.0
 10
156.0157976388
 20
146.5235907168
 30
0.0
 10
155.5264362457
 20
146.4845462615
 30
0.0
 10
154.8904884513
 20
146.3548227775
 30
0.0
 10
154.4282731609
 20
146.2201880756
 30
0.0
 10
153.9844319442
 20
146.0492866656
 30
0.0
 10
153.563146177
 20
145.8437302388
 30
0.0
 10
153.1684773319
 20
145.6054638384
 30
0.0
 10
152.8042157822
 20
145.3367396346
 30
0.0
 10
152.4738774811
 20
145.0400993941
 30
0.0
 10
152.1806645932
 20
144.7183532276
 30
0.0
 10
151.9274389953
 20
144.3745581442
 30
0.0
 10
151.7166940107
 20
144.0119930887
 30
0.0
 10
151.5505268667
 20
143.6341443967
 30
0.0
 10
151.4306098829
 20
143.2446452513
 30
0.0
 10
151.3581630308
 20
142.847365753
 30
0.0
 10
151.3419953547
 20
142.5795195276
 30
0.0
 10
151.3419953547
 20
142.4460549932
 30
0.0
  0
LINE
  5
31F
330
1B
100
AcDbEntity
 67
     1
  8
7_ALL_FEATURES
  6
Continuous
 62
     3
100
AcDbLine
 10
156.3419953547
 20
146.5235907168
 30
0.0
 11
165.3419953547
 21
146.5235907168
 31
0.0
  0
LINE
  5
320
330
1B
100
AcDbEntity
 67
     1
  8
02___PRT_ALL_AXES
  6
Continuous
 62
     9
100
AcDbLine
 10
151.3419953547
 20
141.0222419311
 30
0.0
 11
170.3419953547
 21
141.0222419311
 31
0.0
  0
LINE
  5
321
330
1B
100
AcDbEntity
 67
     1
  8
02___PRT_ALL_AXES
  6
Continuous
 62
     9
100
AcDbLine
 10
151.3419953547
 20
139.5415723321
 30
0.0
 11
170.3419953547
 21
139.5415723321
 31
0.0
  0
LINE
  5
322
330
1B
100
AcDbEntity
 67
     1
  8
02___PRT_ALL_AXES
  6
Continuous
 62
     9
100
AcDbLine
 10
151.3419953547
 20
129.7033039624
 30
0.0
 11
170.3419953547
 21
129.7033039624
 31
0.0
  0
LINE
  5
323
330
1B
100
AcDbEntity
 67
     1
  8
02___PRT_ALL_AXES
  6
Continuous
 62
     9
100
AcDbLine
 10
151.3419953547
 20
128.0770783886
 30
0.0
 11
170.3419953547
 21
128.0770783886
 31
0.0
  0
LINE
  5
324
330
1B
100
AcDbEntity
 67
     1
  8
02___PRT_ALL_AXES
  6
Continuous
 62
     9
100
AcDbLine
 10
151.3419953547
 20
117.0228033955
 30
0.0
 11
170.3419953547
 21
117.0228033955
 31
0.0
  0
LINE
  5
325
330
1B
100
AcDbEntity
 67
     1
  8
02___PRT_ALL_AXES
  6
Continuous
 62
     9
100
AcDbLine
 10
151.3419953547
 20
115.8050510674
 30
0.0
 11
170.3419953547
 21
115.8050510674
 31
0.0
  0
LINE
  5
326
330
1B
100
AcDbEntity
 67
     1
  8
02___PRT_ALL_AXES
  6
Continuous
 62
     3
100
AcDbLine
 10
151.3419953547
 20
110.7693469661
 30
0.0
 11
170.3419953547
 21
110.7693469661
 31
0.0
  0
SPLINE
  5
327
330
1B
100
AcDbEntity
 67
     1
  8
7_ALL_FEATURES
  6
Continuous
 62
     3
100
AcDbSpline
 70
     0
 71
     3
 72
    22
 73
    18
 74
     0
 42
0.000000001
 43
0.0000001
 40
0.0
 40
0.0
 40
0.0
 40
0.0
 40
0.0560442743
 40
0.1123572733
 40
0.1691941149
 40
0.2267828924
 40
0.285314723
 40
0.3449363815
 40
0.4057460866
 40
0.4677921304
 40
0.5310738731
 40
0.5955445636
 40
0.6611155023
 40
0.7276610905
 40
0.7950244558
 40
0.8630234291
 40
1.0
 40
1.0
 40
1.0
 40
1.0
 10
170.3419953547
 20
142.4460549932
 30
0.0
 10
170.3419953547
 20
142.5795195276
 30
0.0
 10
170.3258276787
 20
142.847365753
 30
0.0
 10
170.2533808266
 20
143.2446452513
 30
0.0
 10
170.1334638428
 20
143.6341443967
 30
0.0
 10
169.9672966987
 20
144.0119930887
 30
0.0
 10
169.7565517142
 20
144.3745581442
 30
0.0
 10
169.5033261163
 20
144.7183532276
 30
0.0
 10
169.2101132284
 20
145.0400993941
 30
0.0
 10
168.8797749273
 20
145.3367396346
 30
0.0
 10
168.5155133776
 20
145.6054638384
 30
0.0
 10
168.1208445325
 20
145.8437302388
 30
0.0
 10
167.6995587652
 20
146.0492866656
 30
0.0
 10
167.2557175486
 20
146.2201880756
 30
0.0
 10
166.7935022581
 20
146.3548227775
 30
0.0
 10
166.1575544638
 20
146.4845462615
 30
0.0
 10
165.6681930707
 20
146.5235907168
 30
0.0
 10
165.3419953547
 20
146.5235907168
 30
0.0
  0
LINE
  5
328
330
1B
100
AcDbEntity
 67
     1
  8
02___PRT_ALL_AXES
  6
Continuous
 62
     3
100
AcDbLine
 10
270.3419953547
 20
110.7693469661
 30
0.0
 11
270.3419953547
 21
107.8235907168
 31
0.0
  0
LINE
  5
329
330
1B
100
AcDbEntity
 67
     1
  8
02___PRT_ALL_AXES
  6
Continuous
 62
     3
100
AcDbLine
 10
270.3419953547
 20
107.8235907168
 30
0.0
 11
270.3419953547
 21
106.3235907168
 31
0.0
  0
LINE
  5
32A
330
1B
100
AcDbEntity
 67
     1
  8
02___PRT_ALL_AXES
  6
Continuous
 62
     3
100
AcDbLine
 10
251.3419953547
 20
110.7693469661
 30
0.0
 11
251.3419953547
 21
107.8235907168
 31
0.0
  0
LINE
  5
32B
330
1B
100
AcDbEntity
 67
     1
  8
02___PRT_ALL_AXES
  6
Continuous
 62
     3
100
AcDbLine
 10
251.3419953547
 20
107.8235907168
 30
0.0
 11
251.3419953547
 21
106.3235907168
 31
0.0
  0
LINE
  5
32C
330
1B
100
AcDbEntity
 67
     1
  8
02___PRT_ALL_AXES
  6
Continuous
 62
     3
100
AcDbLine
 10
270.3419953547
 20
115.8050510674
 30
0.0
 11
270.3419953547
 21
110.7693469661
 31
0.0
  0
LINE
  5
32D
330
1B
100
AcDbEntity
 67
     1
  8
02___PRT_ALL_AXES
  6
Continuous
 62
     3
100
AcDbLine
 10
251.3419953547
 20
106.3235907168
 30
0.0
 11
270.3419953547
 21
106.3235907168
 31
0.0
  0
LINE
  5
32E
330
1B
100
AcDbEntity
 67
     1
  8
02___PRT_ALL_AXES
  6
Continuous
 62
     3
100
AcDbLine
 10
251.3419953547
 20
115.8050510674
 30
0.0
 11
251.3419953547
 21
110.7693469661
 31
0.0
  0
LINE
  5
32F
330
1B
100
AcDbEntity
 67
     1
  8
02___PRT_ALL_AXES
  6
Continuous
 62
     3
100
AcDbLine
 10
270.3419953547
 20
117.0228033955
 30
0.0
 11
270.3419953547
 21
115.8050510674
 31
0.0
  0
LINE
  5
330
330
1B
100
AcDbEntity
 67
     1
  8
02___PRT_ALL_AXES
  6
Continuous
 62
     3
100
AcDbLine
 10
251.3419953547
 20
117.0228033955
 30
0.0
 11
251.3419953547
 21
115.8050510674
 31
0.0
  0
LINE
  5
331
330
1B
100
AcDbEntity
 67
     1
  8
02___PRT_ALL_AXES
  6
Continuous
 62
     3
100
AcDbLine
 10
270.3419953547
 20
128.0770783886
 30
0.0
 11
270.3419953547
 21
117.0228033955
 31
0.0
  0
LINE
  5
332
330
1B
100
AcDbEntity
 67
     1
  8
02___PRT_ALL_AXES
  6
Continuous
 62
     3
100
AcDbLine
 10
251.3419953547
 20
128.0770783886
 30
0.0
 11
251.3419953547
 21
117.0228033955
 31
0.0
  0
LINE
  5
333
330
1B
100
AcDbEntity
 67
     1
  8
02___PRT_ALL_AXES
  6
Continuous
 62
     3
100
AcDbLine
 10
270.3419953547
 20
129.7033039624
 30
0.0
 11
270.3419953547
 21
128.0770783886
 31
0.0
  0
LINE
  5
334
330
1B
100
AcDbEntity
 67
     1
  8
02___PRT_ALL_AXES
  6
Continuous
 62
     3
100
AcDbLine
 10
251.3419953547
 20
129.7033039624
 30
0.0
 11
251.3419953547
 21
128.0770783886
 31
0.0
  0
LINE
  5
335
330
1B
100
AcDbEntity
 67
     1
  8
02___PRT_ALL_AXES
  6
Continuous
 62
     3
100
AcDbLine
 10
270.3419953547
 20
139.5415723321
 30
0.0
 11
270.3419953547
 21
129.7033039624
 31
0.0
  0
LINE
  5
336
330
1B
100
AcDbEntity
 67
     1
  8
02___PRT_ALL_AXES
  6
Continuous
 62
     3
100
AcDbLine
 10
251.3419953547
 20
139.5415723321
 30
0.0
 11
251.3419953547
 21
129.7033039624
 31
0.0
  0
LINE
  5
337
330
1B
100
AcDbEntity
 67
     1
  8
02___PRT_ALL_AXES
  6
Continuous
 62
     3
100
AcDbLine
 10
270.3419953547
 20
141.0222419311
 30
0.0
 11
270.3419953547
 21
139.5415723321
 31
0.0
  0
LINE
  5
338
330
1B
100
AcDbEntity
 67
     1
  8
02___PRT_ALL_AXES
  6
Continuous
 62
     3
100
AcDbLine
 10
251.3419953547
 20
141.0222419311
 30
0.0
 11
251.3419953547
 21
139.5415723321
 31
0.0
  0
LINE
  5
339
330
1B
100
AcDbEntity
 67
     1
  8
7_ALL_FEATURES
  6
Continuous
 62
     3
100
AcDbLine
 10
270.3419953547
 20
142.4460549932
 30
0.0
 11
270.3419953547
 21
141.0222419311
 31
0.0
  0
LINE
  5
33A
330
1B
100
AcDbEntity
 67
     1
  8
7_ALL_FEATURES
  6
Continuous
 62
     3
100
AcDbLine
 10
251.3419953547
 20
142.4460549932
 30
0.0
 11
251.3419953547
 21
141.0222419311
 31
0.0
  0
SPLINE
  5
33B
330
1B
100
AcDbEntity
 67
     1
  8
7_ALL_FEATURES
  6
Continuous
 62
     3
100
AcDbSpline
 70
     0
 71
     3
 72
    22
 73
    18
 74
     0
 42
0.000000001
 43
0.0000001
 40
0.0
 40
0.0
 40
0.0
 40
0.0
 40
0.1369765709
 40
0.2049755442
 40
0.2723389095
 40
0.3388844977
 40
0.4044554364
 40
0.4689261269
 40
0.5322078696
 40
0.5942539134
 40
0.6550636185
 40
0.714685277
 40
0.7732171076
 40
0.8308058851
 40
0.8876427267
 40
0.9439557257
 40
1.0
 40
1.0
 40
1.0
 40
1.0
 10
256.3419953547
 20
146.5235907168
 30
0.0
 10
256.0157976388
 20
146.5235907168
 30
0.0
 10
255.5264362457
 20
146.4845462615
 30
0.0
 10
254.8904884513
 20
146.3548227775
 30
0.0
 10
254.4282731609
 20
146.2201880756
 30
0.0
 10
253.9844319442
 20
146.0492866656
 30
0.0
 10
253.563146177
 20
145.8437302388
 30
0.0
 10
253.1684773319
 20
145.6054638384
 30
0.0
 10
252.8042157822
 20
145.3367396346
 30
0.0
 10
252.4738774811
 20
145.0400993941
 30
0.0
 10
252.1806645932
 20
144.7183532276
 30
0.0
 10
251.9274389953
 20
144.3745581442
 30
0.0
 10
251.7166940107
 20
144.0119930887
 30
0.0
 10
251.5505268667
 20
143.6341443967
 30
0.0
 10
251.4306098829
 20
143.2446452513
 30
0.0
 10
251.3581630308
 20
142.847365753
 30
0.0
 10
251.3419953547
 20
142.5795195276
 30
0.0
 10
251.3419953547
 20
142.4460549932
 30
0.0
  0
LINE
  5
33C
330
1B
100
AcDbEntity
 67
     1
  8
7_ALL_FEATURES
  6
Continuous
 62
     3
100
AcDbLine
 10
256.3419953547
 20
146.5235907168
 30
0.0
 11
265.3419953547
 21
146.5235907168
 31
0.0
  0
LINE
  5
33D
330
1B
100
AcDbEntity
 67
     1
  8
02___PRT_ALL_AXES
  6
Continuous
 62
     9
100
AcDbLine
 10
251.3419953547
 20
141.0222419311
 30
0.0
 11
270.3419953547
 21
141.0222419311
 31
0.0
  0
LINE
  5
33E
330
1B
100
AcDbEntity
 67
     1
  8
02___PRT_ALL_AXES
  6
Continuous
 62
     9
100
AcDbLine
 10
251.3419953547
 20
139.5415723321
 30
0.0
 11
270.3419953547
 21
139.5415723321
 31
0.0
  0
LINE
  5
33F
330
1B
100
AcDbEntity
 67
     1
  8
02___PRT_ALL_AXES
  6
Continuous
 62
     9
100
AcDbLine
 10
251.3419953547
 20
129.7033039624
 30
0.0
 11
270.3419953547
 21
129.7033039624
 31
0.0
  0
LINE
  5
340
330
1B
100
AcDbEntity
 67
     1
  8
02___PRT_ALL_AXES
  6
Continuous
 62
     9
100
AcDbLine
 10
251.3419953547
 20
128.0770783886
 30
0.0
 11
270.3419953547
 21
128.0770783886
 31
0.0
  0
LINE
  5
341
330
1B
100
AcDbEntity
 67
     1
  8
02___PRT_ALL_AXES
  6
Continuous
 62
     9
100
AcDbLine
 10
251.3419953547
 20
117.0228033955
 30
0.0
 11
270.3419953547
 21
117.0228033955
 31
0.0
  0
LINE
  5
342
330
1B
100
AcDbEntity
 67
     1
  8
02___PRT_ALL_AXES
  6
Continuous
 62
     9
100
AcDbLine
 10
251.3419953547
 20
115.8050510674
 30
0.0
 11
270.3419953547
 21
115.8050510674
 31
0.0
  0
LINE
  5
343
330
1B
100
AcDbEntity
 67
     1
  8
02___PRT_ALL_AXES
  6
Continuous
 62
     3
100
AcDbLine
 10
251.3419953547
 20
110.7693469661
 30
0.0
 11
270.3419953547
 21
110.7693469661
 31
0.0
  0
SPLINE
  5
344
330
1B
100
AcDbEntity
 67
     1
  8
7_ALL_FEATURES
  6
Continuous
 62
     3
100
AcDbSpline
 70
     0
 71
     3
 72
    22
 73
    18
 74
     0
 42
0.000000001
 43
0.0000001
 40
0.0
 40
0.0
 40
0.0
 40
0.0
 40
0.0560442743
 40
0.1123572733
 40
0.1691941149
 40
0.2267828924
 40
0.285314723
 40
0.3449363815
 40
0.4057460866
 40
0.4677921304
 40
0.5310738731
 40
0.5955445636
 40
0.6611155023
 40
0.7276610905
 40
0.7950244558
 40
0.8630234291
 40
1.0
 40
1.0
 40
1.0
 40
1.0
 10
270.3419953547
 20
142.4460549932
 30
0.0
 10
270.3419953547
 20
142.5795195276
 30
0.0
 10
270.3258276787
 20
142.847365753
 30
0.0
 10
270.2533808266
 20
143.2446452513
 30
0.0
 10
270.1334638428
 20
143.6341443967
 30
0.0
 10
269.9672966987
 20
144.0119930887
 30
0.0
 10
269.7565517142
 20
144.3745581442
 30
0.0
 10
269.5033261163
 20
144.7183532276
 30
0.0
 10
269.2101132284
 20
145.0400993941
 30
0.0
 10
268.8797749273
 20
145.3367396346
 30
0.0
 10
268.5155133776
 20
145.6054638384
 30
0.0
 10
268.1208445325
 20
145.8437302388
 30
0.0
 10
267.6995587652
 20
146.0492866656
 30
0.0
 10
267.2557175486
 20
146.2201880756
 30
0.0
 10
266.7935022581
 20
146.3548227775
 30
0.0
 10
266.1575544638
 20
146.4845462615
 30
0.0
 10
265.6681930707
 20
146.5235907168
 30
0.0
 10
265.3419953547
 20
146.5235907168
 30
0.0
  0
DIMENSION
  5
345
330
1B
100
AcDbEntity
 67
     1
  8
0
  6
Continuous
 62
     2
100
AcDbDimension
280
     0
  2
*D1
 10
88.5429932414
 20
86.502738758
 30
0.0
 11
72.0404416351
 21
86.502738758
 31
0.0
 70
   160
 71
     5
 42
-1.0
 73
     0
 74
     0
 75
     0
  3
DIMSTYLE_1
100
AcDbAlignedDimension
 13
55.5506205677
 23
101.1397858182
 33
0.0
 14
88.5429932414
 24
101.4219859871
 34
0.0
100
AcDbRotatedDimension
  0
DIMENSION
  5
346
330
1B
100
AcDbEntity
 67
     1
  8
0
  6
Continuous
 62
     2
100
AcDbDimension
280
     0
  2
*D2
 10
39.6424986238
 20
147.3917112257
 30
0.0
 11
39.6424986238
 21
126.7787961245
 31
0.0
 70
   160
 71
     5
 42
-1.0
 73
     0
 74
     0
 75
     0
  3
DIMSTYLE_1
100
AcDbAlignedDimension
 13
50.0846155001
 23
106.3235907168
 33
0.0
 14
51.9574620473
 24
147.3917112257
 34
0.0
 50
90.0
100
AcDbRotatedDimension
  0
DIMENSION
  5
347
330
1B
100
AcDbEntity
 67
     1
  8
0
  6
Continuous
 62
     2
100
AcDbDimension
280
     0
  2
*D3
 10
170.3419953547
 20
158.4884383385
 30
0.0
 11
160.9733564758
 21
158.4884383385
 31
0.0
 70
   160
 71
     5
 42
-1.0
 73
     0
 74
     0
 75
     0
  3
DIMSTYLE_2
100
AcDbAlignedDimension
 13
151.3419953547
 23
151.9583797645
 33
0.0
 14
170.3419953547
 24
151.6761795956
 34
0.0
100
AcDbRotatedDimension
  0
LINE
  5
348
330
1B
100
AcDbEntity
 67
     1
  8
0
  6
Continuous
 62
     2
100
AcDbLine
 10
162.2093412156
 20
71.175706075
 30
0.0
 11
292.2093412156
 21
71.175706075
 31
0.0
  0
LINE
  5
349
330
1B
100
AcDbEntity
 67
     1
  8
0
  6
Continuous
 62
     2
100
AcDbLine
 10
162.2093412156
 20
71.175706075
 30
0.0
 11
162.2093412156
 21
5.175706075
 31
0.0
  0
LINE
  5
34A
330
1B
100
AcDbEntity
 67
     1
  8
0
  6
Continuous
 62
     2
100
AcDbLine
 10
192.2093412156
 20
63.175706075
 30
0.0
 11
292.2093412156
 21
63.175706075
 31
0.0
  0
LINE
  5
34B
330
1B
100
AcDbEntity
 67
     1
  8
0
  6
Continuous
 62
     2
100
AcDbLine
 10
162.2093412156
 20
55.175706075
 30
0.0
 11
292.2093412156
 21
55.175706075
 31
0.0
  0
LINE
  5
34C
330
1B
100
AcDbEntity
 67
     1
  8
0
  6
Continuous
 62
     2
100
AcDbLine
 10
192.2093412156
 20
49.175706075
 30
0.0
 11
292.2093412156
 21
49.175706075
 31
0.0
  0
LINE
  5
34D
330
1B
100
AcDbEntity
 67
     1
  8
0
  6
Continuous
 62
     2
100
AcDbLine
 10
192.2093412156
 20
43.175706075
 30
0.0
 11
292.2093412156
 21
43.175706075
 31
0.0
  0
LINE
  5
34E
330
1B
100
AcDbEntity
 67
     1
  8
0
  6
Continuous
 62
     2
100
AcDbLine
 10
192.2093412156
 20
37.175706075
 30
0.0
 11
292.2093412156
 21
37.175706075
 31
0.0
  0
LINE
  5
34F
330
1B
100
AcDbEntity
 67
     1
  8
0
  6
Continuous
 62
     2
100
AcDbLine
 10
192.2093412156
 20
31.175706075
 30
0.0
 11
292.2093412156
 21
31.175706075
 31
0.0
  0
LINE
  5
350
330
1B
100
AcDbEntity
 67
     1
  8
0
  6
Continuous
 62
     2
100
AcDbLine
 10
192.2093412156
 20
25.175706075
 30
0.0
 11
292.2093412156
 21
25.175706075
 31
0.0
  0
LINE
  5
351
330
1B
100
AcDbEntity
 67
     1
  8
0
  6
Continuous
 62
     2
100
AcDbLine
 10
162.2093412156
 20
19.175706075
 30
0.0
 11
292.2093412156
 21
19.175706075
 31
0.0
  0
LINE
  5
352
330
1B
100
AcDbEntity
 67
     1
  8
0
  6
Continuous
 62
     2
100
AcDbLine
 10
162.2093412156
 20
13.175706075
 30
0.0
 11
292.2093412156
 21
13.175706075
 31
0.0
  0
LINE
  5
353
330
1B
100
AcDbEntity
 67
     1
  8
0
  6
Continuous
 62
     2
100
AcDbLine
 10
162.2093412156
 20
9.175706075
 30
0.0
 11
292.2093412156
 21
9.175706075
 31
0.0
  0
LINE
  5
354
330
1B
100
AcDbEntity
 67
     1
  8
0
  6
Continuous
 62
     2
100
AcDbLine
 10
162.2093412156
 20
5.175706075
 30
0.0
 11
292.2093412156
 21
5.175706075
 31
0.0
  0
LINE
  5
355
330
1B
100
AcDbEntity
 67
     1
  8
0
  6
Continuous
 62
     2
100
AcDbLine
 10
192.2093412156
 20
71.175706075
 30
0.0
 11
192.2093412156
 21
13.175706075
 31
0.0
  0
LINE
  5
356
330
1B
100
AcDbEntity
 67
     1
  8
0
  6
Continuous
 62
     2
100
AcDbLine
 10
212.2093412156
 20
55.175706075
 30
0.0
 11
212.2093412156
 21
49.175706075
 31
0.0
  0
LINE
  5
357
330
1B
100
AcDbEntity
 67
     1
  8
0
  6
Continuous
 62
     2
100
AcDbLine
 10
242.2093412156
 20
25.175706075
 30
0.0
 11
242.2093412156
 21
13.175706075
 31
0.0
  0
LINE
  5
358
330
1B
100
AcDbEntity
 67
     1
  8
0
  6
Continuous
 62
     2
100
AcDbLine
 10
252.2093412156
 20
55.175706075
 30
0.0
 11
252.2093412156
 21
49.175706075
 31
0.0
  0
LINE
  5
359
330
1B
100
AcDbEntity
 67
     1
  8
0
  6
Continuous
 62
     2
100
AcDbLine
 10
252.2093412156
 20
43.175706075
 30
0.0
 11
252.2093412156
 21
37.175706075
 31
0.0
  0
LINE
  5
35A
330
1B
100
AcDbEntity
 67
     1
  8
0
  6
Continuous
 62
     2
100
AcDbLine
 10
272.2093412156
 20
55.175706075
 30
0.0
 11
272.2093412156
 21
49.175706075
 31
0.0
  0
LINE
  5
35B
330
1B
100
AcDbEntity
 67
     1
  8
0
  6
Continuous
 62
     2
100
AcDbLine
 10
282.2093412156
 20
43.175706075
 30
0.0
 11
282.2093412156
 21
37.175706075
 31
0.0
  0
LINE
  5
35C
330
1B
100
AcDbEntity
 67
     1
  8
0
  6
Continuous
 62
     2
100
AcDbLine
 10
292.2093412156
 20
71.175706075
 30
0.0
 11
292.2093412156
 21
5.175706075
 31
0.0
  0
INSERT
  5
35D
330
1B
100
AcDbEntity
 67
     1
  8
0
  6
Continuous
 62
     2
100
AcDbBlockReference
  2
PROIEZIONE_EU_BL0
 10
177.2093412156
 20
62.800706075
 30
0.0
  0
MTEXT
  5
35E
330
1B
100
AcDbEntity
 67
     1
  8
9_SOLID
  6
Continuous
 62
     2
100
AcDbMText
 10
193.6968412156
 20
69.550706075
 30
0.0
 40
1.9
 41
142.3642857143
 46
0.0
 71
     1
 72
     1
  1
EN: Chamfer/radii unlisted 0.3x45°. Remove sharp edges.\PGen. tol.: hole H11, shaft h11, lenght Js12. UNI EN 22768 Medium Grande.
  7
TEXTSTYLE_3
 73
     1
 44
1.0
  0
MTEXT
  5
35F
330
1B
100
AcDbEntity
 67
     1
  8
9_SOLID
  6
Continuous
 62
     2
100
AcDbMText
 10
193.6968412156
 20
61.550706075
 30
0.0
 40
1.9
 41
148.2678571429
 46
0.0
 71
     1
 72
     1
  1
IT: Sm./rac. non quotati 0.3x45°. Eliminare spigoli taglienti.\PToll. gen.: foro H11, albero h11, lunghezza Js12. UNI EN 22768 Grado Medio.
  7
TEXTSTYLE_3
 73
     1
 44
1.0
  0
INSERT
  5
360
330
1B
100
AcDbEntity
 67
     1
  8
0
  6
Continuous
 62
     2
100
AcDbBlockReference
  2
LOGO2_BL1
 10
176.0353882604
 20
37.175706075
 30
0.0
  0
MTEXT
  5
361
330
1B
100
AcDbEntity
 67
     1
  8
9_SOLID
  6
Continuous
 62
     2
100
AcDbMText
 10
193.6968412156
 20
53.425706075
 30
0.0
 40
3.0
 41
22.0714285714
 46
0.0
 71
     1
 72
     1
  1
Pj: 5B0
  7
TEXTSTYLE_3
 73
     1
 44
1.0
  0
MTEXT
  5
362
330
1B
100
AcDbEntity
 67
     1
  8
0
  6
Continuous
 62
     2
100
AcDbMText
 10
213.6968412156
 20
53.425706075
 30
0.0
 40
3.0
 41
41.5714285714
 46
0.0
 71
     1
 72
     1
  1
% Check:  %
  7
TEXTSTYLE_3
 73
     1
 44
1.0
  0
MTEXT
  5
363
330
1B
100
AcDbEntity
 67
     1
  8
9_SOLID
  6
Continuous
 62
     2
100
AcDbMText
 10
253.6968412156
 20
53.425706075
 30
0.0
 40
3.0
 41
19.5
 46
0.0
 71
     1
 72
     1
  1
Rev:00
  7
TEXTSTYLE_3
 73
     1
 44
1.0
  0
MTEXT
  5
364
330
1B
100
AcDbEntity
 67
     1
  8
9_SOLID
  6
Continuous
 62
     2
100
AcDbMText
 10
273.6968412156
 20
53.675706075
 30
0.0
 40
3.0
 41
19.7142857143
 46
0.0
 71
     1
 72
     1
  1
Ver: A
  7
TEXTSTYLE_3
 73
     1
 44
1.0
  0
MTEXT
  5
365
330
1B
100
AcDbEntity
 67
     1
  8
9_SOLID
  6
Continuous
 62
     2
100
AcDbMText
 10
193.6968412156
 20
47.425706075
 30
0.0
 40
3.0
 41
42.9642857143
 46
0.0
 71
     1
 72
     1
  1
Neutral code: 
  7
TEXTSTYLE_3
 73
     1
 44
1.0
  0
MTEXT
  5
366
330
1B
100
AcDbEntity
 67
     1
  8
0
  6
Continuous
 62
     2
100
AcDbMText
 10
193.6968412156
 20
41.425706075
 30
0.0
 40
3.0
 41
22.9285714286
 46
0.0
 71
     1
 72
     1
  1
Code:  
  7
TEXTSTYLE_3
 73
     1
 44
1.0
  0
MTEXT
  5
367
330
1B
100
AcDbEntity
 67
     1
  8
9_SOLID
  6
Continuous
 62
     2
100
AcDbMText
 10
253.6968412156
 20
41.675706075
 30
0.0
 40
3.0
 41
27.8571428571
 46
0.0
 71
     1
 72
     1
  1
Scale: 1:1
  7
TEXTSTYLE_3
 73
     1
 44
1.0
  0
MTEXT
  5
368
330
1B
100
AcDbEntity
 67
     1
  8
9_SOLID
  6
Continuous
 62
     2
100
AcDbMText
 10
287.2093412156
 20
41.675706075
 30
0.0
 40
3.0
 41
8.25
 46
0.0
 71
     2
 72
     1
  1
A4
  7
TEXTSTYLE_3
 73
     1
 44
1.0
  0
MTEXT
  5
369
330
1B
100
AcDbEntity
 67
     1
  8
9_SOLID
  6
Continuous
 62
     2
100
AcDbMText
 10
193.6968412156
 20
35.675706075
 30
0.0
 40
3.0
 41
91.5
 46
0.0
 71
     1
 72
     1
  1
It descr.: COPPIA CLIP TREVI
  7
TEXTSTYLE_3
 73
     1
 44
1.0
  0
MTEXT
  5
36A
330
1B
100
AcDbEntity
 67
     1
  8
0
  6
Continuous
 62
     2
100
AcDbMText
 10
193.6968412156
 20
29.675706075
 30
0.0
 40
3.0
 41
37.5
 46
0.0
 71
     1
 72
     1
  1
En descr.:  
  7
TEXTSTYLE_3
 73
     1
 44
1.0
  0
MTEXT
  5
36B
330
1B
100
AcDbEntity
 67
     1
  8
9_SOLID
  6
Continuous
 62
     2
100
AcDbMText
 10
193.6968412156
 20
23.675706075
 30
0.0
 40
3.0
 41
31.2857142857
 46
0.0
 71
     1
 72
     1
  1
Des.: S.Z.
  7
TEXTSTYLE_3
 73
     1
 44
1.0
  0
MTEXT
  5
36C
330
1B
100
AcDbEntity
 67
     1
  8
9_SOLID
  6
Continuous
 62
     2
100
AcDbMText
 10
243.6968412156
 20
23.675706075
 30
0.0
 40
3.0
 41
34.8214285714
 46
0.0
 71
     1
 72
     1
  1
Check: A.P.
  7
TEXTSTYLE_3
 73
     1
 44
1.0
  0
MTEXT
  5
36D
330
1B
100
AcDbEntity
 67
     1
  8
9_SOLID
  6
Continuous
 62
     2
100
AcDbMText
 10
163.6968412156
 20
17.675706075
 30
0.0
 40
3.0
 41
42.5357142857
 46
0.0
 71
     1
 72
     1
  1
Date: 12.12.18
  7
TEXTSTYLE_3
 73
     1
 44
1.0
  0
MTEXT
  5
36E
330
1B
100
AcDbEntity
 67
     1
  8
0
  6
Continuous
 62
     2
100
AcDbMText
 10
193.6968412156
 20
17.675706075
 30
0.0
 40
3.0
 41
21.75
 46
0.0
 71
     1
 72
     1
  1
Mat.:  
  7
TEXTSTYLE_3
 73
     1
 44
1.0
  0
MTEXT
  5
36F
330
1B
100
AcDbEntity
 67
     1
  8
9_SOLID
  6
Continuous
 62
     2
100
AcDbMText
 10
243.6968412156
 20
17.175706075
 30
0.0
 40
2.0
 41
42.3571428571
 46
0.0
 71
     1
 72
     1
  1
Disegno per catalogo
  7
TEXTSTYLE_3
 73
     1
 44
1.0
  0
MTEXT
  5
370
330
1B
100
AcDbEntity
 67
     1
  8
9_SOLID
  6
Continuous
 62
     2
100
AcDbMText
 10
163.6968412156
 20
12.075706075
 30
0.0
 40
1.8
 41
176.2071428571
 46
0.0
 71
     1
 72
     1
  1
It: A norma di legge si diffida da qualsiasi riproduzione senza nostra autorizzazione esplicita.
  7
TEXTSTYLE_3
 73
     1
 44
1.0
  0
MTEXT
  5
371
330
1B
100
AcDbEntity
 67
     1
  8
9_SOLID
  6
Continuous
 62
     2
100
AcDbMText
 10
163.6968412156
 20
8.075706075
 30
0.0
 40
1.8
 41
158.1428571429
 46
0.0
 71
     1
 72
     1
  1
En: According to the law, beware of any reproduction made without our authorization.
  7
TEXTSTYLE_3
 73
     1
 44
1.0
  0
ENDSEC
  0
SECTION
  2
OBJECTS
  0
DICTIONARY
  5
372
330
0
100
AcDbDictionary
281
     1
  3
ACAD_DETAILVIEWSTYLE
350
3C8
  3
ACAD_GROUP
350
373
  3
ACAD_LAYOUT
350
39B
  3
ACAD_MATERIAL
350
3B7
  3
ACAD_MLEADERSTYLE
350
3BD
  3
ACAD_MLINESTYLE
350
374
  3
ACAD_PLOTSETTINGS
350
376
  3
ACAD_PLOTSTYLENAME
350
377
  3
ACAD_SCALELIST
350
379
  3
ACAD_SECTIONVIEWSTYLE
350
3C9
  3
ACAD_TABLESTYLE
350
3BB
  3
ACAD_VISUALSTYLE
350
39E
  3
ACDB_RECOMPOSE_DATA
350
3C4
  3
AcDbVariableDictionary
350
3C0
  3
APPDATA
350
3BF
  0
DICTIONARY
  5
3C8
102
{ACAD_REACTORS
330
372
102
}
330
372
100
AcDbDictionary
281
     1
  0
DICTIONARY
  5
373
102
{ACAD_REACTORS
330
372
102
}
330
372
100
AcDbDictionary
281
     1
  0
DICTIONARY
  5
39B
102
{ACAD_REACTORS
330
372
102
}
330
372
100
AcDbDictionary
281
     1
  3
Foglio 1
350
39D
  3
Model
350
39C
  0
DICTIONARY
  5
3B7
102
{ACAD_REACTORS
330
372
102
}
330
372
100
AcDbDictionary
281
     1
  3
ByBlock
350
3B9
  3
ByLayer
350
3B8
  3
Global
350
3BA
  0
DICTIONARY
  5
3BD
102
{ACAD_REACTORS
330
372
102
}
330
372
100
AcDbDictionary
281
     1
  3
Standard
350
3BE
  0
DICTIONARY
  5
374
102
{ACAD_REACTORS
330
372
102
}
330
372
100
AcDbDictionary
281
     1
  3
STANDARD
350
375
  0
DICTIONARY
  5
376
102
{ACAD_REACTORS
330
372
102
}
330
372
100
AcDbDictionary
281
     1
  0
ACDBDICTIONARYWDFLT
  5
377
102
{ACAD_REACTORS
330
372
102
}
330
372
100
AcDbDictionary
281
     1
  3
Normal
350
378
100
AcDbDictionaryWithDefault
340
378
  0
DICTIONARY
  5
379
102
{ACAD_REACTORS
330
372
102
}
330
372
100
AcDbDictionary
281
     1
  3
A0
350
37A
  3
A1
350
37B
  3
A2
350
37C
  3
A3
350
37D
  3
A4
350
37E
  3
A5
350
37F
  3
A6
350
380
  3
A7
350
381
  3
A8
350
382
  3
A9
350
383
  3
B0
350
384
  3
B1
350
385
  3
B2
350
386
  3
B3
350
387
  3
B4
350
388
  3
B5
350
389
  3
B6
350
38A
  3
B7
350
38B
  3
B8
350
38C
  3
B9
350
38D
  3
C0
350
38E
  3
C1
350
38F
  3
C2
350
390
  3
C3
350
391
  3
C4
350
392
  3
C5
350
393
  3
C6
350
394
  3
C7
350
395
  3
C8
350
396
  3
C9
350
397
  3
D0
350
398
  3
D1
350
399
  3
D2
350
39A
  0
DICTIONARY
  5
3C9
102
{ACAD_REACTORS
330
372
102
}
330
372
100
AcDbDictionary
281
     1
  0
DICTIONARY
  5
3BB
102
{ACAD_REACTORS
330
372
102
}
330
372
100
AcDbDictionary
281
     1
  3
Standard
350
3BC
  0
DICTIONARY
  5
39E
102
{ACAD_REACTORS
330
372
102
}
330
372
100
AcDbDictionary
281
     1
  3
2dWireframe
350
3A3
  3
Basic
350
3A6
  3
Brighten
350
3AA
  3
ColorChange
350
3AE
  3
Conceptual
350
3A8
  3
Dim
350
3A9
  3
EdgeColorOff
350
3B1
  3
Facepattern
350
3AD
  3
Flat
350
39F
  3
FlatWithEdges
350
3A0
  3
Gouraud
350
3A1
  3
GouraudWithEdges
350
3A2
  3
Hidden
350
3A5
  3
JitterOff
350
3AF
  3
Linepattern
350
3AC
  3
OverhangOff
350
3B0
  3
Realistic
350
3A7
  3
Shaded
350
3B6
  3
Shaded with edges
350
3B5
  3
Shades of Gray
350
3B2
  3
Sketchy
350
3B3
  3
Thicken
350
3AB
  3
Wireframe
350
3A4
  3
X-Ray
350
3B4
  0
XRECORD
  5
3C4
102
{ACAD_REACTORS
330
372
102
}
330
372
100
AcDbXrecord
280
     1
 90
        1
330
3BC
  0
DICTIONARY
  5
3C0
102
{ACAD_REACTORS
330
372
102
}
330
372
100
AcDbDictionary
281
     1
  3
CANNOSCALE
350
3C1
  3
CMLEADERSTYLE
350
3C6
  3
CTABLESTYLE
350
3C5
  3
MSLTSCALE
350
3C7
  0
DICTIONARY
  5
3BF
102
{ACAD_REACTORS
330
372
102
}
330
372
100
AcDbDictionary
281
     1
  0
LAYOUT
  5
39D
102
{ACAD_REACTORS
330
39B
102
}
330
39B
100
AcDbPlotSettings
  1

  2
none_device
  4
ISO_A3_(420.00_x_297.00_MM)
  6

 40
7.5
 41
20.0
 42
7.5
 43
20.0
 44
420.0
 45
297.0
 46
0.0
 47
0.0
 48
0.0
 49
0.0
140
0.0
141
0.0
142
1.0
143
0.8171206225680934
 70
   688
 72
     1
 73
     0
 74
     1
  7

 75
     0
 76
     0
 77
     2
 78
   300
147
1.223809523809524
148
0.0
149
0.0
100
AcDbLayout
  1
Foglio 1
 70
     1
 71
     1
 10
0.0
 20
0.0
 11
412.5
 21
277.0
 12
0.0
 22
0.0
 32
0.0
 14
0.0
 24
0.0
 34
0.0
 15
299.7485078822667
 25
210.0
 35
0.0
146
0.0
 13
0.0
 23
0.0
 33
0.0
 16
1.0
 26
0.0
 36
0.0
 17
0.0
 27
1.0
 37
0.0
 76
     0
330
1B
331
294
  0
LAYOUT
  5
39C
102
{ACAD_REACTORS
330
39B
102
}
330
39B
100
AcDbPlotSettings
  1

  2
none_device
  4
Letter_(8.50_x_11.00_Inches)
  6

 40
6.35
 41
6.35
 42
6.35
 43
6.35
 44
215.9
 45
279.4
 46
0.0
 47
0.0
 48
0.0
 49
0.0
140
0.0
141
0.0
142
1.0
143
37.125000000375
 70
  1712
 72
     0
 73
     0
 74
     0
  7

 75
     0
 76
     0
 77
     2
 78
   300
147
0.0269360269357549
148
0.000000038100319
149
0.0
100
AcDbLayout
  1
Model
 70
     1
 71
     0
 10
0.0
 20
0.0
 11
297.0
 21
210.0
 12
0.0
 22
0.0
 32
0.0
 14
0.0
 24
0.0
 34
0.0
 15
297.0
 25
210.0
 35
0.0
146
0.0
 13
0.0
 23
0.0
 33
0.0
 16
1.0
 26
0.0
 36
0.0
 17
0.0
 27
1.0
 37
0.0
 76
     0
330
1F
331
1F4
  0
MATERIAL
  5
3B9
102
{ACAD_REACTORS
330
3B7
102
}
330
3B7
100
AcDbMaterial
  1
ByBlock
 72
     1
 94
      127
  0
MATERIAL
  5
3B8
102
{ACAD_REACTORS
330
3B7
102
}
330
3B7
100
AcDbMaterial
  1
ByLayer
 72
     1
 94
      127
  0
MATERIAL
  5
3BA
102
{ACAD_REACTORS
330
3B7
102
}
330
3B7
100
AcDbMaterial
  1
Global
 72
     1
 94
      127
  0
MLEADERSTYLE
  5
3BE
102
{ACAD_REACTORS
330
3BD
102
}
330
3BD
100
AcDbMLeaderStyle
179
     2
170
     2
171
     1
172
     0
 90
        2
 40
0.0
 41
0.0
173
     1
 91
-1056964608
340
14
 92
       -2
290
     1
 42
2.0
291
     1
 43
8.0
  3
Standard
341
0
 44
4.0
300

342
11
174
     1
178
     1
175
     1
176
     0
 93
-1056964608
 45
4.0
292
     0
297
     0
 46
4.0
343
0
 94
-1056964608
 47
1.0
 49
1.0
140
1.0
293
     1
141
0.0
294
     1
177
     0
142
1.0
295
     0
296
     0
143
3.75
271
     0
272
     9
273
     9
298
     0
  0
MLINESTYLE
  5
375
102
{ACAD_REACTORS
330
374
102
}
330
374
100
AcDbMlineStyle
  2
STANDARD
 70
     0
  3

 62
   256
 51
90.0
 52
90.0
 71
     2
 49
0.5
 62
   256
  6
BYLAYER
 49
-0.5
 62
   256
  6
BYLAYER
  0
ACDBPLACEHOLDER
  5
378
102
{ACAD_REACTORS
330
377
102
}
330
377
  0
SCALE
  5
37A
102
{ACAD_REACTORS
330
379
102
}
330
379
100
AcDbScale
 70
     0
300
1:1
140
1.0
141
1.0
290
     1
  0
SCALE
  5
37B
102
{ACAD_REACTORS
330
379
102
}
330
379
100
AcDbScale
 70
     0
300
1:2
140
1.0
141
2.0
290
     0
  0
SCALE
  5
37C
102
{ACAD_REACTORS
330
379
102
}
330
379
100
AcDbScale
 70
     0
300
1:4
140
1.0
141
4.0
290
     0
  0
SCALE
  5
37D
102
{ACAD_REACTORS
330
379
102
}
330
379
100
AcDbScale
 70
     0
300
1:5
140
1.0
141
5.0
290
     0
  0
SCALE
  5
37E
102
{ACAD_REACTORS
330
379
102
}
330
379
100
AcDbScale
 70
     0
300
1:8
140
1.0
141
8.0
290
     0
  0
SCALE
  5
37F
102
{ACAD_REACTORS
330
379
102
}
330
379
100
AcDbScale
 70
     0
300
1:10
140
1.0
141
10.0
290
     0
  0
SCALE
  5
380
102
{ACAD_REACTORS
330
379
102
}
330
379
100
AcDbScale
 70
     0
300
1:16
140
1.0
141
16.0
290
     0
  0
SCALE
  5
381
102
{ACAD_REACTORS
330
379
102
}
330
379
100
AcDbScale
 70
     0
300
1:20
140
1.0
141
20.0
290
     0
  0
SCALE
  5
382
102
{ACAD_REACTORS
330
379
102
}
330
379
100
AcDbScale
 70
     0
300
1:30
140
1.0
141
30.0
290
     0
  0
SCALE
  5
383
102
{ACAD_REACTORS
330
379
102
}
330
379
100
AcDbScale
 70
     0
300
1:40
140
1.0
141
40.0
290
     0
  0
SCALE
  5
384
102
{ACAD_REACTORS
330
379
102
}
330
379
100
AcDbScale
 70
     0
300
1:50
140
1.0
141
50.0
290
     0
  0
SCALE
  5
385
102
{ACAD_REACTORS
330
379
102
}
330
379
100
AcDbScale
 70
     0
300
1:100
140
1.0
141
100.0
290
     0
  0
SCALE
  5
386
102
{ACAD_REACTORS
330
379
102
}
330
379
100
AcDbScale
 70
     0
300
2:1
140
2.0
141
1.0
290
     0
  0
SCALE
  5
387
102
{ACAD_REACTORS
330
379
102
}
330
379
100
AcDbScale
 70
     0
300
4:1
140
4.0
141
1.0
290
     0
  0
SCALE
  5
388
102
{ACAD_REACTORS
330
379
102
}
330
379
100
AcDbScale
 70
     0
300
8:1
140
8.0
141
1.0
290
     0
  0
SCALE
  5
389
102
{ACAD_REACTORS
330
379
102
}
330
379
100
AcDbScale
 70
     0
300
10:1
140
10.0
141
1.0
290
     0
  0
SCALE
  5
38A
102
{ACAD_REACTORS
330
379
102
}
330
379
100
AcDbScale
 70
     0
300
100:1
140
100.0
141
1.0
290
     0
  0
SCALE
  5
38B
102
{ACAD_REACTORS
330
379
102
}
330
379
100
AcDbScale
 70
     0
300
1/128" = 1'-0"
140
0.0078125
141
12.0
290
     0
  0
SCALE
  5
38C
102
{ACAD_REACTORS
330
379
102
}
330
379
100
AcDbScale
 70
     0
300
1/64" = 1'-0"
140
0.015625
141
12.0
290
     0
  0
SCALE
  5
38D
102
{ACAD_REACTORS
330
379
102
}
330
379
100
AcDbScale
 70
     0
300
1/32" = 1'-0"
140
0.03125
141
12.0
290
     0
  0
SCALE
  5
38E
102
{ACAD_REACTORS
330
379
102
}
330
379
100
AcDbScale
 70
     0
300
1/16" = 1'-0"
140
0.0625
141
12.0
290
     0
  0
SCALE
  5
38F
102
{ACAD_REACTORS
330
379
102
}
330
379
100
AcDbScale
 70
     0
300
3/32" = 1'-0"
140
0.09375
141
12.0
290
     0
  0
SCALE
  5
390
102
{ACAD_REACTORS
330
379
102
}
330
379
100
AcDbScale
 70
     0
300
1/8" = 1'-0"
140
0.125
141
12.0
290
     0
  0
SCALE
  5
391
102
{ACAD_REACTORS
330
379
102
}
330
379
100
AcDbScale
 70
     0
300
3/16" = 1'-0"
140
0.1875
141
12.0
290
     0
  0
SCALE
  5
392
102
{ACAD_REACTORS
330
379
102
}
330
379
100
AcDbScale
 70
     0
300
1/4" = 1'-0"
140
0.25
141
12.0
290
     0
  0
SCALE
  5
393
102
{ACAD_REACTORS
330
379
102
}
330
379
100
AcDbScale
 70
     0
300
3/8" = 1'-0"
140
0.375
141
12.0
290
     0
  0
SCALE
  5
394
102
{ACAD_REACTORS
330
379
102
}
330
379
100
AcDbScale
 70
     0
300
1/2" = 1'-0"
140
0.5
141
12.0
290
     0
  0
SCALE
  5
395
102
{ACAD_REACTORS
330
379
102
}
330
379
100
AcDbScale
 70
     0
300
3/4" = 1'-0"
140
0.75
141
12.0
290
     0
  0
SCALE
  5
396
102
{ACAD_REACTORS
330
379
102
}
330
379
100
AcDbScale
 70
     0
300
1" = 1'-0"
140
1.0
141
12.0
290
     0
  0
SCALE
  5
397
102
{ACAD_REACTORS
330
379
102
}
330
379
100
AcDbScale
 70
     0
300
1-1/2" = 1'-0"
140
1.5
141
12.0
290
     0
  0
SCALE
  5
398
102
{ACAD_REACTORS
330
379
102
}
330
379
100
AcDbScale
 70
     0
300
3" = 1'-0"
140
3.0
141
12.0
290
     0
  0
SCALE
  5
399
102
{ACAD_REACTORS
330
379
102
}
330
379
100
AcDbScale
 70
     0
300
6" = 1'-0"
140
6.0
141
12.0
290
     0
  0
SCALE
  5
39A
102
{ACAD_REACTORS
330
379
102
}
330
379
100
AcDbScale
 70
     0
300
1'-0" = 1'-0"
140
12.0
141
12.0
290
     0
  0
TABLESTYLE
  5
3BC
102
{ACAD_REACTORS
330
3BB
102
}
102
{ACAD_XDICTIONARY
360
3C2
102
}
330
3BB
100
AcDbTableStyle
  3
Standard
 70
     0
 71
     0
 40
0.06
 41
0.06
280
     0
281
     0
  7
STANDARD
140
4.5
170
     2
 62
     0
 63
   257
283
     0
 90
        4
 91
        0
  1

274
    -2
284
     1
 64
     0
275
    -2
285
     1
 65
     0
276
    -2
286
     1
 66
     0
277
    -2
287
     1
 67
     0
278
    -2
288
     1
 68
     0
279
    -2
289
     1
 69
     0
  7
STANDARD
140
6.0
170
     5
 62
     0
 63
   257
283
     0
 90
        4
 91
        0
  1

274
    -2
284
     1
 64
     0
275
    -2
285
     1
 65
     0
276
    -2
286
     1
 66
     0
277
    -2
287
     1
 67
     0
278
    -2
288
     1
 68
     0
279
    -2
289
     1
 69
     0
  7
STANDARD
140
4.5
170
     5
 62
     0
 63
   257
283
     0
 90
        4
 91
        0
  1

274
    -2
284
     1
 64
     0
275
    -2
285
     1
 65
     0
276
    -2
286
     1
 66
     0
277
    -2
287
     1
 67
     0
278
    -2
288
     1
 68
     0
279
    -2
289
     1
 69
     0
  0
VISUALSTYLE
  5
3A3
102
{ACAD_REACTORS
330
39E
102
}
330
39E
100
AcDbVisualStyle
  2
2dWireframe
 70
     4
177
     3
291
     0
 70
    58
 90
        0
176
     1
 90
        2
176
     1
 90
        0
176
     1
 90
        0
176
     1
 40
0.6
176
     1
 40
30.0
176
     1
 62
     7
420
 16777215
176
     1
 90
        1
176
     1
 90
        4
176
     1
 62
     7
176
     1
 62
   257
176
     1
 90
        1
176
     1
 90
        1
176
     1
 40
1.0
176
     1
 90
        0
176
     1
 62
   257
176
     1
 40
1.0
176
     1
 90
        1
176
     1
 90
        6
176
     1
 90
        2
176
     1
 62
     7
176
     1
 90
        5
176
     1
 90
        0
176
     1
 90
        0
176
     1
290
     0
176
     1
 90
        1
176
     1
 40
0.0
176
     1
 90
        0
176
     1
290
     1
176
     1
290
     1
176
     1
290
     0
176
     1
290
     0
176
     1
290
     0
176
     1
290
     0
176
     1
290
     0
176
     1
290
     0
176
     1
290
     0
176
     1
 90
       50
176
     1
 40
0.0
176
     1
 40
1.0
176
     1
 90
        0
176
     1
 62
    18
420
        0
176
     1
 90
       50
176
     1
 90
        3
176
     1
 62
     5
420
      255
176
     1
290
     0
176
     1
 90
       50
176
     1
 90
       50
176
     1
 90
       50
176
     1
290
     0
176
     1
 90
       50
176
     1
 62
   256
176
     0
 40
1.0
176
     0
 90
        2
176
     1
  1
strokes_ogs.tif
176
     1
290
     0
176
     1
 40
1.0
176
     1
 40
1.0
176
     1
  0
VISUALSTYLE
  5
3A6
102
{ACAD_REACTORS
330
39E
102
}
330
39E
100
AcDbVisualStyle
  2
Basic
 70
     7
177
     3
291
     1
 70
    58
 90
        1
176
     1
 90
        0
176
     1
 90
        1
176
     1
 90
        0
176
     1
 40
0.6
176
     1
 40
30.0
176
     1
 62
     7
420
 16777215
176
     1
 90
        0
176
     1
 90
        4
176
     1
 62
     7
176
     1
 62
   257
176
     1
 90
        1
176
     1
 90
        1
176
     1
 40
1.0
176
     1
 90
        8
176
     1
 62
     7
176
     1
 40
1.0
176
     1
 90
        1
176
     1
 90
        6
176
     1
 90
        2
176
     1
 62
     7
176
     1
 90
        5
176
     1
 90
        0
176
     1
 90
        0
176
     1
290
     0
176
     1
 90
        1
176
     1
 40
0.0
176
     1
 90
        0
176
     1
290
     0
176
     1
290
     1
176
     1
290
     1
176
     1
290
     0
176
     1
290
     0
176
     1
290
     0
176
     1
290
     0
176
     1
290
     0
176
     1
290
     0
176
     1
 90
       50
176
     1
 40
0.0
176
     1
 40
1.0
176
     1
 90
        0
176
     1
 62
    18
420
        0
176
     1
 90
       50
176
     1
 90
        3
176
     1
 62
     5
420
      255
176
     1
290
     0
176
     1
 90
       50
176
     1
 90
       50
176
     1
 90
       50
176
     1
290
     0
176
     1
 90
       50
176
     1
 62
   256
176
     0
 40
1.0
176
     0
 90
        2
176
     1
  1
strokes_ogs.tif
176
     1
290
     0
176
     1
 40
1.0
176
     1
 40
1.0
176
     1
  0
VISUALSTYLE
  5
3AA
102
{ACAD_REACTORS
330
39E
102
}
330
39E
100
AcDbVisualStyle
  2
Brighten
 70
    12
177
     3
291
     1
 70
    58
 90
        2
176
     1
 90
        2
176
     1
 90
        0
176
     1
 90
        0
176
     1
 40
0.6
176
     1
 40
30.0
176
     1
 62
     7
420
 16777215
176
     1
 90
        1
176
     1
 90
        4
176
     1
 62
     7
176
     1
 62
   257
176
     1
 90
        1
176
     1
 90
        1
176
     1
 40
1.0
176
     1
 90
        8
176
     1
 62
     7
176
     1
 40
1.0
176
     1
 90
        1
176
     1
 90
        6
176
     1
 90
        2
176
     1
 62
     7
176
     1
 90
        5
176
     1
 90
        0
176
     1
 90
        0
176
     1
290
     0
176
     1
 90
        1
176
     1
 40
50.0
176
     1
 90
        0
176
     1
290
     0
176
     1
290
     1
176
     1
290
     1
176
     1
290
     0
176
     1
290
     0
176
     1
290
     0
176
     1
290
     0
176
     1
290
     0
176
     1
290
     0
176
     1
 90
       50
176
     1
 40
0.0
176
     1
 40
1.0
176
     1
 90
        0
176
     1
 62
    18
420
        0
176
     1
 90
       50
176
     1
 90
        3
176
     1
 62
     5
420
      255
176
     1
290
     0
176
     1
 90
       50
176
     1
 90
       50
176
     1
 90
       50
176
     1
290
     0
176
     1
 90
       50
176
     1
 62
   256
176
     0
 40
1.0
176
     0
 90
        2
176
     1
  1
strokes_ogs.tif
176
     1
290
     0
176
     1
 40
1.0
176
     1
 40
1.0
176
     1
  0
VISUALSTYLE
  5
3AE
102
{ACAD_REACTORS
330
39E
102
}
330
39E
100
AcDbVisualStyle
  2
ColorChange
 70
    16
177
     3
291
     1
 70
    58
 90
        2
176
     1
 90
        2
176
     1
 90
        3
176
     1
 90
        0
176
     1
 40
0.6
176
     1
 40
30.0
176
     1
 62
     8
420
  8421504
176
     1
 90
        1
176
     1
 90
        4
176
     1
 62
     7
176
     1
 62
   257
176
     1
 90
        1
176
     1
 90
        1
176
     1
 40
1.0
176
     1
 90
        8
176
     1
 62
     8
420
  8421504
176
     1
 40
1.0
176
     1
 90
        1
176
     1
 90
        6
176
     1
 90
        2
176
     1
 62
     7
176
     1
 90
        5
176
     1
 90
        0
176
     1
 90
        0
176
     1
290
     0
176
     1
 90
        1
176
     1
 40
0.0
176
     1
 90
        0
176
     1
290
     0
176
     1
290
     1
176
     1
290
     1
176
     1
290
     0
176
     1
290
     0
176
     1
290
     0
176
     1
290
     0
176
     1
290
     0
176
     1
290
     0
176
     1
 90
       50
176
     1
 40
0.0
176
     1
 40
1.0
176
     1
 90
        0
176
     1
 62
    18
420
        0
176
     1
 90
       50
176
     1
 90
        3
176
     1
 62
     5
420
      255
176
     1
290
     0
176
     1
 90
       50
176
     1
 90
       50
176
     1
 90
       50
176
     1
290
     0
176
     1
 90
       50
176
     1
 62
   256
176
     0
 40
1.0
176
     0
 90
        2
176
     1
  1
strokes_ogs.tif
176
     1
290
     0
176
     1
 40
1.0
176
     1
 40
1.0
176
     1
  0
VISUALSTYLE
  5
3A8
102
{ACAD_REACTORS
330
39E
102
}
330
39E
100
AcDbVisualStyle
  2
Conceptual
 70
     9
177
     3
291
     0
 70
    58
 90
        3
176
     1
 90
        2
176
     1
 90
        0
176
     1
 90
        0
176
     1
 40
0.6
176
     1
 40
30.0
176
     1
 62
     7
420
 16777215
176
     1
 90
        2
176
     1
 90
        2
176
     1
 62
     7
176
     1
 62
   257
176
     1
 90
        1
176
     1
 90
        1
176
     1
 40
179.0
176
     1
 90
        8
176
     1
 62
     7
176
     1
 40
1.0
176
     1
 90
        1
176
     1
 90
        6
176
     1
 90
        2
176
     1
 62
     7
176
     1
 90
        3
176
     1
 90
        0
176
     1
 90
        0
176
     1
290
     0
176
     1
 90
        1
176
     1
 40
0.0
176
     1
 90
        0
176
     1
290
     0
176
     1
290
     1
176
     1
290
     1
176
     1
290
     0
176
     1
290
     0
176
     1
290
     0
176
     1
290
     0
176
     1
290
     0
176
     1
290
     0
176
     1
 90
       50
176
     1
 40
0.0
176
     1
 40
1.0
176
     1
 90
        0
176
     1
 62
    18
420
        0
176
     1
 90
       50
176
     1
 90
        3
176
     1
 62
     5
420
      255
176
     1
290
     0
176
     1
 90
       50
176
     1
 90
       50
176
     1
 90
       50
176
     1
290
     0
176
     1
 90
       50
176
     1
 62
   256
176
     0
 40
1.0
176
     0
 90
        2
176
     1
  1
strokes_ogs.tif
176
     1
290
     0
176
     1
 40
1.0
176
     1
 40
1.0
176
     1
  0
VISUALSTYLE
  5
3A9
102
{ACAD_REACTORS
330
39E
102
}
330
39E
100
AcDbVisualStyle
  2
Dim
 70
    11
177
     3
291
     1
 70
    58
 90
        2
176
     1
 90
        2
176
     1
 90
        0
176
     1
 90
        0
176
     1
 40
0.6
176
     1
 40
30.0
176
     1
 62
     7
420
 16777215
176
     1
 90
        1
176
     1
 90
        4
176
     1
 62
     7
176
     1
 62
   257
176
     1
 90
        1
176
     1
 90
        1
176
     1
 40
1.0
176
     1
 90
        8
176
     1
 62
     7
176
     1
 40
1.0
176
     1
 90
        1
176
     1
 90
        6
176
     1
 90
        2
176
     1
 62
     7
176
     1
 90
        5
176
     1
 90
        0
176
     1
 90
        0
176
     1
290
     0
176
     1
 90
        1
176
     1
 40
-50.0
176
     1
 90
        0
176
     1
290
     0
176
     1
290
     1
176
     1
290
     1
176
     1
290
     0
176
     1
290
     0
176
     1
290
     0
176
     1
290
     0
176
     1
290
     0
176
     1
290
     0
176
     1
 90
       50
176
     1
 40
0.0
176
     1
 40
1.0
176
     1
 90
        0
176
     1
 62
    18
420
        0
176
     1
 90
       50
176
     1
 90
        3
176
     1
 62
     5
420
      255
176
     1
290
     0
176
     1
 90
       50
176
     1
 90
       50
176
     1
 90
       50
176
     1
290
     0
176
     1
 90
       50
176
     1
 62
   256
176
     0
 40
1.0
176
     0
 90
        2
176
     1
  1
strokes_ogs.tif
176
     1
290
     0
176
     1
 40
1.0
176
     1
 40
1.0
176
     1
  0
VISUALSTYLE
  5
3B1
102
{ACAD_REACTORS
330
39E
102
}
330
39E
100
AcDbVisualStyle
  2
EdgeColorOff
 70
    22
177
     3
291
     1
 70
    58
 90
        2
176
     0
 90
        2
176
     0
 90
        0
176
     0
 90
        0
176
     0
 40
0.6
176
     0
 40
30.0
176
     0
 62
     7
420
 16777215
176
     0
 90
        1
176
     0
 90
        4
176
     0
 62
     7
176
     0
 62
   257
176
     0
 90
        1
176
     0
 90
        1
176
     0
 40
1.0
176
     0
 90
        8
176
     2
 62
     7
176
     0
 40
1.0
176
     0
 90
        1
176
     0
 90
        6
176
     0
 90
        2
176
     0
 62
     7
176
     0
 90
        5
176
     0
 90
        0
176
     0
 90
        0
176
     0
290
     0
176
     0
 90
        1
176
     0
 40
0.0
176
     0
 90
        0
176
     0
290
     0
176
     0
290
     1
176
     0
290
     1
176
     0
290
     0
176
     0
290
     0
176
     0
290
     0
176
     0
290
     0
176
     0
290
     0
176
     0
290
     0
176
     0
 90
       50
176
     0
 40
0.0
176
     0
 40
1.0
176
     0
 90
        0
176
     0
 62
    18
420
        0
176
     0
 90
       50
176
     0
 90
        3
176
     0
 62
     5
420
      255
176
     0
290
     0
176
     0
 90
       50
176
     0
 90
       50
176
     0
 90
       50
176
     0
290
     0
176
     0
 90
       50
176
     0
 62
   256
176
     0
 40
1.0
176
     0
 90
        2
176
     0
  1
strokes_ogs.tif
176
     0
290
     0
176
     0
 40
1.0
176
     0
 40
1.0
176
     0
  0
VISUALSTYLE
  5
3AD
102
{ACAD_REACTORS
330
39E
102
}
330
39E
100
AcDbVisualStyle
  2
Facepattern
 70
    15
177
     3
291
     1
 70
    58
 90
        2
176
     1
 90
        2
176
     1
 90
        0
176
     1
 90
        0
176
     1
 40
0.6
176
     1
 40
30.0
176
     1
 62
     7
420
 16777215
176
     1
 90
        1
176
     1
 90
        4
176
     1
 62
     7
176
     1
 62
   257
176
     1
 90
        1
176
     1
 90
        1
176
     1
 40
1.0
176
     1
 90
        8
176
     1
 62
     7
176
     1
 40
1.0
176
     1
 90
        1
176
     1
 90
        6
176
     1
 90
        2
176
     1
 62
     7
176
     1
 90
        5
176
     1
 90
        0
176
     1
 90
        0
176
     1
290
     0
176
     1
 90
        1
176
     1
 40
0.0
176
     1
 90
        0
176
     1
290
     0
176
     1
290
     1
176
     1
290
     1
176
     1
290
     0
176
     1
290
     0
176
     1
290
     0
176
     1
290
     0
176
     1
290
     0
176
     1
290
     0
176
     1
 90
       50
176
     1
 40
0.0
176
     1
 40
1.0
176
     1
 90
        0
176
     1
 62
    18
420
        0
176
     1
 90
       50
176
     1
 90
        3
176
     1
 62
     5
420
      255
176
     1
290
     0
176
     1
 90
       50
176
     1
 90
       50
176
     1
 90
       50
176
     1
290
     0
176
     1
 90
       50
176
     1
 62
   256
176
     0
 40
1.0
176
     0
 90
        2
176
     1
  1
strokes_ogs.tif
176
     1
290
     0
176
     1
 40
1.0
176
     1
 40
1.0
176
     1
  0
VISUALSTYLE
  5
39F
102
{ACAD_REACTORS
330
39E
102
}
330
39E
100
AcDbVisualStyle
  2
Flat
 70
     0
177
     3
291
     1
 70
    58
 90
        2
176
     1
 90
        1
176
     1
 90
        1
176
     1
 90
        2
176
     1
 40
0.6
176
     1
 40
30.0
176
     1
 62
     7
420
 16777215
176
     1
 90
        0
176
     1
 90
        0
176
     1
 62
     7
176
     1
 62
   257
176
     1
 90
        1
176
     1
 90
        1
176
     1
 40
1.0
176
     1
 90
        8
176
     1
 62
     7
176
     1
 40
1.0
176
     1
 90
        1
176
     1
 90
        6
176
     1
 90
        2
176
     1
 62
     7
176
     1
 90
        5
176
     1
 90
        0
176
     1
 90
        0
176
     1
290
     0
176
     1
 90
       13
176
     1
 40
0.0
176
     1
 90
        0
176
     1
290
     0
176
     1
290
     1
176
     1
290
     1
176
     1
290
     0
176
     1
290
     0
176
     1
290
     0
176
     1
290
     0
176
     1
290
     0
176
     1
290
     0
176
     1
 90
       50
176
     1
 40
0.0
176
     1
 40
1.0
176
     1
 90
        0
176
     1
 62
    18
420
        0
176
     1
 90
       50
176
     1
 90
        3
176
     1
 62
     5
420
      255
176
     1
290
     0
176
     1
 90
       50
176
     1
 90
       50
176
     1
 90
       50
176
     1
290
     0
176
     1
 90
       50
176
     1
 62
   256
176
     0
 40
1.0
176
     0
 90
        2
176
     1
  1
strokes_ogs.tif
176
     1
290
     0
176
     1
 40
1.0
176
     1
 40
1.0
176
     1
  0
VISUALSTYLE
  5
3A0
102
{ACAD_REACTORS
330
39E
102
}
330
39E
100
AcDbVisualStyle
  2
FlatWithEdges
 70
     1
177
     3
291
     1
 70
    58
 90
        2
176
     1
 90
        1
176
     1
 90
        1
176
     1
 90
        2
176
     1
 40
0.6
176
     1
 40
30.0
176
     1
 62
     7
420
 16777215
176
     1
 90
        1
176
     1
 90
        0
176
     1
 62
     7
176
     1
 62
   257
176
     1
 90
        1
176
     1
 90
        1
176
     1
 40
1.0
176
     1
 90
        0
176
     1
 62
   257
176
     1
 40
1.0
176
     1
 90
        1
176
     1
 90
        6
176
     1
 90
        2
176
     1
 62
     7
176
     1
 90
        5
176
     1
 90
        0
176
     1
 90
        0
176
     1
290
     0
176
     1
 90
       13
176
     1
 40
0.0
176
     1
 90
        0
176
     1
290
     0
176
     1
290
     1
176
     1
290
     1
176
     1
290
     0
176
     1
290
     0
176
     1
290
     0
176
     1
290
     0
176
     1
290
     0
176
     1
290
     0
176
     1
 90
       50
176
     1
 40
0.0
176
     1
 40
1.0
176
     1
 90
        0
176
     1
 62
    18
420
        0
176
     1
 90
       50
176
     1
 90
        3
176
     1
 62
     5
420
      255
176
     1
290
     0
176
     1
 90
       50
176
     1
 90
       50
176
     1
 90
       50
176
     1
290
     0
176
     1
 90
       50
176
     1
 62
   256
176
     0
 40
1.0
176
     0
 90
        2
176
     1
  1
strokes_ogs.tif
176
     1
290
     0
176
     1
 40
1.0
176
     1
 40
1.0
176
     1
  0
VISUALSTYLE
  5
3A1
102
{ACAD_REACTORS
330
39E
102
}
330
39E
100
AcDbVisualStyle
  2
Gouraud
 70
     2
177
     3
291
     1
 70
    58
 90
        2
176
     1
 90
        2
176
     1
 90
        1
176
     1
 90
        2
176
     1
 40
0.6
176
     1
 40
30.0
176
     1
 62
     7
420
 16777215
176
     1
 90
        0
176
     1
 90
        0
176
     1
 62
     7
176
     1
 62
   257
176
     1
 90
        1
176
     1
 90
        1
176
     1
 40
1.0
176
     1
 90
        0
176
     1
 62
     7
176
     1
 40
1.0
176
     1
 90
        1
176
     1
 90
        6
176
     1
 90
        2
176
     1
 62
     7
176
     1
 90
        5
176
     1
 90
        0
176
     1
 90
        0
176
     1
290
     0
176
     1
 90
       13
176
     1
 40
0.0
176
     1
 90
        0
176
     1
290
     0
176
     1
290
     1
176
     1
290
     1
176
     1
290
     0
176
     1
290
     0
176
     1
290
     0
176
     1
290
     0
176
     1
290
     0
176
     1
290
     0
176
     1
 90
       50
176
     1
 40
0.0
176
     1
 40
1.0
176
     1
 90
        0
176
     1
 62
    18
420
        0
176
     1
 90
       50
176
     1
 90
        3
176
     1
 62
     5
420
      255
176
     1
290
     0
176
     1
 90
       50
176
     1
 90
       50
176
     1
 90
       50
176
     1
290
     0
176
     1
 90
       50
176
     1
 62
   256
176
     0
 40
1.0
176
     0
 90
        2
176
     1
  1
strokes_ogs.tif
176
     1
290
     0
176
     1
 40
1.0
176
     1
 40
1.0
176
     1
  0
VISUALSTYLE
  5
3A2
102
{ACAD_REACTORS
330
39E
102
}
330
39E
100
AcDbVisualStyle
  2
GouraudWithEdges
 70
     3
177
     3
291
     1
 70
    58
 90
        2
176
     1
 90
        2
176
     1
 90
        1
176
     1
 90
        2
176
     1
 40
0.6
176
     1
 40
30.0
176
     1
 62
     7
420
 16777215
176
     1
 90
        1
176
     1
 90
        0
176
     1
 62
     7
176
     1
 62
   257
176
     1
 90
        1
176
     1
 90
        1
176
     1
 40
1.0
176
     1
 90
        0
176
     1
 62
   257
176
     1
 40
1.0
176
     1
 90
        1
176
     1
 90
        6
176
     1
 90
        2
176
     1
 62
     7
176
     1
 90
        5
176
     1
 90
        0
176
     1
 90
        0
176
     1
290
     0
176
     1
 90
       13
176
     1
 40
0.0
176
     1
 90
        0
176
     1
290
     0
176
     1
290
     1
176
     1
290
     1
176
     1
290
     0
176
     1
290
     0
176
     1
290
     0
176
     1
290
     0
176
     1
290
     0
176
     1
290
     0
176
     1
 90
       50
176
     1
 40
0.0
176
     1
 40
1.0
176
     1
 90
        0
176
     1
 62
    18
420
        0
176
     1
 90
       50
176
     1
 90
        3
176
     1
 62
     5
420
      255
176
     1
290
     0
176
     1
 90
       50
176
     1
 90
       50
176
     1
 90
       50
176
     1
290
     0
176
     1
 90
       50
176
     1
 62
   256
176
     0
 40
1.0
176
     0
 90
        2
176
     1
  1
strokes_ogs.tif
176
     1
290
     0
176
     1
 40
1.0
176
     1
 40
1.0
176
     1
  0
VISUALSTYLE
  5
3A5
102
{ACAD_REACTORS
330
39E
102
}
330
39E
100
AcDbVisualStyle
  2
Hidden
 70
     6
177
     3
291
     0
 70
    58
 90
        1
176
     1
 90
        2
176
     1
 90
        2
176
     1
 90
        0
176
     1
 40
0.6
176
     1
 40
30.0
176
     1
 62
     7
420
 16777215
176
     1
 90
        2
176
     1
 90
        2
176
     1
 62
     7
176
     1
 62
   257
176
     1
 90
        2
176
     1
 90
        1
176
     1
 40
40.0
176
     1
 90
        0
176
     1
 62
   257
176
     1
 40
1.0
176
     1
 90
        1
176
     1
 90
        6
176
     1
 90
        2
176
     1
 62
     7
176
     1
 90
        3
176
     1
 90
        0
176
     1
 90
        0
176
     1
290
     0
176
     1
 90
        1
176
     1
 40
0.0
176
     1
 90
        0
176
     1
290
     0
176
     1
290
     1
176
     1
290
     1
176
     1
290
     0
176
     1
290
     0
176
     1
290
     0
176
     1
290
     0
176
     1
290
     0
176
     1
290
     0
176
     1
 90
       50
176
     1
 40
0.0
176
     1
 40
1.0
176
     1
 90
        0
176
     1
 62
    18
420
        0
176
     1
 90
       50
176
     1
 90
        3
176
     1
 62
     5
420
      255
176
     1
290
     0
176
     1
 90
       50
176
     1
 90
       50
176
     1
 90
       50
176
     1
290
     0
176
     1
 90
       50
176
     1
 62
   256
176
     0
 40
1.0
176
     0
 90
        2
176
     1
  1
strokes_ogs.tif
176
     1
290
     0
176
     1
 40
1.0
176
     1
 40
1.0
176
     1
  0
VISUALSTYLE
  5
3AF
102
{ACAD_REACTORS
330
39E
102
}
330
39E
100
AcDbVisualStyle
  2
JitterOff
 70
    20
177
     3
291
     1
 70
    58
 90
        2
176
     0
 90
        2
176
     0
 90
        0
176
     0
 90
        0
176
     0
 40
0.6
176
     0
 40
30.0
176
     0
 62
     7
420
 16777215
176
     0
 90
        1
176
     0
 90
        4
176
     0
 62
     7
176
     0
 62
   257
176
     0
 90
        1
176
     0
 90
        1
176
     0
 40
1.0
176
     0
 90
       10
176
     2
 62
     7
176
     0
 40
1.0
176
     0
 90
        1
176
     0
 90
        6
176
     0
 90
        2
176
     0
 62
     7
176
     0
 90
        5
176
     0
 90
        0
176
     0
 90
        0
176
     0
290
     0
176
     0
 90
        1
176
     0
 40
0.0
176
     0
 90
        0
176
     0
290
     0
176
     0
290
     1
176
     0
290
     1
176
     0
290
     0
176
     0
290
     0
176
     0
290
     0
176
     0
290
     0
176
     0
290
     0
176
     0
290
     0
176
     0
 90
       50
176
     0
 40
0.0
176
     0
 40
1.0
176
     0
 90
        0
176
     0
 62
    18
420
        0
176
     0
 90
       50
176
     0
 90
        3
176
     0
 62
     5
420
      255
176
     0
290
     0
176
     0
 90
       50
176
     0
 90
       50
176
     0
 90
       50
176
     0
290
     0
176
     0
 90
       50
176
     0
 62
   256
176
     0
 40
1.0
176
     0
 90
        2
176
     0
  1
strokes_ogs.tif
176
     0
290
     0
176
     0
 40
1.0
176
     0
 40
1.0
176
     0
  0
VISUALSTYLE
  5
3AC
102
{ACAD_REACTORS
330
39E
102
}
330
39E
100
AcDbVisualStyle
  2
Linepattern
 70
    14
177
     3
291
     1
 70
    58
 90
        2
176
     1
 90
        2
176
     1
 90
        0
176
     1
 90
        0
176
     1
 40
0.6
176
     1
 40
30.0
176
     1
 62
     7
420
 16777215
176
     1
 90
        1
176
     1
 90
        4
176
     1
 62
     7
176
     1
 62
   257
176
     1
 90
        7
176
     1
 90
        7
176
     1
 40
1.0
176
     1
 90
        8
176
     1
 62
     7
176
     1
 40
1.0
176
     1
 90
        1
176
     1
 90
        6
176
     1
 90
        2
176
     1
 62
     7
176
     1
 90
        5
176
     1
 90
        0
176
     1
 90
        0
176
     1
290
     0
176
     1
 90
        1
176
     1
 40
0.0
176
     1
 90
        0
176
     1
290
     0
176
     1
290
     1
176
     1
290
     1
176
     1
290
     0
176
     1
290
     0
176
     1
290
     0
176
     1
290
     0
176
     1
290
     0
176
     1
290
     0
176
     1
 90
       50
176
     1
 40
0.0
176
     1
 40
1.0
176
     1
 90
        0
176
     1
 62
    18
420
        0
176
     1
 90
       50
176
     1
 90
        3
176
     1
 62
     5
420
      255
176
     1
290
     0
176
     1
 90
       50
176
     1
 90
       50
176
     1
 90
       50
176
     1
290
     0
176
     1
 90
       50
176
     1
 62
   256
176
     0
 40
1.0
176
     0
 90
        2
176
     1
  1
strokes_ogs.tif
176
     1
290
     0
176
     1
 40
1.0
176
     1
 40
1.0
176
     1
  0
VISUALSTYLE
  5
3B0
102
{ACAD_REACTORS
330
39E
102
}
330
39E
100
AcDbVisualStyle
  2
OverhangOff
 70
    21
177
     3
291
     1
 70
    58
 90
        2
176
     0
 90
        2
176
     0
 90
        0
176
     0
 90
        0
176
     0
 40
0.6
176
     0
 40
30.0
176
     0
 62
     7
420
 16777215
176
     0
 90
        1
176
     0
 90
        4
176
     0
 62
     7
176
     0
 62
   257
176
     0
 90
        1
176
     0
 90
        1
176
     0
 40
1.0
176
     0
 90
        9
176
     2
 62
     7
176
     0
 40
1.0
176
     0
 90
        1
176
     0
 90
        6
176
     0
 90
        2
176
     0
 62
     7
176
     0
 90
        5
176
     0
 90
        0
176
     0
 90
        0
176
     0
290
     0
176
     0
 90
        1
176
     0
 40
0.0
176
     0
 90
        0
176
     0
290
     0
176
     0
290
     1
176
     0
290
     1
176
     0
290
     0
176
     0
290
     0
176
     0
290
     0
176
     0
290
     0
176
     0
290
     0
176
     0
290
     0
176
     0
 90
       50
176
     0
 40
0.0
176
     0
 40
1.0
176
     0
 90
        0
176
     0
 62
    18
420
        0
176
     0
 90
       50
176
     0
 90
        3
176
     0
 62
     5
420
      255
176
     0
290
     0
176
     0
 90
       50
176
     0
 90
       50
176
     0
 90
       50
176
     0
290
     0
176
     0
 90
       50
176
     0
 62
   256
176
     0
 40
1.0
176
     0
 90
        2
176
     0
  1
strokes_ogs.tif
176
     0
290
     0
176
     0
 40
1.0
176
     0
 40
1.0
176
     0
  0
VISUALSTYLE
  5
3A7
102
{ACAD_REACTORS
330
39E
102
}
330
39E
100
AcDbVisualStyle
  2
Realistic
 70
     8
177
     3
291
     0
 70
    58
 90
        2
176
     1
 90
        3
176
     1
 90
        0
176
     1
 90
        2
176
     1
 40
0.6
176
     1
 40
30.0
176
     1
 62
     7
420
 16777215
176
     1
 90
        0
176
     1
 90
        0
176
     1
 62
     7
176
     1
 62
   257
176
     1
 90
        1
176
     1
 90
        1
176
     1
 40
1.0
176
     1
 90
        8
176
     1
 62
   257
176
     1
 40
1.0
176
     1
 90
        1
176
     1
 90
        6
176
     1
 90
        2
176
     1
 62
     7
176
     1
 90
        3
176
     1
 90
        0
176
     1
 90
        0
176
     1
290
     0
176
     1
 90
       13
176
     1
 40
0.0
176
     1
 90
        0
176
     1
290
     0
176
     1
290
     1
176
     1
290
     1
176
     1
290
     0
176
     1
290
     0
176
     1
290
     0
176
     1
290
     0
176
     1
290
     0
176
     1
290
     0
176
     1
 90
       50
176
     1
 40
0.0
176
     1
 40
1.0
176
     1
 90
        0
176
     1
 62
    18
420
        0
176
     1
 90
       50
176
     1
 90
        3
176
     1
 62
     5
420
      255
176
     1
290
     0
176
     1
 90
       50
176
     1
 90
       50
176
     1
 90
       50
176
     1
290
     0
176
     1
 90
       50
176
     1
 62
   256
176
     0
 40
1.0
176
     0
 90
        2
176
     1
  1
strokes_ogs.tif
176
     1
290
     0
176
     1
 40
1.0
176
     1
 40
1.0
176
     1
  0
VISUALSTYLE
  5
3B6
102
{ACAD_REACTORS
330
39E
102
}
330
39E
100
AcDbVisualStyle
  2
Shaded
 70
    27
177
     3
291
     0
 70
    58
 90
        2
176
     1
 90
        2
176
     1
 90
        1
176
     1
 90
        2
176
     1
 40
0.6
176
     1
 40
30.0
176
     1
 62
     7
420
 16777215
176
     1
 90
        0
176
     1
 90
        4
176
     1
 62
     7
176
     1
 62
   257
176
     1
 90
        1
176
     1
 90
        1
176
     1
 40
1.0
176
     1
 90
        8
176
     1
 62
   257
176
     1
 40
1.0
176
     1
 90
        1
176
     1
 90
        6
176
     1
 90
        2
176
     1
 62
     8
420
  7895160
176
     1
 90
        3
176
     1
 90
        0
176
     1
 90
        0
176
     1
290
     0
176
     1
 90
        5
176
     1
 40
0.0
176
     1
 90
        0
176
     1
290
     0
176
     1
290
     1
176
     1
290
     1
176
     1
290
     0
176
     1
290
     0
176
     1
290
     0
176
     1
290
     0
176
     1
290
     0
176
     1
290
     0
176
     1
 90
       50
176
     1
 40
0.0
176
     1
 40
1.0
176
     1
 90
        0
176
     1
 62
    18
420
        0
176
     1
 90
       50
176
     1
 90
        3
176
     1
 62
     5
420
      255
176
     1
290
     0
176
     1
 90
       50
176
     1
 90
       50
176
     1
 90
       50
176
     1
290
     0
176
     1
 90
       50
176
     1
 62
   256
176
     0
 40
1.0
176
     0
 90
        2
176
     1
  1
strokes_ogs.tif
176
     1
290
     0
176
     1
 40
1.0
176
     1
 40
1.0
176
     1
  0
VISUALSTYLE
  5
3B5
102
{ACAD_REACTORS
330
39E
102
}
330
39E
100
AcDbVisualStyle
  2
Shaded with edges
 70
    26
177
     3
291
     0
 70
    58
 90
        2
176
     1
 90
        2
176
     1
 90
        1
176
     1
 90
        2
176
     1
 40
0.6
176
     1
 40
30.0
176
     1
 62
     7
420
 16777215
176
     1
 90
        1
176
     1
 90
       10
176
     1
 62
     7
176
     1
 62
   257
176
     1
 90
        2
176
     1
 90
        1
176
     1
 40
1.0
176
     1
 90
        8
176
     1
 62
   257
176
     1
 40
1.0
176
     1
 90
        1
176
     1
 90
        6
176
     1
 90
        2
176
     1
 62
     7
176
     1
 90
        3
176
     1
 90
        0
176
     1
 90
        0
176
     1
290
     0
176
     1
 90
        5
176
     1
 40
0.0
176
     1
 90
        0
176
     1
290
     0
176
     1
290
     1
176
     1
290
     1
176
     1
290
     0
176
     1
290
     0
176
     1
290
     0
176
     1
290
     0
176
     1
290
     0
176
     1
290
     0
176
     1
 90
       50
176
     1
 40
0.0
176
     1
 40
1.0
176
     1
 90
        0
176
     1
 62
    18
420
        0
176
     1
 90
       50
176
     1
 90
        3
176
     1
 62
     5
420
      255
176
     1
290
     0
176
     1
 90
       50
176
     1
 90
       50
176
     1
 90
       50
176
     1
290
     0
176
     1
 90
       50
176
     1
 62
   256
176
     0
 40
1.0
176
     0
 90
        2
176
     1
  1
strokes_ogs.tif
176
     1
290
     0
176
     1
 40
1.0
176
     1
 40
1.0
176
     1
  0
VISUALSTYLE
  5
3B2
102
{ACAD_REACTORS
330
39E
102
}
330
39E
100
AcDbVisualStyle
  2
Shades of Gray
 70
    23
177
     3
291
     0
 70
    58
 90
        2
176
     1
 90
        2
176
     1
 90
        3
176
     1
 90
        0
176
     1
 40
0.6
176
     1
 40
30.0
176
     1
 62
     7
420
 16777215
176
     1
 90
        2
176
     1
 90
        2
176
     1
 62
     7
176
     1
 62
     7
176
     1
 90
        1
176
     1
 90
        1
176
     1
 40
40.0
176
     1
 90
        8
176
     1
 62
     7
176
     1
 40
1.0
176
     1
 90
        1
176
     1
 90
        6
176
     1
 90
        2
176
     1
 62
     7
176
     1
 90
        3
176
     1
 90
        0
176
     1
 90
        0
176
     1
290
     0
176
     1
 90
        1
176
     1
 40
0.0
176
     1
 90
        0
176
     1
290
     0
176
     1
290
     1
176
     1
290
     1
176
     1
290
     0
176
     1
290
     0
176
     1
290
     0
176
     1
290
     0
176
     1
290
     0
176
     1
290
     0
176
     1
 90
       50
176
     1
 40
0.0
176
     1
 40
1.0
176
     1
 90
        0
176
     1
 62
    18
420
        0
176
     1
 90
       50
176
     1
 90
        3
176
     1
 62
     5
420
      255
176
     1
290
     0
176
     1
 90
       50
176
     1
 90
       50
176
     1
 90
       50
176
     1
290
     0
176
     1
 90
       50
176
     1
 62
   256
176
     0
 40
1.0
176
     0
 90
        2
176
     1
  1
strokes_ogs.tif
176
     1
290
     0
176
     1
 40
1.0
176
     1
 40
1.0
176
     1
  0
VISUALSTYLE
  5
3B3
102
{ACAD_REACTORS
330
39E
102
}
330
39E
100
AcDbVisualStyle
  2
Sketchy
 70
    24
177
     3
291
     0
 70
    58
 90
        1
176
     1
 90
        2
176
     1
 90
        2
176
     1
 90
        0
176
     1
 40
0.6
176
     1
 40
30.0
176
     1
 62
     7
420
 16777215
176
     1
 90
        2
176
     1
 90
        2
176
     1
 62
     7
176
     1
 62
     7
176
     1
 90
        1
176
     1
 90
        1
176
     1
 40
40.0
176
     1
 90
       11
176
     1
 62
     7
176
     1
 40
1.0
176
     1
 90
        1
176
     1
 90
        6
176
     1
 90
        2
176
     1
 62
     7
176
     1
 90
        6
176
     1
 90
        0
176
     1
 90
        0
176
     1
290
     0
176
     1
 90
        1
176
     1
 40
0.0
176
     1
 90
        0
176
     1
290
     0
176
     1
290
     1
176
     1
290
     1
176
     1
290
     0
176
     1
290
     0
176
     1
290
     0
176
     1
290
     0
176
     1
290
     0
176
     1
290
     0
176
     1
 90
       50
176
     1
 40
0.0
176
     1
 40
1.0
176
     1
 90
        0
176
     1
 62
    18
420
        0
176
     1
 90
       50
176
     1
 90
        3
176
     1
 62
     5
420
      255
176
     1
290
     0
176
     1
 90
       50
176
     1
 90
       50
176
     1
 90
       50
176
     1
290
     0
176
     1
 90
       50
176
     1
 62
   256
176
     0
 40
1.0
176
     0
 90
        2
176
     1
  1
strokes_ogs.tif
176
     1
290
     0
176
     1
 40
1.0
176
     1
 40
1.0
176
     1
  0
VISUALSTYLE
  5
3AB
102
{ACAD_REACTORS
330
39E
102
}
330
39E
100
AcDbVisualStyle
  2
Thicken
 70
    13
177
     3
291
     1
 70
    58
 90
        2
176
     1
 90
        2
176
     1
 90
        0
176
     1
 90
        0
176
     1
 40
0.6
176
     1
 40
30.0
176
     1
 62
     7
420
 16777215
176
     1
 90
        1
176
     1
 90
        4
176
     1
 62
     7
176
     1
 62
   257
176
     1
 90
        1
176
     1
 90
        1
176
     1
 40
1.0
176
     1
 90
       12
176
     1
 62
     7
176
     1
 40
1.0
176
     1
 90
        1
176
     1
 90
        6
176
     1
 90
        2
176
     1
 62
     7
176
     1
 90
        5
176
     1
 90
        0
176
     1
 90
        0
176
     1
290
     0
176
     1
 90
        1
176
     1
 40
0.0
176
     1
 90
        0
176
     1
290
     0
176
     1
290
     1
176
     1
290
     1
176
     1
290
     0
176
     1
290
     0
176
     1
290
     0
176
     1
290
     0
176
     1
290
     0
176
     1
290
     0
176
     1
 90
       50
176
     1
 40
0.0
176
     1
 40
1.0
176
     1
 90
        0
176
     1
 62
    18
420
        0
176
     1
 90
       50
176
     1
 90
        3
176
     1
 62
     5
420
      255
176
     1
290
     0
176
     1
 90
       50
176
     1
 90
       50
176
     1
 90
       50
176
     1
290
     0
176
     1
 90
       50
176
     1
 62
   256
176
     0
 40
1.0
176
     0
 90
        2
176
     1
  1
strokes_ogs.tif
176
     1
290
     0
176
     1
 40
1.0
176
     1
 40
1.0
176
     1
  0
VISUALSTYLE
  5
3A4
102
{ACAD_REACTORS
330
39E
102
}
330
39E
100
AcDbVisualStyle
  2
Wireframe
 70
     5
177
     3
291
     0
 70
    58
 90
        0
176
     1
 90
        2
176
     1
 90
        0
176
     1
 90
        0
176
     1
 40
0.6
176
     1
 40
30.0
176
     1
 62
     7
420
 16777215
176
     1
 90
        1
176
     1
 90
        4
176
     1
 62
     7
176
     1
 62
   257
176
     1
 90
        1
176
     1
 90
        1
176
     1
 40
1.0
176
     1
 90
        0
176
     1
 62
   257
176
     1
 40
1.0
176
     1
 90
        1
176
     1
 90
        6
176
     1
 90
        2
176
     1
 62
     7
176
     1
 90
        3
176
     1
 90
        0
176
     1
 90
        0
176
     1
290
     0
176
     1
 90
        1
176
     1
 40
0.0
176
     1
 90
        0
176
     1
290
     0
176
     1
290
     1
176
     1
290
     1
176
     1
290
     0
176
     1
290
     0
176
     1
290
     0
176
     1
290
     0
176
     1
290
     0
176
     1
290
     0
176
     1
 90
       50
176
     1
 40
0.0
176
     1
 40
1.0
176
     1
 90
        0
176
     1
 62
    18
420
        0
176
     1
 90
       50
176
     1
 90
        3
176
     1
 62
     5
420
      255
176
     1
290
     0
176
     1
 90
       50
176
     1
 90
       50
176
     1
 90
       50
176
     1
290
     0
176
     1
 90
       50
176
     1
 62
   256
176
     0
 40
1.0
176
     0
 90
        2
176
     1
  1
strokes_ogs.tif
176
     1
290
     0
176
     1
 40
1.0
176
     1
 40
1.0
176
     1
  0
VISUALSTYLE
  5
3B4
102
{ACAD_REACTORS
330
39E
102
}
330
39E
100
AcDbVisualStyle
  2
X-Ray
 70
    25
177
     3
291
     0
 70
    58
 90
        2
176
     1
 90
        2
176
     1
 90
        1
176
     1
 90
        1
176
     1
 40
0.5
176
     1
 40
30.0
176
     1
 62
     7
420
 16777215
176
     1
 90
        1
176
     1
 90
        0
176
     1
 62
     7
176
     1
 62
   257
176
     1
 90
        1
176
     1
 90
        1
176
     1
 40
1.0
176
     1
 90
        8
176
     1
 62
     7
176
     1
 40
1.0
176
     1
 90
        1
176
     1
 90
        6
176
     1
 90
        2
176
     1
 62
     7
176
     1
 90
        3
176
     1
 90
        0
176
     1
 90
        0
176
     1
290
     0
176
     1
 90
       13
176
     1
 40
0.0
176
     1
 90
        0
176
     1
290
     0
176
     1
290
     1
176
     1
290
     1
176
     1
290
     0
176
     1
290
     0
176
     1
290
     0
176
     1
290
     0
176
     1
290
     0
176
     1
290
     0
176
     1
 90
       50
176
     1
 40
0.0
176
     1
 40
1.0
176
     1
 90
        0
176
     1
 62
    18
420
        0
176
     1
 90
       50
176
     1
 90
        3
176
     1
 62
     5
420
      255
176
     1
290
     0
176
     1
 90
       50
176
     1
 90
       50
176
     1
 90
       50
176
     1
290
     0
176
     1
 90
       50
176
     1
 62
   256
176
     0
 40
1.0
176
     0
 90
        2
176
     1
  1
strokes_ogs.tif
176
     1
290
     0
176
     1
 40
1.0
176
     1
 40
1.0
176
     1
  0
DICTIONARYVAR
  5
3C1
102
{ACAD_REACTORS
330
3C0
102
}
330
3C0
100
DictionaryVariables
280
     0
  1
1:1
  0
DICTIONARYVAR
  5
3C6
102
{ACAD_REACTORS
330
3C0
102
}
330
3C0
100
DictionaryVariables
280
     0
  1
Standard
  0
DICTIONARYVAR
  5
3C5
102
{ACAD_REACTORS
330
3C0
102
}
330
3C0
100
DictionaryVariables
280
     0
  1
Standard
  0
DICTIONARYVAR
  5
3C7
102
{ACAD_REACTORS
330
3C0
102
}
330
3C0
100
DictionaryVariables
280
     0
  1
0
  0
DICTIONARY
  5
3C2
330
3BC
100
AcDbDictionary
280
     1
281
     1
  3
ACAD_ROUNDTRIP_2008_TABLESTYLE_CELLSTYLEMAP
360
3C3
  0
CELLSTYLEMAP
  5
3C3
102
{ACAD_REACTORS
330
3C2
102
}
330
3C2
100
AcDbCellStyleMap
 90
        3
300
CELLSTYLE
  1
TABLEFORMAT_BEGIN
 90
        5
170
     1
 91
        0
 92
    32768
 62
   257
 93
        1
300
CONTENTFORMAT
  1
CONTENTFORMAT_BEGIN
 90
        0
 91
        0
 92
        4
 93
        0
300

 40
0.0
140
1.0
 94
        5
 62
     0
340
11
144
6.0
309
CONTENTFORMAT_END
171
     1
301
MARGIN
  1
CELLMARGIN_BEGIN
 40
1.5
 40
1.5
 40
1.5
 40
1.5
 40
1.5
 40
1.5
309
CELLMARGIN_END
 94
        6
 95
        1
302
GRIDFORMAT
  1
GRIDFORMAT_BEGIN
 90
        0
 91
        1
 62
     0
 92
       -2
340
14
 93
        0
 40
0.045
309
GRIDFORMAT_END
 95
        2
302
GRIDFORMAT
  1
GRIDFORMAT_BEGIN
 90
        0
 91
        1
 62
     0
 92
       -2
340
14
 93
        0
 40
0.045
309
GRIDFORMAT_END
 95
        4
302
GRIDFORMAT
  1
GRIDFORMAT_BEGIN
 90
        0
 91
        1
 62
     0
 92
       -2
340
14
 93
        0
 40
0.045
309
GRIDFORMAT_END
 95
        8
302
GRIDFORMAT
  1
GRIDFORMAT_BEGIN
 90
        0
 91
        1
 62
     0
 92
       -2
340
14
 93
        0
 40
0.045
309
GRIDFORMAT_END
 95
       16
302
GRIDFORMAT
  1
GRIDFORMAT_BEGIN
 90
        0
 91
        1
 62
     0
 92
       -2
340
14
 93
        0
 40
0.045
309
GRIDFORMAT_END
 95
       32
302
GRIDFORMAT
  1
GRIDFORMAT_BEGIN
 90
        0
 91
        1
 62
     0
 92
       -2
340
14
 93
        0
 40
0.045
309
GRIDFORMAT_END
309
TABLEFORMAT_END
  1
CELLSTYLE_BEGIN
 90
        1
 91
        1
300
_TITLE
309
CELLSTYLE_END
300
CELLSTYLE
  1
TABLEFORMAT_BEGIN
 90
        5
170
     1
 91
        0
 92
        0
 62
   257
 93
        1
300
CONTENTFORMAT
  1
CONTENTFORMAT_BEGIN
 90
        0
 91
        0
 92
        4
 93
        0
300

 40
0.0
140
1.0
 94
        5
 62
     0
340
11
144
4.5
309
CONTENTFORMAT_END
171
     1
301
MARGIN
  1
CELLMARGIN_BEGIN
 40
1.5
 40
1.5
 40
1.5
 40
1.5
 40
1.5
 40
1.5
309
CELLMARGIN_END
 94
        6
 95
        1
302
GRIDFORMAT
  1
GRIDFORMAT_BEGIN
 90
        0
 91
        1
 62
     0
 92
       -2
340
14
 93
        0
 40
0.045
309
GRIDFORMAT_END
 95
        2
302
GRIDFORMAT
  1
GRIDFORMAT_BEGIN
 90
        0
 91
        1
 62
     0
 92
       -2
340
14
 93
        0
 40
0.045
309
GRIDFORMAT_END
 95
        4
302
GRIDFORMAT
  1
GRIDFORMAT_BEGIN
 90
        0
 91
        1
 62
     0
 92
       -2
340
14
 93
        0
 40
0.045
309
GRIDFORMAT_END
 95
        8
302
GRIDFORMAT
  1
GRIDFORMAT_BEGIN
 90
        0
 91
        1
 62
     0
 92
       -2
340
14
 93
        0
 40
0.045
309
GRIDFORMAT_END
 95
       16
302
GRIDFORMAT
  1
GRIDFORMAT_BEGIN
 90
        0
 91
        1
 62
     0
 92
       -2
340
14
 93
        0
 40
0.045
309
GRIDFORMAT_END
 95
       32
302
GRIDFORMAT
  1
GRIDFORMAT_BEGIN
 90
        0
 91
        1
 62
     0
 92
       -2
340
14
 93
        0
 40
0.045
309
GRIDFORMAT_END
309
TABLEFORMAT_END
  1
CELLSTYLE_BEGIN
 90
        2
 91
        1
300
_HEADER
309
CELLSTYLE_END
300
CELLSTYLE
  1
TABLEFORMAT_BEGIN
 90
        5
170
     1
 91
        0
 92
        0
 62
   257
 93
        1
300
CONTENTFORMAT
  1
CONTENTFORMAT_BEGIN
 90
        0
 91
        0
 92
        4
 93
        0
300

 40
0.0
140
1.0
 94
        2
 62
     0
340
11
144
4.5
309
CONTENTFORMAT_END
171
     1
301
MARGIN
  1
CELLMARGIN_BEGIN
 40
1.5
 40
1.5
 40
1.5
 40
1.5
 40
1.5
 40
1.5
309
CELLMARGIN_END
 94
        6
 95
        1
302
GRIDFORMAT
  1
GRIDFORMAT_BEGIN
 90
        0
 91
        1
 62
     0
 92
       -2
340
14
 93
        0
 40
0.045
309
GRIDFORMAT_END
 95
        2
302
GRIDFORMAT
  1
GRIDFORMAT_BEGIN
 90
        0
 91
        1
 62
     0
 92
       -2
340
14
 93
        0
 40
0.045
309
GRIDFORMAT_END
 95
        4
302
GRIDFORMAT
  1
GRIDFORMAT_BEGIN
 90
        0
 91
        1
 62
     0
 92
       -2
340
14
 93
        0
 40
0.045
309
GRIDFORMAT_END
 95
        8
302
GRIDFORMAT
  1
GRIDFORMAT_BEGIN
 90
        0
 91
        1
 62
     0
 92
       -2
340
14
 93
        0
 40
0.045
309
GRIDFORMAT_END
 95
       16
302
GRIDFORMAT
  1
GRIDFORMAT_BEGIN
 90
        0
 91
        1
 62
     0
 92
       -2
340
14
 93
        0
 40
0.045
309
GRIDFORMAT_END
 95
       32
302
GRIDFORMAT
  1
GRIDFORMAT_BEGIN
 90
        0
 91
        1
 62
     0
 92
       -2
340
14
 93
        0
 40
0.045
309
GRIDFORMAT_END
309
TABLEFORMAT_END
  1
CELLSTYLE_BEGIN
 90
        3
 91
        2
300
_DATA
309
CELLSTYLE_END
  0
ENDSEC
  0
EOF
