  0
SECTION
  2
HEADER
  9
$ACADVER
  1
AC1027
  9
$ACADMAINTVER
 70
   105
  9
$DWGCODEPAGE
  3
ANSI_1252
  9
$REQUIREDVERSIONS
160
                 0
  9
$LASTSAVEDBY
  1
andrea.zolin
  9
$INSBASE
 10
0.0
 20
0.0
 30
0.0
  9
$EXTMIN
 10
0.0
 20
0.0
 30
0.0
  9
$EXTMAX
 10
594.0
 20
420.0
 30
0.0
  9
$LIMMIN
 10
0.0
 20
0.0
  9
$LIMMAX
 10
594.0
 20
420.0
  9
$ORTHOMODE
 70
     0
  9
$REGENMODE
 70
     1
  9
$FILLMODE
 70
     1
  9
$QTEXTMODE
 70
     0
  9
$MIRRTEXT
 70
     1
  9
$LTSCALE
 40
32.67
  9
$ATTMODE
 70
     1
  9
$TEXTSIZE
 40
0.2
  9
$TRACEWID
 40
0.05
  9
$TEXTSTYLE
  7
STANDARD
  9
$CLAYER
  8
0
  9
$CELTYPE
  6
BYLAYER
  9
$CECOLOR
 62
   256
  9
$CELTSCALE
 40
1.0
  9
$DISPSILH
 70
     0
  9
$DIMSCALE
 40
1.0
  9
$DIMASZ
 40
2.5
  9
$DIMEXO
 40
0.75
  9
$DIMDLI
 40
22.572
  9
$DIMRND
 40
0.0
  9
$DIMDLE
 40
0.0
  9
$DIMEXE
 40
0.75
  9
$DIMTP
 40
0.01
  9
$DIMTM
 40
0.01
  9
$DIMTXT
 40
3.0
  9
$DIMCEN
 40
5.346
  9
$DIMTSZ
 40
0.0
  9
$DIMTOL
 70
     1
  9
$DIMLIM
 70
     0
  9
$DIMTIH
 70
     1
  9
$DIMTOH
 70
     1
  9
$DIMSE1
 70
     0
  9
$DIMSE2
 70
     0
  9
$DIMTAD
 70
     0
  9
$DIMZIN
 70
     0
  9
$DIMBLK
  1
CLOSED
  9
$DIMASO
 70
     1
  9
$DIMSHO
 70
     1
  9
$DIMPOST
  1

  9
$DIMAPOST
  1

  9
$DIMALT
 70
     0
  9
$DIMALTD
 70
     2
  9
$DIMALTF
 40
25.4
  9
$DIMLFAC
 40
1.0
  9
$DIMTOFL
 70
     0
  9
$DIMTVP
 40
0.0
  9
$DIMTIX
 70
     0
  9
$DIMSOXD
 70
     0
  9
$DIMSAH
 70
     0
  9
$DIMBLK1
  1

  9
$DIMBLK2
  1

  9
$DIMSTYLE
  2
STANDARD
  9
$DIMCLRD
 70
     0
  9
$DIMCLRE
 70
     0
  9
$DIMCLRT
 70
     0
  9
$DIMTFAC
 40
1.0
  9
$DIMGAP
 40
0.625
  9
$DIMJUST
 70
     0
  9
$DIMSD1
 70
     0
  9
$DIMSD2
 70
     0
  9
$DIMTOLJ
 70
     1
  9
$DIMTZIN
 70
     0
  9
$DIMALTZ
 70
     0
  9
$DIMALTTZ
 70
     0
  9
$DIMUPT
 70
     0
  9
$DIMDEC
 70
     4
  9
$DIMTDEC
 70
     4
  9
$DIMALTU
 70
     2
  9
$DIMALTTD
 70
     2
  9
$DIMTXSTY
  7
STANDARD
  9
$DIMAUNIT
 70
     0
  9
$DIMADEC
 70
     0
  9
$DIMALTRND
 40
0.0
  9
$DIMAZIN
 70
     0
  9
$DIMDSEP
 70
    46
  9
$DIMATFIT
 70
     3
  9
$DIMFRAC
 70
     0
  9
$DIMLDRBLK
  1

  9
$DIMLUNIT
 70
     2
  9
$DIMLWD
 70
    -2
  9
$DIMLWE
 70
    -2
  9
$DIMTMOVE
 70
     2
  9
$DIMFXL
 40
1.0
  9
$DIMFXLON
 70
     0
  9
$DIMJOGANG
 40
0.7853981633974483
  9
$DIMTFILL
 70
     0
  9
$DIMTFILLCLR
 70
     0
  9
$DIMARCSYM
 70
     0
  9
$DIMLTYPE
  6

  9
$DIMLTEX1
  6

  9
$DIMLTEX2
  6

  9
$DIMTXTDIRECTION
 70
     0
  9
$LUNITS
 70
     2
  9
$LUPREC
 70
     4
  9
$SKETCHINC
 40
0.1
  9
$FILLETRAD
 40
0.5
  9
$AUNITS
 70
     0
  9
$AUPREC
 70
     0
  9
$MENU
  1
.
  9
$ELEVATION
 40
0.0
  9
$PELEVATION
 40
0.0
  9
$THICKNESS
 40
0.0
  9
$LIMCHECK
 70
     0
  9
$CHAMFERA
 40
0.0
  9
$CHAMFERB
 40
0.0
  9
$CHAMFERC
 40
0.0
  9
$CHAMFERD
 40
0.0
  9
$SKPOLY
 70
     0
  9
$TDCREATE
 40
2447893.041666667
  9
$TDUCREATE
 40
0.0
  9
$TDUPDATE
 40
2458467.347357257
  9
$TDUUPDATE
 40
2458467.30569059
  9
$TDINDWG
 40
0.0002497222
  9
$TDUSRTIMER
 40
0.0002497222
  9
$USRTIMER
 70
     1
  9
$ANGBASE
 50
0.0
  9
$ANGDIR
 70
     0
  9
$PDMODE
 70
     3
  9
$PDSIZE
 40
0.3125
  9
$PLINEWID
 40
0.0
  9
$SPLFRAME
 70
     0
  9
$SPLINETYPE
 70
     6
  9
$SPLINESEGS
 70
     8
  9
$HANDSEED
  5
469
  9
$SURFTAB1
 70
     6
  9
$SURFTAB2
 70
     6
  9
$SURFTYPE
 70
     6
  9
$SURFU
 70
     6
  9
$SURFV
 70
     6
  9
$UCSBASE
  2

  9
$UCSNAME
  2

  9
$UCSORG
 10
0.0
 20
0.0
 30
0.0
  9
$UCSXDIR
 10
1.0
 20
0.0
 30
0.0
  9
$UCSYDIR
 10
0.0
 20
1.0
 30
0.0
  9
$UCSORTHOREF
  2

  9
$UCSORTHOVIEW
 70
     0
  9
$UCSORGTOP
 10
0.0
 20
0.0
 30
0.0
  9
$UCSORGBOTTOM
 10
0.0
 20
0.0
 30
0.0
  9
$UCSORGLEFT
 10
0.0
 20
0.0
 30
0.0
  9
$UCSORGRIGHT
 10
0.0
 20
0.0
 30
0.0
  9
$UCSORGFRONT
 10
0.0
 20
0.0
 30
0.0
  9
$UCSORGBACK
 10
0.0
 20
0.0
 30
0.0
  9
$PUCSBASE
  2

  9
$PUCSNAME
  2

  9
$PUCSORG
 10
0.0
 20
0.0
 30
0.0
  9
$PUCSXDIR
 10
1.0
 20
0.0
 30
0.0
  9
$PUCSYDIR
 10
0.0
 20
1.0
 30
0.0
  9
$PUCSORTHOREF
  2

  9
$PUCSORTHOVIEW
 70
     0
  9
$PUCSORGTOP
 10
0.0
 20
0.0
 30
0.0
  9
$PUCSORGBOTTOM
 10
0.0
 20
0.0
 30
0.0
  9
$PUCSORGLEFT
 10
0.0
 20
0.0
 30
0.0
  9
$PUCSORGRIGHT
 10
0.0
 20
0.0
 30
0.0
  9
$PUCSORGFRONT
 10
0.0
 20
0.0
 30
0.0
  9
$PUCSORGBACK
 10
0.0
 20
0.0
 30
0.0
  9
$USERI1
 70
     0
  9
$USERI2
 70
     0
  9
$USERI3
 70
     0
  9
$USERI4
 70
     0
  9
$USERI5
 70
     0
  9
$USERR1
 40
0.0
  9
$USERR2
 40
0.0
  9
$USERR3
 40
0.0
  9
$USERR4
 40
0.0
  9
$USERR5
 40
0.0
  9
$WORLDVIEW
 70
     1
  9
$SHADEDGE
 70
     3
  9
$SHADEDIF
 70
    70
  9
$TILEMODE
 70
     0
  9
$MAXACTVP
 70
    64
  9
$PINSBASE
 10
0.0
 20
0.0
 30
0.0
  9
$PLIMCHECK
 70
     0
  9
$PEXTMIN
 10
0.0
 20
0.0
 30
0.0
  9
$PEXTMAX
 10
594.0
 20
420.0
 30
0.0
  9
$PLIMMIN
 10
-12.2568093385214
 20
-32.68482490272373
  9
$PLIMMAX
 10
674.1245136186769
 20
452.6848249027237
  9
$UNITMODE
 70
     0
  9
$VISRETAIN
 70
     1
  9
$PLINEGEN
 70
     0
  9
$PSLTSCALE
 70
     1
  9
$TREEDEPTH
 70
  3020
  9
$CMLSTYLE
  2
STANDARD
  9
$CMLJUST
 70
     0
  9
$CMLSCALE
 40
1.0
  9
$PROXYGRAPHICS
 70
     1
  9
$MEASUREMENT
 70
     1
  9
$CELWEIGHT
370
    -1
  9
$ENDCAPS
280
     0
  9
$JOINSTYLE
280
     0
  9
$LWDISPLAY
290
     0
  9
$INSUNITS
 70
     0
  9
$HYPERLINKBASE
  1

  9
$STYLESHEET
  1

  9
$XEDIT
290
     1
  9
$CEPSNTYPE
380
     0
  9
$PSTYLEMODE
290
     1
  9
$FINGERPRINTGUID
  2
{1B506334-1801-4DB6-837D-860FC9A61D98}
  9
$VERSIONGUID
  2
{FAEB1C32-E019-11D5-929B-00C0DF256EC4}
  9
$EXTNAMES
290
     1
  9
$PSVPSCALE
 40
0.0
  9
$OLESTARTUP
290
     0
  9
$SORTENTS
280
   127
  9
$INDEXCTL
280
     0
  9
$HIDETEXT
280
     1
  9
$XCLIPFRAME
280
     2
  9
$HALOGAP
280
     0
  9
$OBSCOLOR
 70
   257
  9
$OBSLTYPE
280
     0
  9
$INTERSECTIONDISPLAY
280
     0
  9
$INTERSECTIONCOLOR
 70
   257
  9
$DIMASSOC
280
     2
  9
$PROJECTNAME
  1

  9
$CAMERADISPLAY
290
     0
  9
$LENSLENGTH
 40
50.0
  9
$CAMERAHEIGHT
 40
0.0
  9
$STEPSPERSEC
 40
2.0
  9
$STEPSIZE
 40
6.0
  9
$3DDWFPREC
 40
2.0
  9
$PSOLWIDTH
 40
0.25
  9
$PSOLHEIGHT
 40
4.0
  9
$LOFTANG1
 40
1.570796326794897
  9
$LOFTANG2
 40
1.570796326794897
  9
$LOFTMAG1
 40
0.0
  9
$LOFTMAG2
 40
0.0
  9
$LOFTPARAM
 70
     7
  9
$LOFTNORMALS
280
     1
  9
$LATITUDE
 40
37.795
  9
$LONGITUDE
 40
-122.394
  9
$NORTHDIRECTION
 40
0.0
  9
$TIMEZONE
 70
 -8000
  9
$LIGHTGLYPHDISPLAY
280
     1
  9
$TILEMODELIGHTSYNCH
280
     1
  9
$SOLIDHIST
280
     0
  9
$SHOWHIST
280
     1
  9
$DWFFRAME
280
     2
  9
$DGNFRAME
280
     2
  9
$REALWORLDSCALE
290
     1
  9
$INTERFERECOLOR
 62
   256
  9
$CSHADOW
280
     0
  9
$SHADOWPLANELOCATION
 40
0.0
  0
ENDSEC
  0
SECTION
  2
CLASSES
  0
CLASS
  1
ACDBDICTIONARYWDFLT
  2
AcDbDictionaryWithDefault
  3
ObjectDBX Classes
 90
        0
 91
        4
280
     0
281
     0
  0
CLASS
  1
SCALE
  2
AcDbScale
  3
ObjectDBX Classes
 90
     1153
 91
        4
280
     0
281
     0
  0
CLASS
  1
VISUALSTYLE
  2
AcDbVisualStyle
  3
ObjectDBX Classes
 90
     4095
 91
        4
280
     0
281
     0
  0
CLASS
  1
MATERIAL
  2
AcDbMaterial
  3
ObjectDBX Classes
 90
     1153
 91
        4
280
     0
281
     0
  0
CLASS
  1
TABLESTYLE
  2
AcDbTableStyle
  3
ObjectDBX Classes
 90
     4095
 91
        4
280
     0
281
     0
  0
CLASS
  1
MLEADERSTYLE
  2
AcDbMLeaderStyle
  3
ACDB_MLEADERSTYLE_CLASS
 90
     4095
 91
        4
280
     0
281
     0
  0
CLASS
  1
DICTIONARYVAR
  2
AcDbDictionaryVar
  3
ObjectDBX Classes
 90
        0
 91
        4
280
     0
281
     0
  0
CLASS
  1
CELLSTYLEMAP
  2
AcDbCellStyleMap
  3
ObjectDBX Classes
 90
     1152
 91
        4
280
     0
281
     0
  0
ENDSEC
  0
SECTION
  2
TABLES
  0
TABLE
  2
VPORT
  5
8
330
0
100
AcDbSymbolTable
 70
     1
  0
VPORT
  5
1F4
330
8
100
AcDbSymbolTableRecord
100
AcDbViewportTableRecord
  2
*ACTIVE
 70
     0
 10
0.0
 20
0.0
 11
1.0
 21
1.0
 12
297.0
 22
210.0
 13
0.0
 23
0.0
 14
1.0
 24
1.0
 15
0.0
 25
0.0
 16
0.0
 26
0.0
 36
1.0
 17
0.0
 27
0.0
 37
0.0
 40
420.0
 41
1.4142857143
 42
50.0
 43
0.0
 44
0.0
 50
0.0
 51
0.0
 71
     0
 72
   100
 73
     1
 74
     1
 75
     0
 76
     0
 77
     0
 78
     0
281
     0
 65
     1
110
0.0
120
0.0
130
0.0
111
1.0
121
0.0
131
0.0
112
0.0
122
1.0
132
0.0
 79
     0
146
0.0
348
442
 60
     3
 61
     5
292
     1
282
     1
141
0.0
142
0.0
 63
   256
  0
ENDTAB
  0
TABLE
  2
LTYPE
  5
5
330
0
100
AcDbSymbolTable
 70
     6
  0
LTYPE
  5
14
330
5
100
AcDbSymbolTableRecord
100
AcDbLinetypeTableRecord
  2
BYBLOCK
 70
     0
  3

 72
    65
 73
     0
 40
0.0
  0
LTYPE
  5
15
330
5
100
AcDbSymbolTableRecord
100
AcDbLinetypeTableRecord
  2
BYLAYER
 70
     0
  3

 72
    65
 73
     0
 40
0.0
  0
LTYPE
  5
16
330
5
100
AcDbSymbolTableRecord
100
AcDbLinetypeTableRecord
  2
CONTINUOUS
 70
     0
  3
Solid line
 72
    65
 73
     0
 40
0.0
  0
LTYPE
  5
1F5
330
5
100
AcDbSymbolTableRecord
100
AcDbLinetypeTableRecord
  2
CENTER
 70
     0
  3
____ _ ____ _ ____ _ ____ _ ____ _ ____ _ ____
 72
    65
 73
     4
 40
0.6
 49
0.375
 74
     0
 49
-0.075
 74
     0
 49
0.075
 74
     0
 49
-0.075
 74
     0
  0
LTYPE
  5
1F6
330
5
100
AcDbSymbolTableRecord
100
AcDbLinetypeTableRecord
  2
HIDDEN
 70
     0
  3
- - - - - - - - - - - - - - - - - - - -
 72
    65
 73
     2
 40
0.2
 49
0.1
 74
     0
 49
-0.1
 74
     0
  0
LTYPE
  5
1F7
330
5
100
AcDbSymbolTableRecord
100
AcDbLinetypeTableRecord
  2
PHANTOM
 70
     0
  3
_____ _ _ _____ _ _ _____ _ _ _____
 72
    65
 73
     6
 40
0.8
 49
0.45
 74
     0
 49
-0.05
 74
     0
 49
0.1
 74
     0
 49
-0.05
 74
     0
 49
0.1
 74
     0
 49
-0.05
 74
     0
  0
LTYPE
  5
1F8
330
5
100
AcDbSymbolTableRecord
100
AcDbLinetypeTableRecord
  2
DOT
 70
     0
  3
. . . . . . . . . . . . . . . . . . . .
 72
    65
 73
     2
 40
0.2
 49
0.1
 74
     0
 49
-0.1
 74
     0
  0
LTYPE
  5
1F9
330
5
100
AcDbSymbolTableRecord
100
AcDbLinetypeTableRecord
  2
DASHED
 70
     0
  3
- - - - - - - - - - - - - - - - - - - -
 72
    65
 73
     2
 40
0.2
 49
0.1
 74
     0
 49
-0.1
 74
     0
  0
ENDTAB
  0
TABLE
  2
LAYER
  5
2
330
0
100
AcDbSymbolTable
 70
    33
  0
LAYER
  5
10
330
2
100
AcDbSymbolTableRecord
100
AcDbLayerTableRecord
  2
0
 70
     0
 62
     7
  6
CONTINUOUS
370
    -3
390
417
347
459
348
0
  0
LAYER
  5
1FA
330
2
100
AcDbSymbolTableRecord
100
AcDbLayerTableRecord
  2
DEFAULT_1
 70
     0
 62
     7
  6
CENTER
370
    -3
390
417
347
459
348
0
  0
LAYER
  5
1FB
330
2
100
AcDbSymbolTableRecord
100
AcDbLayerTableRecord
  2
DEFAULT_2
 70
     0
 62
     8
  6
HIDDEN
370
    -3
390
417
347
459
348
0
  0
LAYER
  5
1FC
330
2
100
AcDbSymbolTableRecord
100
AcDbLayerTableRecord
  2
DEFAULT_3
 70
     0
 62
     7
  6
PHANTOM
370
    -3
390
417
347
459
348
0
  0
LAYER
  5
1FD
330
2
100
AcDbSymbolTableRecord
100
AcDbLayerTableRecord
  2
01_ALL_DTM_PLN
 70
     0
 62
     7
  6
CONTINUOUS
370
    -3
390
417
347
459
348
0
  0
LAYER
  5
1FE
330
2
100
AcDbSymbolTableRecord
100
AcDbLayerTableRecord
  2
01__ASM_ALL_DTM_PLN
 70
     0
 62
     7
  6
CONTINUOUS
370
    -3
390
417
347
459
348
0
  0
LAYER
  5
1FF
330
2
100
AcDbSymbolTableRecord
100
AcDbLayerTableRecord
  2
01__ASM_DEF_DTM_PLN
 70
     0
 62
     7
  6
CONTINUOUS
370
    -3
390
417
347
459
348
0
  0
LAYER
  5
200
330
2
100
AcDbSymbolTableRecord
100
AcDbLayerTableRecord
  2
01___PRT_ALL_DTM_PLN
 70
     0
 62
     7
  6
CONTINUOUS
370
    -3
390
417
347
459
348
0
  0
LAYER
  5
201
330
2
100
AcDbSymbolTableRecord
100
AcDbLayerTableRecord
  2
01___PRT_DEF_DTM_PLN
 70
     0
 62
     7
  6
CONTINUOUS
370
    -3
390
417
347
459
348
0
  0
LAYER
  5
202
330
2
100
AcDbSymbolTableRecord
100
AcDbLayerTableRecord
  2
02_ALL_AXES
 70
     0
 62
     7
  6
CONTINUOUS
370
    -3
390
417
347
459
348
0
  0
LAYER
  5
203
330
2
100
AcDbSymbolTableRecord
100
AcDbLayerTableRecord
  2
02__ASM_ALL_AXES
 70
     0
 62
     7
  6
CONTINUOUS
370
    -3
390
417
347
459
348
0
  0
LAYER
  5
204
330
2
100
AcDbSymbolTableRecord
100
AcDbLayerTableRecord
  2
02___PRT_ALL_AXES
 70
     0
 62
     7
  6
CONTINUOUS
370
    -3
390
417
347
459
348
0
  0
LAYER
  5
205
330
2
100
AcDbSymbolTableRecord
100
AcDbLayerTableRecord
  2
03_ALL_CURVES
 70
     0
 62
     7
  6
CONTINUOUS
370
    -3
390
417
347
459
348
0
  0
LAYER
  5
206
330
2
100
AcDbSymbolTableRecord
100
AcDbLayerTableRecord
  2
03__ASM_ALL_CURVES
 70
     0
 62
     7
  6
CONTINUOUS
370
    -3
390
417
347
459
348
0
  0
LAYER
  5
207
330
2
100
AcDbSymbolTableRecord
100
AcDbLayerTableRecord
  2
03___PRT_ALL_CURVES
 70
     0
 62
     7
  6
CONTINUOUS
370
    -3
390
417
347
459
348
0
  0
LAYER
  5
208
330
2
100
AcDbSymbolTableRecord
100
AcDbLayerTableRecord
  2
04_ALL_DTM_PNT
 70
     0
 62
     7
  6
CONTINUOUS
370
    -3
390
417
347
459
348
0
  0
LAYER
  5
209
330
2
100
AcDbSymbolTableRecord
100
AcDbLayerTableRecord
  2
04__ASM_ALL_DTM_PNT
 70
     0
 62
     7
  6
CONTINUOUS
370
    -3
390
417
347
459
348
0
  0
LAYER
  5
20A
330
2
100
AcDbSymbolTableRecord
100
AcDbLayerTableRecord
  2
04___PRT_ALL_DTM_PNT
 70
     0
 62
     7
  6
CONTINUOUS
370
    -3
390
417
347
459
348
0
  0
LAYER
  5
20B
330
2
100
AcDbSymbolTableRecord
100
AcDbLayerTableRecord
  2
05_ALL_DTM_CSYS
 70
     0
 62
     7
  6
CONTINUOUS
370
    -3
390
417
347
459
348
0
  0
LAYER
  5
20C
330
2
100
AcDbSymbolTableRecord
100
AcDbLayerTableRecord
  2
05__ASM_ALL_DTM_CSYS
 70
     0
 62
     7
  6
CONTINUOUS
370
    -3
390
417
347
459
348
0
  0
LAYER
  5
20D
330
2
100
AcDbSymbolTableRecord
100
AcDbLayerTableRecord
  2
05__ASM_DEF_DTM_CSYS
 70
     0
 62
     7
  6
CONTINUOUS
370
    -3
390
417
347
459
348
0
  0
LAYER
  5
20E
330
2
100
AcDbSymbolTableRecord
100
AcDbLayerTableRecord
  2
05___PRT_ALL_DTM_CSYS
 70
     0
 62
     7
  6
CONTINUOUS
370
    -3
390
417
347
459
348
0
  0
LAYER
  5
20F
330
2
100
AcDbSymbolTableRecord
100
AcDbLayerTableRecord
  2
05___PRT_DEF_DTM_CSYS
 70
     0
 62
     7
  6
CONTINUOUS
370
    -3
390
417
347
459
348
0
  0
LAYER
  5
210
330
2
100
AcDbSymbolTableRecord
100
AcDbLayerTableRecord
  2
06_ALL_SURFS
 70
     0
 62
     7
  6
CONTINUOUS
370
    -3
390
417
347
459
348
0
  0
LAYER
  5
211
330
2
100
AcDbSymbolTableRecord
100
AcDbLayerTableRecord
  2
06__ASM_ALL_SURFS
 70
     0
 62
     7
  6
CONTINUOUS
370
    -3
390
417
347
459
348
0
  0
LAYER
  5
212
330
2
100
AcDbSymbolTableRecord
100
AcDbLayerTableRecord
  2
06___PRT_ALL_SURFS
 70
     0
 62
     7
  6
CONTINUOUS
370
    -3
390
417
347
459
348
0
  0
LAYER
  5
213
330
2
100
AcDbSymbolTableRecord
100
AcDbLayerTableRecord
  2
07__ASM_ALL_SKELETONS
 70
     0
 62
     7
  6
CONTINUOUS
370
    -3
390
417
347
459
348
0
  0
LAYER
  5
214
330
2
100
AcDbSymbolTableRecord
100
AcDbLayerTableRecord
  2
1_ALL_PLANES
 70
     0
 62
     7
  6
CONTINUOUS
370
    -3
390
417
347
459
348
0
  0
LAYER
  5
215
330
2
100
AcDbSymbolTableRecord
100
AcDbLayerTableRecord
  2
3_ALL_AXES
 70
     0
 62
     7
  6
CONTINUOUS
370
    -3
390
417
347
459
348
0
  0
LAYER
  5
216
330
2
100
AcDbSymbolTableRecord
100
AcDbLayerTableRecord
  2
5_ALL_CURVES
 70
     0
 62
     7
  6
CONTINUOUS
370
    -3
390
417
347
459
348
0
  0
LAYER
  5
217
330
2
100
AcDbSymbolTableRecord
100
AcDbLayerTableRecord
  2
7_ALL_FEATURES
 70
     0
 62
     7
  6
CONTINUOUS
370
    -3
390
417
347
459
348
0
  0
LAYER
  5
218
330
2
100
AcDbSymbolTableRecord
100
AcDbLayerTableRecord
  2
8_ALL_NOTES_BALLOONS_SYMBOLS_GT
 70
     0
 62
     7
  6
CONTINUOUS
370
    -3
390
417
347
459
348
0
  0
LAYER
  5
219
330
2
100
AcDbSymbolTableRecord
100
AcDbLayerTableRecord
  2
9_SOLID
 70
     0
 62
     7
  6
CONTINUOUS
370
    -3
390
417
347
459
348
0
  0
ENDTAB
  0
TABLE
  2
STYLE
  5
3
330
0
100
AcDbSymbolTable
 70
     5
  0
STYLE
  5
11
330
3
100
AcDbSymbolTableRecord
100
AcDbTextStyleTableRecord
  2
STANDARD
 70
     0
 40
0.0
 41
0.85
 50
0.0
 71
     0
 42
0.2
  3
txt
  4

  0
STYLE
  5
21A
330
3
100
AcDbSymbolTableRecord
100
AcDbTextStyleTableRecord
  2
TEXTSTYLE_1
 70
     0
 40
0.0
 41
0.8
 50
0.0
 71
     0
 42
0.2
  3
gdt
  4

  0
STYLE
  5
21B
330
3
100
AcDbSymbolTableRecord
100
AcDbTextStyleTableRecord
  2
TEXTSTYLE_2
 70
     0
 40
0.0
 41
0.9
 50
0.0
 71
     0
 42
0.2
  3
txt
  4

  0
STYLE
  5
21C
330
3
100
AcDbSymbolTableRecord
100
AcDbTextStyleTableRecord
  2
TEXTSTYLE_3
 70
     0
 40
0.0
 41
0.9
 50
0.0
 71
     0
 42
0.2
  3
txt
  4

  0
STYLE
  5
21D
330
3
100
AcDbSymbolTableRecord
100
AcDbTextStyleTableRecord
  2
TEXTSTYLE_4
 70
     0
 40
0.0
 41
2.0
 50
0.0
 71
     0
 42
0.2
  3
txt
  4

  0
ENDTAB
  0
TABLE
  2
VIEW
  5
6
330
0
100
AcDbSymbolTable
 70
     0
  0
ENDTAB
  0
TABLE
  2
UCS
  5
7
330
0
100
AcDbSymbolTable
 70
     0
  0
ENDTAB
  0
TABLE
  2
APPID
  5
9
330
0
100
AcDbSymbolTable
 70
     1
  0
APPID
  5
21E
330
9
100
AcDbSymbolTableRecord
100
AcDbRegAppTableRecord
  2
ACAD
 70
     0
  0
ENDTAB
  0
TABLE
  2
DIMSTYLE
  5
A
330
0
100
AcDbSymbolTable
 70
     3
100
AcDbDimStyleTable
  0
DIMSTYLE
105
225
330
A
100
AcDbSymbolTableRecord
100
AcDbDimStyleTableRecord
  2
STANDARD
 70
     0
 41
2.5
 42
0.75
 44
0.75
 47
0.01
 48
0.01
 71
     1
 73
     0
 74
     0
 77
     1
 78
     8
 79
     2
140
3.0
147
0.625
171
     1
178
     0
179
     2
271
     2
272
     2
284
     8
340
11
341
21F
342
21F
343
21F
344
21F
  0
DIMSTYLE
105
226
330
A
100
AcDbSymbolTableRecord
100
AcDbDimStyleTableRecord
  2
DIMSTYLE_1
 70
     0
 41
2.5
 42
0.75
 44
0.75
 47
0.2
 48
0.2
 73
     0
 74
     0
 77
     1
 78
     8
 79
     2
140
3.0
147
0.75
171
     1
178
     0
179
     2
271
     2
272
     2
284
     8
340
11
341
21F
342
21F
343
21F
344
21F
  0
DIMSTYLE
105
227
330
A
100
AcDbSymbolTableRecord
100
AcDbDimStyleTableRecord
  2
DIMSTYLE_2
 70
     0
 41
2.5
 42
0.75
 44
0.75
 47
0.5
 48
0.5
 73
     0
 74
     0
 77
     1
 78
     8
 79
     2
140
3.0
147
0.75
171
     1
178
     0
179
     2
271
     2
272
     2
284
     8
340
11
341
21F
342
21F
343
21F
344
21F
  0
ENDTAB
  0
TABLE
  2
BLOCK_RECORD
  5
1
330
0
100
AcDbSymbolTable
 70
     6
  0
BLOCK_RECORD
  5
1F
330
1
100
AcDbSymbolTableRecord
100
AcDbBlockTableRecord
  2
*MODEL_SPACE
340
43B
 70
     0
280
     1
281
     0
  0
BLOCK_RECORD
  5
1B
330
1
100
AcDbSymbolTableRecord
100
AcDbBlockTableRecord
  2
*PAPER_SPACE
340
43C
 70
     0
280
     1
281
     0
  0
BLOCK_RECORD
  5
21F
330
1
100
AcDbSymbolTableRecord
100
AcDbBlockTableRecord
  2
_CLOSED
340
0
102
{BLKREFS
331
27B
331
27C
331
284
331
285
331
28D
331
28E
102
}
 70
     0
280
     1
281
     0
  0
BLOCK_RECORD
  5
220
330
1
100
AcDbSymbolTableRecord
100
AcDbBlockTableRecord
  2
*D1
340
0
 70
     0
280
     1
281
     0
  0
BLOCK_RECORD
  5
221
330
1
100
AcDbSymbolTableRecord
100
AcDbBlockTableRecord
  2
*D2
340
0
 70
     0
280
     1
281
     0
  0
BLOCK_RECORD
  5
222
330
1
100
AcDbSymbolTableRecord
100
AcDbBlockTableRecord
  2
*D3
340
0
 70
     0
280
     1
281
     0
  0
BLOCK_RECORD
  5
223
330
1
100
AcDbSymbolTableRecord
100
AcDbBlockTableRecord
  2
LOGO2_BL1
340
0
102
{BLKREFS
331
3FF
102
}
 70
     0
280
     1
281
     0
  0
BLOCK_RECORD
  5
224
330
1
100
AcDbSymbolTableRecord
100
AcDbBlockTableRecord
  2
PROIEZIONE_EU_BL0
340
0
102
{BLKREFS
331
3FC
102
}
 70
     0
280
     1
281
     0
  0
ENDTAB
  0
ENDSEC
  0
SECTION
  2
BLOCKS
  0
BLOCK
  5
20
330
1F
100
AcDbEntity
  8
0
100
AcDbBlockBegin
  2
*MODEL_SPACE
 70
     0
 10
0.0
 20
0.0
 30
0.0
  3
*MODEL_SPACE
  1

  0
ENDBLK
  5
21
330
1F
100
AcDbEntity
  8
0
100
AcDbBlockEnd
  0
BLOCK
  5
1C
330
1B
100
AcDbEntity
 67
     1
  8
0
100
AcDbBlockBegin
  2
*PAPER_SPACE
 70
     0
 10
0.0
 20
0.0
 30
0.0
  3
*PAPER_SPACE
  1

  0
ENDBLK
  5
1D
330
1B
100
AcDbEntity
 67
     1
  8
0
100
AcDbBlockEnd
  0
BLOCK
  5
26E
330
21F
100
AcDbEntity
  8
0
100
AcDbBlockBegin
  2
_CLOSED
 70
     0
 10
0.0
 20
0.0
 30
0.0
  3
_CLOSED
  1

  0
LINE
  5
26F
330
21F
100
AcDbEntity
  8
0
  6
ByBlock
 62
     0
100
AcDbLine
 10
0.0
 20
0.0
 30
0.0
 11
-1.0
 21
0.2
 31
0.0
  0
LINE
  5
270
330
21F
100
AcDbEntity
  8
0
  6
ByBlock
 62
     0
100
AcDbLine
 10
-1.0
 20
0.2
 30
0.0
 11
-1.0
 21
-0.2
 31
0.0
  0
LINE
  5
271
330
21F
100
AcDbEntity
  8
0
  6
ByBlock
 62
     0
100
AcDbLine
 10
-1.0
 20
-0.2
 30
0.0
 11
0.0
 21
0.0
 31
0.0
  0
LINE
  5
272
330
21F
100
AcDbEntity
  8
0
  6
ByBlock
 62
     0
100
AcDbLine
 10
-1.0
 20
0.0
 30
0.0
 11
0.0
 21
0.0
 31
0.0
  0
ENDBLK
  5
273
330
21F
100
AcDbEntity
  8
0
  6
ByBlock
 62
     0
100
AcDbBlockEnd
  0
BLOCK
  5
274
330
220
100
AcDbEntity
  8
0
100
AcDbBlockBegin
  2
*D1
 70
     1
 10
0.0
 20
0.0
 30
0.0
  3
*D1
  1

  0
MTEXT
  5
275
330
220
100
AcDbEntity
  8
0
  6
Continuous
 62
     2
100
AcDbMText
 10
372.2481332756
 20
295.7167456422
 30
0.0
 40
3.0
 41
13.1785714286
 46
0.0
 71
     3
 72
     1
  1
9,87
 11
0.0
 21
1.0
 31
0.0
 73
     1
 44
1.0
  0
LINE
  5
276
330
220
100
AcDbEntity
  8
0
  6
Continuous
 62
     2
100
AcDbLine
 10
365.4758298394
 20
307.084931844
 30
0.0
 11
376.7481332756
 21
307.084931844
 31
0.0
  0
LINE
  5
277
330
220
100
AcDbEntity
  8
0
  6
Continuous
 62
     2
100
AcDbLine
 10
365.4758298394
 20
297.2168050422
 30
0.0
 11
376.7481332756
 21
297.2168050422
 31
0.0
  0
LINE
  5
278
330
220
100
AcDbEntity
  8
0
  6
Continuous
 62
     2
100
AcDbLine
 10
375.9981332756
 20
307.084931844
 30
0.0
 11
375.9981332756
 21
302.1508684431
 31
0.0
  0
LINE
  5
279
330
220
100
AcDbEntity
  8
0
  6
Continuous
 62
     2
100
AcDbLine
 10
375.9981332756
 20
297.2168050422
 30
0.0
 11
375.9981332756
 21
302.1508684431
 31
0.0
  0
LINE
  5
27A
330
220
100
AcDbEntity
  8
0
  6
Continuous
 62
     2
100
AcDbLine
 10
375.9981332756
 20
302.1508684431
 30
0.0
 11
375.9981332756
 21
286.9310313565
 31
0.0
  0
INSERT
  5
27B
330
220
100
AcDbEntity
  8
0
  6
Continuous
 62
     2
100
AcDbBlockReference
  2
_CLOSED
 10
375.9981332756
 20
307.084931844
 30
0.0
 41
2.5
 42
2.5
 43
2.5
 50
90.0
  0
INSERT
  5
27C
330
220
100
AcDbEntity
  8
0
  6
Continuous
 62
     2
100
AcDbBlockReference
  2
_CLOSED
 10
375.9981332756
 20
297.2168050422
 30
0.0
 41
2.5
 42
2.5
 43
2.5
 50
270.0
  0
ENDBLK
  5
27D
330
220
100
AcDbEntity
  8
0
  6
ByBlock
 62
     0
100
AcDbBlockEnd
  0
BLOCK
  5
27E
330
221
100
AcDbEntity
  8
0
100
AcDbBlockBegin
  2
*D2
 70
     1
 10
0.0
 20
0.0
 30
0.0
  3
*D2
  1

  0
MTEXT
  5
27F
330
221
100
AcDbEntity
  8
0
  6
Continuous
 62
     2
100
AcDbMText
 10
488.2552462662
 20
291.0915168595
 30
0.0
 40
3.0
 41
15.75
 46
0.0
 71
     2
 72
     1
  1
28,01
 73
     1
 44
1.0
  0
LINE
  5
280
330
221
100
AcDbEntity
  8
0
  6
Continuous
 62
     2
100
AcDbLine
 10
474.249321785
 20
296.857772654
 30
0.0
 11
474.249321785
 21
286.5915168595
 31
0.0
  0
LINE
  5
281
330
221
100
AcDbEntity
  8
0
  6
Continuous
 62
     2
100
AcDbLine
 10
502.2611707474
 20
296.857772654
 30
0.0
 11
502.2611707474
 21
286.5915168595
 31
0.0
  0
LINE
  5
282
330
221
100
AcDbEntity
  8
0
  6
Continuous
 62
     2
100
AcDbLine
 10
474.249321785
 20
287.3415168595
 30
0.0
 11
488.2552462662
 21
287.3415168595
 31
0.0
  0
LINE
  5
283
330
221
100
AcDbEntity
  8
0
  6
Continuous
 62
     2
100
AcDbLine
 10
502.2611707474
 20
287.3415168595
 30
0.0
 11
488.2552462662
 21
287.3415168595
 31
0.0
  0
INSERT
  5
284
330
221
100
AcDbEntity
  8
0
  6
Continuous
 62
     2
100
AcDbBlockReference
  2
_CLOSED
 10
474.249321785
 20
287.3415168595
 30
0.0
 41
2.5
 42
2.5
 43
2.5
 50
180.0
  0
INSERT
  5
285
330
221
100
AcDbEntity
  8
0
  6
Continuous
 62
     2
100
AcDbBlockReference
  2
_CLOSED
 10
502.2611707474
 20
287.3415168595
 30
0.0
 41
2.5
 42
2.5
 43
2.5
  0
ENDBLK
  5
286
330
221
100
AcDbEntity
  8
0
  6
ByBlock
 62
     0
100
AcDbBlockEnd
  0
BLOCK
  5
287
330
222
100
AcDbEntity
  8
0
100
AcDbBlockBegin
  2
*D3
 70
     1
 10
0.0
 20
0.0
 30
0.0
  3
*D3
  1

  0
MTEXT
  5
288
330
222
100
AcDbEntity
  8
0
  6
Continuous
 62
     2
100
AcDbMText
 10
218.1167974513
 20
93.6410805874
 30
0.0
 40
3.0
 41
10.6071428571
 46
0.0
 71
     2
 72
     1
  1
294
 73
     1
 44
1.0
  0
LINE
  5
289
330
222
100
AcDbEntity
  8
0
  6
Continuous
 62
     2
100
AcDbLine
 10
71.1167974513
 20
103.3171784579
 30
0.0
 11
71.1167974513
 21
89.1410805874
 31
0.0
  0
LINE
  5
28A
330
222
100
AcDbEntity
  8
0
  6
Continuous
 62
     2
100
AcDbLine
 10
365.1167974513
 20
103.3171784579
 30
0.0
 11
365.1167974513
 21
89.1410805874
 31
0.0
  0
LINE
  5
28B
330
222
100
AcDbEntity
  8
0
  6
Continuous
 62
     2
100
AcDbLine
 10
71.1167974513
 20
89.8910805874
 30
0.0
 11
218.1167974513
 21
89.8910805874
 31
0.0
  0
LINE
  5
28C
330
222
100
AcDbEntity
  8
0
  6
Continuous
 62
     2
100
AcDbLine
 10
365.1167974513
 20
89.8910805874
 30
0.0
 11
218.1167974513
 21
89.8910805874
 31
0.0
  0
INSERT
  5
28D
330
222
100
AcDbEntity
  8
0
  6
Continuous
 62
     2
100
AcDbBlockReference
  2
_CLOSED
 10
71.1167974513
 20
89.8910805874
 30
0.0
 41
2.5
 42
2.5
 43
2.5
 50
180.0
  0
INSERT
  5
28E
330
222
100
AcDbEntity
  8
0
  6
Continuous
 62
     2
100
AcDbBlockReference
  2
_CLOSED
 10
365.1167974513
 20
89.8910805874
 30
0.0
 41
2.5
 42
2.5
 43
2.5
  0
ENDBLK
  5
28F
330
222
100
AcDbEntity
  8
0
  6
ByBlock
 62
     0
100
AcDbBlockEnd
  0
BLOCK
  5
228
330
223
100
AcDbEntity
  8
0
100
AcDbBlockBegin
  2
LOGO2_BL1
 70
     0
 10
467.0145930535
 20
42.5233662522
 30
0.0
  3
LOGO2_BL1
  1

  0
LINE
  5
229
330
223
100
AcDbEntity
  8
0
  6
Continuous
 62
     7
100
AcDbLine
 10
458.7575182817
 20
45.7188575911
 30
0.0
 11
457.4531773523
 21
45.7188575911
 31
0.0
  0
LINE
  5
22A
330
223
100
AcDbEntity
  8
0
  6
Continuous
 62
     7
100
AcDbLine
 10
457.4531773523
 20
45.7188575911
 30
0.0
 11
457.4531773523
 21
35.2597915312
 31
0.0
  0
LINE
  5
22B
330
223
100
AcDbEntity
  8
0
  6
Continuous
 62
     7
100
AcDbLine
 10
457.4531773523
 20
35.2597915312
 30
0.0
 11
461.9342322406
 21
35.2597915312
 31
0.0
  0
LINE
  5
22C
330
223
100
AcDbEntity
  8
0
  6
Continuous
 62
     7
100
AcDbLine
 10
461.9342322406
 20
35.2597915312
 30
0.0
 11
461.9342322406
 21
36.4526458563
 31
0.0
  0
LINE
  5
22D
330
223
100
AcDbEntity
  8
0
  6
Continuous
 62
     7
100
AcDbLine
 10
461.9342322406
 20
36.4526458563
 30
0.0
 11
458.7575182817
 21
36.4526458563
 31
0.0
  0
LINE
  5
22E
330
223
100
AcDbEntity
  8
0
  6
Continuous
 62
     7
100
AcDbLine
 10
458.7575182817
 20
36.4526458563
 30
0.0
 11
458.7575182817
 21
45.7188575911
 31
0.0
  0
LINE
  5
22F
330
223
100
AcDbEntity
  8
0
  6
Continuous
 62
     7
100
AcDbLine
 10
473.693844498
 20
45.7188575911
 30
0.0
 11
472.3900269799
 21
45.7188575911
 31
0.0
  0
LINE
  5
230
330
223
100
AcDbEntity
  8
0
  6
Continuous
 62
     7
100
AcDbLine
 10
472.3900269799
 20
45.7188575911
 30
0.0
 11
472.3900269799
 21
35.2597915312
 31
0.0
  0
LINE
  5
231
330
223
100
AcDbEntity
  8
0
  6
Continuous
 62
     7
100
AcDbLine
 10
472.3900269799
 20
35.2597915312
 30
0.0
 11
476.871212721
 21
35.2597915312
 31
0.0
  0
LINE
  5
232
330
223
100
AcDbEntity
  8
0
  6
Continuous
 62
     7
100
AcDbLine
 10
476.871212721
 20
35.2597915312
 30
0.0
 11
476.871212721
 21
36.4526458563
 31
0.0
  0
LINE
  5
233
330
223
100
AcDbEntity
  8
0
  6
Continuous
 62
     7
100
AcDbLine
 10
476.871212721
 20
36.4526458563
 30
0.0
 11
473.693844498
 21
36.4526458563
 31
0.0
  0
LINE
  5
234
330
223
100
AcDbEntity
  8
0
  6
Continuous
 62
     7
100
AcDbLine
 10
473.693844498
 20
36.4526458563
 30
0.0
 11
473.693844498
 21
45.7188575911
 31
0.0
  0
LWPOLYLINE
  5
235
330
223
100
AcDbEntity
  8
0
  6
Continuous
 62
     7
100
AcDbPolyline
 90
        2
 70
     0
 43
0.2
 10
455.8075722632
 20
31.9162402243
 10
455.8075722632
 20
30.0591769749
  0
LWPOLYLINE
  5
236
330
223
100
AcDbEntity
  8
0
  6
Continuous
 62
     7
100
AcDbPolyline
 90
        2
 70
     0
 43
0.2
 10
455.8075722632
 20
30.0591769749
 10
456.6032882736
 20
30.0591769749
  0
LWPOLYLINE
  5
237
330
223
100
AcDbEntity
  8
0
  6
Continuous
 62
     7
100
AcDbPolyline
 90
        2
 70
     0
 43
0.2
 10
456.6032882736
 20
30.0591769749
 10
456.6032882736
 20
30.2711585465
  0
LWPOLYLINE
  5
238
330
223
100
AcDbEntity
  8
0
  6
Continuous
 62
     7
100
AcDbPolyline
 90
        2
 70
     0
 43
0.2
 10
456.6032882736
 20
30.2711585465
 10
456.0391817581
 20
30.2711585465
  0
LWPOLYLINE
  5
239
330
223
100
AcDbEntity
  8
0
  6
Continuous
 62
     7
100
AcDbPolyline
 90
        2
 70
     0
 43
0.2
 10
456.0391817581
 20
30.2711585465
 10
456.0391817581
 20
31.9162402243
  0
LWPOLYLINE
  5
23A
330
223
100
AcDbEntity
  8
0
  6
Continuous
 62
     7
100
AcDbPolyline
 90
        2
 70
     0
 43
0.2
 10
456.0391817581
 20
31.9162402243
 10
455.8075722632
 20
31.9162402243
  0
SPLINE
  5
23B
330
223
100
AcDbEntity
  8
0
  6
Continuous
 62
     7
100
AcDbSpline
 70
     3
 71
     3
 72
    35
 73
    31
 74
     0
 42
0.000000001
 43
0.0000001
 40
0.0
 40
0.0
 40
0.0
 40
0.0
 40
1.0
 40
1.0
 40
1.0
 40
2.0
 40
2.0
 40
2.0
 40
3.0
 40
3.0
 40
3.0
 40
4.0
 40
4.0
 40
4.0
 40
5.0
 40
5.0
 40
5.0
 40
6.0
 40
6.0
 40
6.0
 40
7.0
 40
7.0
 40
7.0
 40
8.0
 40
8.0
 40
8.0
 40
9.0
 40
9.0
 40
9.0
 40
10.0
 40
10.0
 40
10.0
 40
10.0
 10
458.0015815292
 20
31.2117286308
 30
0.0
 10
458.0015815292
 20
31.2117286308
 30
0.0
 10
458.0015815292
 20
30.5496133517
 30
0.0
 10
458.0015815292
 20
30.5496133517
 30
0.0
 10
458.0015815292
 20
30.2345197564
 30
0.0
 10
458.149445218
 20
30.0199211283
 30
0.0
 10
458.4895317023
 20
30.0199211283
 30
0.0
 10
458.8290947753
 20
30.0199211283
 30
0.0
 10
458.9772201698
 20
30.2345197564
 30
0.0
 10
458.9772201698
 20
30.5496133517
 30
0.0
 10
458.9772201698
 20
30.5496133517
 30
0.0
 10
458.9772201698
 20
31.2117286308
 30
0.0
 10
458.9772201698
 20
31.2117286308
 30
0.0
 10
458.9772201698
 20
31.2117286308
 30
0.0
 10
458.7551629309
 20
31.2117286308
 30
0.0
 10
458.7551629309
 20
31.2117286308
 30
0.0
 10
458.7551629309
 20
31.2117286308
 30
0.0
 10
458.7551629309
 20
30.5747370935
 30
0.0
 10
458.7551629309
 20
30.5747370935
 30
0.0
 10
458.7551629309
 20
30.3889260863
 30
0.0
 10
458.7084484734
 20
30.2261451758
 30
0.0
 10
458.4895317023
 20
30.2261451758
 30
0.0
 10
458.2700915198
 20
30.2261451758
 30
0.0
 10
458.2233770624
 20
30.3889260863
 30
0.0
 10
458.2233770624
 20
30.5747370935
 30
0.0
 10
458.2233770624
 20
30.5747370935
 30
0.0
 10
458.2233770624
 20
31.2117286308
 30
0.0
 10
458.2233770624
 20
31.2117286308
 30
0.0
 10
458.2233770624
 20
31.2117286308
 30
0.0
 10
458.0015815292
 20
31.2117286308
 30
0.0
 10
458.0015815292
 20
31.2117286308
 30
0.0
  0
SPLINE
  5
23C
330
223
100
AcDbEntity
  8
0
  6
Continuous
 62
     7
100
AcDbSpline
 70
     3
 71
     3
 72
    35
 73
    31
 74
     0
 42
0.000000001
 43
0.0000001
 40
0.0
 40
0.0
 40
0.0
 40
0.0
 40
1.0
 40
1.0
 40
1.0
 40
2.0
 40
2.0
 40
2.0
 40
3.0
 40
3.0
 40
3.0
 40
4.0
 40
4.0
 40
4.0
 40
5.0
 40
5.0
 40
5.0
 40
6.0
 40
6.0
 40
6.0
 40
7.0
 40
7.0
 40
7.0
 40
8.0
 40
8.0
 40
8.0
 40
9.0
 40
9.0
 40
9.0
 40
10.0
 40
10.0
 40
10.0
 40
10.0
 10
461.400352727
 20
31.1703791391
 30
0.0
 10
461.3118962193
 20
31.2216734453
 30
0.0
 10
461.1984468227
 20
31.2467971871
 30
0.0
 10
461.0948113877
 20
31.2467971871
 30
0.0
 10
460.7399385345
 20
31.2467971871
 30
0.0
 10
460.4644933442
 20
30.982997898
 30
0.0
 10
460.4644933442
 20
30.6255079884
 30
0.0
 10
460.4644933442
 20
30.2805799497
 30
0.0
 10
460.7429481494
 20
30.0204445396
 30
0.0
 10
461.0825112224
 20
30.0204445396
 30
0.0
 10
461.1984468227
 20
30.0204445396
 30
0.0
 10
461.2992034956
 20
30.0424278137
 30
0.0
 10
461.400352727
 20
30.0963391764
 30
0.0
 10
461.400352727
 20
30.0963391764
 30
0.0
 10
461.400352727
 20
30.3789812718
 30
0.0
 10
461.400352727
 20
30.3789812718
 30
0.0
 10
461.3164760681
 20
30.2858140626
 30
0.0
 10
461.2129714859
 20
30.2266685871
 30
0.0
 10
461.0848665732
 20
30.2266685871
 30
0.0
 10
460.8511634332
 20
30.2266685871
 30
0.0
 10
460.685896319
 20
30.3988709008
 30
0.0
 10
460.685896319
 20
30.6354528029
 30
0.0
 10
460.685896319
 20
30.8474343745
 30
0.0
 10
460.8536496368
 20
31.0395263171
 30
0.0
 10
461.0704727628
 20
31.0395263171
 30
0.0
 10
461.2032883771
 20
31.0395263171
 30
0.0
 10
461.3118962193
 20
30.9856149545
 30
0.0
 10
461.400352727
 20
30.8845965759
 30
0.0
 10
461.400352727
 20
30.8845965759
 30
0.0
 10
461.400352727
 20
31.1703791391
 30
0.0
 10
461.400352727
 20
31.1703791391
 30
0.0
  0
SPLINE
  5
23D
330
223
100
AcDbEntity
  8
0
  6
Continuous
 62
     7
100
AcDbSpline
 70
     3
 71
     3
 72
    32
 73
    28
 74
     0
 42
0.000000001
 43
0.0000001
 40
0.0
 40
0.0
 40
0.0
 40
0.0
 40
1.0
 40
1.0
 40
1.0
 40
2.0
 40
2.0
 40
2.0
 40
3.0
 40
3.0
 40
3.0
 40
4.0
 40
4.0
 40
4.0
 40
5.0
 40
5.0
 40
5.0
 40
6.0
 40
6.0
 40
6.0
 40
7.0
 40
7.0
 40
7.0
 40
8.0
 40
8.0
 40
8.0
 40
9.0
 40
9.0
 40
9.0
 40
9.0
 10
463.9322239792
 20
30.5988140127
 30
0.0
 10
463.9322239792
 20
30.5988140127
 30
0.0
 10
463.9322239792
 20
30.6328357464
 30
0.0
 10
463.9322239792
 20
30.6328357464
 30
0.0
 10
463.9322239792
 20
30.9751467287
 30
0.0
 10
463.7593674014
 20
31.2467971871
 30
0.0
 10
463.3927177942
 20
31.2467971871
 30
0.0
 10
463.0210957798
 20
31.2467971871
 30
0.0
 10
462.831359188
 20
30.9803808416
 30
0.0
 10
462.831359188
 20
30.6255079884
 30
0.0
 10
462.831359188
 20
30.2858140626
 30
0.0
 10
463.0454344047
 20
30.0199211283
 30
0.0
 10
463.3975593486
 20
30.0199211283
 30
0.0
 10
463.6215793799
 20
30.0199211283
 30
0.0
 10
463.8237469898
 20
30.135595023
 30
0.0
 10
463.9322239792
 20
30.3350147236
 30
0.0
 10
463.9322239792
 20
30.3350147236
 30
0.0
 10
463.7445810325
 20
30.4417906264
 30
0.0
 10
463.7445810325
 20
30.4417906264
 30
0.0
 10
463.6610969321
 20
30.3030866351
 30
0.0
 10
463.5698925152
 20
30.2172471839
 30
0.0
 10
463.4003072579
 20
30.2172471839
 30
0.0
 10
463.1883256863
 20
30.2172471839
 30
0.0
 10
463.0553792192
 20
30.4020113685
 30
0.0
 10
463.0530238684
 20
30.5988140127
 30
0.0
 10
463.0530238684
 20
30.5988140127
 30
0.0
 10
463.9322239792
 20
30.5988140127
 30
0.0
 10
463.9322239792
 20
30.5988140127
 30
0.0
  0
SPLINE
  5
23E
330
223
100
AcDbEntity
  8
0
  6
Continuous
 62
     7
100
AcDbSpline
 70
     3
 71
     3
 72
    14
 73
    10
 74
     0
 42
0.000000001
 43
0.0000001
 40
0.0
 40
0.0
 40
0.0
 40
0.0
 40
1.0
 40
1.0
 40
1.0
 40
2.0
 40
2.0
 40
2.0
 40
3.0
 40
3.0
 40
3.0
 40
3.0
 10
463.065062328
 20
30.7663056248
 30
0.0
 10
463.0926722735
 20
30.9311801805
 30
0.0
 10
463.2205154805
 20
31.0541818332
 30
0.0
 10
463.3927177942
 20
31.0541818332
 30
0.0
 10
463.5698925152
 20
31.0541818332
 30
0.0
 10
463.6833419118
 20
30.9385079386
 30
0.0
 10
463.7105592988
 20
30.7663056248
 30
0.0
 10
463.7105592988
 20
30.7663056248
 30
0.0
 10
463.065062328
 20
30.7663056248
 30
0.0
 10
463.065062328
 20
30.7663056248
 30
0.0
  0
SPLINE
  5
23F
330
223
100
AcDbEntity
  8
0
  6
Continuous
 62
     7
100
AcDbSpline
 70
     3
 71
     3
 72
    20
 73
    16
 74
     0
 42
0.000000001
 43
0.0000001
 40
0.0
 40
0.0
 40
0.0
 40
0.0
 40
1.0
 40
1.0
 40
1.0
 40
2.0
 40
2.0
 40
2.0
 40
3.0
 40
3.0
 40
3.0
 40
4.0
 40
4.0
 40
4.0
 40
5.0
 40
5.0
 40
5.0
 40
5.0
 10
465.9562554294
 20
30.97567014
 30
0.0
 10
465.9562554294
 20
30.97567014
 30
0.0
 10
466.367394996
 20
30.4731953036
 30
0.0
 10
466.367394996
 20
30.4731953036
 30
0.0
 10
466.2513285429
 20
30.357521409
 30
0.0
 10
466.1135405214
 20
30.2271919983
 30
0.0
 10
465.9415999133
 20
30.2271919983
 30
0.0
 10
465.7641634867
 20
30.2271919983
 30
0.0
 10
465.5966718746
 20
30.3915431427
 30
0.0
 10
465.5966718746
 20
30.568456158
 30
0.0
 10
465.5966718746
 20
30.7464159959
 30
0.0
 10
465.8064289482
 20
30.8725581163
 30
0.0
 10
465.9340104497
 20
30.9604912126
 30
0.0
 10
465.9340104497
 20
30.9604912126
 30
0.0
 10
465.9562554294
 20
30.97567014
 30
0.0
 10
465.9562554294
 20
30.97567014
 30
0.0
  0
SPLINE
  5
240
330
223
100
AcDbEntity
  8
0
  6
Continuous
 62
     7
100
AcDbSpline
 70
     3
 71
     3
 72
    23
 73
    19
 74
     0
 42
0.000000001
 43
0.0000001
 40
0.0
 40
0.0
 40
0.0
 40
0.0
 40
1.0
 40
1.0
 40
1.0
 40
2.0
 40
2.0
 40
2.0
 40
3.0
 40
3.0
 40
3.0
 40
4.0
 40
4.0
 40
4.0
 40
5.0
 40
5.0
 40
5.0
 40
6.0
 40
6.0
 40
6.0
 40
6.0
 10
466.0055869433
 20
31.266686816
 30
0.0
 10
466.0055869433
 20
31.266686816
 30
0.0
 10
465.9439552641
 20
31.3451985092
 30
0.0
 10
465.9439552641
 20
31.3451985092
 30
0.0
 10
465.8900439015
 20
31.4137653879
 30
0.0
 10
465.8332537767
 20
31.4828556779
 30
0.0
 10
465.8332537767
 20
31.5765462985
 30
0.0
 10
465.8332537767
 20
31.6953606608
 30
0.0
 10
465.9291688952
 20
31.7728255314
 30
0.0
 10
466.0401320883
 20
31.7728255314
 30
0.0
 10
466.1633954466
 20
31.7728255314
 30
0.0
 10
466.2566935086
 20
31.7016415963
 30
0.0
 10
466.2566935086
 20
31.5713121856
 30
0.0
 10
466.2566935086
 20
31.4362720733
 30
0.0
 10
466.1285885959
 20
31.3598540253
 30
0.0
 10
466.0350288282
 20
31.2860530337
 30
0.0
 10
466.0350288282
 20
31.2860530337
 30
0.0
 10
466.0055869433
 20
31.266686816
 30
0.0
 10
466.0055869433
 20
31.266686816
 30
0.0
  0
SPLINE
  5
241
330
223
100
AcDbEntity
  8
0
  6
Continuous
 62
     7
100
AcDbSpline
 70
     3
 71
     3
 72
    50
 73
    46
 74
     0
 42
0.000000001
 43
0.0000001
 40
0.0
 40
0.0
 40
0.0
 40
0.0
 40
1.0
 40
1.0
 40
1.0
 40
2.0
 40
2.0
 40
2.0
 40
3.0
 40
3.0
 40
3.0
 40
4.0
 40
4.0
 40
4.0
 40
5.0
 40
5.0
 40
5.0
 40
6.0
 40
6.0
 40
6.0
 40
7.0
 40
7.0
 40
7.0
 40
8.0
 40
8.0
 40
8.0
 40
9.0
 40
9.0
 40
9.0
 40
10.0
 40
10.0
 40
10.0
 40
11.0
 40
11.0
 40
11.0
 40
12.0
 40
12.0
 40
12.0
 40
13.0
 40
13.0
 40
13.0
 40
14.0
 40
14.0
 40
14.0
 40
15.0
 40
15.0
 40
15.0
 40
15.0
 10
466.707743186
 20
30.0597003862
 30
0.0
 10
466.707743186
 20
30.0597003862
 30
0.0
 10
466.9931331907
 20
30.0597003862
 30
0.0
 10
466.9931331907
 20
30.0597003862
 30
0.0
 10
466.9931331907
 20
30.0597003862
 30
0.0
 10
466.6607670229
 20
30.4705782472
 30
0.0
 10
466.6607670229
 20
30.4705782472
 30
0.0
 10
466.6607670229
 20
30.4705782472
 30
0.0
 10
466.8872732577
 20
30.7364711814
 30
0.0
 10
466.8872732577
 20
30.7364711814
 30
0.0
 10
466.8872732577
 20
30.7364711814
 30
0.0
 10
466.7390170104
 20
30.8893072775
 30
0.0
 10
466.7390170104
 20
30.8893072775
 30
0.0
 10
466.7390170104
 20
30.8893072775
 30
0.0
 10
466.5231098542
 20
30.6380698593
 30
0.0
 10
466.5231098542
 20
30.6380698593
 30
0.0
 10
466.5231098542
 20
30.6380698593
 30
0.0
 10
466.1360472068
 20
31.1059995507
 30
0.0
 10
466.1360472068
 20
31.1059995507
 30
0.0
 10
466.2915003593
 20
31.2201032114
 30
0.0
 10
466.4737783403
 20
31.3598540253
 30
0.0
 10
466.4737783403
 20
31.5692185404
 30
0.0
 10
466.4737783403
 20
31.8131282006
 30
0.0
 10
466.2717415832
 20
31.9565428935
 30
0.0
 10
466.0452353483
 20
31.9565428935
 30
0.0
 10
465.8010639825
 20
31.9565428935
 30
0.0
 10
465.6166923564
 20
31.8058004426
 30
0.0
 10
465.6166923564
 20
31.5493289115
 30
0.0
 10
465.6166923564
 20
31.3917821139
 30
0.0
 10
465.7153553842
 20
31.2541249451
 30
0.0
 10
465.8206919058
 20
31.1431617521
 30
0.0
 10
465.8206919058
 20
31.1431617521
 30
0.0
 10
465.705148864
 20
31.0594159461
 30
0.0
 10
465.705148864
 20
31.0594159461
 30
0.0
 10
465.5274507318
 20
30.9311801805
 30
0.0
 10
465.3801104543
 20
30.8034678263
 30
0.0
 10
465.3801104543
 20
30.5663625129
 30
0.0
 10
465.3801104543
 20
30.2460348047
 30
0.0
 10
465.6386756305
 20
30.0199211283
 30
0.0
 10
465.9490585242
 20
30.0199211283
 30
0.0
 10
466.1679752953
 20
30.0199211283
 30
0.0
 10
466.365170498
 20
30.1450164261
 30
0.0
 10
466.5054447232
 20
30.3109378044
 30
0.0
 10
466.5054447232
 20
30.3109378044
 30
0.0
 10
466.707743186
 20
30.0597003862
 30
0.0
 10
466.707743186
 20
30.0597003862
 30
0.0
  0
LWPOLYLINE
  5
242
330
223
100
AcDbEntity
  8
0
  6
Continuous
 62
     7
100
AcDbPolyline
 90
        2
 70
     0
 43
0.2
 10
468.6431872757
 20
31.9162402243
 10
468.4118394864
 20
31.9162402243
  0
LWPOLYLINE
  5
243
330
223
100
AcDbEntity
  8
0
  6
Continuous
 62
     7
100
AcDbPolyline
 90
        2
 70
     0
 43
0.2
 10
468.4118394864
 20
31.9162402243
 10
468.4118394864
 20
30.0591769749
  0
LWPOLYLINE
  5
244
330
223
100
AcDbEntity
  8
0
  6
Continuous
 62
     7
100
AcDbPolyline
 90
        2
 70
     0
 43
0.2
 10
468.4118394864
 20
30.0591769749
 10
469.2071629384
 20
30.0591769749
  0
LWPOLYLINE
  5
245
330
223
100
AcDbEntity
  8
0
  6
Continuous
 62
     7
100
AcDbPolyline
 90
        2
 70
     0
 43
0.2
 10
469.2071629384
 20
30.0591769749
 10
469.2071629384
 20
30.2711585465
  0
LWPOLYLINE
  5
246
330
223
100
AcDbEntity
  8
0
  6
Continuous
 62
     7
100
AcDbPolyline
 90
        2
 70
     0
 43
0.2
 10
469.2071629384
 20
30.2711585465
 10
468.6431872757
 20
30.2711585465
  0
LWPOLYLINE
  5
247
330
223
100
AcDbEntity
  8
0
  6
Continuous
 62
     7
100
AcDbPolyline
 90
        2
 70
     0
 43
0.2
 10
468.6431872757
 20
30.2711585465
 10
468.6431872757
 20
31.9162402243
  0
LWPOLYLINE
  5
248
330
223
100
AcDbEntity
  8
0
  6
Continuous
 62
     7
100
AcDbPolyline
 90
        2
 70
     0
 43
0.2
 10
470.8862663498
 20
31.2117286308
 10
470.6651250807
 20
31.2117286308
  0
LWPOLYLINE
  5
249
330
223
100
AcDbEntity
  8
0
  6
Continuous
 62
     7
100
AcDbPolyline
 90
        2
 70
     0
 43
0.2
 10
470.6651250807
 20
31.2117286308
 10
470.6651250807
 20
30.0597003862
  0
LWPOLYLINE
  5
24A
330
223
100
AcDbEntity
  8
0
  6
Continuous
 62
     7
100
AcDbPolyline
 90
        2
 70
     0
 43
0.2
 10
470.6651250807
 20
30.0597003862
 10
470.8862663498
 20
30.0597003862
  0
LWPOLYLINE
  5
24B
330
223
100
AcDbEntity
  8
0
  6
Continuous
 62
     7
100
AcDbPolyline
 90
        2
 70
     0
 43
0.2
 10
470.8862663498
 20
30.0597003862
 10
470.8862663498
 20
31.2117286308
  0
LWPOLYLINE
  5
24C
330
223
100
AcDbEntity
  8
0
  6
Continuous
 62
     7
100
AcDbPolyline
 90
        2
 70
     1
 43
0.2
 10
470.6232430726
 20
31.7416825598
 42
1.0
 10
470.9284100636
 20
31.7416825598
 42
1.0
  0
SPLINE
  5
24D
330
223
100
AcDbEntity
  8
0
  6
Continuous
 62
     7
100
AcDbSpline
 70
     3
 71
     3
 72
    17
 73
    13
 74
     0
 42
0.000000001
 43
0.0000001
 40
0.0
 40
0.0
 40
0.0
 40
0.0
 40
1.0
 40
1.0
 40
1.0
 40
2.0
 40
2.0
 40
2.0
 40
3.0
 40
3.0
 40
3.0
 40
4.0
 40
4.0
 40
4.0
 40
4.0
 10
473.0165502915
 20
30.2172471839
 30
0.0
 10
472.7825854458
 20
30.2172471839
 30
0.0
 10
472.6522560351
 20
30.419283941
 30
0.0
 10
472.6522560351
 20
30.6354528029
 30
0.0
 10
472.6522560351
 20
30.8500514309
 30
0.0
 10
472.7880812643
 20
31.0489477203
 30
0.0
 10
473.0165502915
 20
31.0489477203
 30
0.0
 10
473.2560109557
 20
31.0489477203
 30
0.0
 10
473.3915744792
 20
30.8599962454
 30
0.0
 10
473.3915744792
 20
30.6354528029
 30
0.0
 10
473.3915744792
 20
30.4093391265
 30
0.0
 10
473.2583663065
 20
30.2172471839
 30
0.0
 10
473.0165502915
 20
30.2172471839
 30
0.0
  0
SPLINE
  5
24E
330
223
100
AcDbEntity
  8
0
  6
Continuous
 62
     7
100
AcDbSpline
 70
     3
 71
     3
 72
    50
 73
    46
 74
     0
 42
0.000000001
 43
0.0000001
 40
0.0
 40
0.0
 40
0.0
 40
0.0
 40
1.0
 40
1.0
 40
1.0
 40
2.0
 40
2.0
 40
2.0
 40
3.0
 40
3.0
 40
3.0
 40
4.0
 40
4.0
 40
4.0
 40
5.0
 40
5.0
 40
5.0
 40
6.0
 40
6.0
 40
6.0
 40
7.0
 40
7.0
 40
7.0
 40
8.0
 40
8.0
 40
8.0
 40
9.0
 40
9.0
 40
9.0
 40
10.0
 40
10.0
 40
10.0
 40
11.0
 40
11.0
 40
11.0
 40
12.0
 40
12.0
 40
12.0
 40
13.0
 40
13.0
 40
13.0
 40
14.0
 40
14.0
 40
14.0
 40
15.0
 40
15.0
 40
15.0
 40
15.0
 10
473.6006772887
 20
31.2122520421
 30
0.0
 10
473.6006772887
 20
31.2122520421
 30
0.0
 10
473.3790126083
 20
31.2122520421
 30
0.0
 10
473.3790126083
 20
31.2122520421
 30
0.0
 10
473.3790126083
 20
31.2122520421
 30
0.0
 10
473.3790126083
 20
31.0149259866
 30
0.0
 10
473.3790126083
 20
31.0149259866
 30
0.0
 10
473.3790126083
 20
31.0149259866
 30
0.0
 10
473.3743019067
 20
31.0149259866
 30
0.0
 10
473.3743019067
 20
31.0149259866
 30
0.0
 10
473.282966637
 20
31.1578172682
 30
0.0
 10
473.1450477626
 20
31.2462737758
 30
0.0
 10
472.9723220377
 20
31.2462737758
 30
0.0
 10
472.6399558699
 20
31.2462737758
 30
0.0
 10
472.4308530604
 20
30.9583975675
 30
0.0
 10
472.4308530604
 20
30.6427805609
 30
0.0
 10
472.4308530604
 20
30.3130314495
 30
0.0
 10
472.6279174102
 20
30.0199211283
 30
0.0
 10
472.9827902634
 20
30.0199211283
 30
0.0
 10
473.1450477626
 20
30.0199211283
 30
0.0
 10
473.2850602822
 20
30.108377636
 30
0.0
 10
473.3743019067
 20
30.239230458
 30
0.0
 10
473.3743019067
 20
30.239230458
 30
0.0
 10
473.3790126083
 20
30.239230458
 30
0.0
 10
473.3790126083
 20
30.239230458
 30
0.0
 10
473.3790126083
 20
30.239230458
 30
0.0
 10
473.3790126083
 20
30.0199211283
 30
0.0
 10
473.3790126083
 20
30.0199211283
 30
0.0
 10
473.3790126083
 20
29.7833392262
 30
0.0
 10
473.3224841892
 20
29.5964813965
 30
0.0
 10
473.049263497
 20
29.5964813965
 30
0.0
 10
472.8469650342
 20
29.5964813965
 30
0.0
 10
472.7043354583
 20
29.7147723475
 30
0.0
 10
472.7043354583
 20
29.9209963949
 30
0.0
 10
472.7043354583
 20
29.9209963949
 30
0.0
 10
472.4826707778
 20
29.9209963949
 30
0.0
 10
472.4826707778
 20
29.9209963949
 30
0.0
 10
472.4876431851
 20
29.5964813965
 30
0.0
 10
472.7187292687
 20
29.3996787522
 30
0.0
 10
473.0390569769
 20
29.3996787522
 30
0.0
 10
473.4870970393
 20
29.3996787522
 30
0.0
 10
473.6006772887
 20
29.6849379041
 30
0.0
 10
473.6006772887
 20
30.0816836603
 30
0.0
 10
473.6006772887
 20
30.0816836603
 30
0.0
 10
473.6006772887
 20
31.2122520421
 30
0.0
 10
473.6006772887
 20
31.2122520421
 30
0.0
  0
SPLINE
  5
24F
330
223
100
AcDbEntity
  8
0
  6
Continuous
 62
     7
100
AcDbSpline
 70
     3
 71
     3
 72
    44
 73
    40
 74
     0
 42
0.000000001
 43
0.0000001
 40
0.0
 40
0.0
 40
0.0
 40
0.0
 40
1.0
 40
1.0
 40
1.0
 40
2.0
 40
2.0
 40
2.0
 40
3.0
 40
3.0
 40
3.0
 40
4.0
 40
4.0
 40
4.0
 40
5.0
 40
5.0
 40
5.0
 40
6.0
 40
6.0
 40
6.0
 40
7.0
 40
7.0
 40
7.0
 40
8.0
 40
8.0
 40
8.0
 40
9.0
 40
9.0
 40
9.0
 40
10.0
 40
10.0
 40
10.0
 40
11.0
 40
11.0
 40
11.0
 40
12.0
 40
12.0
 40
12.0
 40
13.0
 40
13.0
 40
13.0
 40
13.0
 10
475.1696026241
 20
32.1973120859
 30
0.0
 10
475.1696026241
 20
32.1973120859
 30
0.0
 10
475.1696026241
 20
30.0591769749
 30
0.0
 10
475.1696026241
 20
30.0591769749
 30
0.0
 10
475.1696026241
 20
30.0591769749
 30
0.0
 10
475.3910055989
 20
30.0591769749
 30
0.0
 10
475.3910055989
 20
30.0591769749
 30
0.0
 10
475.3910055989
 20
30.0591769749
 30
0.0
 10
475.3910055989
 20
30.5888691983
 30
0.0
 10
475.3910055989
 20
30.5888691983
 30
0.0
 10
475.3910055989
 20
30.7987571247
 30
0.0
 10
475.3910055989
 20
31.0494711316
 30
0.0
 10
475.6762647508
 20
31.0494711316
 30
0.0
 10
475.9031635441
 20
31.0494711316
 30
0.0
 10
475.9301192254
 20
30.9165246645
 30
0.0
 10
475.9301192254
 20
30.7202454315
 30
0.0
 10
475.9301192254
 20
30.7202454315
 30
0.0
 10
475.9301192254
 20
30.0591769749
 30
0.0
 10
475.9301192254
 20
30.0591769749
 30
0.0
 10
475.9301192254
 20
30.0591769749
 30
0.0
 10
476.1520456115
 20
30.0591769749
 30
0.0
 10
476.1520456115
 20
30.0591769749
 30
0.0
 10
476.1520456115
 20
30.0591769749
 30
0.0
 10
476.1520456115
 20
30.7464159959
 30
0.0
 10
476.1520456115
 20
30.7464159959
 30
0.0
 10
476.1520456115
 20
31.0269644462
 30
0.0
 10
476.0680380998
 20
31.2467971871
 30
0.0
 10
475.74299969
 20
31.2467971871
 30
0.0
 10
475.6032488761
 20
31.2467971871
 30
0.0
 10
475.4650682961
 20
31.1803239536
 30
0.0
 10
475.3957163005
 20
31.0573223009
 30
0.0
 10
475.3957163005
 20
31.0573223009
 30
0.0
 10
475.3910055989
 20
31.0573223009
 30
0.0
 10
475.3910055989
 20
31.0573223009
 30
0.0
 10
475.3910055989
 20
31.0573223009
 30
0.0
 10
475.3910055989
 20
32.1973120859
 30
0.0
 10
475.3910055989
 20
32.1973120859
 30
0.0
 10
475.3910055989
 20
32.1973120859
 30
0.0
 10
475.1696026241
 20
32.1973120859
 30
0.0
 10
475.1696026241
 20
32.1973120859
 30
0.0
  0
LWPOLYLINE
  5
250
330
223
100
AcDbEntity
  8
0
  6
Continuous
 62
     7
100
AcDbPolyline
 90
        2
 70
     0
 43
0.2
 10
477.9918362883
 20
31.0049811721
 10
478.2082668559
 20
31.0049811721
  0
LWPOLYLINE
  5
251
330
223
100
AcDbEntity
  8
0
  6
Continuous
 62
     7
100
AcDbPolyline
 90
        2
 70
     0
 43
0.2
 10
478.2082668559
 20
31.0049811721
 10
478.2082668559
 20
31.2117286308
  0
LWPOLYLINE
  5
252
330
223
100
AcDbEntity
  8
0
  6
Continuous
 62
     7
100
AcDbPolyline
 90
        2
 70
     0
 43
0.2
 10
478.2082668559
 20
31.2117286308
 10
477.9918362883
 20
31.2117286308
  0
LWPOLYLINE
  5
253
330
223
100
AcDbEntity
  8
0
  6
Continuous
 62
     7
100
AcDbPolyline
 90
        2
 70
     0
 43
0.2
 10
477.9918362883
 20
31.2117286308
 10
477.9918362883
 20
31.6524409352
  0
LWPOLYLINE
  5
254
330
223
100
AcDbEntity
  8
0
  6
Continuous
 62
     7
100
AcDbPolyline
 90
        2
 70
     0
 43
0.2
 10
477.9918362883
 20
31.6524409352
 10
477.7701716079
 20
31.6524409352
  0
LWPOLYLINE
  5
255
330
223
100
AcDbEntity
  8
0
  6
Continuous
 62
     7
100
AcDbPolyline
 90
        2
 70
     0
 43
0.2
 10
477.7701716079
 20
31.6524409352
 10
477.7701716079
 20
31.2117286308
  0
LWPOLYLINE
  5
256
330
223
100
AcDbEntity
  8
0
  6
Continuous
 62
     7
100
AcDbPolyline
 90
        2
 70
     0
 43
0.2
 10
477.7701716079
 20
31.2117286308
 10
477.6495253061
 20
31.2117286308
  0
LWPOLYLINE
  5
257
330
223
100
AcDbEntity
  8
0
  6
Continuous
 62
     7
100
AcDbPolyline
 90
        2
 70
     0
 43
0.2
 10
477.6495253061
 20
31.2117286308
 10
477.6495253061
 20
31.0049811721
  0
LWPOLYLINE
  5
258
330
223
100
AcDbEntity
  8
0
  6
Continuous
 62
     7
100
AcDbPolyline
 90
        2
 70
     0
 43
0.2
 10
477.6495253061
 20
31.0049811721
 10
477.7701716079
 20
31.0049811721
  0
LWPOLYLINE
  5
259
330
223
100
AcDbEntity
  8
0
  6
Continuous
 62
     7
100
AcDbPolyline
 90
        2
 70
     0
 43
0.2
 10
477.7701716079
 20
31.0049811721
 10
477.7701716079
 20
30.0591769749
  0
LWPOLYLINE
  5
25A
330
223
100
AcDbEntity
  8
0
  6
Continuous
 62
     7
100
AcDbPolyline
 90
        2
 70
     0
 43
0.2
 10
477.7701716079
 20
30.0591769749
 10
477.9918362883
 20
30.0591769749
  0
LWPOLYLINE
  5
25B
330
223
100
AcDbEntity
  8
0
  6
Continuous
 62
     7
100
AcDbPolyline
 90
        2
 70
     0
 43
0.2
 10
477.9918362883
 20
30.0591769749
 10
477.9918362883
 20
31.0049811721
  0
SPLINE
  5
25C
330
223
100
AcDbEntity
  8
0
  6
Continuous
 62
     7
100
AcDbSpline
 70
     3
 71
     3
 72
    20
 73
    16
 74
     0
 42
0.000000001
 43
0.0000001
 40
0.0
 40
0.0
 40
0.0
 40
0.0
 40
1.0
 40
1.0
 40
1.0
 40
2.0
 40
2.0
 40
2.0
 40
3.0
 40
3.0
 40
3.0
 40
4.0
 40
4.0
 40
4.0
 40
5.0
 40
5.0
 40
5.0
 40
5.0
 10
465.7738465956
 20
40.4201034183
 30
0.0
 10
465.7738465956
 20
40.4201034183
 30
0.0
 10
468.09020325
 20
37.5905419961
 30
0.0
 10
468.09020325
 20
37.5905419961
 30
0.0
 10
467.4385561966
 20
36.9383715314
 30
0.0
 10
466.6616829926
 20
36.2024552607
 30
0.0
 10
465.690493348
 20
36.2024552607
 30
0.0
 10
464.6919554635
 20
36.2024552607
 30
0.0
 10
463.74863747
 20
37.1320337079
 30
0.0
 10
463.74863747
 20
38.1312258565
 30
0.0
 10
463.74863747
 20
39.130418005
 30
0.0
 10
464.9274905431
 20
39.8370232436
 30
0.0
 10
465.6490130034
 20
40.3368810236
 30
0.0
 10
465.6490130034
 20
40.3368810236
 30
0.0
 10
465.7738465956
 20
40.4201034183
 30
0.0
 10
465.7738465956
 20
40.4201034183
 30
0.0
  0
SPLINE
  5
25D
330
223
100
AcDbEntity
  8
0
  6
Continuous
 62
     7
100
AcDbSpline
 70
     3
 71
     3
 72
    23
 73
    19
 74
     0
 42
0.000000001
 43
0.0000001
 40
0.0
 40
0.0
 40
0.0
 40
0.0
 40
1.0
 40
1.0
 40
1.0
 40
2.0
 40
2.0
 40
2.0
 40
3.0
 40
3.0
 40
3.0
 40
4.0
 40
4.0
 40
4.0
 40
5.0
 40
5.0
 40
5.0
 40
6.0
 40
6.0
 40
6.0
 40
6.0
 10
466.0512545781
 20
42.0578573381
 30
0.0
 10
466.0512545781
 20
42.0578573381
 30
0.0
 10
465.7047563056
 20
42.5011866989
 30
0.0
 10
465.7047563056
 20
42.5011866989
 30
0.0
 10
465.3989532606
 20
42.8892961688
 30
0.0
 10
465.0800649335
 20
43.2777981973
 30
0.0
 10
465.0800649335
 20
43.8047425113
 30
0.0
 10
465.0800649335
 20
44.470914228
 30
0.0
 10
465.621403058
 20
44.9146361473
 30
0.0
 10
466.2453093131
 20
44.9146361473
 30
0.0
 10
466.9390909752
 20
44.9146361473
 30
0.0
 10
467.4662969949
 20
44.5123945725
 30
0.0
 10
467.4662969949
 20
43.7773942715
 30
0.0
 10
467.4662969949
 20
43.014129761
 30
0.0
 10
466.7450362402
 20
42.5840165352
 30
0.0
 10
466.2179610733
 20
42.1682971198
 30
0.0
 10
466.2179610733
 20
42.1682971198
 30
0.0
 10
466.0512545781
 20
42.0578573381
 30
0.0
 10
466.0512545781
 20
42.0578573381
 30
0.0
  0
SPLINE
  5
25E
330
223
100
AcDbEntity
  8
0
  6
Continuous
 62
     7
100
AcDbSpline
 70
     3
 71
     3
 72
    50
 73
    46
 74
     0
 42
0.000000001
 43
0.0000001
 40
0.0
 40
0.0
 40
0.0
 40
0.0
 40
1.0
 40
1.0
 40
1.0
 40
2.0
 40
2.0
 40
2.0
 40
3.0
 40
3.0
 40
3.0
 40
4.0
 40
4.0
 40
4.0
 40
5.0
 40
5.0
 40
5.0
 40
6.0
 40
6.0
 40
6.0
 40
7.0
 40
7.0
 40
7.0
 40
8.0
 40
8.0
 40
8.0
 40
9.0
 40
9.0
 40
9.0
 40
10.0
 40
10.0
 40
10.0
 40
11.0
 40
11.0
 40
11.0
 40
12.0
 40
12.0
 40
12.0
 40
13.0
 40
13.0
 40
13.0
 40
14.0
 40
14.0
 40
14.0
 40
15.0
 40
15.0
 40
15.0
 40
15.0
 10
470.0048417411
 20
35.2592681199
 30
0.0
 10
470.0048417411
 20
35.2592681199
 30
0.0
 10
471.6140697456
 20
35.2592681199
 30
0.0
 10
471.6140697456
 20
35.2592681199
 30
0.0
 10
471.6140697456
 20
35.2592681199
 30
0.0
 10
469.741042452
 20
37.5764098913
 30
0.0
 10
469.741042452
 20
37.5764098913
 30
0.0
 10
469.741042452
 20
37.5764098913
 30
0.0
 10
471.0173808775
 20
39.0738895859
 30
0.0
 10
471.0173808775
 20
39.0738895859
 30
0.0
 10
471.0173808775
 20
39.0738895859
 30
0.0
 10
470.1851569297
 20
39.9349011545
 30
0.0
 10
470.1851569297
 20
39.9349011545
 30
0.0
 10
470.1851569297
 20
39.9349011545
 30
0.0
 10
468.9645618064
 20
38.5195970321
 30
0.0
 10
468.9645618064
 20
38.5195970321
 30
0.0
 10
468.9645618064
 20
38.5195970321
 30
0.0
 10
466.7866474376
 20
41.1549728665
 30
0.0
 10
466.7866474376
 20
41.1549728665
 30
0.0
 10
467.6602208771
 20
41.7930112264
 30
0.0
 10
468.6868921182
 20
42.5840165352
 30
0.0
 10
468.6868921182
 20
43.7628696083
 30
0.0
 10
468.6868921182
 20
45.1365625333
 30
0.0
 10
467.5489959784
 20
45.9410456828
 30
0.0
 10
466.2737043755
 20
45.9410456828
 30
0.0
 10
464.9002731561
 20
45.9410456828
 30
0.0
 10
463.8593389574
 20
45.0948204831
 30
0.0
 10
463.8593389574
 20
43.6521681209
 30
0.0
 10
463.8593389574
 20
42.7645934295
 30
0.0
 10
464.4146783338
 20
41.9877202255
 30
0.0
 10
465.0108437907
 20
41.3632905591
 30
0.0
 10
465.0108437907
 20
41.3632905591
 30
0.0
 10
464.3589350316
 20
40.8916969887
 30
0.0
 10
464.3589350316
 20
40.8916969887
 30
0.0
 10
463.3603971472
 20
40.170436234
 30
0.0
 10
462.5275189354
 20
39.4491754793
 30
0.0
 10
462.5275189354
 20
38.117617163
 30
0.0
 10
462.5275189354
 20
36.313941865
 30
0.0
 10
463.984565108
 20
35.0373417339
 30
0.0
 10
465.7321045454
 20
35.0373417339
 30
0.0
 10
466.9669626263
 20
35.0373417339
 30
0.0
 10
468.0763328509
 20
35.7455172064
 30
0.0
 10
468.8672073069
 20
36.674048831
 30
0.0
 10
468.8672073069
 20
36.674048831
 30
0.0
 10
470.0048417411
 20
35.2592681199
 30
0.0
 10
470.0048417411
 20
35.2592681199
 30
0.0
  0
LINE
  5
25F
330
223
100
AcDbEntity
  8
0
  6
Continuous
 62
     7
100
AcDbLine
 10
455.8077031161
 20
33.2331430246
 30
0.0
 11
478.2216138437
 21
33.2331430246
 31
0.0
  0
LINE
  5
260
330
223
100
AcDbEntity
  8
0
  6
Continuous
 62
     7
100
AcDbLine
 10
478.2216138437
 20
33.2331430246
 30
0.0
 11
478.2216138437
 21
55.6470537522
 31
0.0
  0
LINE
  5
261
330
223
100
AcDbEntity
  8
0
  6
Continuous
 62
     7
100
AcDbLine
 10
478.2216138437
 20
55.6470537522
 30
0.0
 11
455.8077031161
 21
55.6470537522
 31
0.0
  0
LINE
  5
262
330
223
100
AcDbEntity
  8
0
  6
Continuous
 62
     7
100
AcDbLine
 10
455.8077031161
 20
55.6470537522
 30
0.0
 11
455.8077031161
 21
33.2331430246
 31
0.0
  0
ENDBLK
  5
263
330
223
100
AcDbEntity
  8
0
  6
ByBlock
 62
     0
100
AcDbBlockEnd
  0
BLOCK
  5
264
330
224
100
AcDbEntity
  8
0
100
AcDbBlockBegin
  2
PROIEZIONE_EU_BL0
 70
     0
 10
468.1885460087
 20
68.1483662522
 30
0.0
  3
PROIEZIONE_EU_BL0
  1

  0
LWPOLYLINE
  5
265
330
224
100
AcDbEntity
  8
DEFAULT_1
  6
CENTER
 62
     7
100
AcDbPolyline
 90
        2
 70
     0
 43
0.25
 10
474.3151666704
 20
73.1480603841
 10
474.3152076527
 20
63.1486721203
  0
LWPOLYLINE
  5
266
330
224
100
AcDbEntity
  8
DEFAULT_1
  6
CENTER
 62
     7
100
AcDbPolyline
 90
        2
 70
     0
 43
0.25
 10
480.3151964954
 20
68.1486373873
 10
456.061895522
 20
68.1483667269
  0
LWPOLYLINE
  5
267
330
224
100
AcDbEntity
  8
0
  6
Continuous
 62
     7
100
AcDbPolyline
 90
        2
 70
     1
 43
0.25
 10
470.7680564946
 20
68.129818498
 42
1.0
 10
477.8743855932
 20
68.129818498
 42
1.0
  0
LWPOLYLINE
  5
268
330
224
100
AcDbEntity
  8
0
  6
Continuous
 62
     7
100
AcDbPolyline
 90
        2
 70
     1
 43
0.25
 10
472.3178003229
 20
68.1477165426
 42
1.0
 10
476.329552073
 20
68.1477165426
 42
1.0
  0
LWPOLYLINE
  5
269
330
224
100
AcDbEntity
  8
0
  6
Continuous
 62
     7
100
AcDbPolyline
 90
        2
 70
     0
 43
0.25
 10
468.3151942894
 20
71.7235697474
 10
468.3151939348
 20
64.6233668391
  0
LWPOLYLINE
  5
26A
330
224
100
AcDbEntity
  8
0
  6
Continuous
 62
     7
100
AcDbPolyline
 90
        2
 70
     0
 43
0.25
 10
468.3152223712
 20
64.6233384027
 10
458.3206651001
 20
66.1434318156
  0
LWPOLYLINE
  5
26B
330
224
100
AcDbEntity
  8
0
  6
Continuous
 62
     7
100
AcDbPolyline
 90
        2
 70
     0
 43
0.25
 10
458.3183551144
 20
66.142754274
 10
458.3156882104
 20
70.1483928855
  0
LWPOLYLINE
  5
26C
330
224
100
AcDbEntity
  8
0
  6
Continuous
 62
     7
100
AcDbPolyline
 90
        2
 70
     0
 43
0.25
 10
458.3156799343
 20
70.1483846094
 10
468.3154231716
 20
71.7235418295
  0
ENDBLK
  5
26D
330
224
100
AcDbEntity
  8
0
  6
ByBlock
 62
     0
100
AcDbBlockEnd
  0
ENDSEC
  0
SECTION
  2
ENTITIES
  0
LINE
  5
290
330
1B
100
AcDbEntity
 67
     1
  8
0
  6
Continuous
 62
     7
100
AcDbLine
 10
0.0
 20
0.0
 30
0.0
 11
594.0
 21
0.0
 31
0.0
  0
LINE
  5
291
330
1B
100
AcDbEntity
 67
     1
  8
0
  6
Continuous
 62
     7
100
AcDbLine
 10
594.0
 20
0.0
 30
0.0
 11
594.0
 21
420.0
 31
0.0
  0
LINE
  5
292
330
1B
100
AcDbEntity
 67
     1
  8
0
  6
Continuous
 62
     7
100
AcDbLine
 10
0.0
 20
420.0
 30
0.0
 11
594.0
 21
420.0
 31
0.0
  0
LINE
  5
293
330
1B
100
AcDbEntity
 67
     1
  8
0
  6
Continuous
 62
     7
100
AcDbLine
 10
0.0
 20
0.0
 30
0.0
 11
0.0
 21
420.0
 31
0.0
  0
LWPOLYLINE
  5
294
330
1B
100
AcDbEntity
 67
     1
  8
0
  6
Continuous
 62
     7
100
AcDbPolyline
 90
        2
 70
     0
 43
0.5
 10
584.0
 20
10.0318435754
 10
584.0
 20
410.0
  0
LWPOLYLINE
  5
295
330
1B
100
AcDbEntity
 67
     1
  8
0
  6
Continuous
 62
     7
100
AcDbPolyline
 90
        2
 70
     0
 43
0.5
 10
10.0536312849
 20
10.0318435754
 10
10.0536312849
 20
410.0
  0
LWPOLYLINE
  5
296
330
1B
100
AcDbEntity
 67
     1
  8
0
  6
Continuous
 62
     7
100
AcDbPolyline
 90
        2
 70
     0
 43
0.5
 10
10.0536312849
 20
10.0318435754
 10
584.0
 20
10.0318435754
  0
LWPOLYLINE
  5
297
330
1B
100
AcDbEntity
 67
     1
  8
0
  6
Continuous
 62
     7
100
AcDbPolyline
 90
        2
 70
     0
 43
0.1
 10
297.0
 20
10.0
 10
297.0
 20
0.0
  0
LWPOLYLINE
  5
298
330
1B
100
AcDbEntity
 67
     1
  8
0
  6
Continuous
 62
     7
100
AcDbPolyline
 90
        2
 70
     0
 43
0.1
 10
297.0
 20
410.0
 10
297.0
 20
420.0
  0
LWPOLYLINE
  5
299
330
1B
100
AcDbEntity
 67
     1
  8
0
  6
Continuous
 62
     7
100
AcDbPolyline
 90
        2
 70
     0
 43
0.1
 10
584.0
 20
210.0
 10
594.0
 20
210.0
  0
LWPOLYLINE
  5
29A
330
1B
100
AcDbEntity
 67
     1
  8
0
  6
Continuous
 62
     7
100
AcDbPolyline
 90
        2
 70
     0
 43
0.1
 10
10.0
 20
210.0
 10
0.0
 20
210.0
  0
LWPOLYLINE
  5
29B
330
1B
100
AcDbEntity
 67
     1
  8
0
  6
Continuous
 62
     7
100
AcDbPolyline
 90
        2
 70
     0
 43
0.5
 10
10.0536312849
 20
410.0
 10
584.0
 20
410.0
  0
LWPOLYLINE
  5
29C
330
1B
100
AcDbEntity
 67
     1
  8
0
  6
Continuous
 62
     7
100
AcDbPolyline
 90
        2
 70
     0
 43
0.1
 10
0.0
 20
413.0
 10
594.0
 20
413.0
  0
LWPOLYLINE
  5
29D
330
1B
100
AcDbEntity
 67
     1
  8
0
  6
Continuous
 62
     7
100
AcDbPolyline
 90
        2
 70
     0
 43
0.1
 10
7.0536312849
 20
0.0
 10
7.0536312849
 20
420.0
  0
LWPOLYLINE
  5
29E
330
1B
100
AcDbEntity
 67
     1
  8
0
  6
Continuous
 62
     7
100
AcDbPolyline
 90
        2
 70
     0
 43
0.1
 10
587.0
 20
0.0
 10
587.0
 20
420.0
  0
LWPOLYLINE
  5
29F
330
1B
100
AcDbEntity
 67
     1
  8
0
  6
Continuous
 62
     7
100
AcDbPolyline
 90
        2
 70
     0
 43
0.1
 10
0.0
 20
7.0318435754
 10
594.0
 20
7.0318435754
  0
LINE
  5
2A0
330
1B
100
AcDbEntity
 67
     1
  8
0
  6
Continuous
 62
     7
100
AcDbLine
 10
384.0
 20
0.0
 30
0.0
 11
384.0
 21
10.0
 31
0.0
  0
LINE
  5
2A1
330
1B
100
AcDbEntity
 67
     1
  8
0
  6
Continuous
 62
     7
100
AcDbLine
 10
487.0
 20
7.0
 30
0.0
 11
487.0
 21
0.0
 31
0.0
  0
LINE
  5
2A2
330
1B
100
AcDbEntity
 67
     1
  8
0
  6
Continuous
 62
     7
100
AcDbLine
 10
287.0
 20
7.0
 30
0.0
 11
287.0
 21
0.0
 31
0.0
  0
LINE
  5
2A3
330
1B
100
AcDbEntity
 67
     1
  8
0
  6
Continuous
 62
     7
100
AcDbLine
 10
187.0
 20
7.0
 30
0.0
 11
187.0
 21
0.0
 31
0.0
  0
LINE
  5
2A4
330
1B
100
AcDbEntity
 67
     1
  8
0
  6
Continuous
 62
     7
100
AcDbLine
 10
87.0
 20
7.0
 30
0.0
 11
87.0
 21
0.0
 31
0.0
  0
LINE
  5
2A5
330
1B
100
AcDbEntity
 67
     1
  8
0
  6
Continuous
 62
     7
100
AcDbLine
 10
173.5
 20
420.0
 30
0.0
 11
173.5
 21
410.0
 31
0.0
  0
LINE
  5
2A6
330
1B
100
AcDbEntity
 67
     1
  8
0
  6
Continuous
 62
     7
100
AcDbLine
 10
384.0
 20
410.0
 30
0.0
 11
384.0
 21
420.0
 31
0.0
  0
LINE
  5
2A7
330
1B
100
AcDbEntity
 67
     1
  8
0
  6
Continuous
 62
     7
100
AcDbLine
 10
487.0
 20
420.0
 30
0.0
 11
487.0
 21
413.0
 31
0.0
  0
LINE
  5
2A8
330
1B
100
AcDbEntity
 67
     1
  8
0
  6
Continuous
 62
     7
100
AcDbLine
 10
287.0
 20
420.0
 30
0.0
 11
287.0
 21
413.0
 31
0.0
  0
LINE
  5
2A9
330
1B
100
AcDbEntity
 67
     1
  8
0
  6
Continuous
 62
     7
100
AcDbLine
 10
187.0
 20
420.0
 30
0.0
 11
187.0
 21
413.0
 31
0.0
  0
LINE
  5
2AA
330
1B
100
AcDbEntity
 67
     1
  8
0
  6
Continuous
 62
     7
100
AcDbLine
 10
87.0
 20
420.0
 30
0.0
 11
87.0
 21
413.0
 31
0.0
  0
LINE
  5
2AB
330
1B
100
AcDbEntity
 67
     1
  8
0
  6
Continuous
 62
     7
100
AcDbLine
 10
587.0
 20
307.0
 30
0.0
 11
594.0
 21
307.0
 31
0.0
  0
LINE
  5
2AC
330
1B
100
AcDbEntity
 67
     1
  8
0
  6
Continuous
 62
     7
100
AcDbLine
 10
0.0
 20
107.0
 30
0.0
 11
7.0
 21
107.0
 31
0.0
  0
LINE
  5
2AD
330
1B
100
AcDbEntity
 67
     1
  8
0
  6
Continuous
 62
     7
100
AcDbLine
 10
0.0
 20
207.0
 30
0.0
 11
7.0
 21
207.0
 31
0.0
  0
LINE
  5
2AE
330
1B
100
AcDbEntity
 67
     1
  8
0
  6
Continuous
 62
     7
100
AcDbLine
 10
0.0
 20
307.0
 30
0.0
 11
7.0
 21
307.0
 31
0.0
  0
MTEXT
  5
2AF
330
1B
100
AcDbEntity
 67
     1
  8
0
  6
Continuous
 62
     2
100
AcDbMText
 10
536.154890719
 20
5.35876025
 30
0.0
 40
4.0
 41
3.6
 46
0.0
 71
     1
 72
     1
  1
A
  7
TEXTSTYLE_2
 73
     1
 44
1.0
  0
MTEXT
  5
2B0
330
1B
100
AcDbEntity
 67
     1
  8
0
  6
Continuous
 62
     2
100
AcDbMText
 10
436.154890719
 20
5.35876025
 30
0.0
 40
4.0
 41
3.6
 46
0.0
 71
     1
 72
     1
  1
B
  7
TEXTSTYLE_2
 73
     1
 44
1.0
  0
MTEXT
  5
2B1
330
1B
100
AcDbEntity
 67
     1
  8
0
  6
Continuous
 62
     2
100
AcDbMText
 10
336.154890719
 20
5.35876025
 30
0.0
 40
4.0
 41
3.6
 46
0.0
 71
     1
 72
     1
  1
C
  7
TEXTSTYLE_2
 73
     1
 44
1.0
  0
MTEXT
  5
2B2
330
1B
100
AcDbEntity
 67
     1
  8
0
  6
Continuous
 62
     2
100
AcDbMText
 10
236.154890719
 20
5.35876025
 30
0.0
 40
4.0
 41
3.6
 46
0.0
 71
     1
 72
     1
  1
D
  7
TEXTSTYLE_2
 73
     1
 44
1.0
  0
MTEXT
  5
2B3
330
1B
100
AcDbEntity
 67
     1
  8
0
  6
Continuous
 62
     2
100
AcDbMText
 10
136.154890719
 20
5.35876025
 30
0.0
 40
4.0
 41
3.6
 46
0.0
 71
     1
 72
     1
  1
E
  7
TEXTSTYLE_2
 73
     1
 44
1.0
  0
MTEXT
  5
2B4
330
1B
100
AcDbEntity
 67
     1
  8
0
  6
Continuous
 62
     2
100
AcDbMText
 10
588.6467220993
 20
60.6268709614
 30
0.0
 40
4.0
 41
3.4285714286
 46
0.0
 71
     1
 72
     1
  1
1
  7
TEXTSTYLE_3
 73
     1
 44
1.0
  0
MTEXT
  5
2B5
330
1B
100
AcDbEntity
 67
     1
  8
0
  6
Continuous
 62
     2
100
AcDbMText
 10
588.6467220993
 20
260.6268709614
 30
0.0
 40
4.0
 41
4.2857142857
 46
0.0
 71
     1
 72
     1
  1
3
  7
TEXTSTYLE_3
 73
     1
 44
1.0
  0
MTEXT
  5
2B6
330
1B
100
AcDbEntity
 67
     1
  8
0
  6
Continuous
 62
     2
100
AcDbMText
 10
588.6467220993
 20
360.6268709614
 30
0.0
 40
4.0
 41
4.7142857143
 46
0.0
 71
     1
 72
     1
  1
4
  7
TEXTSTYLE_3
 73
     1
 44
1.0
  0
MTEXT
  5
2B7
330
1B
100
AcDbEntity
 67
     1
  8
0
  6
Continuous
 62
     2
100
AcDbMText
 10
36.154890719
 20
5.35876025
 30
0.0
 40
4.0
 41
3.6
 46
0.0
 71
     1
 72
     1
  1
F
  7
TEXTSTYLE_2
 73
     1
 44
1.0
  0
MTEXT
  5
2B8
330
1B
100
AcDbEntity
 67
     1
  8
0
  6
Continuous
 62
     2
100
AcDbMText
 10
536.154890719
 20
418.35876025
 30
0.0
 40
4.0
 41
3.6
 46
0.0
 71
     1
 72
     1
  1
A
  7
TEXTSTYLE_2
 73
     1
 44
1.0
  0
MTEXT
  5
2B9
330
1B
100
AcDbEntity
 67
     1
  8
0
  6
Continuous
 62
     2
100
AcDbMText
 10
436.154890719
 20
418.35876025
 30
0.0
 40
4.0
 41
3.6
 46
0.0
 71
     1
 72
     1
  1
B
  7
TEXTSTYLE_2
 73
     1
 44
1.0
  0
MTEXT
  5
2BA
330
1B
100
AcDbEntity
 67
     1
  8
0
  6
Continuous
 62
     2
100
AcDbMText
 10
336.154890719
 20
418.35876025
 30
0.0
 40
4.0
 41
3.6
 46
0.0
 71
     1
 72
     1
  1
C
  7
TEXTSTYLE_2
 73
     1
 44
1.0
  0
MTEXT
  5
2BB
330
1B
100
AcDbEntity
 67
     1
  8
0
  6
Continuous
 62
     2
100
AcDbMText
 10
236.154890719
 20
418.35876025
 30
0.0
 40
4.0
 41
3.6
 46
0.0
 71
     1
 72
     1
  1
D
  7
TEXTSTYLE_2
 73
     1
 44
1.0
  0
MTEXT
  5
2BC
330
1B
100
AcDbEntity
 67
     1
  8
0
  6
Continuous
 62
     2
100
AcDbMText
 10
136.154890719
 20
418.35876025
 30
0.0
 40
4.0
 41
3.6
 46
0.0
 71
     1
 72
     1
  1
E
  7
TEXTSTYLE_2
 73
     1
 44
1.0
  0
MTEXT
  5
2BD
330
1B
100
AcDbEntity
 67
     1
  8
0
  6
Continuous
 62
     2
100
AcDbMText
 10
36.154890719
 20
418.35876025
 30
0.0
 40
4.0
 41
3.6
 46
0.0
 71
     1
 72
     1
  1
F
  7
TEXTSTYLE_2
 73
     1
 44
1.0
  0
MTEXT
  5
2BE
330
1B
100
AcDbEntity
 67
     1
  8
0
  6
Continuous
 62
     2
100
AcDbMText
 10
1.6467220993
 20
60.6268709614
 30
0.0
 40
4.0
 41
3.4285714286
 46
0.0
 71
     1
 72
     1
  1
1
  7
TEXTSTYLE_3
 73
     1
 44
1.0
  0
MTEXT
  5
2BF
330
1B
100
AcDbEntity
 67
     1
  8
0
  6
Continuous
 62
     2
100
AcDbMText
 10
1.6467220993
 20
160.6268709614
 30
0.0
 40
4.0
 41
4.7142857143
 46
0.0
 71
     1
 72
     1
  1
2
  7
TEXTSTYLE_3
 73
     1
 44
1.0
  0
MTEXT
  5
2C0
330
1B
100
AcDbEntity
 67
     1
  8
0
  6
Continuous
 62
     2
100
AcDbMText
 10
1.6467220993
 20
260.6268709614
 30
0.0
 40
4.0
 41
4.2857142857
 46
0.0
 71
     1
 72
     1
  1
3
  7
TEXTSTYLE_3
 73
     1
 44
1.0
  0
MTEXT
  5
2C1
330
1B
100
AcDbEntity
 67
     1
  8
0
  6
Continuous
 62
     2
100
AcDbMText
 10
1.6467220993
 20
360.6268709614
 30
0.0
 40
4.0
 41
4.7142857143
 46
0.0
 71
     1
 72
     1
  1
4
  7
TEXTSTYLE_3
 73
     1
 44
1.0
  0
VIEWPORT
  5
2C2
330
1B
100
AcDbEntity
 67
     1
  8
0
100
AcDbViewport
 10
0.0
 20
0.0
 30
0.0
 40
700.1089494163423
 41
495.0770428015564
 68
     1
 69
     1
 12
330.9338521400778
 22
210.0
 13
0.0
 23
0.0
 14
1.0
 24
1.0
 15
0.0
 25
0.0
 16
0.0
 26
0.0
 36
1.0
 17
0.0
 27
0.0
 37
0.0
 42
50.0
 43
0.0
 44
0.0
 45
495.0770428015564
 50
0.0
 51
0.0
 72
   100
 90
   557216
  1

281
     0
 71
     1
 74
     0
110
0.0
120
0.0
130
0.0
111
1.0
121
0.0
131
0.0
112
0.0
122
1.0
132
0.0
 79
     0
146
0.0
170
     0
 61
     5
348
442
292
     1
282
     1
141
0.0
142
0.0
 63
   256
  0
SPLINE
  5
2C3
330
1B
100
AcDbEntity
 67
     1
  8
0
  6
Continuous
 62
     2
100
AcDbSpline
 70
     0
 71
     3
 72
   251
 73
   247
 74
     0
 42
0.000000001
 43
0.0000001
 40
0.0
 40
0.0
 40
0.0
 40
0.0
 40
0.015625
 40
0.03125
 40
0.0390625
 40
0.046875
 40
0.05078125
 40
0.0546875
 40
0.05859375
 40
0.060546875
 40
0.0615234375
 40
0.0625
 40
0.0634765625
 40
0.064453125
 40
0.06640625
 40
0.0703125
 40
0.07421875
 40
0.078125
 40
0.0859375
 40
0.09375
 40
0.1015625
 40
0.109375
 40
0.11328125
 40
0.1171875
 40
0.12109375
 40
0.123046875
 40
0.1240234375
 40
0.125
 40
0.1259765625
 40
0.126953125
 40
0.12890625
 40
0.1328125
 40
0.13671875
 40
0.140625
 40
0.1484375
 40
0.15625
 40
0.1640625
 40
0.171875
 40
0.17578125
 40
0.1796875
 40
0.18359375
 40
0.185546875
 40
0.1865234375
 40
0.1875
 40
0.1884765625
 40
0.189453125
 40
0.19140625
 40
0.1953125
 40
0.19921875
 40
0.203125
 40
0.2109375
 40
0.21875
 40
0.2265625
 40
0.234375
 40
0.23828125
 40
0.2421875
 40
0.24609375
 40
0.248046875
 40
0.2490234375
 40
0.25
 40
0.2509765625
 40
0.251953125
 40
0.25390625
 40
0.2578125
 40
0.26171875
 40
0.265625
 40
0.2734375
 40
0.28125
 40
0.2890625
 40
0.296875
 40
0.30078125
 40
0.3046875
 40
0.30859375
 40
0.310546875
 40
0.3115234375
 40
0.3125
 40
0.3134765625
 40
0.314453125
 40
0.31640625
 40
0.3203125
 40
0.32421875
 40
0.328125
 40
0.3359375
 40
0.34375
 40
0.3515625
 40
0.359375
 40
0.36328125
 40
0.3671875
 40
0.37109375
 40
0.373046875
 40
0.3740234375
 40
0.375
 40
0.3759765625
 40
0.376953125
 40
0.37890625
 40
0.3828125
 40
0.38671875
 40
0.390625
 40
0.3984375
 40
0.40625
 40
0.4140625
 40
0.421875
 40
0.42578125
 40
0.4296875
 40
0.43359375
 40
0.435546875
 40
0.4365234375
 40
0.4375
 40
0.4384765625
 40
0.439453125
 40
0.44140625
 40
0.4453125
 40
0.44921875
 40
0.453125
 40
0.4609375
 40
0.46875
 40
0.4765625
 40
0.484375
 40
0.48828125
 40
0.4921875
 40
0.49609375
 40
0.498046875
 40
0.4990234375
 40
0.5
 40
0.5009765625
 40
0.501953125
 40
0.50390625
 40
0.5078125
 40
0.51171875
 40
0.515625
 40
0.5234375
 40
0.53125
 40
0.5390625
 40
0.546875
 40
0.55078125
 40
0.5546875
 40
0.55859375
 40
0.560546875
 40
0.5615234375
 40
0.5625
 40
0.5634765625
 40
0.564453125
 40
0.56640625
 40
0.5703125
 40
0.57421875
 40
0.578125
 40
0.5859375
 40
0.59375
 40
0.6015625
 40
0.609375
 40
0.61328125
 40
0.6171875
 40
0.62109375
 40
0.623046875
 40
0.6240234375
 40
0.625
 40
0.6259765625
 40
0.626953125
 40
0.62890625
 40
0.6328125
 40
0.63671875
 40
0.640625
 40
0.6484375
 40
0.65625
 40
0.6640625
 40
0.671875
 40
0.67578125
 40
0.6796875
 40
0.68359375
 40
0.685546875
 40
0.6865234375
 40
0.6875
 40
0.6884765625
 40
0.689453125
 40
0.69140625
 40
0.6953125
 40
0.69921875
 40
0.703125
 40
0.7109375
 40
0.71875
 40
0.7265625
 40
0.734375
 40
0.73828125
 40
0.7421875
 40
0.74609375
 40
0.748046875
 40
0.7490234375
 40
0.75
 40
0.7509765625
 40
0.751953125
 40
0.75390625
 40
0.7578125
 40
0.76171875
 40
0.765625
 40
0.7734375
 40
0.78125
 40
0.7890625
 40
0.796875
 40
0.80078125
 40
0.8046875
 40
0.80859375
 40
0.810546875
 40
0.8115234375
 40
0.8125
 40
0.8134765625
 40
0.814453125
 40
0.81640625
 40
0.8203125
 40
0.82421875
 40
0.828125
 40
0.8359375
 40
0.84375
 40
0.8515625
 40
0.859375
 40
0.86328125
 40
0.8671875
 40
0.87109375
 40
0.873046875
 40
0.8740234375
 40
0.875
 40
0.8759765625
 40
0.876953125
 40
0.87890625
 40
0.8828125
 40
0.88671875
 40
0.890625
 40
0.8984375
 40
0.90625
 40
0.9140625
 40
0.921875
 40
0.92578125
 40
0.9296875
 40
0.93359375
 40
0.935546875
 40
0.9365234375
 40
0.9375
 40
0.9384765625
 40
0.939453125
 40
0.94140625
 40
0.9453125
 40
0.94921875
 40
0.953125
 40
0.9609375
 40
0.96875
 40
0.984375
 40
1.0
 40
1.0
 40
1.0
 40
1.0
 10
355.6167974513
 20
119.1408131655
 30
0.0
 10
355.5844250594
 20
119.14387915
 30
0.0
 10
355.5196803012
 20
119.1500112437
 30
0.0
 10
355.4387492258
 20
119.157675738
 30
0.0
 10
355.3740046335
 20
119.1638086413
 30
0.0
 10
355.333538657
 20
119.1676387476
 30
0.0
 10
355.3011672641
 20
119.1707096054
 30
0.0
 10
355.2768849182
 20
119.1729942057
 30
0.0
 10
355.256661722
 20
119.1749570273
 30
0.0
 10
355.2424817545
 20
119.1762152401
 30
0.0
 10
355.2344159686
 20
119.1771149722
 30
0.0
 10
355.2282622512
 20
119.1772805861
 30
0.0
 10
355.2225075194
 20
119.1793925639
 30
0.0
 10
355.2146953729
 20
119.1815296208
 30
0.0
 10
355.2010889588
 20
119.1855857887
 30
0.0
 10
355.181617324
 20
119.191214939
 30
0.0
 10
355.1582658734
 20
119.1980407073
 30
0.0
 10
355.1271255339
 20
119.207116997
 30
0.0
 10
355.0882018722
 20
119.2184708991
 30
0.0
 10
355.0414926249
 20
119.2320916915
 30
0.0
 10
354.9947839704
 20
119.2457143806
 30
0.0
 10
354.9558588267
 20
119.2570635412
 30
0.0
 10
354.9247214513
 20
119.266149314
 30
0.0
 10
354.9013609601
 20
119.2729461587
 30
0.0
 10
354.881917608
 20
119.2786657938
 30
0.0
 10
354.8682607049
 20
119.2825604325
 30
0.0
 10
354.8605294544
 20
119.2849562997
 30
0.0
 10
354.8545262363
 20
119.2862732952
 30
0.0
 10
354.8493057919
 20
119.2894247303
 30
0.0
 10
354.8420721593
 20
119.2929867708
 30
0.0
 10
354.8295405166
 20
119.2995184703
 30
0.0
 10
354.8115716605
 20
119.3086936041
 30
0.0
 10
354.7900375023
 20
119.3197704819
 30
0.0
 10
354.7613153427
 20
119.3345163398
 30
0.0
 10
354.7254160857
 20
119.3529567128
 30
0.0
 10
354.6823353763
 20
119.3750814867
 30
0.0
 10
354.639255563
 20
119.3972080742
 30
0.0
 10
354.6033540659
 20
119.415643913
 30
0.0
 10
354.5746363864
 20
119.4303988393
 30
0.0
 10
354.5530885639
 20
119.4414480587
 30
0.0
 10
354.5351624558
 20
119.4507097195
 30
0.0
 10
354.5225545014
 20
119.457086955
 30
0.0
 10
354.5154431392
 20
119.4608964855
 30
0.0
 10
354.509847119
 20
119.4632877105
 30
0.0
 10
354.5052545016
 20
119.4674599289
 30
0.0
 10
354.4987810135
 20
119.4724016563
 30
0.0
 10
354.4876154801
 20
119.4813391222
 30
0.0
 10
354.4715794625
 20
119.4939556062
 30
0.0
 10
354.4523727351
 20
119.5091601601
 30
0.0
 10
354.4267510109
 20
119.5294102672
 30
0.0
 10
354.3947282783
 20
119.5547307042
 30
0.0
 10
354.3562989024
 20
119.5851117207
 30
0.0
 10
354.3178708371
 20
119.6154942839
 30
0.0
 10
354.285844828
 20
119.6408108543
 30
0.0
 10
354.2602296567
 20
119.6610686946
 30
0.0
 10
354.2410029432
 20
119.6762496624
 30
0.0
 10
354.2250294502
 20
119.6889399336
 30
0.0
 10
354.2137523009
 20
119.697745678
 30
0.0
 10
354.2074576495
 20
119.7028984561
 30
0.0
 10
354.2023157033
 20
119.7064223947
 30
0.0
 10
354.1987828708
 20
119.7112484509
 30
0.0
 10
354.1935111505
 20
119.7172289994
 30
0.0
 10
354.1845471494
 20
119.7279065763
 30
0.0
 10
354.1716047131
 20
119.7430496214
 30
0.0
 10
354.1561323121
 20
119.7612686326
 30
0.0
 10
354.1354819944
 20
119.7855441006
 30
0.0
 10
354.1096761632
 20
119.8158941451
 30
0.0
 10
354.0787059236
 20
119.852311613
 30
0.0
 10
354.0477373474
 20
119.8887302878
 30
0.0
 10
354.0219273575
 20
119.919077315
 30
0.0
 10
354.0012853573
 20
119.9433588175
 30
0.0
 10
353.9857875879
 20
119.9615594234
 30
0.0
 10
353.9729245143
 20
119.976760048
 30
0.0
 10
353.9638188387
 20
119.9873348367
 30
0.0
 10
353.9587741164
 20
119.9934800776
 30
0.0
 10
353.954544019
 20
119.9978002515
 30
0.0
 10
353.9520208841
 20
120.0032242002
 30
0.0
 10
353.9480612965
 20
120.0100711229
 30
0.0
 10
353.9414094299
 20
120.0222326204
 30
0.0
 10
353.9317617289
 20
120.0395124046
 30
0.0
 10
353.920246569
 20
120.060288289
 30
0.0
 10
353.9048713289
 20
120.0879754425
 30
0.0
 10
353.885659777
 20
120.122589219
 30
0.0
 10
353.8626024636
 20
120.1641235829
 30
0.0
 10
353.8395469578
 20
120.205658883
 30
0.0
 10
353.8203308869
 20
120.240270319
 30
0.0
 10
353.8049646849
 20
120.2679621535
 30
0.0
 10
353.7934219588
 20
120.2887237607
 30
0.0
 10
353.7838604962
 20
120.3060482099
 30
0.0
 10
353.7770546809
 20
120.3181299736
 30
0.0
 10
353.7733417577
 20
120.3251046498
 30
0.0
 10
353.7700609491
 20
120.3301361805
 30
0.0
 10
353.7686765481
 20
120.3359302115
 30
0.0
 10
353.766169192
 20
120.3433896174
 30
0.0
 10
353.7620895184
 20
120.3565674975
 30
0.0
 10
353.7561002825
 20
120.3753282538
 30
0.0
 10
353.7489821706
 20
120.3978688928
 30
0.0
 10
353.739467254
 20
120.4279133888
 30
0.0
 10
353.7275819358
 20
120.46547235
 30
0.0
 10
353.7133157327
 20
120.5105415994
 30
0.0
 10
353.6990514908
 20
120.5556115193
 30
0.0
 10
353.6871612694
 20
120.5931688044
 30
0.0
 10
353.6776561592
 20
120.6232166526
 30
0.0
 10
353.6705081377
 20
120.6457470671
 30
0.0
 10
353.6646124715
 20
120.6645398098
 30
0.0
 10
353.6603657618
 20
120.6776605893
 30
0.0
 10
353.6581260392
 20
120.6852114848
 30
0.0
 10
353.6559195536
 20
120.6907244891
 30
0.0
 10
353.6557263585
 20
120.6968115091
 30
0.0
 10
353.6547665068
 20
120.7047273126
 30
0.0
 10
353.6534139615
 20
120.7186732565
 30
0.0
 10
353.651310692
 20
120.7385472616
 30
0.0
 10
353.6488599908
 20
120.7624169435
 30
0.0
 10
353.6455668031
 20
120.7942358946
 30
0.0
 10
353.6414591581
 20
120.8340120805
 30
0.0
 10
353.6365259335
 20
120.8817424552
 30
0.0
 10
353.6315947678
 20
120.9294730283
 30
0.0
 10
353.6274819755
 20
120.9692487179
 30
0.0
 10
353.6241990824
 20
121.0010686615
 30
0.0
 10
353.6217169827
 20
121.0249353163
 30
0.0
 10
353.6197119408
 20
121.0448187917
 30
0.0
 10
353.6181840443
 20
121.0587478296
 30
0.0
 10
353.617505149
 20
121.0666907207
 30
0.0
 10
353.616448946
 20
121.0726945362
 30
0.0
 10
353.6174837746
 20
121.0785200428
 30
0.0
 10
353.6181341707
 20
121.0863495811
 30
0.0
 10
353.6196121936
 20
121.1000222947
 30
0.0
 10
353.6215459875
 20
121.119569893
 30
0.0
 10
353.6239425897
 20
121.1430205258
 30
0.0
 10
353.6271114859
 20
121.1742903031
 30
0.0
 10
353.6310817823
 20
121.2133767358
 30
0.0
 10
353.6358419526
 20
121.2602808414
 30
0.0
 10
353.6406041827
 20
121.3071846642
 30
0.0
 10
353.6445693296
 20
121.3462718039
 30
0.0
 10
353.6477485248
 20
121.3775401673
 30
0.0
 10
353.6501137152
 20
121.4009951125
 30
0.0
 10
353.6521457782
 20
121.4205292199
 30
0.0
 10
353.6534483758
 20
121.4342260167
 30
0.0
 10
353.654379847
 20
121.4420169676
 30
0.0
 10
353.6545513032
 20
121.4479610022
 30
0.0
 10
353.6567377835
 20
121.4535196463
 30
0.0
 10
353.6589502276
 20
121.4610656004
 30
0.0
 10
353.6631494816
 20
121.4742083871
 30
0.0
 10
353.6689772068
 20
121.4930165421
 30
0.0
 10
353.6760437621
 20
121.5155723113
 30
0.0
 10
353.6854402287
 20
121.5456515695
 30
0.0
 10
353.6971946531
 20
121.5832489396
 30
0.0
 10
353.7112959351
 20
121.6283666079
 30
0.0
 10
353.7253991805
 20
121.6734837035
 30
0.0
 10
353.7371486962
 20
121.7110825051
 30
0.0
 10
353.7465549803
 20
121.7411589002
 30
0.0
 10
353.7535915918
 20
121.763723402
 30
0.0
 10
353.7595129938
 20
121.782504238
 30
0.0
 10
353.7635450205
 20
121.7956957933
 30
0.0
 10
353.7660254047
 20
121.8031636079
 30
0.0
 10
353.7673888588
 20
121.8089622713
 30
0.0
 10
353.7706514645
 20
121.8140048333
 30
0.0
 10
353.7743391601
 20
121.8209919859
 30
0.0
 10
353.781101273
 20
121.8330966232
 30
0.0
 10
353.7906000705
 20
121.8504532054
 30
0.0
 10
353.8020676982
 20
121.8712536049
 30
0.0
 10
353.8173337337
 20
121.8989970806
 30
0.0
 10
353.8364246126
 20
121.9336731001
 30
0.0
 10
353.859329864
 20
121.9752858699
 30
0.0
 10
353.8822369931
 20
122.0168977743
 30
0.0
 10
353.9013231778
 20
122.0515759575
 30
0.0
 10
353.9165986015
 20
122.0793151057
 30
0.0
 10
353.9280375952
 20
122.1001287041
 30
0.0
 10
353.937625972
 20
122.1174439948
 30
0.0
 10
353.944228172
 20
122.1296223436
 30
0.0
 10
353.9481720882
 20
122.136491392
 30
0.0
 10
353.9506476665
 20
122.1418967324
 30
0.0
 10
353.9549670648
 20
122.1463328602
 30
0.0
 10
353.9600831175
 20
122.1525857695
 30
0.0
 10
353.969335863
 20
122.1633708466
 30
0.0
 10
353.9823974084
 20
122.1788604501
 30
0.0
 10
353.9981383209
 20
122.1974127242
 30
0.0
 10
354.0191027744
 20
122.2221614093
 30
0.0
 10
354.0453164198
 20
122.2530929938
 30
0.0
 10
354.0767691625
 20
122.2902129204
 30
0.0
 10
354.1082235064
 20
122.3273315811
 30
0.0
 10
354.1344331488
 20
122.3582663304
 30
0.0
 10
354.1554056083
 20
122.383008686
 30
0.0
 10
354.1711221027
 20
122.401580265
 30
0.0
 10
354.1842600381
 20
122.4170094745
 30
0.0
 10
354.1933764156
 20
122.4279023642
 30
0.0
 10
354.198710964
 20
122.4339825306
 30
0.0
 10
354.2023592137
 20
122.4389492693
 30
0.0
 10
354.2073555148
 20
122.4423617234
 30
0.0
 10
354.2135470341
 20
122.4474538142
 30
0.0
 10
354.2246012751
 20
122.4561123743
 30
0.0
 10
354.2402785091
 20
122.4686138078
 30
0.0
 10
354.2591402174
 20
122.4835589996
 30
0.0
 10
354.2842720311
 20
122.5035056748
 30
0.0
 10
354.3156927093
 20
122.5284321936
 30
0.0
 10
354.3533948463
 20
122.5583471479
 30
0.0
 10
354.3910982329
 20
122.5882604954
 30
0.0
 10
354.4225157873
 20
122.6131910312
 30
0.0
 10
354.4476538485
 20
122.6331296723
 30
0.0
 10
354.4664965022
 20
122.648099368
 30
0.0
 10
354.4822333468
 20
122.6605241431
 30
0.0
 10
354.4931811737
 20
122.6693195502
 30
0.0
 10
354.4995431952
 20
122.6741923778
 30
0.0
 10
354.5040157683
 20
122.6782783382
 30
0.0
 10
354.5096310533
 20
122.6807154993
 30
0.0
 10
354.5167195092
 20
122.6845401672
 30
0.0
 10
354.5293100179
 20
122.690965377
 30
0.0
 10
354.5471993669
 20
122.7002843405
 30
0.0
 10
354.5687081451
 20
122.7114071309
 30
0.0
 10
354.5973719956
 20
122.7262584724
 30
0.0
 10
354.633206814
 20
122.7448154065
 30
0.0
 10
354.6762063516
 20
122.767087061
 30
0.0
 10
354.7192068584
 20
122.7893569695
 30
0.0
 10
354.7550392537
 20
122.8079182687
 30
0.0
 10
354.7837079503
 20
122.82276088
 30
0.0
 10
354.8052019477
 20
122.8339102972
 30
0.0
 10
354.8231375374
 20
122.8431459609
 30
0.0
 10
354.8356454995
 20
122.8497198737
 30
0.0
 10
354.8428662157
 20
122.8533062821
 30
0.0
 10
354.8480752396
 20
122.8564752999
 30
0.0
 10
354.8540736618
 20
122.8578125285
 30
0.0
 10
354.8617962071
 20
122.8602344486
 30
0.0
 10
354.8754389525
 20
122.8641751107
 30
0.0
 10
354.8948615166
 20
122.8699602683
 30
0.0
 10
354.9181973032
 20
122.8768358364
 30
0.0
 10
354.9493016542
 20
122.8860265401
 30
0.0
 10
354.9881855522
 20
122.8975068759
 30
0.0
 10
355.0348446725
 20
122.91128697
 30
0.0
 10
355.081504487
 20
122.9250651696
 30
0.0
 10
355.1203866497
 20
122.9365502415
 30
0.0
 10
355.1514944713
 20
122.9457314729
 30
0.0
 10
355.1748196727
 20
122.9526359314
 30
0.0
 10
355.1942753517
 20
122.9583307078
 30
0.0
 10
355.207858982
 20
122.9624327143
 30
0.0
 10
355.2156762445
 20
122.9645961202
 30
0.0
 10
355.2213837256
 20
122.9667274216
 30
0.0
 10
355.2276854761
 20
122.9669140337
 30
0.0
 10
355.2358805223
 20
122.9678411793
 30
0.0
 10
355.2503184323
 20
122.9691476378
 30
0.0
 10
355.2708935254
 20
122.9711792397
 30
0.0
 10
355.2956052495
 20
122.9735464371
 30
0.0
 10
355.3285466663
 20
122.9767274031
 30
0.0
 10
355.369726022
 20
122.9806951521
 30
0.0
 10
355.435611546
 20
122.9870482794
 30
0.0
 10
355.5179689502
 20
122.9949880552
 30
0.0
 10
355.5838547215
 20
123.0013403737
 30
0.0
 10
355.6167976261
 20
123.0045164707
 30
0.0
  0
SPLINE
  5
2C4
330
1B
100
AcDbEntity
 67
     1
  8
0
  6
Continuous
 62
     2
100
AcDbSpline
 70
     0
 71
     3
 72
   251
 73
   247
 74
     0
 42
0.000000001
 43
0.0000001
 40
0.0
 40
0.0
 40
0.0
 40
0.0
 40
0.015625
 40
0.03125
 40
0.0390625
 40
0.046875
 40
0.05078125
 40
0.0546875
 40
0.05859375
 40
0.060546875
 40
0.0615234375
 40
0.0625
 40
0.0634765625
 40
0.064453125
 40
0.06640625
 40
0.0703125
 40
0.07421875
 40
0.078125
 40
0.0859375
 40
0.09375
 40
0.1015625
 40
0.109375
 40
0.11328125
 40
0.1171875
 40
0.12109375
 40
0.123046875
 40
0.1240234375
 40
0.125
 40
0.1259765625
 40
0.126953125
 40
0.12890625
 40
0.1328125
 40
0.13671875
 40
0.140625
 40
0.1484375
 40
0.15625
 40
0.1640625
 40
0.171875
 40
0.17578125
 40
0.1796875
 40
0.18359375
 40
0.185546875
 40
0.1865234375
 40
0.1875
 40
0.1884765625
 40
0.189453125
 40
0.19140625
 40
0.1953125
 40
0.19921875
 40
0.203125
 40
0.2109375
 40
0.21875
 40
0.2265625
 40
0.234375
 40
0.23828125
 40
0.2421875
 40
0.24609375
 40
0.248046875
 40
0.2490234375
 40
0.25
 40
0.2509765625
 40
0.251953125
 40
0.25390625
 40
0.2578125
 40
0.26171875
 40
0.265625
 40
0.2734375
 40
0.28125
 40
0.2890625
 40
0.296875
 40
0.30078125
 40
0.3046875
 40
0.30859375
 40
0.310546875
 40
0.3115234375
 40
0.3125
 40
0.3134765625
 40
0.314453125
 40
0.31640625
 40
0.3203125
 40
0.32421875
 40
0.328125
 40
0.3359375
 40
0.34375
 40
0.3515625
 40
0.359375
 40
0.36328125
 40
0.3671875
 40
0.37109375
 40
0.373046875
 40
0.3740234375
 40
0.375
 40
0.3759765625
 40
0.376953125
 40
0.37890625
 40
0.3828125
 40
0.38671875
 40
0.390625
 40
0.3984375
 40
0.40625
 40
0.4140625
 40
0.421875
 40
0.42578125
 40
0.4296875
 40
0.43359375
 40
0.435546875
 40
0.4365234375
 40
0.4375
 40
0.4384765625
 40
0.439453125
 40
0.44140625
 40
0.4453125
 40
0.44921875
 40
0.453125
 40
0.4609375
 40
0.46875
 40
0.4765625
 40
0.484375
 40
0.48828125
 40
0.4921875
 40
0.49609375
 40
0.498046875
 40
0.4990234375
 40
0.5
 40
0.5009765625
 40
0.501953125
 40
0.50390625
 40
0.5078125
 40
0.51171875
 40
0.515625
 40
0.5234375
 40
0.53125
 40
0.5390625
 40
0.546875
 40
0.55078125
 40
0.5546875
 40
0.55859375
 40
0.560546875
 40
0.5615234375
 40
0.5625
 40
0.5634765625
 40
0.564453125
 40
0.56640625
 40
0.5703125
 40
0.57421875
 40
0.578125
 40
0.5859375
 40
0.59375
 40
0.6015625
 40
0.609375
 40
0.61328125
 40
0.6171875
 40
0.62109375
 40
0.623046875
 40
0.6240234375
 40
0.625
 40
0.6259765625
 40
0.626953125
 40
0.62890625
 40
0.6328125
 40
0.63671875
 40
0.640625
 40
0.6484375
 40
0.65625
 40
0.6640625
 40
0.671875
 40
0.67578125
 40
0.6796875
 40
0.68359375
 40
0.685546875
 40
0.6865234375
 40
0.6875
 40
0.6884765625
 40
0.689453125
 40
0.69140625
 40
0.6953125
 40
0.69921875
 40
0.703125
 40
0.7109375
 40
0.71875
 40
0.7265625
 40
0.734375
 40
0.73828125
 40
0.7421875
 40
0.74609375
 40
0.748046875
 40
0.7490234375
 40
0.75
 40
0.7509765625
 40
0.751953125
 40
0.75390625
 40
0.7578125
 40
0.76171875
 40
0.765625
 40
0.7734375
 40
0.78125
 40
0.7890625
 40
0.796875
 40
0.80078125
 40
0.8046875
 40
0.80859375
 40
0.810546875
 40
0.8115234375
 40
0.8125
 40
0.8134765625
 40
0.814453125
 40
0.81640625
 40
0.8203125
 40
0.82421875
 40
0.828125
 40
0.8359375
 40
0.84375
 40
0.8515625
 40
0.859375
 40
0.86328125
 40
0.8671875
 40
0.87109375
 40
0.873046875
 40
0.8740234375
 40
0.875
 40
0.8759765625
 40
0.876953125
 40
0.87890625
 40
0.8828125
 40
0.88671875
 40
0.890625
 40
0.8984375
 40
0.90625
 40
0.9140625
 40
0.921875
 40
0.92578125
 40
0.9296875
 40
0.93359375
 40
0.935546875
 40
0.9365234375
 40
0.9375
 40
0.9384765625
 40
0.939453125
 40
0.94140625
 40
0.9453125
 40
0.94921875
 40
0.953125
 40
0.9609375
 40
0.96875
 40
0.984375
 40
1.0
 40
1.0
 40
1.0
 40
1.0
 10
355.6167974513
 20
123.0045164707
 30
0.0
 10
355.6491698431
 20
123.0014504861
 30
0.0
 10
355.7139146013
 20
122.9953183924
 30
0.0
 10
355.7948456768
 20
122.9876538981
 30
0.0
 10
355.859590269
 20
122.9815209949
 30
0.0
 10
355.9000562456
 20
122.9776908885
 30
0.0
 10
355.9324276385
 20
122.9746200308
 30
0.0
 10
355.9567099843
 20
122.9723354305
 30
0.0
 10
355.9769331805
 20
122.9703726088
 30
0.0
 10
355.991113148
 20
122.9691143961
 30
0.0
 10
355.9991789339
 20
122.968214664
 30
0.0
 10
356.0053326513
 20
122.96804905
 30
0.0
 10
356.0110873832
 20
122.9659370722
 30
0.0
 10
356.0188995296
 20
122.9638000154
 30
0.0
 10
356.0325059437
 20
122.9597438475
 30
0.0
 10
356.0519775785
 20
122.9541146971
 30
0.0
 10
356.0753290291
 20
122.9472889289
 30
0.0
 10
356.1064693687
 20
122.9382126392
 30
0.0
 10
356.1453930303
 20
122.926858737
 30
0.0
 10
356.1921022776
 20
122.9132379446
 30
0.0
 10
356.2388109321
 20
122.8996152556
 30
0.0
 10
356.2777360758
 20
122.888266095
 30
0.0
 10
356.3088734513
 20
122.8791803222
 30
0.0
 10
356.3322339425
 20
122.8723834774
 30
0.0
 10
356.3516772946
 20
122.8666638423
 30
0.0
 10
356.3653341976
 20
122.8627692036
 30
0.0
 10
356.3730654481
 20
122.8603733365
 30
0.0
 10
356.3790686663
 20
122.8590563409
 30
0.0
 10
356.3842891106
 20
122.8559049058
 30
0.0
 10
356.3915227433
 20
122.8523428654
 30
0.0
 10
356.404054386
 20
122.8458111659
 30
0.0
 10
356.4220232421
 20
122.8366360321
 30
0.0
 10
356.4435574002
 20
122.8255591543
 30
0.0
 10
356.4722795598
 20
122.8108132963
 30
0.0
 10
356.5081788168
 20
122.7923729234
 30
0.0
 10
356.5512595262
 20
122.7702481495
 30
0.0
 10
356.5943393396
 20
122.7481215619
 30
0.0
 10
356.6302408366
 20
122.7296857231
 30
0.0
 10
356.6589585161
 20
122.7149307969
 30
0.0
 10
356.6805063387
 20
122.7038815775
 30
0.0
 10
356.6984324468
 20
122.6946199166
 30
0.0
 10
356.7110404012
 20
122.6882426811
 30
0.0
 10
356.7181517633
 20
122.6844331507
 30
0.0
 10
356.7237477836
 20
122.6820419256
 30
0.0
 10
356.728340401
 20
122.6778697072
 30
0.0
 10
356.734813889
 20
122.6729279798
 30
0.0
 10
356.7459794225
 20
122.663990514
 30
0.0
 10
356.76201544
 20
122.65137403
 30
0.0
 10
356.7812221675
 20
122.6361694761
 30
0.0
 10
356.8068438916
 20
122.615919369
 30
0.0
 10
356.8388666243
 20
122.5905989319
 30
0.0
 10
356.8772960001
 20
122.5602179154
 30
0.0
 10
356.9157240654
 20
122.5298353523
 30
0.0
 10
356.9477500745
 20
122.5045187818
 30
0.0
 10
356.9733652458
 20
122.4842609415
 30
0.0
 10
356.9925919593
 20
122.4690799737
 30
0.0
 10
357.0085654523
 20
122.4563897026
 30
0.0
 10
357.0198426016
 20
122.4475839581
 30
0.0
 10
357.026137253
 20
122.4424311801
 30
0.0
 10
357.0312791993
 20
122.4389072415
 30
0.0
 10
357.0348120318
 20
122.4340811852
 30
0.0
 10
357.040083752
 20
122.4281006368
 30
0.0
 10
357.0490477531
 20
122.4174230599
 30
0.0
 10
357.0619901894
 20
122.4022800147
 30
0.0
 10
357.0774625905
 20
122.3840610036
 30
0.0
 10
357.0981129082
 20
122.3597855356
 30
0.0
 10
357.1239187393
 20
122.3294354911
 30
0.0
 10
357.154888979
 20
122.2930180232
 30
0.0
 10
357.1858575551
 20
122.2565993484
 30
0.0
 10
357.211667545
 20
122.2262523211
 30
0.0
 10
357.2323095452
 20
122.2019708186
 30
0.0
 10
357.2478073146
 20
122.1837702128
 30
0.0
 10
357.2606703883
 20
122.1685695881
 30
0.0
 10
357.2697760638
 20
122.1579947995
 30
0.0
 10
357.2748207861
 20
122.1518495586
 30
0.0
 10
357.2790508836
 20
122.1475293847
 30
0.0
 10
357.2815740185
 20
122.1421054359
 30
0.0
 10
357.285533606
 20
122.1352585133
 30
0.0
 10
357.2921854727
 20
122.1230970158
 30
0.0
 10
357.3018331737
 20
122.1058172315
 30
0.0
 10
357.3133483336
 20
122.0850413471
 30
0.0
 10
357.3287235736
 20
122.0573541937
 30
0.0
 10
357.3479351255
 20
122.0227404171
 30
0.0
 10
357.3709924389
 20
121.9812060533
 30
0.0
 10
357.3940479447
 20
121.9396707532
 30
0.0
 10
357.4132640156
 20
121.9050593172
 30
0.0
 10
357.4286302176
 20
121.8773674827
 30
0.0
 10
357.4401729437
 20
121.8566058755
 30
0.0
 10
357.4497344063
 20
121.8392814262
 30
0.0
 10
357.4565402216
 20
121.8271996625
 30
0.0
 10
357.4602531448
 20
121.8202249863
 30
0.0
 10
357.4635339534
 20
121.8151934556
 30
0.0
 10
357.4649183544
 20
121.8093994247
 30
0.0
 10
357.4674257106
 20
121.8019400187
 30
0.0
 10
357.4715053842
 20
121.7887621386
 30
0.0
 10
357.4774946201
 20
121.7700013823
 30
0.0
 10
357.484612732
 20
121.7474607433
 30
0.0
 10
357.4941276486
 20
121.7174162474
 30
0.0
 10
357.5060129667
 20
121.6798572861
 30
0.0
 10
357.5202791699
 20
121.6347880367
 30
0.0
 10
357.5345434118
 20
121.5897181169
 30
0.0
 10
357.5464336331
 20
121.5521608318
 30
0.0
 10
357.5559387433
 20
121.5221129835
 30
0.0
 10
357.5630867648
 20
121.499582569
 30
0.0
 10
357.5689824311
 20
121.4807898263
 30
0.0
 10
357.5732291408
 20
121.4676690468
 30
0.0
 10
357.5754688633
 20
121.4601181513
 30
0.0
 10
357.5776753489
 20
121.454605147
 30
0.0
 10
357.577868544
 20
121.448518127
 30
0.0
 10
357.5788283958
 20
121.4406023235
 30
0.0
 10
357.5801809411
 20
121.4266563797
 30
0.0
 10
357.5822842105
 20
121.4067823746
 30
0.0
 10
357.5847349118
 20
121.3829126926
 30
0.0
 10
357.5880280994
 20
121.3510937415
 30
0.0
 10
357.5921357445
 20
121.3113175556
 30
0.0
 10
357.597068969
 20
121.263587181
 30
0.0
 10
357.6020001347
 20
121.2158566078
 30
0.0
 10
357.6061129271
 20
121.1760809182
 30
0.0
 10
357.6093958201
 20
121.1442609746
 30
0.0
 10
357.6118779198
 20
121.1203943198
 30
0.0
 10
357.6138829618
 20
121.1005108444
 30
0.0
 10
357.6154108582
 20
121.0865818066
 30
0.0
 10
357.6160897536
 20
121.0786389154
 30
0.0
 10
357.6171459565
 20
121.0726350999
 30
0.0
 10
357.616111128
 20
121.0668095933
 30
0.0
 10
357.6154607318
 20
121.0589800551
 30
0.0
 10
357.613982709
 20
121.0453073415
 30
0.0
 10
357.612048915
 20
121.0257597432
 30
0.0
 10
357.6096523129
 20
121.0023091104
 30
0.0
 10
357.6064834166
 20
120.9710393331
 30
0.0
 10
357.6025131202
 20
120.9319529003
 30
0.0
 10
357.5977529499
 20
120.8850487947
 30
0.0
 10
357.5929907198
 20
120.838144972
 30
0.0
 10
357.5890255729
 20
120.7990578323
 30
0.0
 10
357.5858463777
 20
120.7677894689
 30
0.0
 10
357.5834811873
 20
120.7443345237
 30
0.0
 10
357.5814491244
 20
120.7248004162
 30
0.0
 10
357.5801465267
 20
120.7111036194
 30
0.0
 10
357.5792150555
 20
120.7033126685
 30
0.0
 10
357.5790435993
 20
120.6973686339
 30
0.0
 10
357.576857119
 20
120.6918099898
 30
0.0
 10
357.574644675
 20
120.6842640358
 30
0.0
 10
357.5704454209
 20
120.671121249
 30
0.0
 10
357.5646176957
 20
120.6523130941
 30
0.0
 10
357.5575511404
 20
120.6297573249
 30
0.0
 10
357.5481546739
 20
120.5996780666
 30
0.0
 10
357.5364002494
 20
120.5620806966
 30
0.0
 10
357.5222989675
 20
120.5169630283
 30
0.0
 10
357.508195722
 20
120.4718459326
 30
0.0
 10
357.4964462064
 20
120.434247131
 30
0.0
 10
357.4870399222
 20
120.4041707359
 30
0.0
 10
357.4800033108
 20
120.3816062342
 30
0.0
 10
357.4740819087
 20
120.3628253982
 30
0.0
 10
357.4700498821
 20
120.3496338429
 30
0.0
 10
357.4675694979
 20
120.3421660283
 30
0.0
 10
357.4662060438
 20
120.3363673649
 30
0.0
 10
357.462943438
 20
120.3313248029
 30
0.0
 10
357.4592557424
 20
120.3243376502
 30
0.0
 10
357.4524936295
 20
120.3122330129
 30
0.0
 10
357.4429948321
 20
120.2948764308
 30
0.0
 10
357.4315272043
 20
120.2740760312
 30
0.0
 10
357.4162611688
 20
120.2463325555
 30
0.0
 10
357.3971702899
 20
120.211656536
 30
0.0
 10
357.3742650385
 20
120.1700437662
 30
0.0
 10
357.3513579095
 20
120.1284318619
 30
0.0
 10
357.3322717247
 20
120.0937536787
 30
0.0
 10
357.316996301
 20
120.0660145304
 30
0.0
 10
357.3055573073
 20
120.0452009321
 30
0.0
 10
357.2959689305
 20
120.0278856413
 30
0.0
 10
357.2893667305
 20
120.0157072925
 30
0.0
 10
357.2854228143
 20
120.0088382442
 30
0.0
 10
357.282947236
 20
120.0034329037
 30
0.0
 10
357.2786278377
 20
119.9989967759
 30
0.0
 10
357.273511785
 20
119.9927438666
 30
0.0
 10
357.2642590395
 20
119.9819587895
 30
0.0
 10
357.2511974942
 20
119.966469186
 30
0.0
 10
357.2354565816
 20
119.9479169119
 30
0.0
 10
357.2144921281
 20
119.9231682269
 30
0.0
 10
357.1882784828
 20
119.8922366424
 30
0.0
 10
357.15682574
 20
119.8551167157
 30
0.0
 10
357.1253713961
 20
119.817998055
 30
0.0
 10
357.0991617537
 20
119.7870633057
 30
0.0
 10
357.0781892943
 20
119.7623209502
 30
0.0
 10
357.0624727999
 20
119.7437493711
 30
0.0
 10
357.0493348644
 20
119.7283201617
 30
0.0
 10
357.0402184869
 20
119.7174272719
 30
0.0
 10
357.0348839386
 20
119.7113471055
 30
0.0
 10
357.0312356889
 20
119.7063803669
 30
0.0
 10
357.0262393878
 20
119.7029679127
 30
0.0
 10
357.0200478684
 20
119.697875822
 30
0.0
 10
357.0089936274
 20
119.6892172618
 30
0.0
 10
356.9933163935
 20
119.6767158283
 30
0.0
 10
356.9744546852
 20
119.6617706366
 30
0.0
 10
356.9493228714
 20
119.6418239614
 30
0.0
 10
356.9179021932
 20
119.6168974426
 30
0.0
 10
356.8802000562
 20
119.5869824883
 30
0.0
 10
356.8424966697
 20
119.5570691408
 30
0.0
 10
356.8110791152
 20
119.5321386049
 30
0.0
 10
356.785941054
 20
119.5121999638
 30
0.0
 10
356.7670984003
 20
119.4972302681
 30
0.0
 10
356.7513615557
 20
119.4848054931
 30
0.0
 10
356.7404137289
 20
119.4760100859
 30
0.0
 10
356.7340517074
 20
119.4711372584
 30
0.0
 10
356.7295791342
 20
119.467051298
 30
0.0
 10
356.7239638493
 20
119.4646141368
 30
0.0
 10
356.7168753934
 20
119.4607894689
 30
0.0
 10
356.7042848847
 20
119.4543642591
 30
0.0
 10
356.6863955356
 20
119.4450452956
 30
0.0
 10
356.6648867574
 20
119.4339225052
 30
0.0
 10
356.6362229069
 20
119.4190711638
 30
0.0
 10
356.6003880886
 20
119.4005142297
 30
0.0
 10
356.557388551
 20
119.3782425751
 30
0.0
 10
356.5143880441
 20
119.3559726666
 30
0.0
 10
356.4785556489
 20
119.3374113675
 30
0.0
 10
356.4498869522
 20
119.3225687561
 30
0.0
 10
356.4283929548
 20
119.3114193389
 30
0.0
 10
356.4104573652
 20
119.3021836752
 30
0.0
 10
356.397949403
 20
119.2956097625
 30
0.0
 10
356.3907286869
 20
119.292023354
 30
0.0
 10
356.385519663
 20
119.2888543363
 30
0.0
 10
356.3795212408
 20
119.2875171076
 30
0.0
 10
356.3717986955
 20
119.2850951876
 30
0.0
 10
356.3581559501
 20
119.2811545255
 30
0.0
 10
356.338733386
 20
119.2753693678
 30
0.0
 10
356.3153975993
 20
119.2684937997
 30
0.0
 10
356.2842932483
 20
119.259303096
 30
0.0
 10
356.2454093503
 20
119.2478227603
 30
0.0
 10
356.19875023
 20
119.2340426662
 30
0.0
 10
356.1520904155
 20
119.2202644666
 30
0.0
 10
356.1132082529
 20
119.2087793947
 30
0.0
 10
356.0821004313
 20
119.1995981633
 30
0.0
 10
356.0587752298
 20
119.1926937047
 30
0.0
 10
356.0393195508
 20
119.1869989284
 30
0.0
 10
356.0257359206
 20
119.1828969218
 30
0.0
 10
356.017918658
 20
119.180733516
 30
0.0
 10
356.0122111769
 20
119.1786022145
 30
0.0
 10
356.0059094264
 20
119.1784156024
 30
0.0
 10
355.9977143803
 20
119.1774884568
 30
0.0
 10
355.9832764702
 20
119.1761819983
 30
0.0
 10
355.9627013772
 20
119.1741503965
 30
0.0
 10
355.937989653
 20
119.171783199
 30
0.0
 10
355.9050482363
 20
119.168602233
 30
0.0
 10
355.8638688805
 20
119.1646344841
 30
0.0
 10
355.7979833565
 20
119.1582813567
 30
0.0
 10
355.7156259523
 20
119.1503415809
 30
0.0
 10
355.6497401811
 20
119.1439892625
 30
0.0
 10
355.6167972764
 20
119.1408131655
 30
0.0
  0
SPLINE
  5
2C5
330
1B
100
AcDbEntity
 67
     1
  8
0
  6
Continuous
 62
     2
100
AcDbSpline
 70
     0
 71
     3
 72
   251
 73
   247
 74
     0
 42
0.000000001
 43
0.0000001
 40
0.0
 40
0.0
 40
0.0
 40
0.0
 40
0.015625
 40
0.03125
 40
0.0390625
 40
0.046875
 40
0.05078125
 40
0.0546875
 40
0.05859375
 40
0.060546875
 40
0.0615234375
 40
0.0625
 40
0.0634765625
 40
0.064453125
 40
0.06640625
 40
0.0703125
 40
0.07421875
 40
0.078125
 40
0.0859375
 40
0.09375
 40
0.1015625
 40
0.109375
 40
0.11328125
 40
0.1171875
 40
0.12109375
 40
0.123046875
 40
0.1240234375
 40
0.125
 40
0.1259765625
 40
0.126953125
 40
0.12890625
 40
0.1328125
 40
0.13671875
 40
0.140625
 40
0.1484375
 40
0.15625
 40
0.1640625
 40
0.171875
 40
0.17578125
 40
0.1796875
 40
0.18359375
 40
0.185546875
 40
0.1865234375
 40
0.1875
 40
0.1884765625
 40
0.189453125
 40
0.19140625
 40
0.1953125
 40
0.19921875
 40
0.203125
 40
0.2109375
 40
0.21875
 40
0.2265625
 40
0.234375
 40
0.23828125
 40
0.2421875
 40
0.24609375
 40
0.248046875
 40
0.2490234375
 40
0.25
 40
0.2509765625
 40
0.251953125
 40
0.25390625
 40
0.2578125
 40
0.26171875
 40
0.265625
 40
0.2734375
 40
0.28125
 40
0.2890625
 40
0.296875
 40
0.30078125
 40
0.3046875
 40
0.30859375
 40
0.310546875
 40
0.3115234375
 40
0.3125
 40
0.3134765625
 40
0.314453125
 40
0.31640625
 40
0.3203125
 40
0.32421875
 40
0.328125
 40
0.3359375
 40
0.34375
 40
0.3515625
 40
0.359375
 40
0.36328125
 40
0.3671875
 40
0.37109375
 40
0.373046875
 40
0.3740234375
 40
0.375
 40
0.3759765625
 40
0.376953125
 40
0.37890625
 40
0.3828125
 40
0.38671875
 40
0.390625
 40
0.3984375
 40
0.40625
 40
0.4140625
 40
0.421875
 40
0.42578125
 40
0.4296875
 40
0.43359375
 40
0.435546875
 40
0.4365234375
 40
0.4375
 40
0.4384765625
 40
0.439453125
 40
0.44140625
 40
0.4453125
 40
0.44921875
 40
0.453125
 40
0.4609375
 40
0.46875
 40
0.4765625
 40
0.484375
 40
0.48828125
 40
0.4921875
 40
0.49609375
 40
0.498046875
 40
0.4990234375
 40
0.5
 40
0.5009765625
 40
0.501953125
 40
0.50390625
 40
0.5078125
 40
0.51171875
 40
0.515625
 40
0.5234375
 40
0.53125
 40
0.5390625
 40
0.546875
 40
0.55078125
 40
0.5546875
 40
0.55859375
 40
0.560546875
 40
0.5615234375
 40
0.5625
 40
0.5634765625
 40
0.564453125
 40
0.56640625
 40
0.5703125
 40
0.57421875
 40
0.578125
 40
0.5859375
 40
0.59375
 40
0.6015625
 40
0.609375
 40
0.61328125
 40
0.6171875
 40
0.62109375
 40
0.623046875
 40
0.6240234375
 40
0.625
 40
0.6259765625
 40
0.626953125
 40
0.62890625
 40
0.6328125
 40
0.63671875
 40
0.640625
 40
0.6484375
 40
0.65625
 40
0.6640625
 40
0.671875
 40
0.67578125
 40
0.6796875
 40
0.68359375
 40
0.685546875
 40
0.6865234375
 40
0.6875
 40
0.6884765625
 40
0.689453125
 40
0.69140625
 40
0.6953125
 40
0.69921875
 40
0.703125
 40
0.7109375
 40
0.71875
 40
0.7265625
 40
0.734375
 40
0.73828125
 40
0.7421875
 40
0.74609375
 40
0.748046875
 40
0.7490234375
 40
0.75
 40
0.7509765625
 40
0.751953125
 40
0.75390625
 40
0.7578125
 40
0.76171875
 40
0.765625
 40
0.7734375
 40
0.78125
 40
0.7890625
 40
0.796875
 40
0.80078125
 40
0.8046875
 40
0.80859375
 40
0.810546875
 40
0.8115234375
 40
0.8125
 40
0.8134765625
 40
0.814453125
 40
0.81640625
 40
0.8203125
 40
0.82421875
 40
0.828125
 40
0.8359375
 40
0.84375
 40
0.8515625
 40
0.859375
 40
0.86328125
 40
0.8671875
 40
0.87109375
 40
0.873046875
 40
0.8740234375
 40
0.875
 40
0.8759765625
 40
0.876953125
 40
0.87890625
 40
0.8828125
 40
0.88671875
 40
0.890625
 40
0.8984375
 40
0.90625
 40
0.9140625
 40
0.921875
 40
0.92578125
 40
0.9296875
 40
0.93359375
 40
0.935546875
 40
0.9365234375
 40
0.9375
 40
0.9384765625
 40
0.939453125
 40
0.94140625
 40
0.9453125
 40
0.94921875
 40
0.953125
 40
0.9609375
 40
0.96875
 40
0.984375
 40
1.0
 40
1.0
 40
1.0
 40
1.0
 10
80.6167974513
 20
119.1408131655
 30
0.0
 10
80.5844250594
 20
119.14387915
 30
0.0
 10
80.5196803012
 20
119.1500112437
 30
0.0
 10
80.4387492258
 20
119.157675738
 30
0.0
 10
80.3740046335
 20
119.1638086413
 30
0.0
 10
80.333538657
 20
119.1676387476
 30
0.0
 10
80.3011672641
 20
119.1707096054
 30
0.0
 10
80.2768849182
 20
119.1729942057
 30
0.0
 10
80.256661722
 20
119.1749570273
 30
0.0
 10
80.2424817545
 20
119.1762152401
 30
0.0
 10
80.2344159686
 20
119.1771149722
 30
0.0
 10
80.2282622512
 20
119.1772805861
 30
0.0
 10
80.2225075194
 20
119.1793925639
 30
0.0
 10
80.2146953729
 20
119.1815296208
 30
0.0
 10
80.2010889588
 20
119.1855857887
 30
0.0
 10
80.181617324
 20
119.191214939
 30
0.0
 10
80.1582658734
 20
119.1980407073
 30
0.0
 10
80.1271255339
 20
119.207116997
 30
0.0
 10
80.0882018722
 20
119.2184708991
 30
0.0
 10
80.0414926249
 20
119.2320916915
 30
0.0
 10
79.9947839704
 20
119.2457143806
 30
0.0
 10
79.9558588267
 20
119.2570635412
 30
0.0
 10
79.9247214513
 20
119.266149314
 30
0.0
 10
79.9013609601
 20
119.2729461587
 30
0.0
 10
79.881917608
 20
119.2786657938
 30
0.0
 10
79.8682607049
 20
119.2825604325
 30
0.0
 10
79.8605294544
 20
119.2849562997
 30
0.0
 10
79.8545262363
 20
119.2862732952
 30
0.0
 10
79.8493057919
 20
119.2894247303
 30
0.0
 10
79.8420721593
 20
119.2929867708
 30
0.0
 10
79.8295405166
 20
119.2995184703
 30
0.0
 10
79.8115716605
 20
119.3086936041
 30
0.0
 10
79.7900375023
 20
119.3197704819
 30
0.0
 10
79.7613153427
 20
119.3345163398
 30
0.0
 10
79.7254160857
 20
119.3529567128
 30
0.0
 10
79.6823353763
 20
119.3750814867
 30
0.0
 10
79.639255563
 20
119.3972080742
 30
0.0
 10
79.6033540659
 20
119.415643913
 30
0.0
 10
79.5746363864
 20
119.4303988393
 30
0.0
 10
79.5530885639
 20
119.4414480587
 30
0.0
 10
79.5351624558
 20
119.4507097195
 30
0.0
 10
79.5225545014
 20
119.457086955
 30
0.0
 10
79.5154431392
 20
119.4608964855
 30
0.0
 10
79.509847119
 20
119.4632877105
 30
0.0
 10
79.5052545016
 20
119.4674599289
 30
0.0
 10
79.4987810135
 20
119.4724016563
 30
0.0
 10
79.4876154801
 20
119.4813391222
 30
0.0
 10
79.4715794625
 20
119.4939556062
 30
0.0
 10
79.4523727351
 20
119.5091601601
 30
0.0
 10
79.4267510109
 20
119.5294102672
 30
0.0
 10
79.3947282783
 20
119.5547307042
 30
0.0
 10
79.3562989024
 20
119.5851117207
 30
0.0
 10
79.3178708371
 20
119.6154942839
 30
0.0
 10
79.285844828
 20
119.6408108543
 30
0.0
 10
79.2602296567
 20
119.6610686946
 30
0.0
 10
79.2410029432
 20
119.6762496624
 30
0.0
 10
79.2250294502
 20
119.6889399336
 30
0.0
 10
79.2137523009
 20
119.697745678
 30
0.0
 10
79.2074576495
 20
119.7028984561
 30
0.0
 10
79.2023157033
 20
119.7064223947
 30
0.0
 10
79.1987828708
 20
119.7112484509
 30
0.0
 10
79.1935111505
 20
119.7172289994
 30
0.0
 10
79.1845471494
 20
119.7279065763
 30
0.0
 10
79.1716047131
 20
119.7430496214
 30
0.0
 10
79.1561323121
 20
119.7612686326
 30
0.0
 10
79.1354819944
 20
119.7855441006
 30
0.0
 10
79.1096761632
 20
119.8158941451
 30
0.0
 10
79.0787059236
 20
119.852311613
 30
0.0
 10
79.0477373474
 20
119.8887302878
 30
0.0
 10
79.0219273575
 20
119.919077315
 30
0.0
 10
79.0012853573
 20
119.9433588175
 30
0.0
 10
78.9857875879
 20
119.9615594234
 30
0.0
 10
78.9729245143
 20
119.976760048
 30
0.0
 10
78.9638188387
 20
119.9873348367
 30
0.0
 10
78.9587741164
 20
119.9934800776
 30
0.0
 10
78.954544019
 20
119.9978002515
 30
0.0
 10
78.9520208841
 20
120.0032242002
 30
0.0
 10
78.9480612965
 20
120.0100711229
 30
0.0
 10
78.9414094299
 20
120.0222326204
 30
0.0
 10
78.9317617289
 20
120.0395124046
 30
0.0
 10
78.920246569
 20
120.060288289
 30
0.0
 10
78.9048713289
 20
120.0879754425
 30
0.0
 10
78.885659777
 20
120.122589219
 30
0.0
 10
78.8626024636
 20
120.1641235829
 30
0.0
 10
78.8395469578
 20
120.205658883
 30
0.0
 10
78.8203308869
 20
120.240270319
 30
0.0
 10
78.8049646849
 20
120.2679621535
 30
0.0
 10
78.7934219588
 20
120.2887237607
 30
0.0
 10
78.7838604962
 20
120.3060482099
 30
0.0
 10
78.7770546809
 20
120.3181299736
 30
0.0
 10
78.7733417577
 20
120.3251046498
 30
0.0
 10
78.7700609491
 20
120.3301361805
 30
0.0
 10
78.7686765481
 20
120.3359302115
 30
0.0
 10
78.766169192
 20
120.3433896174
 30
0.0
 10
78.7620895184
 20
120.3565674975
 30
0.0
 10
78.7561002825
 20
120.3753282538
 30
0.0
 10
78.7489821706
 20
120.3978688928
 30
0.0
 10
78.739467254
 20
120.4279133888
 30
0.0
 10
78.7275819358
 20
120.46547235
 30
0.0
 10
78.7133157327
 20
120.5105415994
 30
0.0
 10
78.6990514908
 20
120.5556115193
 30
0.0
 10
78.6871612694
 20
120.5931688044
 30
0.0
 10
78.6776561592
 20
120.6232166526
 30
0.0
 10
78.6705081377
 20
120.6457470671
 30
0.0
 10
78.6646124715
 20
120.6645398098
 30
0.0
 10
78.6603657618
 20
120.6776605893
 30
0.0
 10
78.6581260392
 20
120.6852114848
 30
0.0
 10
78.6559195536
 20
120.6907244891
 30
0.0
 10
78.6557263585
 20
120.6968115091
 30
0.0
 10
78.6547665068
 20
120.7047273126
 30
0.0
 10
78.6534139615
 20
120.7186732565
 30
0.0
 10
78.651310692
 20
120.7385472616
 30
0.0
 10
78.6488599908
 20
120.7624169435
 30
0.0
 10
78.6455668031
 20
120.7942358946
 30
0.0
 10
78.6414591581
 20
120.8340120805
 30
0.0
 10
78.6365259335
 20
120.8817424552
 30
0.0
 10
78.6315947678
 20
120.9294730283
 30
0.0
 10
78.6274819755
 20
120.9692487179
 30
0.0
 10
78.6241990824
 20
121.0010686615
 30
0.0
 10
78.6217169827
 20
121.0249353163
 30
0.0
 10
78.6197119408
 20
121.0448187917
 30
0.0
 10
78.6181840443
 20
121.0587478296
 30
0.0
 10
78.617505149
 20
121.0666907207
 30
0.0
 10
78.616448946
 20
121.0726945362
 30
0.0
 10
78.6174837746
 20
121.0785200428
 30
0.0
 10
78.6181341707
 20
121.0863495811
 30
0.0
 10
78.6196121936
 20
121.1000222947
 30
0.0
 10
78.6215459875
 20
121.119569893
 30
0.0
 10
78.6239425897
 20
121.1430205258
 30
0.0
 10
78.6271114859
 20
121.1742903031
 30
0.0
 10
78.6310817823
 20
121.2133767358
 30
0.0
 10
78.6358419526
 20
121.2602808414
 30
0.0
 10
78.6406041827
 20
121.3071846642
 30
0.0
 10
78.6445693296
 20
121.3462718039
 30
0.0
 10
78.6477485248
 20
121.3775401673
 30
0.0
 10
78.6501137152
 20
121.4009951125
 30
0.0
 10
78.6521457782
 20
121.4205292199
 30
0.0
 10
78.6534483758
 20
121.4342260167
 30
0.0
 10
78.654379847
 20
121.4420169676
 30
0.0
 10
78.6545513032
 20
121.4479610022
 30
0.0
 10
78.6567377835
 20
121.4535196463
 30
0.0
 10
78.6589502276
 20
121.4610656004
 30
0.0
 10
78.6631494816
 20
121.4742083871
 30
0.0
 10
78.6689772068
 20
121.4930165421
 30
0.0
 10
78.6760437621
 20
121.5155723113
 30
0.0
 10
78.6854402287
 20
121.5456515695
 30
0.0
 10
78.6971946531
 20
121.5832489396
 30
0.0
 10
78.7112959351
 20
121.6283666079
 30
0.0
 10
78.7253991805
 20
121.6734837035
 30
0.0
 10
78.7371486962
 20
121.7110825051
 30
0.0
 10
78.7465549803
 20
121.7411589002
 30
0.0
 10
78.7535915918
 20
121.763723402
 30
0.0
 10
78.7595129938
 20
121.782504238
 30
0.0
 10
78.7635450205
 20
121.7956957933
 30
0.0
 10
78.7660254047
 20
121.8031636079
 30
0.0
 10
78.7673888588
 20
121.8089622713
 30
0.0
 10
78.7706514645
 20
121.8140048333
 30
0.0
 10
78.7743391601
 20
121.8209919859
 30
0.0
 10
78.781101273
 20
121.8330966232
 30
0.0
 10
78.7906000705
 20
121.8504532054
 30
0.0
 10
78.8020676982
 20
121.8712536049
 30
0.0
 10
78.8173337337
 20
121.8989970806
 30
0.0
 10
78.8364246126
 20
121.9336731001
 30
0.0
 10
78.859329864
 20
121.9752858699
 30
0.0
 10
78.8822369931
 20
122.0168977743
 30
0.0
 10
78.9013231778
 20
122.0515759575
 30
0.0
 10
78.9165986015
 20
122.0793151057
 30
0.0
 10
78.9280375952
 20
122.1001287041
 30
0.0
 10
78.937625972
 20
122.1174439948
 30
0.0
 10
78.944228172
 20
122.1296223436
 30
0.0
 10
78.9481720882
 20
122.136491392
 30
0.0
 10
78.9506476665
 20
122.1418967324
 30
0.0
 10
78.9549670648
 20
122.1463328602
 30
0.0
 10
78.9600831175
 20
122.1525857695
 30
0.0
 10
78.969335863
 20
122.1633708466
 30
0.0
 10
78.9823974084
 20
122.1788604501
 30
0.0
 10
78.9981383209
 20
122.1974127242
 30
0.0
 10
79.0191027744
 20
122.2221614093
 30
0.0
 10
79.0453164198
 20
122.2530929938
 30
0.0
 10
79.0767691625
 20
122.2902129204
 30
0.0
 10
79.1082235064
 20
122.3273315811
 30
0.0
 10
79.1344331488
 20
122.3582663304
 30
0.0
 10
79.1554056083
 20
122.383008686
 30
0.0
 10
79.1711221027
 20
122.401580265
 30
0.0
 10
79.1842600381
 20
122.4170094745
 30
0.0
 10
79.1933764156
 20
122.4279023642
 30
0.0
 10
79.198710964
 20
122.4339825306
 30
0.0
 10
79.2023592137
 20
122.4389492693
 30
0.0
 10
79.2073555148
 20
122.4423617234
 30
0.0
 10
79.2135470341
 20
122.4474538142
 30
0.0
 10
79.2246012751
 20
122.4561123743
 30
0.0
 10
79.2402785091
 20
122.4686138078
 30
0.0
 10
79.2591402174
 20
122.4835589996
 30
0.0
 10
79.2842720311
 20
122.5035056748
 30
0.0
 10
79.3156927093
 20
122.5284321936
 30
0.0
 10
79.3533948463
 20
122.5583471479
 30
0.0
 10
79.3910982329
 20
122.5882604954
 30
0.0
 10
79.4225157873
 20
122.6131910312
 30
0.0
 10
79.4476538485
 20
122.6331296723
 30
0.0
 10
79.4664965022
 20
122.648099368
 30
0.0
 10
79.4822333468
 20
122.6605241431
 30
0.0
 10
79.4931811737
 20
122.6693195502
 30
0.0
 10
79.4995431952
 20
122.6741923778
 30
0.0
 10
79.5040157683
 20
122.6782783382
 30
0.0
 10
79.5096310533
 20
122.6807154993
 30
0.0
 10
79.5167195092
 20
122.6845401672
 30
0.0
 10
79.5293100179
 20
122.690965377
 30
0.0
 10
79.5471993669
 20
122.7002843405
 30
0.0
 10
79.5687081451
 20
122.7114071309
 30
0.0
 10
79.5973719956
 20
122.7262584724
 30
0.0
 10
79.633206814
 20
122.7448154065
 30
0.0
 10
79.6762063516
 20
122.767087061
 30
0.0
 10
79.7192068584
 20
122.7893569695
 30
0.0
 10
79.7550392537
 20
122.8079182687
 30
0.0
 10
79.7837079503
 20
122.82276088
 30
0.0
 10
79.8052019477
 20
122.8339102972
 30
0.0
 10
79.8231375374
 20
122.8431459609
 30
0.0
 10
79.8356454995
 20
122.8497198737
 30
0.0
 10
79.8428662157
 20
122.8533062821
 30
0.0
 10
79.8480752396
 20
122.8564752999
 30
0.0
 10
79.8540736618
 20
122.8578125285
 30
0.0
 10
79.8617962071
 20
122.8602344486
 30
0.0
 10
79.8754389525
 20
122.8641751107
 30
0.0
 10
79.8948615166
 20
122.8699602683
 30
0.0
 10
79.9181973032
 20
122.8768358364
 30
0.0
 10
79.9493016542
 20
122.8860265401
 30
0.0
 10
79.9881855522
 20
122.8975068759
 30
0.0
 10
80.0348446725
 20
122.91128697
 30
0.0
 10
80.081504487
 20
122.9250651696
 30
0.0
 10
80.1203866497
 20
122.9365502415
 30
0.0
 10
80.1514944713
 20
122.9457314729
 30
0.0
 10
80.1748196727
 20
122.9526359314
 30
0.0
 10
80.1942753517
 20
122.9583307078
 30
0.0
 10
80.207858982
 20
122.9624327143
 30
0.0
 10
80.2156762445
 20
122.9645961202
 30
0.0
 10
80.2213837256
 20
122.9667274216
 30
0.0
 10
80.2276854761
 20
122.9669140337
 30
0.0
 10
80.2358805223
 20
122.9678411793
 30
0.0
 10
80.2503184323
 20
122.9691476378
 30
0.0
 10
80.2708935254
 20
122.9711792397
 30
0.0
 10
80.2956052495
 20
122.9735464371
 30
0.0
 10
80.3285466663
 20
122.9767274031
 30
0.0
 10
80.369726022
 20
122.9806951521
 30
0.0
 10
80.435611546
 20
122.9870482794
 30
0.0
 10
80.5179689502
 20
122.9949880552
 30
0.0
 10
80.5838547215
 20
123.0013403737
 30
0.0
 10
80.6167976261
 20
123.0045164707
 30
0.0
  0
SPLINE
  5
2C6
330
1B
100
AcDbEntity
 67
     1
  8
0
  6
Continuous
 62
     2
100
AcDbSpline
 70
     0
 71
     3
 72
   251
 73
   247
 74
     0
 42
0.000000001
 43
0.0000001
 40
0.0
 40
0.0
 40
0.0
 40
0.0
 40
0.015625
 40
0.03125
 40
0.0390625
 40
0.046875
 40
0.05078125
 40
0.0546875
 40
0.05859375
 40
0.060546875
 40
0.0615234375
 40
0.0625
 40
0.0634765625
 40
0.064453125
 40
0.06640625
 40
0.0703125
 40
0.07421875
 40
0.078125
 40
0.0859375
 40
0.09375
 40
0.1015625
 40
0.109375
 40
0.11328125
 40
0.1171875
 40
0.12109375
 40
0.123046875
 40
0.1240234375
 40
0.125
 40
0.1259765625
 40
0.126953125
 40
0.12890625
 40
0.1328125
 40
0.13671875
 40
0.140625
 40
0.1484375
 40
0.15625
 40
0.1640625
 40
0.171875
 40
0.17578125
 40
0.1796875
 40
0.18359375
 40
0.185546875
 40
0.1865234375
 40
0.1875
 40
0.1884765625
 40
0.189453125
 40
0.19140625
 40
0.1953125
 40
0.19921875
 40
0.203125
 40
0.2109375
 40
0.21875
 40
0.2265625
 40
0.234375
 40
0.23828125
 40
0.2421875
 40
0.24609375
 40
0.248046875
 40
0.2490234375
 40
0.25
 40
0.2509765625
 40
0.251953125
 40
0.25390625
 40
0.2578125
 40
0.26171875
 40
0.265625
 40
0.2734375
 40
0.28125
 40
0.2890625
 40
0.296875
 40
0.30078125
 40
0.3046875
 40
0.30859375
 40
0.310546875
 40
0.3115234375
 40
0.3125
 40
0.3134765625
 40
0.314453125
 40
0.31640625
 40
0.3203125
 40
0.32421875
 40
0.328125
 40
0.3359375
 40
0.34375
 40
0.3515625
 40
0.359375
 40
0.36328125
 40
0.3671875
 40
0.37109375
 40
0.373046875
 40
0.3740234375
 40
0.375
 40
0.3759765625
 40
0.376953125
 40
0.37890625
 40
0.3828125
 40
0.38671875
 40
0.390625
 40
0.3984375
 40
0.40625
 40
0.4140625
 40
0.421875
 40
0.42578125
 40
0.4296875
 40
0.43359375
 40
0.435546875
 40
0.4365234375
 40
0.4375
 40
0.4384765625
 40
0.439453125
 40
0.44140625
 40
0.4453125
 40
0.44921875
 40
0.453125
 40
0.4609375
 40
0.46875
 40
0.4765625
 40
0.484375
 40
0.48828125
 40
0.4921875
 40
0.49609375
 40
0.498046875
 40
0.4990234375
 40
0.5
 40
0.5009765625
 40
0.501953125
 40
0.50390625
 40
0.5078125
 40
0.51171875
 40
0.515625
 40
0.5234375
 40
0.53125
 40
0.5390625
 40
0.546875
 40
0.55078125
 40
0.5546875
 40
0.55859375
 40
0.560546875
 40
0.5615234375
 40
0.5625
 40
0.5634765625
 40
0.564453125
 40
0.56640625
 40
0.5703125
 40
0.57421875
 40
0.578125
 40
0.5859375
 40
0.59375
 40
0.6015625
 40
0.609375
 40
0.61328125
 40
0.6171875
 40
0.62109375
 40
0.623046875
 40
0.6240234375
 40
0.625
 40
0.6259765625
 40
0.626953125
 40
0.62890625
 40
0.6328125
 40
0.63671875
 40
0.640625
 40
0.6484375
 40
0.65625
 40
0.6640625
 40
0.671875
 40
0.67578125
 40
0.6796875
 40
0.68359375
 40
0.685546875
 40
0.6865234375
 40
0.6875
 40
0.6884765625
 40
0.689453125
 40
0.69140625
 40
0.6953125
 40
0.69921875
 40
0.703125
 40
0.7109375
 40
0.71875
 40
0.7265625
 40
0.734375
 40
0.73828125
 40
0.7421875
 40
0.74609375
 40
0.748046875
 40
0.7490234375
 40
0.75
 40
0.7509765625
 40
0.751953125
 40
0.75390625
 40
0.7578125
 40
0.76171875
 40
0.765625
 40
0.7734375
 40
0.78125
 40
0.7890625
 40
0.796875
 40
0.80078125
 40
0.8046875
 40
0.80859375
 40
0.810546875
 40
0.8115234375
 40
0.8125
 40
0.8134765625
 40
0.814453125
 40
0.81640625
 40
0.8203125
 40
0.82421875
 40
0.828125
 40
0.8359375
 40
0.84375
 40
0.8515625
 40
0.859375
 40
0.86328125
 40
0.8671875
 40
0.87109375
 40
0.873046875
 40
0.8740234375
 40
0.875
 40
0.8759765625
 40
0.876953125
 40
0.87890625
 40
0.8828125
 40
0.88671875
 40
0.890625
 40
0.8984375
 40
0.90625
 40
0.9140625
 40
0.921875
 40
0.92578125
 40
0.9296875
 40
0.93359375
 40
0.935546875
 40
0.9365234375
 40
0.9375
 40
0.9384765625
 40
0.939453125
 40
0.94140625
 40
0.9453125
 40
0.94921875
 40
0.953125
 40
0.9609375
 40
0.96875
 40
0.984375
 40
1.0
 40
1.0
 40
1.0
 40
1.0
 10
80.6167974513
 20
123.0045164707
 30
0.0
 10
80.6491698431
 20
123.0014504861
 30
0.0
 10
80.7139146013
 20
122.9953183924
 30
0.0
 10
80.7948456768
 20
122.9876538981
 30
0.0
 10
80.859590269
 20
122.9815209949
 30
0.0
 10
80.9000562456
 20
122.9776908885
 30
0.0
 10
80.9324276385
 20
122.9746200308
 30
0.0
 10
80.9567099843
 20
122.9723354305
 30
0.0
 10
80.9769331805
 20
122.9703726088
 30
0.0
 10
80.991113148
 20
122.9691143961
 30
0.0
 10
80.9991789339
 20
122.968214664
 30
0.0
 10
81.0053326513
 20
122.96804905
 30
0.0
 10
81.0110873832
 20
122.9659370722
 30
0.0
 10
81.0188995296
 20
122.9638000154
 30
0.0
 10
81.0325059437
 20
122.9597438475
 30
0.0
 10
81.0519775785
 20
122.9541146971
 30
0.0
 10
81.0753290291
 20
122.9472889289
 30
0.0
 10
81.1064693687
 20
122.9382126392
 30
0.0
 10
81.1453930303
 20
122.926858737
 30
0.0
 10
81.1921022776
 20
122.9132379446
 30
0.0
 10
81.2388109321
 20
122.8996152556
 30
0.0
 10
81.2777360758
 20
122.888266095
 30
0.0
 10
81.3088734513
 20
122.8791803222
 30
0.0
 10
81.3322339425
 20
122.8723834774
 30
0.0
 10
81.3516772946
 20
122.8666638423
 30
0.0
 10
81.3653341976
 20
122.8627692036
 30
0.0
 10
81.3730654482
 20
122.8603733365
 30
0.0
 10
81.3790686663
 20
122.8590563409
 30
0.0
 10
81.3842891106
 20
122.8559049058
 30
0.0
 10
81.3915227433
 20
122.8523428654
 30
0.0
 10
81.404054386
 20
122.8458111659
 30
0.0
 10
81.4220232421
 20
122.8366360321
 30
0.0
 10
81.4435574002
 20
122.8255591543
 30
0.0
 10
81.4722795598
 20
122.8108132963
 30
0.0
 10
81.5081788168
 20
122.7923729234
 30
0.0
 10
81.5512595262
 20
122.7702481495
 30
0.0
 10
81.5943393396
 20
122.7481215619
 30
0.0
 10
81.6302408366
 20
122.7296857231
 30
0.0
 10
81.6589585161
 20
122.7149307969
 30
0.0
 10
81.6805063387
 20
122.7038815775
 30
0.0
 10
81.6984324468
 20
122.6946199166
 30
0.0
 10
81.7110404012
 20
122.6882426811
 30
0.0
 10
81.7181517633
 20
122.6844331507
 30
0.0
 10
81.7237477836
 20
122.6820419256
 30
0.0
 10
81.728340401
 20
122.6778697072
 30
0.0
 10
81.734813889
 20
122.6729279798
 30
0.0
 10
81.7459794225
 20
122.663990514
 30
0.0
 10
81.76201544
 20
122.65137403
 30
0.0
 10
81.7812221675
 20
122.6361694761
 30
0.0
 10
81.8068438916
 20
122.615919369
 30
0.0
 10
81.8388666243
 20
122.5905989319
 30
0.0
 10
81.8772960001
 20
122.5602179154
 30
0.0
 10
81.9157240654
 20
122.5298353523
 30
0.0
 10
81.9477500745
 20
122.5045187818
 30
0.0
 10
81.9733652458
 20
122.4842609415
 30
0.0
 10
81.9925919593
 20
122.4690799737
 30
0.0
 10
82.0085654523
 20
122.4563897026
 30
0.0
 10
82.0198426016
 20
122.4475839581
 30
0.0
 10
82.026137253
 20
122.4424311801
 30
0.0
 10
82.0312791993
 20
122.4389072415
 30
0.0
 10
82.0348120318
 20
122.4340811852
 30
0.0
 10
82.040083752
 20
122.4281006368
 30
0.0
 10
82.0490477531
 20
122.4174230599
 30
0.0
 10
82.0619901894
 20
122.4022800147
 30
0.0
 10
82.0774625905
 20
122.3840610036
 30
0.0
 10
82.0981129082
 20
122.3597855356
 30
0.0
 10
82.1239187393
 20
122.3294354911
 30
0.0
 10
82.154888979
 20
122.2930180232
 30
0.0
 10
82.1858575551
 20
122.2565993484
 30
0.0
 10
82.211667545
 20
122.2262523211
 30
0.0
 10
82.2323095452
 20
122.2019708186
 30
0.0
 10
82.2478073146
 20
122.1837702128
 30
0.0
 10
82.2606703883
 20
122.1685695881
 30
0.0
 10
82.2697760638
 20
122.1579947995
 30
0.0
 10
82.2748207861
 20
122.1518495586
 30
0.0
 10
82.2790508836
 20
122.1475293847
 30
0.0
 10
82.2815740185
 20
122.1421054359
 30
0.0
 10
82.285533606
 20
122.1352585133
 30
0.0
 10
82.2921854727
 20
122.1230970158
 30
0.0
 10
82.3018331737
 20
122.1058172315
 30
0.0
 10
82.3133483336
 20
122.0850413471
 30
0.0
 10
82.3287235736
 20
122.0573541937
 30
0.0
 10
82.3479351255
 20
122.0227404171
 30
0.0
 10
82.3709924389
 20
121.9812060533
 30
0.0
 10
82.3940479447
 20
121.9396707532
 30
0.0
 10
82.4132640156
 20
121.9050593172
 30
0.0
 10
82.4286302176
 20
121.8773674827
 30
0.0
 10
82.4401729437
 20
121.8566058755
 30
0.0
 10
82.4497344063
 20
121.8392814262
 30
0.0
 10
82.4565402216
 20
121.8271996625
 30
0.0
 10
82.4602531448
 20
121.8202249863
 30
0.0
 10
82.4635339534
 20
121.8151934556
 30
0.0
 10
82.4649183544
 20
121.8093994247
 30
0.0
 10
82.4674257106
 20
121.8019400187
 30
0.0
 10
82.4715053842
 20
121.7887621386
 30
0.0
 10
82.4774946201
 20
121.7700013823
 30
0.0
 10
82.484612732
 20
121.7474607433
 30
0.0
 10
82.4941276486
 20
121.7174162474
 30
0.0
 10
82.5060129667
 20
121.6798572861
 30
0.0
 10
82.5202791699
 20
121.6347880367
 30
0.0
 10
82.5345434118
 20
121.5897181169
 30
0.0
 10
82.5464336331
 20
121.5521608318
 30
0.0
 10
82.5559387433
 20
121.5221129835
 30
0.0
 10
82.5630867648
 20
121.499582569
 30
0.0
 10
82.5689824311
 20
121.4807898263
 30
0.0
 10
82.5732291408
 20
121.4676690468
 30
0.0
 10
82.5754688633
 20
121.4601181513
 30
0.0
 10
82.5776753489
 20
121.454605147
 30
0.0
 10
82.577868544
 20
121.448518127
 30
0.0
 10
82.5788283958
 20
121.4406023235
 30
0.0
 10
82.5801809411
 20
121.4266563797
 30
0.0
 10
82.5822842105
 20
121.4067823746
 30
0.0
 10
82.5847349118
 20
121.3829126926
 30
0.0
 10
82.5880280994
 20
121.3510937415
 30
0.0
 10
82.5921357445
 20
121.3113175556
 30
0.0
 10
82.597068969
 20
121.263587181
 30
0.0
 10
82.6020001347
 20
121.2158566078
 30
0.0
 10
82.6061129271
 20
121.1760809182
 30
0.0
 10
82.6093958201
 20
121.1442609746
 30
0.0
 10
82.6118779198
 20
121.1203943198
 30
0.0
 10
82.6138829618
 20
121.1005108444
 30
0.0
 10
82.6154108582
 20
121.0865818066
 30
0.0
 10
82.6160897536
 20
121.0786389154
 30
0.0
 10
82.6171459565
 20
121.0726350999
 30
0.0
 10
82.616111128
 20
121.0668095933
 30
0.0
 10
82.6154607318
 20
121.0589800551
 30
0.0
 10
82.613982709
 20
121.0453073415
 30
0.0
 10
82.612048915
 20
121.0257597432
 30
0.0
 10
82.6096523129
 20
121.0023091104
 30
0.0
 10
82.6064834166
 20
120.9710393331
 30
0.0
 10
82.6025131202
 20
120.9319529003
 30
0.0
 10
82.5977529499
 20
120.8850487947
 30
0.0
 10
82.5929907198
 20
120.838144972
 30
0.0
 10
82.5890255729
 20
120.7990578323
 30
0.0
 10
82.5858463777
 20
120.7677894689
 30
0.0
 10
82.5834811873
 20
120.7443345237
 30
0.0
 10
82.5814491244
 20
120.7248004162
 30
0.0
 10
82.5801465267
 20
120.7111036194
 30
0.0
 10
82.5792150555
 20
120.7033126685
 30
0.0
 10
82.5790435993
 20
120.6973686339
 30
0.0
 10
82.576857119
 20
120.6918099898
 30
0.0
 10
82.574644675
 20
120.6842640358
 30
0.0
 10
82.5704454209
 20
120.671121249
 30
0.0
 10
82.5646176957
 20
120.6523130941
 30
0.0
 10
82.5575511404
 20
120.6297573249
 30
0.0
 10
82.5481546739
 20
120.5996780666
 30
0.0
 10
82.5364002494
 20
120.5620806966
 30
0.0
 10
82.5222989675
 20
120.5169630283
 30
0.0
 10
82.508195722
 20
120.4718459326
 30
0.0
 10
82.4964462064
 20
120.434247131
 30
0.0
 10
82.4870399222
 20
120.4041707359
 30
0.0
 10
82.4800033108
 20
120.3816062342
 30
0.0
 10
82.4740819087
 20
120.3628253982
 30
0.0
 10
82.4700498821
 20
120.3496338429
 30
0.0
 10
82.4675694979
 20
120.3421660283
 30
0.0
 10
82.4662060438
 20
120.3363673649
 30
0.0
 10
82.462943438
 20
120.3313248029
 30
0.0
 10
82.4592557424
 20
120.3243376502
 30
0.0
 10
82.4524936295
 20
120.3122330129
 30
0.0
 10
82.4429948321
 20
120.2948764308
 30
0.0
 10
82.4315272043
 20
120.2740760312
 30
0.0
 10
82.4162611688
 20
120.2463325555
 30
0.0
 10
82.3971702899
 20
120.211656536
 30
0.0
 10
82.3742650385
 20
120.1700437662
 30
0.0
 10
82.3513579095
 20
120.1284318619
 30
0.0
 10
82.3322717247
 20
120.0937536787
 30
0.0
 10
82.316996301
 20
120.0660145304
 30
0.0
 10
82.3055573073
 20
120.0452009321
 30
0.0
 10
82.2959689305
 20
120.0278856413
 30
0.0
 10
82.2893667305
 20
120.0157072925
 30
0.0
 10
82.2854228143
 20
120.0088382442
 30
0.0
 10
82.282947236
 20
120.0034329037
 30
0.0
 10
82.2786278377
 20
119.9989967759
 30
0.0
 10
82.273511785
 20
119.9927438666
 30
0.0
 10
82.2642590395
 20
119.9819587895
 30
0.0
 10
82.2511974942
 20
119.966469186
 30
0.0
 10
82.2354565816
 20
119.9479169119
 30
0.0
 10
82.2144921281
 20
119.9231682269
 30
0.0
 10
82.1882784828
 20
119.8922366424
 30
0.0
 10
82.15682574
 20
119.8551167157
 30
0.0
 10
82.1253713961
 20
119.817998055
 30
0.0
 10
82.0991617537
 20
119.7870633057
 30
0.0
 10
82.0781892943
 20
119.7623209502
 30
0.0
 10
82.0624727999
 20
119.7437493711
 30
0.0
 10
82.0493348644
 20
119.7283201617
 30
0.0
 10
82.0402184869
 20
119.7174272719
 30
0.0
 10
82.0348839386
 20
119.7113471055
 30
0.0
 10
82.0312356889
 20
119.7063803669
 30
0.0
 10
82.0262393878
 20
119.7029679127
 30
0.0
 10
82.0200478684
 20
119.697875822
 30
0.0
 10
82.0089936274
 20
119.6892172618
 30
0.0
 10
81.9933163935
 20
119.6767158283
 30
0.0
 10
81.9744546852
 20
119.6617706366
 30
0.0
 10
81.9493228714
 20
119.6418239614
 30
0.0
 10
81.9179021932
 20
119.6168974426
 30
0.0
 10
81.8802000562
 20
119.5869824883
 30
0.0
 10
81.8424966697
 20
119.5570691408
 30
0.0
 10
81.8110791152
 20
119.5321386049
 30
0.0
 10
81.785941054
 20
119.5121999638
 30
0.0
 10
81.7670984003
 20
119.4972302681
 30
0.0
 10
81.7513615557
 20
119.4848054931
 30
0.0
 10
81.7404137289
 20
119.4760100859
 30
0.0
 10
81.7340517074
 20
119.4711372584
 30
0.0
 10
81.7295791342
 20
119.467051298
 30
0.0
 10
81.7239638493
 20
119.4646141368
 30
0.0
 10
81.7168753934
 20
119.4607894689
 30
0.0
 10
81.7042848847
 20
119.4543642591
 30
0.0
 10
81.6863955356
 20
119.4450452956
 30
0.0
 10
81.6648867574
 20
119.4339225052
 30
0.0
 10
81.6362229069
 20
119.4190711638
 30
0.0
 10
81.6003880886
 20
119.4005142297
 30
0.0
 10
81.557388551
 20
119.3782425751
 30
0.0
 10
81.5143880441
 20
119.3559726666
 30
0.0
 10
81.4785556489
 20
119.3374113675
 30
0.0
 10
81.4498869522
 20
119.3225687561
 30
0.0
 10
81.4283929548
 20
119.3114193389
 30
0.0
 10
81.4104573652
 20
119.3021836752
 30
0.0
 10
81.397949403
 20
119.2956097625
 30
0.0
 10
81.3907286869
 20
119.292023354
 30
0.0
 10
81.385519663
 20
119.2888543363
 30
0.0
 10
81.3795212408
 20
119.2875171076
 30
0.0
 10
81.3717986955
 20
119.2850951876
 30
0.0
 10
81.3581559501
 20
119.2811545255
 30
0.0
 10
81.338733386
 20
119.2753693678
 30
0.0
 10
81.3153975993
 20
119.2684937997
 30
0.0
 10
81.2842932483
 20
119.259303096
 30
0.0
 10
81.2454093503
 20
119.2478227603
 30
0.0
 10
81.19875023
 20
119.2340426662
 30
0.0
 10
81.1520904155
 20
119.2202644666
 30
0.0
 10
81.1132082529
 20
119.2087793947
 30
0.0
 10
81.0821004313
 20
119.1995981633
 30
0.0
 10
81.0587752298
 20
119.1926937047
 30
0.0
 10
81.0393195508
 20
119.1869989284
 30
0.0
 10
81.0257359206
 20
119.1828969218
 30
0.0
 10
81.017918658
 20
119.180733516
 30
0.0
 10
81.0122111769
 20
119.1786022145
 30
0.0
 10
81.0059094264
 20
119.1784156024
 30
0.0
 10
80.9977143803
 20
119.1774884568
 30
0.0
 10
80.9832764702
 20
119.1761819983
 30
0.0
 10
80.9627013772
 20
119.1741503965
 30
0.0
 10
80.937989653
 20
119.171783199
 30
0.0
 10
80.9050482363
 20
119.168602233
 30
0.0
 10
80.8638688805
 20
119.1646344841
 30
0.0
 10
80.7979833565
 20
119.1582813567
 30
0.0
 10
80.7156259523
 20
119.1503415809
 30
0.0
 10
80.6497401811
 20
119.1439892625
 30
0.0
 10
80.6167972764
 20
119.1408131655
 30
0.0
  0
SPLINE
  5
2C7
330
1B
100
AcDbEntity
 67
     1
  8
3_ALL_AXES
  6
Continuous
 62
     7
100
AcDbSpline
 70
     0
 71
     3
 72
    15
 73
    11
 74
     0
 42
0.000000001
 43
0.0000001
 40
0.0
 40
0.0
 40
0.0
 40
0.0
 40
0.1271196084
 40
0.2539133478
 40
0.3801207449
 40
0.5055520249
 40
0.6301381265
 40
0.7539382147
 40
0.877133434
 40
1.0
 40
1.0
 40
1.0
 40
1.0
 10
80.6167974513
 20
113.3354691089
 30
0.0
 10
80.3228326362
 20
113.3354691089
 30
0.0
 10
79.7341306167
 20
113.3913394423
 30
0.0
 10
78.8856183291
 20
113.6397232893
 30
0.0
 10
78.1029108441
 20
114.0432482679
 30
0.0
 10
77.4164608675
 20
114.5867065076
 30
0.0
 10
76.852626746
 20
115.2493819274
 30
0.0
 10
76.433350987
 20
116.006100996
 30
0.0
 10
76.1750054344
 20
116.8273054997
 30
0.0
 10
76.1167974513
 20
117.3980056968
 30
0.0
 10
76.1167974513
 20
117.6821353272
 30
0.0
  0
LINE
  5
2C8
330
1B
100
AcDbEntity
 67
     1
  8
3_ALL_AXES
  6
Continuous
 62
     7
100
AcDbLine
 10
76.1167974513
 20
117.8891905633
 30
0.0
 11
76.1167974513
 21
117.6821353272
 31
0.0
  0
LINE
  5
2C9
330
1B
100
AcDbEntity
 67
     1
  8
3_ALL_AXES
  6
Continuous
 62
     7
100
AcDbLine
 10
85.1167974513
 20
117.8891905633
 30
0.0
 11
85.1167974513
 21
117.6821353272
 31
0.0
  0
SPLINE
  5
2CA
330
1B
100
AcDbEntity
 67
     1
  8
3_ALL_AXES
  6
Continuous
 62
     7
100
AcDbSpline
 70
     0
 71
     3
 72
    15
 73
    11
 74
     0
 42
0.000000001
 43
0.0000001
 40
0.0
 40
0.0
 40
0.0
 40
0.0
 40
0.122866566
 40
0.2460617853
 40
0.3698618735
 40
0.4944479751
 40
0.6198792551
 40
0.7460866522
 40
0.8728803916
 40
1.0
 40
1.0
 40
1.0
 40
1.0
 10
85.1167974513
 20
117.6821353272
 30
0.0
 10
85.1167974513
 20
117.3980056968
 30
0.0
 10
85.0585894682
 20
116.8273054997
 30
0.0
 10
84.8002439155
 20
116.006100996
 30
0.0
 10
84.3809681566
 20
115.2493819274
 30
0.0
 10
83.8171340351
 20
114.5867065076
 30
0.0
 10
83.1306840585
 20
114.0432482679
 30
0.0
 10
82.3479765735
 20
113.6397232893
 30
0.0
 10
81.4994642859
 20
113.3913394423
 30
0.0
 10
80.9107622664
 20
113.3354691089
 30
0.0
 10
80.6167974513
 20
113.3354691089
 30
0.0
  0
SPLINE
  5
2CB
330
1B
100
AcDbEntity
 67
     1
  8
3_ALL_AXES
  6
Continuous
 62
     7
100
AcDbSpline
 70
     0
 71
     3
 72
    15
 73
    11
 74
     0
 42
0.000000001
 43
0.0000001
 40
0.0
 40
0.0
 40
0.0
 40
0.0
 40
0.1270528273
 40
0.25379804
 40
0.3799892808
 40
0.5054396844
 40
0.6300722194
 40
0.753926049
 40
0.8771535975
 40
1.0
 40
1.0
 40
1.0
 40
1.0
 10
80.6167974513
 20
113.542524345
 30
0.0
 10
80.3316892662
 20
113.542524345
 30
0.0
 10
79.7607709648
 20
113.5950645824
 30
0.0
 10
78.9359153254
 20
113.8288214571
 30
0.0
 10
78.1711733699
 20
114.2091443092
 30
0.0
 10
77.4945250494
 20
114.7225592304
 30
0.0
 10
76.9304003607
 20
115.3506511025
 30
0.0
 10
76.4993892941
 20
116.0709753252
 30
0.0
 10
76.2173375875
 20
116.8571015609
 30
0.0
 10
76.1354325916
 20
117.4074618398
 30
0.0
 10
76.1218771354
 20
117.6827972705
 30
0.0
  0
ARC
  5
2CC
330
1B
100
AcDbEntity
 67
     1
  8
3_ALL_AXES
  6
Continuous
 62
     7
100
AcDbCircle
 10
80.3147257244
 20
117.8892494438
 30
0.0
 40
4.1979282735
100
AcDbArc
 50
180.0008036358
 51
182.8189170674
  0
ARC
  5
2CD
330
1B
100
AcDbEntity
 67
     1
  8
3_ALL_AXES
  6
Continuous
 62
     7
100
AcDbCircle
 10
80.9188691782
 20
117.8892494438
 30
0.0
 40
4.1979282735
100
AcDbArc
 50
357.1810829326
 51
359.9991963642
  0
SPLINE
  5
2CE
330
1B
100
AcDbEntity
 67
     1
  8
3_ALL_AXES
  6
Continuous
 62
     7
100
AcDbSpline
 70
     0
 71
     3
 72
    15
 73
    11
 74
     0
 42
0.000000001
 43
0.0000001
 40
0.0
 40
0.0
 40
0.0
 40
0.0
 40
0.1228464025
 40
0.246073951
 40
0.3699277806
 40
0.4945603156
 40
0.6200107192
 40
0.74620196
 40
0.8729471727
 40
1.0
 40
1.0
 40
1.0
 40
1.0
 10
85.1117177671
 20
117.6827972705
 30
0.0
 10
85.0981623109
 20
117.4074618398
 30
0.0
 10
85.016257315
 20
116.8571015609
 30
0.0
 10
84.7342056084
 20
116.0709753252
 30
0.0
 10
84.3031945418
 20
115.3506511025
 30
0.0
 10
83.7390698532
 20
114.7225592304
 30
0.0
 10
83.0624215326
 20
114.2091443092
 30
0.0
 10
82.2976795771
 20
113.8288214571
 30
0.0
 10
81.4728239377
 20
113.5950645824
 30
0.0
 10
80.9019056363
 20
113.542524345
 30
0.0
 10
80.6167974513
 20
113.542524345
 30
0.0
  0
SPLINE
  5
2CF
330
1B
100
AcDbEntity
 67
     1
  8
3_ALL_AXES
  6
Continuous
 62
     7
100
AcDbSpline
 70
     0
 71
     3
 72
    15
 73
    11
 74
     0
 42
0.000000001
 43
0.0000001
 40
0.0
 40
0.0
 40
0.0
 40
0.0
 40
0.1271196084
 40
0.2539133478
 40
0.3801207449
 40
0.5055520249
 40
0.6301381265
 40
0.7539382147
 40
0.877133434
 40
1.0
 40
1.0
 40
1.0
 40
1.0
 10
355.6167974513
 20
113.3354691089
 30
0.0
 10
355.3228326362
 20
113.3354691089
 30
0.0
 10
354.7341306167
 20
113.3913394423
 30
0.0
 10
353.8856183291
 20
113.6397232893
 30
0.0
 10
353.1029108441
 20
114.0432482679
 30
0.0
 10
352.4164608675
 20
114.5867065076
 30
0.0
 10
351.852626746
 20
115.2493819274
 30
0.0
 10
351.433350987
 20
116.006100996
 30
0.0
 10
351.1750054344
 20
116.8273054997
 30
0.0
 10
351.1167974513
 20
117.3980056968
 30
0.0
 10
351.1167974513
 20
117.6821353272
 30
0.0
  0
LINE
  5
2D0
330
1B
100
AcDbEntity
 67
     1
  8
3_ALL_AXES
  6
Continuous
 62
     7
100
AcDbLine
 10
351.1167974513
 20
117.8891905633
 30
0.0
 11
351.1167974513
 21
117.6821353272
 31
0.0
  0
LINE
  5
2D1
330
1B
100
AcDbEntity
 67
     1
  8
3_ALL_AXES
  6
Continuous
 62
     7
100
AcDbLine
 10
360.1167974513
 20
117.8891905633
 30
0.0
 11
360.1167974513
 21
117.6821353272
 31
0.0
  0
SPLINE
  5
2D2
330
1B
100
AcDbEntity
 67
     1
  8
3_ALL_AXES
  6
Continuous
 62
     7
100
AcDbSpline
 70
     0
 71
     3
 72
    15
 73
    11
 74
     0
 42
0.000000001
 43
0.0000001
 40
0.0
 40
0.0
 40
0.0
 40
0.0
 40
0.122866566
 40
0.2460617853
 40
0.3698618735
 40
0.4944479751
 40
0.6198792551
 40
0.7460866522
 40
0.8728803916
 40
1.0
 40
1.0
 40
1.0
 40
1.0
 10
360.1167974513
 20
117.6821353272
 30
0.0
 10
360.1167974513
 20
117.3980056968
 30
0.0
 10
360.0585894682
 20
116.8273054997
 30
0.0
 10
359.8002439155
 20
116.006100996
 30
0.0
 10
359.3809681566
 20
115.2493819274
 30
0.0
 10
358.8171340351
 20
114.5867065076
 30
0.0
 10
358.1306840585
 20
114.0432482679
 30
0.0
 10
357.3479765735
 20
113.6397232893
 30
0.0
 10
356.4994642859
 20
113.3913394423
 30
0.0
 10
355.9107622664
 20
113.3354691089
 30
0.0
 10
355.6167974513
 20
113.3354691089
 30
0.0
  0
SPLINE
  5
2D3
330
1B
100
AcDbEntity
 67
     1
  8
3_ALL_AXES
  6
Continuous
 62
     7
100
AcDbSpline
 70
     0
 71
     3
 72
    15
 73
    11
 74
     0
 42
0.000000001
 43
0.0000001
 40
0.0
 40
0.0
 40
0.0
 40
0.0
 40
0.1270528273
 40
0.25379804
 40
0.3799892808
 40
0.5054396844
 40
0.6300722194
 40
0.753926049
 40
0.8771535975
 40
1.0
 40
1.0
 40
1.0
 40
1.0
 10
355.6167974513
 20
113.542524345
 30
0.0
 10
355.3316892662
 20
113.542524345
 30
0.0
 10
354.7607709648
 20
113.5950645824
 30
0.0
 10
353.9359153254
 20
113.8288214571
 30
0.0
 10
353.1711733699
 20
114.2091443092
 30
0.0
 10
352.4945250494
 20
114.7225592304
 30
0.0
 10
351.9304003607
 20
115.3506511025
 30
0.0
 10
351.4993892941
 20
116.0709753252
 30
0.0
 10
351.2173375875
 20
116.8571015609
 30
0.0
 10
351.1354325916
 20
117.4074618398
 30
0.0
 10
351.1218771354
 20
117.6827972705
 30
0.0
  0
ARC
  5
2D4
330
1B
100
AcDbEntity
 67
     1
  8
3_ALL_AXES
  6
Continuous
 62
     7
100
AcDbCircle
 10
355.3147257245
 20
117.8892494438
 30
0.0
 40
4.1979282736
100
AcDbArc
 50
180.0008036358
 51
182.8189170674
  0
ARC
  5
2D5
330
1B
100
AcDbEntity
 67
     1
  8
3_ALL_AXES
  6
Continuous
 62
     7
100
AcDbCircle
 10
355.9188691781
 20
117.8892494438
 30
0.0
 40
4.1979282736
100
AcDbArc
 50
357.1810829326
 51
359.9991963642
  0
SPLINE
  5
2D6
330
1B
100
AcDbEntity
 67
     1
  8
3_ALL_AXES
  6
Continuous
 62
     7
100
AcDbSpline
 70
     0
 71
     3
 72
    15
 73
    11
 74
     0
 42
0.000000001
 43
0.0000001
 40
0.0
 40
0.0
 40
0.0
 40
0.0
 40
0.1228464025
 40
0.246073951
 40
0.3699277806
 40
0.4945603156
 40
0.6200107192
 40
0.74620196
 40
0.8729471727
 40
1.0
 40
1.0
 40
1.0
 40
1.0
 10
360.1117177671
 20
117.6827972705
 30
0.0
 10
360.0981623109
 20
117.4074618398
 30
0.0
 10
360.016257315
 20
116.8571015609
 30
0.0
 10
359.7342056084
 20
116.0709753252
 30
0.0
 10
359.3031945418
 20
115.3506511025
 30
0.0
 10
358.7390698532
 20
114.7225592304
 30
0.0
 10
358.0624215326
 20
114.2091443092
 30
0.0
 10
357.2976795771
 20
113.8288214571
 30
0.0
 10
356.4728239377
 20
113.5950645824
 30
0.0
 10
355.9019056363
 20
113.542524345
 30
0.0
 10
355.6167974513
 20
113.542524345
 30
0.0
  0
SPLINE
  5
2D7
330
1B
100
AcDbEntity
 67
     1
  8
7_ALL_FEATURES
  6
Continuous
 62
     7
100
AcDbSpline
 70
     0
 71
     3
 72
    11
 73
     7
 74
     0
 42
0.000000001
 43
0.0000001
 40
0.0
 40
0.0
 40
0.0
 40
0.0
 40
0.2521217873
 40
0.5032431147
 40
0.7526616193
 40
1.0
 40
1.0
 40
1.0
 40
1.0
 10
80.6167974513
 20
120.6839383373
 30
0.0
 10
80.4943523531
 20
120.6839383373
 30
0.0
 10
80.2489586268
 20
120.6548050866
 30
0.0
 10
79.9032431683
 20
120.5260401055
 30
0.0
 10
79.5999142374
 20
120.3200580899
 30
0.0
 10
79.4372544707
 20
120.1379754626
 30
0.0
 10
79.368989671
 20
120.0391361434
 30
0.0
  0
SPLINE
  5
2D8
330
1B
100
AcDbEntity
 67
     1
  8
7_ALL_FEATURES
  6
Continuous
 62
     7
100
AcDbSpline
 70
     0
 71
     3
 72
    11
 73
     7
 74
     0
 42
0.000000001
 43
0.0000001
 40
0.0
 40
0.0
 40
0.0
 40
0.0
 40
0.2521217873
 40
0.5032431147
 40
0.7526616193
 40
1.0
 40
1.0
 40
1.0
 40
1.0
 10
80.6167974513
 20
120.6839383373
 30
0.0
 10
80.7392425495
 20
120.6839383373
 30
0.0
 10
80.9846362757
 20
120.6548050866
 30
0.0
 10
81.3303517343
 20
120.5260401055
 30
0.0
 10
81.6336806652
 20
120.3200580899
 30
0.0
 10
81.7963404318
 20
120.1379754626
 30
0.0
 10
81.8646052315
 20
120.0391361434
 30
0.0
  0
SPLINE
  5
2D9
330
1B
100
AcDbEntity
 67
     1
  8
7_ALL_FEATURES
  6
Continuous
 62
     7
100
AcDbSpline
 70
     0
 71
     3
 72
    11
 73
     7
 74
     0
 42
0.000000001
 43
0.0000001
 40
0.0
 40
0.0
 40
0.0
 40
0.0
 40
0.2521217873
 40
0.5032431147
 40
0.7526616193
 40
1.0
 40
1.0
 40
1.0
 40
1.0
 10
355.6167974513
 20
120.6839383373
 30
0.0
 10
355.4943523531
 20
120.6839383373
 30
0.0
 10
355.2489586268
 20
120.6548050866
 30
0.0
 10
354.9032431683
 20
120.5260401055
 30
0.0
 10
354.5999142374
 20
120.3200580899
 30
0.0
 10
354.4372544707
 20
120.1379754626
 30
0.0
 10
354.368989671
 20
120.0391361434
 30
0.0
  0
SPLINE
  5
2DA
330
1B
100
AcDbEntity
 67
     1
  8
7_ALL_FEATURES
  6
Continuous
 62
     7
100
AcDbSpline
 70
     0
 71
     3
 72
    11
 73
     7
 74
     0
 42
0.000000001
 43
0.0000001
 40
0.0
 40
0.0
 40
0.0
 40
0.0
 40
0.2521217873
 40
0.5032431147
 40
0.7526616193
 40
1.0
 40
1.0
 40
1.0
 40
1.0
 10
355.6167974513
 20
120.6839383373
 30
0.0
 10
355.7392425495
 20
120.6839383373
 30
0.0
 10
355.9846362757
 20
120.6548050866
 30
0.0
 10
356.3303517343
 20
120.5260401055
 30
0.0
 10
356.6336806652
 20
120.3200580899
 30
0.0
 10
356.7963404318
 20
120.1379754626
 30
0.0
 10
356.8646052315
 20
120.0391361434
 30
0.0
  0
SPLINE
  5
2DB
330
1B
100
AcDbEntity
 67
     1
  8
3_ALL_AXES
  6
Continuous
 62
     7
100
AcDbSpline
 70
     0
 71
     3
 72
    11
 73
     7
 74
     0
 42
0.000000001
 43
0.0000001
 40
0.0
 40
0.0
 40
0.0
 40
0.0
 40
0.2509671308
 40
0.5011255569
 40
0.7507111895
 40
1.0
 40
1.0
 40
1.0
 40
1.0
 10
359.5241329684
 20
120.2523799074
 30
0.0
 10
359.6204293022
 20
120.0895562092
 30
0.0
 10
359.7914999508
 20
119.7513286282
 30
0.0
 10
359.9781562893
 20
119.2154277283
 30
0.0
 10
360.0914724406
 20
118.6606622228
 30
0.0
 10
360.1167974513
 20
118.2841487774
 30
0.0
 10
360.1167974513
 20
118.0962457994
 30
0.0
  0
SPLINE
  5
2DC
330
1B
100
AcDbEntity
 67
     1
  8
3_ALL_AXES
  6
Continuous
 62
     7
100
AcDbSpline
 70
     0
 71
     3
 72
    15
 73
    11
 74
     0
 42
0.000000001
 43
0.0000001
 40
0.0
 40
0.0
 40
0.0
 40
0.0
 40
0.1270528273
 40
0.25379804
 40
0.3799892808
 40
0.5054396844
 40
0.6300722194
 40
0.753926049
 40
0.8771535975
 40
1.0
 40
1.0
 40
1.0
 40
1.0
 10
355.6167974513
 20
113.542524345
 30
0.0
 10
355.3316892662
 20
113.542524345
 30
0.0
 10
354.7607709648
 20
113.5950645824
 30
0.0
 10
353.9359153254
 20
113.8288214571
 30
0.0
 10
353.1711733699
 20
114.2091443092
 30
0.0
 10
352.4945250494
 20
114.7225592304
 30
0.0
 10
351.9304003607
 20
115.3506511025
 30
0.0
 10
351.4993892941
 20
116.0709753252
 30
0.0
 10
351.2173375875
 20
116.8571015609
 30
0.0
 10
351.1354325916
 20
117.4074618398
 30
0.0
 10
351.1218771354
 20
117.6827972705
 30
0.0
  0
ARC
  5
2DD
330
1B
100
AcDbEntity
 67
     1
  8
3_ALL_AXES
  6
Continuous
 62
     7
100
AcDbCircle
 10
355.3147257245
 20
117.8892494438
 30
0.0
 40
4.1979282736
100
AcDbArc
 50
180.0008036358
 51
182.8189170674
  0
LINE
  5
2DE
330
1B
100
AcDbEntity
 67
     1
  8
3_ALL_AXES
  6
Continuous
 62
     7
100
AcDbLine
 10
351.1167974513
 20
118.0962457994
 30
0.0
 11
351.1167974513
 21
117.8891905633
 31
0.0
  0
SPLINE
  5
2DF
330
1B
100
AcDbEntity
 67
     1
  8
3_ALL_AXES
  6
Continuous
 62
     7
100
AcDbSpline
 70
     0
 71
     3
 72
    11
 73
     7
 74
     0
 42
0.000000001
 43
0.0000001
 40
0.0
 40
0.0
 40
0.0
 40
0.0
 40
0.2492888105
 40
0.4988744431
 40
0.7490328692
 40
1.0
 40
1.0
 40
1.0
 40
1.0
 10
351.1167974513
 20
118.0962457994
 30
0.0
 10
351.1167974513
 20
118.2841487774
 30
0.0
 10
351.142122462
 20
118.6606622228
 30
0.0
 10
351.2554386132
 20
119.2154277283
 30
0.0
 10
351.4420949517
 20
119.7513286282
 30
0.0
 10
351.6131656003
 20
120.0895562092
 30
0.0
 10
351.7094619342
 20
120.2523799074
 30
0.0
  0
LINE
  5
2E0
330
1B
100
AcDbEntity
 67
     1
  8
3_ALL_AXES
  6
Continuous
 62
     7
100
AcDbLine
 10
360.1167974513
 20
118.0962457994
 30
0.0
 11
360.1167974513
 21
117.8891905633
 31
0.0
  0
ARC
  5
2E1
330
1B
100
AcDbEntity
 67
     1
  8
3_ALL_AXES
  6
Continuous
 62
     7
100
AcDbCircle
 10
355.9188691782
 20
117.8892494438
 30
0.0
 40
4.1979282735
100
AcDbArc
 50
357.1810829326
 51
359.9991963642
  0
SPLINE
  5
2E2
330
1B
100
AcDbEntity
 67
     1
  8
3_ALL_AXES
  6
Continuous
 62
     7
100
AcDbSpline
 70
     0
 71
     3
 72
    15
 73
    11
 74
     0
 42
0.000000001
 43
0.0000001
 40
0.0
 40
0.0
 40
0.0
 40
0.0
 40
0.1228464025
 40
0.246073951
 40
0.3699277806
 40
0.4945603156
 40
0.6200107192
 40
0.74620196
 40
0.8729471727
 40
1.0
 40
1.0
 40
1.0
 40
1.0
 10
360.1117177671
 20
117.6827972705
 30
0.0
 10
360.0981623109
 20
117.4074618398
 30
0.0
 10
360.016257315
 20
116.8571015609
 30
0.0
 10
359.7342056084
 20
116.0709753252
 30
0.0
 10
359.3031945418
 20
115.3506511025
 30
0.0
 10
358.7390698532
 20
114.7225592304
 30
0.0
 10
358.0624215326
 20
114.2091443092
 30
0.0
 10
357.2976795771
 20
113.8288214571
 30
0.0
 10
356.4728239377
 20
113.5950645824
 30
0.0
 10
355.9019056363
 20
113.542524345
 30
0.0
 10
355.6167974513
 20
113.542524345
 30
0.0
  0
SPLINE
  5
2E3
330
1B
100
AcDbEntity
 67
     1
  8
3_ALL_AXES
  6
Continuous
 62
     7
100
AcDbSpline
 70
     0
 71
     3
 72
    15
 73
    11
 74
     0
 42
0.000000001
 43
0.0000001
 40
0.0
 40
0.0
 40
0.0
 40
0.0
 40
0.1270528273
 40
0.25379804
 40
0.3799892808
 40
0.5054396844
 40
0.6300722194
 40
0.753926049
 40
0.8771535975
 40
1.0
 40
1.0
 40
1.0
 40
1.0
 10
355.6167974513
 20
113.7495795811
 30
0.0
 10
355.3316892662
 20
113.7495795811
 30
0.0
 10
354.7607709648
 20
113.8021198185
 30
0.0
 10
353.9359153254
 20
114.0358766932
 30
0.0
 10
353.1711733699
 20
114.4161995453
 30
0.0
 10
352.4945250494
 20
114.9296144664
 30
0.0
 10
351.9304003607
 20
115.5577063386
 30
0.0
 10
351.4993892941
 20
116.2780305613
 30
0.0
 10
351.2173375875
 20
117.064156797
 30
0.0
 10
351.1354325916
 20
117.6145170759
 30
0.0
 10
351.1218771354
 20
117.8898525066
 30
0.0
  0
ARC
  5
2E4
330
1B
100
AcDbEntity
 67
     1
  8
3_ALL_AXES
  6
Continuous
 62
     7
100
AcDbCircle
 10
355.3147257245
 20
118.0963046799
 30
0.0
 40
4.1979282736
100
AcDbArc
 50
180.0008036358
 51
182.8189170674
  0
ARC
  5
2E5
330
1B
100
AcDbEntity
 67
     1
  8
3_ALL_AXES
  6
Continuous
 62
     7
100
AcDbCircle
 10
355.9188691781
 20
118.0963046799
 30
0.0
 40
4.1979282736
100
AcDbArc
 50
357.1810829326
 51
359.9991963642
  0
SPLINE
  5
2E6
330
1B
100
AcDbEntity
 67
     1
  8
3_ALL_AXES
  6
Continuous
 62
     7
100
AcDbSpline
 70
     0
 71
     3
 72
    15
 73
    11
 74
     0
 42
0.000000001
 43
0.0000001
 40
0.0
 40
0.0
 40
0.0
 40
0.0
 40
0.1228464025
 40
0.246073951
 40
0.3699277806
 40
0.4945603156
 40
0.6200107192
 40
0.74620196
 40
0.8729471727
 40
1.0
 40
1.0
 40
1.0
 40
1.0
 10
360.1117177671
 20
117.8898525066
 30
0.0
 10
360.0981623109
 20
117.6145170759
 30
0.0
 10
360.016257315
 20
117.064156797
 30
0.0
 10
359.7342056084
 20
116.2780305613
 30
0.0
 10
359.3031945418
 20
115.5577063386
 30
0.0
 10
358.7390698532
 20
114.9296144664
 30
0.0
 10
358.0624215326
 20
114.4161995453
 30
0.0
 10
357.2976795771
 20
114.0358766932
 30
0.0
 10
356.4728239377
 20
113.8021198185
 30
0.0
 10
355.9019056363
 20
113.7495795811
 30
0.0
 10
355.6167974513
 20
113.7495795811
 30
0.0
  0
SPLINE
  5
2E7
330
1B
100
AcDbEntity
 67
     1
  8
3_ALL_AXES
  6
Continuous
 62
     7
100
AcDbSpline
 70
     0
 71
     3
 72
    11
 73
     7
 74
     0
 42
0.000000001
 43
0.0000001
 40
0.0
 40
0.0
 40
0.0
 40
0.0
 40
0.2509671308
 40
0.5011255569
 40
0.7507111895
 40
1.0
 40
1.0
 40
1.0
 40
1.0
 10
84.5241329684
 20
120.2523799074
 30
0.0
 10
84.6204293022
 20
120.0895562092
 30
0.0
 10
84.7914999508
 20
119.7513286282
 30
0.0
 10
84.9781562893
 20
119.2154277283
 30
0.0
 10
85.0914724406
 20
118.6606622228
 30
0.0
 10
85.1167974513
 20
118.2841487774
 30
0.0
 10
85.1167974513
 20
118.0962457994
 30
0.0
  0
SPLINE
  5
2E8
330
1B
100
AcDbEntity
 67
     1
  8
3_ALL_AXES
  6
Continuous
 62
     7
100
AcDbSpline
 70
     0
 71
     3
 72
    15
 73
    11
 74
     0
 42
0.000000001
 43
0.0000001
 40
0.0
 40
0.0
 40
0.0
 40
0.0
 40
0.1270528273
 40
0.25379804
 40
0.3799892808
 40
0.5054396844
 40
0.6300722194
 40
0.753926049
 40
0.8771535975
 40
1.0
 40
1.0
 40
1.0
 40
1.0
 10
80.6167974513
 20
113.542524345
 30
0.0
 10
80.3316892662
 20
113.542524345
 30
0.0
 10
79.7607709648
 20
113.5950645824
 30
0.0
 10
78.9359153254
 20
113.8288214571
 30
0.0
 10
78.1711733699
 20
114.2091443092
 30
0.0
 10
77.4945250494
 20
114.7225592304
 30
0.0
 10
76.9304003607
 20
115.3506511025
 30
0.0
 10
76.4993892941
 20
116.0709753252
 30
0.0
 10
76.2173375875
 20
116.8571015609
 30
0.0
 10
76.1354325916
 20
117.4074618398
 30
0.0
 10
76.1218771354
 20
117.6827972705
 30
0.0
  0
ARC
  5
2E9
330
1B
100
AcDbEntity
 67
     1
  8
3_ALL_AXES
  6
Continuous
 62
     7
100
AcDbCircle
 10
80.3147257244
 20
117.8892494438
 30
0.0
 40
4.1979282735
100
AcDbArc
 50
180.0008036358
 51
182.8189170674
  0
LINE
  5
2EA
330
1B
100
AcDbEntity
 67
     1
  8
3_ALL_AXES
  6
Continuous
 62
     7
100
AcDbLine
 10
76.1167974513
 20
118.0962457994
 30
0.0
 11
76.1167974513
 21
117.8891905633
 31
0.0
  0
SPLINE
  5
2EB
330
1B
100
AcDbEntity
 67
     1
  8
3_ALL_AXES
  6
Continuous
 62
     7
100
AcDbSpline
 70
     0
 71
     3
 72
    11
 73
     7
 74
     0
 42
0.000000001
 43
0.0000001
 40
0.0
 40
0.0
 40
0.0
 40
0.0
 40
0.2492888105
 40
0.4988744431
 40
0.7490328692
 40
1.0
 40
1.0
 40
1.0
 40
1.0
 10
76.1167974513
 20
118.0962457994
 30
0.0
 10
76.1167974513
 20
118.2841487774
 30
0.0
 10
76.142122462
 20
118.6606622228
 30
0.0
 10
76.2554386132
 20
119.2154277283
 30
0.0
 10
76.4420949517
 20
119.7513286282
 30
0.0
 10
76.6131656003
 20
120.0895562092
 30
0.0
 10
76.7094619342
 20
120.2523799074
 30
0.0
  0
LINE
  5
2EC
330
1B
100
AcDbEntity
 67
     1
  8
3_ALL_AXES
  6
Continuous
 62
     7
100
AcDbLine
 10
85.1167974513
 20
118.0962457994
 30
0.0
 11
85.1167974513
 21
117.8891905633
 31
0.0
  0
ARC
  5
2ED
330
1B
100
AcDbEntity
 67
     1
  8
3_ALL_AXES
  6
Continuous
 62
     7
100
AcDbCircle
 10
80.9188691781
 20
117.8892494438
 30
0.0
 40
4.1979282735
100
AcDbArc
 50
357.1810829326
 51
359.9991963642
  0
SPLINE
  5
2EE
330
1B
100
AcDbEntity
 67
     1
  8
3_ALL_AXES
  6
Continuous
 62
     7
100
AcDbSpline
 70
     0
 71
     3
 72
    15
 73
    11
 74
     0
 42
0.000000001
 43
0.0000001
 40
0.0
 40
0.0
 40
0.0
 40
0.0
 40
0.1228464025
 40
0.246073951
 40
0.3699277806
 40
0.4945603156
 40
0.6200107192
 40
0.74620196
 40
0.8729471727
 40
1.0
 40
1.0
 40
1.0
 40
1.0
 10
85.1117177671
 20
117.6827972705
 30
0.0
 10
85.0981623109
 20
117.4074618398
 30
0.0
 10
85.016257315
 20
116.8571015609
 30
0.0
 10
84.7342056084
 20
116.0709753252
 30
0.0
 10
84.3031945418
 20
115.3506511025
 30
0.0
 10
83.7390698532
 20
114.7225592304
 30
0.0
 10
83.0624215326
 20
114.2091443092
 30
0.0
 10
82.2976795771
 20
113.8288214571
 30
0.0
 10
81.4728239377
 20
113.5950645824
 30
0.0
 10
80.9019056363
 20
113.542524345
 30
0.0
 10
80.6167974513
 20
113.542524345
 30
0.0
  0
SPLINE
  5
2EF
330
1B
100
AcDbEntity
 67
     1
  8
3_ALL_AXES
  6
Continuous
 62
     7
100
AcDbSpline
 70
     0
 71
     3
 72
    15
 73
    11
 74
     0
 42
0.000000001
 43
0.0000001
 40
0.0
 40
0.0
 40
0.0
 40
0.0
 40
0.1270528273
 40
0.25379804
 40
0.3799892808
 40
0.5054396844
 40
0.6300722194
 40
0.753926049
 40
0.8771535975
 40
1.0
 40
1.0
 40
1.0
 40
1.0
 10
80.6167974513
 20
113.7495795811
 30
0.0
 10
80.3316892662
 20
113.7495795811
 30
0.0
 10
79.7607709648
 20
113.8021198185
 30
0.0
 10
78.9359153254
 20
114.0358766932
 30
0.0
 10
78.1711733699
 20
114.4161995453
 30
0.0
 10
77.4945250494
 20
114.9296144664
 30
0.0
 10
76.9304003607
 20
115.5577063386
 30
0.0
 10
76.4993892941
 20
116.2780305613
 30
0.0
 10
76.2173375875
 20
117.064156797
 30
0.0
 10
76.1354325916
 20
117.6145170759
 30
0.0
 10
76.1218771354
 20
117.8898525066
 30
0.0
  0
ARC
  5
2F0
330
1B
100
AcDbEntity
 67
     1
  8
3_ALL_AXES
  6
Continuous
 62
     7
100
AcDbCircle
 10
80.3147257244
 20
118.0963046799
 30
0.0
 40
4.1979282735
100
AcDbArc
 50
180.0008036358
 51
182.8189170674
  0
ARC
  5
2F1
330
1B
100
AcDbEntity
 67
     1
  8
3_ALL_AXES
  6
Continuous
 62
     7
100
AcDbCircle
 10
80.9188691782
 20
118.0963046799
 30
0.0
 40
4.1979282735
100
AcDbArc
 50
357.1810829326
 51
359.9991963642
  0
SPLINE
  5
2F2
330
1B
100
AcDbEntity
 67
     1
  8
3_ALL_AXES
  6
Continuous
 62
     7
100
AcDbSpline
 70
     0
 71
     3
 72
    15
 73
    11
 74
     0
 42
0.000000001
 43
0.0000001
 40
0.0
 40
0.0
 40
0.0
 40
0.0
 40
0.1228464025
 40
0.246073951
 40
0.3699277806
 40
0.4945603156
 40
0.6200107192
 40
0.74620196
 40
0.8729471727
 40
1.0
 40
1.0
 40
1.0
 40
1.0
 10
85.1117177671
 20
117.8898525066
 30
0.0
 10
85.0981623109
 20
117.6145170759
 30
0.0
 10
85.016257315
 20
117.064156797
 30
0.0
 10
84.7342056084
 20
116.2780305613
 30
0.0
 10
84.3031945418
 20
115.5577063386
 30
0.0
 10
83.7390698532
 20
114.9296144664
 30
0.0
 10
83.0624215326
 20
114.4161995453
 30
0.0
 10
82.2976795771
 20
114.0358766932
 30
0.0
 10
81.4728239377
 20
113.8021198185
 30
0.0
 10
80.9019056363
 20
113.7495795811
 30
0.0
 10
80.6167974513
 20
113.7495795811
 30
0.0
  0
SPLINE
  5
2F3
330
1B
100
AcDbEntity
 67
     1
  8
7_ALL_FEATURES
  6
Continuous
 62
     7
100
AcDbSpline
 70
     0
 71
     3
 72
    17
 73
    13
 74
     0
 42
0.000000001
 43
0.0000001
 40
0.0
 40
0.0
 40
0.0
 40
0.0
 40
0.127082344
 40
0.1905890632
 40
0.2539820295
 40
0.3801524362
 40
0.505546455
 40
0.5680017112
 40
0.6302477232
 40
0.7540111843
 40
0.8771698399
 40
1.0
 40
1.0
 40
1.0
 40
1.0
 10
355.6167974513
 20
114.3550169814
 30
0.0
 10
355.3620271412
 20
114.3550169811
 30
0.0
 10
354.9786457079
 20
114.3914470723
 30
0.0
 10
354.4832194877
 20
114.5113459719
 30
0.0
 10
354.003016245
 20
114.677220322
 30
0.0
 10
353.438088812
 20
114.9683762487
 30
0.0
 10
352.9412264251
 20
115.3618627107
 30
0.0
 10
352.5976252939
 20
115.7279866907
 30
0.0
 10
352.2937503936
 20
116.1235393552
 30
0.0
 10
351.9910823186
 20
116.6696309059
 30
0.0
 10
351.7672566809
 20
117.3812553095
 30
0.0
 10
351.7168025672
 20
117.8758820261
 30
0.0
 10
351.7168025672
 20
118.1221277043
 30
0.0
  0
LINE
  5
2F4
330
1B
100
AcDbEntity
 67
     1
  8
02___PRT_ALL_AXES
  6
Continuous
 62
     7
100
AcDbLine
 10
359.5167974513
 20
120.2962076828
 30
0.0
 11
359.5167974513
 21
120.7491410117
 31
0.0
  0
SPLINE
  5
2F5
330
1B
100
AcDbEntity
 67
     1
  8
02___PRT_ALL_AXES
  6
Continuous
 62
     7
100
AcDbSpline
 70
     0
 71
     3
 72
    17
 73
    13
 74
     0
 42
0.000000001
 43
0.0000001
 40
0.0
 40
0.0
 40
0.0
 40
0.0
 40
0.1228301581
 40
0.2459888116
 40
0.3697522706
 40
0.4319982817
 40
0.494453537
 40
0.6198475542
 40
0.7460179588
 40
0.809410924
 40
0.8729176448
 40
1.0
 40
1.0
 40
1.0
 40
1.0
 10
359.5167923355
 20
120.7491410117
 30
0.0
 10
359.5167923355
 20
120.9953866859
 30
0.0
 10
359.4663382238
 20
121.4900133944
 30
0.0
 10
359.2425125922
 20
122.2016377866
 30
0.0
 10
358.939844528
 20
122.7477293312
 30
0.0
 10
358.6359696354
 20
123.1432819917
 30
0.0
 10
358.2923685153
 20
123.5094059727
 30
0.0
 10
357.7955061394
 20
123.9028924341
 30
0.0
 10
357.2305787195
 20
124.1940483638
 30
0.0
 10
356.750375484
 20
124.3599227243
 30
0.0
 10
356.2549492431
 20
124.4798216392
 30
0.0
 10
355.8715677838
 20
124.5162517342
 30
0.0
 10
355.6167974513
 20
124.5162517342
 30
0.0
  0
LINE
  5
2F6
330
1B
100
AcDbEntity
 67
     1
  8
02___PRT_ALL_AXES
  6
Continuous
 62
     7
100
AcDbLine
 10
359.5167974513
 20
118.1221277039
 30
0.0
 11
359.5167974513
 21
119.7785695926
 31
0.0
  0
SPLINE
  5
2F7
330
1B
100
AcDbEntity
 67
     1
  8
7_ALL_FEATURES
  6
Continuous
 62
     7
100
AcDbSpline
 70
     0
 71
     3
 72
    17
 73
    13
 74
     0
 42
0.000000001
 43
0.0000001
 40
0.0
 40
0.0
 40
0.0
 40
0.0
 40
0.1228301602
 40
0.2459888157
 40
0.3697522768
 40
0.4319982889
 40
0.4944535451
 40
0.6198475639
 40
0.7460179706
 40
0.8094109369
 40
0.8729176561
 40
1.0
 40
1.0
 40
1.0
 40
1.0
 10
359.5167923353
 20
118.1221277035
 30
0.0
 10
359.5167923353
 20
117.8758820253
 30
0.0
 10
359.4663382215
 20
117.3812553087
 30
0.0
 10
359.2425125837
 20
116.669630905
 30
0.0
 10
358.9398445084
 20
116.1235393544
 30
0.0
 10
358.635969608
 20
115.7279866899
 30
0.0
 10
358.2923684766
 20
115.36186271
 30
0.0
 10
357.7955060896
 20
114.968376248
 30
0.0
 10
357.2305786565
 20
114.6772203215
 30
0.0
 10
356.7503754138
 20
114.5113459716
 30
0.0
 10
356.2549491939
 20
114.3914470722
 30
0.0
 10
355.871567761
 20
114.3550169812
 30
0.0
 10
355.6167974513
 20
114.3550169814
 30
0.0
  0
ARC
  5
2F8
330
1B
100
AcDbEntity
 67
     1
  8
02___PRT_ALL_AXES
  6
Continuous
 62
     7
100
AcDbCircle
 10
355.8757491972
 20
119.7785689589
 30
0.0
 40
3.6410431383
100
AcDbArc
 50
0.0000099719
 51
4.0770936229
  0
LINE
  5
2F9
330
1B
100
AcDbEntity
 67
     1
  8
02___PRT_ALL_AXES
  6
Continuous
 62
     7
100
AcDbLine
 10
351.7167974513
 20
120.2962076828
 30
0.0
 11
351.7167974513
 21
120.7491410117
 31
0.0
  0
SPLINE
  5
2FA
330
1B
100
AcDbEntity
 67
     1
  8
02___PRT_ALL_AXES
  6
Continuous
 62
     7
100
AcDbSpline
 70
     0
 71
     3
 72
    17
 73
    13
 74
     0
 42
0.000000001
 43
0.0000001
 40
0.0
 40
0.0
 40
0.0
 40
0.0
 40
0.1228301581
 40
0.2459888116
 40
0.3697522706
 40
0.4319982817
 40
0.494453537
 40
0.6198475542
 40
0.7460179588
 40
0.809410924
 40
0.8729176448
 40
1.0
 40
1.0
 40
1.0
 40
1.0
 10
351.716802567
 20
120.7491410117
 30
0.0
 10
351.716802567
 20
120.9953866859
 30
0.0
 10
351.7672566788
 20
121.4900133944
 30
0.0
 10
351.9910823104
 20
122.2016377866
 30
0.0
 10
352.2937503746
 20
122.7477293312
 30
0.0
 10
352.5976252672
 20
123.1432819917
 30
0.0
 10
352.9412263873
 20
123.5094059727
 30
0.0
 10
353.4380887632
 20
123.9028924341
 30
0.0
 10
354.003016183
 20
124.1940483638
 30
0.0
 10
354.4832194185
 20
124.3599227243
 30
0.0
 10
354.9786456594
 20
124.4798216392
 30
0.0
 10
355.3620271187
 20
124.5162517342
 30
0.0
 10
355.6167974513
 20
124.5162517342
 30
0.0
  0
LINE
  5
2FB
330
1B
100
AcDbEntity
 67
     1
  8
02___PRT_ALL_AXES
  6
Continuous
 62
     7
100
AcDbLine
 10
351.7167974513
 20
118.1221277039
 30
0.0
 11
351.7167974513
 21
119.7785695926
 31
0.0
  0
ARC
  5
2FC
330
1B
100
AcDbEntity
 67
     1
  8
02___PRT_ALL_AXES
  6
Continuous
 62
     7
100
AcDbCircle
 10
355.3578457054
 20
119.7785689589
 30
0.0
 40
3.6410431383
100
AcDbArc
 50
175.9229063771
 51
179.9999900281
  0
SPLINE
  5
2FD
330
1B
100
AcDbEntity
 67
     1
  8
7_ALL_FEATURES
  6
Continuous
 62
     7
100
AcDbSpline
 70
     0
 71
     3
 72
    15
 73
    11
 74
     0
 42
0.000000001
 43
0.0000001
 40
0.0
 40
0.0
 40
0.0
 40
0.0
 40
0.1228664509
 40
0.2460615485
 40
0.3698615763
 40
0.4944477352
 40
0.6198785529
 40
0.7460871221
 40
0.8728812454
 40
1.0
 40
1.0
 40
1.0
 40
1.0
 10
357.2667923934
 20
121.0726648181
 30
0.0
 10
357.2667923934
 20
120.9684841707
 30
0.0
 10
357.2454520579
 20
120.7592276223
 30
0.0
 10
357.150724362
 20
120.4581199721
 30
0.0
 10
356.9969900307
 20
120.1806570981
 30
0.0
 10
356.7902535641
 20
119.9376747977
 30
0.0
 10
356.538554872
 20
119.7384064626
 30
0.0
 10
356.2515615393
 20
119.5904475995
 30
0.0
 10
355.9404406994
 20
119.4993711438
 30
0.0
 10
355.7245837025
 20
119.4788872047
 30
0.0
 10
355.6167974513
 20
119.4788872047
 30
0.0
  0
SPLINE
  5
2FE
330
1B
100
AcDbEntity
 67
     1
  8
7_ALL_FEATURES
  6
Continuous
 62
     7
100
AcDbSpline
 70
     0
 71
     3
 72
    15
 73
    11
 74
     0
 42
0.000000001
 43
0.0000001
 40
0.0
 40
0.0
 40
0.0
 40
0.0
 40
0.1271187546
 40
0.2539128779
 40
0.3801214471
 40
0.5055522648
 40
0.6301384237
 40
0.7539384515
 40
0.8771335491
 40
1.0
 40
1.0
 40
1.0
 40
1.0
 10
355.6167974513
 20
119.4788872047
 30
0.0
 10
355.5090112
 20
119.4788872047
 30
0.0
 10
355.2931542031
 20
119.4993711438
 30
0.0
 10
354.9820333632
 20
119.5904475995
 30
0.0
 10
354.6950400305
 20
119.7384064626
 30
0.0
 10
354.4433413385
 20
119.9376747977
 30
0.0
 10
354.2366048718
 20
120.1806570981
 30
0.0
 10
354.0828705406
 20
120.4581199721
 30
0.0
 10
353.9881428446
 20
120.7592276223
 30
0.0
 10
353.9668025092
 20
120.9684841707
 30
0.0
 10
353.9668025092
 20
121.0726648181
 30
0.0
  0
SPLINE
  5
2FF
330
1B
100
AcDbEntity
 67
     1
  8
02___PRT_ALL_AXES
  6
Continuous
 62
     7
100
AcDbSpline
 70
     0
 71
     3
 72
    17
 73
    13
 74
     0
 42
0.000000001
 43
0.0000001
 40
0.0
 40
0.0
 40
0.0
 40
0.0
 40
0.1270823552
 40
0.190589076
 40
0.2539820412
 40
0.3801524458
 40
0.505546463
 40
0.5680017183
 40
0.6302477294
 40
0.7540111884
 40
0.8771698419
 40
1.0
 40
1.0
 40
1.0
 40
1.0
 10
355.6167974513
 20
116.5290969602
 30
0.0
 10
355.8715677838
 20
116.5290969602
 30
0.0
 10
356.2549492431
 20
116.5655270552
 30
0.0
 10
356.750375484
 20
116.6854259701
 30
0.0
 10
357.2305787195
 20
116.8513003307
 30
0.0
 10
357.7955061394
 20
117.1424562604
 30
0.0
 10
358.2923685153
 20
117.5359427218
 30
0.0
 10
358.6359696354
 20
117.9020667028
 30
0.0
 10
358.939844528
 20
118.2976193632
 30
0.0
 10
359.2425125922
 20
118.8437109079
 30
0.0
 10
359.4663382238
 20
119.5553353001
 30
0.0
 10
359.5167923355
 20
120.0499620086
 30
0.0
 10
359.5167923355
 20
120.2962076828
 30
0.0
  0
SPLINE
  5
300
330
1B
100
AcDbEntity
 67
     1
  8
02___PRT_ALL_AXES
  6
Continuous
 62
     7
100
AcDbSpline
 70
     0
 71
     3
 72
    17
 73
    13
 74
     0
 42
0.000000001
 43
0.0000001
 40
0.0
 40
0.0
 40
0.0
 40
0.0
 40
0.1270823552
 40
0.190589076
 40
0.2539820412
 40
0.3801524458
 40
0.505546463
 40
0.5680017183
 40
0.6302477294
 40
0.7540111884
 40
0.8771698419
 40
1.0
 40
1.0
 40
1.0
 40
1.0
 10
355.6167974513
 20
116.5290969602
 30
0.0
 10
355.3620271187
 20
116.5290969602
 30
0.0
 10
354.9786456594
 20
116.5655270552
 30
0.0
 10
354.4832194185
 20
116.6854259701
 30
0.0
 10
354.003016183
 20
116.8513003307
 30
0.0
 10
353.4380887632
 20
117.1424562604
 30
0.0
 10
352.9412263873
 20
117.5359427218
 30
0.0
 10
352.5976252672
 20
117.9020667028
 30
0.0
 10
352.2937503746
 20
118.2976193632
 30
0.0
 10
351.9910823104
 20
118.8437109079
 30
0.0
 10
351.7672566788
 20
119.5553353001
 30
0.0
 10
351.716802567
 20
120.0499620086
 30
0.0
 10
351.716802567
 20
120.2962076828
 30
0.0
  0
SPLINE
  5
301
330
1B
100
AcDbEntity
 67
     1
  8
7_ALL_FEATURES
  6
Continuous
 62
     7
100
AcDbSpline
 70
     0
 71
     3
 72
    15
 73
    11
 74
     0
 42
0.000000001
 43
0.0000001
 40
0.0
 40
0.0
 40
0.0
 40
0.0
 40
0.1228664509
 40
0.2460615485
 40
0.3698615763
 40
0.4944477352
 40
0.6198785529
 40
0.7460871221
 40
0.8728812454
 40
1.0
 40
1.0
 40
1.0
 40
1.0
 10
353.9668025092
 20
121.0726648181
 30
0.0
 10
353.9668025092
 20
121.1768454654
 30
0.0
 10
353.9881428446
 20
121.3861020138
 30
0.0
 10
354.0828705406
 20
121.6872096641
 30
0.0
 10
354.2366048718
 20
121.9646725381
 30
0.0
 10
354.4433413385
 20
122.2076548385
 30
0.0
 10
354.6950400305
 20
122.4069231735
 30
0.0
 10
354.9820333632
 20
122.5548820367
 30
0.0
 10
355.2931542031
 20
122.6459584924
 30
0.0
 10
355.5090112
 20
122.6664424315
 30
0.0
 10
355.6167974513
 20
122.6664424315
 30
0.0
  0
SPLINE
  5
302
330
1B
100
AcDbEntity
 67
     1
  8
7_ALL_FEATURES
  6
Continuous
 62
     7
100
AcDbSpline
 70
     0
 71
     3
 72
    15
 73
    11
 74
     0
 42
0.000000001
 43
0.0000001
 40
0.0
 40
0.0
 40
0.0
 40
0.0
 40
0.1271187546
 40
0.2539128779
 40
0.3801214471
 40
0.5055522648
 40
0.6301384237
 40
0.7539384515
 40
0.8771335491
 40
1.0
 40
1.0
 40
1.0
 40
1.0
 10
355.6167974513
 20
122.6664424315
 30
0.0
 10
355.7245837025
 20
122.6664424315
 30
0.0
 10
355.9404406994
 20
122.6459584924
 30
0.0
 10
356.2515615393
 20
122.5548820367
 30
0.0
 10
356.538554872
 20
122.4069231735
 30
0.0
 10
356.7902535641
 20
122.2076548385
 30
0.0
 10
356.9969900307
 20
121.9646725381
 30
0.0
 10
357.150724362
 20
121.6872096641
 30
0.0
 10
357.2454520579
 20
121.3861020138
 30
0.0
 10
357.2667923934
 20
121.1768454654
 30
0.0
 10
357.2667923934
 20
121.0726648181
 30
0.0
  0
SPLINE
  5
303
330
1B
100
AcDbEntity
 67
     1
  8
02___PRT_ALL_AXES
  6
Continuous
 62
     7
100
AcDbSpline
 70
     0
 71
     3
 72
    27
 73
    23
 74
     0
 42
0.000000001
 43
0.0000001
 40
0.0
 40
0.0
 40
0.0
 40
0.0
 40
0.0635413274
 40
0.0952950072
 40
0.1269908659
 40
0.1900762935
 40
0.2527732725
 40
0.2840008754
 40
0.3151238502
 40
0.3770055669
 40
0.4385849169
 40
0.5
 40
0.5614150831
 40
0.6229944331
 40
0.6848761498
 40
0.7159991246
 40
0.7472267275
 40
0.8099237065
 40
0.8730091341
 40
0.9047049928
 40
0.9364586726
 40
1.0
 40
1.0
 40
1.0
 40
1.0
 10
355.6167974513
 20
118.0026510153
 30
0.0
 10
355.8244234406
 20
118.0026510153
 30
0.0
 10
356.1368622946
 20
118.0323397036
 30
0.0
 10
356.5406103837
 20
118.1300510856
 30
0.0
 10
356.93195128
 20
118.2652348896
 30
0.0
 10
357.3923363451
 20
118.5025130399
 30
0.0
 10
357.7972654533
 20
118.8231766079
 30
0.0
 10
358.077271392
 20
119.1215592051
 30
0.0
 10
358.3249263688
 20
119.4439126481
 30
0.0
 10
358.5715731452
 20
119.8889092539
 30
0.0
 10
358.7539860577
 20
120.4690511691
 30
0.0
 10
358.8156439317
 20
121.0726648181
 30
0.0
 10
358.7539860577
 20
121.6762784671
 30
0.0
 10
358.5715731452
 20
122.2564203823
 30
0.0
 10
358.3249263688
 20
122.701416988
 30
0.0
 10
358.077271392
 20
123.0237704311
 30
0.0
 10
357.7972654533
 20
123.3221530282
 30
0.0
 10
357.3923363451
 20
123.6428165962
 30
0.0
 10
356.93195128
 20
123.8800947466
 30
0.0
 10
356.5406103837
 20
124.0152785505
 30
0.0
 10
356.1368622946
 20
124.1129899325
 30
0.0
 10
355.8244234406
 20
124.1426786208
 30
0.0
 10
355.6167974513
 20
124.1426786208
 30
0.0
  0
SPLINE
  5
304
330
1B
100
AcDbEntity
 67
     1
  8
02___PRT_ALL_AXES
  6
Continuous
 62
     7
100
AcDbSpline
 70
     0
 71
     3
 72
    17
 73
    13
 74
     0
 42
0.000000001
 43
0.0000001
 40
0.0
 40
0.0
 40
0.0
 40
0.0
 40
0.1270823552
 40
0.190589076
 40
0.2539820412
 40
0.3801524458
 40
0.505546463
 40
0.5680017183
 40
0.6302477294
 40
0.7540111884
 40
0.8771698419
 40
1.0
 40
1.0
 40
1.0
 40
1.0
 10
355.6167974513
 20
116.9820302892
 30
0.0
 10
355.8715677838
 20
116.9820302892
 30
0.0
 10
356.2549492431
 20
117.0184603842
 30
0.0
 10
356.750375484
 20
117.138359299
 30
0.0
 10
357.2305787195
 20
117.3042336596
 30
0.0
 10
357.7955061394
 20
117.5953895893
 30
0.0
 10
358.2923685153
 20
117.9888760507
 30
0.0
 10
358.6359696354
 20
118.3550000317
 30
0.0
 10
358.939844528
 20
118.7505526922
 30
0.0
 10
359.2425125922
 20
119.2966442368
 30
0.0
 10
359.4663382238
 20
120.008268629
 30
0.0
 10
359.5167923355
 20
120.5028953375
 30
0.0
 10
359.5167923355
 20
120.7491410117
 30
0.0
  0
SPLINE
  5
305
330
1B
100
AcDbEntity
 67
     1
  8
02___PRT_ALL_AXES
  6
Continuous
 62
     7
100
AcDbSpline
 70
     0
 71
     3
 72
    17
 73
    13
 74
     0
 42
0.000000001
 43
0.0000001
 40
0.0
 40
0.0
 40
0.0
 40
0.0
 40
0.1270823552
 40
0.190589076
 40
0.2539820412
 40
0.3801524458
 40
0.505546463
 40
0.5680017183
 40
0.6302477294
 40
0.7540111884
 40
0.8771698419
 40
1.0
 40
1.0
 40
1.0
 40
1.0
 10
355.6167974513
 20
116.01145887
 30
0.0
 10
355.8715677838
 20
116.01145887
 30
0.0
 10
356.2549492431
 20
116.047888965
 30
0.0
 10
356.750375484
 20
116.1677878799
 30
0.0
 10
357.2305787195
 20
116.3336622405
 30
0.0
 10
357.7955061394
 20
116.6248181702
 30
0.0
 10
358.2923685153
 20
117.0183046316
 30
0.0
 10
358.6359696354
 20
117.3844286126
 30
0.0
 10
358.939844528
 20
117.779981273
 30
0.0
 10
359.2425125922
 20
118.3260728177
 30
0.0
 10
359.4663382238
 20
119.0376972099
 30
0.0
 10
359.5167923355
 20
119.5323239184
 30
0.0
 10
359.5167923355
 20
119.7785695926
 30
0.0
  0
SPLINE
  5
306
330
1B
100
AcDbEntity
 67
     1
  8
02___PRT_ALL_AXES
  6
Continuous
 62
     7
100
AcDbSpline
 70
     0
 71
     3
 72
    27
 73
    23
 74
     0
 42
0.000000001
 43
0.0000001
 40
0.0
 40
0.0
 40
0.0
 40
0.0
 40
0.0635413274
 40
0.0952950072
 40
0.1269908659
 40
0.1900762935
 40
0.2527732725
 40
0.2840008754
 40
0.3151238502
 40
0.3770055669
 40
0.4385849169
 40
0.5
 40
0.5614150831
 40
0.6229944331
 40
0.6848761498
 40
0.7159991246
 40
0.7472267275
 40
0.8099237065
 40
0.8730091341
 40
0.9047049928
 40
0.9364586726
 40
1.0
 40
1.0
 40
1.0
 40
1.0
 10
355.6167974513
 20
118.0026510153
 30
0.0
 10
355.409171462
 20
118.0026510153
 30
0.0
 10
355.0967326079
 20
118.0323397036
 30
0.0
 10
354.6929845189
 20
118.1300510856
 30
0.0
 10
354.3016436226
 20
118.2652348896
 30
0.0
 10
353.8412585574
 20
118.5025130399
 30
0.0
 10
353.4363294492
 20
118.8231766079
 30
0.0
 10
353.1563235106
 20
119.1215592051
 30
0.0
 10
352.9086685338
 20
119.4439126481
 30
0.0
 10
352.6620217574
 20
119.8889092539
 30
0.0
 10
352.4796088448
 20
120.4690511691
 30
0.0
 10
352.4179509708
 20
121.0726648181
 30
0.0
 10
352.4796088448
 20
121.6762784671
 30
0.0
 10
352.6620217574
 20
122.2564203823
 30
0.0
 10
352.9086685338
 20
122.701416988
 30
0.0
 10
353.1563235106
 20
123.0237704311
 30
0.0
 10
353.4363294492
 20
123.3221530282
 30
0.0
 10
353.8412585574
 20
123.6428165962
 30
0.0
 10
354.3016436226
 20
123.8800947466
 30
0.0
 10
354.6929845189
 20
124.0152785505
 30
0.0
 10
355.0967326079
 20
124.1129899325
 30
0.0
 10
355.409171462
 20
124.1426786208
 30
0.0
 10
355.6167974513
 20
124.1426786208
 30
0.0
  0
SPLINE
  5
307
330
1B
100
AcDbEntity
 67
     1
  8
02___PRT_ALL_AXES
  6
Continuous
 62
     7
100
AcDbSpline
 70
     0
 71
     3
 72
    17
 73
    13
 74
     0
 42
0.000000001
 43
0.0000001
 40
0.0
 40
0.0
 40
0.0
 40
0.0
 40
0.1270823552
 40
0.190589076
 40
0.2539820412
 40
0.3801524458
 40
0.505546463
 40
0.5680017183
 40
0.6302477294
 40
0.7540111884
 40
0.8771698419
 40
1.0
 40
1.0
 40
1.0
 40
1.0
 10
355.6167974513
 20
116.9820302892
 30
0.0
 10
355.3620271187
 20
116.9820302892
 30
0.0
 10
354.9786456594
 20
117.0184603842
 30
0.0
 10
354.4832194185
 20
117.138359299
 30
0.0
 10
354.003016183
 20
117.3042336596
 30
0.0
 10
353.4380887632
 20
117.5953895893
 30
0.0
 10
352.9412263873
 20
117.9888760507
 30
0.0
 10
352.5976252672
 20
118.3550000317
 30
0.0
 10
352.2937503746
 20
118.7505526922
 30
0.0
 10
351.9910823104
 20
119.2966442368
 30
0.0
 10
351.7672566788
 20
120.008268629
 30
0.0
 10
351.716802567
 20
120.5028953375
 30
0.0
 10
351.716802567
 20
120.7491410117
 30
0.0
  0
SPLINE
  5
308
330
1B
100
AcDbEntity
 67
     1
  8
02___PRT_ALL_AXES
  6
Continuous
 62
     7
100
AcDbSpline
 70
     0
 71
     3
 72
    17
 73
    13
 74
     0
 42
0.000000001
 43
0.0000001
 40
0.0
 40
0.0
 40
0.0
 40
0.0
 40
0.1270823552
 40
0.190589076
 40
0.2539820412
 40
0.3801524458
 40
0.505546463
 40
0.5680017183
 40
0.6302477294
 40
0.7540111884
 40
0.8771698419
 40
1.0
 40
1.0
 40
1.0
 40
1.0
 10
355.6167974513
 20
116.01145887
 30
0.0
 10
355.3620271187
 20
116.01145887
 30
0.0
 10
354.9786456594
 20
116.047888965
 30
0.0
 10
354.4832194185
 20
116.1677878799
 30
0.0
 10
354.003016183
 20
116.3336622405
 30
0.0
 10
353.4380887632
 20
116.6248181702
 30
0.0
 10
352.9412263873
 20
117.0183046316
 30
0.0
 10
352.5976252672
 20
117.3844286126
 30
0.0
 10
352.2937503746
 20
117.779981273
 30
0.0
 10
351.9910823104
 20
118.3260728177
 30
0.0
 10
351.7672566788
 20
119.0376972099
 30
0.0
 10
351.716802567
 20
119.5323239184
 30
0.0
 10
351.716802567
 20
119.7785695926
 30
0.0
  0
SPLINE
  5
309
330
1B
100
AcDbEntity
 67
     1
  8
7_ALL_FEATURES
  6
Continuous
 62
     7
100
AcDbSpline
 70
     0
 71
     3
 72
    17
 73
    13
 74
     0
 42
0.000000001
 43
0.0000001
 40
0.0
 40
0.0
 40
0.0
 40
0.0
 40
0.127082344
 40
0.1905890632
 40
0.2539820295
 40
0.3801524362
 40
0.505546455
 40
0.5680017112
 40
0.6302477232
 40
0.7540111843
 40
0.8771698399
 40
1.0
 40
1.0
 40
1.0
 40
1.0
 10
80.6167974513
 20
114.3550169814
 30
0.0
 10
80.3620271412
 20
114.3550169811
 30
0.0
 10
79.9786457079
 20
114.3914470723
 30
0.0
 10
79.4832194877
 20
114.5113459719
 30
0.0
 10
79.003016245
 20
114.677220322
 30
0.0
 10
78.438088812
 20
114.9683762487
 30
0.0
 10
77.9412264251
 20
115.3618627107
 30
0.0
 10
77.5976252939
 20
115.7279866907
 30
0.0
 10
77.2937503936
 20
116.1235393552
 30
0.0
 10
76.9910823186
 20
116.6696309059
 30
0.0
 10
76.7672566809
 20
117.3812553095
 30
0.0
 10
76.7168025672
 20
117.8758820261
 30
0.0
 10
76.7168025672
 20
118.1221277043
 30
0.0
  0
LINE
  5
30A
330
1B
100
AcDbEntity
 67
     1
  8
02___PRT_ALL_AXES
  6
Continuous
 62
     7
100
AcDbLine
 10
84.5167974513
 20
120.2962076828
 30
0.0
 11
84.5167974513
 21
120.7491410117
 31
0.0
  0
SPLINE
  5
30B
330
1B
100
AcDbEntity
 67
     1
  8
02___PRT_ALL_AXES
  6
Continuous
 62
     7
100
AcDbSpline
 70
     0
 71
     3
 72
    17
 73
    13
 74
     0
 42
0.000000001
 43
0.0000001
 40
0.0
 40
0.0
 40
0.0
 40
0.0
 40
0.1228301581
 40
0.2459888116
 40
0.3697522706
 40
0.4319982817
 40
0.494453537
 40
0.6198475542
 40
0.7460179588
 40
0.809410924
 40
0.8729176448
 40
1.0
 40
1.0
 40
1.0
 40
1.0
 10
84.5167923355
 20
120.7491410117
 30
0.0
 10
84.5167923355
 20
120.9953866859
 30
0.0
 10
84.4663382238
 20
121.4900133944
 30
0.0
 10
84.2425125922
 20
122.2016377866
 30
0.0
 10
83.939844528
 20
122.7477293312
 30
0.0
 10
83.6359696354
 20
123.1432819917
 30
0.0
 10
83.2923685153
 20
123.5094059727
 30
0.0
 10
82.7955061394
 20
123.9028924341
 30
0.0
 10
82.2305787195
 20
124.1940483638
 30
0.0
 10
81.750375484
 20
124.3599227243
 30
0.0
 10
81.2549492431
 20
124.4798216392
 30
0.0
 10
80.8715677838
 20
124.5162517342
 30
0.0
 10
80.6167974513
 20
124.5162517342
 30
0.0
  0
LINE
  5
30C
330
1B
100
AcDbEntity
 67
     1
  8
02___PRT_ALL_AXES
  6
Continuous
 62
     7
100
AcDbLine
 10
84.5167974513
 20
118.1221277039
 30
0.0
 11
84.5167974513
 21
119.7785695926
 31
0.0
  0
SPLINE
  5
30D
330
1B
100
AcDbEntity
 67
     1
  8
7_ALL_FEATURES
  6
Continuous
 62
     7
100
AcDbSpline
 70
     0
 71
     3
 72
    17
 73
    13
 74
     0
 42
0.000000001
 43
0.0000001
 40
0.0
 40
0.0
 40
0.0
 40
0.0
 40
0.1228301602
 40
0.2459888157
 40
0.3697522768
 40
0.4319982889
 40
0.4944535451
 40
0.6198475639
 40
0.7460179706
 40
0.8094109369
 40
0.8729176561
 40
1.0
 40
1.0
 40
1.0
 40
1.0
 10
84.5167923353
 20
118.1221277035
 30
0.0
 10
84.5167923353
 20
117.8758820253
 30
0.0
 10
84.4663382215
 20
117.3812553087
 30
0.0
 10
84.2425125837
 20
116.669630905
 30
0.0
 10
83.9398445084
 20
116.1235393544
 30
0.0
 10
83.635969608
 20
115.7279866899
 30
0.0
 10
83.2923684766
 20
115.36186271
 30
0.0
 10
82.7955060896
 20
114.968376248
 30
0.0
 10
82.2305786565
 20
114.6772203215
 30
0.0
 10
81.7503754138
 20
114.5113459716
 30
0.0
 10
81.2549491939
 20
114.3914470722
 30
0.0
 10
80.871567761
 20
114.3550169812
 30
0.0
 10
80.6167974513
 20
114.3550169814
 30
0.0
  0
ARC
  5
30E
330
1B
100
AcDbEntity
 67
     1
  8
02___PRT_ALL_AXES
  6
Continuous
 62
     7
100
AcDbCircle
 10
80.8757491973
 20
119.7785689589
 30
0.0
 40
3.6410431382
100
AcDbArc
 50
0.0000099719
 51
4.077093622999999
  0
LINE
  5
30F
330
1B
100
AcDbEntity
 67
     1
  8
02___PRT_ALL_AXES
  6
Continuous
 62
     7
100
AcDbLine
 10
76.7167974513
 20
120.2962076828
 30
0.0
 11
76.7167974513
 21
120.7491410117
 31
0.0
  0
SPLINE
  5
310
330
1B
100
AcDbEntity
 67
     1
  8
02___PRT_ALL_AXES
  6
Continuous
 62
     7
100
AcDbSpline
 70
     0
 71
     3
 72
    17
 73
    13
 74
     0
 42
0.000000001
 43
0.0000001
 40
0.0
 40
0.0
 40
0.0
 40
0.0
 40
0.1228301581
 40
0.2459888116
 40
0.3697522706
 40
0.4319982817
 40
0.494453537
 40
0.6198475542
 40
0.7460179588
 40
0.809410924
 40
0.8729176448
 40
1.0
 40
1.0
 40
1.0
 40
1.0
 10
76.716802567
 20
120.7491410117
 30
0.0
 10
76.716802567
 20
120.9953866859
 30
0.0
 10
76.7672566788
 20
121.4900133944
 30
0.0
 10
76.9910823104
 20
122.2016377866
 30
0.0
 10
77.2937503746
 20
122.7477293312
 30
0.0
 10
77.5976252672
 20
123.1432819917
 30
0.0
 10
77.9412263873
 20
123.5094059727
 30
0.0
 10
78.4380887632
 20
123.9028924341
 30
0.0
 10
79.003016183
 20
124.1940483638
 30
0.0
 10
79.4832194185
 20
124.3599227243
 30
0.0
 10
79.9786456594
 20
124.4798216392
 30
0.0
 10
80.3620271187
 20
124.5162517342
 30
0.0
 10
80.6167974513
 20
124.5162517342
 30
0.0
  0
LINE
  5
311
330
1B
100
AcDbEntity
 67
     1
  8
02___PRT_ALL_AXES
  6
Continuous
 62
     7
100
AcDbLine
 10
76.7167974513
 20
118.1221277039
 30
0.0
 11
76.7167974513
 21
119.7785695926
 31
0.0
  0
ARC
  5
312
330
1B
100
AcDbEntity
 67
     1
  8
02___PRT_ALL_AXES
  6
Continuous
 62
     7
100
AcDbCircle
 10
80.3578457053
 20
119.7785689589
 30
0.0
 40
3.6410431382
100
AcDbArc
 50
175.922906377
 51
179.9999900281
  0
SPLINE
  5
313
330
1B
100
AcDbEntity
 67
     1
  8
7_ALL_FEATURES
  6
Continuous
 62
     7
100
AcDbSpline
 70
     0
 71
     3
 72
    15
 73
    11
 74
     0
 42
0.000000001
 43
0.0000001
 40
0.0
 40
0.0
 40
0.0
 40
0.0
 40
0.1228664509
 40
0.2460615485
 40
0.3698615763
 40
0.4944477352
 40
0.6198785529
 40
0.7460871221
 40
0.8728812454
 40
1.0
 40
1.0
 40
1.0
 40
1.0
 10
82.2667923934
 20
121.0726648181
 30
0.0
 10
82.2667923934
 20
120.9684841707
 30
0.0
 10
82.2454520579
 20
120.7592276223
 30
0.0
 10
82.150724362
 20
120.4581199721
 30
0.0
 10
81.9969900307
 20
120.1806570981
 30
0.0
 10
81.7902535641
 20
119.9376747977
 30
0.0
 10
81.538554872
 20
119.7384064626
 30
0.0
 10
81.2515615393
 20
119.5904475995
 30
0.0
 10
80.9404406994
 20
119.4993711438
 30
0.0
 10
80.7245837025
 20
119.4788872047
 30
0.0
 10
80.6167974513
 20
119.4788872047
 30
0.0
  0
SPLINE
  5
314
330
1B
100
AcDbEntity
 67
     1
  8
7_ALL_FEATURES
  6
Continuous
 62
     7
100
AcDbSpline
 70
     0
 71
     3
 72
    15
 73
    11
 74
     0
 42
0.000000001
 43
0.0000001
 40
0.0
 40
0.0
 40
0.0
 40
0.0
 40
0.1271187546
 40
0.2539128779
 40
0.3801214471
 40
0.5055522648
 40
0.6301384237
 40
0.7539384515
 40
0.8771335491
 40
1.0
 40
1.0
 40
1.0
 40
1.0
 10
80.6167974513
 20
119.4788872047
 30
0.0
 10
80.5090112
 20
119.4788872047
 30
0.0
 10
80.2931542031
 20
119.4993711438
 30
0.0
 10
79.9820333632
 20
119.5904475995
 30
0.0
 10
79.6950400305
 20
119.7384064626
 30
0.0
 10
79.4433413384
 20
119.9376747977
 30
0.0
 10
79.2366048718
 20
120.1806570981
 30
0.0
 10
79.0828705406
 20
120.4581199721
 30
0.0
 10
78.9881428446
 20
120.7592276223
 30
0.0
 10
78.9668025092
 20
120.9684841707
 30
0.0
 10
78.9668025092
 20
121.0726648181
 30
0.0
  0
SPLINE
  5
315
330
1B
100
AcDbEntity
 67
     1
  8
02___PRT_ALL_AXES
  6
Continuous
 62
     7
100
AcDbSpline
 70
     0
 71
     3
 72
    17
 73
    13
 74
     0
 42
0.000000001
 43
0.0000001
 40
0.0
 40
0.0
 40
0.0
 40
0.0
 40
0.1270823552
 40
0.190589076
 40
0.2539820412
 40
0.3801524458
 40
0.505546463
 40
0.5680017183
 40
0.6302477294
 40
0.7540111884
 40
0.8771698419
 40
1.0
 40
1.0
 40
1.0
 40
1.0
 10
80.6167974513
 20
116.5290969602
 30
0.0
 10
80.8715677838
 20
116.5290969602
 30
0.0
 10
81.2549492431
 20
116.5655270552
 30
0.0
 10
81.750375484
 20
116.6854259701
 30
0.0
 10
82.2305787195
 20
116.8513003307
 30
0.0
 10
82.7955061394
 20
117.1424562604
 30
0.0
 10
83.2923685153
 20
117.5359427218
 30
0.0
 10
83.6359696354
 20
117.9020667028
 30
0.0
 10
83.939844528
 20
118.2976193632
 30
0.0
 10
84.2425125922
 20
118.8437109079
 30
0.0
 10
84.4663382238
 20
119.5553353001
 30
0.0
 10
84.5167923355
 20
120.0499620086
 30
0.0
 10
84.5167923355
 20
120.2962076828
 30
0.0
  0
SPLINE
  5
316
330
1B
100
AcDbEntity
 67
     1
  8
02___PRT_ALL_AXES
  6
Continuous
 62
     7
100
AcDbSpline
 70
     0
 71
     3
 72
    17
 73
    13
 74
     0
 42
0.000000001
 43
0.0000001
 40
0.0
 40
0.0
 40
0.0
 40
0.0
 40
0.1270823552
 40
0.190589076
 40
0.2539820412
 40
0.3801524458
 40
0.505546463
 40
0.5680017183
 40
0.6302477294
 40
0.7540111884
 40
0.8771698419
 40
1.0
 40
1.0
 40
1.0
 40
1.0
 10
80.6167974513
 20
116.5290969602
 30
0.0
 10
80.3620271187
 20
116.5290969602
 30
0.0
 10
79.9786456594
 20
116.5655270552
 30
0.0
 10
79.4832194185
 20
116.6854259701
 30
0.0
 10
79.003016183
 20
116.8513003307
 30
0.0
 10
78.4380887632
 20
117.1424562604
 30
0.0
 10
77.9412263873
 20
117.5359427218
 30
0.0
 10
77.5976252672
 20
117.9020667028
 30
0.0
 10
77.2937503746
 20
118.2976193632
 30
0.0
 10
76.9910823104
 20
118.8437109079
 30
0.0
 10
76.7672566788
 20
119.5553353001
 30
0.0
 10
76.716802567
 20
120.0499620086
 30
0.0
 10
76.716802567
 20
120.2962076828
 30
0.0
  0
SPLINE
  5
317
330
1B
100
AcDbEntity
 67
     1
  8
7_ALL_FEATURES
  6
Continuous
 62
     7
100
AcDbSpline
 70
     0
 71
     3
 72
    15
 73
    11
 74
     0
 42
0.000000001
 43
0.0000001
 40
0.0
 40
0.0
 40
0.0
 40
0.0
 40
0.1228664509
 40
0.2460615485
 40
0.3698615763
 40
0.4944477352
 40
0.6198785529
 40
0.7460871221
 40
0.8728812454
 40
1.0
 40
1.0
 40
1.0
 40
1.0
 10
78.9668025092
 20
121.0726648181
 30
0.0
 10
78.9668025092
 20
121.1768454654
 30
0.0
 10
78.9881428446
 20
121.3861020138
 30
0.0
 10
79.0828705406
 20
121.6872096641
 30
0.0
 10
79.2366048718
 20
121.9646725381
 30
0.0
 10
79.4433413384
 20
122.2076548385
 30
0.0
 10
79.6950400305
 20
122.4069231735
 30
0.0
 10
79.9820333632
 20
122.5548820367
 30
0.0
 10
80.2931542031
 20
122.6459584924
 30
0.0
 10
80.5090112
 20
122.6664424315
 30
0.0
 10
80.6167974513
 20
122.6664424315
 30
0.0
  0
SPLINE
  5
318
330
1B
100
AcDbEntity
 67
     1
  8
7_ALL_FEATURES
  6
Continuous
 62
     7
100
AcDbSpline
 70
     0
 71
     3
 72
    15
 73
    11
 74
     0
 42
0.000000001
 43
0.0000001
 40
0.0
 40
0.0
 40
0.0
 40
0.0
 40
0.1271187546
 40
0.2539128779
 40
0.3801214471
 40
0.5055522648
 40
0.6301384237
 40
0.7539384515
 40
0.8771335491
 40
1.0
 40
1.0
 40
1.0
 40
1.0
 10
80.6167974513
 20
122.6664424315
 30
0.0
 10
80.7245837025
 20
122.6664424315
 30
0.0
 10
80.9404406994
 20
122.6459584924
 30
0.0
 10
81.2515615393
 20
122.5548820367
 30
0.0
 10
81.538554872
 20
122.4069231735
 30
0.0
 10
81.7902535641
 20
122.2076548385
 30
0.0
 10
81.9969900307
 20
121.9646725381
 30
0.0
 10
82.150724362
 20
121.6872096641
 30
0.0
 10
82.2454520579
 20
121.3861020138
 30
0.0
 10
82.2667923934
 20
121.1768454654
 30
0.0
 10
82.2667923934
 20
121.0726648181
 30
0.0
  0
SPLINE
  5
319
330
1B
100
AcDbEntity
 67
     1
  8
02___PRT_ALL_AXES
  6
Continuous
 62
     7
100
AcDbSpline
 70
     0
 71
     3
 72
    27
 73
    23
 74
     0
 42
0.000000001
 43
0.0000001
 40
0.0
 40
0.0
 40
0.0
 40
0.0
 40
0.0635413274
 40
0.0952950072
 40
0.1269908659
 40
0.1900762935
 40
0.2527732725
 40
0.2840008754
 40
0.3151238502
 40
0.3770055669
 40
0.4385849169
 40
0.5
 40
0.5614150831
 40
0.6229944331
 40
0.6848761498
 40
0.7159991246
 40
0.7472267275
 40
0.8099237065
 40
0.8730091341
 40
0.9047049928
 40
0.9364586726
 40
1.0
 40
1.0
 40
1.0
 40
1.0
 10
80.6167974513
 20
118.0026510153
 30
0.0
 10
80.8244234406
 20
118.0026510153
 30
0.0
 10
81.1368622946
 20
118.0323397036
 30
0.0
 10
81.5406103837
 20
118.1300510856
 30
0.0
 10
81.93195128
 20
118.2652348896
 30
0.0
 10
82.3923363451
 20
118.5025130399
 30
0.0
 10
82.7972654533
 20
118.8231766079
 30
0.0
 10
83.077271392
 20
119.1215592051
 30
0.0
 10
83.3249263688
 20
119.4439126481
 30
0.0
 10
83.5715731452
 20
119.8889092539
 30
0.0
 10
83.7539860577
 20
120.4690511691
 30
0.0
 10
83.8156439317
 20
121.0726648181
 30
0.0
 10
83.7539860577
 20
121.6762784671
 30
0.0
 10
83.5715731452
 20
122.2564203823
 30
0.0
 10
83.3249263688
 20
122.701416988
 30
0.0
 10
83.077271392
 20
123.0237704311
 30
0.0
 10
82.7972654533
 20
123.3221530282
 30
0.0
 10
82.3923363451
 20
123.6428165962
 30
0.0
 10
81.93195128
 20
123.8800947466
 30
0.0
 10
81.5406103837
 20
124.0152785505
 30
0.0
 10
81.1368622946
 20
124.1129899325
 30
0.0
 10
80.8244234406
 20
124.1426786208
 30
0.0
 10
80.6167974513
 20
124.1426786208
 30
0.0
  0
SPLINE
  5
31A
330
1B
100
AcDbEntity
 67
     1
  8
02___PRT_ALL_AXES
  6
Continuous
 62
     7
100
AcDbSpline
 70
     0
 71
     3
 72
    17
 73
    13
 74
     0
 42
0.000000001
 43
0.0000001
 40
0.0
 40
0.0
 40
0.0
 40
0.0
 40
0.1270823552
 40
0.190589076
 40
0.2539820412
 40
0.3801524458
 40
0.505546463
 40
0.5680017183
 40
0.6302477294
 40
0.7540111884
 40
0.8771698419
 40
1.0
 40
1.0
 40
1.0
 40
1.0
 10
80.6167974513
 20
116.9820302892
 30
0.0
 10
80.8715677838
 20
116.9820302892
 30
0.0
 10
81.2549492431
 20
117.0184603842
 30
0.0
 10
81.750375484
 20
117.138359299
 30
0.0
 10
82.2305787195
 20
117.3042336596
 30
0.0
 10
82.7955061394
 20
117.5953895893
 30
0.0
 10
83.2923685153
 20
117.9888760507
 30
0.0
 10
83.6359696354
 20
118.3550000317
 30
0.0
 10
83.939844528
 20
118.7505526922
 30
0.0
 10
84.2425125922
 20
119.2966442368
 30
0.0
 10
84.4663382238
 20
120.008268629
 30
0.0
 10
84.5167923355
 20
120.5028953375
 30
0.0
 10
84.5167923355
 20
120.7491410117
 30
0.0
  0
SPLINE
  5
31B
330
1B
100
AcDbEntity
 67
     1
  8
02___PRT_ALL_AXES
  6
Continuous
 62
     7
100
AcDbSpline
 70
     0
 71
     3
 72
    17
 73
    13
 74
     0
 42
0.000000001
 43
0.0000001
 40
0.0
 40
0.0
 40
0.0
 40
0.0
 40
0.1270823552
 40
0.190589076
 40
0.2539820412
 40
0.3801524458
 40
0.505546463
 40
0.5680017183
 40
0.6302477294
 40
0.7540111884
 40
0.8771698419
 40
1.0
 40
1.0
 40
1.0
 40
1.0
 10
80.6167974513
 20
116.01145887
 30
0.0
 10
80.8715677838
 20
116.01145887
 30
0.0
 10
81.2549492431
 20
116.047888965
 30
0.0
 10
81.750375484
 20
116.1677878799
 30
0.0
 10
82.2305787195
 20
116.3336622405
 30
0.0
 10
82.7955061394
 20
116.6248181702
 30
0.0
 10
83.2923685153
 20
117.0183046316
 30
0.0
 10
83.6359696354
 20
117.3844286126
 30
0.0
 10
83.939844528
 20
117.779981273
 30
0.0
 10
84.2425125922
 20
118.3260728177
 30
0.0
 10
84.4663382238
 20
119.0376972099
 30
0.0
 10
84.5167923355
 20
119.5323239184
 30
0.0
 10
84.5167923355
 20
119.7785695926
 30
0.0
  0
SPLINE
  5
31C
330
1B
100
AcDbEntity
 67
     1
  8
02___PRT_ALL_AXES
  6
Continuous
 62
     7
100
AcDbSpline
 70
     0
 71
     3
 72
    27
 73
    23
 74
     0
 42
0.000000001
 43
0.0000001
 40
0.0
 40
0.0
 40
0.0
 40
0.0
 40
0.0635413274
 40
0.0952950072
 40
0.1269908659
 40
0.1900762935
 40
0.2527732725
 40
0.2840008754
 40
0.3151238502
 40
0.3770055669
 40
0.4385849169
 40
0.5
 40
0.5614150831
 40
0.6229944331
 40
0.6848761498
 40
0.7159991246
 40
0.7472267275
 40
0.8099237065
 40
0.8730091341
 40
0.9047049928
 40
0.9364586726
 40
1.0
 40
1.0
 40
1.0
 40
1.0
 10
80.6167974513
 20
118.0026510153
 30
0.0
 10
80.409171462
 20
118.0026510153
 30
0.0
 10
80.0967326079
 20
118.0323397036
 30
0.0
 10
79.6929845189
 20
118.1300510856
 30
0.0
 10
79.3016436226
 20
118.2652348896
 30
0.0
 10
78.8412585574
 20
118.5025130399
 30
0.0
 10
78.4363294492
 20
118.8231766079
 30
0.0
 10
78.1563235106
 20
119.1215592051
 30
0.0
 10
77.9086685338
 20
119.4439126481
 30
0.0
 10
77.6620217574
 20
119.8889092539
 30
0.0
 10
77.4796088448
 20
120.4690511691
 30
0.0
 10
77.4179509708
 20
121.0726648181
 30
0.0
 10
77.4796088448
 20
121.6762784671
 30
0.0
 10
77.6620217574
 20
122.2564203823
 30
0.0
 10
77.9086685338
 20
122.701416988
 30
0.0
 10
78.1563235106
 20
123.0237704311
 30
0.0
 10
78.4363294492
 20
123.3221530282
 30
0.0
 10
78.8412585574
 20
123.6428165962
 30
0.0
 10
79.3016436226
 20
123.8800947466
 30
0.0
 10
79.6929845189
 20
124.0152785505
 30
0.0
 10
80.0967326079
 20
124.1129899325
 30
0.0
 10
80.409171462
 20
124.1426786208
 30
0.0
 10
80.6167974513
 20
124.1426786208
 30
0.0
  0
SPLINE
  5
31D
330
1B
100
AcDbEntity
 67
     1
  8
02___PRT_ALL_AXES
  6
Continuous
 62
     7
100
AcDbSpline
 70
     0
 71
     3
 72
    17
 73
    13
 74
     0
 42
0.000000001
 43
0.0000001
 40
0.0
 40
0.0
 40
0.0
 40
0.0
 40
0.1270823552
 40
0.190589076
 40
0.2539820412
 40
0.3801524458
 40
0.505546463
 40
0.5680017183
 40
0.6302477294
 40
0.7540111884
 40
0.8771698419
 40
1.0
 40
1.0
 40
1.0
 40
1.0
 10
80.6167974513
 20
116.9820302892
 30
0.0
 10
80.3620271187
 20
116.9820302892
 30
0.0
 10
79.9786456594
 20
117.0184603842
 30
0.0
 10
79.4832194185
 20
117.138359299
 30
0.0
 10
79.003016183
 20
117.3042336596
 30
0.0
 10
78.4380887632
 20
117.5953895893
 30
0.0
 10
77.9412263873
 20
117.9888760507
 30
0.0
 10
77.5976252672
 20
118.3550000317
 30
0.0
 10
77.2937503746
 20
118.7505526922
 30
0.0
 10
76.9910823104
 20
119.2966442368
 30
0.0
 10
76.7672566788
 20
120.008268629
 30
0.0
 10
76.716802567
 20
120.5028953375
 30
0.0
 10
76.716802567
 20
120.7491410117
 30
0.0
  0
SPLINE
  5
31E
330
1B
100
AcDbEntity
 67
     1
  8
02___PRT_ALL_AXES
  6
Continuous
 62
     7
100
AcDbSpline
 70
     0
 71
     3
 72
    17
 73
    13
 74
     0
 42
0.000000001
 43
0.0000001
 40
0.0
 40
0.0
 40
0.0
 40
0.0
 40
0.1270823552
 40
0.190589076
 40
0.2539820412
 40
0.3801524458
 40
0.505546463
 40
0.5680017183
 40
0.6302477294
 40
0.7540111884
 40
0.8771698419
 40
1.0
 40
1.0
 40
1.0
 40
1.0
 10
80.6167974513
 20
116.01145887
 30
0.0
 10
80.3620271187
 20
116.01145887
 30
0.0
 10
79.9786456594
 20
116.047888965
 30
0.0
 10
79.4832194185
 20
116.1677878799
 30
0.0
 10
79.003016183
 20
116.3336622405
 30
0.0
 10
78.4380887632
 20
116.6248181702
 30
0.0
 10
77.9412263873
 20
117.0183046316
 30
0.0
 10
77.5976252672
 20
117.3844286126
 30
0.0
 10
77.2937503746
 20
117.779981273
 30
0.0
 10
76.9910823104
 20
118.3260728177
 30
0.0
 10
76.7672566788
 20
119.0376972099
 30
0.0
 10
76.716802567
 20
119.5323239184
 30
0.0
 10
76.716802567
 20
119.7785695926
 30
0.0
  0
LINE
  5
31F
330
1B
100
AcDbEntity
 67
     1
  8
7_ALL_FEATURES
  6
Continuous
 62
     7
100
AcDbLine
 10
71.1167974513
 20
104.0671784579
 30
0.0
 11
71.1167974513
 21
131.2970921966
 31
0.0
  0
LINE
  5
320
330
1B
100
AcDbEntity
 67
     1
  8
7_ALL_FEATURES
  6
Continuous
 62
     7
100
AcDbLine
 10
365.1167974513
 20
131.2970921966
 30
0.0
 11
365.1167974513
 21
104.0671784579
 31
0.0
  0
LINE
  5
321
330
1B
100
AcDbEntity
 67
     1
  8
7_ALL_FEATURES
  6
Continuous
 62
     7
100
AcDbLine
 10
71.5077650631
 20
131.6880598084
 30
0.0
 11
71.3628761892
 21
131.5431709345
 31
0.0
  0
LINE
  5
322
330
1B
100
AcDbEntity
 67
     1
  8
7_ALL_FEATURES
  6
Continuous
 62
     7
100
AcDbLine
 10
71.2616863252
 20
103.9222895839
 30
0.0
 11
71.1167974513
 21
104.0671784579
 31
0.0
  0
LINE
  5
323
330
1B
100
AcDbEntity
 67
     1
  8
7_ALL_FEATURES
  6
Continuous
 62
     7
100
AcDbLine
 10
71.5077650631
 20
103.676210846
 30
0.0
 11
71.2616863252
 21
103.9222895839
 31
0.0
  0
LINE
  5
324
330
1B
100
AcDbEntity
 67
     1
  8
7_ALL_FEATURES
  6
Continuous
 62
     7
100
AcDbLine
 10
365.1167974513
 20
104.0671784579
 30
0.0
 11
364.9719085773
 21
103.9222895839
 31
0.0
  0
LINE
  5
325
330
1B
100
AcDbEntity
 67
     1
  8
7_ALL_FEATURES
  6
Continuous
 62
     7
100
AcDbLine
 10
364.7258298394
 20
103.676210846
 30
0.0
 11
364.9719085773
 21
103.9222895839
 31
0.0
  0
LINE
  5
326
330
1B
100
AcDbEntity
 67
     1
  8
7_ALL_FEATURES
  6
Continuous
 62
     7
100
AcDbLine
 10
365.1167974513
 20
131.2970921966
 30
0.0
 11
364.8707187134
 21
131.5431709345
 31
0.0
  0
LINE
  5
327
330
1B
100
AcDbEntity
 67
     1
  8
7_ALL_FEATURES
  6
Continuous
 62
     7
100
AcDbLine
 10
364.8707187134
 20
131.5431709345
 30
0.0
 11
364.7258298394
 21
131.6880598084
 31
0.0
  0
LINE
  5
328
330
1B
100
AcDbEntity
 67
     1
  8
7_ALL_FEATURES
  6
Continuous
 62
     7
100
AcDbLine
 10
71.3628761892
 20
131.5431709345
 30
0.0
 11
71.1167974513
 21
131.2970921966
 31
0.0
  0
LINE
  5
329
330
1B
100
AcDbEntity
 67
     1
  8
02___PRT_ALL_AXES
  6
Continuous
 62
     7
100
AcDbLine
 10
98.6167974513
 20
120.1821353272
 30
0.0
 11
98.6167974513
 21
115.1821353272
 31
0.0
  0
ARC
  5
32A
330
1B
100
AcDbEntity
 67
     1
  8
02___PRT_ALL_AXES
  6
Continuous
 62
     7
100
AcDbCircle
 10
96.1167974513
 20
120.1821353272
 30
0.0
 40
2.5
100
AcDbArc
 50
0.0
 51
180.0
  0
LINE
  5
32B
330
1B
100
AcDbEntity
 67
     1
  8
02___PRT_ALL_AXES
  6
Continuous
 62
     7
100
AcDbLine
 10
93.6167974513
 20
115.1821353272
 30
0.0
 11
93.6167974513
 21
120.1821353272
 31
0.0
  0
ARC
  5
32C
330
1B
100
AcDbEntity
 67
     1
  8
02___PRT_ALL_AXES
  6
Continuous
 62
     7
100
AcDbCircle
 10
96.1167974513
 20
115.1821353272
 30
0.0
 40
2.5
100
AcDbArc
 50
180.0
 51
360.0
  0
LINE
  5
32D
330
1B
100
AcDbEntity
 67
     1
  8
02___PRT_ALL_AXES
  6
Continuous
 62
     7
100
AcDbLine
 10
342.6167974513
 20
115.1821353272
 30
0.0
 11
337.6167974513
 21
115.1821353272
 31
0.0
  0
ARC
  5
32E
330
1B
100
AcDbEntity
 67
     1
  8
02___PRT_ALL_AXES
  6
Continuous
 62
     7
100
AcDbCircle
 10
342.6167974513
 20
117.6821353272
 30
0.0
 40
2.5
100
AcDbArc
 50
270.0
 51
90.0
  0
LINE
  5
32F
330
1B
100
AcDbEntity
 67
     1
  8
02___PRT_ALL_AXES
  6
Continuous
 62
     7
100
AcDbLine
 10
337.6167974513
 20
120.1821353272
 30
0.0
 11
342.6167974513
 21
120.1821353272
 31
0.0
  0
LINE
  5
330
330
1B
100
AcDbEntity
 67
     1
  8
7_ALL_FEATURES
  6
Continuous
 62
     7
100
AcDbLine
 10
364.7258298394
 20
131.6880598084
 30
0.0
 11
71.5077650631
 21
131.6880598084
 31
0.0
  0
ARC
  5
331
330
1B
100
AcDbEntity
 67
     1
  8
02___PRT_ALL_AXES
  6
Continuous
 62
     7
100
AcDbCircle
 10
96.1167974513
 20
117.6821353272
 30
0.0
 40
7.5
100
AcDbArc
 50
270.0
 51
90.0
  0
ARC
  5
332
330
1B
100
AcDbEntity
 67
     1
  8
02___PRT_ALL_AXES
  6
Continuous
 62
     7
100
AcDbCircle
 10
96.1167974513
 20
117.6821353272
 30
0.0
 40
7.5
100
AcDbArc
 50
90.0
 51
270.0
  0
ARC
  5
333
330
1B
100
AcDbEntity
 67
     1
  8
02___PRT_ALL_AXES
  6
Continuous
 62
     7
100
AcDbCircle
 10
340.1167974513
 20
117.6821353272
 30
0.0
 40
7.5
100
AcDbArc
 50
270.0
 51
90.0
  0
ARC
  5
334
330
1B
100
AcDbEntity
 67
     1
  8
02___PRT_ALL_AXES
  6
Continuous
 62
     7
100
AcDbCircle
 10
340.1167974513
 20
117.6821353272
 30
0.0
 40
7.5
100
AcDbArc
 50
90.0
 51
270.0
  0
ARC
  5
335
330
1B
100
AcDbEntity
 67
     1
  8
02___PRT_ALL_AXES
  6
Continuous
 62
     7
100
AcDbCircle
 10
337.6167974513
 20
117.6821353272
 30
0.0
 40
2.5
100
AcDbArc
 50
90.0
 51
270.0
  0
LINE
  5
336
330
1B
100
AcDbEntity
 67
     1
  8
7_ALL_FEATURES
  6
Continuous
 62
     7
100
AcDbLine
 10
364.7258298394
 20
103.676210846
 30
0.0
 11
71.5077650631
 21
103.676210846
 31
0.0
  0
ARC
  5
337
330
1B
100
AcDbEntity
 67
     1
  8
02___PRT_ALL_AXES
  6
Continuous
 62
     7
100
AcDbCircle
 10
223.1167974513
 20
117.6821353272
 30
0.0
 40
10.0
100
AcDbArc
 50
270.0
 51
90.0
  0
LINE
  5
338
330
1B
100
AcDbEntity
 67
     1
  8
02___PRT_ALL_AXES
  6
Continuous
 62
     7
100
AcDbLine
 10
213.1167974513
 20
127.6821353272
 30
0.0
 11
223.1167974513
 21
127.6821353272
 31
0.0
  0
ARC
  5
339
330
1B
100
AcDbEntity
 67
     1
  8
02___PRT_ALL_AXES
  6
Continuous
 62
     7
100
AcDbCircle
 10
213.1167974513
 20
117.6821353272
 30
0.0
 40
10.0
100
AcDbArc
 50
90.0
 51
270.0
  0
LINE
  5
33A
330
1B
100
AcDbEntity
 67
     1
  8
02___PRT_ALL_AXES
  6
Continuous
 62
     7
100
AcDbLine
 10
223.1167974513
 20
107.6821353272
 30
0.0
 11
213.1167974513
 21
107.6821353272
 31
0.0
  0
ARC
  5
33B
330
1B
100
AcDbEntity
 67
     1
  8
02___PRT_ALL_AXES
  6
Continuous
 62
     7
100
AcDbCircle
 10
298.1167974513
 20
117.6821353272
 30
0.0
 40
10.0
100
AcDbArc
 50
270.0
 51
90.0
  0
LINE
  5
33C
330
1B
100
AcDbEntity
 67
     1
  8
02___PRT_ALL_AXES
  6
Continuous
 62
     7
100
AcDbLine
 10
288.1167974513
 20
127.6821353272
 30
0.0
 11
298.1167974513
 21
127.6821353272
 31
0.0
  0
ARC
  5
33D
330
1B
100
AcDbEntity
 67
     1
  8
02___PRT_ALL_AXES
  6
Continuous
 62
     7
100
AcDbCircle
 10
288.1167974513
 20
117.6821353272
 30
0.0
 40
10.0
100
AcDbArc
 50
90.0
 51
270.0
  0
LINE
  5
33E
330
1B
100
AcDbEntity
 67
     1
  8
02___PRT_ALL_AXES
  6
Continuous
 62
     7
100
AcDbLine
 10
298.1167974513
 20
107.6821353272
 30
0.0
 11
288.1167974513
 21
107.6821353272
 31
0.0
  0
ARC
  5
33F
330
1B
100
AcDbEntity
 67
     1
  8
02___PRT_ALL_AXES
  6
Continuous
 62
     7
100
AcDbCircle
 10
138.1167974513
 20
117.6821353272
 30
0.0
 40
10.0
100
AcDbArc
 50
90.0
 51
270.0
  0
LINE
  5
340
330
1B
100
AcDbEntity
 67
     1
  8
02___PRT_ALL_AXES
  6
Continuous
 62
     7
100
AcDbLine
 10
148.1167974513
 20
107.6821353272
 30
0.0
 11
138.1167974513
 21
107.6821353272
 31
0.0
  0
ARC
  5
341
330
1B
100
AcDbEntity
 67
     1
  8
02___PRT_ALL_AXES
  6
Continuous
 62
     7
100
AcDbCircle
 10
148.1167974513
 20
117.6821353272
 30
0.0
 40
10.0
100
AcDbArc
 50
270.0
 51
90.0
  0
LINE
  5
342
330
1B
100
AcDbEntity
 67
     1
  8
02___PRT_ALL_AXES
  6
Continuous
 62
     7
100
AcDbLine
 10
138.1167974513
 20
127.6821353272
 30
0.0
 11
148.1167974513
 21
127.6821353272
 31
0.0
  0
LINE
  5
343
330
1B
100
AcDbEntity
 67
     1
  8
7_ALL_FEATURES
  6
Continuous
 62
     7
100
AcDbLine
 10
364.7258298394
 20
131.3982820605
 30
0.0
 11
71.5077650631
 21
131.3982820605
 31
0.0
  0
LINE
  5
344
330
1B
100
AcDbEntity
 67
     1
  8
7_ALL_FEATURES
  6
Continuous
 62
     7
100
AcDbLine
 10
71.5077650631
 20
104.1683683219
 30
0.0
 11
71.5077650631
 21
131.3982820605
 31
0.0
  0
LINE
  5
345
330
1B
100
AcDbEntity
 67
     1
  8
7_ALL_FEATURES
  6
Continuous
 62
     7
100
AcDbLine
 10
364.7258298394
 20
131.3982820605
 30
0.0
 11
364.8707187134
 21
131.5431709345
 31
0.0
  0
LINE
  5
346
330
1B
100
AcDbEntity
 67
     1
  8
7_ALL_FEATURES
  6
Continuous
 62
     7
100
AcDbLine
 10
71.5077650631
 20
104.1683683219
 30
0.0
 11
71.2616863252
 21
103.9222895839
 31
0.0
  0
LINE
  5
347
330
1B
100
AcDbEntity
 67
     1
  8
7_ALL_FEATURES
  6
Continuous
 62
     7
100
AcDbLine
 10
364.9719085773
 20
103.9222895839
 30
0.0
 11
364.7258298394
 21
104.1683683219
 31
0.0
  0
LINE
  5
348
330
1B
100
AcDbEntity
 67
     1
  8
7_ALL_FEATURES
  6
Continuous
 62
     7
100
AcDbLine
 10
71.5077650631
 20
131.3982820605
 30
0.0
 11
71.3628761892
 21
131.5431709345
 31
0.0
  0
LINE
  5
349
330
1B
100
AcDbEntity
 67
     1
  8
7_ALL_FEATURES
  6
Continuous
 62
     7
100
AcDbLine
 10
364.7258298394
 20
131.3982820605
 30
0.0
 11
364.7258298394
 21
104.1683683219
 31
0.0
  0
LINE
  5
34A
330
1B
100
AcDbEntity
 67
     1
  8
7_ALL_FEATURES
  6
Continuous
 62
     7
100
AcDbLine
 10
364.7258298394
 20
104.1683683219
 30
0.0
 11
71.5077650631
 21
104.1683683219
 31
0.0
  0
SPLINE
  5
34B
330
1B
100
AcDbEntity
 67
     1
  8
02___PRT_ALL_AXES
  6
Continuous
 62
     7
100
AcDbSpline
 70
     0
 71
     3
 72
    18
 73
    14
 74
     0
 42
0.000000001
 43
0.0000001
 40
0.0
 40
0.0
 40
0.0
 40
0.0
 40
0.1703073083
 40
0.3356510974
 40
0.4912853591
 40
0.632819794
 40
0.7564813117
 40
0.810683421
 40
0.859433582
 40
0.9025962391
 40
0.9401899974
 40
0.9724568854
 40
1.0
 40
1.0
 40
1.0
 40
1.0
 10
80.6167974513
 20
316.9401649318
 30
0.0
 10
80.8033241127
 20
316.9401649318
 30
0.0
 10
81.1710003818
 20
316.9318485072
 30
0.0
 10
81.7079809493
 20
316.8946418212
 30
0.0
 10
82.2111679586
 20
316.8340318984
 30
0.0
 10
82.6649971313
 20
316.7519910642
 30
0.0
 10
83.004293435
 20
316.6647686303
 30
0.0
 10
83.2391853992
 20
316.5842169834
 30
0.0
 10
83.38714678
 20
316.522909212
 30
0.0
 10
83.5137267603
 20
316.4585237663
 30
0.0
 10
83.6181090708
 20
316.3914450062
 30
0.0
 10
83.6996211198
 20
316.3220587479
 30
0.0
 10
83.7412283362
 20
316.2706307721
 30
0.0
 10
83.7568437738
 20
316.2448207344
 30
0.0
  0
SPLINE
  5
34C
330
1B
100
AcDbEntity
 67
     1
  8
02___PRT_ALL_AXES
  6
Continuous
 62
     7
100
AcDbSpline
 70
     0
 71
     3
 72
    18
 73
    14
 74
     0
 42
0.000000001
 43
0.0000001
 40
0.0
 40
0.0
 40
0.0
 40
0.0
 40
0.1703073083
 40
0.3356510974
 40
0.4912853591
 40
0.632819794
 40
0.7564813117
 40
0.810683421
 40
0.859433582
 40
0.9025962391
 40
0.9401899974
 40
0.9724568854
 40
1.0
 40
1.0
 40
1.0
 40
1.0
 10
80.6167974513
 20
316.9401649318
 30
0.0
 10
80.4302707898
 20
316.9401649318
 30
0.0
 10
80.0625945207
 20
316.9318485072
 30
0.0
 10
79.5256139533
 20
316.8946418212
 30
0.0
 10
79.0224269439
 20
316.8340318984
 30
0.0
 10
78.5685977712
 20
316.7519910642
 30
0.0
 10
78.2293014675
 20
316.6647686303
 30
0.0
 10
77.9944095033
 20
316.5842169834
 30
0.0
 10
77.8464481226
 20
316.522909212
 30
0.0
 10
77.7198681423
 20
316.4585237663
 30
0.0
 10
77.6154858317
 20
316.3914450062
 30
0.0
 10
77.5339737827
 20
316.3220587479
 30
0.0
 10
77.4923665664
 20
316.2706307721
 30
0.0
 10
77.4767511287
 20
316.2448207344
 30
0.0
  0
LINE
  5
34D
330
1B
100
AcDbEntity
 67
     1
  8
02___PRT_ALL_AXES
  6
Continuous
 62
     7
100
AcDbLine
 10
84.4698469419
 20
315.0663037676
 30
0.0
 11
83.756847211
 21
316.2448150696
 31
0.0
  0
SPLINE
  5
34E
330
1B
100
AcDbEntity
 67
     1
  8
02___PRT_ALL_AXES
  6
Continuous
 62
     7
100
AcDbSpline
 70
     0
 71
     3
 72
     9
 73
     5
 74
     0
 42
0.000000001
 43
0.0000001
 40
0.0
 40
0.0
 40
0.0
 40
0.0
 40
0.5189530246
 40
1.0
 40
1.0
 40
1.0
 40
1.0
 10
84.4698419478
 20
315.0663035652
 30
0.0
 10
84.4845821137
 20
315.0419388164
 30
0.0
 10
84.5081867557
 20
314.9916816456
 30
0.0
 10
84.5167923355
 20
314.9365464512
 30
0.0
 10
84.5167923355
 20
314.9101499297
 30
0.0
  0
LINE
  5
34F
330
1B
100
AcDbEntity
 67
     1
  8
02___PRT_ALL_AXES
  6
Continuous
 62
     7
100
AcDbLine
 10
84.5167974513
 20
313.2197797337
 30
0.0
 11
84.5167974513
 21
314.9101499297
 31
0.0
  0
SPLINE
  5
350
330
1B
100
AcDbEntity
 67
     1
  8
02___PRT_ALL_AXES
  6
Continuous
 62
     7
100
AcDbSpline
 70
     0
 71
     3
 72
    11
 73
     7
 74
     0
 42
0.000000001
 43
0.0000001
 40
0.0
 40
0.0
 40
0.0
 40
0.0
 40
0.2196204291
 40
0.452633061
 40
0.7101130129
 40
1.0
 40
1.0
 40
1.0
 40
1.0
 10
84.5167923355
 20
313.2197797337
 30
0.0
 10
84.5167923355
 20
313.196784766
 30
0.0
 10
84.5103662069
 20
313.1491899672
 30
0.0
 10
84.4821342955
 20
313.0797252123
 30
0.0
 10
84.4360816348
 20
313.011667411
 30
0.0
 10
84.3964028557
 20
312.9699900183
 30
0.0
 10
84.374182673
 20
312.9493136154
 30
0.0
  0
LINE
  5
351
330
1B
100
AcDbEntity
 67
     1
  8
02___PRT_ALL_AXES
  6
Continuous
 62
     7
100
AcDbLine
 10
83.6268665142
 20
312.2538539074
 30
0.0
 11
84.3741863229
 21
312.9493133526
 31
0.0
  0
LINE
  5
352
330
1B
100
AcDbEntity
 67
     1
  8
02___PRT_ALL_AXES
  6
Continuous
 62
     7
100
AcDbLine
 10
84.3741863229
 20
311.5583944622
 30
0.0
 11
83.4107532789
 21
312.4549699344
 31
0.0
  0
SPLINE
  5
353
330
1B
100
AcDbEntity
 67
     1
  8
02___PRT_ALL_AXES
  6
Continuous
 62
     7
100
AcDbSpline
 70
     0
 71
     3
 72
    11
 73
     7
 74
     0
 42
0.000000001
 43
0.0000001
 40
0.0
 40
0.0
 40
0.0
 40
0.0
 40
0.2898869871
 40
0.547366939
 40
0.7803795709
 40
1.0
 40
1.0
 40
1.0
 40
1.0
 10
84.374182673
 20
311.5583941995
 30
0.0
 10
84.3964028557
 20
311.5377177965
 30
0.0
 10
84.4360816348
 20
311.4960404039
 30
0.0
 10
84.4821342955
 20
311.4279826026
 30
0.0
 10
84.5103662069
 20
311.3585178477
 30
0.0
 10
84.5167923355
 20
311.3109230488
 30
0.0
 10
84.5167923355
 20
311.2879280811
 30
0.0
  0
LINE
  5
354
330
1B
100
AcDbEntity
 67
     1
  8
02___PRT_ALL_AXES
  6
Continuous
 62
     7
100
AcDbLine
 10
84.5167974513
 20
307.084931844
 30
0.0
 11
84.5167974513
 21
311.2879280811
 31
0.0
  0
LINE
  5
355
330
1B
100
AcDbEntity
 67
     1
  8
02___PRT_ALL_AXES
  6
Continuous
 62
     7
100
AcDbLine
 10
76.7637479606
 20
315.0663037676
 30
0.0
 11
77.4767476916
 21
316.2448150696
 31
0.0
  0
SPLINE
  5
356
330
1B
100
AcDbEntity
 67
     1
  8
02___PRT_ALL_AXES
  6
Continuous
 62
     7
100
AcDbSpline
 70
     0
 71
     3
 72
     9
 73
     5
 74
     0
 42
0.000000001
 43
0.0000001
 40
0.0
 40
0.0
 40
0.0
 40
0.0
 40
0.5189530246
 40
1.0
 40
1.0
 40
1.0
 40
1.0
 10
76.7637529547
 20
315.0663035652
 30
0.0
 10
76.7490127888
 20
315.0419388164
 30
0.0
 10
76.7254081469
 20
314.9916816456
 30
0.0
 10
76.716802567
 20
314.9365464512
 30
0.0
 10
76.716802567
 20
314.9101499297
 30
0.0
  0
LINE
  5
357
330
1B
100
AcDbEntity
 67
     1
  8
02___PRT_ALL_AXES
  6
Continuous
 62
     7
100
AcDbLine
 10
76.7167974513
 20
313.2197797337
 30
0.0
 11
76.7167974513
 21
314.9101499297
 31
0.0
  0
SPLINE
  5
358
330
1B
100
AcDbEntity
 67
     1
  8
02___PRT_ALL_AXES
  6
Continuous
 62
     7
100
AcDbSpline
 70
     0
 71
     3
 72
    11
 73
     7
 74
     0
 42
0.000000001
 43
0.0000001
 40
0.0
 40
0.0
 40
0.0
 40
0.0
 40
0.2196204291
 40
0.452633061
 40
0.7101130129
 40
1.0
 40
1.0
 40
1.0
 40
1.0
 10
76.716802567
 20
313.2197797337
 30
0.0
 10
76.716802567
 20
313.196784766
 30
0.0
 10
76.7232286956
 20
313.1491899672
 30
0.0
 10
76.7514606071
 20
313.0797252123
 30
0.0
 10
76.7975132678
 20
313.011667411
 30
0.0
 10
76.8371920468
 20
312.9699900183
 30
0.0
 10
76.8594122296
 20
312.9493136154
 30
0.0
  0
LINE
  5
359
330
1B
100
AcDbEntity
 67
     1
  8
02___PRT_ALL_AXES
  6
Continuous
 62
     7
100
AcDbLine
 10
77.6067283883
 20
312.2538539074
 30
0.0
 11
76.8594085797
 21
312.9493133526
 31
0.0
  0
LINE
  5
35A
330
1B
100
AcDbEntity
 67
     1
  8
02___PRT_ALL_AXES
  6
Continuous
 62
     7
100
AcDbLine
 10
76.8594085797
 20
311.5583944622
 30
0.0
 11
77.8228416237
 21
312.4549699344
 31
0.0
  0
SPLINE
  5
35B
330
1B
100
AcDbEntity
 67
     1
  8
02___PRT_ALL_AXES
  6
Continuous
 62
     7
100
AcDbSpline
 70
     0
 71
     3
 72
    11
 73
     7
 74
     0
 42
0.000000001
 43
0.0000001
 40
0.0
 40
0.0
 40
0.0
 40
0.0
 40
0.2898869871
 40
0.547366939
 40
0.7803795709
 40
1.0
 40
1.0
 40
1.0
 40
1.0
 10
76.8594122296
 20
311.5583941995
 30
0.0
 10
76.8371920468
 20
311.5377177965
 30
0.0
 10
76.7975132678
 20
311.4960404039
 30
0.0
 10
76.7514606071
 20
311.4279826026
 30
0.0
 10
76.7232286956
 20
311.3585178477
 30
0.0
 10
76.716802567
 20
311.3109230488
 30
0.0
 10
76.716802567
 20
311.2879280811
 30
0.0
  0
LINE
  5
35C
330
1B
100
AcDbEntity
 67
     1
  8
02___PRT_ALL_AXES
  6
Continuous
 62
     7
100
AcDbLine
 10
76.7167974513
 20
307.084931844
 30
0.0
 11
76.7167974513
 21
311.2879280811
 31
0.0
  0
SPLINE
  5
35D
330
1B
100
AcDbEntity
 67
     1
  8
02___PRT_ALL_AXES
  6
Continuous
 62
     7
100
AcDbSpline
 70
     0
 71
     3
 72
    16
 73
    12
 74
     0
 42
0.000000001
 43
0.0000001
 40
0.0
 40
0.0
 40
0.0
 40
0.0
 40
0.3209418587
 40
0.4716130301
 40
0.610838424
 40
0.7354223754
 40
0.84274251
 40
0.8893512536
 40
0.9310724554
 40
0.9679038019
 40
1.0
 40
1.0
 40
1.0
 40
1.0
 10
80.6167974513
 20
313.0044291382
 30
0.0
 10
80.9256322921
 20
313.0044291382
 30
0.0
 10
81.3798547296
 20
312.9862139251
 30
0.0
 10
81.964317158
 20
312.9221448185
 30
0.0
 10
82.3582218997
 20
312.8580783966
 30
0.0
 10
82.7066897519
 20
312.7788184749
 30
0.0
 10
82.9629504486
 20
312.698702382
 30
0.0
 10
83.13708386
 20
312.6268169593
 30
0.0
 10
83.2449973602
 20
312.5730361127
 30
0.0
 10
83.3358291854
 20
312.5171890419
 30
0.0
 10
83.388141962
 20
312.4760117055
 30
0.0
 10
83.4107504681
 20
312.4549697321
 30
0.0
  0
SPLINE
  5
35E
330
1B
100
AcDbEntity
 67
     1
  8
02___PRT_ALL_AXES
  6
Continuous
 62
     7
100
AcDbSpline
 70
     0
 71
     3
 72
    18
 73
    14
 74
     0
 42
0.000000001
 43
0.0000001
 40
0.0
 40
0.0
 40
0.0
 40
0.0
 40
0.1703083448
 40
0.3356522289
 40
0.4912868251
 40
0.6328220395
 40
0.7564838251
 40
0.8106846207
 40
0.859435513
 40
0.9025977802
 40
0.9401906119
 40
0.9724585503
 40
1.0
 40
1.0
 40
1.0
 40
1.0
 10
80.6167974513
 20
315.9195442056
 30
0.0
 10
80.387915123
 20
315.9195442056
 30
0.0
 10
79.936749728
 20
315.9093392689
 30
0.0
 10
79.2778360696
 20
315.8636833387
 30
0.0
 10
78.6603895375
 20
315.7893108856
 30
0.0
 10
78.1035088815
 20
315.6886396283
 30
0.0
 10
77.6871679312
 20
315.5816162665
 30
0.0
 10
77.3989428841
 20
315.4827653454
 30
0.0
 10
77.217384027
 20
315.4075410128
 30
0.0
 10
77.0620622361
 20
315.3285348439
 30
0.0
 10
76.9339840921
 20
315.2462180341
 30
0.0
 10
76.8339549424
 20
315.1610874046
 30
0.0
 10
76.7829121933
 20
315.0979728176
 30
0.0
 10
76.7637529547
 20
315.0663035652
 30
0.0
  0
SPLINE
  5
35F
330
1B
100
AcDbEntity
 67
     1
  8
02___PRT_ALL_AXES
  6
Continuous
 62
     7
100
AcDbSpline
 70
     0
 71
     3
 72
    19
 73
    15
 74
     0
 42
0.000000001
 43
0.0000001
 40
0.0
 40
0.0
 40
0.0
 40
0.0
 40
0.1813947548
 40
0.3562861915
 40
0.5185109976
 40
0.6625012396
 40
0.72620564
 40
0.783754416
 40
0.8348331738
 40
0.879289748
 40
0.9172145491
 40
0.9490839321
 40
0.9759997669
 40
1.0
 40
1.0
 40
1.0
 40
1.0
 10
80.6167974513
 20
314.2291740096
 30
0.0
 10
80.3630899292
 20
314.2291740096
 30
0.0
 10
79.8646771856
 20
314.2166929505
 30
0.0
 10
79.1412489961
 20
314.1609834638
 30
0.0
 10
78.4740488324
 20
314.0706627666
 30
0.0
 10
77.966691946
 20
313.9660104882
 30
0.0
 10
77.609559994
 20
313.8650163088
 30
0.0
 10
77.3815696911
 20
313.786321112
 30
0.0
 10
77.184366208
 20
313.7023655586
 30
0.0
 10
77.0196322403
 20
313.6138806546
 30
0.0
 10
76.8886014188
 20
313.5215018168
 30
0.0
 10
76.792134033
 20
313.4254040967
 30
0.0
 10
76.7313283072
 20
313.3250347936
 30
0.0
 10
76.716802567
 20
313.2533476264
 30
0.0
 10
76.716802567
 20
313.2197797337
 30
0.0
  0
SPLINE
  5
360
330
1B
100
AcDbEntity
 67
     1
  8
02___PRT_ALL_AXES
  6
Continuous
 62
     7
100
AcDbSpline
 70
     0
 71
     3
 72
    16
 73
    12
 74
     0
 42
0.000000001
 43
0.0000001
 40
0.0
 40
0.0
 40
0.0
 40
0.0
 40
0.3209418587
 40
0.4716130301
 40
0.610838424
 40
0.7354223754
 40
0.84274251
 40
0.8893512536
 40
0.9310724554
 40
0.9679038019
 40
1.0
 40
1.0
 40
1.0
 40
1.0
 10
80.6167974513
 20
313.0044291382
 30
0.0
 10
80.3079626104
 20
313.0044291382
 30
0.0
 10
79.8537401729
 20
312.9862139251
 30
0.0
 10
79.2692777445
 20
312.9221448185
 30
0.0
 10
78.8753730028
 20
312.8580783966
 30
0.0
 10
78.5269051506
 20
312.7788184749
 30
0.0
 10
78.270644454
 20
312.698702382
 30
0.0
 10
78.0965110426
 20
312.6268169593
 30
0.0
 10
77.9885975424
 20
312.5730361127
 30
0.0
 10
77.8977657171
 20
312.5171890419
 30
0.0
 10
77.8454529405
 20
312.4760117055
 30
0.0
 10
77.8228444344
 20
312.4549697321
 30
0.0
  0
SPLINE
  5
361
330
1B
100
AcDbEntity
 67
     1
  8
02___PRT_ALL_AXES
  6
Continuous
 62
     7
100
AcDbSpline
 70
     0
 71
     3
 72
    17
 73
    13
 74
     0
 42
0.000000001
 43
0.0000001
 40
0.0
 40
0.0
 40
0.0
 40
0.0
 40
0.1624925269
 40
0.3209919813
 40
0.4716524166
 40
0.6108670503
 40
0.7354416187
 40
0.8427537391
 40
0.8893600797
 40
0.9310772879
 40
0.9679064449
 40
1.0
 40
1.0
 40
1.0
 40
1.0
 10
80.6167974513
 20
312.297322357
 30
0.0
 10
80.4065007639
 20
312.297322357
 30
0.0
 10
79.9910206822
 20
312.2886769355
 30
0.0
 10
79.3816503305
 20
312.2499678096
 30
0.0
 10
78.8046077765
 20
312.1866511044
 30
0.0
 10
78.2748858799
 20
312.100507696
 30
0.0
 10
77.8062536041
 20
311.9939150849
 30
0.0
 10
77.4616285791
 20
311.8861684728
 30
0.0
 10
77.2274450059
 20
311.7895029647
 30
0.0
 10
77.0823229256
 20
311.717169693
 30
0.0
 10
76.9601653477
 20
311.642072418
 30
0.0
 10
76.8898193788
 20
311.5866887673
 30
0.0
 10
76.8594122296
 20
311.5583941995
 30
0.0
  0
SPLINE
  5
362
330
1B
100
AcDbEntity
 67
     1
  8
02___PRT_ALL_AXES
  6
Continuous
 62
     7
100
AcDbSpline
 70
     0
 71
     3
 72
    17
 73
    13
 74
     0
 42
0.000000001
 43
0.0000001
 40
0.0
 40
0.0
 40
0.0
 40
0.0
 40
0.1624925269
 40
0.3209919813
 40
0.4716524166
 40
0.6108670503
 40
0.7354416187
 40
0.8427537391
 40
0.8893600797
 40
0.9310772879
 40
0.9679064449
 40
1.0
 40
1.0
 40
1.0
 40
1.0
 10
80.6167974513
 20
312.297322357
 30
0.0
 10
80.8270941386
 20
312.297322357
 30
0.0
 10
81.2425742204
 20
312.2886769355
 30
0.0
 10
81.8519445721
 20
312.2499678096
 30
0.0
 10
82.428987126
 20
312.1866511044
 30
0.0
 10
82.9587090226
 20
312.100507696
 30
0.0
 10
83.4273412984
 20
311.9939150849
 30
0.0
 10
83.7719663234
 20
311.8861684728
 30
0.0
 10
84.0061498967
 20
311.7895029647
 30
0.0
 10
84.151271977
 20
311.717169693
 30
0.0
 10
84.2734295549
 20
311.642072418
 30
0.0
 10
84.3437755237
 20
311.5866887673
 30
0.0
 10
84.374182673
 20
311.5583941995
 30
0.0
  0
SPLINE
  5
363
330
1B
100
AcDbEntity
 67
     1
  8
02___PRT_ALL_AXES
  6
Continuous
 62
     7
100
AcDbSpline
 70
     0
 71
     3
 72
    18
 73
    14
 74
     0
 42
0.000000001
 43
0.0000001
 40
0.0
 40
0.0
 40
0.0
 40
0.0
 40
0.1703083448
 40
0.3356522289
 40
0.4912868251
 40
0.6328220395
 40
0.7564838251
 40
0.8106846207
 40
0.859435513
 40
0.9025977802
 40
0.9401906119
 40
0.9724585503
 40
1.0
 40
1.0
 40
1.0
 40
1.0
 10
80.6167974513
 20
315.9195442056
 30
0.0
 10
80.8456797796
 20
315.9195442056
 30
0.0
 10
81.2968451745
 20
315.9093392689
 30
0.0
 10
81.955758833
 20
315.8636833387
 30
0.0
 10
82.573205365
 20
315.7893108856
 30
0.0
 10
83.130086021
 20
315.6886396283
 30
0.0
 10
83.5464269713
 20
315.5816162665
 30
0.0
 10
83.8346520185
 20
315.4827653454
 30
0.0
 10
84.0162108756
 20
315.4075410128
 30
0.0
 10
84.1715326664
 20
315.3285348439
 30
0.0
 10
84.2996108104
 20
315.2462180341
 30
0.0
 10
84.3996399601
 20
315.1610874046
 30
0.0
 10
84.4506827093
 20
315.0979728176
 30
0.0
 10
84.4698419478
 20
315.0663035652
 30
0.0
  0
SPLINE
  5
364
330
1B
100
AcDbEntity
 67
     1
  8
02___PRT_ALL_AXES
  6
Continuous
 62
     7
100
AcDbSpline
 70
     0
 71
     3
 72
    19
 73
    15
 74
     0
 42
0.000000001
 43
0.0000001
 40
0.0
 40
0.0
 40
0.0
 40
0.0
 40
0.1813947548
 40
0.3562861915
 40
0.5185109976
 40
0.6625012396
 40
0.72620564
 40
0.783754416
 40
0.8348331738
 40
0.879289748
 40
0.9172145491
 40
0.9490839321
 40
0.9759997669
 40
1.0
 40
1.0
 40
1.0
 40
1.0
 10
80.6167974513
 20
314.2291740096
 30
0.0
 10
80.8705049733
 20
314.2291740096
 30
0.0
 10
81.368917717
 20
314.2166929505
 30
0.0
 10
82.0923459064
 20
314.1609834638
 30
0.0
 10
82.7595460701
 20
314.0706627666
 30
0.0
 10
83.2669029565
 20
313.9660104882
 30
0.0
 10
83.6240349086
 20
313.8650163088
 30
0.0
 10
83.8520252115
 20
313.786321112
 30
0.0
 10
84.0492286945
 20
313.7023655586
 30
0.0
 10
84.2139626623
 20
313.6138806546
 30
0.0
 10
84.3449934837
 20
313.5215018168
 30
0.0
 10
84.4414608696
 20
313.4254040967
 30
0.0
 10
84.5022665954
 20
313.3250347936
 30
0.0
 10
84.5167923355
 20
313.2533476264
 30
0.0
 10
84.5167923355
 20
313.2197797337
 30
0.0
  0
SPLINE
  5
365
330
1B
100
AcDbEntity
 67
     1
  8
02___PRT_ALL_AXES
  6
Continuous
 62
     7
100
AcDbSpline
 70
     0
 71
     3
 72
    18
 73
    14
 74
     0
 42
0.000000001
 43
0.0000001
 40
0.0
 40
0.0
 40
0.0
 40
0.0
 40
0.1703073083
 40
0.3356510974
 40
0.4912853591
 40
0.632819794
 40
0.7564813117
 40
0.810683421
 40
0.859433582
 40
0.9025962391
 40
0.9401899974
 40
0.9724568854
 40
1.0
 40
1.0
 40
1.0
 40
1.0
 10
355.6167974513
 20
316.9401649318
 30
0.0
 10
355.8033241127
 20
316.9401649318
 30
0.0
 10
356.1710003818
 20
316.9318485072
 30
0.0
 10
356.7079809493
 20
316.8946418212
 30
0.0
 10
357.2111679586
 20
316.8340318984
 30
0.0
 10
357.6649971313
 20
316.7519910642
 30
0.0
 10
358.004293435
 20
316.6647686303
 30
0.0
 10
358.2391853992
 20
316.5842169834
 30
0.0
 10
358.38714678
 20
316.522909212
 30
0.0
 10
358.5137267603
 20
316.4585237663
 30
0.0
 10
358.6181090708
 20
316.3914450062
 30
0.0
 10
358.6996211198
 20
316.3220587479
 30
0.0
 10
358.7412283362
 20
316.2706307721
 30
0.0
 10
358.7568437738
 20
316.2448207344
 30
0.0
  0
SPLINE
  5
366
330
1B
100
AcDbEntity
 67
     1
  8
02___PRT_ALL_AXES
  6
Continuous
 62
     7
100
AcDbSpline
 70
     0
 71
     3
 72
    18
 73
    14
 74
     0
 42
0.000000001
 43
0.0000001
 40
0.0
 40
0.0
 40
0.0
 40
0.0
 40
0.1703073083
 40
0.3356510974
 40
0.4912853591
 40
0.632819794
 40
0.7564813117
 40
0.810683421
 40
0.859433582
 40
0.9025962391
 40
0.9401899974
 40
0.9724568854
 40
1.0
 40
1.0
 40
1.0
 40
1.0
 10
355.6167974513
 20
316.9401649318
 30
0.0
 10
355.4302707898
 20
316.9401649318
 30
0.0
 10
355.0625945207
 20
316.9318485072
 30
0.0
 10
354.5256139533
 20
316.8946418212
 30
0.0
 10
354.0224269439
 20
316.8340318984
 30
0.0
 10
353.5685977712
 20
316.7519910642
 30
0.0
 10
353.2293014675
 20
316.6647686303
 30
0.0
 10
352.9944095033
 20
316.5842169834
 30
0.0
 10
352.8464481226
 20
316.522909212
 30
0.0
 10
352.7198681423
 20
316.4585237663
 30
0.0
 10
352.6154858317
 20
316.3914450062
 30
0.0
 10
352.5339737827
 20
316.3220587479
 30
0.0
 10
352.4923665664
 20
316.2706307721
 30
0.0
 10
352.4767511287
 20
316.2448207344
 30
0.0
  0
LINE
  5
367
330
1B
100
AcDbEntity
 67
     1
  8
02___PRT_ALL_AXES
  6
Continuous
 62
     7
100
AcDbLine
 10
359.4698469419
 20
315.0663037676
 30
0.0
 11
358.756847211
 21
316.2448150696
 31
0.0
  0
SPLINE
  5
368
330
1B
100
AcDbEntity
 67
     1
  8
02___PRT_ALL_AXES
  6
Continuous
 62
     7
100
AcDbSpline
 70
     0
 71
     3
 72
     9
 73
     5
 74
     0
 42
0.000000001
 43
0.0000001
 40
0.0
 40
0.0
 40
0.0
 40
0.0
 40
0.5189530246
 40
1.0
 40
1.0
 40
1.0
 40
1.0
 10
359.4698419478
 20
315.0663035652
 30
0.0
 10
359.4845821137
 20
315.0419388164
 30
0.0
 10
359.5081867557
 20
314.9916816456
 30
0.0
 10
359.5167923355
 20
314.9365464512
 30
0.0
 10
359.5167923355
 20
314.9101499297
 30
0.0
  0
LINE
  5
369
330
1B
100
AcDbEntity
 67
     1
  8
02___PRT_ALL_AXES
  6
Continuous
 62
     7
100
AcDbLine
 10
359.5167974513
 20
313.2197797337
 30
0.0
 11
359.5167974513
 21
314.9101499297
 31
0.0
  0
SPLINE
  5
36A
330
1B
100
AcDbEntity
 67
     1
  8
02___PRT_ALL_AXES
  6
Continuous
 62
     7
100
AcDbSpline
 70
     0
 71
     3
 72
    11
 73
     7
 74
     0
 42
0.000000001
 43
0.0000001
 40
0.0
 40
0.0
 40
0.0
 40
0.0
 40
0.2196204291
 40
0.452633061
 40
0.7101130129
 40
1.0
 40
1.0
 40
1.0
 40
1.0
 10
359.5167923355
 20
313.2197797337
 30
0.0
 10
359.5167923355
 20
313.196784766
 30
0.0
 10
359.5103662069
 20
313.1491899672
 30
0.0
 10
359.4821342955
 20
313.0797252123
 30
0.0
 10
359.4360816348
 20
313.011667411
 30
0.0
 10
359.3964028557
 20
312.9699900183
 30
0.0
 10
359.374182673
 20
312.9493136154
 30
0.0
  0
LINE
  5
36B
330
1B
100
AcDbEntity
 67
     1
  8
02___PRT_ALL_AXES
  6
Continuous
 62
     7
100
AcDbLine
 10
358.6268665142
 20
312.2538539074
 30
0.0
 11
359.3741863229
 21
312.9493133526
 31
0.0
  0
LINE
  5
36C
330
1B
100
AcDbEntity
 67
     1
  8
02___PRT_ALL_AXES
  6
Continuous
 62
     7
100
AcDbLine
 10
359.3741863229
 20
311.5583944622
 30
0.0
 11
358.4107532789
 21
312.4549699344
 31
0.0
  0
SPLINE
  5
36D
330
1B
100
AcDbEntity
 67
     1
  8
02___PRT_ALL_AXES
  6
Continuous
 62
     7
100
AcDbSpline
 70
     0
 71
     3
 72
    11
 73
     7
 74
     0
 42
0.000000001
 43
0.0000001
 40
0.0
 40
0.0
 40
0.0
 40
0.0
 40
0.2898869871
 40
0.547366939
 40
0.7803795709
 40
1.0
 40
1.0
 40
1.0
 40
1.0
 10
359.374182673
 20
311.5583941995
 30
0.0
 10
359.3964028557
 20
311.5377177965
 30
0.0
 10
359.4360816348
 20
311.4960404039
 30
0.0
 10
359.4821342955
 20
311.4279826026
 30
0.0
 10
359.5103662069
 20
311.3585178477
 30
0.0
 10
359.5167923355
 20
311.3109230488
 30
0.0
 10
359.5167923355
 20
311.2879280811
 30
0.0
  0
LINE
  5
36E
330
1B
100
AcDbEntity
 67
     1
  8
02___PRT_ALL_AXES
  6
Continuous
 62
     7
100
AcDbLine
 10
359.5167974513
 20
307.084931844
 30
0.0
 11
359.5167974513
 21
311.2879280811
 31
0.0
  0
LINE
  5
36F
330
1B
100
AcDbEntity
 67
     1
  8
02___PRT_ALL_AXES
  6
Continuous
 62
     7
100
AcDbLine
 10
351.7637479606
 20
315.0663037676
 30
0.0
 11
352.4767476916
 21
316.2448150696
 31
0.0
  0
SPLINE
  5
370
330
1B
100
AcDbEntity
 67
     1
  8
02___PRT_ALL_AXES
  6
Continuous
 62
     7
100
AcDbSpline
 70
     0
 71
     3
 72
     9
 73
     5
 74
     0
 42
0.000000001
 43
0.0000001
 40
0.0
 40
0.0
 40
0.0
 40
0.0
 40
0.5189530246
 40
1.0
 40
1.0
 40
1.0
 40
1.0
 10
351.7637529547
 20
315.0663035652
 30
0.0
 10
351.7490127888
 20
315.0419388164
 30
0.0
 10
351.7254081469
 20
314.9916816456
 30
0.0
 10
351.716802567
 20
314.9365464512
 30
0.0
 10
351.716802567
 20
314.9101499297
 30
0.0
  0
LINE
  5
371
330
1B
100
AcDbEntity
 67
     1
  8
02___PRT_ALL_AXES
  6
Continuous
 62
     7
100
AcDbLine
 10
351.7167974513
 20
313.2197797337
 30
0.0
 11
351.7167974513
 21
314.9101499297
 31
0.0
  0
SPLINE
  5
372
330
1B
100
AcDbEntity
 67
     1
  8
02___PRT_ALL_AXES
  6
Continuous
 62
     7
100
AcDbSpline
 70
     0
 71
     3
 72
    11
 73
     7
 74
     0
 42
0.000000001
 43
0.0000001
 40
0.0
 40
0.0
 40
0.0
 40
0.0
 40
0.2196204291
 40
0.452633061
 40
0.7101130129
 40
1.0
 40
1.0
 40
1.0
 40
1.0
 10
351.716802567
 20
313.2197797337
 30
0.0
 10
351.716802567
 20
313.196784766
 30
0.0
 10
351.7232286956
 20
313.1491899672
 30
0.0
 10
351.7514606071
 20
313.0797252123
 30
0.0
 10
351.7975132678
 20
313.011667411
 30
0.0
 10
351.8371920468
 20
312.9699900183
 30
0.0
 10
351.8594122296
 20
312.9493136154
 30
0.0
  0
LINE
  5
373
330
1B
100
AcDbEntity
 67
     1
  8
02___PRT_ALL_AXES
  6
Continuous
 62
     7
100
AcDbLine
 10
352.6067283883
 20
312.2538539074
 30
0.0
 11
351.8594085797
 21
312.9493133526
 31
0.0
  0
LINE
  5
374
330
1B
100
AcDbEntity
 67
     1
  8
02___PRT_ALL_AXES
  6
Continuous
 62
     7
100
AcDbLine
 10
351.8594085797
 20
311.5583944622
 30
0.0
 11
352.8228416237
 21
312.4549699344
 31
0.0
  0
SPLINE
  5
375
330
1B
100
AcDbEntity
 67
     1
  8
02___PRT_ALL_AXES
  6
Continuous
 62
     7
100
AcDbSpline
 70
     0
 71
     3
 72
    11
 73
     7
 74
     0
 42
0.000000001
 43
0.0000001
 40
0.0
 40
0.0
 40
0.0
 40
0.0
 40
0.2898869871
 40
0.547366939
 40
0.7803795709
 40
1.0
 40
1.0
 40
1.0
 40
1.0
 10
351.8594122296
 20
311.5583941995
 30
0.0
 10
351.8371920468
 20
311.5377177965
 30
0.0
 10
351.7975132678
 20
311.4960404039
 30
0.0
 10
351.7514606071
 20
311.4279826026
 30
0.0
 10
351.7232286956
 20
311.3585178477
 30
0.0
 10
351.716802567
 20
311.3109230488
 30
0.0
 10
351.716802567
 20
311.2879280811
 30
0.0
  0
LINE
  5
376
330
1B
100
AcDbEntity
 67
     1
  8
02___PRT_ALL_AXES
  6
Continuous
 62
     7
100
AcDbLine
 10
351.7167974513
 20
307.084931844
 30
0.0
 11
351.7167974513
 21
311.2879280811
 31
0.0
  0
SPLINE
  5
377
330
1B
100
AcDbEntity
 67
     1
  8
02___PRT_ALL_AXES
  6
Continuous
 62
     7
100
AcDbSpline
 70
     0
 71
     3
 72
    16
 73
    12
 74
     0
 42
0.000000001
 43
0.0000001
 40
0.0
 40
0.0
 40
0.0
 40
0.0
 40
0.3209418587
 40
0.4716130301
 40
0.610838424
 40
0.7354223754
 40
0.84274251
 40
0.8893512536
 40
0.9310724554
 40
0.9679038019
 40
1.0
 40
1.0
 40
1.0
 40
1.0
 10
355.6167974513
 20
313.0044291382
 30
0.0
 10
355.9256322921
 20
313.0044291382
 30
0.0
 10
356.3798547296
 20
312.9862139251
 30
0.0
 10
356.964317158
 20
312.9221448185
 30
0.0
 10
357.3582218997
 20
312.8580783966
 30
0.0
 10
357.7066897519
 20
312.7788184749
 30
0.0
 10
357.9629504486
 20
312.698702382
 30
0.0
 10
358.13708386
 20
312.6268169593
 30
0.0
 10
358.2449973602
 20
312.5730361127
 30
0.0
 10
358.3358291854
 20
312.5171890419
 30
0.0
 10
358.388141962
 20
312.4760117055
 30
0.0
 10
358.4107504681
 20
312.4549697321
 30
0.0
  0
SPLINE
  5
378
330
1B
100
AcDbEntity
 67
     1
  8
02___PRT_ALL_AXES
  6
Continuous
 62
     7
100
AcDbSpline
 70
     0
 71
     3
 72
    18
 73
    14
 74
     0
 42
0.000000001
 43
0.0000001
 40
0.0
 40
0.0
 40
0.0
 40
0.0
 40
0.1703083448
 40
0.3356522289
 40
0.4912868251
 40
0.6328220395
 40
0.7564838251
 40
0.8106846207
 40
0.859435513
 40
0.9025977802
 40
0.9401906119
 40
0.9724585503
 40
1.0
 40
1.0
 40
1.0
 40
1.0
 10
355.6167974513
 20
315.9195442056
 30
0.0
 10
355.387915123
 20
315.9195442056
 30
0.0
 10
354.936749728
 20
315.9093392689
 30
0.0
 10
354.2778360696
 20
315.8636833387
 30
0.0
 10
353.6603895375
 20
315.7893108856
 30
0.0
 10
353.1035088815
 20
315.6886396283
 30
0.0
 10
352.6871679312
 20
315.5816162665
 30
0.0
 10
352.3989428841
 20
315.4827653454
 30
0.0
 10
352.217384027
 20
315.4075410128
 30
0.0
 10
352.0620622361
 20
315.3285348439
 30
0.0
 10
351.9339840921
 20
315.2462180341
 30
0.0
 10
351.8339549424
 20
315.1610874046
 30
0.0
 10
351.7829121933
 20
315.0979728176
 30
0.0
 10
351.7637529547
 20
315.0663035652
 30
0.0
  0
SPLINE
  5
379
330
1B
100
AcDbEntity
 67
     1
  8
02___PRT_ALL_AXES
  6
Continuous
 62
     7
100
AcDbSpline
 70
     0
 71
     3
 72
    19
 73
    15
 74
     0
 42
0.000000001
 43
0.0000001
 40
0.0
 40
0.0
 40
0.0
 40
0.0
 40
0.1813947548
 40
0.3562861915
 40
0.5185109976
 40
0.6625012396
 40
0.72620564
 40
0.783754416
 40
0.8348331738
 40
0.879289748
 40
0.9172145491
 40
0.9490839321
 40
0.9759997669
 40
1.0
 40
1.0
 40
1.0
 40
1.0
 10
355.6167974513
 20
314.2291740096
 30
0.0
 10
355.3630899292
 20
314.2291740096
 30
0.0
 10
354.8646771856
 20
314.2166929505
 30
0.0
 10
354.1412489961
 20
314.1609834638
 30
0.0
 10
353.4740488324
 20
314.0706627666
 30
0.0
 10
352.966691946
 20
313.9660104882
 30
0.0
 10
352.609559994
 20
313.8650163088
 30
0.0
 10
352.3815696911
 20
313.786321112
 30
0.0
 10
352.184366208
 20
313.7023655586
 30
0.0
 10
352.0196322403
 20
313.6138806546
 30
0.0
 10
351.8886014188
 20
313.5215018168
 30
0.0
 10
351.792134033
 20
313.4254040967
 30
0.0
 10
351.7313283072
 20
313.3250347936
 30
0.0
 10
351.716802567
 20
313.2533476264
 30
0.0
 10
351.716802567
 20
313.2197797337
 30
0.0
  0
SPLINE
  5
37A
330
1B
100
AcDbEntity
 67
     1
  8
02___PRT_ALL_AXES
  6
Continuous
 62
     7
100
AcDbSpline
 70
     0
 71
     3
 72
    16
 73
    12
 74
     0
 42
0.000000001
 43
0.0000001
 40
0.0
 40
0.0
 40
0.0
 40
0.0
 40
0.3209418587
 40
0.4716130301
 40
0.610838424
 40
0.7354223754
 40
0.84274251
 40
0.8893512536
 40
0.9310724554
 40
0.9679038019
 40
1.0
 40
1.0
 40
1.0
 40
1.0
 10
355.6167974513
 20
313.0044291382
 30
0.0
 10
355.3079626104
 20
313.0044291382
 30
0.0
 10
354.8537401729
 20
312.9862139251
 30
0.0
 10
354.2692777445
 20
312.9221448185
 30
0.0
 10
353.8753730028
 20
312.8580783966
 30
0.0
 10
353.5269051506
 20
312.7788184749
 30
0.0
 10
353.270644454
 20
312.698702382
 30
0.0
 10
353.0965110426
 20
312.6268169593
 30
0.0
 10
352.9885975424
 20
312.5730361127
 30
0.0
 10
352.8977657171
 20
312.5171890419
 30
0.0
 10
352.8454529405
 20
312.4760117055
 30
0.0
 10
352.8228444344
 20
312.4549697321
 30
0.0
  0
SPLINE
  5
37B
330
1B
100
AcDbEntity
 67
     1
  8
02___PRT_ALL_AXES
  6
Continuous
 62
     7
100
AcDbSpline
 70
     0
 71
     3
 72
    17
 73
    13
 74
     0
 42
0.000000001
 43
0.0000001
 40
0.0
 40
0.0
 40
0.0
 40
0.0
 40
0.1624925269
 40
0.3209919813
 40
0.4716524166
 40
0.6108670503
 40
0.7354416187
 40
0.8427537391
 40
0.8893600797
 40
0.9310772879
 40
0.9679064449
 40
1.0
 40
1.0
 40
1.0
 40
1.0
 10
355.6167974513
 20
312.297322357
 30
0.0
 10
355.4065007639
 20
312.297322357
 30
0.0
 10
354.9910206822
 20
312.2886769355
 30
0.0
 10
354.3816503305
 20
312.2499678096
 30
0.0
 10
353.8046077765
 20
312.1866511044
 30
0.0
 10
353.2748858799
 20
312.100507696
 30
0.0
 10
352.8062536041
 20
311.9939150849
 30
0.0
 10
352.4616285791
 20
311.8861684728
 30
0.0
 10
352.2274450059
 20
311.7895029647
 30
0.0
 10
352.0823229256
 20
311.717169693
 30
0.0
 10
351.9601653477
 20
311.642072418
 30
0.0
 10
351.8898193788
 20
311.5866887673
 30
0.0
 10
351.8594122296
 20
311.5583941995
 30
0.0
  0
SPLINE
  5
37C
330
1B
100
AcDbEntity
 67
     1
  8
02___PRT_ALL_AXES
  6
Continuous
 62
     7
100
AcDbSpline
 70
     0
 71
     3
 72
    17
 73
    13
 74
     0
 42
0.000000001
 43
0.0000001
 40
0.0
 40
0.0
 40
0.0
 40
0.0
 40
0.1624925269
 40
0.3209919813
 40
0.4716524166
 40
0.6108670503
 40
0.7354416187
 40
0.8427537391
 40
0.8893600797
 40
0.9310772879
 40
0.9679064449
 40
1.0
 40
1.0
 40
1.0
 40
1.0
 10
355.6167974513
 20
312.297322357
 30
0.0
 10
355.8270941386
 20
312.297322357
 30
0.0
 10
356.2425742204
 20
312.2886769355
 30
0.0
 10
356.8519445721
 20
312.2499678096
 30
0.0
 10
357.428987126
 20
312.1866511044
 30
0.0
 10
357.9587090226
 20
312.100507696
 30
0.0
 10
358.4273412984
 20
311.9939150849
 30
0.0
 10
358.7719663234
 20
311.8861684728
 30
0.0
 10
359.0061498967
 20
311.7895029647
 30
0.0
 10
359.151271977
 20
311.717169693
 30
0.0
 10
359.2734295549
 20
311.642072418
 30
0.0
 10
359.3437755237
 20
311.5866887673
 30
0.0
 10
359.374182673
 20
311.5583941995
 30
0.0
  0
SPLINE
  5
37D
330
1B
100
AcDbEntity
 67
     1
  8
02___PRT_ALL_AXES
  6
Continuous
 62
     7
100
AcDbSpline
 70
     0
 71
     3
 72
    18
 73
    14
 74
     0
 42
0.000000001
 43
0.0000001
 40
0.0
 40
0.0
 40
0.0
 40
0.0
 40
0.1703083448
 40
0.3356522289
 40
0.4912868251
 40
0.6328220395
 40
0.7564838251
 40
0.8106846207
 40
0.859435513
 40
0.9025977802
 40
0.9401906119
 40
0.9724585503
 40
1.0
 40
1.0
 40
1.0
 40
1.0
 10
355.6167974513
 20
315.9195442056
 30
0.0
 10
355.8456797796
 20
315.9195442056
 30
0.0
 10
356.2968451745
 20
315.9093392689
 30
0.0
 10
356.955758833
 20
315.8636833387
 30
0.0
 10
357.573205365
 20
315.7893108856
 30
0.0
 10
358.130086021
 20
315.6886396283
 30
0.0
 10
358.5464269713
 20
315.5816162665
 30
0.0
 10
358.8346520185
 20
315.4827653454
 30
0.0
 10
359.0162108756
 20
315.4075410128
 30
0.0
 10
359.1715326664
 20
315.3285348439
 30
0.0
 10
359.2996108104
 20
315.2462180341
 30
0.0
 10
359.3996399601
 20
315.1610874046
 30
0.0
 10
359.4506827093
 20
315.0979728176
 30
0.0
 10
359.4698419478
 20
315.0663035652
 30
0.0
  0
SPLINE
  5
37E
330
1B
100
AcDbEntity
 67
     1
  8
02___PRT_ALL_AXES
  6
Continuous
 62
     7
100
AcDbSpline
 70
     0
 71
     3
 72
    19
 73
    15
 74
     0
 42
0.000000001
 43
0.0000001
 40
0.0
 40
0.0
 40
0.0
 40
0.0
 40
0.1813947548
 40
0.3562861915
 40
0.5185109976
 40
0.6625012396
 40
0.72620564
 40
0.783754416
 40
0.8348331738
 40
0.879289748
 40
0.9172145491
 40
0.9490839321
 40
0.9759997669
 40
1.0
 40
1.0
 40
1.0
 40
1.0
 10
355.6167974513
 20
314.2291740096
 30
0.0
 10
355.8705049733
 20
314.2291740096
 30
0.0
 10
356.368917717
 20
314.2166929505
 30
0.0
 10
357.0923459064
 20
314.1609834638
 30
0.0
 10
357.7595460701
 20
314.0706627666
 30
0.0
 10
358.2669029565
 20
313.9660104882
 30
0.0
 10
358.6240349086
 20
313.8650163088
 30
0.0
 10
358.8520252115
 20
313.786321112
 30
0.0
 10
359.0492286945
 20
313.7023655586
 30
0.0
 10
359.2139626623
 20
313.6138806546
 30
0.0
 10
359.3449934837
 20
313.5215018168
 30
0.0
 10
359.4414608696
 20
313.4254040967
 30
0.0
 10
359.5022665954
 20
313.3250347936
 30
0.0
 10
359.5167923355
 20
313.2533476264
 30
0.0
 10
359.5167923355
 20
313.2197797337
 30
0.0
  0
LINE
  5
37F
330
1B
100
AcDbEntity
 67
     1
  8
7_ALL_FEATURES
  6
Continuous
 62
     7
100
AcDbLine
 10
71.1167974513
 20
297.607772654
 30
0.0
 11
71.1167974513
 21
306.7072861305
 31
0.0
  0
LINE
  5
380
330
1B
100
AcDbEntity
 67
     1
  8
7_ALL_FEATURES
  6
Continuous
 62
     7
100
AcDbLine
 10
365.1167974513
 20
306.7072861305
 30
0.0
 11
365.1167974513
 21
297.607772654
 31
0.0
  0
LINE
  5
381
330
1B
100
AcDbEntity
 67
     1
  8
7_ALL_FEATURES
  6
Continuous
 62
     7
100
AcDbLine
 10
364.7258298394
 20
297.2168050422
 30
0.0
 11
71.5077650631
 21
297.2168050422
 31
0.0
  0
LINE
  5
382
330
1B
100
AcDbEntity
 67
     1
  8
7_ALL_FEATURES
  6
Continuous
 62
     7
100
AcDbLine
 10
71.2616863252
 20
306.8961089872
 30
0.0
 11
71.1167974513
 21
306.7072861305
 31
0.0
  0
LINE
  5
383
330
1B
100
AcDbEntity
 67
     1
  8
7_ALL_FEATURES
  6
Continuous
 62
     7
100
AcDbLine
 10
71.1167974513
 20
297.607772654
 30
0.0
 11
71.3122812572
 21
297.4122888481
 31
0.0
  0
LINE
  5
384
330
1B
100
AcDbEntity
 67
     1
  8
7_ALL_FEATURES
  6
Continuous
 62
     7
100
AcDbLine
 10
364.7258298394
 20
297.2168050422
 30
0.0
 11
364.9213136453
 21
297.4122888481
 31
0.0
  0
LINE
  5
385
330
1B
100
AcDbEntity
 67
     1
  8
7_ALL_FEATURES
  6
Continuous
 62
     7
100
AcDbLine
 10
365.1167974513
 20
306.7072861305
 30
0.0
 11
364.9719085773
 21
306.8961089872
 31
0.0
  0
LINE
  5
386
330
1B
100
AcDbEntity
 67
     1
  8
7_ALL_FEATURES
  6
Continuous
 62
     7
100
AcDbLine
 10
71.5077650631
 20
307.084931844
 30
0.0
 11
71.2616863252
 21
306.8961089872
 31
0.0
  0
LINE
  5
387
330
1B
100
AcDbEntity
 67
     1
  8
7_ALL_FEATURES
  6
Continuous
 62
     7
100
AcDbLine
 10
364.9719085773
 20
306.8961089872
 30
0.0
 11
364.7258298394
 21
307.084931844
 31
0.0
  0
LINE
  5
388
330
1B
100
AcDbEntity
 67
     1
  8
7_ALL_FEATURES
  6
Continuous
 62
     7
100
AcDbLine
 10
71.3122812572
 20
297.4122888481
 30
0.0
 11
71.5077650631
 21
297.2168050422
 31
0.0
  0
LINE
  5
389
330
1B
100
AcDbEntity
 67
     1
  8
7_ALL_FEATURES
  6
Continuous
 62
     7
100
AcDbLine
 10
364.9213136453
 20
297.4122888481
 30
0.0
 11
365.1167974513
 21
297.607772654
 31
0.0
  0
LINE
  5
38A
330
1B
100
AcDbEntity
 67
     1
  8
7_ALL_FEATURES
  6
Continuous
 62
     7
100
AcDbLine
 10
364.7258298394
 20
307.084931844
 30
0.0
 11
71.5077650631
 21
307.084931844
 31
0.0
  0
LINE
  5
38B
330
1B
100
AcDbEntity
 67
     1
  8
7_ALL_FEATURES
  6
Continuous
 62
     7
100
AcDbLine
 10
71.5077650631
 20
297.607772654
 30
0.0
 11
71.3122812572
 21
297.4122888481
 31
0.0
  0
LINE
  5
38C
330
1B
100
AcDbEntity
 67
     1
  8
7_ALL_FEATURES
  6
Continuous
 62
     7
100
AcDbLine
 10
364.7258298394
 20
306.7072861305
 30
0.0
 11
71.5077650631
 21
306.7072861305
 31
0.0
  0
LINE
  5
38D
330
1B
100
AcDbEntity
 67
     1
  8
7_ALL_FEATURES
  6
Continuous
 62
     7
100
AcDbLine
 10
364.7258298394
 20
306.7072861305
 30
0.0
 11
364.7258298394
 21
297.607772654
 31
0.0
  0
LINE
  5
38E
330
1B
100
AcDbEntity
 67
     1
  8
7_ALL_FEATURES
  6
Continuous
 62
     7
100
AcDbLine
 10
364.7258298394
 20
297.607772654
 30
0.0
 11
71.5077650631
 21
297.607772654
 31
0.0
  0
LINE
  5
38F
330
1B
100
AcDbEntity
 67
     1
  8
7_ALL_FEATURES
  6
Continuous
 62
     7
100
AcDbLine
 10
71.5077650631
 20
297.607772654
 30
0.0
 11
71.5077650631
 21
306.7072861305
 31
0.0
  0
LINE
  5
390
330
1B
100
AcDbEntity
 67
     1
  8
7_ALL_FEATURES
  6
Continuous
 62
     7
100
AcDbLine
 10
364.7258298394
 20
297.607772654
 30
0.0
 11
364.9213136453
 21
297.4122888481
 31
0.0
  0
LINE
  5
391
330
1B
100
AcDbEntity
 67
     1
  8
7_ALL_FEATURES
  6
Continuous
 62
     7
100
AcDbLine
 10
364.7258298394
 20
306.7072861305
 30
0.0
 11
364.9719085773
 21
306.8961089872
 31
0.0
  0
LINE
  5
392
330
1B
100
AcDbEntity
 67
     1
  8
7_ALL_FEATURES
  6
Continuous
 62
     7
100
AcDbLine
 10
71.5077650631
 20
306.7072861305
 30
0.0
 11
71.2616863252
 21
306.8961089872
 31
0.0
  0
LINE
  5
393
330
1B
100
AcDbEntity
 67
     1
  8
3_ALL_AXES
  6
Continuous
 62
     7
100
AcDbLine
 10
492.3948572484
 20
305.4013552522
 30
0.0
 11
492.6019124845
 21
304.6286145912
 31
0.0
  0
LINE
  5
394
330
1B
100
AcDbEntity
 67
     1
  8
3_ALL_AXES
  6
Continuous
 62
     7
100
AcDbLine
 10
483.7015248118
 20
303.0719838463
 30
0.0
 11
483.9085800479
 21
302.2992431852
 31
0.0
  0
LINE
  5
395
330
1B
100
AcDbEntity
 67
     1
  8
3_ALL_AXES
  6
Continuous
 62
     7
100
AcDbLine
 10
492.3948572484
 20
305.4013552522
 30
0.0
 11
492.6019124845
 21
304.6286145912
 31
0.0
  0
LINE
  5
396
330
1B
100
AcDbEntity
 67
     1
  8
3_ALL_AXES
  6
Continuous
 62
     7
100
AcDbLine
 10
492.3948572484
 20
305.4013552522
 30
0.0
 11
492.3506144537
 21
305.3895004311
 31
0.0
  0
LINE
  5
397
330
1B
100
AcDbEntity
 67
     1
  8
3_ALL_AXES
  6
Continuous
 62
     7
100
AcDbLine
 10
492.3506144537
 20
305.3895004311
 30
0.0
 11
490.1249315566
 21
304.7931304962
 31
0.0
  0
LINE
  5
398
330
1B
100
AcDbEntity
 67
     1
  8
3_ALL_AXES
  6
Continuous
 62
     7
100
AcDbLine
 10
490.1249315566
 20
304.7931304962
 30
0.0
 11
485.9714505036
 21
303.6802086023
 31
0.0
  0
LINE
  5
399
330
1B
100
AcDbEntity
 67
     1
  8
3_ALL_AXES
  6
Continuous
 62
     7
100
AcDbLine
 10
485.9714505036
 20
303.6802086023
 30
0.0
 11
483.7457676065
 21
303.0838386674
 31
0.0
  0
LINE
  5
39A
330
1B
100
AcDbEntity
 67
     1
  8
3_ALL_AXES
  6
Continuous
 62
     7
100
AcDbLine
 10
483.7457676065
 20
303.0838386674
 30
0.0
 11
483.7015248118
 21
303.0719838463
 31
0.0
  0
LINE
  5
39B
330
1B
100
AcDbEntity
 67
     1
  8
3_ALL_AXES
  6
Continuous
 62
     7
100
AcDbLine
 10
483.7015248118
 20
303.0719838463
 30
0.0
 11
483.9085800479
 21
302.2992431852
 31
0.0
  0
LINE
  5
39C
330
1B
100
AcDbEntity
 67
     1
  8
3_ALL_AXES
  6
Continuous
 62
     7
100
AcDbLine
 10
492.1878020123
 20
306.1740959132
 30
0.0
 11
492.3948572484
 21
305.4013552522
 31
0.0
  0
LINE
  5
39D
330
1B
100
AcDbEntity
 67
     1
  8
3_ALL_AXES
  6
Continuous
 62
     7
100
AcDbLine
 10
483.4944695757
 20
303.8447245073
 30
0.0
 11
483.7015248118
 21
303.0719838463
 31
0.0
  0
LINE
  5
39E
330
1B
100
AcDbEntity
 67
     1
  8
3_ALL_AXES
  6
Continuous
 62
     7
100
AcDbLine
 10
492.1878020123
 20
306.1740959132
 30
0.0
 11
492.3948572484
 21
305.4013552522
 31
0.0
  0
LINE
  5
39F
330
1B
100
AcDbEntity
 67
     1
  8
3_ALL_AXES
  6
Continuous
 62
     7
100
AcDbLine
 10
492.1878020123
 20
306.1740959132
 30
0.0
 11
491.5116539339
 21
305.9929225816
 31
0.0
  0
LINE
  5
3A0
330
1B
100
AcDbEntity
 67
     1
  8
3_ALL_AXES
  6
Continuous
 62
     7
100
AcDbLine
 10
491.5116539339
 20
305.9929225816
 30
0.0
 11
491.4977841062
 21
305.9892061725
 31
0.0
  0
LINE
  5
3A1
330
1B
100
AcDbEntity
 67
     1
  8
3_ALL_AXES
  6
Continuous
 62
     7
100
AcDbLine
 10
491.4977841062
 20
305.9892061725
 30
0.0
 11
490.8838021468
 21
305.8246902023
 31
0.0
  0
LINE
  5
3A2
330
1B
100
AcDbEntity
 67
     1
  8
3_ALL_AXES
  6
Continuous
 62
     7
100
AcDbLine
 10
490.8838021468
 20
305.8246902023
 30
0.0
 11
489.9178763206
 21
305.5658711572
 31
0.0
  0
LINE
  5
3A3
330
1B
100
AcDbEntity
 67
     1
  8
3_ALL_AXES
  6
Continuous
 62
     7
100
AcDbLine
 10
489.9178763206
 20
305.5658711572
 30
0.0
 11
485.7643952675
 21
304.4529492633
 31
0.0
  0
LINE
  5
3A4
330
1B
100
AcDbEntity
 67
     1
  8
3_ALL_AXES
  6
Continuous
 62
     7
100
AcDbLine
 10
485.7643952675
 20
304.4529492633
 30
0.0
 11
484.7984694412
 21
304.1941302182
 31
0.0
  0
LINE
  5
3A5
330
1B
100
AcDbEntity
 67
     1
  8
3_ALL_AXES
  6
Continuous
 62
     7
100
AcDbLine
 10
484.7984694412
 20
304.1941302182
 30
0.0
 11
484.1844874818
 21
304.029614248
 31
0.0
  0
LINE
  5
3A6
330
1B
100
AcDbEntity
 67
     1
  8
3_ALL_AXES
  6
Continuous
 62
     7
100
AcDbLine
 10
484.1844874818
 20
304.029614248
 30
0.0
 11
484.1706176542
 21
304.0258978389
 31
0.0
  0
LINE
  5
3A7
330
1B
100
AcDbEntity
 67
     1
  8
3_ALL_AXES
  6
Continuous
 62
     7
100
AcDbLine
 10
484.1706176542
 20
304.0258978389
 30
0.0
 11
483.4944695757
 21
303.8447245073
 31
0.0
  0
LINE
  5
3A8
330
1B
100
AcDbEntity
 67
     1
  8
3_ALL_AXES
  6
Continuous
 62
     7
100
AcDbLine
 10
492.3948572484
 20
305.4013552522
 30
0.0
 11
492.3506144537
 21
305.3895004311
 31
0.0
  0
LINE
  5
3A9
330
1B
100
AcDbEntity
 67
     1
  8
3_ALL_AXES
  6
Continuous
 62
     7
100
AcDbLine
 10
492.3506144537
 20
305.3895004311
 30
0.0
 11
490.1249315566
 21
304.7931304962
 31
0.0
  0
LINE
  5
3AA
330
1B
100
AcDbEntity
 67
     1
  8
3_ALL_AXES
  6
Continuous
 62
     7
100
AcDbLine
 10
490.1249315566
 20
304.7931304962
 30
0.0
 11
485.9714505036
 21
303.6802086023
 31
0.0
  0
LINE
  5
3AB
330
1B
100
AcDbEntity
 67
     1
  8
3_ALL_AXES
  6
Continuous
 62
     7
100
AcDbLine
 10
485.9714505036
 20
303.6802086023
 30
0.0
 11
483.7457676065
 21
303.0838386674
 31
0.0
  0
LINE
  5
3AC
330
1B
100
AcDbEntity
 67
     1
  8
3_ALL_AXES
  6
Continuous
 62
     7
100
AcDbLine
 10
483.7457676065
 20
303.0838386674
 30
0.0
 11
483.7015248118
 21
303.0719838463
 31
0.0
  0
LINE
  5
3AD
330
1B
100
AcDbEntity
 67
     1
  8
3_ALL_AXES
  6
Continuous
 62
     7
100
AcDbLine
 10
483.4944695757
 20
303.8447245073
 30
0.0
 11
483.7015248118
 21
303.0719838463
 31
0.0
  0
LINE
  5
3AE
330
1B
100
AcDbEntity
 67
     1
  8
7_ALL_FEATURES
  6
Continuous
 62
     7
100
AcDbLine
 10
491.5116539339
 20
305.9929225816
 30
0.0
 11
491.582364612
 21
306.1153970687
 31
0.0
  0
LINE
  5
3AF
330
1B
100
AcDbEntity
 67
     1
  8
7_ALL_FEATURES
  6
Continuous
 62
     7
100
AcDbLine
 10
484.1706176542
 20
304.0258978388
 30
0.0
 11
484.0481431671
 21
304.0966085169
 31
0.0
  0
LINE
  5
3B0
330
1B
100
AcDbEntity
 67
     1
  8
02___PRT_ALL_AXES
  6
Continuous
 62
     7
100
AcDbLine
 10
487.9347305781
 20
316.9401649318
 30
0.0
 11
488.9553513043
 21
315.9195442056
 31
0.0
  0
LINE
  5
3B1
330
1B
100
AcDbEntity
 67
     1
  8
02___PRT_ALL_AXES
  6
Continuous
 62
     7
100
AcDbLine
 10
481.7947029726
 20
315.2949494934
 30
0.0
 11
481.4211298592
 21
313.9007556538
 31
0.0
  0
LINE
  5
3B2
330
1B
100
AcDbEntity
 67
     1
  8
02___PRT_ALL_AXES
  6
Continuous
 62
     7
100
AcDbLine
 10
487.9347305781
 20
316.9401649318
 30
0.0
 11
486.7965684279
 21
316.6351953028
 31
0.0
  0
LINE
  5
3B3
330
1B
100
AcDbEntity
 67
     1
  8
02___PRT_ALL_AXES
  6
Continuous
 62
     7
100
AcDbLine
 10
486.7965684279
 20
316.6351953028
 30
0.0
 11
486.4584943887
 21
316.544608637
 31
0.0
  0
LINE
  5
3B4
330
1B
100
AcDbEntity
 67
     1
  8
02___PRT_ALL_AXES
  6
Continuous
 62
     7
100
AcDbLine
 10
486.4584943887
 20
316.544608637
 30
0.0
 11
483.270939162
 21
315.6905057882
 31
0.0
  0
LINE
  5
3B5
330
1B
100
AcDbEntity
 67
     1
  8
02___PRT_ALL_AXES
  6
Continuous
 62
     7
100
AcDbLine
 10
483.270939162
 20
315.6905057882
 30
0.0
 11
482.9328651228
 21
315.5999191224
 31
0.0
  0
LINE
  5
3B6
330
1B
100
AcDbEntity
 67
     1
  8
02___PRT_ALL_AXES
  6
Continuous
 62
     7
100
AcDbLine
 10
482.9328651228
 20
315.5999191224
 30
0.0
 11
481.7947029726
 21
315.2949494934
 31
0.0
  0
LINE
  5
3B7
330
1B
100
AcDbEntity
 67
     1
  8
02___PRT_ALL_AXES
  6
Continuous
 62
     7
100
AcDbLine
 10
488.9553513043
 20
315.9195442056
 30
0.0
 11
489.4082846332
 21
314.2291740096
 31
0.0
  0
LINE
  5
3B8
330
1B
100
AcDbEntity
 67
     1
  8
02___PRT_ALL_AXES
  6
Continuous
 62
     7
100
AcDbLine
 10
481.4211298592
 20
313.9007556538
 30
0.0
 11
481.8740631881
 21
312.2103854578
 31
0.0
  0
LINE
  5
3B9
330
1B
100
AcDbEntity
 67
     1
  8
02___PRT_ALL_AXES
  6
Continuous
 62
     7
100
AcDbLine
 10
489.4082846332
 20
314.2291740096
 30
0.0
 11
488.701177852
 21
313.0044291382
 31
0.0
  0
LINE
  5
3BA
330
1B
100
AcDbEntity
 67
     1
  8
02___PRT_ALL_AXES
  6
Continuous
 62
     7
100
AcDbLine
 10
481.8740631881
 20
312.2103854578
 30
0.0
 11
483.0988080595
 21
311.5032786766
 31
0.0
  0
LINE
  5
3BB
330
1B
100
AcDbEntity
 67
     1
  8
02___PRT_ALL_AXES
  6
Continuous
 62
     7
100
AcDbLine
 10
488.701177852
 20
313.0044291382
 30
0.0
 11
489.9259227234
 21
312.297322357
 31
0.0
  0
LINE
  5
3BC
330
1B
100
AcDbEntity
 67
     1
  8
02___PRT_ALL_AXES
  6
Continuous
 62
     7
100
AcDbLine
 10
483.0988080595
 20
311.5032786766
 30
0.0
 11
482.3917012783
 21
310.2785338052
 31
0.0
  0
LINE
  5
3BD
330
1B
100
AcDbEntity
 67
     1
  8
7_ALL_FEATURES
  6
Continuous
 62
     7
100
AcDbLine
 10
482.3917012783
 20
310.2785338052
 30
0.0
 11
484.048143167
 21
304.096608517
 31
0.0
  0
LINE
  5
3BE
330
1B
100
AcDbEntity
 67
     1
  8
7_ALL_FEATURES
  6
Continuous
 62
     7
100
AcDbLine
 10
489.9259227234
 20
312.297322357
 30
0.0
 11
491.582364612
 21
306.1153970688
 31
0.0
  0
LINE
  5
3BF
330
1B
100
AcDbEntity
 67
     1
  8
7_ALL_FEATURES
  6
Continuous
 62
     7
100
AcDbLine
 10
491.5116539339
 20
305.9929225815
 30
0.0
 11
491.582364612
 21
306.1153970687
 31
0.0
  0
LINE
  5
3C0
330
1B
100
AcDbEntity
 67
     1
  8
7_ALL_FEATURES
  6
Continuous
 62
     7
100
AcDbLine
 10
484.1706176542
 20
304.0258978388
 30
0.0
 11
484.048143167
 21
304.096608517
 31
0.0
  0
LINE
  5
3C1
330
1B
100
AcDbEntity
 67
     1
  8
02___PRT_ALL_AXES
  6
Continuous
 62
     7
100
AcDbLine
 10
484.048143167
 20
304.096608517
 30
0.0
 11
482.3917012783
 21
310.2785338052
 31
0.0
  0
LINE
  5
3C2
330
1B
100
AcDbEntity
 67
     1
  8
02___PRT_ALL_AXES
  6
Continuous
 62
     7
100
AcDbLine
 10
482.3917012783
 20
310.2785338052
 30
0.0
 11
483.0988080595
 21
311.5032786766
 31
0.0
  0
LINE
  5
3C3
330
1B
100
AcDbEntity
 67
     1
  8
02___PRT_ALL_AXES
  6
Continuous
 62
     7
100
AcDbLine
 10
488.9553513043
 20
315.9195442056
 30
0.0
 11
487.9347305781
 21
316.9401649318
 31
0.0
  0
LINE
  5
3C4
330
1B
100
AcDbEntity
 67
     1
  8
02___PRT_ALL_AXES
  6
Continuous
 62
     7
100
AcDbLine
 10
483.0988080595
 20
311.5032786766
 30
0.0
 11
481.8740631881
 21
312.2103854578
 31
0.0
  0
LINE
  5
3C5
330
1B
100
AcDbEntity
 67
     1
  8
02___PRT_ALL_AXES
  6
Continuous
 62
     7
100
AcDbLine
 10
489.4082846332
 20
314.2291740096
 30
0.0
 11
488.9553513043
 21
315.9195442056
 31
0.0
  0
LINE
  5
3C6
330
1B
100
AcDbEntity
 67
     1
  8
02___PRT_ALL_AXES
  6
Continuous
 62
     7
100
AcDbLine
 10
481.8740631881
 20
312.2103854578
 30
0.0
 11
481.4211298592
 21
313.9007556538
 31
0.0
  0
LINE
  5
3C7
330
1B
100
AcDbEntity
 67
     1
  8
02___PRT_ALL_AXES
  6
Continuous
 62
     7
100
AcDbLine
 10
488.701177852
 20
313.0044291382
 30
0.0
 11
489.4082846332
 21
314.2291740096
 31
0.0
  0
LINE
  5
3C8
330
1B
100
AcDbEntity
 67
     1
  8
02___PRT_ALL_AXES
  6
Continuous
 62
     7
100
AcDbLine
 10
481.4211298592
 20
313.9007556538
 30
0.0
 11
481.7947029726
 21
315.2949494934
 31
0.0
  0
LINE
  5
3C9
330
1B
100
AcDbEntity
 67
     1
  8
02___PRT_ALL_AXES
  6
Continuous
 62
     7
100
AcDbLine
 10
489.9259227234
 20
312.297322357
 30
0.0
 11
488.701177852
 21
313.0044291382
 31
0.0
  0
LINE
  5
3CA
330
1B
100
AcDbEntity
 67
     1
  8
02___PRT_ALL_AXES
  6
Continuous
 62
     7
100
AcDbLine
 10
491.582364612
 20
306.1153970688
 30
0.0
 11
489.9259227234
 21
312.297322357
 31
0.0
  0
LINE
  5
3CB
330
1B
100
AcDbEntity
 67
     1
  8
02___PRT_ALL_AXES
  6
Continuous
 62
     7
100
AcDbLine
 10
488.701177852
 20
313.0044291382
 30
0.0
 11
483.0988080595
 21
311.5032786766
 31
0.0
  0
LINE
  5
3CC
330
1B
100
AcDbEntity
 67
     1
  8
7_ALL_FEATURES
  6
Continuous
 62
     7
100
AcDbLine
 10
491.582364612
 20
306.1153970688
 30
0.0
 11
484.048143167
 21
304.096608517
 31
0.0
  0
LINE
  5
3CD
330
1B
100
AcDbEntity
 67
     1
  8
02___PRT_ALL_AXES
  6
Continuous
 62
     7
100
AcDbLine
 10
488.9553513043
 20
315.9195442056
 30
0.0
 11
481.4211298592
 21
313.9007556538
 31
0.0
  0
LINE
  5
3CE
330
1B
100
AcDbEntity
 67
     1
  8
02___PRT_ALL_AXES
  6
Continuous
 62
     7
100
AcDbLine
 10
489.9259227234
 20
312.297322357
 30
0.0
 11
482.3917012783
 21
310.2785338052
 31
0.0
  0
LINE
  5
3CF
330
1B
100
AcDbEntity
 67
     1
  8
02___PRT_ALL_AXES
  6
Continuous
 62
     7
100
AcDbLine
 10
489.4082846332
 20
314.2291740096
 30
0.0
 11
481.8740631881
 21
312.2103854578
 31
0.0
  0
LINE
  5
3D0
330
1B
100
AcDbEntity
 67
     1
  8
7_ALL_FEATURES
  6
Continuous
 62
     7
100
AcDbLine
 10
474.249321785
 20
299.4110527342
 30
0.0
 11
474.3942106589
 21
299.599875591
 31
0.0
  0
LINE
  5
3D1
330
1B
100
AcDbEntity
 67
     1
  8
7_ALL_FEATURES
  6
Continuous
 62
     7
100
AcDbLine
 10
474.5390995329
 20
299.7886984477
 30
0.0
 11
474.3942106589
 21
299.599875591
 31
0.0
  0
LINE
  5
3D2
330
1B
100
AcDbEntity
 67
     1
  8
7_ALL_FEATURES
  6
Continuous
 62
     7
100
AcDbLine
 10
502.2611707474
 20
306.7072861305
 30
0.0
 11
502.0150920095
 21
306.8961089872
 31
0.0
  0
LINE
  5
3D3
330
1B
100
AcDbEntity
 67
     1
  8
7_ALL_FEATURES
  6
Continuous
 62
     7
100
AcDbLine
 10
502.2611707474
 20
297.607772654
 30
0.0
 11
502.0656869415
 21
297.4122888481
 31
0.0
  0
LINE
  5
3D4
330
1B
100
AcDbEntity
 67
     1
  8
7_ALL_FEATURES
  6
Continuous
 62
     7
100
AcDbLine
 10
474.6402893969
 20
297.2168050422
 30
0.0
 11
501.8702031355
 21
297.2168050422
 31
0.0
  0
LINE
  5
3D5
330
1B
100
AcDbEntity
 67
     1
  8
7_ALL_FEATURES
  6
Continuous
 62
     7
100
AcDbLine
 10
501.7690132716
 20
307.084931844
 30
0.0
 11
502.0150920095
 21
306.8961089872
 31
0.0
  0
LINE
  5
3D6
330
1B
100
AcDbEntity
 67
     1
  8
7_ALL_FEATURES
  6
Continuous
 62
     7
100
AcDbLine
 10
474.249321785
 20
299.4110527342
 30
0.0
 11
474.249321785
 21
297.607772654
 31
0.0
  0
LINE
  5
3D7
330
1B
100
AcDbEntity
 67
     1
  8
7_ALL_FEATURES
  6
Continuous
 62
     7
100
AcDbLine
 10
474.6402893969
 20
297.2168050422
 30
0.0
 11
474.4448055909
 21
297.4122888481
 31
0.0
  0
LINE
  5
3D8
330
1B
100
AcDbEntity
 67
     1
  8
7_ALL_FEATURES
  6
Continuous
 62
     7
100
AcDbLine
 10
474.249321785
 20
297.607772654
 30
0.0
 11
474.4448055909
 21
297.4122888481
 31
0.0
  0
LINE
  5
3D9
330
1B
100
AcDbEntity
 67
     1
  8
7_ALL_FEATURES
  6
Continuous
 62
     7
100
AcDbLine
 10
502.0656869415
 20
297.4122888481
 30
0.0
 11
501.8702031355
 21
297.2168050422
 31
0.0
  0
LINE
  5
3DA
330
1B
100
AcDbEntity
 67
     1
  8
7_ALL_FEATURES
  6
Continuous
 62
     7
100
AcDbLine
 10
501.7690132716
 20
307.084931844
 30
0.0
 11
474.5390995329
 21
299.7886984477
 31
0.0
  0
LINE
  5
3DB
330
1B
100
AcDbEntity
 67
     1
  8
7_ALL_FEATURES
  6
Continuous
 62
     7
100
AcDbLine
 10
502.2611707474
 20
297.607772654
 30
0.0
 11
502.2611707474
 21
306.7072861305
 31
0.0
  0
LINE
  5
3DC
330
1B
100
AcDbEntity
 67
     1
  8
7_ALL_FEATURES
  6
Continuous
 62
     7
100
AcDbLine
 10
474.3942106589
 20
299.599875591
 30
0.0
 11
474.6402893969
 21
299.4110527342
 31
0.0
  0
LINE
  5
3DD
330
1B
100
AcDbEntity
 67
     1
  8
7_ALL_FEATURES
  6
Continuous
 62
     7
100
AcDbLine
 10
474.6402893969
 20
299.4110527342
 30
0.0
 11
474.6402893969
 21
297.607772654
 31
0.0
  0
LINE
  5
3DE
330
1B
100
AcDbEntity
 67
     1
  8
7_ALL_FEATURES
  6
Continuous
 62
     7
100
AcDbLine
 10
502.0150920095
 20
306.8961089872
 30
0.0
 11
501.8702031355
 21
306.7072861305
 31
0.0
  0
LINE
  5
3DF
330
1B
100
AcDbEntity
 67
     1
  8
7_ALL_FEATURES
  6
Continuous
 62
     7
100
AcDbLine
 10
474.4448055909
 20
297.4122888481
 30
0.0
 11
474.6402893969
 21
297.607772654
 31
0.0
  0
LINE
  5
3E0
330
1B
100
AcDbEntity
 67
     1
  8
7_ALL_FEATURES
  6
Continuous
 62
     7
100
AcDbLine
 10
501.8702031355
 20
297.607772654
 30
0.0
 11
502.0656869415
 21
297.4122888481
 31
0.0
  0
LINE
  5
3E1
330
1B
100
AcDbEntity
 67
     1
  8
7_ALL_FEATURES
  6
Continuous
 62
     7
100
AcDbLine
 10
501.8702031355
 20
306.7072861305
 30
0.0
 11
474.6402893969
 21
299.4110527342
 31
0.0
  0
LINE
  5
3E2
330
1B
100
AcDbEntity
 67
     1
  8
7_ALL_FEATURES
  6
Continuous
 62
     7
100
AcDbLine
 10
501.8702031355
 20
297.607772654
 30
0.0
 11
501.8702031355
 21
306.7072861305
 31
0.0
  0
LINE
  5
3E3
330
1B
100
AcDbEntity
 67
     1
  8
7_ALL_FEATURES
  6
Continuous
 62
     7
100
AcDbLine
 10
474.6402893969
 20
297.607772654
 30
0.0
 11
501.8702031355
 21
297.607772654
 31
0.0
  0
DIMENSION
  5
3E4
330
1B
100
AcDbEntity
 67
     1
  8
0
  6
Continuous
 62
     2
100
AcDbDimension
280
     0
  2
*D1
 10
375.9981332756
 20
297.2168050422
 30
0.0
 11
375.9981332756
 21
290.8953042088
 31
0.0
 70
   160
 71
     5
 42
-1.0
 73
     0
 74
     0
 75
     0
  3
DIMSTYLE_1
100
AcDbAlignedDimension
 13
364.7258298394
 23
307.084931844
 33
0.0
 14
364.7258298394
 24
297.2168050422
 34
0.0
 50
270.0
100
AcDbRotatedDimension
  0
DIMENSION
  5
3E5
330
1B
100
AcDbEntity
 67
     1
  8
0
  6
Continuous
 62
     2
100
AcDbDimension
280
     0
  2
*D2
 10
502.2611707474
 20
287.3415168595
 30
0.0
 11
487.8266693115
 21
287.3415168595
 31
0.0
 70
   160
 71
     5
 42
-1.0
 73
     0
 74
     0
 75
     0
  3
DIMSTYLE_1
100
AcDbAlignedDimension
 13
474.249321785
 23
297.607772654
 33
0.0
 14
502.2611707474
 24
297.607772654
 34
0.0
100
AcDbRotatedDimension
  0
DIMENSION
  5
3E6
330
1B
100
AcDbEntity
 67
     1
  8
0
  6
Continuous
 62
     2
100
AcDbDimension
280
     0
  2
*D3
 10
365.1167974513
 20
89.8910805874
 30
0.0
 11
217.6882292175
 21
89.8910805874
 31
0.0
 70
   160
 71
     5
 42
-1.0
 73
     0
 74
     0
 75
     0
  3
DIMSTYLE_2
100
AcDbAlignedDimension
 13
71.1167974513
 23
104.0671784579
 33
0.0
 14
365.1167974513
 24
104.0671784579
 34
0.0
100
AcDbRotatedDimension
  0
LINE
  5
3E7
330
1B
100
AcDbEntity
 67
     1
  8
0
  6
Continuous
 62
     2
100
AcDbLine
 10
453.1885460087
 20
76.5233662522
 30
0.0
 11
583.1885460087
 21
76.5233662522
 31
0.0
  0
LINE
  5
3E8
330
1B
100
AcDbEntity
 67
     1
  8
0
  6
Continuous
 62
     2
100
AcDbLine
 10
453.1885460087
 20
76.5233662522
 30
0.0
 11
453.1885460087
 21
10.5233662522
 31
0.0
  0
LINE
  5
3E9
330
1B
100
AcDbEntity
 67
     1
  8
0
  6
Continuous
 62
     2
100
AcDbLine
 10
483.1885460087
 20
68.5233662522
 30
0.0
 11
583.1885460087
 21
68.5233662522
 31
0.0
  0
LINE
  5
3EA
330
1B
100
AcDbEntity
 67
     1
  8
0
  6
Continuous
 62
     2
100
AcDbLine
 10
453.1885460087
 20
60.5233662522
 30
0.0
 11
583.1885460087
 21
60.5233662522
 31
0.0
  0
LINE
  5
3EB
330
1B
100
AcDbEntity
 67
     1
  8
0
  6
Continuous
 62
     2
100
AcDbLine
 10
483.1885460087
 20
54.5233662522
 30
0.0
 11
583.1885460087
 21
54.5233662522
 31
0.0
  0
LINE
  5
3EC
330
1B
100
AcDbEntity
 67
     1
  8
0
  6
Continuous
 62
     2
100
AcDbLine
 10
483.1885460087
 20
48.5233662522
 30
0.0
 11
583.1885460087
 21
48.5233662522
 31
0.0
  0
LINE
  5
3ED
330
1B
100
AcDbEntity
 67
     1
  8
0
  6
Continuous
 62
     2
100
AcDbLine
 10
483.1885460087
 20
42.5233662522
 30
0.0
 11
583.1885460087
 21
42.5233662522
 31
0.0
  0
LINE
  5
3EE
330
1B
100
AcDbEntity
 67
     1
  8
0
  6
Continuous
 62
     2
100
AcDbLine
 10
483.1885460087
 20
36.5233662522
 30
0.0
 11
583.1885460087
 21
36.5233662522
 31
0.0
  0
LINE
  5
3EF
330
1B
100
AcDbEntity
 67
     1
  8
0
  6
Continuous
 62
     2
100
AcDbLine
 10
483.1885460087
 20
30.5233662522
 30
0.0
 11
583.1885460087
 21
30.5233662522
 31
0.0
  0
LINE
  5
3F0
330
1B
100
AcDbEntity
 67
     1
  8
0
  6
Continuous
 62
     2
100
AcDbLine
 10
453.1885460087
 20
24.5233662522
 30
0.0
 11
583.1885460087
 21
24.5233662522
 31
0.0
  0
LINE
  5
3F1
330
1B
100
AcDbEntity
 67
     1
  8
0
  6
Continuous
 62
     2
100
AcDbLine
 10
453.1885460087
 20
18.5233662522
 30
0.0
 11
583.1885460087
 21
18.5233662522
 31
0.0
  0
LINE
  5
3F2
330
1B
100
AcDbEntity
 67
     1
  8
0
  6
Continuous
 62
     2
100
AcDbLine
 10
453.1885460087
 20
14.5233662522
 30
0.0
 11
583.1885460087
 21
14.5233662522
 31
0.0
  0
LINE
  5
3F3
330
1B
100
AcDbEntity
 67
     1
  8
0
  6
Continuous
 62
     2
100
AcDbLine
 10
453.1885460087
 20
10.5233662522
 30
0.0
 11
583.1885460087
 21
10.5233662522
 31
0.0
  0
LINE
  5
3F4
330
1B
100
AcDbEntity
 67
     1
  8
0
  6
Continuous
 62
     2
100
AcDbLine
 10
483.1885460087
 20
76.5233662522
 30
0.0
 11
483.1885460087
 21
18.5233662522
 31
0.0
  0
LINE
  5
3F5
330
1B
100
AcDbEntity
 67
     1
  8
0
  6
Continuous
 62
     2
100
AcDbLine
 10
503.1885460087
 20
60.5233662522
 30
0.0
 11
503.1885460087
 21
54.5233662522
 31
0.0
  0
LINE
  5
3F6
330
1B
100
AcDbEntity
 67
     1
  8
0
  6
Continuous
 62
     2
100
AcDbLine
 10
533.1885460087
 20
30.5233662522
 30
0.0
 11
533.1885460087
 21
18.5233662522
 31
0.0
  0
LINE
  5
3F7
330
1B
100
AcDbEntity
 67
     1
  8
0
  6
Continuous
 62
     2
100
AcDbLine
 10
543.1885460087
 20
60.5233662522
 30
0.0
 11
543.1885460087
 21
54.5233662522
 31
0.0
  0
LINE
  5
3F8
330
1B
100
AcDbEntity
 67
     1
  8
0
  6
Continuous
 62
     2
100
AcDbLine
 10
543.1885460087
 20
48.5233662522
 30
0.0
 11
543.1885460087
 21
42.5233662522
 31
0.0
  0
LINE
  5
3F9
330
1B
100
AcDbEntity
 67
     1
  8
0
  6
Continuous
 62
     2
100
AcDbLine
 10
563.1885460087
 20
60.5233662522
 30
0.0
 11
563.1885460087
 21
54.5233662522
 31
0.0
  0
LINE
  5
3FA
330
1B
100
AcDbEntity
 67
     1
  8
0
  6
Continuous
 62
     2
100
AcDbLine
 10
573.1885460087
 20
48.5233662522
 30
0.0
 11
573.1885460087
 21
42.5233662522
 31
0.0
  0
LINE
  5
3FB
330
1B
100
AcDbEntity
 67
     1
  8
0
  6
Continuous
 62
     2
100
AcDbLine
 10
583.1885460087
 20
76.5233662522
 30
0.0
 11
583.1885460087
 21
10.5233662522
 31
0.0
  0
INSERT
  5
3FC
330
1B
100
AcDbEntity
 67
     1
  8
0
  6
Continuous
 62
     2
100
AcDbBlockReference
  2
PROIEZIONE_EU_BL0
 10
468.1885460087
 20
68.1483662522
 30
0.0
  0
MTEXT
  5
3FD
330
1B
100
AcDbEntity
 67
     1
  8
9_SOLID
  6
Continuous
 62
     2
100
AcDbMText
 10
484.6760460087
 20
74.8983662522
 30
0.0
 40
1.9
 41
142.3642857143
 46
0.0
 71
     1
 72
     1
  1
EN: Chamfer/radii unlisted 0.3x45°. Remove sharp edges.\PGen. tol.: hole H11, shaft h11, lenght Js12. UNI EN 22768 Medium Grande.
 73
     1
 44
1.0
  0
MTEXT
  5
3FE
330
1B
100
AcDbEntity
 67
     1
  8
9_SOLID
  6
Continuous
 62
     2
100
AcDbMText
 10
484.6760460087
 20
66.8983662522
 30
0.0
 40
1.9
 41
148.2678571429
 46
0.0
 71
     1
 72
     1
  1
IT: Sm./rac. non quotati 0.3x45°. Eliminare spigoli taglienti.\PToll. gen.: foro H11, albero h11, lunghezza Js12. UNI EN 22768 Grado Medio.
 73
     1
 44
1.0
  0
INSERT
  5
3FF
330
1B
100
AcDbEntity
 67
     1
  8
0
  6
Continuous
 62
     2
100
AcDbBlockReference
  2
LOGO2_BL1
 10
467.0145930535
 20
42.5233662522
 30
0.0
  0
MTEXT
  5
400
330
1B
100
AcDbEntity
 67
     1
  8
9_SOLID
  6
Continuous
 62
     2
100
AcDbMText
 10
484.6760460087
 20
58.7733662522
 30
0.0
 40
3.0
 41
22.0714285714
 46
0.0
 71
     1
 72
     1
  1
Pj: 3H9
 73
     1
 44
1.0
  0
MTEXT
  5
401
330
1B
100
AcDbEntity
 67
     1
  8
9_SOLID
  6
Continuous
 62
     2
100
AcDbMText
 10
504.6760460087
 20
58.7733662522
 30
0.0
 40
3.0
 41
38.0357142857
 46
0.0
 71
     1
 72
     1
  1
% Check: %
 73
     1
 44
1.0
  0
MTEXT
  5
402
330
1B
100
AcDbEntity
 67
     1
  8
9_SOLID
  6
Continuous
 62
     2
100
AcDbMText
 10
544.6760460087
 20
58.7733662522
 30
0.0
 40
3.0
 41
19.5
 46
0.0
 71
     1
 72
     1
  1
Rev:00
 73
     1
 44
1.0
  0
MTEXT
  5
403
330
1B
100
AcDbEntity
 67
     1
  8
9_SOLID
  6
Continuous
 62
     2
100
AcDbMText
 10
564.6760460087
 20
59.0233662522
 30
0.0
 40
3.0
 41
19.7142857143
 46
0.0
 71
     1
 72
     1
  1
Ver: A
 73
     1
 44
1.0
  0
MTEXT
  5
404
330
1B
100
AcDbEntity
 67
     1
  8
9_SOLID
  6
Continuous
 62
     2
100
AcDbMText
 10
484.6760460087
 20
52.7733662522
 30
0.0
 40
3.0
 41
74.6785714286
 46
0.0
 71
     1
 72
     1
  1
Neutral code: 3H9_C_007
 73
     1
 44
1.0
  0
MTEXT
  5
405
330
1B
100
AcDbEntity
 67
     1
  8
9_SOLID
  6
Continuous
 62
     2
100
AcDbMText
 10
484.6760460087
 20
46.7733662522
 30
0.0
 40
3.0
 41
19.3928571429
 46
0.0
 71
     1
 72
     1
  1
Code: 
 73
     1
 44
1.0
  0
MTEXT
  5
406
330
1B
100
AcDbEntity
 67
     1
  8
9_SOLID
  6
Continuous
 62
     2
100
AcDbMText
 10
544.6760460087
 20
47.0233662522
 30
0.0
 40
3.0
 41
27.8571428571
 46
0.0
 71
     1
 72
     1
  1
Scale: 1:1
 73
     1
 44
1.0
  0
MTEXT
  5
407
330
1B
100
AcDbEntity
 67
     1
  8
9_SOLID
  6
Continuous
 62
     2
100
AcDbMText
 10
578.1885460087
 20
47.0233662522
 30
0.0
 40
3.0
 41
8.25
 46
0.0
 71
     2
 72
     1
  1
A2
 73
     1
 44
1.0
  0
MTEXT
  5
408
330
1B
100
AcDbEntity
 67
     1
  8
9_SOLID
  6
Continuous
 62
     2
100
AcDbMText
 10
484.6760460087
 20
41.0233662522
 30
0.0
 40
3.0
 41
123.4285714286
 46
0.0
 71
     1
 72
     1
  1
It descr.: DIST. ELLA/ELLO IN 3 AL6026
 73
     1
 44
1.0
  0
MTEXT
  5
409
330
1B
100
AcDbEntity
 67
     1
  8
9_SOLID
  6
Continuous
 62
     2
100
AcDbMText
 10
484.6760460087
 20
35.0233662522
 30
0.0
 40
3.0
 41
33.9642857143
 46
0.0
 71
     1
 72
     1
  1
En descr.: 
 73
     1
 44
1.0
  0
MTEXT
  5
40A
330
1B
100
AcDbEntity
 67
     1
  8
9_SOLID
  6
Continuous
 62
     2
100
AcDbMText
 10
484.6760460087
 20
29.0233662522
 30
0.0
 40
3.0
 41
31.2857142857
 46
0.0
 71
     1
 72
     1
  1
Des.: A.F.
 73
     1
 44
1.0
  0
MTEXT
  5
40B
330
1B
100
AcDbEntity
 67
     1
  8
9_SOLID
  6
Continuous
 62
     2
100
AcDbMText
 10
534.6760460087
 20
29.0233662522
 30
0.0
 40
3.0
 41
22.2857142857
 46
0.0
 71
     1
 72
     1
  1
Check: 
 73
     1
 44
1.0
  0
MTEXT
  5
40C
330
1B
100
AcDbEntity
 67
     1
  8
9_SOLID
  6
Continuous
 62
     2
100
AcDbMText
 10
454.6760460087
 20
23.0233662522
 30
0.0
 40
3.0
 41
19.0714285714
 46
0.0
 71
     1
 72
     1
  1
Date: 
 73
     1
 44
1.0
  0
MTEXT
  5
40D
330
1B
100
AcDbEntity
 67
     1
  8
9_SOLID
  6
Continuous
 62
     2
100
AcDbMText
 10
484.6760460087
 20
23.0233662522
 30
0.0
 40
3.0
 41
18.2142857143
 46
0.0
 71
     1
 72
     1
  1
Mat.: 
 73
     1
 44
1.0
  0
MTEXT
  5
40E
330
1B
100
AcDbEntity
 67
     1
  8
9_SOLID
  6
Continuous
 62
     2
100
AcDbMText
 10
534.6760460087
 20
22.5233662522
 30
0.0
 40
2.0
 41
42.3571428571
 46
0.0
 71
     1
 72
     1
  1
Disegno per catalogo
 73
     1
 44
1.0
  0
MTEXT
  5
40F
330
1B
100
AcDbEntity
 67
     1
  8
9_SOLID
  6
Continuous
 62
     2
100
AcDbMText
 10
454.6760460087
 20
17.4233662522
 30
0.0
 40
1.8
 41
176.2071428571
 46
0.0
 71
     1
 72
     1
  1
It: A norma di legge si diffida da qualsiasi riproduzione senza nostra autorizzazione esplicita.
 73
     1
 44
1.0
  0
MTEXT
  5
410
330
1B
100
AcDbEntity
 67
     1
  8
9_SOLID
  6
Continuous
 62
     2
100
AcDbMText
 10
454.6760460087
 20
13.4233662522
 30
0.0
 40
1.8
 41
158.1428571429
 46
0.0
 71
     1
 72
     1
  1
En: According to the law, beware of any reproduction made without our authorization.
 73
     1
 44
1.0
  0
ENDSEC
  0
SECTION
  2
OBJECTS
  0
DICTIONARY
  5
411
330
0
100
AcDbDictionary
281
     1
  3
ACAD_DETAILVIEWSTYLE
350
467
  3
ACAD_GROUP
350
412
  3
ACAD_LAYOUT
350
43A
  3
ACAD_MATERIAL
350
456
  3
ACAD_MLEADERSTYLE
350
45C
  3
ACAD_MLINESTYLE
350
413
  3
ACAD_PLOTSETTINGS
350
415
  3
ACAD_PLOTSTYLENAME
350
416
  3
ACAD_SCALELIST
350
418
  3
ACAD_SECTIONVIEWSTYLE
350
468
  3
ACAD_TABLESTYLE
350
45A
  3
ACAD_VISUALSTYLE
350
43D
  3
ACDB_RECOMPOSE_DATA
350
463
  3
AcDbVariableDictionary
350
45F
  3
APPDATA
350
45E
  0
DICTIONARY
  5
467
102
{ACAD_REACTORS
330
411
102
}
330
411
100
AcDbDictionary
281
     1
  0
DICTIONARY
  5
412
102
{ACAD_REACTORS
330
411
102
}
330
411
100
AcDbDictionary
281
     1
  0
DICTIONARY
  5
43A
102
{ACAD_REACTORS
330
411
102
}
330
411
100
AcDbDictionary
281
     1
  3
Foglio 1
350
43C
  3
Model
350
43B
  0
DICTIONARY
  5
456
102
{ACAD_REACTORS
330
411
102
}
330
411
100
AcDbDictionary
281
     1
  3
ByBlock
350
458
  3
ByLayer
350
457
  3
Global
350
459
  0
DICTIONARY
  5
45C
102
{ACAD_REACTORS
330
411
102
}
330
411
100
AcDbDictionary
281
     1
  3
Standard
350
45D
  0
DICTIONARY
  5
413
102
{ACAD_REACTORS
330
411
102
}
330
411
100
AcDbDictionary
281
     1
  3
STANDARD
350
414
  0
DICTIONARY
  5
415
102
{ACAD_REACTORS
330
411
102
}
330
411
100
AcDbDictionary
281
     1
  0
ACDBDICTIONARYWDFLT
  5
416
102
{ACAD_REACTORS
330
411
102
}
330
411
100
AcDbDictionary
281
     1
  3
Normal
350
417
100
AcDbDictionaryWithDefault
340
417
  0
DICTIONARY
  5
418
102
{ACAD_REACTORS
330
411
102
}
330
411
100
AcDbDictionary
281
     1
  3
A0
350
419
  3
A1
350
41A
  3
A2
350
41B
  3
A3
350
41C
  3
A4
350
41D
  3
A5
350
41E
  3
A6
350
41F
  3
A7
350
420
  3
A8
350
421
  3
A9
350
422
  3
B0
350
423
  3
B1
350
424
  3
B2
350
425
  3
B3
350
426
  3
B4
350
427
  3
B5
350
428
  3
B6
350
429
  3
B7
350
42A
  3
B8
350
42B
  3
B9
350
42C
  3
C0
350
42D
  3
C1
350
42E
  3
C2
350
42F
  3
C3
350
430
  3
C4
350
431
  3
C5
350
432
  3
C6
350
433
  3
C7
350
434
  3
C8
350
435
  3
C9
350
436
  3
D0
350
437
  3
D1
350
438
  3
D2
350
439
  0
DICTIONARY
  5
468
102
{ACAD_REACTORS
330
411
102
}
330
411
100
AcDbDictionary
281
     1
  0
DICTIONARY
  5
45A
102
{ACAD_REACTORS
330
411
102
}
330
411
100
AcDbDictionary
281
     1
  3
Standard
350
45B
  0
DICTIONARY
  5
43D
102
{ACAD_REACTORS
330
411
102
}
330
411
100
AcDbDictionary
281
     1
  3
2dWireframe
350
442
  3
Basic
350
445
  3
Brighten
350
449
  3
ColorChange
350
44D
  3
Conceptual
350
447
  3
Dim
350
448
  3
EdgeColorOff
350
450
  3
Facepattern
350
44C
  3
Flat
350
43E
  3
FlatWithEdges
350
43F
  3
Gouraud
350
440
  3
GouraudWithEdges
350
441
  3
Hidden
350
444
  3
JitterOff
350
44E
  3
Linepattern
350
44B
  3
OverhangOff
350
44F
  3
Realistic
350
446
  3
Shaded
350
455
  3
Shaded with edges
350
454
  3
Shades of Gray
350
451
  3
Sketchy
350
452
  3
Thicken
350
44A
  3
Wireframe
350
443
  3
X-Ray
350
453
  0
XRECORD
  5
463
102
{ACAD_REACTORS
330
411
102
}
330
411
100
AcDbXrecord
280
     1
 90
        1
330
45B
  0
DICTIONARY
  5
45F
102
{ACAD_REACTORS
330
411
102
}
330
411
100
AcDbDictionary
281
     1
  3
CANNOSCALE
350
460
  3
CMLEADERSTYLE
350
465
  3
CTABLESTYLE
350
464
  3
MSLTSCALE
350
466
  0
DICTIONARY
  5
45E
102
{ACAD_REACTORS
330
411
102
}
330
411
100
AcDbDictionary
281
     1
  0
LAYOUT
  5
43C
102
{ACAD_REACTORS
330
43A
102
}
330
43A
100
AcDbPlotSettings
  1

  2
none_device
  4
ISO_A3_(420.00_x_297.00_MM)
  6

 40
7.5
 41
20.0
 42
7.5
 43
20.0
 44
420.0
 45
297.0
 46
0.0
 47
0.0
 48
0.0
 49
0.0
140
0.0
141
0.0
142
1.0
143
1.634241245136187
 70
   688
 72
     1
 73
     0
 74
     1
  7

 75
     0
 76
     0
 77
     2
 78
   300
147
0.611904761904762
148
0.0
149
0.0
100
AcDbLayout
  1
Foglio 1
 70
     1
 71
     1
 10
0.0
 20
0.0
 11
412.5
 21
277.0
 12
0.0
 22
0.0
 32
0.0
 14
0.0
 24
0.0
 34
0.0
 15
594.0
 25
420.0
 35
0.0
146
0.0
 13
0.0
 23
0.0
 33
0.0
 16
1.0
 26
0.0
 36
0.0
 17
0.0
 27
1.0
 37
0.0
 76
     0
330
1B
331
2C2
  0
LAYOUT
  5
43B
102
{ACAD_REACTORS
330
43A
102
}
330
43A
100
AcDbPlotSettings
  1

  2
none_device
  4
Letter_(8.50_x_11.00_Inches)
  6

 40
6.35
 41
6.35
 42
6.35
 43
6.35
 44
215.9
 45
279.4
 46
0.0
 47
0.0
 48
0.0
 49
0.0
140
0.0
141
0.0
142
1.0
143
74.25000000075
 70
  1712
 72
     0
 73
     0
 74
     0
  7

 75
     0
 76
     0
 77
     2
 78
   300
147
0.0134680134678774
148
0.000000076200638
149
0.0
100
AcDbLayout
  1
Model
 70
     1
 71
     0
 10
0.0
 20
0.0
 11
594.0
 21
420.0
 12
0.0
 22
0.0
 32
0.0
 14
0.0
 24
0.0
 34
0.0
 15
594.0
 25
420.0
 35
0.0
146
0.0
 13
0.0
 23
0.0
 33
0.0
 16
1.0
 26
0.0
 36
0.0
 17
0.0
 27
1.0
 37
0.0
 76
     0
330
1F
331
1F4
  0
MATERIAL
  5
458
102
{ACAD_REACTORS
330
456
102
}
330
456
100
AcDbMaterial
  1
ByBlock
 72
     1
 94
      127
  0
MATERIAL
  5
457
102
{ACAD_REACTORS
330
456
102
}
330
456
100
AcDbMaterial
  1
ByLayer
 72
     1
 94
      127
  0
MATERIAL
  5
459
102
{ACAD_REACTORS
330
456
102
}
330
456
100
AcDbMaterial
  1
Global
 72
     1
 94
      127
  0
MLEADERSTYLE
  5
45D
102
{ACAD_REACTORS
330
45C
102
}
330
45C
100
AcDbMLeaderStyle
179
     2
170
     2
171
     1
172
     0
 90
        2
 40
0.0
 41
0.0
173
     1
 91
-1056964608
340
14
 92
       -2
290
     1
 42
2.0
291
     1
 43
8.0
  3
Standard
341
0
 44
4.0
300

342
11
174
     1
178
     1
175
     1
176
     0
 93
-1056964608
 45
4.0
292
     0
297
     0
 46
4.0
343
0
 94
-1056964608
 47
1.0
 49
1.0
140
1.0
293
     1
141
0.0
294
     1
177
     0
142
1.0
295
     0
296
     0
143
3.75
271
     0
272
     9
273
     9
298
     0
  0
MLINESTYLE
  5
414
102
{ACAD_REACTORS
330
413
102
}
330
413
100
AcDbMlineStyle
  2
STANDARD
 70
     0
  3

 62
   256
 51
90.0
 52
90.0
 71
     2
 49
0.5
 62
   256
  6
BYLAYER
 49
-0.5
 62
   256
  6
BYLAYER
  0
ACDBPLACEHOLDER
  5
417
102
{ACAD_REACTORS
330
416
102
}
330
416
  0
SCALE
  5
419
102
{ACAD_REACTORS
330
418
102
}
330
418
100
AcDbScale
 70
     0
300
1:1
140
1.0
141
1.0
290
     1
  0
SCALE
  5
41A
102
{ACAD_REACTORS
330
418
102
}
330
418
100
AcDbScale
 70
     0
300
1:2
140
1.0
141
2.0
290
     0
  0
SCALE
  5
41B
102
{ACAD_REACTORS
330
418
102
}
330
418
100
AcDbScale
 70
     0
300
1:4
140
1.0
141
4.0
290
     0
  0
SCALE
  5
41C
102
{ACAD_REACTORS
330
418
102
}
330
418
100
AcDbScale
 70
     0
300
1:5
140
1.0
141
5.0
290
     0
  0
SCALE
  5
41D
102
{ACAD_REACTORS
330
418
102
}
330
418
100
AcDbScale
 70
     0
300
1:8
140
1.0
141
8.0
290
     0
  0
SCALE
  5
41E
102
{ACAD_REACTORS
330
418
102
}
330
418
100
AcDbScale
 70
     0
300
1:10
140
1.0
141
10.0
290
     0
  0
SCALE
  5
41F
102
{ACAD_REACTORS
330
418
102
}
330
418
100
AcDbScale
 70
     0
300
1:16
140
1.0
141
16.0
290
     0
  0
SCALE
  5
420
102
{ACAD_REACTORS
330
418
102
}
330
418
100
AcDbScale
 70
     0
300
1:20
140
1.0
141
20.0
290
     0
  0
SCALE
  5
421
102
{ACAD_REACTORS
330
418
102
}
330
418
100
AcDbScale
 70
     0
300
1:30
140
1.0
141
30.0
290
     0
  0
SCALE
  5
422
102
{ACAD_REACTORS
330
418
102
}
330
418
100
AcDbScale
 70
     0
300
1:40
140
1.0
141
40.0
290
     0
  0
SCALE
  5
423
102
{ACAD_REACTORS
330
418
102
}
330
418
100
AcDbScale
 70
     0
300
1:50
140
1.0
141
50.0
290
     0
  0
SCALE
  5
424
102
{ACAD_REACTORS
330
418
102
}
330
418
100
AcDbScale
 70
     0
300
1:100
140
1.0
141
100.0
290
     0
  0
SCALE
  5
425
102
{ACAD_REACTORS
330
418
102
}
330
418
100
AcDbScale
 70
     0
300
2:1
140
2.0
141
1.0
290
     0
  0
SCALE
  5
426
102
{ACAD_REACTORS
330
418
102
}
330
418
100
AcDbScale
 70
     0
300
4:1
140
4.0
141
1.0
290
     0
  0
SCALE
  5
427
102
{ACAD_REACTORS
330
418
102
}
330
418
100
AcDbScale
 70
     0
300
8:1
140
8.0
141
1.0
290
     0
  0
SCALE
  5
428
102
{ACAD_REACTORS
330
418
102
}
330
418
100
AcDbScale
 70
     0
300
10:1
140
10.0
141
1.0
290
     0
  0
SCALE
  5
429
102
{ACAD_REACTORS
330
418
102
}
330
418
100
AcDbScale
 70
     0
300
100:1
140
100.0
141
1.0
290
     0
  0
SCALE
  5
42A
102
{ACAD_REACTORS
330
418
102
}
330
418
100
AcDbScale
 70
     0
300
1/128" = 1'-0"
140
0.0078125
141
12.0
290
     0
  0
SCALE
  5
42B
102
{ACAD_REACTORS
330
418
102
}
330
418
100
AcDbScale
 70
     0
300
1/64" = 1'-0"
140
0.015625
141
12.0
290
     0
  0
SCALE
  5
42C
102
{ACAD_REACTORS
330
418
102
}
330
418
100
AcDbScale
 70
     0
300
1/32" = 1'-0"
140
0.03125
141
12.0
290
     0
  0
SCALE
  5
42D
102
{ACAD_REACTORS
330
418
102
}
330
418
100
AcDbScale
 70
     0
300
1/16" = 1'-0"
140
0.0625
141
12.0
290
     0
  0
SCALE
  5
42E
102
{ACAD_REACTORS
330
418
102
}
330
418
100
AcDbScale
 70
     0
300
3/32" = 1'-0"
140
0.09375
141
12.0
290
     0
  0
SCALE
  5
42F
102
{ACAD_REACTORS
330
418
102
}
330
418
100
AcDbScale
 70
     0
300
1/8" = 1'-0"
140
0.125
141
12.0
290
     0
  0
SCALE
  5
430
102
{ACAD_REACTORS
330
418
102
}
330
418
100
AcDbScale
 70
     0
300
3/16" = 1'-0"
140
0.1875
141
12.0
290
     0
  0
SCALE
  5
431
102
{ACAD_REACTORS
330
418
102
}
330
418
100
AcDbScale
 70
     0
300
1/4" = 1'-0"
140
0.25
141
12.0
290
     0
  0
SCALE
  5
432
102
{ACAD_REACTORS
330
418
102
}
330
418
100
AcDbScale
 70
     0
300
3/8" = 1'-0"
140
0.375
141
12.0
290
     0
  0
SCALE
  5
433
102
{ACAD_REACTORS
330
418
102
}
330
418
100
AcDbScale
 70
     0
300
1/2" = 1'-0"
140
0.5
141
12.0
290
     0
  0
SCALE
  5
434
102
{ACAD_REACTORS
330
418
102
}
330
418
100
AcDbScale
 70
     0
300
3/4" = 1'-0"
140
0.75
141
12.0
290
     0
  0
SCALE
  5
435
102
{ACAD_REACTORS
330
418
102
}
330
418
100
AcDbScale
 70
     0
300
1" = 1'-0"
140
1.0
141
12.0
290
     0
  0
SCALE
  5
436
102
{ACAD_REACTORS
330
418
102
}
330
418
100
AcDbScale
 70
     0
300
1-1/2" = 1'-0"
140
1.5
141
12.0
290
     0
  0
SCALE
  5
437
102
{ACAD_REACTORS
330
418
102
}
330
418
100
AcDbScale
 70
     0
300
3" = 1'-0"
140
3.0
141
12.0
290
     0
  0
SCALE
  5
438
102
{ACAD_REACTORS
330
418
102
}
330
418
100
AcDbScale
 70
     0
300
6" = 1'-0"
140
6.0
141
12.0
290
     0
  0
SCALE
  5
439
102
{ACAD_REACTORS
330
418
102
}
330
418
100
AcDbScale
 70
     0
300
1'-0" = 1'-0"
140
12.0
141
12.0
290
     0
  0
TABLESTYLE
  5
45B
102
{ACAD_REACTORS
330
45A
102
}
102
{ACAD_XDICTIONARY
360
461
102
}
330
45A
100
AcDbTableStyle
  3
Standard
 70
     0
 71
     0
 40
0.06
 41
0.06
280
     0
281
     0
  7
STANDARD
140
4.5
170
     2
 62
     0
 63
   257
283
     0
 90
        4
 91
        0
  1

274
    -2
284
     1
 64
     0
275
    -2
285
     1
 65
     0
276
    -2
286
     1
 66
     0
277
    -2
287
     1
 67
     0
278
    -2
288
     1
 68
     0
279
    -2
289
     1
 69
     0
  7
STANDARD
140
6.0
170
     5
 62
     0
 63
   257
283
     0
 90
        4
 91
        0
  1

274
    -2
284
     1
 64
     0
275
    -2
285
     1
 65
     0
276
    -2
286
     1
 66
     0
277
    -2
287
     1
 67
     0
278
    -2
288
     1
 68
     0
279
    -2
289
     1
 69
     0
  7
STANDARD
140
4.5
170
     5
 62
     0
 63
   257
283
     0
 90
        4
 91
        0
  1

274
    -2
284
     1
 64
     0
275
    -2
285
     1
 65
     0
276
    -2
286
     1
 66
     0
277
    -2
287
     1
 67
     0
278
    -2
288
     1
 68
     0
279
    -2
289
     1
 69
     0
  0
VISUALSTYLE
  5
442
102
{ACAD_REACTORS
330
43D
102
}
330
43D
100
AcDbVisualStyle
  2
2dWireframe
 70
     4
177
     3
291
     0
 70
    58
 90
        0
176
     1
 90
        2
176
     1
 90
        0
176
     1
 90
        0
176
     1
 40
0.6
176
     1
 40
30.0
176
     1
 62
     7
420
 16777215
176
     1
 90
        1
176
     1
 90
        4
176
     1
 62
     7
176
     1
 62
   257
176
     1
 90
        1
176
     1
 90
        1
176
     1
 40
1.0
176
     1
 90
        0
176
     1
 62
   257
176
     1
 40
1.0
176
     1
 90
        1
176
     1
 90
        6
176
     1
 90
        2
176
     1
 62
     7
176
     1
 90
        5
176
     1
 90
        0
176
     1
 90
        0
176
     1
290
     0
176
     1
 90
        1
176
     1
 40
0.0
176
     1
 90
        0
176
     1
290
     1
176
     1
290
     1
176
     1
290
     0
176
     1
290
     0
176
     1
290
     0
176
     1
290
     0
176
     1
290
     0
176
     1
290
     0
176
     1
290
     0
176
     1
 90
       50
176
     1
 40
0.0
176
     1
 40
1.0
176
     1
 90
        0
176
     1
 62
    18
420
        0
176
     1
 90
       50
176
     1
 90
        3
176
     1
 62
     5
420
      255
176
     1
290
     0
176
     1
 90
       50
176
     1
 90
       50
176
     1
 90
       50
176
     1
290
     0
176
     1
 90
       50
176
     1
 62
   256
176
     0
 40
1.0
176
     0
 90
        2
176
     1
  1
strokes_ogs.tif
176
     1
290
     0
176
     1
 40
1.0
176
     1
 40
1.0
176
     1
  0
VISUALSTYLE
  5
445
102
{ACAD_REACTORS
330
43D
102
}
330
43D
100
AcDbVisualStyle
  2
Basic
 70
     7
177
     3
291
     1
 70
    58
 90
        1
176
     1
 90
        0
176
     1
 90
        1
176
     1
 90
        0
176
     1
 40
0.6
176
     1
 40
30.0
176
     1
 62
     7
420
 16777215
176
     1
 90
        0
176
     1
 90
        4
176
     1
 62
     7
176
     1
 62
   257
176
     1
 90
        1
176
     1
 90
        1
176
     1
 40
1.0
176
     1
 90
        8
176
     1
 62
     7
176
     1
 40
1.0
176
     1
 90
        1
176
     1
 90
        6
176
     1
 90
        2
176
     1
 62
     7
176
     1
 90
        5
176
     1
 90
        0
176
     1
 90
        0
176
     1
290
     0
176
     1
 90
        1
176
     1
 40
0.0
176
     1
 90
        0
176
     1
290
     0
176
     1
290
     1
176
     1
290
     1
176
     1
290
     0
176
     1
290
     0
176
     1
290
     0
176
     1
290
     0
176
     1
290
     0
176
     1
290
     0
176
     1
 90
       50
176
     1
 40
0.0
176
     1
 40
1.0
176
     1
 90
        0
176
     1
 62
    18
420
        0
176
     1
 90
       50
176
     1
 90
        3
176
     1
 62
     5
420
      255
176
     1
290
     0
176
     1
 90
       50
176
     1
 90
       50
176
     1
 90
       50
176
     1
290
     0
176
     1
 90
       50
176
     1
 62
   256
176
     0
 40
1.0
176
     0
 90
        2
176
     1
  1
strokes_ogs.tif
176
     1
290
     0
176
     1
 40
1.0
176
     1
 40
1.0
176
     1
  0
VISUALSTYLE
  5
449
102
{ACAD_REACTORS
330
43D
102
}
330
43D
100
AcDbVisualStyle
  2
Brighten
 70
    12
177
     3
291
     1
 70
    58
 90
        2
176
     1
 90
        2
176
     1
 90
        0
176
     1
 90
        0
176
     1
 40
0.6
176
     1
 40
30.0
176
     1
 62
     7
420
 16777215
176
     1
 90
        1
176
     1
 90
        4
176
     1
 62
     7
176
     1
 62
   257
176
     1
 90
        1
176
     1
 90
        1
176
     1
 40
1.0
176
     1
 90
        8
176
     1
 62
     7
176
     1
 40
1.0
176
     1
 90
        1
176
     1
 90
        6
176
     1
 90
        2
176
     1
 62
     7
176
     1
 90
        5
176
     1
 90
        0
176
     1
 90
        0
176
     1
290
     0
176
     1
 90
        1
176
     1
 40
50.0
176
     1
 90
        0
176
     1
290
     0
176
     1
290
     1
176
     1
290
     1
176
     1
290
     0
176
     1
290
     0
176
     1
290
     0
176
     1
290
     0
176
     1
290
     0
176
     1
290
     0
176
     1
 90
       50
176
     1
 40
0.0
176
     1
 40
1.0
176
     1
 90
        0
176
     1
 62
    18
420
        0
176
     1
 90
       50
176
     1
 90
        3
176
     1
 62
     5
420
      255
176
     1
290
     0
176
     1
 90
       50
176
     1
 90
       50
176
     1
 90
       50
176
     1
290
     0
176
     1
 90
       50
176
     1
 62
   256
176
     0
 40
1.0
176
     0
 90
        2
176
     1
  1
strokes_ogs.tif
176
     1
290
     0
176
     1
 40
1.0
176
     1
 40
1.0
176
     1
  0
VISUALSTYLE
  5
44D
102
{ACAD_REACTORS
330
43D
102
}
330
43D
100
AcDbVisualStyle
  2
ColorChange
 70
    16
177
     3
291
     1
 70
    58
 90
        2
176
     1
 90
        2
176
     1
 90
        3
176
     1
 90
        0
176
     1
 40
0.6
176
     1
 40
30.0
176
     1
 62
     8
420
  8421504
176
     1
 90
        1
176
     1
 90
        4
176
     1
 62
     7
176
     1
 62
   257
176
     1
 90
        1
176
     1
 90
        1
176
     1
 40
1.0
176
     1
 90
        8
176
     1
 62
     8
420
  8421504
176
     1
 40
1.0
176
     1
 90
        1
176
     1
 90
        6
176
     1
 90
        2
176
     1
 62
     7
176
     1
 90
        5
176
     1
 90
        0
176
     1
 90
        0
176
     1
290
     0
176
     1
 90
        1
176
     1
 40
0.0
176
     1
 90
        0
176
     1
290
     0
176
     1
290
     1
176
     1
290
     1
176
     1
290
     0
176
     1
290
     0
176
     1
290
     0
176
     1
290
     0
176
     1
290
     0
176
     1
290
     0
176
     1
 90
       50
176
     1
 40
0.0
176
     1
 40
1.0
176
     1
 90
        0
176
     1
 62
    18
420
        0
176
     1
 90
       50
176
     1
 90
        3
176
     1
 62
     5
420
      255
176
     1
290
     0
176
     1
 90
       50
176
     1
 90
       50
176
     1
 90
       50
176
     1
290
     0
176
     1
 90
       50
176
     1
 62
   256
176
     0
 40
1.0
176
     0
 90
        2
176
     1
  1
strokes_ogs.tif
176
     1
290
     0
176
     1
 40
1.0
176
     1
 40
1.0
176
     1
  0
VISUALSTYLE
  5
447
102
{ACAD_REACTORS
330
43D
102
}
330
43D
100
AcDbVisualStyle
  2
Conceptual
 70
     9
177
     3
291
     0
 70
    58
 90
        3
176
     1
 90
        2
176
     1
 90
        0
176
     1
 90
        0
176
     1
 40
0.6
176
     1
 40
30.0
176
     1
 62
     7
420
 16777215
176
     1
 90
        2
176
     1
 90
        2
176
     1
 62
     7
176
     1
 62
   257
176
     1
 90
        1
176
     1
 90
        1
176
     1
 40
179.0
176
     1
 90
        8
176
     1
 62
     7
176
     1
 40
1.0
176
     1
 90
        1
176
     1
 90
        6
176
     1
 90
        2
176
     1
 62
     7
176
     1
 90
        3
176
     1
 90
        0
176
     1
 90
        0
176
     1
290
     0
176
     1
 90
        1
176
     1
 40
0.0
176
     1
 90
        0
176
     1
290
     0
176
     1
290
     1
176
     1
290
     1
176
     1
290
     0
176
     1
290
     0
176
     1
290
     0
176
     1
290
     0
176
     1
290
     0
176
     1
290
     0
176
     1
 90
       50
176
     1
 40
0.0
176
     1
 40
1.0
176
     1
 90
        0
176
     1
 62
    18
420
        0
176
     1
 90
       50
176
     1
 90
        3
176
     1
 62
     5
420
      255
176
     1
290
     0
176
     1
 90
       50
176
     1
 90
       50
176
     1
 90
       50
176
     1
290
     0
176
     1
 90
       50
176
     1
 62
   256
176
     0
 40
1.0
176
     0
 90
        2
176
     1
  1
strokes_ogs.tif
176
     1
290
     0
176
     1
 40
1.0
176
     1
 40
1.0
176
     1
  0
VISUALSTYLE
  5
448
102
{ACAD_REACTORS
330
43D
102
}
330
43D
100
AcDbVisualStyle
  2
Dim
 70
    11
177
     3
291
     1
 70
    58
 90
        2
176
     1
 90
        2
176
     1
 90
        0
176
     1
 90
        0
176
     1
 40
0.6
176
     1
 40
30.0
176
     1
 62
     7
420
 16777215
176
     1
 90
        1
176
     1
 90
        4
176
     1
 62
     7
176
     1
 62
   257
176
     1
 90
        1
176
     1
 90
        1
176
     1
 40
1.0
176
     1
 90
        8
176
     1
 62
     7
176
     1
 40
1.0
176
     1
 90
        1
176
     1
 90
        6
176
     1
 90
        2
176
     1
 62
     7
176
     1
 90
        5
176
     1
 90
        0
176
     1
 90
        0
176
     1
290
     0
176
     1
 90
        1
176
     1
 40
-50.0
176
     1
 90
        0
176
     1
290
     0
176
     1
290
     1
176
     1
290
     1
176
     1
290
     0
176
     1
290
     0
176
     1
290
     0
176
     1
290
     0
176
     1
290
     0
176
     1
290
     0
176
     1
 90
       50
176
     1
 40
0.0
176
     1
 40
1.0
176
     1
 90
        0
176
     1
 62
    18
420
        0
176
     1
 90
       50
176
     1
 90
        3
176
     1
 62
     5
420
      255
176
     1
290
     0
176
     1
 90
       50
176
     1
 90
       50
176
     1
 90
       50
176
     1
290
     0
176
     1
 90
       50
176
     1
 62
   256
176
     0
 40
1.0
176
     0
 90
        2
176
     1
  1
strokes_ogs.tif
176
     1
290
     0
176
     1
 40
1.0
176
     1
 40
1.0
176
     1
  0
VISUALSTYLE
  5
450
102
{ACAD_REACTORS
330
43D
102
}
330
43D
100
AcDbVisualStyle
  2
EdgeColorOff
 70
    22
177
     3
291
     1
 70
    58
 90
        2
176
     0
 90
        2
176
     0
 90
        0
176
     0
 90
        0
176
     0
 40
0.6
176
     0
 40
30.0
176
     0
 62
     7
420
 16777215
176
     0
 90
        1
176
     0
 90
        4
176
     0
 62
     7
176
     0
 62
   257
176
     0
 90
        1
176
     0
 90
        1
176
     0
 40
1.0
176
     0
 90
        8
176
     2
 62
     7
176
     0
 40
1.0
176
     0
 90
        1
176
     0
 90
        6
176
     0
 90
        2
176
     0
 62
     7
176
     0
 90
        5
176
     0
 90
        0
176
     0
 90
        0
176
     0
290
     0
176
     0
 90
        1
176
     0
 40
0.0
176
     0
 90
        0
176
     0
290
     0
176
     0
290
     1
176
     0
290
     1
176
     0
290
     0
176
     0
290
     0
176
     0
290
     0
176
     0
290
     0
176
     0
290
     0
176
     0
290
     0
176
     0
 90
       50
176
     0
 40
0.0
176
     0
 40
1.0
176
     0
 90
        0
176
     0
 62
    18
420
        0
176
     0
 90
       50
176
     0
 90
        3
176
     0
 62
     5
420
      255
176
     0
290
     0
176
     0
 90
       50
176
     0
 90
       50
176
     0
 90
       50
176
     0
290
     0
176
     0
 90
       50
176
     0
 62
   256
176
     0
 40
1.0
176
     0
 90
        2
176
     0
  1
strokes_ogs.tif
176
     0
290
     0
176
     0
 40
1.0
176
     0
 40
1.0
176
     0
  0
VISUALSTYLE
  5
44C
102
{ACAD_REACTORS
330
43D
102
}
330
43D
100
AcDbVisualStyle
  2
Facepattern
 70
    15
177
     3
291
     1
 70
    58
 90
        2
176
     1
 90
        2
176
     1
 90
        0
176
     1
 90
        0
176
     1
 40
0.6
176
     1
 40
30.0
176
     1
 62
     7
420
 16777215
176
     1
 90
        1
176
     1
 90
        4
176
     1
 62
     7
176
     1
 62
   257
176
     1
 90
        1
176
     1
 90
        1
176
     1
 40
1.0
176
     1
 90
        8
176
     1
 62
     7
176
     1
 40
1.0
176
     1
 90
        1
176
     1
 90
        6
176
     1
 90
        2
176
     1
 62
     7
176
     1
 90
        5
176
     1
 90
        0
176
     1
 90
        0
176
     1
290
     0
176
     1
 90
        1
176
     1
 40
0.0
176
     1
 90
        0
176
     1
290
     0
176
     1
290
     1
176
     1
290
     1
176
     1
290
     0
176
     1
290
     0
176
     1
290
     0
176
     1
290
     0
176
     1
290
     0
176
     1
290
     0
176
     1
 90
       50
176
     1
 40
0.0
176
     1
 40
1.0
176
     1
 90
        0
176
     1
 62
    18
420
        0
176
     1
 90
       50
176
     1
 90
        3
176
     1
 62
     5
420
      255
176
     1
290
     0
176
     1
 90
       50
176
     1
 90
       50
176
     1
 90
       50
176
     1
290
     0
176
     1
 90
       50
176
     1
 62
   256
176
     0
 40
1.0
176
     0
 90
        2
176
     1
  1
strokes_ogs.tif
176
     1
290
     0
176
     1
 40
1.0
176
     1
 40
1.0
176
     1
  0
VISUALSTYLE
  5
43E
102
{ACAD_REACTORS
330
43D
102
}
330
43D
100
AcDbVisualStyle
  2
Flat
 70
     0
177
     3
291
     1
 70
    58
 90
        2
176
     1
 90
        1
176
     1
 90
        1
176
     1
 90
        2
176
     1
 40
0.6
176
     1
 40
30.0
176
     1
 62
     7
420
 16777215
176
     1
 90
        0
176
     1
 90
        0
176
     1
 62
     7
176
     1
 62
   257
176
     1
 90
        1
176
     1
 90
        1
176
     1
 40
1.0
176
     1
 90
        8
176
     1
 62
     7
176
     1
 40
1.0
176
     1
 90
        1
176
     1
 90
        6
176
     1
 90
        2
176
     1
 62
     7
176
     1
 90
        5
176
     1
 90
        0
176
     1
 90
        0
176
     1
290
     0
176
     1
 90
       13
176
     1
 40
0.0
176
     1
 90
        0
176
     1
290
     0
176
     1
290
     1
176
     1
290
     1
176
     1
290
     0
176
     1
290
     0
176
     1
290
     0
176
     1
290
     0
176
     1
290
     0
176
     1
290
     0
176
     1
 90
       50
176
     1
 40
0.0
176
     1
 40
1.0
176
     1
 90
        0
176
     1
 62
    18
420
        0
176
     1
 90
       50
176
     1
 90
        3
176
     1
 62
     5
420
      255
176
     1
290
     0
176
     1
 90
       50
176
     1
 90
       50
176
     1
 90
       50
176
     1
290
     0
176
     1
 90
       50
176
     1
 62
   256
176
     0
 40
1.0
176
     0
 90
        2
176
     1
  1
strokes_ogs.tif
176
     1
290
     0
176
     1
 40
1.0
176
     1
 40
1.0
176
     1
  0
VISUALSTYLE
  5
43F
102
{ACAD_REACTORS
330
43D
102
}
330
43D
100
AcDbVisualStyle
  2
FlatWithEdges
 70
     1
177
     3
291
     1
 70
    58
 90
        2
176
     1
 90
        1
176
     1
 90
        1
176
     1
 90
        2
176
     1
 40
0.6
176
     1
 40
30.0
176
     1
 62
     7
420
 16777215
176
     1
 90
        1
176
     1
 90
        0
176
     1
 62
     7
176
     1
 62
   257
176
     1
 90
        1
176
     1
 90
        1
176
     1
 40
1.0
176
     1
 90
        0
176
     1
 62
   257
176
     1
 40
1.0
176
     1
 90
        1
176
     1
 90
        6
176
     1
 90
        2
176
     1
 62
     7
176
     1
 90
        5
176
     1
 90
        0
176
     1
 90
        0
176
     1
290
     0
176
     1
 90
       13
176
     1
 40
0.0
176
     1
 90
        0
176
     1
290
     0
176
     1
290
     1
176
     1
290
     1
176
     1
290
     0
176
     1
290
     0
176
     1
290
     0
176
     1
290
     0
176
     1
290
     0
176
     1
290
     0
176
     1
 90
       50
176
     1
 40
0.0
176
     1
 40
1.0
176
     1
 90
        0
176
     1
 62
    18
420
        0
176
     1
 90
       50
176
     1
 90
        3
176
     1
 62
     5
420
      255
176
     1
290
     0
176
     1
 90
       50
176
     1
 90
       50
176
     1
 90
       50
176
     1
290
     0
176
     1
 90
       50
176
     1
 62
   256
176
     0
 40
1.0
176
     0
 90
        2
176
     1
  1
strokes_ogs.tif
176
     1
290
     0
176
     1
 40
1.0
176
     1
 40
1.0
176
     1
  0
VISUALSTYLE
  5
440
102
{ACAD_REACTORS
330
43D
102
}
330
43D
100
AcDbVisualStyle
  2
Gouraud
 70
     2
177
     3
291
     1
 70
    58
 90
        2
176
     1
 90
        2
176
     1
 90
        1
176
     1
 90
        2
176
     1
 40
0.6
176
     1
 40
30.0
176
     1
 62
     7
420
 16777215
176
     1
 90
        0
176
     1
 90
        0
176
     1
 62
     7
176
     1
 62
   257
176
     1
 90
        1
176
     1
 90
        1
176
     1
 40
1.0
176
     1
 90
        0
176
     1
 62
     7
176
     1
 40
1.0
176
     1
 90
        1
176
     1
 90
        6
176
     1
 90
        2
176
     1
 62
     7
176
     1
 90
        5
176
     1
 90
        0
176
     1
 90
        0
176
     1
290
     0
176
     1
 90
       13
176
     1
 40
0.0
176
     1
 90
        0
176
     1
290
     0
176
     1
290
     1
176
     1
290
     1
176
     1
290
     0
176
     1
290
     0
176
     1
290
     0
176
     1
290
     0
176
     1
290
     0
176
     1
290
     0
176
     1
 90
       50
176
     1
 40
0.0
176
     1
 40
1.0
176
     1
 90
        0
176
     1
 62
    18
420
        0
176
     1
 90
       50
176
     1
 90
        3
176
     1
 62
     5
420
      255
176
     1
290
     0
176
     1
 90
       50
176
     1
 90
       50
176
     1
 90
       50
176
     1
290
     0
176
     1
 90
       50
176
     1
 62
   256
176
     0
 40
1.0
176
     0
 90
        2
176
     1
  1
strokes_ogs.tif
176
     1
290
     0
176
     1
 40
1.0
176
     1
 40
1.0
176
     1
  0
VISUALSTYLE
  5
441
102
{ACAD_REACTORS
330
43D
102
}
330
43D
100
AcDbVisualStyle
  2
GouraudWithEdges
 70
     3
177
     3
291
     1
 70
    58
 90
        2
176
     1
 90
        2
176
     1
 90
        1
176
     1
 90
        2
176
     1
 40
0.6
176
     1
 40
30.0
176
     1
 62
     7
420
 16777215
176
     1
 90
        1
176
     1
 90
        0
176
     1
 62
     7
176
     1
 62
   257
176
     1
 90
        1
176
     1
 90
        1
176
     1
 40
1.0
176
     1
 90
        0
176
     1
 62
   257
176
     1
 40
1.0
176
     1
 90
        1
176
     1
 90
        6
176
     1
 90
        2
176
     1
 62
     7
176
     1
 90
        5
176
     1
 90
        0
176
     1
 90
        0
176
     1
290
     0
176
     1
 90
       13
176
     1
 40
0.0
176
     1
 90
        0
176
     1
290
     0
176
     1
290
     1
176
     1
290
     1
176
     1
290
     0
176
     1
290
     0
176
     1
290
     0
176
     1
290
     0
176
     1
290
     0
176
     1
290
     0
176
     1
 90
       50
176
     1
 40
0.0
176
     1
 40
1.0
176
     1
 90
        0
176
     1
 62
    18
420
        0
176
     1
 90
       50
176
     1
 90
        3
176
     1
 62
     5
420
      255
176
     1
290
     0
176
     1
 90
       50
176
     1
 90
       50
176
     1
 90
       50
176
     1
290
     0
176
     1
 90
       50
176
     1
 62
   256
176
     0
 40
1.0
176
     0
 90
        2
176
     1
  1
strokes_ogs.tif
176
     1
290
     0
176
     1
 40
1.0
176
     1
 40
1.0
176
     1
  0
VISUALSTYLE
  5
444
102
{ACAD_REACTORS
330
43D
102
}
330
43D
100
AcDbVisualStyle
  2
Hidden
 70
     6
177
     3
291
     0
 70
    58
 90
        1
176
     1
 90
        2
176
     1
 90
        2
176
     1
 90
        0
176
     1
 40
0.6
176
     1
 40
30.0
176
     1
 62
     7
420
 16777215
176
     1
 90
        2
176
     1
 90
        2
176
     1
 62
     7
176
     1
 62
   257
176
     1
 90
        2
176
     1
 90
        1
176
     1
 40
40.0
176
     1
 90
        0
176
     1
 62
   257
176
     1
 40
1.0
176
     1
 90
        1
176
     1
 90
        6
176
     1
 90
        2
176
     1
 62
     7
176
     1
 90
        3
176
     1
 90
        0
176
     1
 90
        0
176
     1
290
     0
176
     1
 90
        1
176
     1
 40
0.0
176
     1
 90
        0
176
     1
290
     0
176
     1
290
     1
176
     1
290
     1
176
     1
290
     0
176
     1
290
     0
176
     1
290
     0
176
     1
290
     0
176
     1
290
     0
176
     1
290
     0
176
     1
 90
       50
176
     1
 40
0.0
176
     1
 40
1.0
176
     1
 90
        0
176
     1
 62
    18
420
        0
176
     1
 90
       50
176
     1
 90
        3
176
     1
 62
     5
420
      255
176
     1
290
     0
176
     1
 90
       50
176
     1
 90
       50
176
     1
 90
       50
176
     1
290
     0
176
     1
 90
       50
176
     1
 62
   256
176
     0
 40
1.0
176
     0
 90
        2
176
     1
  1
strokes_ogs.tif
176
     1
290
     0
176
     1
 40
1.0
176
     1
 40
1.0
176
     1
  0
VISUALSTYLE
  5
44E
102
{ACAD_REACTORS
330
43D
102
}
330
43D
100
AcDbVisualStyle
  2
JitterOff
 70
    20
177
     3
291
     1
 70
    58
 90
        2
176
     0
 90
        2
176
     0
 90
        0
176
     0
 90
        0
176
     0
 40
0.6
176
     0
 40
30.0
176
     0
 62
     7
420
 16777215
176
     0
 90
        1
176
     0
 90
        4
176
     0
 62
     7
176
     0
 62
   257
176
     0
 90
        1
176
     0
 90
        1
176
     0
 40
1.0
176
     0
 90
       10
176
     2
 62
     7
176
     0
 40
1.0
176
     0
 90
        1
176
     0
 90
        6
176
     0
 90
        2
176
     0
 62
     7
176
     0
 90
        5
176
     0
 90
        0
176
     0
 90
        0
176
     0
290
     0
176
     0
 90
        1
176
     0
 40
0.0
176
     0
 90
        0
176
     0
290
     0
176
     0
290
     1
176
     0
290
     1
176
     0
290
     0
176
     0
290
     0
176
     0
290
     0
176
     0
290
     0
176
     0
290
     0
176
     0
290
     0
176
     0
 90
       50
176
     0
 40
0.0
176
     0
 40
1.0
176
     0
 90
        0
176
     0
 62
    18
420
        0
176
     0
 90
       50
176
     0
 90
        3
176
     0
 62
     5
420
      255
176
     0
290
     0
176
     0
 90
       50
176
     0
 90
       50
176
     0
 90
       50
176
     0
290
     0
176
     0
 90
       50
176
     0
 62
   256
176
     0
 40
1.0
176
     0
 90
        2
176
     0
  1
strokes_ogs.tif
176
     0
290
     0
176
     0
 40
1.0
176
     0
 40
1.0
176
     0
  0
VISUALSTYLE
  5
44B
102
{ACAD_REACTORS
330
43D
102
}
330
43D
100
AcDbVisualStyle
  2
Linepattern
 70
    14
177
     3
291
     1
 70
    58
 90
        2
176
     1
 90
        2
176
     1
 90
        0
176
     1
 90
        0
176
     1
 40
0.6
176
     1
 40
30.0
176
     1
 62
     7
420
 16777215
176
     1
 90
        1
176
     1
 90
        4
176
     1
 62
     7
176
     1
 62
   257
176
     1
 90
        7
176
     1
 90
        7
176
     1
 40
1.0
176
     1
 90
        8
176
     1
 62
     7
176
     1
 40
1.0
176
     1
 90
        1
176
     1
 90
        6
176
     1
 90
        2
176
     1
 62
     7
176
     1
 90
        5
176
     1
 90
        0
176
     1
 90
        0
176
     1
290
     0
176
     1
 90
        1
176
     1
 40
0.0
176
     1
 90
        0
176
     1
290
     0
176
     1
290
     1
176
     1
290
     1
176
     1
290
     0
176
     1
290
     0
176
     1
290
     0
176
     1
290
     0
176
     1
290
     0
176
     1
290
     0
176
     1
 90
       50
176
     1
 40
0.0
176
     1
 40
1.0
176
     1
 90
        0
176
     1
 62
    18
420
        0
176
     1
 90
       50
176
     1
 90
        3
176
     1
 62
     5
420
      255
176
     1
290
     0
176
     1
 90
       50
176
     1
 90
       50
176
     1
 90
       50
176
     1
290
     0
176
     1
 90
       50
176
     1
 62
   256
176
     0
 40
1.0
176
     0
 90
        2
176
     1
  1
strokes_ogs.tif
176
     1
290
     0
176
     1
 40
1.0
176
     1
 40
1.0
176
     1
  0
VISUALSTYLE
  5
44F
102
{ACAD_REACTORS
330
43D
102
}
330
43D
100
AcDbVisualStyle
  2
OverhangOff
 70
    21
177
     3
291
     1
 70
    58
 90
        2
176
     0
 90
        2
176
     0
 90
        0
176
     0
 90
        0
176
     0
 40
0.6
176
     0
 40
30.0
176
     0
 62
     7
420
 16777215
176
     0
 90
        1
176
     0
 90
        4
176
     0
 62
     7
176
     0
 62
   257
176
     0
 90
        1
176
     0
 90
        1
176
     0
 40
1.0
176
     0
 90
        9
176
     2
 62
     7
176
     0
 40
1.0
176
     0
 90
        1
176
     0
 90
        6
176
     0
 90
        2
176
     0
 62
     7
176
     0
 90
        5
176
     0
 90
        0
176
     0
 90
        0
176
     0
290
     0
176
     0
 90
        1
176
     0
 40
0.0
176
     0
 90
        0
176
     0
290
     0
176
     0
290
     1
176
     0
290
     1
176
     0
290
     0
176
     0
290
     0
176
     0
290
     0
176
     0
290
     0
176
     0
290
     0
176
     0
290
     0
176
     0
 90
       50
176
     0
 40
0.0
176
     0
 40
1.0
176
     0
 90
        0
176
     0
 62
    18
420
        0
176
     0
 90
       50
176
     0
 90
        3
176
     0
 62
     5
420
      255
176
     0
290
     0
176
     0
 90
       50
176
     0
 90
       50
176
     0
 90
       50
176
     0
290
     0
176
     0
 90
       50
176
     0
 62
   256
176
     0
 40
1.0
176
     0
 90
        2
176
     0
  1
strokes_ogs.tif
176
     0
290
     0
176
     0
 40
1.0
176
     0
 40
1.0
176
     0
  0
VISUALSTYLE
  5
446
102
{ACAD_REACTORS
330
43D
102
}
330
43D
100
AcDbVisualStyle
  2
Realistic
 70
     8
177
     3
291
     0
 70
    58
 90
        2
176
     1
 90
        3
176
     1
 90
        0
176
     1
 90
        2
176
     1
 40
0.6
176
     1
 40
30.0
176
     1
 62
     7
420
 16777215
176
     1
 90
        0
176
     1
 90
        0
176
     1
 62
     7
176
     1
 62
   257
176
     1
 90
        1
176
     1
 90
        1
176
     1
 40
1.0
176
     1
 90
        8
176
     1
 62
   257
176
     1
 40
1.0
176
     1
 90
        1
176
     1
 90
        6
176
     1
 90
        2
176
     1
 62
     7
176
     1
 90
        3
176
     1
 90
        0
176
     1
 90
        0
176
     1
290
     0
176
     1
 90
       13
176
     1
 40
0.0
176
     1
 90
        0
176
     1
290
     0
176
     1
290
     1
176
     1
290
     1
176
     1
290
     0
176
     1
290
     0
176
     1
290
     0
176
     1
290
     0
176
     1
290
     0
176
     1
290
     0
176
     1
 90
       50
176
     1
 40
0.0
176
     1
 40
1.0
176
     1
 90
        0
176
     1
 62
    18
420
        0
176
     1
 90
       50
176
     1
 90
        3
176
     1
 62
     5
420
      255
176
     1
290
     0
176
     1
 90
       50
176
     1
 90
       50
176
     1
 90
       50
176
     1
290
     0
176
     1
 90
       50
176
     1
 62
   256
176
     0
 40
1.0
176
     0
 90
        2
176
     1
  1
strokes_ogs.tif
176
     1
290
     0
176
     1
 40
1.0
176
     1
 40
1.0
176
     1
  0
VISUALSTYLE
  5
455
102
{ACAD_REACTORS
330
43D
102
}
330
43D
100
AcDbVisualStyle
  2
Shaded
 70
    27
177
     3
291
     0
 70
    58
 90
        2
176
     1
 90
        2
176
     1
 90
        1
176
     1
 90
        2
176
     1
 40
0.6
176
     1
 40
30.0
176
     1
 62
     7
420
 16777215
176
     1
 90
        0
176
     1
 90
        4
176
     1
 62
     7
176
     1
 62
   257
176
     1
 90
        1
176
     1
 90
        1
176
     1
 40
1.0
176
     1
 90
        8
176
     1
 62
   257
176
     1
 40
1.0
176
     1
 90
        1
176
     1
 90
        6
176
     1
 90
        2
176
     1
 62
     8
420
  7895160
176
     1
 90
        3
176
     1
 90
        0
176
     1
 90
        0
176
     1
290
     0
176
     1
 90
        5
176
     1
 40
0.0
176
     1
 90
        0
176
     1
290
     0
176
     1
290
     1
176
     1
290
     1
176
     1
290
     0
176
     1
290
     0
176
     1
290
     0
176
     1
290
     0
176
     1
290
     0
176
     1
290
     0
176
     1
 90
       50
176
     1
 40
0.0
176
     1
 40
1.0
176
     1
 90
        0
176
     1
 62
    18
420
        0
176
     1
 90
       50
176
     1
 90
        3
176
     1
 62
     5
420
      255
176
     1
290
     0
176
     1
 90
       50
176
     1
 90
       50
176
     1
 90
       50
176
     1
290
     0
176
     1
 90
       50
176
     1
 62
   256
176
     0
 40
1.0
176
     0
 90
        2
176
     1
  1
strokes_ogs.tif
176
     1
290
     0
176
     1
 40
1.0
176
     1
 40
1.0
176
     1
  0
VISUALSTYLE
  5
454
102
{ACAD_REACTORS
330
43D
102
}
330
43D
100
AcDbVisualStyle
  2
Shaded with edges
 70
    26
177
     3
291
     0
 70
    58
 90
        2
176
     1
 90
        2
176
     1
 90
        1
176
     1
 90
        2
176
     1
 40
0.6
176
     1
 40
30.0
176
     1
 62
     7
420
 16777215
176
     1
 90
        1
176
     1
 90
       10
176
     1
 62
     7
176
     1
 62
   257
176
     1
 90
        2
176
     1
 90
        1
176
     1
 40
1.0
176
     1
 90
        8
176
     1
 62
   257
176
     1
 40
1.0
176
     1
 90
        1
176
     1
 90
        6
176
     1
 90
        2
176
     1
 62
     7
176
     1
 90
        3
176
     1
 90
        0
176
     1
 90
        0
176
     1
290
     0
176
     1
 90
        5
176
     1
 40
0.0
176
     1
 90
        0
176
     1
290
     0
176
     1
290
     1
176
     1
290
     1
176
     1
290
     0
176
     1
290
     0
176
     1
290
     0
176
     1
290
     0
176
     1
290
     0
176
     1
290
     0
176
     1
 90
       50
176
     1
 40
0.0
176
     1
 40
1.0
176
     1
 90
        0
176
     1
 62
    18
420
        0
176
     1
 90
       50
176
     1
 90
        3
176
     1
 62
     5
420
      255
176
     1
290
     0
176
     1
 90
       50
176
     1
 90
       50
176
     1
 90
       50
176
     1
290
     0
176
     1
 90
       50
176
     1
 62
   256
176
     0
 40
1.0
176
     0
 90
        2
176
     1
  1
strokes_ogs.tif
176
     1
290
     0
176
     1
 40
1.0
176
     1
 40
1.0
176
     1
  0
VISUALSTYLE
  5
451
102
{ACAD_REACTORS
330
43D
102
}
330
43D
100
AcDbVisualStyle
  2
Shades of Gray
 70
    23
177
     3
291
     0
 70
    58
 90
        2
176
     1
 90
        2
176
     1
 90
        3
176
     1
 90
        0
176
     1
 40
0.6
176
     1
 40
30.0
176
     1
 62
     7
420
 16777215
176
     1
 90
        2
176
     1
 90
        2
176
     1
 62
     7
176
     1
 62
     7
176
     1
 90
        1
176
     1
 90
        1
176
     1
 40
40.0
176
     1
 90
        8
176
     1
 62
     7
176
     1
 40
1.0
176
     1
 90
        1
176
     1
 90
        6
176
     1
 90
        2
176
     1
 62
     7
176
     1
 90
        3
176
     1
 90
        0
176
     1
 90
        0
176
     1
290
     0
176
     1
 90
        1
176
     1
 40
0.0
176
     1
 90
        0
176
     1
290
     0
176
     1
290
     1
176
     1
290
     1
176
     1
290
     0
176
     1
290
     0
176
     1
290
     0
176
     1
290
     0
176
     1
290
     0
176
     1
290
     0
176
     1
 90
       50
176
     1
 40
0.0
176
     1
 40
1.0
176
     1
 90
        0
176
     1
 62
    18
420
        0
176
     1
 90
       50
176
     1
 90
        3
176
     1
 62
     5
420
      255
176
     1
290
     0
176
     1
 90
       50
176
     1
 90
       50
176
     1
 90
       50
176
     1
290
     0
176
     1
 90
       50
176
     1
 62
   256
176
     0
 40
1.0
176
     0
 90
        2
176
     1
  1
strokes_ogs.tif
176
     1
290
     0
176
     1
 40
1.0
176
     1
 40
1.0
176
     1
  0
VISUALSTYLE
  5
452
102
{ACAD_REACTORS
330
43D
102
}
330
43D
100
AcDbVisualStyle
  2
Sketchy
 70
    24
177
     3
291
     0
 70
    58
 90
        1
176
     1
 90
        2
176
     1
 90
        2
176
     1
 90
        0
176
     1
 40
0.6
176
     1
 40
30.0
176
     1
 62
     7
420
 16777215
176
     1
 90
        2
176
     1
 90
        2
176
     1
 62
     7
176
     1
 62
     7
176
     1
 90
        1
176
     1
 90
        1
176
     1
 40
40.0
176
     1
 90
       11
176
     1
 62
     7
176
     1
 40
1.0
176
     1
 90
        1
176
     1
 90
        6
176
     1
 90
        2
176
     1
 62
     7
176
     1
 90
        6
176
     1
 90
        0
176
     1
 90
        0
176
     1
290
     0
176
     1
 90
        1
176
     1
 40
0.0
176
     1
 90
        0
176
     1
290
     0
176
     1
290
     1
176
     1
290
     1
176
     1
290
     0
176
     1
290
     0
176
     1
290
     0
176
     1
290
     0
176
     1
290
     0
176
     1
290
     0
176
     1
 90
       50
176
     1
 40
0.0
176
     1
 40
1.0
176
     1
 90
        0
176
     1
 62
    18
420
        0
176
     1
 90
       50
176
     1
 90
        3
176
     1
 62
     5
420
      255
176
     1
290
     0
176
     1
 90
       50
176
     1
 90
       50
176
     1
 90
       50
176
     1
290
     0
176
     1
 90
       50
176
     1
 62
   256
176
     0
 40
1.0
176
     0
 90
        2
176
     1
  1
strokes_ogs.tif
176
     1
290
     0
176
     1
 40
1.0
176
     1
 40
1.0
176
     1
  0
VISUALSTYLE
  5
44A
102
{ACAD_REACTORS
330
43D
102
}
330
43D
100
AcDbVisualStyle
  2
Thicken
 70
    13
177
     3
291
     1
 70
    58
 90
        2
176
     1
 90
        2
176
     1
 90
        0
176
     1
 90
        0
176
     1
 40
0.6
176
     1
 40
30.0
176
     1
 62
     7
420
 16777215
176
     1
 90
        1
176
     1
 90
        4
176
     1
 62
     7
176
     1
 62
   257
176
     1
 90
        1
176
     1
 90
        1
176
     1
 40
1.0
176
     1
 90
       12
176
     1
 62
     7
176
     1
 40
1.0
176
     1
 90
        1
176
     1
 90
        6
176
     1
 90
        2
176
     1
 62
     7
176
     1
 90
        5
176
     1
 90
        0
176
     1
 90
        0
176
     1
290
     0
176
     1
 90
        1
176
     1
 40
0.0
176
     1
 90
        0
176
     1
290
     0
176
     1
290
     1
176
     1
290
     1
176
     1
290
     0
176
     1
290
     0
176
     1
290
     0
176
     1
290
     0
176
     1
290
     0
176
     1
290
     0
176
     1
 90
       50
176
     1
 40
0.0
176
     1
 40
1.0
176
     1
 90
        0
176
     1
 62
    18
420
        0
176
     1
 90
       50
176
     1
 90
        3
176
     1
 62
     5
420
      255
176
     1
290
     0
176
     1
 90
       50
176
     1
 90
       50
176
     1
 90
       50
176
     1
290
     0
176
     1
 90
       50
176
     1
 62
   256
176
     0
 40
1.0
176
     0
 90
        2
176
     1
  1
strokes_ogs.tif
176
     1
290
     0
176
     1
 40
1.0
176
     1
 40
1.0
176
     1
  0
VISUALSTYLE
  5
443
102
{ACAD_REACTORS
330
43D
102
}
330
43D
100
AcDbVisualStyle
  2
Wireframe
 70
     5
177
     3
291
     0
 70
    58
 90
        0
176
     1
 90
        2
176
     1
 90
        0
176
     1
 90
        0
176
     1
 40
0.6
176
     1
 40
30.0
176
     1
 62
     7
420
 16777215
176
     1
 90
        1
176
     1
 90
        4
176
     1
 62
     7
176
     1
 62
   257
176
     1
 90
        1
176
     1
 90
        1
176
     1
 40
1.0
176
     1
 90
        0
176
     1
 62
   257
176
     1
 40
1.0
176
     1
 90
        1
176
     1
 90
        6
176
     1
 90
        2
176
     1
 62
     7
176
     1
 90
        3
176
     1
 90
        0
176
     1
 90
        0
176
     1
290
     0
176
     1
 90
        1
176
     1
 40
0.0
176
     1
 90
        0
176
     1
290
     0
176
     1
290
     1
176
     1
290
     1
176
     1
290
     0
176
     1
290
     0
176
     1
290
     0
176
     1
290
     0
176
     1
290
     0
176
     1
290
     0
176
     1
 90
       50
176
     1
 40
0.0
176
     1
 40
1.0
176
     1
 90
        0
176
     1
 62
    18
420
        0
176
     1
 90
       50
176
     1
 90
        3
176
     1
 62
     5
420
      255
176
     1
290
     0
176
     1
 90
       50
176
     1
 90
       50
176
     1
 90
       50
176
     1
290
     0
176
     1
 90
       50
176
     1
 62
   256
176
     0
 40
1.0
176
     0
 90
        2
176
     1
  1
strokes_ogs.tif
176
     1
290
     0
176
     1
 40
1.0
176
     1
 40
1.0
176
     1
  0
VISUALSTYLE
  5
453
102
{ACAD_REACTORS
330
43D
102
}
330
43D
100
AcDbVisualStyle
  2
X-Ray
 70
    25
177
     3
291
     0
 70
    58
 90
        2
176
     1
 90
        2
176
     1
 90
        1
176
     1
 90
        1
176
     1
 40
0.5
176
     1
 40
30.0
176
     1
 62
     7
420
 16777215
176
     1
 90
        1
176
     1
 90
        0
176
     1
 62
     7
176
     1
 62
   257
176
     1
 90
        1
176
     1
 90
        1
176
     1
 40
1.0
176
     1
 90
        8
176
     1
 62
     7
176
     1
 40
1.0
176
     1
 90
        1
176
     1
 90
        6
176
     1
 90
        2
176
     1
 62
     7
176
     1
 90
        3
176
     1
 90
        0
176
     1
 90
        0
176
     1
290
     0
176
     1
 90
       13
176
     1
 40
0.0
176
     1
 90
        0
176
     1
290
     0
176
     1
290
     1
176
     1
290
     1
176
     1
290
     0
176
     1
290
     0
176
     1
290
     0
176
     1
290
     0
176
     1
290
     0
176
     1
290
     0
176
     1
 90
       50
176
     1
 40
0.0
176
     1
 40
1.0
176
     1
 90
        0
176
     1
 62
    18
420
        0
176
     1
 90
       50
176
     1
 90
        3
176
     1
 62
     5
420
      255
176
     1
290
     0
176
     1
 90
       50
176
     1
 90
       50
176
     1
 90
       50
176
     1
290
     0
176
     1
 90
       50
176
     1
 62
   256
176
     0
 40
1.0
176
     0
 90
        2
176
     1
  1
strokes_ogs.tif
176
     1
290
     0
176
     1
 40
1.0
176
     1
 40
1.0
176
     1
  0
DICTIONARYVAR
  5
460
102
{ACAD_REACTORS
330
45F
102
}
330
45F
100
DictionaryVariables
280
     0
  1
1:1
  0
DICTIONARYVAR
  5
465
102
{ACAD_REACTORS
330
45F
102
}
330
45F
100
DictionaryVariables
280
     0
  1
Standard
  0
DICTIONARYVAR
  5
464
102
{ACAD_REACTORS
330
45F
102
}
330
45F
100
DictionaryVariables
280
     0
  1
Standard
  0
DICTIONARYVAR
  5
466
102
{ACAD_REACTORS
330
45F
102
}
330
45F
100
DictionaryVariables
280
     0
  1
0
  0
DICTIONARY
  5
461
330
45B
100
AcDbDictionary
280
     1
281
     1
  3
ACAD_ROUNDTRIP_2008_TABLESTYLE_CELLSTYLEMAP
360
462
  0
CELLSTYLEMAP
  5
462
102
{ACAD_REACTORS
330
461
102
}
330
461
100
AcDbCellStyleMap
 90
        3
300
CELLSTYLE
  1
TABLEFORMAT_BEGIN
 90
        5
170
     1
 91
        0
 92
    32768
 62
   257
 93
        1
300
CONTENTFORMAT
  1
CONTENTFORMAT_BEGIN
 90
        0
 91
        0
 92
        4
 93
        0
300

 40
0.0
140
1.0
 94
        5
 62
     0
340
11
144
6.0
309
CONTENTFORMAT_END
171
     1
301
MARGIN
  1
CELLMARGIN_BEGIN
 40
1.5
 40
1.5
 40
1.5
 40
1.5
 40
1.5
 40
1.5
309
CELLMARGIN_END
 94
        6
 95
        1
302
GRIDFORMAT
  1
GRIDFORMAT_BEGIN
 90
        0
 91
        1
 62
     0
 92
       -2
340
14
 93
        0
 40
0.045
309
GRIDFORMAT_END
 95
        2
302
GRIDFORMAT
  1
GRIDFORMAT_BEGIN
 90
        0
 91
        1
 62
     0
 92
       -2
340
14
 93
        0
 40
0.045
309
GRIDFORMAT_END
 95
        4
302
GRIDFORMAT
  1
GRIDFORMAT_BEGIN
 90
        0
 91
        1
 62
     0
 92
       -2
340
14
 93
        0
 40
0.045
309
GRIDFORMAT_END
 95
        8
302
GRIDFORMAT
  1
GRIDFORMAT_BEGIN
 90
        0
 91
        1
 62
     0
 92
       -2
340
14
 93
        0
 40
0.045
309
GRIDFORMAT_END
 95
       16
302
GRIDFORMAT
  1
GRIDFORMAT_BEGIN
 90
        0
 91
        1
 62
     0
 92
       -2
340
14
 93
        0
 40
0.045
309
GRIDFORMAT_END
 95
       32
302
GRIDFORMAT
  1
GRIDFORMAT_BEGIN
 90
        0
 91
        1
 62
     0
 92
       -2
340
14
 93
        0
 40
0.045
309
GRIDFORMAT_END
309
TABLEFORMAT_END
  1
CELLSTYLE_BEGIN
 90
        1
 91
        1
300
_TITLE
309
CELLSTYLE_END
300
CELLSTYLE
  1
TABLEFORMAT_BEGIN
 90
        5
170
     1
 91
        0
 92
        0
 62
   257
 93
        1
300
CONTENTFORMAT
  1
CONTENTFORMAT_BEGIN
 90
        0
 91
        0
 92
        4
 93
        0
300

 40
0.0
140
1.0
 94
        5
 62
     0
340
11
144
4.5
309
CONTENTFORMAT_END
171
     1
301
MARGIN
  1
CELLMARGIN_BEGIN
 40
1.5
 40
1.5
 40
1.5
 40
1.5
 40
1.5
 40
1.5
309
CELLMARGIN_END
 94
        6
 95
        1
302
GRIDFORMAT
  1
GRIDFORMAT_BEGIN
 90
        0
 91
        1
 62
     0
 92
       -2
340
14
 93
        0
 40
0.045
309
GRIDFORMAT_END
 95
        2
302
GRIDFORMAT
  1
GRIDFORMAT_BEGIN
 90
        0
 91
        1
 62
     0
 92
       -2
340
14
 93
        0
 40
0.045
309
GRIDFORMAT_END
 95
        4
302
GRIDFORMAT
  1
GRIDFORMAT_BEGIN
 90
        0
 91
        1
 62
     0
 92
       -2
340
14
 93
        0
 40
0.045
309
GRIDFORMAT_END
 95
        8
302
GRIDFORMAT
  1
GRIDFORMAT_BEGIN
 90
        0
 91
        1
 62
     0
 92
       -2
340
14
 93
        0
 40
0.045
309
GRIDFORMAT_END
 95
       16
302
GRIDFORMAT
  1
GRIDFORMAT_BEGIN
 90
        0
 91
        1
 62
     0
 92
       -2
340
14
 93
        0
 40
0.045
309
GRIDFORMAT_END
 95
       32
302
GRIDFORMAT
  1
GRIDFORMAT_BEGIN
 90
        0
 91
        1
 62
     0
 92
       -2
340
14
 93
        0
 40
0.045
309
GRIDFORMAT_END
309
TABLEFORMAT_END
  1
CELLSTYLE_BEGIN
 90
        2
 91
        1
300
_HEADER
309
CELLSTYLE_END
300
CELLSTYLE
  1
TABLEFORMAT_BEGIN
 90
        5
170
     1
 91
        0
 92
        0
 62
   257
 93
        1
300
CONTENTFORMAT
  1
CONTENTFORMAT_BEGIN
 90
        0
 91
        0
 92
        4
 93
        0
300

 40
0.0
140
1.0
 94
        2
 62
     0
340
11
144
4.5
309
CONTENTFORMAT_END
171
     1
301
MARGIN
  1
CELLMARGIN_BEGIN
 40
1.5
 40
1.5
 40
1.5
 40
1.5
 40
1.5
 40
1.5
309
CELLMARGIN_END
 94
        6
 95
        1
302
GRIDFORMAT
  1
GRIDFORMAT_BEGIN
 90
        0
 91
        1
 62
     0
 92
       -2
340
14
 93
        0
 40
0.045
309
GRIDFORMAT_END
 95
        2
302
GRIDFORMAT
  1
GRIDFORMAT_BEGIN
 90
        0
 91
        1
 62
     0
 92
       -2
340
14
 93
        0
 40
0.045
309
GRIDFORMAT_END
 95
        4
302
GRIDFORMAT
  1
GRIDFORMAT_BEGIN
 90
        0
 91
        1
 62
     0
 92
       -2
340
14
 93
        0
 40
0.045
309
GRIDFORMAT_END
 95
        8
302
GRIDFORMAT
  1
GRIDFORMAT_BEGIN
 90
        0
 91
        1
 62
     0
 92
       -2
340
14
 93
        0
 40
0.045
309
GRIDFORMAT_END
 95
       16
302
GRIDFORMAT
  1
GRIDFORMAT_BEGIN
 90
        0
 91
        1
 62
     0
 92
       -2
340
14
 93
        0
 40
0.045
309
GRIDFORMAT_END
 95
       32
302
GRIDFORMAT
  1
GRIDFORMAT_BEGIN
 90
        0
 91
        1
 62
     0
 92
       -2
340
14
 93
        0
 40
0.045
309
GRIDFORMAT_END
309
TABLEFORMAT_END
  1
CELLSTYLE_BEGIN
 90
        3
 91
        2
300
_DATA
309
CELLSTYLE_END
  0
ENDSEC
  0
EOF
