  0
SECTION
  2
HEADER
  9
$ACADVER
  1
AC1024
  9
$ACADMAINTVER
 70
     6
  9
$DWGCODEPAGE
  3
ANSI_1252
  9
$INSBASE
 10
0.0
 20
0.0
 30
0.0
  9
$EXTMIN
 10
0.0
 20
0.0
 30
0.0
  9
$EXTMAX
 10
2500.0
 20
3200.0
 30
0.0
  9
$LIMMIN
 10
0.0
 20
0.0
  9
$LIMMAX
 10
2500.0
 20
3200.0
  9
$ORTHOMODE
 70
     0
  9
$REGENMODE
 70
     1
  9
$FILLMODE
 70
     1
  9
$QTEXTMODE
 70
     0
  9
$MIRRTEXT
 70
     1
  9
$LTSCALE
 40
208.592593
  9
$ATTMODE
 70
     1
  9
$TEXTSIZE
 40
0.2
  9
$TRACEWID
 40
0.05
  9
$TEXTSTYLE
  7
STANDARD
  9
$CLAYER
  8
0
  9
$CELTYPE
  6
BYLAYER
  9
$CECOLOR
 62
   256
  9
$CELTSCALE
 40
1.0
  9
$DISPSILH
 70
     0
  9
$DIMSCALE
 40
1.0
  9
$DIMASZ
 40
2.5
  9
$DIMEXO
 40
0.75
  9
$DIMDLI
 40
144.118519
  9
$DIMRND
 40
0.0
  9
$DIMDLE
 40
0.0
  9
$DIMEXE
 40
0.75
  9
$DIMTP
 40
0.01
  9
$DIMTM
 40
0.01
  9
$DIMTXT
 40
3.0
  9
$DIMCEN
 40
34.133333
  9
$DIMTSZ
 40
0.0
  9
$DIMTOL
 70
     1
  9
$DIMLIM
 70
     0
  9
$DIMTIH
 70
     1
  9
$DIMTOH
 70
     1
  9
$DIMSE1
 70
     0
  9
$DIMSE2
 70
     0
  9
$DIMTAD
 70
     0
  9
$DIMZIN
 70
     0
  9
$DIMBLK
  1
CLOSED
  9
$DIMASO
 70
     1
  9
$DIMSHO
 70
     1
  9
$DIMPOST
  1

  9
$DIMAPOST
  1

  9
$DIMALT
 70
     0
  9
$DIMALTD
 70
     2
  9
$DIMALTF
 40
25.4
  9
$DIMLFAC
 40
1.0
  9
$DIMTOFL
 70
     0
  9
$DIMTVP
 40
0.0
  9
$DIMTIX
 70
     0
  9
$DIMSOXD
 70
     0
  9
$DIMSAH
 70
     0
  9
$DIMBLK1
  1

  9
$DIMBLK2
  1

  9
$DIMSTYLE
  2
STANDARD
  9
$DIMCLRD
 70
     0
  9
$DIMCLRE
 70
     0
  9
$DIMCLRT
 70
     0
  9
$DIMTFAC
 40
1.0
  9
$DIMGAP
 40
0.625
  9
$DIMJUST
 70
     0
  9
$DIMSD1
 70
     0
  9
$DIMSD2
 70
     0
  9
$DIMTOLJ
 70
     1
  9
$DIMTZIN
 70
     0
  9
$DIMALTZ
 70
     0
  9
$DIMALTTZ
 70
     0
  9
$DIMUPT
 70
     0
  9
$DIMDEC
 70
     4
  9
$DIMTDEC
 70
     4
  9
$DIMALTU
 70
     2
  9
$DIMALTTD
 70
     2
  9
$DIMTXSTY
  7
STANDARD
  9
$DIMAUNIT
 70
     0
  9
$DIMADEC
 70
     0
  9
$DIMALTRND
 40
0.0
  9
$DIMAZIN
 70
     0
  9
$DIMDSEP
 70
    44
  9
$DIMATFIT
 70
     3
  9
$DIMFRAC
 70
     0
  9
$DIMLDRBLK
  1

  9
$DIMLUNIT
 70
     2
  9
$DIMLWD
 70
    -2
  9
$DIMLWE
 70
    -2
  9
$DIMTMOVE
 70
     0
  9
$DIMFXL
 40
1.0
  9
$DIMFXLON
 70
     0
  9
$DIMJOGANG
 40
0.785398
  9
$DIMTFILL
 70
     0
  9
$DIMTFILLCLR
 70
     0
  9
$DIMARCSYM
 70
     0
  9
$DIMLTYPE
  6

  9
$DIMLTEX1
  6

  9
$DIMLTEX2
  6

  9
$DIMTXTDIRECTION
 70
     0
  9
$LUNITS
 70
     2
  9
$LUPREC
 70
     4
  9
$SKETCHINC
 40
0.1
  9
$FILLETRAD
 40
0.5
  9
$AUNITS
 70
     0
  9
$AUPREC
 70
     0
  9
$MENU
  1
.
  9
$ELEVATION
 40
0.0
  9
$PELEVATION
 40
0.0
  9
$THICKNESS
 40
0.0
  9
$LIMCHECK
 70
     0
  9
$CHAMFERA
 40
0.0
  9
$CHAMFERB
 40
0.0
  9
$CHAMFERC
 40
0.0
  9
$CHAMFERD
 40
0.0
  9
$SKPOLY
 70
     0
  9
$TDCREATE
 40
2447893.041666667
  9
$TDUCREATE
 40
0.0
  9
$TDUPDATE
 40
2459278.480941562
  9
$TDUUPDATE
 40
2459278.439274896
  9
$TDINDWG
 40
0.0
  9
$TDUSRTIMER
 40
0.0
  9
$USRTIMER
 70
     1
  9
$ANGBASE
 50
0.0
  9
$ANGDIR
 70
     0
  9
$PDMODE
 70
     3
  9
$PDSIZE
 40
0.3125
  9
$PLINEWID
 40
0.0
  9
$SPLFRAME
 70
     0
  9
$SPLINETYPE
 70
     6
  9
$SPLINESEGS
 70
     8
  9
$HANDSEED
  5
5ED
  9
$SURFTAB1
 70
     6
  9
$SURFTAB2
 70
     6
  9
$SURFTYPE
 70
     6
  9
$SURFU
 70
     6
  9
$SURFV
 70
     6
  9
$UCSBASE
  2

  9
$UCSNAME
  2

  9
$UCSORG
 10
0.0
 20
0.0
 30
0.0
  9
$UCSXDIR
 10
1.0
 20
0.0
 30
0.0
  9
$UCSYDIR
 10
0.0
 20
1.0
 30
0.0
  9
$UCSORTHOREF
  2

  9
$UCSORTHOVIEW
 70
     0
  9
$UCSORGTOP
 10
0.0
 20
0.0
 30
0.0
  9
$UCSORGBOTTOM
 10
0.0
 20
0.0
 30
0.0
  9
$UCSORGLEFT
 10
0.0
 20
0.0
 30
0.0
  9
$UCSORGRIGHT
 10
0.0
 20
0.0
 30
0.0
  9
$UCSORGFRONT
 10
0.0
 20
0.0
 30
0.0
  9
$UCSORGBACK
 10
0.0
 20
0.0
 30
0.0
  9
$PUCSBASE
  2

  9
$PUCSNAME
  2

  9
$PUCSORG
 10
0.0
 20
0.0
 30
0.0
  9
$PUCSXDIR
 10
1.0
 20
0.0
 30
0.0
  9
$PUCSYDIR
 10
0.0
 20
1.0
 30
0.0
  9
$PUCSORTHOREF
  2

  9
$PUCSORTHOVIEW
 70
     0
  9
$PUCSORGTOP
 10
0.0
 20
0.0
 30
0.0
  9
$PUCSORGBOTTOM
 10
0.0
 20
0.0
 30
0.0
  9
$PUCSORGLEFT
 10
0.0
 20
0.0
 30
0.0
  9
$PUCSORGRIGHT
 10
0.0
 20
0.0
 30
0.0
  9
$PUCSORGFRONT
 10
0.0
 20
0.0
 30
0.0
  9
$PUCSORGBACK
 10
0.0
 20
0.0
 30
0.0
  9
$USERI1
 70
     0
  9
$USERI2
 70
     0
  9
$USERI3
 70
     0
  9
$USERI4
 70
     0
  9
$USERI5
 70
     0
  9
$USERR1
 40
0.0
  9
$USERR2
 40
0.0
  9
$USERR3
 40
0.0
  9
$USERR4
 40
0.0
  9
$USERR5
 40
0.0
  9
$WORLDVIEW
 70
     1
  9
$SHADEDGE
 70
     3
  9
$SHADEDIF
 70
    70
  9
$TILEMODE
 70
     1
  9
$MAXACTVP
 70
    64
  9
$PINSBASE
 10
0.0
 20
0.0
 30
0.0
  9
$PLIMCHECK
 70
     0
  9
$PEXTMIN
 10
1.000000E+20
 20
1.000000E+20
 30
1.000000E+20
  9
$PEXTMAX
 10
-1.000000E+20
 20
-1.000000E+20
 30
-1.000000E+20
  9
$PLIMMIN
 10
0.0
 20
0.0
  9
$PLIMMAX
 10
12.0
 20
9.0
  9
$UNITMODE
 70
     0
  9
$VISRETAIN
 70
     1
  9
$PLINEGEN
 70
     0
  9
$PSLTSCALE
 70
     0
  9
$TREEDEPTH
 70
  3020
  9
$CMLSTYLE
  2

  9
$CMLJUST
 70
     0
  9
$CMLSCALE
 40
1.0
  9
$PROXYGRAPHICS
 70
     1
  9
$MEASUREMENT
 70
     1
  9
$CELWEIGHT
370
    -1
  9
$ENDCAPS
280
     0
  9
$JOINSTYLE
280
     0
  9
$LWDISPLAY
290
     0
  9
$INSUNITS
 70
     4
  9
$HYPERLINKBASE
  1

  9
$STYLESHEET
  1

  9
$XEDIT
290
     1
  9
$CEPSNTYPE
380
     0
  9
$PSTYLEMODE
290
     1
  9
$FINGERPRINTGUID
  2
{5BD864B0-5B99-4982-A215-8A20B5842FFC}
  9
$VERSIONGUID
  2
{FAEB1C32-E019-11D5-929B-00C0DF256EC4}
  9
$EXTNAMES
290
     1
  9
$PSVPSCALE
 40
0.0
  9
$OLESTARTUP
290
     0
  9
$SORTENTS
280
   127
  9
$INDEXCTL
280
     0
  9
$HIDETEXT
280
     1
  9
$XCLIPFRAME
280
     2
  9
$HALOGAP
280
     0
  9
$OBSCOLOR
 70
   257
  9
$OBSLTYPE
280
     0
  9
$INTERSECTIONDISPLAY
280
     0
  9
$INTERSECTIONCOLOR
 70
   257
  9
$DIMASSOC
280
     2
  9
$PROJECTNAME
  1

  9
$CAMERADISPLAY
290
     0
  9
$LENSLENGTH
 40
50.0
  9
$CAMERAHEIGHT
 40
0.0
  9
$STEPSPERSEC
 40
2.0
  9
$STEPSIZE
 40
6.0
  9
$3DDWFPREC
 40
2.0
  9
$PSOLWIDTH
 40
0.25
  9
$PSOLHEIGHT
 40
4.0
  9
$LOFTANG1
 40
1.570796
  9
$LOFTANG2
 40
1.570796
  9
$LOFTMAG1
 40
0.0
  9
$LOFTMAG2
 40
0.0
  9
$LOFTPARAM
 70
     7
  9
$LOFTNORMALS
280
     1
  9
$LATITUDE
 40
37.795
  9
$LONGITUDE
 40
-122.394
  9
$NORTHDIRECTION
 40
0.0
  9
$TIMEZONE
 70
 -8000
  9
$LIGHTGLYPHDISPLAY
280
     1
  9
$TILEMODELIGHTSYNCH
280
     1
  9
$SOLIDHIST
280
     1
  9
$SHOWHIST
280
     1
  9
$DWFFRAME
280
     2
  9
$DGNFRAME
280
     2
  9
$REALWORLDSCALE
290
     1
  9
$INTERFERECOLOR
 62
   256
  9
$CSHADOW
280
     0
  9
$SHADOWPLANELOCATION
 40
0.0
  0
ENDSEC
  0
SECTION
  2
CLASSES
  0
CLASS
  1
ACDBDICTIONARYWDFLT
  2
AcDbDictionaryWithDefault
  3
ObjectDBX Classes
 90
        0
 91
        6
280
     0
281
     0
  0
CLASS
  1
ACDBPLACEHOLDER
  2
AcDbPlaceHolder
  3
ObjectDBX Classes
 90
        0
 91
        1
280
     0
281
     0
  0
CLASS
  1
LAYOUT
  2
AcDbLayout
  3
ObjectDBX Classes
 90
        0
 91
        1
280
     0
281
     0
  0
CLASS
  1
TABLESTYLE
  2
AcDbTableStyle
  3
ObjectDBX Classes
 90
     4095
 91
        5
280
     0
281
     0
  0
CLASS
  1
ACAD_TABLE
  2
AcDbTable
  3
ObjectDBX Classes
 90
     1025
 91
        5
280
     0
281
     1
  0
CLASS
  1
SCALE
  2
AcDbScale
  3
ObjectDBX Classes
 90
     1153
 91
        5
280
     0
281
     0
  0
CLASS
  1
TABLEGEOMETRY
  2
AcDbTableGeometry
  3
ObjectDBX Classes
 90
     1152
 91
        4
280
     0
281
     0
  0
CLASS
  1
VISUALSTYLE
  2
AcDbVisualStyle
  3
ObjectDBX Classes
 90
     4095
 91
        5
280
     0
281
     0
  0
CLASS
  1
MATERIAL
  2
AcDbMaterial
  3
ObjectDBX Classes
 90
     1153
 91
        5
280
     0
281
     0
  0
CLASS
  1
SUN
  2
AcDbSun
  3
SCENEOE
 90
     1153
 91
        5
280
     0
281
     0
  0
CLASS
  1
CSACDOCUMENTOPTIONS
  2
CDocDataContainer
  3
"DERU003_CSAPP"
 90
     4095
 91
        4
280
     0
281
     0
  0
CLASS
  1
TABLECONTENT
  2
AcDbTableContent
  3
ObjectDBX Classes
 90
     1152
 91
        4
280
     0
281
     0
  0
CLASS
  1
DICTIONARYVAR
  2
AcDbDictionaryVar
  3
ObjectDBX Classes
 90
        0
 91
        4
280
     0
281
     0
  0
CLASS
  1
CELLSTYLEMAP
  2
AcDbCellStyleMap
  3
ObjectDBX Classes
 90
     1152
 91
        4
280
     0
281
     0
  0
ENDSEC
  0
SECTION
  2
TABLES
  0
TABLE
  2
VPORT
  5
8
330
0
100
AcDbSymbolTable
 70
     1
  0
VPORT
  5
1F4
330
8
100
AcDbSymbolTableRecord
100
AcDbViewportTableRecord
  2
*ACTIVE
 70
     0
 10
0.0
 20
0.0
 11
1.0
 21
1.0
 12
1250.0
 22
1600.0
 13
0.0
 23
0.0
 14
1.0
 24
1.0
 15
0.0
 25
0.0
 16
0.0
 26
0.0
 36
1.0
 17
0.0
 27
0.0
 37
0.0
 40
3200.0
 41
2.107285
 42
50.0
 43
0.0
 44
0.0
 50
0.0
 51
0.0
 71
    16
 72
   100
 73
     1
 74
     1
 75
     0
 76
     0
 77
     0
 78
     0
281
     0
 65
     1
110
0.0
120
0.0
130
0.0
111
1.0
121
0.0
131
0.0
112
0.0
122
1.0
132
0.0
 79
     0
146
0.0
 60
     3
 61
     5
292
     1
282
     1
141
0.0
142
0.0
 63
   256
361
5A8
  0
ENDTAB
  0
TABLE
  2
LTYPE
  5
5
330
0
100
AcDbSymbolTable
 70
     6
  0
LTYPE
  5
14
330
5
100
AcDbSymbolTableRecord
100
AcDbLinetypeTableRecord
  2
BYBLOCK
 70
     0
  3

 72
    65
 73
     0
 40
0.0
  0
LTYPE
  5
15
330
5
100
AcDbSymbolTableRecord
100
AcDbLinetypeTableRecord
  2
BYLAYER
 70
     0
  3

 72
    65
 73
     0
 40
0.0
  0
LTYPE
  5
16
330
5
100
AcDbSymbolTableRecord
100
AcDbLinetypeTableRecord
  2
CONTINUOUS
 70
     0
  3
Solid line
 72
    65
 73
     0
 40
0.0
  0
LTYPE
  5
1F5
330
5
100
AcDbSymbolTableRecord
100
AcDbLinetypeTableRecord
  2
CENTER
 70
     0
  3
____ _ ____ _ ____ _ ____ _ ____ _ ____ _ ____
 72
    65
 73
     4
 40
0.6
 49
0.375
 74
     0
 49
-0.075
 74
     0
 49
0.075
 74
     0
 49
-0.075
 74
     0
  0
LTYPE
  5
1F6
330
5
100
AcDbSymbolTableRecord
100
AcDbLinetypeTableRecord
  2
HIDDEN
 70
     0
  3
- - - - - - - - - - - - - - - - - - - -
 72
    65
 73
     2
 40
0.2
 49
0.1
 74
     0
 49
-0.1
 74
     0
  0
LTYPE
  5
1F7
330
5
100
AcDbSymbolTableRecord
100
AcDbLinetypeTableRecord
  2
PHANTOM
 70
     0
  3
_____ _ _ _____ _ _ _____ _ _ _____
 72
    65
 73
     6
 40
0.8
 49
0.45
 74
     0
 49
-0.05
 74
     0
 49
0.1
 74
     0
 49
-0.05
 74
     0
 49
0.1
 74
     0
 49
-0.05
 74
     0
  0
LTYPE
  5
1F8
330
5
100
AcDbSymbolTableRecord
100
AcDbLinetypeTableRecord
  2
DOT
 70
     0
  3
. . . . . . . . . . . . . . . . . . . .
 72
    65
 73
     2
 40
0.2
 49
0.1
 74
     0
 49
-0.1
 74
     0
  0
LTYPE
  5
1F9
330
5
100
AcDbSymbolTableRecord
100
AcDbLinetypeTableRecord
  2
DASHED
 70
     0
  3
- - - - - - - - - - - - - - - - - - - -
 72
    65
 73
     2
 40
0.2
 49
0.1
 74
     0
 49
-0.1
 74
     0
  0
ENDTAB
  0
TABLE
  2
LAYER
  5
2
330
0
100
AcDbSymbolTable
 70
    12
  0
LAYER
  5
10
330
2
100
AcDbSymbolTableRecord
100
AcDbLayerTableRecord
  2
0
 70
     0
 62
     7
  6
CONTINUOUS
370
    -3
390
F
347
5A2
  0
LAYER
  5
1FA
330
2
100
AcDbSymbolTableRecord
100
AcDbLayerTableRecord
  2
DEFAULT_1
 70
     0
 62
     7
  6
CENTER
370
    -3
390
F
347
5A2
  0
LAYER
  5
1FB
330
2
100
AcDbSymbolTableRecord
100
AcDbLayerTableRecord
  2
DEFAULT_2
 70
     0
 62
     8
  6
HIDDEN
370
    -3
390
F
347
5A2
  0
LAYER
  5
1FC
330
2
100
AcDbSymbolTableRecord
100
AcDbLayerTableRecord
  2
DEFAULT_3
 70
     0
 62
     7
  6
PHANTOM
370
    -3
390
F
347
5A2
  0
LAYER
  5
1FD
330
2
100
AcDbSymbolTableRecord
100
AcDbLayerTableRecord
  2
1_ALL_PLANES
 70
     0
 62
     7
  6
CONTINUOUS
370
    -3
390
F
347
5A2
  0
LAYER
  5
1FE
330
2
100
AcDbSymbolTableRecord
100
AcDbLayerTableRecord
  2
2_ALL_CSYS
 70
     0
 62
     7
  6
CONTINUOUS
370
    -3
390
F
347
5A2
  0
LAYER
  5
1FF
330
2
100
AcDbSymbolTableRecord
100
AcDbLayerTableRecord
  2
3_ALL_AXES
 70
     0
 62
     7
  6
CONTINUOUS
370
    -3
390
F
347
5A2
  0
LAYER
  5
200
330
2
100
AcDbSymbolTableRecord
100
AcDbLayerTableRecord
  2
4_ALL_POINTS
 70
     0
 62
     7
  6
CONTINUOUS
370
    -3
390
F
347
5A2
  0
LAYER
  5
201
330
2
100
AcDbSymbolTableRecord
100
AcDbLayerTableRecord
  2
5_ALL_CURVES
 70
     0
 62
     7
  6
CONTINUOUS
370
    -3
390
F
347
5A2
  0
LAYER
  5
202
330
2
100
AcDbSymbolTableRecord
100
AcDbLayerTableRecord
  2
6_ALL_SURFS
 70
     0
 62
     7
  6
CONTINUOUS
370
    -3
390
F
347
5A2
  0
LAYER
  5
203
330
2
100
AcDbSymbolTableRecord
100
AcDbLayerTableRecord
  2
7_ALL_FEATURES
 70
     0
 62
     7
  6
CONTINUOUS
370
    -3
390
F
347
5A2
  0
LAYER
  5
204
330
2
100
AcDbSymbolTableRecord
100
AcDbLayerTableRecord
  2
9_SOLID
 70
     0
 62
     7
  6
CONTINUOUS
370
    -3
390
F
347
5A2
  0
ENDTAB
  0
TABLE
  2
STYLE
  5
3
330
0
100
AcDbSymbolTable
 70
     2
  0
STYLE
  5
11
330
3
100
AcDbSymbolTableRecord
100
AcDbTextStyleTableRecord
  2
STANDARD
 70
     0
 40
0.0
 41
1.0
 50
0.0
 71
     0
 42
0.2
  3
arial.ttf
  4

  0
STYLE
  5
205
330
3
100
AcDbSymbolTableRecord
100
AcDbTextStyleTableRecord
  2
TEXTSTYLE_1
 70
     0
 40
0.0
 41
0.8
 50
0.0
 71
     0
 42
0.2
  3
gdt
  4

  0
ENDTAB
  0
TABLE
  2
VIEW
  5
6
330
0
100
AcDbSymbolTable
 70
     0
  0
ENDTAB
  0
TABLE
  2
UCS
  5
7
330
0
100
AcDbSymbolTable
 70
     0
  0
ENDTAB
  0
TABLE
  2
APPID
  5
9
330
0
100
AcDbSymbolTable
 70
     6
  0
APPID
  5
206
330
9
100
AcDbSymbolTableRecord
100
AcDbRegAppTableRecord
  2
ACAD
 70
     0
  0
APPID
  5
5A3
330
9
100
AcDbSymbolTableRecord
100
AcDbRegAppTableRecord
  2
MCS_DIM1
 70
     0
  0
APPID
  5
5A4
330
9
100
AcDbSymbolTableRecord
100
AcDbRegAppTableRecord
  2
McsXdata5
 70
     0
  0
APPID
  5
5A7
330
9
100
AcDbSymbolTableRecord
100
AcDbRegAppTableRecord
  2
MCS_DOCUMENT_ID
 70
     0
  0
APPID
  5
5AD
330
9
100
AcDbSymbolTableRecord
100
AcDbRegAppTableRecord
  2
MCS_PARAMS_DATA
 70
     0
  0
APPID
  5
5AF
330
9
100
AcDbSymbolTableRecord
100
AcDbRegAppTableRecord
  2
MC_VERSION_DATA
 70
     0
  0
ENDTAB
  0
TABLE
  2
DIMSTYLE
  5
A
330
0
100
AcDbSymbolTable
 70
     4
100
AcDbDimStyleTable
  0
DIMSTYLE
105
20F
330
A
100
AcDbSymbolTableRecord
100
AcDbDimStyleTableRecord
  2
STANDARD
 70
     0
 41
2.5
 42
0.75
 44
0.75
 47
0.01
 48
0.01
 71
     1
 73
     0
 74
     0
 77
     1
 78
     8
 79
     2
140
3.0
147
0.625
171
     1
178
     0
179
     2
271
     2
272
     2
278
    44
284
     8
340
11
341
209
342
209
343
209
344
209
  0
DIMSTYLE
105
210
330
A
100
AcDbSymbolTableRecord
100
AcDbDimStyleTableRecord
  2
DIMSTYLE_1
 70
     0
 41
2.5
 42
0.75
 44
0.75
 47
1.2
 48
1.2
 73
     0
 74
     0
 77
     1
 78
     8
 79
     2
140
20.0
147
5.0
171
     1
178
     0
179
     2
271
     2
272
     2
278
    44
284
     8
340
11
341
209
342
209
343
209
344
209
  0
DIMSTYLE
105
211
330
A
100
AcDbSymbolTableRecord
100
AcDbDimStyleTableRecord
  2
DIMSTYLE_2
 70
     0
 41
2.5
 42
0.75
 44
0.75
 47
0.3
 48
0.3
 73
     0
 74
     0
 77
     1
 78
     8
 79
     2
140
20.0
147
5.0
171
     1
178
     0
179
     2
271
     2
272
     2
278
    44
284
     8
340
11
341
209
342
209
343
209
344
209
  0
DIMSTYLE
105
212
330
A
100
AcDbSymbolTableRecord
100
AcDbDimStyleTableRecord
  2
DIMSTYLE_3
 70
     0
 41
2.5
 42
0.75
 44
0.75
 47
0.5
 48
0.5
 73
     0
 74
     0
 77
     1
 78
     8
 79
     2
140
20.0
147
5.0
171
     1
178
     0
179
     2
271
     2
272
     2
278
    44
284
     8
340
11
341
209
342
209
343
209
344
209
  0
ENDTAB
  0
TABLE
  2
BLOCK_RECORD
  5
1
330
0
100
AcDbSymbolTable
 70
     6
  0
BLOCK_RECORD
  5
207
330
1
100
AcDbSymbolTableRecord
100
AcDbBlockTableRecord
  2
*Model_Space
340
55D
 70
     0
280
     1
281
     0
  0
BLOCK_RECORD
  5
208
330
1
100
AcDbSymbolTableRecord
100
AcDbBlockTableRecord
  2
*Paper_Space
340
55E
 70
     0
280
     1
281
     0
  0
BLOCK_RECORD
  5
209
330
1
100
AcDbSymbolTableRecord
100
AcDbBlockTableRecord
  2
_CLOSED
340
0
102
{BLKREFS
331
25B
331
25C
331
264
331
265
331
26D
331
26E
102
}
 70
     0
280
     1
281
     0
  0
BLOCK_RECORD
  5
20A
330
1
100
AcDbSymbolTableRecord
100
AcDbBlockTableRecord
  2
*D1
340
0
 70
     0
280
     1
281
     0
  0
BLOCK_RECORD
  5
20B
330
1
100
AcDbSymbolTableRecord
100
AcDbBlockTableRecord
  2
*D2
340
0
 70
     0
280
     1
281
     0
  0
BLOCK_RECORD
  5
20C
330
1
100
AcDbSymbolTableRecord
100
AcDbBlockTableRecord
  2
*D3
340
0
 70
     0
280
     1
281
     0
  0
BLOCK_RECORD
  5
20D
330
1
100
AcDbSymbolTableRecord
100
AcDbBlockTableRecord
  2
LOGO2_BL0
340
0
102
{BLKREFS
331
55A
102
}
 70
     0
280
     1
281
     0
  0
BLOCK_RECORD
  5
20E
330
1
100
AcDbSymbolTableRecord
100
AcDbBlockTableRecord
  2
*T5
340
0
102
{BLKREFS
331
55B
102
}
 70
     0
280
     1
281
     0
  0
ENDTAB
  0
ENDSEC
  0
SECTION
  2
BLOCKS
  0
BLOCK
  5
20
330
207
100
AcDbEntity
  8
0
100
AcDbBlockBegin
  2
*Model_Space
 70
     0
 10
0.0
 20
0.0
 30
0.0
  3
*Model_Space
  1
*Model_Space
  0
ENDBLK
  5
21
330
207
100
AcDbEntity
  8
0
100
AcDbBlockEnd
  0
BLOCK
  5
1C
330
208
100
AcDbEntity
 67
     1
  8
0
100
AcDbBlockBegin
  2
*Paper_Space
 70
     0
 10
0.0
 20
0.0
 30
0.0
  3
*Paper_Space
  1
*Paper_Space
  0
ENDBLK
  5
1D
330
208
100
AcDbEntity
 67
     1
  8
0
100
AcDbBlockEnd
  0
BLOCK
  5
24F
330
209
100
AcDbEntity
  8
0
100
AcDbBlockBegin
  2
_CLOSED
 70
     0
 10
0.0
 20
0.0
 30
0.0
  3
_CLOSED
  1
_CLOSED
  0
LINE
  5
250
330
209
100
AcDbEntity
  8
0
  6
ByBlock
 62
     0
100
AcDbLine
 10
0.0
 20
0.0
 30
0.0
 11
-1.0
 21
0.2
 31
0.0
  0
LINE
  5
251
330
209
100
AcDbEntity
  8
0
  6
ByBlock
 62
     0
100
AcDbLine
 10
-1.0
 20
0.2
 30
0.0
 11
-1.0
 21
-0.2
 31
0.0
  0
LINE
  5
252
330
209
100
AcDbEntity
  8
0
  6
ByBlock
 62
     0
100
AcDbLine
 10
-1.0
 20
-0.2
 30
0.0
 11
0.0
 21
0.0
 31
0.0
  0
LINE
  5
253
330
209
100
AcDbEntity
  8
0
  6
ByBlock
 62
     0
100
AcDbLine
 10
-1.0
 20
0.0
 30
0.0
 11
0.0
 21
0.0
 31
0.0
  0
ENDBLK
  5
254
330
209
100
AcDbEntity
  8
0
  6
ByBlock
 62
     0
100
AcDbBlockEnd
  0
BLOCK
  5
255
330
20A
100
AcDbEntity
  8
0
100
AcDbBlockBegin
  2
*D1
 70
     1
 10
0.0
 20
0.0
 30
0.0
  3
*D1
  1
*D1
  0
MTEXT
  5
256
330
20A
100
AcDbEntity
  8
0
  6
Continuous
 62
     7
100
AcDbMText
 10
837.326144
 20
1085.459954
 30
0.0
 40
20.0
 41
62.156134
 46
0.0
 71
     2
 72
     1
  1
1063
 73
     1
 44
0.9
  0
LINE
  5
257
330
20A
100
AcDbEntity
  8
0
  6
Continuous
 62
     7
100
AcDbLine
 10
305.826144
 20
1024.532902
 30
0.0
 11
305.826144
 21
1061.209954
 31
0.0
  0
LINE
  5
258
330
20A
100
AcDbEntity
  8
0
  6
Continuous
 62
     7
100
AcDbLine
 10
1368.826144
 20
1024.532902
 30
0.0
 11
1368.826144
 21
1061.209954
 31
0.0
  0
LINE
  5
259
330
20A
100
AcDbEntity
  8
0
  6
Continuous
 62
     7
100
AcDbLine
 10
305.826144
 20
1060.459954
 30
0.0
 11
837.326144
 21
1060.459954
 31
0.0
  0
LINE
  5
25A
330
20A
100
AcDbEntity
  8
0
  6
Continuous
 62
     7
100
AcDbLine
 10
1368.826144
 20
1060.459954
 30
0.0
 11
837.326144
 21
1060.459954
 31
0.0
  0
INSERT
  5
25B
330
20A
100
AcDbEntity
  8
0
  6
Continuous
 62
     7
100
AcDbBlockReference
  2
_CLOSED
 10
305.826144
 20
1060.459954
 30
0.0
 41
2.5
 42
2.5
 43
2.5
 50
180.0
  0
INSERT
  5
25C
330
20A
100
AcDbEntity
  8
0
  6
Continuous
 62
     7
100
AcDbBlockReference
  2
_CLOSED
 10
1368.826144
 20
1060.459954
 30
0.0
 41
2.5
 42
2.5
 43
2.5
  0
ENDBLK
  5
25D
330
20A
100
AcDbEntity
  8
0
  6
ByBlock
 62
     0
100
AcDbBlockEnd
  0
BLOCK
  5
25E
330
20B
100
AcDbEntity
  8
0
100
AcDbBlockBegin
  2
*D2
 70
     1
 10
0.0
 20
0.0
 30
0.0
  3
*D2
  1
*D2
  0
MTEXT
  5
25F
330
20B
100
AcDbEntity
  8
0
  6
Continuous
 62
     7
100
AcDbMText
 10
1782.35379
 20
1085.459954
 30
0.0
 40
20.0
 41
31.078067
 46
0.0
 71
     2
 72
     1
  1
63
 73
     1
 44
0.9
  0
LINE
  5
260
330
20B
100
AcDbEntity
  8
0
  6
Continuous
 62
     7
100
AcDbLine
 10
1750.85379
 20
1027.575354
 30
0.0
 11
1750.85379
 21
1061.209954
 31
0.0
  0
LINE
  5
261
330
20B
100
AcDbEntity
  8
0
  6
Continuous
 62
     7
100
AcDbLine
 10
1813.85379
 20
1024.532902
 30
0.0
 11
1813.85379
 21
1061.209954
 31
0.0
  0
LINE
  5
262
330
20B
100
AcDbEntity
  8
0
  6
Continuous
 62
     7
100
AcDbLine
 10
1750.85379
 20
1060.459954
 30
0.0
 11
1782.35379
 21
1060.459954
 31
0.0
  0
LINE
  5
263
330
20B
100
AcDbEntity
  8
0
  6
Continuous
 62
     7
100
AcDbLine
 10
1813.85379
 20
1060.459954
 30
0.0
 11
1782.35379
 21
1060.459954
 31
0.0
  0
INSERT
  5
264
330
20B
100
AcDbEntity
  8
0
  6
Continuous
 62
     7
100
AcDbBlockReference
  2
_CLOSED
 10
1750.85379
 20
1060.459954
 30
0.0
 41
2.5
 42
2.5
 43
2.5
 50
180.0
  0
INSERT
  5
265
330
20B
100
AcDbEntity
  8
0
  6
Continuous
 62
     7
100
AcDbBlockReference
  2
_CLOSED
 10
1813.85379
 20
1060.459954
 30
0.0
 41
2.5
 42
2.5
 43
2.5
  0
ENDBLK
  5
266
330
20B
100
AcDbEntity
  8
0
  6
ByBlock
 62
     0
100
AcDbBlockEnd
  0
BLOCK
  5
267
330
20C
100
AcDbEntity
  8
0
100
AcDbBlockBegin
  2
*D3
 70
     1
 10
0.0
 20
0.0
 30
0.0
  3
*D3
  1
*D3
  0
MTEXT
  5
268
330
20C
100
AcDbEntity
  8
0
  6
Continuous
 62
     7
100
AcDbMText
 10
1651.935519
 20
903.66288
 30
0.0
 40
20.0
 41
46.6171
 46
0.0
 71
     2
 72
     1
  1
150
 11
0.0
 21
1.0
 31
0.0
 73
     1
 44
0.9
  0
LINE
  5
269
330
20C
100
AcDbEntity
  8
0
  6
Continuous
 62
     7
100
AcDbLine
 10
1722.583069
 20
978.66288
 30
0.0
 11
1676.185519
 21
978.66288
 31
0.0
  0
LINE
  5
26A
330
20C
100
AcDbEntity
  8
0
  6
Continuous
 62
     7
100
AcDbLine
 10
1722.238024
 20
828.66288
 30
0.0
 11
1676.185519
 21
828.66288
 31
0.0
  0
LINE
  5
26B
330
20C
100
AcDbEntity
  8
0
  6
Continuous
 62
     7
100
AcDbLine
 10
1676.935519
 20
978.66288
 30
0.0
 11
1676.935519
 21
903.66288
 31
0.0
  0
LINE
  5
26C
330
20C
100
AcDbEntity
  8
0
  6
Continuous
 62
     7
100
AcDbLine
 10
1676.935519
 20
828.66288
 30
0.0
 11
1676.935519
 21
903.66288
 31
0.0
  0
INSERT
  5
26D
330
20C
100
AcDbEntity
  8
0
  6
Continuous
 62
     7
100
AcDbBlockReference
  2
_CLOSED
 10
1676.935519
 20
978.66288
 30
0.0
 41
2.5
 42
2.5
 43
2.5
 50
90.0
  0
INSERT
  5
26E
330
20C
100
AcDbEntity
  8
0
  6
Continuous
 62
     7
100
AcDbBlockReference
  2
_CLOSED
 10
1676.935519
 20
828.66288
 30
0.0
 41
2.5
 42
2.5
 43
2.5
 50
270.0
  0
ENDBLK
  5
26F
330
20C
100
AcDbEntity
  8
0
  6
ByBlock
 62
     0
100
AcDbBlockEnd
  0
BLOCK
  5
213
330
20D
100
AcDbEntity
  8
0
100
AcDbBlockBegin
  2
LOGO2_BL0
 70
     0
 10
2372.26626
 20
43.709657
 30
0.0
  3
LOGO2_BL0
  1
LOGO2_BL0
  0
LINE
  5
214
330
20D
100
AcDbEntity
  8
0
  6
Continuous
 62
     7
100
AcDbLine
 10
2364.009185
 20
46.905148
 30
0.0
 11
2362.704844
 21
46.905148
 31
0.0
  0
LINE
  5
215
330
20D
100
AcDbEntity
  8
0
  6
Continuous
 62
     7
100
AcDbLine
 10
2362.704844
 20
46.905148
 30
0.0
 11
2362.704844
 21
36.446082
 31
0.0
  0
LINE
  5
216
330
20D
100
AcDbEntity
  8
0
  6
Continuous
 62
     7
100
AcDbLine
 10
2362.704844
 20
36.446082
 30
0.0
 11
2367.185899
 21
36.446082
 31
0.0
  0
LINE
  5
217
330
20D
100
AcDbEntity
  8
0
  6
Continuous
 62
     7
100
AcDbLine
 10
2367.185899
 20
36.446082
 30
0.0
 11
2367.185899
 21
37.638936
 31
0.0
  0
LINE
  5
218
330
20D
100
AcDbEntity
  8
0
  6
Continuous
 62
     7
100
AcDbLine
 10
2367.185899
 20
37.638936
 30
0.0
 11
2364.009185
 21
37.638936
 31
0.0
  0
LINE
  5
219
330
20D
100
AcDbEntity
  8
0
  6
Continuous
 62
     7
100
AcDbLine
 10
2364.009185
 20
37.638936
 30
0.0
 11
2364.009185
 21
46.905148
 31
0.0
  0
LINE
  5
21A
330
20D
100
AcDbEntity
  8
0
  6
Continuous
 62
     7
100
AcDbLine
 10
2378.945511
 20
46.905148
 30
0.0
 11
2377.641694
 21
46.905148
 31
0.0
  0
LINE
  5
21B
330
20D
100
AcDbEntity
  8
0
  6
Continuous
 62
     7
100
AcDbLine
 10
2377.641694
 20
46.905148
 30
0.0
 11
2377.641694
 21
36.446082
 31
0.0
  0
LINE
  5
21C
330
20D
100
AcDbEntity
  8
0
  6
Continuous
 62
     7
100
AcDbLine
 10
2377.641694
 20
36.446082
 30
0.0
 11
2382.122879
 21
36.446082
 31
0.0
  0
LINE
  5
21D
330
20D
100
AcDbEntity
  8
0
  6
Continuous
 62
     7
100
AcDbLine
 10
2382.122879
 20
36.446082
 30
0.0
 11
2382.122879
 21
37.638936
 31
0.0
  0
LINE
  5
21E
330
20D
100
AcDbEntity
  8
0
  6
Continuous
 62
     7
100
AcDbLine
 10
2382.122879
 20
37.638936
 30
0.0
 11
2378.945511
 21
37.638936
 31
0.0
  0
LINE
  5
21F
330
20D
100
AcDbEntity
  8
0
  6
Continuous
 62
     7
100
AcDbLine
 10
2378.945511
 20
37.638936
 30
0.0
 11
2378.945511
 21
46.905148
 31
0.0
  0
LWPOLYLINE
  5
220
330
20D
100
AcDbEntity
  8
0
  6
Continuous
 62
     7
100
AcDbPolyline
 90
        2
 70
     0
 43
0.2
 10
2361.059239
 20
33.102531
 10
2361.059239
 20
31.245468
  0
LWPOLYLINE
  5
221
330
20D
100
AcDbEntity
  8
0
  6
Continuous
 62
     7
100
AcDbPolyline
 90
        2
 70
     0
 43
0.2
 10
2361.059239
 20
31.245468
 10
2361.854955
 20
31.245468
  0
LWPOLYLINE
  5
222
330
20D
100
AcDbEntity
  8
0
  6
Continuous
 62
     7
100
AcDbPolyline
 90
        2
 70
     0
 43
0.2
 10
2361.854955
 20
31.245468
 10
2361.854955
 20
31.457449
  0
LWPOLYLINE
  5
223
330
20D
100
AcDbEntity
  8
0
  6
Continuous
 62
     7
100
AcDbPolyline
 90
        2
 70
     0
 43
0.2
 10
2361.854955
 20
31.457449
 10
2361.290848
 20
31.457449
  0
LWPOLYLINE
  5
224
330
20D
100
AcDbEntity
  8
0
  6
Continuous
 62
     7
100
AcDbPolyline
 90
        2
 70
     0
 43
0.2
 10
2361.290848
 20
31.457449
 10
2361.290848
 20
33.102531
  0
LWPOLYLINE
  5
225
330
20D
100
AcDbEntity
  8
0
  6
Continuous
 62
     7
100
AcDbPolyline
 90
        2
 70
     0
 43
0.2
 10
2361.290848
 20
33.102531
 10
2361.059239
 20
33.102531
  0
SPLINE
  5
226
330
20D
100
AcDbEntity
  8
0
  6
Continuous
 62
     7
100
AcDbSpline
 70
     3
 71
     3
 72
    35
 73
    31
 74
     0
 42
0.000000001
 43
0.0000001
 40
0.0
 40
0.0
 40
0.0
 40
0.0
 40
1.0
 40
1.0
 40
1.0
 40
2.0
 40
2.0
 40
2.0
 40
3.0
 40
3.0
 40
3.0
 40
4.0
 40
4.0
 40
4.0
 40
5.0
 40
5.0
 40
5.0
 40
6.0
 40
6.0
 40
6.0
 40
7.0
 40
7.0
 40
7.0
 40
8.0
 40
8.0
 40
8.0
 40
9.0
 40
9.0
 40
9.0
 40
10.0
 40
10.0
 40
10.0
 40
10.0
 10
2363.253248099
 20
32.3980191763
 30
0.0
 10
2363.253248099
 20
32.3980191763
 30
0.0
 10
2363.253248099
 20
31.7359038971
 30
0.0
 10
2363.253248099
 20
31.7359038971
 30
0.0
 10
2363.253248099
 20
31.4208103018
 30
0.0
 10
2363.4011117878
 20
31.2062116738
 30
0.0
 10
2363.7411982721
 20
31.2062116738
 30
0.0
 10
2364.0807613451
 20
31.2062116738
 30
0.0
 10
2364.2288867396
 20
31.4208103018
 30
0.0
 10
2364.2288867396
 20
31.7359038971
 30
0.0
 10
2364.2288867396
 20
31.7359038971
 30
0.0
 10
2364.2288867396
 20
32.3980191763
 30
0.0
 10
2364.2288867396
 20
32.3980191763
 30
0.0
 10
2364.2288867396
 20
32.3980191763
 30
0.0
 10
2364.0068295007
 20
32.3980191763
 30
0.0
 10
2364.0068295007
 20
32.3980191763
 30
0.0
 10
2364.0068295007
 20
32.3980191763
 30
0.0
 10
2364.0068295007
 20
31.7610276389
 30
0.0
 10
2364.0068295007
 20
31.7610276389
 30
0.0
 10
2364.0068295007
 20
31.5752166317
 30
0.0
 10
2363.9601150433
 20
31.4124357212
 30
0.0
 10
2363.7411982721
 20
31.4124357212
 30
0.0
 10
2363.5217580897
 20
31.4124357212
 30
0.0
 10
2363.4750436323
 20
31.5752166317
 30
0.0
 10
2363.4750436323
 20
31.7610276389
 30
0.0
 10
2363.4750436323
 20
31.7610276389
 30
0.0
 10
2363.4750436323
 20
32.3980191763
 30
0.0
 10
2363.4750436323
 20
32.3980191763
 30
0.0
 10
2363.4750436323
 20
32.3980191763
 30
0.0
 10
2363.253248099
 20
32.3980191763
 30
0.0
 10
2363.253248099
 20
32.3980191763
 30
0.0
  0
SPLINE
  5
227
330
20D
100
AcDbEntity
  8
0
  6
Continuous
 62
     7
100
AcDbSpline
 70
     3
 71
     3
 72
    35
 73
    31
 74
     0
 42
0.000000001
 43
0.0000001
 40
0.0
 40
0.0
 40
0.0
 40
0.0
 40
1.0
 40
1.0
 40
1.0
 40
2.0
 40
2.0
 40
2.0
 40
3.0
 40
3.0
 40
3.0
 40
4.0
 40
4.0
 40
4.0
 40
5.0
 40
5.0
 40
5.0
 40
6.0
 40
6.0
 40
6.0
 40
7.0
 40
7.0
 40
7.0
 40
8.0
 40
8.0
 40
8.0
 40
9.0
 40
9.0
 40
9.0
 40
10.0
 40
10.0
 40
10.0
 40
10.0
 10
2366.6520192968
 20
32.3566696845
 30
0.0
 10
2366.5635627892
 20
32.4079639907
 30
0.0
 10
2366.4501133925
 20
32.4330877326
 30
0.0
 10
2366.3464779575
 20
32.4330877326
 30
0.0
 10
2365.9916051043
 20
32.4330877326
 30
0.0
 10
2365.7161599141
 20
32.1692884435
 30
0.0
 10
2365.7161599141
 20
31.8117985338
 30
0.0
 10
2365.7161599141
 20
31.4668704951
 30
0.0
 10
2365.9946147192
 20
31.2067350851
 30
0.0
 10
2366.3341777922
 20
31.2067350851
 30
0.0
 10
2366.4501133925
 20
31.2067350851
 30
0.0
 10
2366.5508700654
 20
31.2287183592
 30
0.0
 10
2366.6520192968
 20
31.2826297218
 30
0.0
 10
2366.6520192968
 20
31.2826297218
 30
0.0
 10
2366.6520192968
 20
31.5652718173
 30
0.0
 10
2366.6520192968
 20
31.5652718173
 30
0.0
 10
2366.5681426379
 20
31.472104608
 30
0.0
 10
2366.4646380557
 20
31.4129591325
 30
0.0
 10
2366.336533143
 20
31.4129591325
 30
0.0
 10
2366.102830003
 20
31.4129591325
 30
0.0
 10
2365.9375628889
 20
31.5851614462
 30
0.0
 10
2365.9375628889
 20
31.8217433483
 30
0.0
 10
2365.9375628889
 20
32.0337249199
 30
0.0
 10
2366.1053162066
 20
32.2258168626
 30
0.0
 10
2366.3221393326
 20
32.2258168626
 30
0.0
 10
2366.4549549469
 20
32.2258168626
 30
0.0
 10
2366.5635627892
 20
32.1719054999
 30
0.0
 10
2366.6520192968
 20
32.0708871213
 30
0.0
 10
2366.6520192968
 20
32.0708871213
 30
0.0
 10
2366.6520192968
 20
32.3566696845
 30
0.0
 10
2366.6520192968
 20
32.3566696845
 30
0.0
  0
SPLINE
  5
228
330
20D
100
AcDbEntity
  8
0
  6
Continuous
 62
     7
100
AcDbSpline
 70
     3
 71
     3
 72
    32
 73
    28
 74
     0
 42
0.000000001
 43
0.0000001
 40
0.0
 40
0.0
 40
0.0
 40
0.0
 40
1.0
 40
1.0
 40
1.0
 40
2.0
 40
2.0
 40
2.0
 40
3.0
 40
3.0
 40
3.0
 40
4.0
 40
4.0
 40
4.0
 40
5.0
 40
5.0
 40
5.0
 40
6.0
 40
6.0
 40
6.0
 40
7.0
 40
7.0
 40
7.0
 40
8.0
 40
8.0
 40
8.0
 40
9.0
 40
9.0
 40
9.0
 40
9.0
 10
2369.1838905491
 20
31.7851045582
 30
0.0
 10
2369.1838905491
 20
31.7851045582
 30
0.0
 10
2369.1838905491
 20
31.8191262919
 30
0.0
 10
2369.1838905491
 20
31.8191262919
 30
0.0
 10
2369.1838905491
 20
32.1614372741
 30
0.0
 10
2369.0110339712
 20
32.4330877326
 30
0.0
 10
2368.6443843641
 20
32.4330877326
 30
0.0
 10
2368.2727623497
 20
32.4330877326
 30
0.0
 10
2368.0830257578
 20
32.166671387
 30
0.0
 10
2368.0830257578
 20
31.8117985338
 30
0.0
 10
2368.0830257578
 20
31.472104608
 30
0.0
 10
2368.2971009746
 20
31.2062116738
 30
0.0
 10
2368.6492259185
 20
31.2062116738
 30
0.0
 10
2368.8732459497
 20
31.2062116738
 30
0.0
 10
2369.0754135596
 20
31.3218855684
 30
0.0
 10
2369.1838905491
 20
31.5213052691
 30
0.0
 10
2369.1838905491
 20
31.5213052691
 30
0.0
 10
2368.9962476024
 20
31.6280811718
 30
0.0
 10
2368.9962476024
 20
31.6280811718
 30
0.0
 10
2368.9127635019
 20
31.4893771805
 30
0.0
 10
2368.821559085
 20
31.4035377293
 30
0.0
 10
2368.6519738278
 20
31.4035377293
 30
0.0
 10
2368.4399922562
 20
31.4035377293
 30
0.0
 10
2368.307045789
 20
31.5883019139
 30
0.0
 10
2368.3046904383
 20
31.7851045582
 30
0.0
 10
2368.3046904383
 20
31.7851045582
 30
0.0
 10
2369.1838905491
 20
31.7851045582
 30
0.0
 10
2369.1838905491
 20
31.7851045582
 30
0.0
  0
SPLINE
  5
229
330
20D
100
AcDbEntity
  8
0
  6
Continuous
 62
     7
100
AcDbSpline
 70
     3
 71
     3
 72
    14
 73
    10
 74
     0
 42
0.000000001
 43
0.0000001
 40
0.0
 40
0.0
 40
0.0
 40
0.0
 40
1.0
 40
1.0
 40
1.0
 40
2.0
 40
2.0
 40
2.0
 40
3.0
 40
3.0
 40
3.0
 40
3.0
 10
2368.3167288979
 20
31.9525961703
 30
0.0
 10
2368.3443388433
 20
32.117470726
 30
0.0
 10
2368.4721820504
 20
32.2404723786
 30
0.0
 10
2368.6443843641
 20
32.2404723786
 30
0.0
 10
2368.821559085
 20
32.2404723786
 30
0.0
 10
2368.9350084817
 20
32.124798484
 30
0.0
 10
2368.9622258686
 20
31.9525961703
 30
0.0
 10
2368.9622258686
 20
31.9525961703
 30
0.0
 10
2368.3167288979
 20
31.9525961703
 30
0.0
 10
2368.3167288979
 20
31.9525961703
 30
0.0
  0
SPLINE
  5
22A
330
20D
100
AcDbEntity
  8
0
  6
Continuous
 62
     7
100
AcDbSpline
 70
     3
 71
     3
 72
    20
 73
    16
 74
     0
 42
0.000000001
 43
0.0000001
 40
0.0
 40
0.0
 40
0.0
 40
0.0
 40
1.0
 40
1.0
 40
1.0
 40
2.0
 40
2.0
 40
2.0
 40
3.0
 40
3.0
 40
3.0
 40
4.0
 40
4.0
 40
4.0
 40
5.0
 40
5.0
 40
5.0
 40
5.0
 10
2371.2079219992
 20
32.1619606854
 30
0.0
 10
2371.2079219992
 20
32.1619606854
 30
0.0
 10
2371.6190615659
 20
31.6594858491
 30
0.0
 10
2371.6190615659
 20
31.6594858491
 30
0.0
 10
2371.5029951128
 20
31.5438119545
 30
0.0
 10
2371.3652070913
 20
31.4134825438
 30
0.0
 10
2371.1932664832
 20
31.4134825438
 30
0.0
 10
2371.0158300566
 20
31.4134825438
 30
0.0
 10
2370.8483384445
 20
31.5778336882
 30
0.0
 10
2370.8483384445
 20
31.7547467035
 30
0.0
 10
2370.8483384445
 20
31.9327065413
 30
0.0
 10
2371.0580955181
 20
32.0588486617
 30
0.0
 10
2371.1856770195
 20
32.1467817581
 30
0.0
 10
2371.1856770195
 20
32.1467817581
 30
0.0
 10
2371.2079219992
 20
32.1619606854
 30
0.0
 10
2371.2079219992
 20
32.1619606854
 30
0.0
  0
SPLINE
  5
22B
330
20D
100
AcDbEntity
  8
0
  6
Continuous
 62
     7
100
AcDbSpline
 70
     3
 71
     3
 72
    23
 73
    19
 74
     0
 42
0.000000001
 43
0.0000001
 40
0.0
 40
0.0
 40
0.0
 40
0.0
 40
1.0
 40
1.0
 40
1.0
 40
2.0
 40
2.0
 40
2.0
 40
3.0
 40
3.0
 40
3.0
 40
4.0
 40
4.0
 40
4.0
 40
5.0
 40
5.0
 40
5.0
 40
6.0
 40
6.0
 40
6.0
 40
6.0
 10
2371.2572535131
 20
32.4529773615
 30
0.0
 10
2371.2572535131
 20
32.4529773615
 30
0.0
 10
2371.195621834
 20
32.5314890547
 30
0.0
 10
2371.195621834
 20
32.5314890547
 30
0.0
 10
2371.1417104713
 20
32.6000559334
 30
0.0
 10
2371.0849203466
 20
32.6691462234
 30
0.0
 10
2371.0849203466
 20
32.7628368439
 30
0.0
 10
2371.0849203466
 20
32.8816512063
 30
0.0
 10
2371.1808354651
 20
32.9591160769
 30
0.0
 10
2371.2917986581
 20
32.9591160769
 30
0.0
 10
2371.4150620164
 20
32.9591160769
 30
0.0
 10
2371.5083600785
 20
32.8879321417
 30
0.0
 10
2371.5083600785
 20
32.757602731
 30
0.0
 10
2371.5083600785
 20
32.6225626188
 30
0.0
 10
2371.3802551658
 20
32.5461445707
 30
0.0
 10
2371.2866953981
 20
32.4723435791
 30
0.0
 10
2371.2866953981
 20
32.4723435791
 30
0.0
 10
2371.2572535131
 20
32.4529773615
 30
0.0
 10
2371.2572535131
 20
32.4529773615
 30
0.0
  0
SPLINE
  5
22C
330
20D
100
AcDbEntity
  8
0
  6
Continuous
 62
     7
100
AcDbSpline
 70
     3
 71
     3
 72
    50
 73
    46
 74
     0
 42
0.000000001
 43
0.0000001
 40
0.0
 40
0.0
 40
0.0
 40
0.0
 40
1.0
 40
1.0
 40
1.0
 40
2.0
 40
2.0
 40
2.0
 40
3.0
 40
3.0
 40
3.0
 40
4.0
 40
4.0
 40
4.0
 40
5.0
 40
5.0
 40
5.0
 40
6.0
 40
6.0
 40
6.0
 40
7.0
 40
7.0
 40
7.0
 40
8.0
 40
8.0
 40
8.0
 40
9.0
 40
9.0
 40
9.0
 40
10.0
 40
10.0
 40
10.0
 40
11.0
 40
11.0
 40
11.0
 40
12.0
 40
12.0
 40
12.0
 40
13.0
 40
13.0
 40
13.0
 40
14.0
 40
14.0
 40
14.0
 40
15.0
 40
15.0
 40
15.0
 40
15.0
 10
2371.9594097558
 20
31.2459909317
 30
0.0
 10
2371.9594097558
 20
31.2459909317
 30
0.0
 10
2372.2447997605
 20
31.2459909317
 30
0.0
 10
2372.2447997605
 20
31.2459909317
 30
0.0
 10
2372.2447997605
 20
31.2459909317
 30
0.0
 10
2371.9124335927
 20
31.6568687926
 30
0.0
 10
2371.9124335927
 20
31.6568687926
 30
0.0
 10
2371.9124335927
 20
31.6568687926
 30
0.0
 10
2372.1389398275
 20
31.9227617269
 30
0.0
 10
2372.1389398275
 20
31.9227617269
 30
0.0
 10
2372.1389398275
 20
31.9227617269
 30
0.0
 10
2371.9906835803
 20
32.0755978229
 30
0.0
 10
2371.9906835803
 20
32.0755978229
 30
0.0
 10
2371.9906835803
 20
32.0755978229
 30
0.0
 10
2371.774776424
 20
31.8243604048
 30
0.0
 10
2371.774776424
 20
31.8243604048
 30
0.0
 10
2371.774776424
 20
31.8243604048
 30
0.0
 10
2371.3877137766
 20
32.2922900961
 30
0.0
 10
2371.3877137766
 20
32.2922900961
 30
0.0
 10
2371.5431669291
 20
32.4063937569
 30
0.0
 10
2371.7254449101
 20
32.5461445707
 30
0.0
 10
2371.7254449101
 20
32.7555090859
 30
0.0
 10
2371.7254449101
 20
32.999418746
 30
0.0
 10
2371.523408153
 20
33.1428334389
 30
0.0
 10
2371.2969019182
 20
33.1428334389
 30
0.0
 10
2371.0527305524
 20
33.1428334389
 30
0.0
 10
2370.8683589262
 20
32.992090988
 30
0.0
 10
2370.8683589262
 20
32.7356194569
 30
0.0
 10
2370.8683589262
 20
32.5780726593
 30
0.0
 10
2370.967021954
 20
32.4404154906
 30
0.0
 10
2371.0723584757
 20
32.3294522976
 30
0.0
 10
2371.0723584757
 20
32.3294522976
 30
0.0
 10
2370.9568154339
 20
32.2457064915
 30
0.0
 10
2370.9568154339
 20
32.2457064915
 30
0.0
 10
2370.7791173017
 20
32.117470726
 30
0.0
 10
2370.6317770241
 20
31.9897583717
 30
0.0
 10
2370.6317770241
 20
31.7526530583
 30
0.0
 10
2370.6317770241
 20
31.4323253501
 30
0.0
 10
2370.8903422003
 20
31.2062116738
 30
0.0
 10
2371.200725094
 20
31.2062116738
 30
0.0
 10
2371.4196418652
 20
31.2062116738
 30
0.0
 10
2371.6168370679
 20
31.3313069716
 30
0.0
 10
2371.757111293
 20
31.4972283498
 30
0.0
 10
2371.757111293
 20
31.4972283498
 30
0.0
 10
2371.9594097558
 20
31.2459909317
 30
0.0
 10
2371.9594097558
 20
31.2459909317
 30
0.0
  0
LWPOLYLINE
  5
22D
330
20D
100
AcDbEntity
  8
0
  6
Continuous
 62
     7
100
AcDbPolyline
 90
        2
 70
     0
 43
0.2
 10
2373.894854
 20
33.102531
 10
2373.663506
 20
33.102531
  0
LWPOLYLINE
  5
22E
330
20D
100
AcDbEntity
  8
0
  6
Continuous
 62
     7
100
AcDbPolyline
 90
        2
 70
     0
 43
0.2
 10
2373.663506
 20
33.102531
 10
2373.663506
 20
31.245468
  0
LWPOLYLINE
  5
22F
330
20D
100
AcDbEntity
  8
0
  6
Continuous
 62
     7
100
AcDbPolyline
 90
        2
 70
     0
 43
0.2
 10
2373.663506
 20
31.245468
 10
2374.45883
 20
31.245468
  0
LWPOLYLINE
  5
230
330
20D
100
AcDbEntity
  8
0
  6
Continuous
 62
     7
100
AcDbPolyline
 90
        2
 70
     0
 43
0.2
 10
2374.45883
 20
31.245468
 10
2374.45883
 20
31.457449
  0
LWPOLYLINE
  5
231
330
20D
100
AcDbEntity
  8
0
  6
Continuous
 62
     7
100
AcDbPolyline
 90
        2
 70
     0
 43
0.2
 10
2374.45883
 20
31.457449
 10
2373.894854
 20
31.457449
  0
LWPOLYLINE
  5
232
330
20D
100
AcDbEntity
  8
0
  6
Continuous
 62
     7
100
AcDbPolyline
 90
        2
 70
     0
 43
0.2
 10
2373.894854
 20
31.457449
 10
2373.894854
 20
33.102531
  0
LWPOLYLINE
  5
233
330
20D
100
AcDbEntity
  8
0
  6
Continuous
 62
     7
100
AcDbPolyline
 90
        2
 70
     0
 43
0.2
 10
2376.137933
 20
32.398019
 10
2375.916792
 20
32.398019
  0
LWPOLYLINE
  5
234
330
20D
100
AcDbEntity
  8
0
  6
Continuous
 62
     7
100
AcDbPolyline
 90
        2
 70
     0
 43
0.2
 10
2375.916792
 20
32.398019
 10
2375.916792
 20
31.245991
  0
LWPOLYLINE
  5
235
330
20D
100
AcDbEntity
  8
0
  6
Continuous
 62
     7
100
AcDbPolyline
 90
        2
 70
     0
 43
0.2
 10
2375.916792
 20
31.245991
 10
2376.137933
 20
31.245991
  0
LWPOLYLINE
  5
236
330
20D
100
AcDbEntity
  8
0
  6
Continuous
 62
     7
100
AcDbPolyline
 90
        2
 70
     0
 43
0.2
 10
2376.137933
 20
31.245991
 10
2376.137933
 20
32.398019
  0
LWPOLYLINE
  5
237
330
20D
100
AcDbEntity
  8
0
  6
Continuous
 62
     7
100
AcDbPolyline
 90
        2
 70
     1
 43
0.2
 10
2375.87491
 20
32.927973
 42
1.0
 10
2376.180077
 20
32.927973
 42
1.0
  0
SPLINE
  5
238
330
20D
100
AcDbEntity
  8
0
  6
Continuous
 62
     7
100
AcDbSpline
 70
     3
 71
     3
 72
    17
 73
    13
 74
     0
 42
0.000000001
 43
0.0000001
 40
0.0
 40
0.0
 40
0.0
 40
0.0
 40
1.0
 40
1.0
 40
1.0
 40
2.0
 40
2.0
 40
2.0
 40
3.0
 40
3.0
 40
3.0
 40
4.0
 40
4.0
 40
4.0
 40
4.0
 10
2378.2682168613
 20
31.4035377293
 30
0.0
 10
2378.0342520157
 20
31.4035377293
 30
0.0
 10
2377.903922605
 20
31.6055744864
 30
0.0
 10
2377.903922605
 20
31.8217433483
 30
0.0
 10
2377.903922605
 20
32.0363419763
 30
0.0
 10
2378.0397478342
 20
32.2352382657
 30
0.0
 10
2378.2682168613
 20
32.2352382657
 30
0.0
 10
2378.5076775255
 20
32.2352382657
 30
0.0
 10
2378.6432410491
 20
32.0462867908
 30
0.0
 10
2378.6432410491
 20
31.8217433483
 30
0.0
 10
2378.6432410491
 20
31.595629672
 30
0.0
 10
2378.5100328763
 20
31.4035377293
 30
0.0
 10
2378.2682168613
 20
31.4035377293
 30
0.0
  0
SPLINE
  5
239
330
20D
100
AcDbEntity
  8
0
  6
Continuous
 62
     7
100
AcDbSpline
 70
     3
 71
     3
 72
    50
 73
    46
 74
     0
 42
0.000000001
 43
0.0000001
 40
0.0
 40
0.0
 40
0.0
 40
0.0
 40
1.0
 40
1.0
 40
1.0
 40
2.0
 40
2.0
 40
2.0
 40
3.0
 40
3.0
 40
3.0
 40
4.0
 40
4.0
 40
4.0
 40
5.0
 40
5.0
 40
5.0
 40
6.0
 40
6.0
 40
6.0
 40
7.0
 40
7.0
 40
7.0
 40
8.0
 40
8.0
 40
8.0
 40
9.0
 40
9.0
 40
9.0
 40
10.0
 40
10.0
 40
10.0
 40
11.0
 40
11.0
 40
11.0
 40
12.0
 40
12.0
 40
12.0
 40
13.0
 40
13.0
 40
13.0
 40
14.0
 40
14.0
 40
14.0
 40
15.0
 40
15.0
 40
15.0
 40
15.0
 10
2378.8523438586
 20
32.3985425876
 30
0.0
 10
2378.8523438586
 20
32.3985425876
 30
0.0
 10
2378.6306791782
 20
32.3985425876
 30
0.0
 10
2378.6306791782
 20
32.3985425876
 30
0.0
 10
2378.6306791782
 20
32.3985425876
 30
0.0
 10
2378.6306791782
 20
32.201216532
 30
0.0
 10
2378.6306791782
 20
32.201216532
 30
0.0
 10
2378.6306791782
 20
32.201216532
 30
0.0
 10
2378.6259684766
 20
32.201216532
 30
0.0
 10
2378.6259684766
 20
32.201216532
 30
0.0
 10
2378.5346332069
 20
32.3441078136
 30
0.0
 10
2378.3967143325
 20
32.4325643213
 30
0.0
 10
2378.2239886075
 20
32.4325643213
 30
0.0
 10
2377.8916224397
 20
32.4325643213
 30
0.0
 10
2377.6825196302
 20
32.1446881129
 30
0.0
 10
2377.6825196302
 20
31.8290711063
 30
0.0
 10
2377.6825196302
 20
31.499321995
 30
0.0
 10
2377.8795839801
 20
31.2062116738
 30
0.0
 10
2378.2344568333
 20
31.2062116738
 30
0.0
 10
2378.3967143325
 20
31.2062116738
 30
0.0
 10
2378.536726852
 20
31.2946681814
 30
0.0
 10
2378.6259684766
 20
31.4255210034
 30
0.0
 10
2378.6259684766
 20
31.4255210034
 30
0.0
 10
2378.6306791782
 20
31.4255210034
 30
0.0
 10
2378.6306791782
 20
31.4255210034
 30
0.0
 10
2378.6306791782
 20
31.4255210034
 30
0.0
 10
2378.6306791782
 20
31.2062116738
 30
0.0
 10
2378.6306791782
 20
31.2062116738
 30
0.0
 10
2378.6306791782
 20
30.9696297717
 30
0.0
 10
2378.5741507591
 20
30.7827719419
 30
0.0
 10
2378.3009300668
 20
30.7827719419
 30
0.0
 10
2378.0986316041
 20
30.7827719419
 30
0.0
 10
2377.9560020281
 20
30.901062893
 30
0.0
 10
2377.9560020281
 20
31.1072869404
 30
0.0
 10
2377.9560020281
 20
31.1072869404
 30
0.0
 10
2377.7343373477
 20
31.1072869404
 30
0.0
 10
2377.7343373477
 20
31.1072869404
 30
0.0
 10
2377.7393097549
 20
30.7827719419
 30
0.0
 10
2377.9703958385
 20
30.5859692977
 30
0.0
 10
2378.2907235467
 20
30.5859692977
 30
0.0
 10
2378.7387636091
 20
30.5859692977
 30
0.0
 10
2378.8523438586
 20
30.8712284495
 30
0.0
 10
2378.8523438586
 20
31.2679742058
 30
0.0
 10
2378.8523438586
 20
31.2679742058
 30
0.0
 10
2378.8523438586
 20
32.3985425876
 30
0.0
 10
2378.8523438586
 20
32.3985425876
 30
0.0
  0
SPLINE
  5
23A
330
20D
100
AcDbEntity
  8
0
  6
Continuous
 62
     7
100
AcDbSpline
 70
     3
 71
     3
 72
    44
 73
    40
 74
     0
 42
0.000000001
 43
0.0000001
 40
0.0
 40
0.0
 40
0.0
 40
0.0
 40
1.0
 40
1.0
 40
1.0
 40
2.0
 40
2.0
 40
2.0
 40
3.0
 40
3.0
 40
3.0
 40
4.0
 40
4.0
 40
4.0
 40
5.0
 40
5.0
 40
5.0
 40
6.0
 40
6.0
 40
6.0
 40
7.0
 40
7.0
 40
7.0
 40
8.0
 40
8.0
 40
8.0
 40
9.0
 40
9.0
 40
9.0
 40
10.0
 40
10.0
 40
10.0
 40
11.0
 40
11.0
 40
11.0
 40
12.0
 40
12.0
 40
12.0
 40
13.0
 40
13.0
 40
13.0
 40
13.0
 10
2380.421269194
 20
33.3836026313
 30
0.0
 10
2380.421269194
 20
33.3836026313
 30
0.0
 10
2380.421269194
 20
31.2454675204
 30
0.0
 10
2380.421269194
 20
31.2454675204
 30
0.0
 10
2380.421269194
 20
31.2454675204
 30
0.0
 10
2380.6426721688
 20
31.2454675204
 30
0.0
 10
2380.6426721688
 20
31.2454675204
 30
0.0
 10
2380.6426721688
 20
31.2454675204
 30
0.0
 10
2380.6426721688
 20
31.7751597437
 30
0.0
 10
2380.6426721688
 20
31.7751597437
 30
0.0
 10
2380.6426721688
 20
31.9850476701
 30
0.0
 10
2380.6426721688
 20
32.235761677
 30
0.0
 10
2380.9279313206
 20
32.235761677
 30
0.0
 10
2381.1548301139
 20
32.235761677
 30
0.0
 10
2381.1817857953
 20
32.1028152099
 30
0.0
 10
2381.1817857953
 20
31.906535977
 30
0.0
 10
2381.1817857953
 20
31.906535977
 30
0.0
 10
2381.1817857953
 20
31.2454675204
 30
0.0
 10
2381.1817857953
 20
31.2454675204
 30
0.0
 10
2381.1817857953
 20
31.2454675204
 30
0.0
 10
2381.4037121813
 20
31.2454675204
 30
0.0
 10
2381.4037121813
 20
31.2454675204
 30
0.0
 10
2381.4037121813
 20
31.2454675204
 30
0.0
 10
2381.4037121813
 20
31.9327065413
 30
0.0
 10
2381.4037121813
 20
31.9327065413
 30
0.0
 10
2381.4037121813
 20
32.2132549916
 30
0.0
 10
2381.3197046696
 20
32.4330877326
 30
0.0
 10
2380.9946662598
 20
32.4330877326
 30
0.0
 10
2380.854915446
 20
32.4330877326
 30
0.0
 10
2380.716734866
 20
32.366614499
 30
0.0
 10
2380.6473828703
 20
32.2436128463
 30
0.0
 10
2380.6473828703
 20
32.2436128463
 30
0.0
 10
2380.6426721688
 20
32.2436128463
 30
0.0
 10
2380.6426721688
 20
32.2436128463
 30
0.0
 10
2380.6426721688
 20
32.2436128463
 30
0.0
 10
2380.6426721688
 20
33.3836026313
 30
0.0
 10
2380.6426721688
 20
33.3836026313
 30
0.0
 10
2380.6426721688
 20
33.3836026313
 30
0.0
 10
2380.421269194
 20
33.3836026313
 30
0.0
 10
2380.421269194
 20
33.3836026313
 30
0.0
  0
LWPOLYLINE
  5
23B
330
20D
100
AcDbEntity
  8
0
  6
Continuous
 62
     7
100
AcDbPolyline
 90
        2
 70
     0
 43
0.2
 10
2383.243503
 20
32.191272
 10
2383.459933
 20
32.191272
  0
LWPOLYLINE
  5
23C
330
20D
100
AcDbEntity
  8
0
  6
Continuous
 62
     7
100
AcDbPolyline
 90
        2
 70
     0
 43
0.2
 10
2383.459933
 20
32.191272
 10
2383.459933
 20
32.398019
  0
LWPOLYLINE
  5
23D
330
20D
100
AcDbEntity
  8
0
  6
Continuous
 62
     7
100
AcDbPolyline
 90
        2
 70
     0
 43
0.2
 10
2383.459933
 20
32.398019
 10
2383.243503
 20
32.398019
  0
LWPOLYLINE
  5
23E
330
20D
100
AcDbEntity
  8
0
  6
Continuous
 62
     7
100
AcDbPolyline
 90
        2
 70
     0
 43
0.2
 10
2383.243503
 20
32.398019
 10
2383.243503
 20
32.838731
  0
LWPOLYLINE
  5
23F
330
20D
100
AcDbEntity
  8
0
  6
Continuous
 62
     7
100
AcDbPolyline
 90
        2
 70
     0
 43
0.2
 10
2383.243503
 20
32.838731
 10
2383.021838
 20
32.838731
  0
LWPOLYLINE
  5
240
330
20D
100
AcDbEntity
  8
0
  6
Continuous
 62
     7
100
AcDbPolyline
 90
        2
 70
     0
 43
0.2
 10
2383.021838
 20
32.838731
 10
2383.021838
 20
32.398019
  0
LWPOLYLINE
  5
241
330
20D
100
AcDbEntity
  8
0
  6
Continuous
 62
     7
100
AcDbPolyline
 90
        2
 70
     0
 43
0.2
 10
2383.021838
 20
32.398019
 10
2382.901192
 20
32.398019
  0
LWPOLYLINE
  5
242
330
20D
100
AcDbEntity
  8
0
  6
Continuous
 62
     7
100
AcDbPolyline
 90
        2
 70
     0
 43
0.2
 10
2382.901192
 20
32.398019
 10
2382.901192
 20
32.191272
  0
LWPOLYLINE
  5
243
330
20D
100
AcDbEntity
  8
0
  6
Continuous
 62
     7
100
AcDbPolyline
 90
        2
 70
     0
 43
0.2
 10
2382.901192
 20
32.191272
 10
2383.021838
 20
32.191272
  0
LWPOLYLINE
  5
244
330
20D
100
AcDbEntity
  8
0
  6
Continuous
 62
     7
100
AcDbPolyline
 90
        2
 70
     0
 43
0.2
 10
2383.021838
 20
32.191272
 10
2383.021838
 20
31.245468
  0
LWPOLYLINE
  5
245
330
20D
100
AcDbEntity
  8
0
  6
Continuous
 62
     7
100
AcDbPolyline
 90
        2
 70
     0
 43
0.2
 10
2383.021838
 20
31.245468
 10
2383.243503
 20
31.245468
  0
LWPOLYLINE
  5
246
330
20D
100
AcDbEntity
  8
0
  6
Continuous
 62
     7
100
AcDbPolyline
 90
        2
 70
     0
 43
0.2
 10
2383.243503
 20
31.245468
 10
2383.243503
 20
32.191272
  0
SPLINE
  5
247
330
20D
100
AcDbEntity
  8
0
  6
Continuous
 62
     7
100
AcDbSpline
 70
     3
 71
     3
 72
    20
 73
    16
 74
     0
 42
0.000000001
 43
0.0000001
 40
0.0
 40
0.0
 40
0.0
 40
0.0
 40
1.0
 40
1.0
 40
1.0
 40
2.0
 40
2.0
 40
2.0
 40
3.0
 40
3.0
 40
3.0
 40
4.0
 40
4.0
 40
4.0
 40
5.0
 40
5.0
 40
5.0
 40
5.0
 10
2371.0255131654
 20
41.6063939638
 30
0.0
 10
2371.0255131654
 20
41.6063939638
 30
0.0
 10
2373.3418698199
 20
38.7768325415
 30
0.0
 10
2373.3418698199
 20
38.7768325415
 30
0.0
 10
2372.6902227665
 20
38.1246620769
 30
0.0
 10
2371.9133495625
 20
37.3887458061
 30
0.0
 10
2370.9421599178
 20
37.3887458061
 30
0.0
 10
2369.9436220334
 20
37.3887458061
 30
0.0
 10
2369.0003040398
 20
38.3183242534
 30
0.0
 10
2369.0003040398
 20
39.3175164019
 30
0.0
 10
2369.0003040398
 20
40.3167085505
 30
0.0
 10
2370.1791571129
 20
41.0233137891
 30
0.0
 10
2370.9006795733
 20
41.523171569
 30
0.0
 10
2370.9006795733
 20
41.523171569
 30
0.0
 10
2371.0255131654
 20
41.6063939638
 30
0.0
 10
2371.0255131654
 20
41.6063939638
 30
0.0
  0
SPLINE
  5
248
330
20D
100
AcDbEntity
  8
0
  6
Continuous
 62
     7
100
AcDbSpline
 70
     3
 71
     3
 72
    23
 73
    19
 74
     0
 42
0.000000001
 43
0.0000001
 40
0.0
 40
0.0
 40
0.0
 40
0.0
 40
1.0
 40
1.0
 40
1.0
 40
2.0
 40
2.0
 40
2.0
 40
3.0
 40
3.0
 40
3.0
 40
4.0
 40
4.0
 40
4.0
 40
5.0
 40
5.0
 40
5.0
 40
6.0
 40
6.0
 40
6.0
 40
6.0
 10
2371.302921148
 20
43.2441478835
 30
0.0
 10
2371.302921148
 20
43.2441478835
 30
0.0
 10
2370.9564228754
 20
43.6874772443
 30
0.0
 10
2370.9564228754
 20
43.6874772443
 30
0.0
 10
2370.6506198305
 20
44.0755867143
 30
0.0
 10
2370.3317315034
 20
44.4640887427
 30
0.0
 10
2370.3317315034
 20
44.9910330568
 30
0.0
 10
2370.3317315034
 20
45.6572047734
 30
0.0
 10
2370.8730696278
 20
46.1009266927
 30
0.0
 10
2371.496975883
 20
46.1009266927
 30
0.0
 10
2372.190757545
 20
46.1009266927
 30
0.0
 10
2372.7179635648
 20
45.698685118
 30
0.0
 10
2372.7179635648
 20
44.963684817
 30
0.0
 10
2372.7179635648
 20
44.2004203064
 30
0.0
 10
2371.9967028101
 20
43.7703070806
 30
0.0
 10
2371.4696276432
 20
43.3545876652
 30
0.0
 10
2371.4696276432
 20
43.3545876652
 30
0.0
 10
2371.302921148
 20
43.2441478835
 30
0.0
 10
2371.302921148
 20
43.2441478835
 30
0.0
  0
SPLINE
  5
249
330
20D
100
AcDbEntity
  8
0
  6
Continuous
 62
     7
100
AcDbSpline
 70
     3
 71
     3
 72
    50
 73
    46
 74
     0
 42
0.000000001
 43
0.0000001
 40
0.0
 40
0.0
 40
0.0
 40
0.0
 40
1.0
 40
1.0
 40
1.0
 40
2.0
 40
2.0
 40
2.0
 40
3.0
 40
3.0
 40
3.0
 40
4.0
 40
4.0
 40
4.0
 40
5.0
 40
5.0
 40
5.0
 40
6.0
 40
6.0
 40
6.0
 40
7.0
 40
7.0
 40
7.0
 40
8.0
 40
8.0
 40
8.0
 40
9.0
 40
9.0
 40
9.0
 40
10.0
 40
10.0
 40
10.0
 40
11.0
 40
11.0
 40
11.0
 40
12.0
 40
12.0
 40
12.0
 40
13.0
 40
13.0
 40
13.0
 40
14.0
 40
14.0
 40
14.0
 40
15.0
 40
15.0
 40
15.0
 40
15.0
 10
2375.2565083109
 20
36.4455586654
 30
0.0
 10
2375.2565083109
 20
36.4455586654
 30
0.0
 10
2376.8657363155
 20
36.4455586654
 30
0.0
 10
2376.8657363155
 20
36.4455586654
 30
0.0
 10
2376.8657363155
 20
36.4455586654
 30
0.0
 10
2374.9927090218
 20
38.7627004368
 30
0.0
 10
2374.9927090218
 20
38.7627004368
 30
0.0
 10
2374.9927090218
 20
38.7627004368
 30
0.0
 10
2376.2690474473
 20
40.2601801314
 30
0.0
 10
2376.2690474473
 20
40.2601801314
 30
0.0
 10
2376.2690474473
 20
40.2601801314
 30
0.0
 10
2375.4368234996
 20
41.1211916999
 30
0.0
 10
2375.4368234996
 20
41.1211916999
 30
0.0
 10
2375.4368234996
 20
41.1211916999
 30
0.0
 10
2374.2162283763
 20
39.7058875775
 30
0.0
 10
2374.2162283763
 20
39.7058875775
 30
0.0
 10
2374.2162283763
 20
39.7058875775
 30
0.0
 10
2372.0383140075
 20
42.3412634119
 30
0.0
 10
2372.0383140075
 20
42.3412634119
 30
0.0
 10
2372.9118874469
 20
42.9793017718
 30
0.0
 10
2373.9385586881
 20
43.7703070806
 30
0.0
 10
2373.9385586881
 20
44.9491601537
 30
0.0
 10
2373.9385586881
 20
46.3228530788
 30
0.0
 10
2372.8006625482
 20
47.1273362282
 30
0.0
 10
2371.5253709453
 20
47.1273362282
 30
0.0
 10
2370.151939726
 20
47.1273362282
 30
0.0
 10
2369.1110055272
 20
46.2811110286
 30
0.0
 10
2369.1110055272
 20
44.8384586664
 30
0.0
 10
2369.1110055272
 20
43.950883975
 30
0.0
 10
2369.6663449036
 20
43.1740107709
 30
0.0
 10
2370.2625103605
 20
42.5495811045
 30
0.0
 10
2370.2625103605
 20
42.5495811045
 30
0.0
 10
2369.6106016015
 20
42.0779875341
 30
0.0
 10
2369.6106016015
 20
42.0779875341
 30
0.0
 10
2368.6120637171
 20
41.3567267794
 30
0.0
 10
2367.7791855052
 20
40.6354660248
 30
0.0
 10
2367.7791855052
 20
39.3039077084
 30
0.0
 10
2367.7791855052
 20
37.5002324104
 30
0.0
 10
2369.2362316778
 20
36.2236322793
 30
0.0
 10
2370.9837711152
 20
36.2236322793
 30
0.0
 10
2372.2186291961
 20
36.2236322793
 30
0.0
 10
2373.3279994208
 20
36.9318077518
 30
0.0
 10
2374.1188738767
 20
37.8603393765
 30
0.0
 10
2374.1188738767
 20
37.8603393765
 30
0.0
 10
2375.2565083109
 20
36.4455586654
 30
0.0
 10
2375.2565083109
 20
36.4455586654
 30
0.0
  0
LINE
  5
24A
330
20D
100
AcDbEntity
  8
0
  6
Continuous
 62
     7
100
AcDbLine
 10
2361.05937
 20
34.419434
 30
0.0
 11
2383.47328
 21
34.419434
 31
0.0
  0
LINE
  5
24B
330
20D
100
AcDbEntity
  8
0
  6
Continuous
 62
     7
100
AcDbLine
 10
2383.47328
 20
34.419434
 30
0.0
 11
2383.47328
 21
56.833344
 31
0.0
  0
LINE
  5
24C
330
20D
100
AcDbEntity
  8
0
  6
Continuous
 62
     7
100
AcDbLine
 10
2383.47328
 20
56.833344
 30
0.0
 11
2361.05937
 21
56.833344
 31
0.0
  0
LINE
  5
24D
330
20D
100
AcDbEntity
  8
0
  6
Continuous
 62
     7
100
AcDbLine
 10
2361.05937
 20
56.833344
 30
0.0
 11
2361.05937
 21
34.419434
 31
0.0
  0
ENDBLK
  5
24E
330
20D
100
AcDbEntity
  8
0
  6
ByBlock
 62
     0
100
AcDbBlockEnd
  0
BLOCK
  5
270
330
20E
100
AcDbEntity
  8
0
100
AcDbBlockBegin
  2
*T5
 70
     1
 10
0.0
 20
0.0
 30
0.0
  3
*T5
  1
*T5
  0
LINE
  5
271
330
20E
100
AcDbEntity
  8
0
  6
Continuous
 62
     2
100
AcDbLine
 10
0.0
 20
0.0
 30
0.0
 11
90.0
 21
0.0
 31
0.0
  0
LINE
  5
272
330
20E
100
AcDbEntity
  8
0
  6
Continuous
 62
     2
100
AcDbLine
 10
0.0
 20
0.0
 30
0.0
 11
0.0
 21
-40.0
 31
0.0
  0
LINE
  5
273
330
20E
100
AcDbEntity
  8
0
  6
Continuous
 62
     2
100
AcDbLine
 10
30.0
 20
-6.0
 30
0.0
 11
90.0
 21
-6.0
 31
0.0
  0
LINE
  5
274
330
20E
100
AcDbEntity
  8
0
  6
Continuous
 62
     2
100
AcDbLine
 10
30.0
 20
-12.0
 30
0.0
 11
90.0
 21
-12.0
 31
0.0
  0
LINE
  5
275
330
20E
100
AcDbEntity
  8
0
  6
Continuous
 62
     2
100
AcDbLine
 10
30.0
 20
-22.0
 30
0.0
 11
90.0
 21
-22.0
 31
0.0
  0
LINE
  5
276
330
20E
100
AcDbEntity
  8
0
  6
Continuous
 62
     2
100
AcDbLine
 10
0.0
 20
-27.0
 30
0.0
 11
90.0
 21
-27.0
 31
0.0
  0
LINE
  5
277
330
20E
100
AcDbEntity
  8
0
  6
Continuous
 62
     2
100
AcDbLine
 10
0.0
 20
-40.0
 30
0.0
 11
90.0
 21
-40.0
 31
0.0
  0
LINE
  5
278
330
20E
100
AcDbEntity
  8
0
  6
Continuous
 62
     2
100
AcDbLine
 10
30.0
 20
0.0
 30
0.0
 11
30.0
 21
-27.0
 31
0.0
  0
LINE
  5
279
330
20E
100
AcDbEntity
  8
0
  6
Continuous
 62
     2
100
AcDbLine
 10
70.0
 20
0.0
 30
0.0
 11
70.0
 21
-12.0
 31
0.0
  0
LINE
  5
27A
330
20E
100
AcDbEntity
  8
0
  6
Continuous
 62
     2
100
AcDbLine
 10
90.0
 20
0.0
 30
0.0
 11
90.0
 21
-40.0
 31
0.0
  0
MTEXT
  5
27B
330
20E
100
AcDbEntity
  8
9_SOLID
  6
Continuous
 62
     2
100
AcDbMText
 10
31.4875
 20
-1.5
 30
0.0
 40
3.0
 41
48.914498
 46
0.0
 71
     1
 72
     1
  1
A117_C_402
 73
     1
 44
0.9
  0
MTEXT
  5
27C
330
20E
100
AcDbEntity
  8
9_SOLID
  6
Continuous
 62
     2
100
AcDbMText
 10
71.4875
 20
-1.25
 30
0.0
 40
3.5
 41
30.966543
 46
0.0
 71
     1
 72
     1
  1
Rev:00
 73
     1
 44
0.9
  0
MTEXT
  5
27D
330
20E
100
AcDbEntity
  8
9_SOLID
  6
Continuous
 62
     2
100
AcDbMText
 10
31.4875
 20
-7.75
 30
0.0
 40
3.5
 41
40.724907
 46
0.0
 71
     1
 72
     1
  1
Scale:1:1
 73
     1
 44
0.9
  0
MTEXT
  5
27E
330
20E
100
AcDbEntity
  8
9_SOLID
  6
Continuous
 62
     2
100
AcDbMText
 10
71.4875
 20
-8.0
 30
0.0
 40
2.0
 41
33.858736
 46
0.0
 71
     1
 72
     1
  1
2500 by 3200
 73
     1
 44
0.9
  0
MTEXT
  5
27F
330
20E
100
AcDbEntity
  8
9_SOLID
  6
Continuous
 62
     2
100
AcDbMText
 10
31.4875
 20
-15.85
 30
0.0
 40
2.3
 41
109.596283
 46
0.0
 71
     1
 72
     1
  1
CASSAF.TAGO TRIM 1.3 L=1063 mm
 73
     1
 44
0.9
  0
MTEXT
  5
280
330
20E
100
AcDbEntity
  8
9_SOLID
  6
Continuous
 62
     2
100
AcDbMText
 10
31.4875
 20
-23.25
 30
0.0
 40
2.5
 41
47.695167
 46
0.0
 71
     1
 72
     1
  1
DATE:03.03.21
 73
     1
 44
0.9
  0
MTEXT
  5
281
330
20E
100
AcDbEntity
  8
9_SOLID
  6
Continuous
 62
     2
100
AcDbMText
 10
1.4875
 20
-27.3125
 30
0.0
 40
2.25
 41
148.98513
 46
0.0
 71
     1
 72
     1
  1
Any integral or partial reproductions are prohibited \Pwithout prior authorisation of L & L Luce & Light s.r.l., \Pin accordance with the law in force. \PAll rights reserved.
 73
     1
 44
0.9
  0
ENDBLK
  5
282
330
20E
100
AcDbEntity
  8
0
  6
ByBlock
 62
     0
100
AcDbBlockEnd
  0
ENDSEC
  0
SECTION
  2
ENTITIES
  0
LINE
  5
283
330
207
100
AcDbEntity
  8
0
  6
Continuous
 62
     7
100
AcDbLine
 10
0.0
 20
0.0
 30
0.0
 11
2500.0
 21
0.0
 31
0.0
  0
LINE
  5
284
330
207
100
AcDbEntity
  8
0
  6
Continuous
 62
     7
100
AcDbLine
 10
2500.0
 20
0.0
 30
0.0
 11
2500.0
 21
3200.0
 31
0.0
  0
LINE
  5
285
330
207
100
AcDbEntity
  8
0
  6
Continuous
 62
     7
100
AcDbLine
 10
0.0
 20
3200.0
 30
0.0
 11
2500.0
 21
3200.0
 31
0.0
  0
LINE
  5
286
330
207
100
AcDbEntity
  8
0
  6
Continuous
 62
     7
100
AcDbLine
 10
0.0
 20
0.0
 30
0.0
 11
0.0
 21
3200.0
 31
0.0
  0
LINE
  5
287
330
207
100
AcDbEntity
  8
3_ALL_AXES
  6
Continuous
 62
     7
100
AcDbLine
 10
1368.826144
 20
505.214048
 30
0.0
 11
1369.532014
 21
505.214048
 31
0.0
  0
LINE
  5
288
330
207
100
AcDbEntity
  8
3_ALL_AXES
  6
Continuous
 62
     7
100
AcDbLine
 10
1368.826144
 20
511.014048
 30
0.0
 11
1369.532014
 21
511.014048
 31
0.0
  0
ARC
  5
289
330
207
100
AcDbEntity
  8
3_ALL_AXES
  6
Continuous
 62
     7
100
AcDbCircle
 10
1362.076144
 20
508.114048
 30
0.0
 40
8.0
100
AcDbArc
 50
0.0
 51
21.253809
  0
ARC
  5
28A
330
207
100
AcDbEntity
  8
3_ALL_AXES
  6
Continuous
 62
     7
100
AcDbCircle
 10
1362.076144
 20
508.114048
 30
0.0
 40
8.0
100
AcDbArc
 50
338.746191
 51
360.0
  0
LINE
  5
28B
330
207
100
AcDbEntity
  8
3_ALL_AXES
  6
Continuous
 62
     7
100
AcDbLine
 10
1369.532014
 20
505.214048
 30
0.0
 11
1369.532014
 21
511.014048
 31
0.0
  0
LINE
  5
28C
330
207
100
AcDbEntity
  8
3_ALL_AXES
  6
Continuous
 62
     7
100
AcDbLine
 10
1368.826144
 20
530.214048
 30
0.0
 11
1369.532014
 21
530.214048
 31
0.0
  0
LINE
  5
28D
330
207
100
AcDbEntity
  8
3_ALL_AXES
  6
Continuous
 62
     7
100
AcDbLine
 10
1368.826144
 20
536.014048
 30
0.0
 11
1369.532014
 21
536.014048
 31
0.0
  0
ARC
  5
28E
330
207
100
AcDbEntity
  8
3_ALL_AXES
  6
Continuous
 62
     7
100
AcDbCircle
 10
1362.076144
 20
533.114048
 30
0.0
 40
8.0
100
AcDbArc
 50
0.0
 51
21.253809
  0
ARC
  5
28F
330
207
100
AcDbEntity
  8
3_ALL_AXES
  6
Continuous
 62
     7
100
AcDbCircle
 10
1362.076144
 20
533.114048
 30
0.0
 40
8.0
100
AcDbArc
 50
338.746191
 51
360.0
  0
LINE
  5
290
330
207
100
AcDbEntity
  8
3_ALL_AXES
  6
Continuous
 62
     7
100
AcDbLine
 10
1369.532014
 20
530.214048
 30
0.0
 11
1369.532014
 21
536.014048
 31
0.0
  0
LINE
  5
291
330
207
100
AcDbEntity
  8
3_ALL_AXES
  6
Continuous
 62
     7
100
AcDbLine
 10
305.826144
 20
511.014048
 30
0.0
 11
305.120274
 21
511.014048
 31
0.0
  0
LINE
  5
292
330
207
100
AcDbEntity
  8
3_ALL_AXES
  6
Continuous
 62
     7
100
AcDbLine
 10
305.826144
 20
505.214048
 30
0.0
 11
305.120274
 21
505.214048
 31
0.0
  0
ARC
  5
293
330
207
100
AcDbEntity
  8
3_ALL_AXES
  6
Continuous
 62
     7
100
AcDbCircle
 10
312.576144
 20
508.114048
 30
0.0
 40
8.0
100
AcDbArc
 50
180.0
 51
201.253809
  0
ARC
  5
294
330
207
100
AcDbEntity
  8
3_ALL_AXES
  6
Continuous
 62
     7
100
AcDbCircle
 10
312.576144
 20
508.114048
 30
0.0
 40
8.0
100
AcDbArc
 50
158.746191
 51
180.0
  0
LINE
  5
295
330
207
100
AcDbEntity
  8
3_ALL_AXES
  6
Continuous
 62
     7
100
AcDbLine
 10
305.120274
 20
511.014048
 30
0.0
 11
305.120274
 21
505.214048
 31
0.0
  0
LINE
  5
296
330
207
100
AcDbEntity
  8
3_ALL_AXES
  6
Continuous
 62
     7
100
AcDbLine
 10
305.826144
 20
536.014048
 30
0.0
 11
305.120274
 21
536.014048
 31
0.0
  0
LINE
  5
297
330
207
100
AcDbEntity
  8
3_ALL_AXES
  6
Continuous
 62
     7
100
AcDbLine
 10
305.826144
 20
530.214048
 30
0.0
 11
305.120274
 21
530.214048
 31
0.0
  0
ARC
  5
298
330
207
100
AcDbEntity
  8
3_ALL_AXES
  6
Continuous
 62
     7
100
AcDbCircle
 10
312.576144
 20
533.114048
 30
0.0
 40
8.0
100
AcDbArc
 50
180.0
 51
201.253809
  0
ARC
  5
299
330
207
100
AcDbEntity
  8
3_ALL_AXES
  6
Continuous
 62
     7
100
AcDbCircle
 10
312.576144
 20
533.114048
 30
0.0
 40
8.0
100
AcDbArc
 50
158.746191
 51
180.0
  0
LINE
  5
29A
330
207
100
AcDbEntity
  8
3_ALL_AXES
  6
Continuous
 62
     7
100
AcDbLine
 10
305.120274
 20
536.014048
 30
0.0
 11
305.120274
 21
530.214048
 31
0.0
  0
LINE
  5
29B
330
207
100
AcDbEntity
  8
3_ALL_AXES
  6
Continuous
 62
     7
100
AcDbLine
 10
305.826144
 20
491.114048
 30
0.0
 11
305.826144
 21
490.614048
 31
0.0
  0
LINE
  5
29C
330
207
100
AcDbEntity
  8
3_ALL_AXES
  6
Continuous
 62
     7
100
AcDbLine
 10
305.826144
 20
550.614048
 30
0.0
 11
305.826144
 21
550.114048
 31
0.0
  0
LINE
  5
29D
330
207
100
AcDbEntity
  8
3_ALL_AXES
  6
Continuous
 62
     7
100
AcDbLine
 10
305.826144
 20
491.114048
 30
0.0
 11
305.826144
 21
550.114048
 31
0.0
  0
LINE
  5
29E
330
207
100
AcDbEntity
  8
3_ALL_AXES
  6
Continuous
 62
     7
100
AcDbLine
 10
307.326144
 20
490.614048
 30
0.0
 11
305.826144
 21
490.614048
 31
0.0
  0
LINE
  5
29F
330
207
100
AcDbEntity
  8
3_ALL_AXES
  6
Continuous
 62
     7
100
AcDbLine
 10
307.326144
 20
550.614048
 30
0.0
 11
305.826144
 21
550.614048
 31
0.0
  0
LINE
  5
2A0
330
207
100
AcDbEntity
  8
3_ALL_AXES
  6
Continuous
 62
     9
100
AcDbLine
 10
307.326144
 20
550.114048
 30
0.0
 11
305.826144
 21
550.114048
 31
0.0
  0
LINE
  5
2A1
330
207
100
AcDbEntity
  8
3_ALL_AXES
  6
Continuous
 62
     9
100
AcDbLine
 10
307.326144
 20
491.114048
 30
0.0
 11
305.826144
 21
491.114048
 31
0.0
  0
LINE
  5
2A2
330
207
100
AcDbEntity
  8
3_ALL_AXES
  6
Continuous
 62
     7
100
AcDbLine
 10
1368.826144
 20
550.114048
 30
0.0
 11
1368.826144
 21
550.614048
 31
0.0
  0
LINE
  5
2A3
330
207
100
AcDbEntity
  8
3_ALL_AXES
  6
Continuous
 62
     7
100
AcDbLine
 10
1368.826144
 20
490.614048
 30
0.0
 11
1368.826144
 21
491.114048
 31
0.0
  0
LINE
  5
2A4
330
207
100
AcDbEntity
  8
3_ALL_AXES
  6
Continuous
 62
     7
100
AcDbLine
 10
1368.826144
 20
550.114048
 30
0.0
 11
1368.826144
 21
491.114048
 31
0.0
  0
LINE
  5
2A5
330
207
100
AcDbEntity
  8
3_ALL_AXES
  6
Continuous
 62
     7
100
AcDbLine
 10
1367.326144
 20
550.614048
 30
0.0
 11
1368.826144
 21
550.614048
 31
0.0
  0
LINE
  5
2A6
330
207
100
AcDbEntity
  8
3_ALL_AXES
  6
Continuous
 62
     7
100
AcDbLine
 10
1367.326144
 20
490.614048
 30
0.0
 11
1368.826144
 21
490.614048
 31
0.0
  0
LINE
  5
2A7
330
207
100
AcDbEntity
  8
3_ALL_AXES
  6
Continuous
 62
     9
100
AcDbLine
 10
1367.326144
 20
491.114048
 30
0.0
 11
1368.826144
 21
491.114048
 31
0.0
  0
LINE
  5
2A8
330
207
100
AcDbEntity
  8
3_ALL_AXES
  6
Continuous
 62
     9
100
AcDbLine
 10
1367.326144
 20
550.114048
 30
0.0
 11
1368.826144
 21
550.114048
 31
0.0
  0
LINE
  5
2A9
330
207
100
AcDbEntity
  8
3_ALL_AXES
  6
Continuous
 62
     7
100
AcDbLine
 10
1367.326144
 20
549.114048
 30
0.0
 11
1367.326144
 21
549.214048
 31
0.0
  0
LINE
  5
2AA
330
207
100
AcDbEntity
  8
3_ALL_AXES
  6
Continuous
 62
     7
100
AcDbLine
 10
1367.326144
 20
549.214048
 30
0.0
 11
1367.326144
 21
549.363558
 31
0.0
  0
LINE
  5
2AB
330
207
100
AcDbEntity
  8
3_ALL_AXES
  6
Continuous
 62
     7
100
AcDbLine
 10
1367.326144
 20
549.363558
 30
0.0
 11
1367.326144
 21
550.114048
 31
0.0
  0
LINE
  5
2AC
330
207
100
AcDbEntity
  8
3_ALL_AXES
  6
Continuous
 62
     7
100
AcDbLine
 10
1367.326144
 20
550.114048
 30
0.0
 11
1367.326144
 21
550.414048
 31
0.0
  0
LINE
  5
2AD
330
207
100
AcDbEntity
  8
3_ALL_AXES
  6
Continuous
 62
     7
100
AcDbLine
 10
1367.326144
 20
550.414048
 30
0.0
 11
1367.326144
 21
550.614048
 31
0.0
  0
LINE
  5
2AE
330
207
100
AcDbEntity
  8
3_ALL_AXES
  6
Continuous
 62
     7
100
AcDbLine
 10
1367.326144
 20
550.814048
 30
0.0
 11
1367.326144
 21
551.390036
 31
0.0
  0
LINE
  5
2AF
330
207
100
AcDbEntity
  8
3_ALL_AXES
  6
Continuous
 62
     7
100
AcDbLine
 10
1367.326144
 20
551.390036
 30
0.0
 11
1367.326144
 21
551.752042
 31
0.0
  0
LINE
  5
2B0
330
207
100
AcDbEntity
  8
3_ALL_AXES
  6
Continuous
 62
     7
100
AcDbLine
 10
1367.326144
 20
551.752042
 30
0.0
 11
1367.326144
 21
552.114048
 31
0.0
  0
LINE
  5
2B1
330
207
100
AcDbEntity
  8
3_ALL_AXES
  6
Continuous
 62
     7
100
AcDbLine
 10
1367.326144
 20
489.114048
 30
0.0
 11
1367.326144
 21
489.838061
 31
0.0
  0
LINE
  5
2B2
330
207
100
AcDbEntity
  8
3_ALL_AXES
  6
Continuous
 62
     7
100
AcDbLine
 10
1367.326144
 20
489.838061
 30
0.0
 11
1367.326144
 21
490.414048
 31
0.0
  0
LINE
  5
2B3
330
207
100
AcDbEntity
  8
3_ALL_AXES
  6
Continuous
 62
     7
100
AcDbLine
 10
1367.326144
 20
490.414048
 30
0.0
 11
1367.326144
 21
490.614048
 31
0.0
  0
LINE
  5
2B4
330
207
100
AcDbEntity
  8
3_ALL_AXES
  6
Continuous
 62
     7
100
AcDbLine
 10
1367.326144
 20
490.614048
 30
0.0
 11
1367.326144
 21
490.814048
 31
0.0
  0
LINE
  5
2B5
330
207
100
AcDbEntity
  8
3_ALL_AXES
  6
Continuous
 62
     7
100
AcDbLine
 10
1367.326144
 20
490.814048
 30
0.0
 11
1367.326144
 21
491.114048
 31
0.0
  0
LINE
  5
2B6
330
207
100
AcDbEntity
  8
3_ALL_AXES
  6
Continuous
 62
     7
100
AcDbLine
 10
1367.326144
 20
491.114048
 30
0.0
 11
1367.326144
 21
491.864986
 31
0.0
  0
LINE
  5
2B7
330
207
100
AcDbEntity
  8
3_ALL_AXES
  6
Continuous
 62
     7
100
AcDbLine
 10
1367.326144
 20
491.864986
 30
0.0
 11
1367.326144
 21
492.014048
 31
0.0
  0
LINE
  5
2B8
330
207
100
AcDbEntity
  8
3_ALL_AXES
  6
Continuous
 62
     7
100
AcDbLine
 10
1367.326144
 20
492.014048
 30
0.0
 11
1367.326144
 21
492.114048
 31
0.0
  0
ARC
  5
2B9
330
207
100
AcDbEntity
  8
3_ALL_AXES
  6
Continuous
 62
     7
100
AcDbCircle
 10
1347.326144
 20
520.614048
 30
0.0
 40
5.0
100
AcDbArc
 50
270.0
 51
90.0
  0
ARC
  5
2BA
330
207
100
AcDbEntity
  8
3_ALL_AXES
  6
Continuous
 62
     7
100
AcDbCircle
 10
1347.326144
 20
520.614048
 30
0.0
 40
5.0
100
AcDbArc
 50
90.0
 51
270.0
  0
LINE
  5
2BB
330
207
100
AcDbEntity
  8
3_ALL_AXES
  6
Continuous
 62
     7
100
AcDbLine
 10
1367.326144
 20
492.114048
 30
0.0
 11
307.326144
 21
492.114048
 31
0.0
  0
LINE
  5
2BC
330
207
100
AcDbEntity
  8
3_ALL_AXES
  6
Continuous
 62
     7
100
AcDbLine
 10
1367.326144
 20
490.614048
 30
0.0
 11
307.326144
 21
490.614048
 31
0.0
  0
LINE
  5
2BD
330
207
100
AcDbEntity
  8
3_ALL_AXES
  6
Continuous
 62
     7
100
AcDbLine
 10
1367.326144
 20
489.114048
 30
0.0
 11
307.326144
 21
489.114048
 31
0.0
  0
LINE
  5
2BE
330
207
100
AcDbEntity
  8
3_ALL_AXES
  6
Continuous
 62
     7
100
AcDbLine
 10
307.326144
 20
492.014048
 30
0.0
 11
307.326144
 21
492.114048
 31
0.0
  0
LINE
  5
2BF
330
207
100
AcDbEntity
  8
3_ALL_AXES
  6
Continuous
 62
     7
100
AcDbLine
 10
307.326144
 20
490.814048
 30
0.0
 11
307.326144
 21
491.114048
 31
0.0
  0
LINE
  5
2C0
330
207
100
AcDbEntity
  8
3_ALL_AXES
  6
Continuous
 62
     7
100
AcDbLine
 10
307.326144
 20
491.114048
 30
0.0
 11
307.326144
 21
491.864986
 31
0.0
  0
LINE
  5
2C1
330
207
100
AcDbEntity
  8
3_ALL_AXES
  6
Continuous
 62
     7
100
AcDbLine
 10
307.326144
 20
491.864986
 30
0.0
 11
307.326144
 21
492.014048
 31
0.0
  0
LINE
  5
2C2
330
207
100
AcDbEntity
  8
3_ALL_AXES
  6
Continuous
 62
     7
100
AcDbLine
 10
307.326144
 20
490.614048
 30
0.0
 11
307.326144
 21
490.814048
 31
0.0
  0
LINE
  5
2C3
330
207
100
AcDbEntity
  8
3_ALL_AXES
  6
Continuous
 62
     7
100
AcDbLine
 10
307.326144
 20
490.414048
 30
0.0
 11
307.326144
 21
490.614048
 31
0.0
  0
LINE
  5
2C4
330
207
100
AcDbEntity
  8
3_ALL_AXES
  6
Continuous
 62
     7
100
AcDbLine
 10
307.326144
 20
489.838061
 30
0.0
 11
307.326144
 21
490.414048
 31
0.0
  0
LINE
  5
2C5
330
207
100
AcDbEntity
  8
3_ALL_AXES
  6
Continuous
 62
     7
100
AcDbLine
 10
307.326144
 20
489.114048
 30
0.0
 11
307.326144
 21
489.838061
 31
0.0
  0
LINE
  5
2C6
330
207
100
AcDbEntity
  8
3_ALL_AXES
  6
Continuous
 62
     7
100
AcDbLine
 10
1367.326144
 20
552.114048
 30
0.0
 11
307.326144
 21
552.114048
 31
0.0
  0
LINE
  5
2C7
330
207
100
AcDbEntity
  8
3_ALL_AXES
  6
Continuous
 62
     7
100
AcDbLine
 10
1367.326144
 20
550.614048
 30
0.0
 11
307.326144
 21
550.614048
 31
0.0
  0
LINE
  5
2C8
330
207
100
AcDbEntity
  8
3_ALL_AXES
  6
Continuous
 62
     7
100
AcDbLine
 10
1367.326144
 20
549.114048
 30
0.0
 11
307.326144
 21
549.114048
 31
0.0
  0
LINE
  5
2C9
330
207
100
AcDbEntity
  8
3_ALL_AXES
  6
Continuous
 62
     7
100
AcDbLine
 10
307.326144
 20
551.390036
 30
0.0
 11
307.326144
 21
551.752042
 31
0.0
  0
LINE
  5
2CA
330
207
100
AcDbEntity
  8
3_ALL_AXES
  6
Continuous
 62
     7
100
AcDbLine
 10
307.326144
 20
551.752042
 30
0.0
 11
307.326144
 21
552.114048
 31
0.0
  0
LINE
  5
2CB
330
207
100
AcDbEntity
  8
3_ALL_AXES
  6
Continuous
 62
     7
100
AcDbLine
 10
307.326144
 20
550.814048
 30
0.0
 11
307.326144
 21
551.390036
 31
0.0
  0
LINE
  5
2CC
330
207
100
AcDbEntity
  8
3_ALL_AXES
  6
Continuous
 62
     7
100
AcDbLine
 10
307.326144
 20
550.414048
 30
0.0
 11
307.326144
 21
550.614048
 31
0.0
  0
LINE
  5
2CD
330
207
100
AcDbEntity
  8
3_ALL_AXES
  6
Continuous
 62
     7
100
AcDbLine
 10
307.326144
 20
549.214048
 30
0.0
 11
307.326144
 21
549.363558
 31
0.0
  0
LINE
  5
2CE
330
207
100
AcDbEntity
  8
3_ALL_AXES
  6
Continuous
 62
     7
100
AcDbLine
 10
307.326144
 20
549.363558
 30
0.0
 11
307.326144
 21
550.114048
 31
0.0
  0
LINE
  5
2CF
330
207
100
AcDbEntity
  8
3_ALL_AXES
  6
Continuous
 62
     7
100
AcDbLine
 10
307.326144
 20
550.114048
 30
0.0
 11
307.326144
 21
550.414048
 31
0.0
  0
LINE
  5
2D0
330
207
100
AcDbEntity
  8
3_ALL_AXES
  6
Continuous
 62
     7
100
AcDbLine
 10
307.326144
 20
549.114048
 30
0.0
 11
307.326144
 21
549.214048
 31
0.0
  0
LINE
  5
2D1
330
207
100
AcDbEntity
  8
3_ALL_AXES
  6
Continuous
 62
     9
100
AcDbLine
 10
1367.326144
 20
551.390034
 30
0.0
 11
307.326144
 21
551.390034
 31
0.0
  0
LINE
  5
2D2
330
207
100
AcDbEntity
  8
3_ALL_AXES
  6
Continuous
 62
     9
100
AcDbLine
 10
1367.326144
 20
550.814048
 30
0.0
 11
307.326144
 21
550.814048
 31
0.0
  0
LINE
  5
2D3
330
207
100
AcDbEntity
  8
3_ALL_AXES
  6
Continuous
 62
     9
100
AcDbLine
 10
1367.326144
 20
550.414048
 30
0.0
 11
307.326144
 21
550.414048
 31
0.0
  0
LINE
  5
2D4
330
207
100
AcDbEntity
  8
3_ALL_AXES
  6
Continuous
 62
     9
100
AcDbLine
 10
1367.326144
 20
549.214048
 30
0.0
 11
307.326144
 21
549.214048
 31
0.0
  0
LINE
  5
2D5
330
207
100
AcDbEntity
  8
3_ALL_AXES
  6
Continuous
 62
     9
100
AcDbLine
 10
1367.326144
 20
493.248023
 30
0.0
 11
307.326144
 21
493.248023
 31
0.0
  0
LINE
  5
2D6
330
207
100
AcDbEntity
  8
3_ALL_AXES
  6
Continuous
 62
     9
100
AcDbLine
 10
1367.326144
 20
492.748023
 30
0.0
 11
307.326144
 21
492.748023
 31
0.0
  0
LINE
  5
2D7
330
207
100
AcDbEntity
  8
3_ALL_AXES
  6
Continuous
 62
     9
100
AcDbLine
 10
1367.326144
 20
548.480073
 30
0.0
 11
307.326144
 21
548.480073
 31
0.0
  0
LINE
  5
2D8
330
207
100
AcDbEntity
  8
3_ALL_AXES
  6
Continuous
 62
     9
100
AcDbLine
 10
1367.326144
 20
547.980073
 30
0.0
 11
307.326144
 21
547.980073
 31
0.0
  0
LINE
  5
2D9
330
207
100
AcDbEntity
  8
3_ALL_AXES
  6
Continuous
 62
     9
100
AcDbLine
 10
1367.326144
 20
492.014048
 30
0.0
 11
307.326144
 21
492.014048
 31
0.0
  0
LINE
  5
2DA
330
207
100
AcDbEntity
  8
3_ALL_AXES
  6
Continuous
 62
     9
100
AcDbLine
 10
1367.326144
 20
490.814048
 30
0.0
 11
307.326144
 21
490.814048
 31
0.0
  0
LINE
  5
2DB
330
207
100
AcDbEntity
  8
3_ALL_AXES
  6
Continuous
 62
     9
100
AcDbLine
 10
1367.326144
 20
490.414048
 30
0.0
 11
307.326144
 21
490.414048
 31
0.0
  0
LINE
  5
2DC
330
207
100
AcDbEntity
  8
3_ALL_AXES
  6
Continuous
 62
     9
100
AcDbLine
 10
1367.326144
 20
489.838062
 30
0.0
 11
307.326144
 21
489.838062
 31
0.0
  0
LINE
  5
2DD
330
207
100
AcDbEntity
  8
3_ALL_AXES
  6
Continuous
 62
     3
100
AcDbLine
 10
307.326144
 20
491.114048
 30
0.0
 11
307.326144
 21
490.652731
 31
0.0
  0
LINE
  5
2DE
330
207
100
AcDbEntity
  8
3_ALL_AXES
  6
Continuous
 62
     3
100
AcDbLine
 10
307.326144
 20
550.306869
 30
0.0
 11
307.326144
 21
550.114048
 31
0.0
  0
LINE
  5
2DF
330
207
100
AcDbEntity
  8
3_ALL_AXES
  6
Continuous
 62
     3
100
AcDbLine
 10
307.326144
 20
491.114048
 30
0.0
 11
307.326144
 21
492.014048
 31
0.0
  0
LINE
  5
2E0
330
207
100
AcDbEntity
  8
3_ALL_AXES
  6
Continuous
 62
     3
100
AcDbLine
 10
307.326144
 20
492.014048
 30
0.0
 11
307.326144
 21
492.114048
 31
0.0
  0
LINE
  5
2E1
330
207
100
AcDbEntity
  8
3_ALL_AXES
  6
Continuous
 62
     3
100
AcDbLine
 10
307.326144
 20
492.114048
 30
0.0
 11
307.326144
 21
492.140477
 31
0.0
  0
LINE
  5
2E2
330
207
100
AcDbEntity
  8
3_ALL_AXES
  6
Continuous
 62
     3
100
AcDbLine
 10
307.326144
 20
492.140477
 30
0.0
 11
307.326144
 21
492.748018
 31
0.0
  0
LINE
  5
2E3
330
207
100
AcDbEntity
  8
3_ALL_AXES
  6
Continuous
 62
     3
100
AcDbLine
 10
307.326144
 20
492.748018
 30
0.0
 11
307.326144
 21
493.248023
 31
0.0
  0
LINE
  5
2E4
330
207
100
AcDbEntity
  8
3_ALL_AXES
  6
Continuous
 62
     3
100
AcDbLine
 10
307.326144
 20
493.248023
 30
0.0
 11
307.326144
 21
547.980073
 31
0.0
  0
LINE
  5
2E5
330
207
100
AcDbEntity
  8
3_ALL_AXES
  6
Continuous
 62
     3
100
AcDbLine
 10
307.326144
 20
547.980073
 30
0.0
 11
307.326144
 21
548.480079
 31
0.0
  0
LINE
  5
2E6
330
207
100
AcDbEntity
  8
3_ALL_AXES
  6
Continuous
 62
     3
100
AcDbLine
 10
307.326144
 20
548.480079
 30
0.0
 11
307.326144
 21
549.08762
 31
0.0
  0
LINE
  5
2E7
330
207
100
AcDbEntity
  8
3_ALL_AXES
  6
Continuous
 62
     3
100
AcDbLine
 10
307.326144
 20
549.08762
 30
0.0
 11
307.326144
 21
549.114048
 31
0.0
  0
LINE
  5
2E8
330
207
100
AcDbEntity
  8
3_ALL_AXES
  6
Continuous
 62
     3
100
AcDbLine
 10
307.326144
 20
549.114048
 30
0.0
 11
307.326144
 21
549.214048
 31
0.0
  0
LINE
  5
2E9
330
207
100
AcDbEntity
  8
3_ALL_AXES
  6
Continuous
 62
     3
100
AcDbLine
 10
307.326144
 20
549.214048
 30
0.0
 11
307.326144
 21
550.114048
 31
0.0
  0
LINE
  5
2EA
330
207
100
AcDbEntity
  8
3_ALL_AXES
  6
Continuous
 62
     3
100
AcDbLine
 10
1367.326144
 20
550.114048
 30
0.0
 11
1367.326144
 21
550.575366
 31
0.0
  0
LINE
  5
2EB
330
207
100
AcDbEntity
  8
3_ALL_AXES
  6
Continuous
 62
     3
100
AcDbLine
 10
1367.326144
 20
490.921228
 30
0.0
 11
1367.326144
 21
491.114048
 31
0.0
  0
LINE
  5
2EC
330
207
100
AcDbEntity
  8
3_ALL_AXES
  6
Continuous
 62
     3
100
AcDbLine
 10
1367.326144
 20
550.114048
 30
0.0
 11
1367.326144
 21
549.214048
 31
0.0
  0
LINE
  5
2ED
330
207
100
AcDbEntity
  8
3_ALL_AXES
  6
Continuous
 62
     3
100
AcDbLine
 10
1367.326144
 20
549.214048
 30
0.0
 11
1367.326144
 21
549.114048
 31
0.0
  0
LINE
  5
2EE
330
207
100
AcDbEntity
  8
3_ALL_AXES
  6
Continuous
 62
     3
100
AcDbLine
 10
1367.326144
 20
549.114048
 30
0.0
 11
1367.326144
 21
549.08762
 31
0.0
  0
LINE
  5
2EF
330
207
100
AcDbEntity
  8
3_ALL_AXES
  6
Continuous
 62
     3
100
AcDbLine
 10
1367.326144
 20
549.08762
 30
0.0
 11
1367.326144
 21
548.480079
 31
0.0
  0
LINE
  5
2F0
330
207
100
AcDbEntity
  8
3_ALL_AXES
  6
Continuous
 62
     3
100
AcDbLine
 10
1367.326144
 20
548.480079
 30
0.0
 11
1367.326144
 21
547.980073
 31
0.0
  0
LINE
  5
2F1
330
207
100
AcDbEntity
  8
3_ALL_AXES
  6
Continuous
 62
     3
100
AcDbLine
 10
1367.326144
 20
547.980073
 30
0.0
 11
1367.326144
 21
493.248023
 31
0.0
  0
LINE
  5
2F2
330
207
100
AcDbEntity
  8
3_ALL_AXES
  6
Continuous
 62
     3
100
AcDbLine
 10
1367.326144
 20
493.248023
 30
0.0
 11
1367.326144
 21
492.748018
 31
0.0
  0
LINE
  5
2F3
330
207
100
AcDbEntity
  8
3_ALL_AXES
  6
Continuous
 62
     3
100
AcDbLine
 10
1367.326144
 20
492.748018
 30
0.0
 11
1367.326144
 21
492.140477
 31
0.0
  0
LINE
  5
2F4
330
207
100
AcDbEntity
  8
3_ALL_AXES
  6
Continuous
 62
     3
100
AcDbLine
 10
1367.326144
 20
492.140477
 30
0.0
 11
1367.326144
 21
492.114048
 31
0.0
  0
LINE
  5
2F5
330
207
100
AcDbEntity
  8
3_ALL_AXES
  6
Continuous
 62
     3
100
AcDbLine
 10
1367.326144
 20
492.114048
 30
0.0
 11
1367.326144
 21
492.014048
 31
0.0
  0
LINE
  5
2F6
330
207
100
AcDbEntity
  8
3_ALL_AXES
  6
Continuous
 62
     3
100
AcDbLine
 10
1367.326144
 20
492.014048
 30
0.0
 11
1367.326144
 21
491.114048
 31
0.0
  0
LINE
  5
2F7
330
207
100
AcDbEntity
  8
7_ALL_FEATURES
  6
Continuous
 62
     7
100
AcDbLine
 10
317.684949
 20
961.28788
 30
0.0
 11
316.809949
 21
961.28788
 31
0.0
  0
LINE
  5
2F8
330
207
100
AcDbEntity
  8
7_ALL_FEATURES
  6
Continuous
 62
     7
100
AcDbLine
 10
316.809949
 20
961.28788
 30
0.0
 11
316.809949
 21
962.16288
 31
0.0
  0
LINE
  5
2F9
330
207
100
AcDbEntity
  8
7_ALL_FEATURES
  6
Continuous
 62
     7
100
AcDbLine
 10
316.059949
 20
962.16288
 30
0.0
 11
316.059949
 21
961.28788
 31
0.0
  0
LINE
  5
2FA
330
207
100
AcDbEntity
  8
7_ALL_FEATURES
  6
Continuous
 62
     7
100
AcDbLine
 10
316.059949
 20
961.28788
 30
0.0
 11
315.184949
 21
961.28788
 31
0.0
  0
LINE
  5
2FB
330
207
100
AcDbEntity
  8
7_ALL_FEATURES
  6
Continuous
 62
     7
100
AcDbLine
 10
315.184949
 20
960.53788
 30
0.0
 11
316.059949
 21
960.53788
 31
0.0
  0
LINE
  5
2FC
330
207
100
AcDbEntity
  8
7_ALL_FEATURES
  6
Continuous
 62
     7
100
AcDbLine
 10
316.059949
 20
960.53788
 30
0.0
 11
316.059949
 21
959.66288
 31
0.0
  0
LINE
  5
2FD
330
207
100
AcDbEntity
  8
7_ALL_FEATURES
  6
Continuous
 62
     7
100
AcDbLine
 10
316.809949
 20
959.66288
 30
0.0
 11
316.809949
 21
960.53788
 31
0.0
  0
LINE
  5
2FE
330
207
100
AcDbEntity
  8
7_ALL_FEATURES
  6
Continuous
 62
     7
100
AcDbLine
 10
316.809949
 20
960.53788
 30
0.0
 11
317.684949
 21
960.53788
 31
0.0
  0
ARC
  5
2FF
330
207
100
AcDbEntity
  8
3_ALL_AXES
  6
Continuous
 62
     7
100
AcDbCircle
 10
316.434949
 20
960.91288
 30
0.0
 40
2.15
100
AcDbArc
 50
90.0
 51
270.0
  0
LINE
  5
300
330
207
100
AcDbEntity
  8
7_ALL_FEATURES
  6
Continuous
 62
     7
100
AcDbLine
 10
315.184949
 20
960.53788
 30
0.0
 11
315.184949
 21
961.28788
 31
0.0
  0
LINE
  5
301
330
207
100
AcDbEntity
  8
7_ALL_FEATURES
  6
Continuous
 62
     7
100
AcDbLine
 10
316.059949
 20
962.16288
 30
0.0
 11
316.809949
 21
962.16288
 31
0.0
  0
LINE
  5
302
330
207
100
AcDbEntity
  8
7_ALL_FEATURES
  6
Continuous
 62
     7
100
AcDbLine
 10
317.684949
 20
961.28788
 30
0.0
 11
317.684949
 21
960.53788
 31
0.0
  0
LINE
  5
303
330
207
100
AcDbEntity
  8
7_ALL_FEATURES
  6
Continuous
 62
     7
100
AcDbLine
 10
316.809949
 20
959.66288
 30
0.0
 11
316.059949
 21
959.66288
 31
0.0
  0
ARC
  5
304
330
207
100
AcDbEntity
  8
3_ALL_AXES
  6
Continuous
 62
     7
100
AcDbCircle
 10
316.434949
 20
960.91288
 30
0.0
 40
2.15
100
AcDbArc
 50
270.0
 51
90.0
  0
LINE
  5
305
330
207
100
AcDbEntity
  8
7_ALL_FEATURES
  6
Continuous
 62
     7
100
AcDbLine
 10
317.684949
 20
849.28788
 30
0.0
 11
316.809949
 21
849.28788
 31
0.0
  0
LINE
  5
306
330
207
100
AcDbEntity
  8
7_ALL_FEATURES
  6
Continuous
 62
     7
100
AcDbLine
 10
316.809949
 20
849.28788
 30
0.0
 11
316.809949
 21
850.16288
 31
0.0
  0
LINE
  5
307
330
207
100
AcDbEntity
  8
7_ALL_FEATURES
  6
Continuous
 62
     7
100
AcDbLine
 10
316.059949
 20
850.16288
 30
0.0
 11
316.059949
 21
849.28788
 31
0.0
  0
LINE
  5
308
330
207
100
AcDbEntity
  8
7_ALL_FEATURES
  6
Continuous
 62
     7
100
AcDbLine
 10
316.059949
 20
849.28788
 30
0.0
 11
315.184949
 21
849.28788
 31
0.0
  0
LINE
  5
309
330
207
100
AcDbEntity
  8
7_ALL_FEATURES
  6
Continuous
 62
     7
100
AcDbLine
 10
315.184949
 20
848.53788
 30
0.0
 11
316.059949
 21
848.53788
 31
0.0
  0
LINE
  5
30A
330
207
100
AcDbEntity
  8
7_ALL_FEATURES
  6
Continuous
 62
     7
100
AcDbLine
 10
316.059949
 20
848.53788
 30
0.0
 11
316.059949
 21
847.66288
 31
0.0
  0
LINE
  5
30B
330
207
100
AcDbEntity
  8
7_ALL_FEATURES
  6
Continuous
 62
     7
100
AcDbLine
 10
316.809949
 20
847.66288
 30
0.0
 11
316.809949
 21
848.53788
 31
0.0
  0
LINE
  5
30C
330
207
100
AcDbEntity
  8
7_ALL_FEATURES
  6
Continuous
 62
     7
100
AcDbLine
 10
316.809949
 20
848.53788
 30
0.0
 11
317.684949
 21
848.53788
 31
0.0
  0
ARC
  5
30D
330
207
100
AcDbEntity
  8
3_ALL_AXES
  6
Continuous
 62
     7
100
AcDbCircle
 10
316.434949
 20
848.91288
 30
0.0
 40
2.15
100
AcDbArc
 50
90.0
 51
270.0
  0
LINE
  5
30E
330
207
100
AcDbEntity
  8
7_ALL_FEATURES
  6
Continuous
 62
     7
100
AcDbLine
 10
315.184949
 20
848.53788
 30
0.0
 11
315.184949
 21
849.28788
 31
0.0
  0
LINE
  5
30F
330
207
100
AcDbEntity
  8
7_ALL_FEATURES
  6
Continuous
 62
     7
100
AcDbLine
 10
316.059949
 20
850.16288
 30
0.0
 11
316.809949
 21
850.16288
 31
0.0
  0
LINE
  5
310
330
207
100
AcDbEntity
  8
7_ALL_FEATURES
  6
Continuous
 62
     7
100
AcDbLine
 10
317.684949
 20
849.28788
 30
0.0
 11
317.684949
 21
848.53788
 31
0.0
  0
LINE
  5
311
330
207
100
AcDbEntity
  8
7_ALL_FEATURES
  6
Continuous
 62
     7
100
AcDbLine
 10
316.809949
 20
847.66288
 30
0.0
 11
316.059949
 21
847.66288
 31
0.0
  0
ARC
  5
312
330
207
100
AcDbEntity
  8
3_ALL_AXES
  6
Continuous
 62
     7
100
AcDbCircle
 10
316.434949
 20
848.91288
 30
0.0
 40
2.15
100
AcDbArc
 50
270.0
 51
90.0
  0
LINE
  5
313
330
207
100
AcDbEntity
  8
7_ALL_FEATURES
  6
Continuous
 62
     7
100
AcDbLine
 10
1359.467338
 20
849.28788
 30
0.0
 11
1358.592338
 21
849.28788
 31
0.0
  0
LINE
  5
314
330
207
100
AcDbEntity
  8
7_ALL_FEATURES
  6
Continuous
 62
     7
100
AcDbLine
 10
1358.592338
 20
849.28788
 30
0.0
 11
1358.592338
 21
850.16288
 31
0.0
  0
LINE
  5
315
330
207
100
AcDbEntity
  8
7_ALL_FEATURES
  6
Continuous
 62
     7
100
AcDbLine
 10
1357.842338
 20
850.16288
 30
0.0
 11
1357.842338
 21
849.28788
 31
0.0
  0
LINE
  5
316
330
207
100
AcDbEntity
  8
7_ALL_FEATURES
  6
Continuous
 62
     7
100
AcDbLine
 10
1357.842338
 20
849.28788
 30
0.0
 11
1356.967338
 21
849.28788
 31
0.0
  0
LINE
  5
317
330
207
100
AcDbEntity
  8
7_ALL_FEATURES
  6
Continuous
 62
     7
100
AcDbLine
 10
1356.967338
 20
848.53788
 30
0.0
 11
1357.842338
 21
848.53788
 31
0.0
  0
LINE
  5
318
330
207
100
AcDbEntity
  8
7_ALL_FEATURES
  6
Continuous
 62
     7
100
AcDbLine
 10
1357.842338
 20
848.53788
 30
0.0
 11
1357.842338
 21
847.66288
 31
0.0
  0
LINE
  5
319
330
207
100
AcDbEntity
  8
7_ALL_FEATURES
  6
Continuous
 62
     7
100
AcDbLine
 10
1358.592338
 20
847.66288
 30
0.0
 11
1358.592338
 21
848.53788
 31
0.0
  0
LINE
  5
31A
330
207
100
AcDbEntity
  8
7_ALL_FEATURES
  6
Continuous
 62
     7
100
AcDbLine
 10
1358.592338
 20
848.53788
 30
0.0
 11
1359.467338
 21
848.53788
 31
0.0
  0
ARC
  5
31B
330
207
100
AcDbEntity
  8
3_ALL_AXES
  6
Continuous
 62
     7
100
AcDbCircle
 10
1358.217338
 20
848.91288
 30
0.0
 40
2.15
100
AcDbArc
 50
90.0
 51
270.0
  0
LINE
  5
31C
330
207
100
AcDbEntity
  8
7_ALL_FEATURES
  6
Continuous
 62
     7
100
AcDbLine
 10
1356.967338
 20
848.53788
 30
0.0
 11
1356.967338
 21
849.28788
 31
0.0
  0
LINE
  5
31D
330
207
100
AcDbEntity
  8
7_ALL_FEATURES
  6
Continuous
 62
     7
100
AcDbLine
 10
1357.842338
 20
850.16288
 30
0.0
 11
1358.592338
 21
850.16288
 31
0.0
  0
LINE
  5
31E
330
207
100
AcDbEntity
  8
7_ALL_FEATURES
  6
Continuous
 62
     7
100
AcDbLine
 10
1359.467338
 20
849.28788
 30
0.0
 11
1359.467338
 21
848.53788
 31
0.0
  0
LINE
  5
31F
330
207
100
AcDbEntity
  8
7_ALL_FEATURES
  6
Continuous
 62
     7
100
AcDbLine
 10
1358.592338
 20
847.66288
 30
0.0
 11
1357.842338
 21
847.66288
 31
0.0
  0
ARC
  5
320
330
207
100
AcDbEntity
  8
3_ALL_AXES
  6
Continuous
 62
     7
100
AcDbCircle
 10
1358.217338
 20
848.91288
 30
0.0
 40
2.15
100
AcDbArc
 50
270.0
 51
90.0
  0
LINE
  5
321
330
207
100
AcDbEntity
  8
7_ALL_FEATURES
  6
Continuous
 62
     7
100
AcDbLine
 10
1359.467338
 20
961.28788
 30
0.0
 11
1358.592338
 21
961.28788
 31
0.0
  0
LINE
  5
322
330
207
100
AcDbEntity
  8
7_ALL_FEATURES
  6
Continuous
 62
     7
100
AcDbLine
 10
1358.592338
 20
961.28788
 30
0.0
 11
1358.592338
 21
962.16288
 31
0.0
  0
LINE
  5
323
330
207
100
AcDbEntity
  8
7_ALL_FEATURES
  6
Continuous
 62
     7
100
AcDbLine
 10
1357.842338
 20
962.16288
 30
0.0
 11
1357.842338
 21
961.28788
 31
0.0
  0
LINE
  5
324
330
207
100
AcDbEntity
  8
7_ALL_FEATURES
  6
Continuous
 62
     7
100
AcDbLine
 10
1357.842338
 20
961.28788
 30
0.0
 11
1356.967338
 21
961.28788
 31
0.0
  0
LINE
  5
325
330
207
100
AcDbEntity
  8
7_ALL_FEATURES
  6
Continuous
 62
     7
100
AcDbLine
 10
1356.967338
 20
960.53788
 30
0.0
 11
1357.842338
 21
960.53788
 31
0.0
  0
LINE
  5
326
330
207
100
AcDbEntity
  8
7_ALL_FEATURES
  6
Continuous
 62
     7
100
AcDbLine
 10
1357.842338
 20
960.53788
 30
0.0
 11
1357.842338
 21
959.66288
 31
0.0
  0
LINE
  5
327
330
207
100
AcDbEntity
  8
7_ALL_FEATURES
  6
Continuous
 62
     7
100
AcDbLine
 10
1358.592338
 20
959.66288
 30
0.0
 11
1358.592338
 21
960.53788
 31
0.0
  0
LINE
  5
328
330
207
100
AcDbEntity
  8
7_ALL_FEATURES
  6
Continuous
 62
     7
100
AcDbLine
 10
1358.592338
 20
960.53788
 30
0.0
 11
1359.467338
 21
960.53788
 31
0.0
  0
ARC
  5
329
330
207
100
AcDbEntity
  8
3_ALL_AXES
  6
Continuous
 62
     7
100
AcDbCircle
 10
1358.217338
 20
960.91288
 30
0.0
 40
2.15
100
AcDbArc
 50
90.0
 51
270.0
  0
LINE
  5
32A
330
207
100
AcDbEntity
  8
7_ALL_FEATURES
  6
Continuous
 62
     7
100
AcDbLine
 10
1356.967338
 20
960.53788
 30
0.0
 11
1356.967338
 21
961.28788
 31
0.0
  0
LINE
  5
32B
330
207
100
AcDbEntity
  8
7_ALL_FEATURES
  6
Continuous
 62
     7
100
AcDbLine
 10
1357.842338
 20
962.16288
 30
0.0
 11
1358.592338
 21
962.16288
 31
0.0
  0
LINE
  5
32C
330
207
100
AcDbEntity
  8
7_ALL_FEATURES
  6
Continuous
 62
     7
100
AcDbLine
 10
1359.467338
 20
961.28788
 30
0.0
 11
1359.467338
 21
960.53788
 31
0.0
  0
LINE
  5
32D
330
207
100
AcDbEntity
  8
7_ALL_FEATURES
  6
Continuous
 62
     7
100
AcDbLine
 10
1358.592338
 20
959.66288
 30
0.0
 11
1357.842338
 21
959.66288
 31
0.0
  0
ARC
  5
32E
330
207
100
AcDbEntity
  8
3_ALL_AXES
  6
Continuous
 62
     7
100
AcDbCircle
 10
1358.217338
 20
960.91288
 30
0.0
 40
2.15
100
AcDbArc
 50
270.0
 51
90.0
  0
ARC
  5
32F
330
207
100
AcDbEntity
  8
3_ALL_AXES
  6
Continuous
 62
     7
100
AcDbCircle
 10
1362.076144
 20
957.91288
 30
0.0
 40
8.0
100
AcDbArc
 50
338.746191
 51
360.0
  0
LINE
  5
330
330
207
100
AcDbEntity
  8
3_ALL_AXES
  6
Continuous
 62
     7
100
AcDbLine
 10
1369.532014
 20
960.81288
 30
0.0
 11
1368.826144
 21
960.81288
 31
0.0
  0
LINE
  5
331
330
207
100
AcDbEntity
  8
3_ALL_AXES
  6
Continuous
 62
     7
100
AcDbLine
 10
1369.532014
 20
955.01288
 30
0.0
 11
1368.826144
 21
955.01288
 31
0.0
  0
ARC
  5
332
330
207
100
AcDbEntity
  8
3_ALL_AXES
  6
Continuous
 62
     7
100
AcDbCircle
 10
1362.076144
 20
957.91288
 30
0.0
 40
8.0
100
AcDbArc
 50
0.0
 51
21.253809
  0
LINE
  5
333
330
207
100
AcDbEntity
  8
3_ALL_AXES
  6
Continuous
 62
     7
100
AcDbLine
 10
1369.532014
 20
957.91288
 30
0.0
 11
1369.532014
 21
955.01288
 31
0.0
  0
LINE
  5
334
330
207
100
AcDbEntity
  8
3_ALL_AXES
  6
Continuous
 62
     7
100
AcDbLine
 10
1369.532014
 20
957.91288
 30
0.0
 11
1369.532014
 21
960.81288
 31
0.0
  0
ARC
  5
335
330
207
100
AcDbEntity
  8
3_ALL_AXES
  6
Continuous
 62
     7
100
AcDbCircle
 10
312.576144
 20
957.91288
 30
0.0
 40
8.0
100
AcDbArc
 50
180.0
 51
201.253809
  0
LINE
  5
336
330
207
100
AcDbEntity
  8
3_ALL_AXES
  6
Continuous
 62
     7
100
AcDbLine
 10
305.120274
 20
955.01288
 30
0.0
 11
305.826144
 21
955.01288
 31
0.0
  0
LINE
  5
337
330
207
100
AcDbEntity
  8
3_ALL_AXES
  6
Continuous
 62
     7
100
AcDbLine
 10
305.120274
 20
960.81288
 30
0.0
 11
305.826144
 21
960.81288
 31
0.0
  0
ARC
  5
338
330
207
100
AcDbEntity
  8
3_ALL_AXES
  6
Continuous
 62
     7
100
AcDbCircle
 10
312.576144
 20
957.91288
 30
0.0
 40
8.0
100
AcDbArc
 50
158.746191
 51
180.0
  0
LINE
  5
339
330
207
100
AcDbEntity
  8
3_ALL_AXES
  6
Continuous
 62
     7
100
AcDbLine
 10
305.120274
 20
955.01288
 30
0.0
 11
305.120274
 21
957.91288
 31
0.0
  0
LINE
  5
33A
330
207
100
AcDbEntity
  8
3_ALL_AXES
  6
Continuous
 62
     7
100
AcDbLine
 10
305.120274
 20
960.81288
 30
0.0
 11
305.120274
 21
957.91288
 31
0.0
  0
SPLINE
  5
33B
330
207
100
AcDbEntity
  8
7_ALL_FEATURES
  6
Continuous
 62
     7
100
AcDbSpline
 70
     0
 71
     3
 72
     9
 73
     5
 74
     0
 42
0.000000001
 43
0.0000001
 40
0.0
 40
0.0
 40
0.0
 40
0.0
 40
0.2183257045
 40
1.0
 40
1.0
 40
1.0
 40
1.0
 10
306.7048233783
 20
847.4128800676
 30
0.0
 10
306.7508884543
 20
847.4128800676
 30
0.0
 10
306.9618601607
 20
847.424171772
 30
0.0
 10
307.169403145
 20
847.4768355148
 30
0.0
 10
307.3245526517
 20
847.5327789709
 30
0.0
  0
ARC
  5
33C
330
207
100
AcDbEntity
  8
7_ALL_FEATURES
  6
Continuous
 62
     7
100
AcDbCircle
 10
306.493531
 20
849.835122
 30
0.0
 40
2.4477293808
100
AcDbArc
 50
289.846852
 51
293.823472
  0
SPLINE
  5
33D
330
207
100
AcDbEntity
  8
7_ALL_FEATURES
  6
Continuous
 62
     7
100
AcDbSpline
 70
     0
 71
     3
 72
    11
 73
     7
 74
     0
 42
0.000000001
 43
0.0000001
 40
0.0
 40
0.0
 40
0.0
 40
0.0
 40
0.2472421296
 40
0.5003958914
 40
0.7532592391
 40
1.0
 40
1.0
 40
1.0
 40
1.0
 10
307.4822180162
 20
847.5959528813
 30
0.0
 10
307.7507764264
 20
847.7144348088
 30
0.0
 10
308.2618655756
 20
848.0307252669
 30
0.0
 10
308.7429746752
 20
848.9143079553
 30
0.0
 10
308.2603863186
 20
849.7958858226
 30
0.0
 10
307.7502211919
 20
850.1115815016
 30
0.0
 10
307.4822046441
 20
850.2298169721
 30
0.0
  0
ARC
  5
33E
330
207
100
AcDbEntity
  8
7_ALL_FEATURES
  6
Continuous
 62
     7
100
AcDbCircle
 10
306.493645
 20
847.990805
 30
0.0
 40
2.4475345164
100
AcDbArc
 50
66.177774
 51
70.15427
  0
SPLINE
  5
33F
330
207
100
AcDbEntity
  8
7_ALL_FEATURES
  6
Continuous
 62
     7
100
AcDbSpline
 70
     0
 71
     3
 72
     9
 73
     5
 74
     0
 42
0.000000001
 43
0.0000001
 40
0.0
 40
0.0
 40
0.0
 40
0.0
 40
0.2835434213
 40
1.0
 40
1.0
 40
1.0
 40
1.0
 10
307.3245554648
 20
850.2929806179
 30
0.0
 10
307.2682823918
 20
850.3132701034
 30
0.0
 10
307.0673600516
 20
850.3771935395
 30
0.0
 10
306.855974024
 20
850.4128800675
 30
0.0
 10
306.7048233783
 20
850.4128800676
 30
0.0
  0
LINE
  5
340
330
207
100
AcDbEntity
  8
7_ALL_FEATURES
  6
Continuous
 62
     7
100
AcDbLine
 10
305.826144
 20
845.41288
 30
0.0
 11
305.826144
 21
852.41288
 31
0.0
  0
LINE
  5
341
330
207
100
AcDbEntity
  8
7_ALL_FEATURES
  6
Continuous
 62
     7
100
AcDbLine
 10
307.326144
 20
852.41288
 30
0.0
 11
305.826144
 21
852.41288
 31
0.0
  0
LINE
  5
342
330
207
100
AcDbEntity
  8
7_ALL_FEATURES
  6
Continuous
 62
     7
100
AcDbLine
 10
305.826144
 20
845.41288
 30
0.0
 11
307.326144
 21
845.41288
 31
0.0
  0
SPLINE
  5
343
330
207
100
AcDbEntity
  8
7_ALL_FEATURES
  6
Continuous
 62
     7
100
AcDbSpline
 70
     0
 71
     3
 72
     9
 73
     5
 74
     0
 42
0.000000001
 43
0.0000001
 40
0.0
 40
0.0
 40
0.0
 40
0.0
 40
0.2183257045
 40
1.0
 40
1.0
 40
1.0
 40
1.0
 10
306.7048233783
 20
959.4128800676
 30
0.0
 10
306.7508884543
 20
959.4128800676
 30
0.0
 10
306.9618601607
 20
959.424171772
 30
0.0
 10
307.169403145
 20
959.4768355148
 30
0.0
 10
307.3245526517
 20
959.5327789709
 30
0.0
  0
ARC
  5
344
330
207
100
AcDbEntity
  8
7_ALL_FEATURES
  6
Continuous
 62
     7
100
AcDbCircle
 10
306.493531
 20
961.835122
 30
0.0
 40
2.4477293809
100
AcDbArc
 50
289.846852
 51
293.823472
  0
SPLINE
  5
345
330
207
100
AcDbEntity
  8
7_ALL_FEATURES
  6
Continuous
 62
     7
100
AcDbSpline
 70
     0
 71
     3
 72
    11
 73
     7
 74
     0
 42
0.000000001
 43
0.0000001
 40
0.0
 40
0.0
 40
0.0
 40
0.0
 40
0.2472421296
 40
0.5003958914
 40
0.7532592391
 40
1.0
 40
1.0
 40
1.0
 40
1.0
 10
307.4822180161
 20
959.5959528813
 30
0.0
 10
307.7507764263
 20
959.7144348087
 30
0.0
 10
308.2618655755
 20
960.0307252668
 30
0.0
 10
308.7429746752
 20
960.9143079552
 30
0.0
 10
308.2603863187
 20
961.7958858225
 30
0.0
 10
307.7502211921
 20
962.1115815015
 30
0.0
 10
307.4822046442
 20
962.2298169721
 30
0.0
  0
ARC
  5
346
330
207
100
AcDbEntity
  8
7_ALL_FEATURES
  6
Continuous
 62
     7
100
AcDbCircle
 10
306.493645
 20
959.990805
 30
0.0
 40
2.4475345167
100
AcDbArc
 50
66.177774
 51
70.15427
  0
SPLINE
  5
347
330
207
100
AcDbEntity
  8
7_ALL_FEATURES
  6
Continuous
 62
     7
100
AcDbSpline
 70
     0
 71
     3
 72
     9
 73
     5
 74
     0
 42
0.000000001
 43
0.0000001
 40
0.0
 40
0.0
 40
0.0
 40
0.0
 40
0.2835434213
 40
1.0
 40
1.0
 40
1.0
 40
1.0
 10
307.3245554648
 20
962.2929806179
 30
0.0
 10
307.2682823918
 20
962.3132701034
 30
0.0
 10
307.0673600516
 20
962.3771935395
 30
0.0
 10
306.855974024
 20
962.4128800676
 30
0.0
 10
306.7048233783
 20
962.4128800676
 30
0.0
  0
LINE
  5
348
330
207
100
AcDbEntity
  8
7_ALL_FEATURES
  6
Continuous
 62
     7
100
AcDbLine
 10
305.826144
 20
957.41288
 30
0.0
 11
305.826144
 21
964.41288
 31
0.0
  0
LINE
  5
349
330
207
100
AcDbEntity
  8
7_ALL_FEATURES
  6
Continuous
 62
     7
100
AcDbLine
 10
307.326144
 20
964.41288
 30
0.0
 11
305.826144
 21
964.41288
 31
0.0
  0
LINE
  5
34A
330
207
100
AcDbEntity
  8
7_ALL_FEATURES
  6
Continuous
 62
     7
100
AcDbLine
 10
305.826144
 20
957.41288
 30
0.0
 11
307.326144
 21
957.41288
 31
0.0
  0
LINE
  5
34B
330
207
100
AcDbEntity
  8
3_ALL_AXES
  6
Continuous
 62
     7
100
AcDbLine
 10
305.826144
 20
830.66288
 30
0.0
 11
305.826144
 21
828.66288
 31
0.0
  0
LINE
  5
34C
330
207
100
AcDbEntity
  8
3_ALL_AXES
  6
Continuous
 62
     7
100
AcDbLine
 10
305.826144
 20
843.16288
 30
0.0
 11
305.826144
 21
842.66288
 31
0.0
  0
LINE
  5
34D
330
207
100
AcDbEntity
  8
3_ALL_AXES
  6
Continuous
 62
     7
100
AcDbLine
 10
305.826144
 20
843.66288
 30
0.0
 11
305.826144
 21
843.16288
 31
0.0
  0
LINE
  5
34E
330
207
100
AcDbEntity
  8
3_ALL_AXES
  6
Continuous
 62
     7
100
AcDbLine
 10
305.826144
 20
854.66288
 30
0.0
 11
305.826144
 21
854.16288
 31
0.0
  0
LINE
  5
34F
330
207
100
AcDbEntity
  8
3_ALL_AXES
  6
Continuous
 62
     7
100
AcDbLine
 10
305.826144
 20
855.16288
 30
0.0
 11
305.826144
 21
854.66288
 31
0.0
  0
LINE
  5
350
330
207
100
AcDbEntity
  8
3_ALL_AXES
  6
Continuous
 62
     7
100
AcDbLine
 10
305.826144
 20
955.16288
 30
0.0
 11
305.826144
 21
954.66288
 31
0.0
  0
LINE
  5
351
330
207
100
AcDbEntity
  8
3_ALL_AXES
  6
Continuous
 62
     7
100
AcDbLine
 10
305.826144
 20
955.66288
 30
0.0
 11
305.826144
 21
955.16288
 31
0.0
  0
LINE
  5
352
330
207
100
AcDbEntity
  8
3_ALL_AXES
  6
Continuous
 62
     7
100
AcDbLine
 10
305.826144
 20
966.66288
 30
0.0
 11
305.826144
 21
966.16288
 31
0.0
  0
LINE
  5
353
330
207
100
AcDbEntity
  8
3_ALL_AXES
  6
Continuous
 62
     7
100
AcDbLine
 10
305.826144
 20
967.16288
 30
0.0
 11
305.826144
 21
966.66288
 31
0.0
  0
LINE
  5
354
330
207
100
AcDbEntity
  8
3_ALL_AXES
  6
Continuous
 62
     7
100
AcDbLine
 10
305.826144
 20
978.66288
 30
0.0
 11
305.826144
 21
978.16288
 31
0.0
  0
LINE
  5
355
330
207
100
AcDbEntity
  8
3_ALL_AXES
  6
Continuous
 62
     7
100
AcDbLine
 10
307.326144
 20
978.66288
 30
0.0
 11
305.826144
 21
978.66288
 31
0.0
  0
LINE
  5
356
330
207
100
AcDbEntity
  8
3_ALL_AXES
  6
Continuous
 62
     7
100
AcDbLine
 10
305.826144
 20
967.16288
 30
0.0
 11
305.826144
 21
978.16288
 31
0.0
  0
LINE
  5
357
330
207
100
AcDbEntity
  8
3_ALL_AXES
  6
Continuous
 62
     7
100
AcDbLine
 10
307.326144
 20
966.66288
 30
0.0
 11
305.826144
 21
966.66288
 31
0.0
  0
LINE
  5
358
330
207
100
AcDbEntity
  8
3_ALL_AXES
  6
Continuous
 62
     7
100
AcDbLine
 10
305.826144
 20
964.41288
 30
0.0
 11
305.826144
 21
966.16288
 31
0.0
  0
LINE
  5
359
330
207
100
AcDbEntity
  8
3_ALL_AXES
  6
Continuous
 62
     7
100
AcDbLine
 10
305.826144
 20
955.66288
 30
0.0
 11
305.826144
 21
957.41288
 31
0.0
  0
LINE
  5
35A
330
207
100
AcDbEntity
  8
3_ALL_AXES
  6
Continuous
 62
     7
100
AcDbLine
 10
307.326144
 20
955.16288
 30
0.0
 11
305.826144
 21
955.16288
 31
0.0
  0
LINE
  5
35B
330
207
100
AcDbEntity
  8
3_ALL_AXES
  6
Continuous
 62
     7
100
AcDbLine
 10
305.826144
 20
855.16288
 30
0.0
 11
305.826144
 21
954.66288
 31
0.0
  0
LINE
  5
35C
330
207
100
AcDbEntity
  8
3_ALL_AXES
  6
Continuous
 62
     7
100
AcDbLine
 10
307.326144
 20
854.66288
 30
0.0
 11
305.826144
 21
854.66288
 31
0.0
  0
LINE
  5
35D
330
207
100
AcDbEntity
  8
3_ALL_AXES
  6
Continuous
 62
     7
100
AcDbLine
 10
305.826144
 20
852.41288
 30
0.0
 11
305.826144
 21
854.16288
 31
0.0
  0
LINE
  5
35E
330
207
100
AcDbEntity
  8
3_ALL_AXES
  6
Continuous
 62
     7
100
AcDbLine
 10
305.826144
 20
843.66288
 30
0.0
 11
305.826144
 21
845.41288
 31
0.0
  0
LINE
  5
35F
330
207
100
AcDbEntity
  8
3_ALL_AXES
  6
Continuous
 62
     7
100
AcDbLine
 10
307.326144
 20
843.16288
 30
0.0
 11
305.826144
 21
843.16288
 31
0.0
  0
LINE
  5
360
330
207
100
AcDbEntity
  8
3_ALL_AXES
  6
Continuous
 62
     7
100
AcDbLine
 10
305.826144
 20
830.66288
 30
0.0
 11
305.826144
 21
842.66288
 31
0.0
  0
LINE
  5
361
330
207
100
AcDbEntity
  8
3_ALL_AXES
  6
Continuous
 62
     7
100
AcDbLine
 10
307.326144
 20
828.66288
 30
0.0
 11
305.826144
 21
828.66288
 31
0.0
  0
LINE
  5
362
330
207
100
AcDbEntity
  8
3_ALL_AXES
  6
Continuous
 62
     7
100
AcDbLine
 10
320.826144
 20
962.91288
 30
0.0
 11
320.826144
 21
958.91288
 31
0.0
  0
ARC
  5
363
330
207
100
AcDbEntity
  8
3_ALL_AXES
  6
Continuous
 62
     7
100
AcDbCircle
 10
319.326144
 20
958.91288
 30
0.0
 40
1.5
100
AcDbArc
 50
350.17331
 51
360.0
  0
ARC
  5
364
330
207
100
AcDbEntity
  8
3_ALL_AXES
  6
Continuous
 62
     7
100
AcDbCircle
 10
319.326144
 20
962.91288
 30
0.0
 40
1.5
100
AcDbArc
 50
0.0
 51
9.826481
  0
ARC
  5
365
330
207
100
AcDbEntity
  8
3_ALL_AXES
  6
Continuous
 62
     7
100
AcDbCircle
 10
319.326144
 20
850.91288
 30
0.0
 40
1.5
100
AcDbArc
 50
0.0
 51
9.826481
  0
LINE
  5
366
330
207
100
AcDbEntity
  8
3_ALL_AXES
  6
Continuous
 62
     7
100
AcDbLine
 10
320.826144
 20
850.91288
 30
0.0
 11
320.826144
 21
846.91288
 31
0.0
  0
ARC
  5
367
330
207
100
AcDbEntity
  8
3_ALL_AXES
  6
Continuous
 62
     7
100
AcDbCircle
 10
319.326144
 20
846.91288
 30
0.0
 40
1.5
100
AcDbArc
 50
350.17331
 51
360.0
  0
LINE
  5
368
330
207
100
AcDbEntity
  8
3_ALL_AXES
  6
Continuous
 62
     9
100
AcDbLine
 10
307.326144
 20
955.66288
 30
0.0
 11
305.826144
 21
955.66288
 31
0.0
  0
LINE
  5
369
330
207
100
AcDbEntity
  8
7_ALL_FEATURES
  6
Continuous
 62
     9
100
AcDbLine
 10
308.826144
 20
963.16288
 30
0.0
 11
308.826144
 21
958.66288
 31
0.0
  0
LINE
  5
36A
330
207
100
AcDbEntity
  8
3_ALL_AXES
  6
Continuous
 62
     9
100
AcDbLine
 10
307.326144
 20
954.66288
 30
0.0
 11
305.826144
 21
954.66288
 31
0.0
  0
LINE
  5
36B
330
207
100
AcDbEntity
  8
3_ALL_AXES
  6
Continuous
 62
     9
100
AcDbLine
 10
307.326144
 20
855.16288
 30
0.0
 11
305.826144
 21
855.16288
 31
0.0
  0
LINE
  5
36C
330
207
100
AcDbEntity
  8
3_ALL_AXES
  6
Continuous
 62
     9
100
AcDbLine
 10
307.326144
 20
854.16288
 30
0.0
 11
305.826144
 21
854.16288
 31
0.0
  0
SPLINE
  5
36D
330
207
100
AcDbEntity
  8
7_ALL_FEATURES
  6
Continuous
 62
     7
100
AcDbSpline
 70
     0
 71
     3
 72
    15
 73
    11
 74
     0
 42
0.000000001
 43
0.0000001
 40
0.0
 40
0.0
 40
0.0
 40
0.0
 40
0.1119743662
 40
0.2114190511
 40
0.3340744009
 40
0.4999934959
 40
0.6659171482
 40
0.7885789851
 40
0.8880249727
 40
1.0
 40
1.0
 40
1.0
 40
1.0
 10
306.7048233783
 20
959.4128800676
 30
0.0
 10
306.5569646121
 20
959.4128800676
 30
0.0
 10
306.264961439
 20
959.4584451839
 30
0.0
 10
305.9388009052
 20
959.7969347817
 30
0.0
 10
305.842213847
 20
960.3149996158
 30
0.0
 10
305.8326870495
 20
960.9128608916
 30
0.0
 10
305.8422199365
 20
961.5107272757
 30
0.0
 10
305.9387862616
 20
962.0288160876
 30
0.0
 10
306.264959299
 20
962.3673121639
 30
0.0
 10
306.5569637392
 20
962.4128800676
 30
0.0
 10
306.7048233783
 20
962.4128800676
 30
0.0
  0
LINE
  5
36E
330
207
100
AcDbEntity
  8
3_ALL_AXES
  6
Continuous
 62
     9
100
AcDbLine
 10
307.326144
 20
978.16288
 30
0.0
 11
305.826144
 21
978.16288
 31
0.0
  0
LINE
  5
36F
330
207
100
AcDbEntity
  8
3_ALL_AXES
  6
Continuous
 62
     9
100
AcDbLine
 10
307.326144
 20
967.16288
 30
0.0
 11
305.826144
 21
967.16288
 31
0.0
  0
LINE
  5
370
330
207
100
AcDbEntity
  8
3_ALL_AXES
  6
Continuous
 62
     9
100
AcDbLine
 10
307.326144
 20
843.66288
 30
0.0
 11
305.826144
 21
843.66288
 31
0.0
  0
SPLINE
  5
371
330
207
100
AcDbEntity
  8
7_ALL_FEATURES
  6
Continuous
 62
     7
100
AcDbSpline
 70
     0
 71
     3
 72
    15
 73
    11
 74
     0
 42
0.000000001
 43
0.0000001
 40
0.0
 40
0.0
 40
0.0
 40
0.0
 40
0.1119743662
 40
0.2114190511
 40
0.3340744009
 40
0.4999934959
 40
0.6659171481
 40
0.7885789851
 40
0.8880249727
 40
1.0
 40
1.0
 40
1.0
 40
1.0
 10
306.7048233783
 20
847.4128800676
 30
0.0
 10
306.5569646121
 20
847.4128800676
 30
0.0
 10
306.264961439
 20
847.4584451839
 30
0.0
 10
305.9388009051
 20
847.7969347817
 30
0.0
 10
305.842213847
 20
848.3149996159
 30
0.0
 10
305.8326870494
 20
848.9128608915
 30
0.0
 10
305.8422199367
 20
849.5107272756
 30
0.0
 10
305.9387862615
 20
850.0288160875
 30
0.0
 10
306.264959299
 20
850.367312164
 30
0.0
 10
306.5569637392
 20
850.4128800676
 30
0.0
 10
306.7048233783
 20
850.4128800676
 30
0.0
  0
LINE
  5
372
330
207
100
AcDbEntity
  8
3_ALL_AXES
  6
Continuous
 62
     9
100
AcDbLine
 10
307.326144
 20
842.66288
 30
0.0
 11
305.826144
 21
842.66288
 31
0.0
  0
LINE
  5
373
330
207
100
AcDbEntity
  8
3_ALL_AXES
  6
Continuous
 62
     9
100
AcDbLine
 10
307.326144
 20
966.16288
 30
0.0
 11
305.826144
 21
966.16288
 31
0.0
  0
LINE
  5
374
330
207
100
AcDbEntity
  8
3_ALL_AXES
  6
Continuous
 62
     9
100
AcDbLine
 10
307.326144
 20
830.66288
 30
0.0
 11
305.826144
 21
830.66288
 31
0.0
  0
LINE
  5
375
330
207
100
AcDbEntity
  8
7_ALL_FEATURES
  6
Continuous
 62
     9
100
AcDbLine
 10
308.826144
 20
851.16288
 30
0.0
 11
308.826144
 21
846.66288
 31
0.0
  0
SPLINE
  5
376
330
207
100
AcDbEntity
  8
7_ALL_FEATURES
  6
Continuous
 62
     7
100
AcDbSpline
 70
     0
 71
     3
 72
     9
 73
     5
 74
     0
 42
0.000000001
 43
0.0000001
 40
0.0
 40
0.0
 40
0.0
 40
0.0
 40
0.2183257045
 40
1.0
 40
1.0
 40
1.0
 40
1.0
 10
1367.9474640654
 20
850.4128800676
 30
0.0
 10
1367.9013989894
 20
850.4128800676
 30
0.0
 10
1367.690427283
 20
850.4015883632
 30
0.0
 10
1367.4828842987
 20
850.3489246203
 30
0.0
 10
1367.3277347919
 20
850.2929811642
 30
0.0
  0
ARC
  5
377
330
207
100
AcDbEntity
  8
7_ALL_FEATURES
  6
Continuous
 62
     7
100
AcDbCircle
 10
1368.158756
 20
847.990638
 30
0.0
 40
2.4477293812
100
AcDbArc
 50
109.846852
 51
113.823472
  0
SPLINE
  5
378
330
207
100
AcDbEntity
  8
7_ALL_FEATURES
  6
Continuous
 62
     7
100
AcDbSpline
 70
     0
 71
     3
 72
    11
 73
     7
 74
     0
 42
0.000000001
 43
0.0000001
 40
0.0
 40
0.0
 40
0.0
 40
0.0
 40
0.2472421296
 40
0.5003958914
 40
0.7532592391
 40
1.0
 40
1.0
 40
1.0
 40
1.0
 10
1367.1700694276
 20
850.2298072538
 30
0.0
 10
1366.9015110174
 20
850.1113253264
 30
0.0
 10
1366.3904218682
 20
849.7950348683
 30
0.0
 10
1365.9093127685
 20
848.9114521799
 30
0.0
 10
1366.391901125
 20
848.0298743126
 30
0.0
 10
1366.9020662516
 20
847.7141786336
 30
0.0
 10
1367.1700827995
 20
847.5959431631
 30
0.0
  0
ARC
  5
379
330
207
100
AcDbEntity
  8
7_ALL_FEATURES
  6
Continuous
 62
     7
100
AcDbCircle
 10
1368.158642
 20
849.834955
 30
0.0
 40
2.4475345168
100
AcDbArc
 50
246.177774
 51
250.15427
  0
SPLINE
  5
37A
330
207
100
AcDbEntity
  8
7_ALL_FEATURES
  6
Continuous
 62
     7
100
AcDbSpline
 70
     0
 71
     3
 72
     9
 73
     5
 74
     0
 42
0.000000001
 43
0.0000001
 40
0.0
 40
0.0
 40
0.0
 40
0.0
 40
0.2835434213
 40
1.0
 40
1.0
 40
1.0
 40
1.0
 10
1367.3277319789
 20
847.5327795172
 30
0.0
 10
1367.3840050519
 20
847.5124900317
 30
0.0
 10
1367.5849273921
 20
847.4485665956
 30
0.0
 10
1367.7963134197
 20
847.4128800676
 30
0.0
 10
1367.9474640654
 20
847.4128800676
 30
0.0
  0
LINE
  5
37B
330
207
100
AcDbEntity
  8
7_ALL_FEATURES
  6
Continuous
 62
     7
100
AcDbLine
 10
1368.826144
 20
852.41288
 30
0.0
 11
1368.826144
 21
845.41288
 31
0.0
  0
LINE
  5
37C
330
207
100
AcDbEntity
  8
7_ALL_FEATURES
  6
Continuous
 62
     7
100
AcDbLine
 10
1367.326144
 20
845.41288
 30
0.0
 11
1368.826144
 21
845.41288
 31
0.0
  0
LINE
  5
37D
330
207
100
AcDbEntity
  8
7_ALL_FEATURES
  6
Continuous
 62
     7
100
AcDbLine
 10
1368.826144
 20
852.41288
 30
0.0
 11
1367.326144
 21
852.41288
 31
0.0
  0
SPLINE
  5
37E
330
207
100
AcDbEntity
  8
7_ALL_FEATURES
  6
Continuous
 62
     7
100
AcDbSpline
 70
     0
 71
     3
 72
     9
 73
     5
 74
     0
 42
0.000000001
 43
0.0000001
 40
0.0
 40
0.0
 40
0.0
 40
0.0
 40
0.2183257045
 40
1.0
 40
1.0
 40
1.0
 40
1.0
 10
1367.9474640654
 20
962.4128800676
 30
0.0
 10
1367.9013989894
 20
962.4128800676
 30
0.0
 10
1367.690427283
 20
962.4015883632
 30
0.0
 10
1367.4828842987
 20
962.3489246203
 30
0.0
 10
1367.3277347919
 20
962.2929811642
 30
0.0
  0
ARC
  5
37F
330
207
100
AcDbEntity
  8
7_ALL_FEATURES
  6
Continuous
 62
     7
100
AcDbCircle
 10
1368.158756
 20
959.990638
 30
0.0
 40
2.4477293805
100
AcDbArc
 50
109.846852
 51
113.823472
  0
SPLINE
  5
380
330
207
100
AcDbEntity
  8
7_ALL_FEATURES
  6
Continuous
 62
     7
100
AcDbSpline
 70
     0
 71
     3
 72
    11
 73
     7
 74
     0
 42
0.000000001
 43
0.0000001
 40
0.0
 40
0.0
 40
0.0
 40
0.0
 40
0.2472421296
 40
0.5003958914
 40
0.7532592391
 40
1.0
 40
1.0
 40
1.0
 40
1.0
 10
1367.1700694276
 20
962.2298072539
 30
0.0
 10
1366.9015110174
 20
962.1113253265
 30
0.0
 10
1366.3904218682
 20
961.7950348684
 30
0.0
 10
1365.9093127685
 20
960.91145218
 30
0.0
 10
1366.3919011249
 20
960.0298743127
 30
0.0
 10
1366.9020662516
 20
959.7141786337
 30
0.0
 10
1367.1700827994
 20
959.5959431631
 30
0.0
  0
ARC
  5
381
330
207
100
AcDbEntity
  8
7_ALL_FEATURES
  6
Continuous
 62
     7
100
AcDbCircle
 10
1368.158642
 20
961.834955
 30
0.0
 40
2.4475345168
100
AcDbArc
 50
246.177774
 51
250.15427
  0
SPLINE
  5
382
330
207
100
AcDbEntity
  8
7_ALL_FEATURES
  6
Continuous
 62
     7
100
AcDbSpline
 70
     0
 71
     3
 72
     9
 73
     5
 74
     0
 42
0.000000001
 43
0.0000001
 40
0.0
 40
0.0
 40
0.0
 40
0.0
 40
0.2835434213
 40
1.0
 40
1.0
 40
1.0
 40
1.0
 10
1367.3277319789
 20
959.5327795172
 30
0.0
 10
1367.3840050519
 20
959.5124900317
 30
0.0
 10
1367.5849273921
 20
959.4485665956
 30
0.0
 10
1367.7963134197
 20
959.4128800676
 30
0.0
 10
1367.9474640654
 20
959.4128800676
 30
0.0
  0
LINE
  5
383
330
207
100
AcDbEntity
  8
7_ALL_FEATURES
  6
Continuous
 62
     7
100
AcDbLine
 10
1368.826144
 20
964.41288
 30
0.0
 11
1368.826144
 21
957.41288
 31
0.0
  0
LINE
  5
384
330
207
100
AcDbEntity
  8
7_ALL_FEATURES
  6
Continuous
 62
     7
100
AcDbLine
 10
1367.326144
 20
957.41288
 30
0.0
 11
1368.826144
 21
957.41288
 31
0.0
  0
LINE
  5
385
330
207
100
AcDbEntity
  8
7_ALL_FEATURES
  6
Continuous
 62
     7
100
AcDbLine
 10
1368.826144
 20
964.41288
 30
0.0
 11
1367.326144
 21
964.41288
 31
0.0
  0
LINE
  5
386
330
207
100
AcDbEntity
  8
3_ALL_AXES
  6
Continuous
 62
     7
100
AcDbLine
 10
1353.826144
 20
850.91288
 30
0.0
 11
1353.826144
 21
846.91288
 31
0.0
  0
LINE
  5
387
330
207
100
AcDbEntity
  8
3_ALL_AXES
  6
Continuous
 62
     7
100
AcDbLine
 10
1368.826144
 20
966.66288
 30
0.0
 11
1368.826144
 21
967.16288
 31
0.0
  0
LINE
  5
388
330
207
100
AcDbEntity
  8
3_ALL_AXES
  6
Continuous
 62
     7
100
AcDbLine
 10
1368.826144
 20
966.16288
 30
0.0
 11
1368.826144
 21
966.66288
 31
0.0
  0
LINE
  5
389
330
207
100
AcDbEntity
  8
3_ALL_AXES
  6
Continuous
 62
     7
100
AcDbLine
 10
1368.826144
 20
955.16288
 30
0.0
 11
1368.826144
 21
955.66288
 31
0.0
  0
LINE
  5
38A
330
207
100
AcDbEntity
  8
3_ALL_AXES
  6
Continuous
 62
     7
100
AcDbLine
 10
1368.826144
 20
954.66288
 30
0.0
 11
1368.826144
 21
955.16288
 31
0.0
  0
LINE
  5
38B
330
207
100
AcDbEntity
  8
3_ALL_AXES
  6
Continuous
 62
     7
100
AcDbLine
 10
1368.826144
 20
854.66288
 30
0.0
 11
1368.826144
 21
855.16288
 31
0.0
  0
LINE
  5
38C
330
207
100
AcDbEntity
  8
3_ALL_AXES
  6
Continuous
 62
     7
100
AcDbLine
 10
1368.826144
 20
854.16288
 30
0.0
 11
1368.826144
 21
854.66288
 31
0.0
  0
LINE
  5
38D
330
207
100
AcDbEntity
  8
3_ALL_AXES
  6
Continuous
 62
     7
100
AcDbLine
 10
1368.826144
 20
843.16288
 30
0.0
 11
1368.826144
 21
843.66288
 31
0.0
  0
LINE
  5
38E
330
207
100
AcDbEntity
  8
3_ALL_AXES
  6
Continuous
 62
     7
100
AcDbLine
 10
1368.826144
 20
842.66288
 30
0.0
 11
1368.826144
 21
843.16288
 31
0.0
  0
LINE
  5
38F
330
207
100
AcDbEntity
  8
3_ALL_AXES
  6
Continuous
 62
     7
100
AcDbLine
 10
1368.826144
 20
828.66288
 30
0.0
 11
1368.826144
 21
830.66288
 31
0.0
  0
LINE
  5
390
330
207
100
AcDbEntity
  8
3_ALL_AXES
  6
Continuous
 62
     7
100
AcDbLine
 10
1368.826144
 20
978.16288
 30
0.0
 11
1368.826144
 21
978.66288
 31
0.0
  0
LINE
  5
391
330
207
100
AcDbEntity
  8
3_ALL_AXES
  6
Continuous
 62
     7
100
AcDbLine
 10
1367.326144
 20
978.66288
 30
0.0
 11
1368.826144
 21
978.66288
 31
0.0
  0
LINE
  5
392
330
207
100
AcDbEntity
  8
3_ALL_AXES
  6
Continuous
 62
     7
100
AcDbLine
 10
1367.326144
 20
828.66288
 30
0.0
 11
1368.826144
 21
828.66288
 31
0.0
  0
LINE
  5
393
330
207
100
AcDbEntity
  8
3_ALL_AXES
  6
Continuous
 62
     7
100
AcDbLine
 10
1368.826144
 20
842.66288
 30
0.0
 11
1368.826144
 21
830.66288
 31
0.0
  0
LINE
  5
394
330
207
100
AcDbEntity
  8
3_ALL_AXES
  6
Continuous
 62
     7
100
AcDbLine
 10
1367.326144
 20
843.16288
 30
0.0
 11
1368.826144
 21
843.16288
 31
0.0
  0
LINE
  5
395
330
207
100
AcDbEntity
  8
3_ALL_AXES
  6
Continuous
 62
     7
100
AcDbLine
 10
1368.826144
 20
845.41288
 30
0.0
 11
1368.826144
 21
843.66288
 31
0.0
  0
LINE
  5
396
330
207
100
AcDbEntity
  8
3_ALL_AXES
  6
Continuous
 62
     7
100
AcDbLine
 10
1368.826144
 20
854.16288
 30
0.0
 11
1368.826144
 21
852.41288
 31
0.0
  0
LINE
  5
397
330
207
100
AcDbEntity
  8
3_ALL_AXES
  6
Continuous
 62
     7
100
AcDbLine
 10
1353.826144
 20
962.91288
 30
0.0
 11
1353.826144
 21
958.91288
 31
0.0
  0
LINE
  5
398
330
207
100
AcDbEntity
  8
3_ALL_AXES
  6
Continuous
 62
     7
100
AcDbLine
 10
1367.326144
 20
854.66288
 30
0.0
 11
1368.826144
 21
854.66288
 31
0.0
  0
LINE
  5
399
330
207
100
AcDbEntity
  8
3_ALL_AXES
  6
Continuous
 62
     7
100
AcDbLine
 10
1368.826144
 20
954.66288
 30
0.0
 11
1368.826144
 21
855.16288
 31
0.0
  0
LINE
  5
39A
330
207
100
AcDbEntity
  8
3_ALL_AXES
  6
Continuous
 62
     7
100
AcDbLine
 10
1367.326144
 20
955.16288
 30
0.0
 11
1368.826144
 21
955.16288
 31
0.0
  0
LINE
  5
39B
330
207
100
AcDbEntity
  8
3_ALL_AXES
  6
Continuous
 62
     7
100
AcDbLine
 10
1368.826144
 20
957.41288
 30
0.0
 11
1368.826144
 21
955.66288
 31
0.0
  0
ARC
  5
39C
330
207
100
AcDbEntity
  8
3_ALL_AXES
  6
Continuous
 62
     7
100
AcDbCircle
 10
1355.326144
 20
958.91288
 30
0.0
 40
1.5
100
AcDbArc
 50
180.0
 51
189.826481
  0
ARC
  5
39D
330
207
100
AcDbEntity
  8
3_ALL_AXES
  6
Continuous
 62
     7
100
AcDbCircle
 10
1355.326144
 20
962.91288
 30
0.0
 40
1.5
100
AcDbArc
 50
170.17331
 51
180.0
  0
LINE
  5
39E
330
207
100
AcDbEntity
  8
3_ALL_AXES
  6
Continuous
 62
     7
100
AcDbLine
 10
1368.826144
 20
966.16288
 30
0.0
 11
1368.826144
 21
964.41288
 31
0.0
  0
LINE
  5
39F
330
207
100
AcDbEntity
  8
3_ALL_AXES
  6
Continuous
 62
     7
100
AcDbLine
 10
1367.326144
 20
966.66288
 30
0.0
 11
1368.826144
 21
966.66288
 31
0.0
  0
LINE
  5
3A0
330
207
100
AcDbEntity
  8
3_ALL_AXES
  6
Continuous
 62
     7
100
AcDbLine
 10
1368.826144
 20
978.16288
 30
0.0
 11
1368.826144
 21
967.16288
 31
0.0
  0
ARC
  5
3A1
330
207
100
AcDbEntity
  8
3_ALL_AXES
  6
Continuous
 62
     7
100
AcDbCircle
 10
1355.326144
 20
846.91288
 30
0.0
 40
1.5
100
AcDbArc
 50
180.0
 51
189.826481
  0
ARC
  5
3A2
330
207
100
AcDbEntity
  8
3_ALL_AXES
  6
Continuous
 62
     7
100
AcDbCircle
 10
1355.326144
 20
850.91288
 30
0.0
 40
1.5
100
AcDbArc
 50
170.17331
 51
180.0
  0
LINE
  5
3A3
330
207
100
AcDbEntity
  8
3_ALL_AXES
  6
Continuous
 62
     9
100
AcDbLine
 10
1367.326144
 20
855.16288
 30
0.0
 11
1368.826144
 21
855.16288
 31
0.0
  0
LINE
  5
3A4
330
207
100
AcDbEntity
  8
3_ALL_AXES
  6
Continuous
 62
     9
100
AcDbLine
 10
1367.326144
 20
966.16288
 30
0.0
 11
1368.826144
 21
966.16288
 31
0.0
  0
LINE
  5
3A5
330
207
100
AcDbEntity
  8
3_ALL_AXES
  6
Continuous
 62
     9
100
AcDbLine
 10
1367.326144
 20
954.66288
 30
0.0
 11
1368.826144
 21
954.66288
 31
0.0
  0
LINE
  5
3A6
330
207
100
AcDbEntity
  8
7_ALL_FEATURES
  6
Continuous
 62
     9
100
AcDbLine
 10
1365.826144
 20
958.66288
 30
0.0
 11
1365.826144
 21
963.16288
 31
0.0
  0
LINE
  5
3A7
330
207
100
AcDbEntity
  8
3_ALL_AXES
  6
Continuous
 62
     9
100
AcDbLine
 10
1367.326144
 20
967.16288
 30
0.0
 11
1368.826144
 21
967.16288
 31
0.0
  0
LINE
  5
3A8
330
207
100
AcDbEntity
  8
3_ALL_AXES
  6
Continuous
 62
     9
100
AcDbLine
 10
1367.326144
 20
830.66288
 30
0.0
 11
1368.826144
 21
830.66288
 31
0.0
  0
LINE
  5
3A9
330
207
100
AcDbEntity
  8
3_ALL_AXES
  6
Continuous
 62
     9
100
AcDbLine
 10
1367.326144
 20
978.16288
 30
0.0
 11
1368.826144
 21
978.16288
 31
0.0
  0
LINE
  5
3AA
330
207
100
AcDbEntity
  8
3_ALL_AXES
  6
Continuous
 62
     9
100
AcDbLine
 10
1367.326144
 20
955.66288
 30
0.0
 11
1368.826144
 21
955.66288
 31
0.0
  0
LINE
  5
3AB
330
207
100
AcDbEntity
  8
3_ALL_AXES
  6
Continuous
 62
     9
100
AcDbLine
 10
1367.326144
 20
842.66288
 30
0.0
 11
1368.826144
 21
842.66288
 31
0.0
  0
LINE
  5
3AC
330
207
100
AcDbEntity
  8
7_ALL_FEATURES
  6
Continuous
 62
     9
100
AcDbLine
 10
1365.826144
 20
846.66288
 30
0.0
 11
1365.826144
 21
851.16288
 31
0.0
  0
LINE
  5
3AD
330
207
100
AcDbEntity
  8
3_ALL_AXES
  6
Continuous
 62
     9
100
AcDbLine
 10
1367.326144
 20
843.66288
 30
0.0
 11
1368.826144
 21
843.66288
 31
0.0
  0
SPLINE
  5
3AE
330
207
100
AcDbEntity
  8
7_ALL_FEATURES
  6
Continuous
 62
     7
100
AcDbSpline
 70
     0
 71
     3
 72
    15
 73
    11
 74
     0
 42
0.000000001
 43
0.0000001
 40
0.0
 40
0.0
 40
0.0
 40
0.0
 40
0.1119743662
 40
0.2114190511
 40
0.3340744009
 40
0.4999934959
 40
0.6659171482
 40
0.7885789851
 40
0.8880249727
 40
1.0
 40
1.0
 40
1.0
 40
1.0
 10
1367.9474640654
 20
850.4128800676
 30
0.0
 10
1368.0953228316
 20
850.4128800676
 30
0.0
 10
1368.3873260047
 20
850.3673149512
 30
0.0
 10
1368.7134865385
 20
850.0288253535
 30
0.0
 10
1368.8100735967
 20
849.5107605193
 30
0.0
 10
1368.8196003942
 20
848.9128992435
 30
0.0
 10
1368.8100675072
 20
848.3150328594
 30
0.0
 10
1368.7135011821
 20
847.7969440476
 30
0.0
 10
1368.3873281447
 20
847.4584479713
 30
0.0
 10
1368.0953237045
 20
847.4128800676
 30
0.0
 10
1367.9474640654
 20
847.4128800676
 30
0.0
  0
LINE
  5
3AF
330
207
100
AcDbEntity
  8
3_ALL_AXES
  6
Continuous
 62
     9
100
AcDbLine
 10
1367.326144
 20
854.16288
 30
0.0
 11
1368.826144
 21
854.16288
 31
0.0
  0
SPLINE
  5
3B0
330
207
100
AcDbEntity
  8
7_ALL_FEATURES
  6
Continuous
 62
     7
100
AcDbSpline
 70
     0
 71
     3
 72
    15
 73
    11
 74
     0
 42
0.000000001
 43
0.0000001
 40
0.0
 40
0.0
 40
0.0
 40
0.0
 40
0.1119743662
 40
0.2114190511
 40
0.3340744009
 40
0.4999934959
 40
0.6659171482
 40
0.7885789851
 40
0.8880249727
 40
1.0
 40
1.0
 40
1.0
 40
1.0
 10
1367.9474640654
 20
962.4128800676
 30
0.0
 10
1368.0953228316
 20
962.4128800676
 30
0.0
 10
1368.3873260047
 20
962.3673149512
 30
0.0
 10
1368.7134865385
 20
962.0288253535
 30
0.0
 10
1368.8100735967
 20
961.5107605193
 30
0.0
 10
1368.8196003942
 20
960.9128992435
 30
0.0
 10
1368.8100675072
 20
960.3150328594
 30
0.0
 10
1368.7135011821
 20
959.7969440476
 30
0.0
 10
1368.3873281447
 20
959.4584479713
 30
0.0
 10
1368.0953237045
 20
959.4128800676
 30
0.0
 10
1367.9474640654
 20
959.4128800676
 30
0.0
  0
LINE
  5
3B1
330
207
100
AcDbEntity
  8
3_ALL_AXES
  6
Continuous
 62
     7
100
AcDbLine
 10
1367.326144
 20
828.66288
 30
0.0
 11
1367.326144
 21
829.66288
 31
0.0
  0
LINE
  5
3B2
330
207
100
AcDbEntity
  8
3_ALL_AXES
  6
Continuous
 62
     7
100
AcDbLine
 10
1367.326144
 20
829.66288
 30
0.0
 11
1367.326144
 21
830.66288
 31
0.0
  0
LINE
  5
3B3
330
207
100
AcDbEntity
  8
3_ALL_AXES
  6
Continuous
 62
     7
100
AcDbLine
 10
1367.326144
 20
830.66288
 30
0.0
 11
1367.326144
 21
842.66288
 31
0.0
  0
LINE
  5
3B4
330
207
100
AcDbEntity
  8
3_ALL_AXES
  6
Continuous
 62
     7
100
AcDbLine
 10
1367.326144
 20
842.66288
 30
0.0
 11
1367.326144
 21
842.96288
 31
0.0
  0
LINE
  5
3B5
330
207
100
AcDbEntity
  8
3_ALL_AXES
  6
Continuous
 62
     7
100
AcDbLine
 10
1367.326144
 20
842.96288
 30
0.0
 11
1367.326144
 21
843.16288
 31
0.0
  0
LINE
  5
3B6
330
207
100
AcDbEntity
  8
3_ALL_AXES
  6
Continuous
 62
     7
100
AcDbLine
 10
1367.326144
 20
843.16288
 30
0.0
 11
1367.326144
 21
843.229867
 31
0.0
  0
LINE
  5
3B7
330
207
100
AcDbEntity
  8
3_ALL_AXES
  6
Continuous
 62
     7
100
AcDbLine
 10
1367.326144
 20
843.229867
 30
0.0
 11
1367.326144
 21
843.41288
 31
0.0
  0
LINE
  5
3B8
330
207
100
AcDbEntity
  8
3_ALL_AXES
  6
Continuous
 62
     7
100
AcDbLine
 10
1367.326144
 20
843.41288
 30
0.0
 11
1367.326144
 21
843.66288
 31
0.0
  0
LINE
  5
3B9
330
207
100
AcDbEntity
  8
3_ALL_AXES
  6
Continuous
 62
     7
100
AcDbLine
 10
1367.326144
 20
843.66288
 30
0.0
 11
1367.326144
 21
845.16288
 31
0.0
  0
LINE
  5
3BA
330
207
100
AcDbEntity
  8
3_ALL_AXES
  6
Continuous
 62
     7
100
AcDbLine
 10
1367.326144
 20
845.16288
 30
0.0
 11
1367.326144
 21
846.16288
 31
0.0
  0
LINE
  5
3BB
330
207
100
AcDbEntity
  8
3_ALL_AXES
  6
Continuous
 62
     7
100
AcDbLine
 10
1367.326144
 20
846.16288
 30
0.0
 11
1367.326144
 21
846.66288
 31
0.0
  0
LINE
  5
3BC
330
207
100
AcDbEntity
  8
3_ALL_AXES
  6
Continuous
 62
     7
100
AcDbLine
 10
1367.326144
 20
851.16288
 30
0.0
 11
1367.326144
 21
851.66288
 31
0.0
  0
LINE
  5
3BD
330
207
100
AcDbEntity
  8
3_ALL_AXES
  6
Continuous
 62
     7
100
AcDbLine
 10
1367.326144
 20
851.66288
 30
0.0
 11
1367.326144
 21
852.66288
 31
0.0
  0
LINE
  5
3BE
330
207
100
AcDbEntity
  8
3_ALL_AXES
  6
Continuous
 62
     7
100
AcDbLine
 10
1367.326144
 20
852.66288
 30
0.0
 11
1367.326144
 21
854.16288
 31
0.0
  0
LINE
  5
3BF
330
207
100
AcDbEntity
  8
3_ALL_AXES
  6
Continuous
 62
     7
100
AcDbLine
 10
1367.326144
 20
854.16288
 30
0.0
 11
1367.326144
 21
854.66288
 31
0.0
  0
LINE
  5
3C0
330
207
100
AcDbEntity
  8
3_ALL_AXES
  6
Continuous
 62
     7
100
AcDbLine
 10
1367.326144
 20
854.86288
 30
0.0
 11
1367.326144
 21
855.16288
 31
0.0
  0
LINE
  5
3C1
330
207
100
AcDbEntity
  8
3_ALL_AXES
  6
Continuous
 62
     7
100
AcDbLine
 10
1367.326144
 20
855.16288
 30
0.0
 11
1367.326144
 21
918.16288
 31
0.0
  0
LINE
  5
3C2
330
207
100
AcDbEntity
  8
3_ALL_AXES
  6
Continuous
 62
     7
100
AcDbLine
 10
1367.326144
 20
918.16288
 30
0.0
 11
1367.326144
 21
919.66288
 31
0.0
  0
LINE
  5
3C3
330
207
100
AcDbEntity
  8
3_ALL_AXES
  6
Continuous
 62
     7
100
AcDbLine
 10
1367.326144
 20
919.66288
 30
0.0
 11
1367.326144
 21
954.66288
 31
0.0
  0
LINE
  5
3C4
330
207
100
AcDbEntity
  8
3_ALL_AXES
  6
Continuous
 62
     7
100
AcDbLine
 10
1367.326144
 20
954.66288
 30
0.0
 11
1367.326144
 21
954.96288
 31
0.0
  0
LINE
  5
3C5
330
207
100
AcDbEntity
  8
3_ALL_AXES
  6
Continuous
 62
     7
100
AcDbLine
 10
1367.326144
 20
954.96288
 30
0.0
 11
1367.326144
 21
955.16288
 31
0.0
  0
LINE
  5
3C6
330
207
100
AcDbEntity
  8
3_ALL_AXES
  6
Continuous
 62
     7
100
AcDbLine
 10
1367.326144
 20
955.16288
 30
0.0
 11
1367.326144
 21
955.229867
 31
0.0
  0
LINE
  5
3C7
330
207
100
AcDbEntity
  8
3_ALL_AXES
  6
Continuous
 62
     7
100
AcDbLine
 10
1367.326144
 20
955.229867
 30
0.0
 11
1367.326144
 21
955.41288
 31
0.0
  0
LINE
  5
3C8
330
207
100
AcDbEntity
  8
3_ALL_AXES
  6
Continuous
 62
     7
100
AcDbLine
 10
1367.326144
 20
955.41288
 30
0.0
 11
1367.326144
 21
955.66288
 31
0.0
  0
LINE
  5
3C9
330
207
100
AcDbEntity
  8
3_ALL_AXES
  6
Continuous
 62
     7
100
AcDbLine
 10
1367.326144
 20
955.66288
 30
0.0
 11
1367.326144
 21
957.16288
 31
0.0
  0
LINE
  5
3CA
330
207
100
AcDbEntity
  8
3_ALL_AXES
  6
Continuous
 62
     7
100
AcDbLine
 10
1367.326144
 20
957.16288
 30
0.0
 11
1367.326144
 21
958.16288
 31
0.0
  0
LINE
  5
3CB
330
207
100
AcDbEntity
  8
3_ALL_AXES
  6
Continuous
 62
     7
100
AcDbLine
 10
1367.326144
 20
958.16288
 30
0.0
 11
1367.326144
 21
958.66288
 31
0.0
  0
LINE
  5
3CC
330
207
100
AcDbEntity
  8
3_ALL_AXES
  6
Continuous
 62
     7
100
AcDbLine
 10
1367.326144
 20
963.16288
 30
0.0
 11
1367.326144
 21
963.66288
 31
0.0
  0
LINE
  5
3CD
330
207
100
AcDbEntity
  8
3_ALL_AXES
  6
Continuous
 62
     7
100
AcDbLine
 10
1367.326144
 20
963.66288
 30
0.0
 11
1367.326144
 21
964.66288
 31
0.0
  0
LINE
  5
3CE
330
207
100
AcDbEntity
  8
3_ALL_AXES
  6
Continuous
 62
     7
100
AcDbLine
 10
1367.326144
 20
964.66288
 30
0.0
 11
1367.326144
 21
965.938867
 31
0.0
  0
LINE
  5
3CF
330
207
100
AcDbEntity
  8
3_ALL_AXES
  6
Continuous
 62
     7
100
AcDbLine
 10
1367.326144
 20
965.938867
 30
0.0
 11
1367.326144
 21
966.66288
 31
0.0
  0
LINE
  5
3D0
330
207
100
AcDbEntity
  8
3_ALL_AXES
  6
Continuous
 62
     7
100
AcDbLine
 10
1367.326144
 20
966.86288
 30
0.0
 11
1367.326144
 21
967.16288
 31
0.0
  0
LINE
  5
3D1
330
207
100
AcDbEntity
  8
3_ALL_AXES
  6
Continuous
 62
     7
100
AcDbLine
 10
1367.326144
 20
967.16288
 30
0.0
 11
1367.326144
 21
976.86288
 31
0.0
  0
LINE
  5
3D2
330
207
100
AcDbEntity
  8
3_ALL_AXES
  6
Continuous
 62
     7
100
AcDbLine
 10
1367.326144
 20
976.86288
 30
0.0
 11
1367.326144
 21
977.165985
 31
0.0
  0
LINE
  5
3D3
330
207
100
AcDbEntity
  8
3_ALL_AXES
  6
Continuous
 62
     7
100
AcDbLine
 10
1367.326144
 20
977.165985
 30
0.0
 11
1367.326144
 21
977.528903
 31
0.0
  0
LINE
  5
3D4
330
207
100
AcDbEntity
  8
3_ALL_AXES
  6
Continuous
 62
     7
100
AcDbLine
 10
1367.326144
 20
977.528903
 30
0.0
 11
1367.326144
 21
977.66288
 31
0.0
  0
LINE
  5
3D5
330
207
100
AcDbEntity
  8
3_ALL_AXES
  6
Continuous
 62
     7
100
AcDbLine
 10
1367.326144
 20
977.66288
 30
0.0
 11
1367.326144
 21
978.16288
 31
0.0
  0
LINE
  5
3D6
330
207
100
AcDbEntity
  8
3_ALL_AXES
  6
Continuous
 62
     7
100
AcDbLine
 10
1367.326144
 20
978.16288
 30
0.0
 11
1367.326144
 21
978.46288
 31
0.0
  0
LINE
  5
3D7
330
207
100
AcDbEntity
  8
3_ALL_AXES
  6
Continuous
 62
     7
100
AcDbLine
 10
1367.326144
 20
978.46288
 30
0.0
 11
1367.326144
 21
978.66288
 31
0.0
  0
LINE
  5
3D8
330
207
100
AcDbEntity
  8
3_ALL_AXES
  6
Continuous
 62
     7
100
AcDbLine
 10
1367.326144
 20
978.66288
 30
0.0
 11
307.326144
 21
978.66288
 31
0.0
  0
LINE
  5
3D9
330
207
100
AcDbEntity
  8
3_ALL_AXES
  6
Continuous
 62
     7
100
AcDbLine
 10
1367.326144
 20
966.66288
 30
0.0
 11
307.326144
 21
966.66288
 31
0.0
  0
LINE
  5
3DA
330
207
100
AcDbEntity
  8
3_ALL_AXES
  6
Continuous
 62
     7
100
AcDbLine
 10
1367.326144
 20
963.16288
 30
0.0
 11
1353.826144
 21
963.16288
 31
0.0
  0
LINE
  5
3DB
330
207
100
AcDbEntity
  8
3_ALL_AXES
  6
Continuous
 62
     7
100
AcDbLine
 10
1353.826144
 20
963.16288
 30
0.0
 11
320.826144
 21
963.16288
 31
0.0
  0
LINE
  5
3DC
330
207
100
AcDbEntity
  8
3_ALL_AXES
  6
Continuous
 62
     7
100
AcDbLine
 10
320.826144
 20
963.16288
 30
0.0
 11
307.326144
 21
963.16288
 31
0.0
  0
LINE
  5
3DD
330
207
100
AcDbEntity
  8
3_ALL_AXES
  6
Continuous
 62
     7
100
AcDbLine
 10
1367.326144
 20
958.66288
 30
0.0
 11
1353.826144
 21
958.66288
 31
0.0
  0
LINE
  5
3DE
330
207
100
AcDbEntity
  8
3_ALL_AXES
  6
Continuous
 62
     7
100
AcDbLine
 10
1353.826144
 20
958.66288
 30
0.0
 11
320.826144
 21
958.66288
 31
0.0
  0
LINE
  5
3DF
330
207
100
AcDbEntity
  8
3_ALL_AXES
  6
Continuous
 62
     7
100
AcDbLine
 10
320.826144
 20
958.66288
 30
0.0
 11
307.326144
 21
958.66288
 31
0.0
  0
LINE
  5
3E0
330
207
100
AcDbEntity
  8
3_ALL_AXES
  6
Continuous
 62
     7
100
AcDbLine
 10
1367.326144
 20
955.16288
 30
0.0
 11
307.326144
 21
955.16288
 31
0.0
  0
LINE
  5
3E1
330
207
100
AcDbEntity
  8
3_ALL_AXES
  6
Continuous
 62
     7
100
AcDbLine
 10
1367.326144
 20
854.66288
 30
0.0
 11
307.326144
 21
854.66288
 31
0.0
  0
LINE
  5
3E2
330
207
100
AcDbEntity
  8
3_ALL_AXES
  6
Continuous
 62
     7
100
AcDbLine
 10
1367.326144
 20
851.16288
 30
0.0
 11
1353.826144
 21
851.16288
 31
0.0
  0
LINE
  5
3E3
330
207
100
AcDbEntity
  8
3_ALL_AXES
  6
Continuous
 62
     7
100
AcDbLine
 10
1353.826144
 20
851.16288
 30
0.0
 11
320.826144
 21
851.16288
 31
0.0
  0
LINE
  5
3E4
330
207
100
AcDbEntity
  8
3_ALL_AXES
  6
Continuous
 62
     7
100
AcDbLine
 10
320.826144
 20
851.16288
 30
0.0
 11
307.326144
 21
851.16288
 31
0.0
  0
LINE
  5
3E5
330
207
100
AcDbEntity
  8
3_ALL_AXES
  6
Continuous
 62
     7
100
AcDbLine
 10
307.326144
 20
978.46288
 30
0.0
 11
307.326144
 21
978.66288
 31
0.0
  0
LINE
  5
3E6
330
207
100
AcDbEntity
  8
3_ALL_AXES
  6
Continuous
 62
     7
100
AcDbLine
 10
307.326144
 20
966.86288
 30
0.0
 11
307.326144
 21
967.16288
 31
0.0
  0
LINE
  5
3E7
330
207
100
AcDbEntity
  8
3_ALL_AXES
  6
Continuous
 62
     7
100
AcDbLine
 10
307.326144
 20
967.16288
 30
0.0
 11
307.326144
 21
976.86288
 31
0.0
  0
LINE
  5
3E8
330
207
100
AcDbEntity
  8
3_ALL_AXES
  6
Continuous
 62
     7
100
AcDbLine
 10
307.326144
 20
976.86288
 30
0.0
 11
307.326144
 21
977.178139
 31
0.0
  0
LINE
  5
3E9
330
207
100
AcDbEntity
  8
3_ALL_AXES
  6
Continuous
 62
     7
100
AcDbLine
 10
307.326144
 20
977.178139
 30
0.0
 11
307.326144
 21
977.528903
 31
0.0
  0
LINE
  5
3EA
330
207
100
AcDbEntity
  8
3_ALL_AXES
  6
Continuous
 62
     7
100
AcDbLine
 10
307.326144
 20
977.528903
 30
0.0
 11
307.326144
 21
977.66288
 31
0.0
  0
LINE
  5
3EB
330
207
100
AcDbEntity
  8
3_ALL_AXES
  6
Continuous
 62
     7
100
AcDbLine
 10
307.326144
 20
977.66288
 30
0.0
 11
307.326144
 21
978.16288
 31
0.0
  0
LINE
  5
3EC
330
207
100
AcDbEntity
  8
3_ALL_AXES
  6
Continuous
 62
     7
100
AcDbLine
 10
307.326144
 20
978.16288
 30
0.0
 11
307.326144
 21
978.46288
 31
0.0
  0
LINE
  5
3ED
330
207
100
AcDbEntity
  8
3_ALL_AXES
  6
Continuous
 62
     7
100
AcDbLine
 10
307.326144
 20
965.938867
 30
0.0
 11
307.326144
 21
966.66288
 31
0.0
  0
LINE
  5
3EE
330
207
100
AcDbEntity
  8
3_ALL_AXES
  6
Continuous
 62
     7
100
AcDbLine
 10
307.326144
 20
963.66288
 30
0.0
 11
307.326144
 21
964.66288
 31
0.0
  0
LINE
  5
3EF
330
207
100
AcDbEntity
  8
3_ALL_AXES
  6
Continuous
 62
     7
100
AcDbLine
 10
307.326144
 20
964.66288
 30
0.0
 11
307.326144
 21
965.938867
 31
0.0
  0
LINE
  5
3F0
330
207
100
AcDbEntity
  8
3_ALL_AXES
  6
Continuous
 62
     7
100
AcDbLine
 10
307.326144
 20
963.16288
 30
0.0
 11
307.326144
 21
963.66288
 31
0.0
  0
LINE
  5
3F1
330
207
100
AcDbEntity
  8
3_ALL_AXES
  6
Continuous
 62
     7
100
AcDbLine
 10
1367.326144
 20
846.66288
 30
0.0
 11
1353.826144
 21
846.66288
 31
0.0
  0
LINE
  5
3F2
330
207
100
AcDbEntity
  8
3_ALL_AXES
  6
Continuous
 62
     7
100
AcDbLine
 10
1353.826144
 20
846.66288
 30
0.0
 11
320.826144
 21
846.66288
 31
0.0
  0
LINE
  5
3F3
330
207
100
AcDbEntity
  8
3_ALL_AXES
  6
Continuous
 62
     7
100
AcDbLine
 10
320.826144
 20
846.66288
 30
0.0
 11
307.326144
 21
846.66288
 31
0.0
  0
LINE
  5
3F4
330
207
100
AcDbEntity
  8
3_ALL_AXES
  6
Continuous
 62
     7
100
AcDbLine
 10
1367.326144
 20
843.16288
 30
0.0
 11
307.326144
 21
843.16288
 31
0.0
  0
LINE
  5
3F5
330
207
100
AcDbEntity
  8
3_ALL_AXES
  6
Continuous
 62
     7
100
AcDbLine
 10
307.326144
 20
958.16288
 30
0.0
 11
307.326144
 21
958.66288
 31
0.0
  0
LINE
  5
3F6
330
207
100
AcDbEntity
  8
3_ALL_AXES
  6
Continuous
 62
     7
100
AcDbLine
 10
307.326144
 20
955.66288
 30
0.0
 11
307.326144
 21
957.16288
 31
0.0
  0
LINE
  5
3F7
330
207
100
AcDbEntity
  8
3_ALL_AXES
  6
Continuous
 62
     7
100
AcDbLine
 10
307.326144
 20
957.16288
 30
0.0
 11
307.326144
 21
958.16288
 31
0.0
  0
LINE
  5
3F8
330
207
100
AcDbEntity
  8
3_ALL_AXES
  6
Continuous
 62
     7
100
AcDbLine
 10
307.326144
 20
955.16288
 30
0.0
 11
307.326144
 21
955.229867
 31
0.0
  0
LINE
  5
3F9
330
207
100
AcDbEntity
  8
3_ALL_AXES
  6
Continuous
 62
     7
100
AcDbLine
 10
307.326144
 20
955.229867
 30
0.0
 11
307.326144
 21
955.41288
 31
0.0
  0
LINE
  5
3FA
330
207
100
AcDbEntity
  8
3_ALL_AXES
  6
Continuous
 62
     7
100
AcDbLine
 10
307.326144
 20
955.41288
 30
0.0
 11
307.326144
 21
955.66288
 31
0.0
  0
LINE
  5
3FB
330
207
100
AcDbEntity
  8
3_ALL_AXES
  6
Continuous
 62
     7
100
AcDbLine
 10
307.326144
 20
954.96288
 30
0.0
 11
307.326144
 21
955.16288
 31
0.0
  0
LINE
  5
3FC
330
207
100
AcDbEntity
  8
3_ALL_AXES
  6
Continuous
 62
     7
100
AcDbLine
 10
307.326144
 20
854.86288
 30
0.0
 11
307.326144
 21
855.16288
 31
0.0
  0
LINE
  5
3FD
330
207
100
AcDbEntity
  8
3_ALL_AXES
  6
Continuous
 62
     7
100
AcDbLine
 10
307.326144
 20
855.16288
 30
0.0
 11
307.326144
 21
918.16288
 31
0.0
  0
LINE
  5
3FE
330
207
100
AcDbEntity
  8
3_ALL_AXES
  6
Continuous
 62
     7
100
AcDbLine
 10
307.326144
 20
918.16288
 30
0.0
 11
307.326144
 21
919.66288
 31
0.0
  0
LINE
  5
3FF
330
207
100
AcDbEntity
  8
3_ALL_AXES
  6
Continuous
 62
     7
100
AcDbLine
 10
307.326144
 20
919.66288
 30
0.0
 11
307.326144
 21
954.66288
 31
0.0
  0
LINE
  5
400
330
207
100
AcDbEntity
  8
3_ALL_AXES
  6
Continuous
 62
     7
100
AcDbLine
 10
307.326144
 20
954.66288
 30
0.0
 11
307.326144
 21
954.96288
 31
0.0
  0
LINE
  5
401
330
207
100
AcDbEntity
  8
3_ALL_AXES
  6
Continuous
 62
     7
100
AcDbLine
 10
307.326144
 20
854.16288
 30
0.0
 11
307.326144
 21
854.66288
 31
0.0
  0
LINE
  5
402
330
207
100
AcDbEntity
  8
3_ALL_AXES
  6
Continuous
 62
     7
100
AcDbLine
 10
307.326144
 20
851.66288
 30
0.0
 11
307.326144
 21
852.66288
 31
0.0
  0
LINE
  5
403
330
207
100
AcDbEntity
  8
3_ALL_AXES
  6
Continuous
 62
     7
100
AcDbLine
 10
307.326144
 20
852.66288
 30
0.0
 11
307.326144
 21
854.16288
 31
0.0
  0
LINE
  5
404
330
207
100
AcDbEntity
  8
3_ALL_AXES
  6
Continuous
 62
     7
100
AcDbLine
 10
307.326144
 20
851.16288
 30
0.0
 11
307.326144
 21
851.66288
 31
0.0
  0
LINE
  5
405
330
207
100
AcDbEntity
  8
3_ALL_AXES
  6
Continuous
 62
     7
100
AcDbLine
 10
1367.326144
 20
828.66288
 30
0.0
 11
307.326144
 21
828.66288
 31
0.0
  0
LINE
  5
406
330
207
100
AcDbEntity
  8
3_ALL_AXES
  6
Continuous
 62
     7
100
AcDbLine
 10
307.326144
 20
846.16288
 30
0.0
 11
307.326144
 21
846.66288
 31
0.0
  0
LINE
  5
407
330
207
100
AcDbEntity
  8
3_ALL_AXES
  6
Continuous
 62
     7
100
AcDbLine
 10
307.326144
 20
843.66288
 30
0.0
 11
307.326144
 21
845.16288
 31
0.0
  0
LINE
  5
408
330
207
100
AcDbEntity
  8
3_ALL_AXES
  6
Continuous
 62
     7
100
AcDbLine
 10
307.326144
 20
845.16288
 30
0.0
 11
307.326144
 21
846.16288
 31
0.0
  0
LINE
  5
409
330
207
100
AcDbEntity
  8
3_ALL_AXES
  6
Continuous
 62
     7
100
AcDbLine
 10
307.326144
 20
843.16288
 30
0.0
 11
307.326144
 21
843.229867
 31
0.0
  0
LINE
  5
40A
330
207
100
AcDbEntity
  8
3_ALL_AXES
  6
Continuous
 62
     7
100
AcDbLine
 10
307.326144
 20
843.229867
 30
0.0
 11
307.326144
 21
843.41288
 31
0.0
  0
LINE
  5
40B
330
207
100
AcDbEntity
  8
3_ALL_AXES
  6
Continuous
 62
     7
100
AcDbLine
 10
307.326144
 20
843.41288
 30
0.0
 11
307.326144
 21
843.66288
 31
0.0
  0
LINE
  5
40C
330
207
100
AcDbEntity
  8
3_ALL_AXES
  6
Continuous
 62
     7
100
AcDbLine
 10
307.326144
 20
842.96288
 30
0.0
 11
307.326144
 21
843.16288
 31
0.0
  0
LINE
  5
40D
330
207
100
AcDbEntity
  8
3_ALL_AXES
  6
Continuous
 62
     7
100
AcDbLine
 10
307.326144
 20
829.66288
 30
0.0
 11
307.326144
 21
830.66288
 31
0.0
  0
LINE
  5
40E
330
207
100
AcDbEntity
  8
3_ALL_AXES
  6
Continuous
 62
     7
100
AcDbLine
 10
307.326144
 20
830.66288
 30
0.0
 11
307.326144
 21
842.66288
 31
0.0
  0
LINE
  5
40F
330
207
100
AcDbEntity
  8
3_ALL_AXES
  6
Continuous
 62
     7
100
AcDbLine
 10
307.326144
 20
842.66288
 30
0.0
 11
307.326144
 21
842.96288
 31
0.0
  0
LINE
  5
410
330
207
100
AcDbEntity
  8
3_ALL_AXES
  6
Continuous
 62
     7
100
AcDbLine
 10
307.326144
 20
828.66288
 30
0.0
 11
307.326144
 21
829.66288
 31
0.0
  0
LINE
  5
411
330
207
100
AcDbEntity
  8
3_ALL_AXES
  6
Continuous
 62
     9
100
AcDbLine
 10
1367.326144
 20
955.66288
 30
0.0
 11
307.326144
 21
955.66288
 31
0.0
  0
LINE
  5
412
330
207
100
AcDbEntity
  8
3_ALL_AXES
  6
Continuous
 62
     9
100
AcDbLine
 10
1367.326144
 20
842.96288
 30
0.0
 11
307.326144
 21
842.96288
 31
0.0
  0
LINE
  5
413
330
207
100
AcDbEntity
  8
3_ALL_AXES
  6
Continuous
 62
     9
100
AcDbLine
 10
1367.326144
 20
978.46288
 30
0.0
 11
307.326144
 21
978.46288
 31
0.0
  0
LINE
  5
414
330
207
100
AcDbEntity
  8
3_ALL_AXES
  6
Continuous
 62
     9
100
AcDbLine
 10
1367.326144
 20
966.86288
 30
0.0
 11
307.326144
 21
966.86288
 31
0.0
  0
LINE
  5
415
330
207
100
AcDbEntity
  8
3_ALL_AXES
  6
Continuous
 62
     9
100
AcDbLine
 10
1367.326144
 20
829.66288
 30
0.0
 11
307.326144
 21
829.66288
 31
0.0
  0
LINE
  5
416
330
207
100
AcDbEntity
  8
3_ALL_AXES
  6
Continuous
 62
     9
100
AcDbLine
 10
1367.326144
 20
965.938866
 30
0.0
 11
307.326144
 21
965.938866
 31
0.0
  0
LINE
  5
417
330
207
100
AcDbEntity
  8
3_ALL_AXES
  6
Continuous
 62
     9
100
AcDbLine
 10
1367.326144
 20
963.66288
 30
0.0
 11
307.326144
 21
963.66288
 31
0.0
  0
LINE
  5
418
330
207
100
AcDbEntity
  8
3_ALL_AXES
  6
Continuous
 62
     9
100
AcDbLine
 10
1367.326144
 20
954.96288
 30
0.0
 11
307.326144
 21
954.96288
 31
0.0
  0
LINE
  5
419
330
207
100
AcDbEntity
  8
3_ALL_AXES
  6
Continuous
 62
     9
100
AcDbLine
 10
1367.326144
 20
854.86288
 30
0.0
 11
307.326144
 21
854.86288
 31
0.0
  0
LINE
  5
41A
330
207
100
AcDbEntity
  8
3_ALL_AXES
  6
Continuous
 62
     9
100
AcDbLine
 10
1367.326144
 20
854.16288
 30
0.0
 11
307.326144
 21
854.16288
 31
0.0
  0
LINE
  5
41B
330
207
100
AcDbEntity
  8
3_ALL_AXES
  6
Continuous
 62
     9
100
AcDbLine
 10
1367.326144
 20
851.66288
 30
0.0
 11
307.326144
 21
851.66288
 31
0.0
  0
LINE
  5
41C
330
207
100
AcDbEntity
  8
3_ALL_AXES
  6
Continuous
 62
     9
100
AcDbLine
 10
1367.326144
 20
958.16288
 30
0.0
 11
307.326144
 21
958.16288
 31
0.0
  0
LINE
  5
41D
330
207
100
AcDbEntity
  8
3_ALL_AXES
  6
Continuous
 62
     9
100
AcDbLine
 10
1367.326144
 20
846.16288
 30
0.0
 11
307.326144
 21
846.16288
 31
0.0
  0
LINE
  5
41E
330
207
100
AcDbEntity
  8
3_ALL_AXES
  6
Continuous
 62
     9
100
AcDbLine
 10
1367.326144
 20
843.66288
 30
0.0
 11
307.326144
 21
843.66288
 31
0.0
  0
LINE
  5
41F
330
207
100
AcDbEntity
  8
3_ALL_AXES
  6
Continuous
 62
     3
100
AcDbLine
 10
307.326144
 20
842.8557
 30
0.0
 11
307.326144
 21
842.66288
 31
0.0
  0
LINE
  5
420
330
207
100
AcDbEntity
  8
3_ALL_AXES
  6
Continuous
 62
     3
100
AcDbLine
 10
307.326144
 20
855.16288
 30
0.0
 11
307.326144
 21
854.701563
 31
0.0
  0
LINE
  5
421
330
207
100
AcDbEntity
  8
3_ALL_AXES
  6
Continuous
 62
     3
100
AcDbLine
 10
307.326144
 20
954.8557
 30
0.0
 11
307.326144
 21
954.66288
 31
0.0
  0
LINE
  5
422
330
207
100
AcDbEntity
  8
3_ALL_AXES
  6
Continuous
 62
     3
100
AcDbLine
 10
307.326144
 20
967.16288
 30
0.0
 11
307.326144
 21
966.701563
 31
0.0
  0
LINE
  5
423
330
207
100
AcDbEntity
  8
3_ALL_AXES
  6
Continuous
 62
     3
100
AcDbLine
 10
307.326144
 20
978.3557
 30
0.0
 11
307.326144
 21
978.16288
 31
0.0
  0
SPLINE
  5
424
330
207
100
AcDbEntity
  8
7_ALL_FEATURES
  6
Continuous
 62
     3
100
AcDbSpline
 70
     0
 71
     3
 72
    11
 73
     7
 74
     0
 42
0.000000001
 43
0.0000001
 40
0.0
 40
0.0
 40
0.0
 40
0.0
 40
0.201071246
 40
0.499775648
 40
0.7989586159
 40
1.0
 40
1.0
 40
1.0
 40
1.0
 10
307.4785999817
 20
847.6078056345
 30
0.0
 10
307.3942074162
 20
847.7633200623
 30
0.0
 10
307.3345359574
 20
848.2146368051
 30
0.0
 10
307.3290581034
 20
848.9126991129
 30
0.0
 10
307.3344670936
 20
849.6107443249
 30
0.0
 10
307.3942254613
 20
850.0624460885
 30
0.0
 10
307.478592847
 20
850.2179442824
 30
0.0
  0
SPLINE
  5
425
330
207
100
AcDbEntity
  8
7_ALL_FEATURES
  6
Continuous
 62
     3
100
AcDbSpline
 70
     0
 71
     3
 72
    11
 73
     7
 74
     0
 42
0.000000001
 43
0.0000001
 40
0.0
 40
0.0
 40
0.0
 40
0.0
 40
0.2010712477
 40
0.4997756537
 40
0.7989586184
 40
1.0
 40
1.0
 40
1.0
 40
1.0
 10
307.4785999817
 20
959.6078056345
 30
0.0
 10
307.3942074155
 20
959.7633200636
 30
0.0
 10
307.334535957
 20
960.2146368118
 30
0.0
 10
307.3290581035
 20
960.9126991217
 30
0.0
 10
307.3344670941
 20
961.6107443323
 30
0.0
 10
307.3942254623
 20
962.0624460906
 30
0.0
 10
307.478592847
 20
962.2179442825
 30
0.0
  0
LINE
  5
426
330
207
100
AcDbEntity
  8
3_ALL_AXES
  6
Continuous
 62
     3
100
AcDbLine
 10
307.326144
 20
967.16288
 30
0.0
 11
307.326144
 21
978.16288
 31
0.0
  0
LINE
  5
427
330
207
100
AcDbEntity
  8
3_ALL_AXES
  6
Continuous
 62
     3
100
AcDbLine
 10
307.326144
 20
855.16288
 30
0.0
 11
307.326144
 21
954.66288
 31
0.0
  0
LINE
  5
428
330
207
100
AcDbEntity
  8
3_ALL_AXES
  6
Continuous
 62
     3
100
AcDbLine
 10
307.326144
 20
830.66288
 30
0.0
 11
307.326144
 21
842.66288
 31
0.0
  0
LINE
  5
429
330
207
100
AcDbEntity
  8
3_ALL_AXES
  6
Continuous
 62
     3
100
AcDbLine
 10
1367.326144
 20
966.97006
 30
0.0
 11
1367.326144
 21
967.16288
 31
0.0
  0
LINE
  5
42A
330
207
100
AcDbEntity
  8
3_ALL_AXES
  6
Continuous
 62
     3
100
AcDbLine
 10
1367.326144
 20
954.66288
 30
0.0
 11
1367.326144
 21
955.124197
 31
0.0
  0
LINE
  5
42B
330
207
100
AcDbEntity
  8
3_ALL_AXES
  6
Continuous
 62
     3
100
AcDbLine
 10
1367.326144
 20
854.97006
 30
0.0
 11
1367.326144
 21
855.16288
 31
0.0
  0
LINE
  5
42C
330
207
100
AcDbEntity
  8
3_ALL_AXES
  6
Continuous
 62
     3
100
AcDbLine
 10
1367.326144
 20
842.66288
 30
0.0
 11
1367.326144
 21
843.124197
 31
0.0
  0
LINE
  5
42D
330
207
100
AcDbEntity
  8
3_ALL_AXES
  6
Continuous
 62
     3
100
AcDbLine
 10
1367.326144
 20
830.042949
 30
0.0
 11
1367.326144
 21
830.66288
 31
0.0
  0
LINE
  5
42E
330
207
100
AcDbEntity
  8
3_ALL_AXES
  6
Continuous
 62
     3
100
AcDbLine
 10
1367.326144
 20
978.16288
 30
0.0
 11
1367.326144
 21
978.624197
 31
0.0
  0
SPLINE
  5
42F
330
207
100
AcDbEntity
  8
7_ALL_FEATURES
  6
Continuous
 62
     3
100
AcDbSpline
 70
     0
 71
     3
 72
    11
 73
     7
 74
     0
 42
0.000000001
 43
0.0000001
 40
0.0
 40
0.0
 40
0.0
 40
0.0
 40
0.2010712477
 40
0.4997756537
 40
0.7989586184
 40
1.0
 40
1.0
 40
1.0
 40
1.0
 10
1367.173687462
 20
850.2179545006
 30
0.0
 10
1367.2580800282
 20
850.0624400715
 30
0.0
 10
1367.3177514867
 20
849.6111233233
 30
0.0
 10
1367.3232293402
 20
848.9130610134
 30
0.0
 10
1367.3178203496
 20
848.2150158028
 30
0.0
 10
1367.2580619814
 20
847.7633140445
 30
0.0
 10
1367.1736945967
 20
847.6078158527
 30
0.0
  0
SPLINE
  5
430
330
207
100
AcDbEntity
  8
7_ALL_FEATURES
  6
Continuous
 62
     3
100
AcDbSpline
 70
     0
 71
     3
 72
    11
 73
     7
 74
     0
 42
0.000000001
 43
0.0000001
 40
0.0
 40
0.0
 40
0.0
 40
0.0
 40
0.2010712477
 40
0.4997756538
 40
0.7989586184
 40
1.0
 40
1.0
 40
1.0
 40
1.0
 10
1367.173687462
 20
962.2179545006
 30
0.0
 10
1367.2580800282
 20
962.0624400715
 30
0.0
 10
1367.3177514867
 20
961.6111233232
 30
0.0
 10
1367.3232293402
 20
960.9130610133
 30
0.0
 10
1367.3178203496
 20
960.2150158028
 30
0.0
 10
1367.2580619814
 20
959.7633140445
 30
0.0
 10
1367.1736945967
 20
959.6078158526
 30
0.0
  0
LINE
  5
431
330
207
100
AcDbEntity
  8
3_ALL_AXES
  6
Continuous
 62
     3
100
AcDbLine
 10
1367.326144
 20
842.66288
 30
0.0
 11
1367.326144
 21
830.66288
 31
0.0
  0
LINE
  5
432
330
207
100
AcDbEntity
  8
3_ALL_AXES
  6
Continuous
 62
     3
100
AcDbLine
 10
1367.326144
 20
954.66288
 30
0.0
 11
1367.326144
 21
855.16288
 31
0.0
  0
LINE
  5
433
330
207
100
AcDbEntity
  8
3_ALL_AXES
  6
Continuous
 62
     3
100
AcDbLine
 10
1367.326144
 20
978.16288
 30
0.0
 11
1367.326144
 21
967.16288
 31
0.0
  0
LINE
  5
434
330
207
100
AcDbEntity
  8
3_ALL_AXES
  6
Continuous
 62
     7
100
AcDbLine
 10
1810.769046
 20
959.81288
 30
0.0
 11
1810.328648
 21
959.81288
 31
0.0
  0
LINE
  5
435
330
207
100
AcDbEntity
  8
3_ALL_AXES
  6
Continuous
 62
     7
100
AcDbLine
 10
1813.65379
 20
963.06288
 30
0.0
 11
1813.65379
 21
961.28788
 31
0.0
  0
LINE
  5
436
330
207
100
AcDbEntity
  8
3_ALL_AXES
  6
Continuous
 62
     7
100
AcDbLine
 10
1813.65379
 20
961.28788
 30
0.0
 11
1813.65379
 21
960.53788
 31
0.0
  0
LINE
  5
437
330
207
100
AcDbEntity
  8
3_ALL_AXES
  6
Continuous
 62
     7
100
AcDbLine
 10
1813.65379
 20
960.53788
 30
0.0
 11
1813.65379
 21
958.76288
 31
0.0
  0
LINE
  5
438
330
207
100
AcDbEntity
  8
3_ALL_AXES
  6
Continuous
 62
     7
100
AcDbLine
 10
1810.768992
 20
962.01288
 30
0.0
 11
1810.328708
 21
962.01288
 31
0.0
  0
LINE
  5
439
330
207
100
AcDbEntity
  8
3_ALL_AXES
  6
Continuous
 62
     7
100
AcDbLine
 10
1813.65379
 20
963.06288
 30
0.0
 11
1813.605131
 21
963.06288
 31
0.0
  0
LINE
  5
43A
330
207
100
AcDbEntity
  8
3_ALL_AXES
  6
Continuous
 62
     7
100
AcDbLine
 10
1813.65379
 20
958.76288
 30
0.0
 11
1813.605131
 21
958.76288
 31
0.0
  0
LINE
  5
43B
330
207
100
AcDbEntity
  8
3_ALL_AXES
  6
Continuous
 62
     7
100
AcDbLine
 10
1813.605131
 20
958.76288
 30
0.0
 11
1812.35379
 21
959.81288
 31
0.0
  0
LINE
  5
43C
330
207
100
AcDbEntity
  8
3_ALL_AXES
  6
Continuous
 62
     7
100
AcDbLine
 10
1813.605131
 20
963.06288
 30
0.0
 11
1812.35379
 21
962.01288
 31
0.0
  0
LINE
  5
43D
330
207
100
AcDbEntity
  8
3_ALL_AXES
  6
Continuous
 62
     7
100
AcDbLine
 10
1813.605131
 20
963.06288
 30
0.0
 11
1813.605131
 21
958.76288
 31
0.0
  0
LINE
  5
43E
330
207
100
AcDbEntity
  8
3_ALL_AXES
  6
Continuous
 62
     7
100
AcDbLine
 10
1810.769046
 20
847.81288
 30
0.0
 11
1810.328648
 21
847.81288
 31
0.0
  0
LINE
  5
43F
330
207
100
AcDbEntity
  8
3_ALL_AXES
  6
Continuous
 62
     7
100
AcDbLine
 10
1813.65379
 20
851.06288
 30
0.0
 11
1813.65379
 21
849.28788
 31
0.0
  0
LINE
  5
440
330
207
100
AcDbEntity
  8
3_ALL_AXES
  6
Continuous
 62
     7
100
AcDbLine
 10
1813.65379
 20
849.28788
 30
0.0
 11
1813.65379
 21
848.53788
 31
0.0
  0
LINE
  5
441
330
207
100
AcDbEntity
  8
3_ALL_AXES
  6
Continuous
 62
     7
100
AcDbLine
 10
1813.65379
 20
848.53788
 30
0.0
 11
1813.65379
 21
846.76288
 31
0.0
  0
LINE
  5
442
330
207
100
AcDbEntity
  8
3_ALL_AXES
  6
Continuous
 62
     7
100
AcDbLine
 10
1810.768992
 20
850.01288
 30
0.0
 11
1810.328708
 21
850.01288
 31
0.0
  0
LINE
  5
443
330
207
100
AcDbEntity
  8
3_ALL_AXES
  6
Continuous
 62
     7
100
AcDbLine
 10
1813.65379
 20
851.06288
 30
0.0
 11
1813.605131
 21
851.06288
 31
0.0
  0
LINE
  5
444
330
207
100
AcDbEntity
  8
3_ALL_AXES
  6
Continuous
 62
     7
100
AcDbLine
 10
1813.65379
 20
846.76288
 30
0.0
 11
1813.605131
 21
846.76288
 31
0.0
  0
LINE
  5
445
330
207
100
AcDbEntity
  8
3_ALL_AXES
  6
Continuous
 62
     7
100
AcDbLine
 10
1813.605131
 20
846.76288
 30
0.0
 11
1812.35379
 21
847.81288
 31
0.0
  0
LINE
  5
446
330
207
100
AcDbEntity
  8
3_ALL_AXES
  6
Continuous
 62
     7
100
AcDbLine
 10
1813.605131
 20
851.06288
 30
0.0
 11
1812.35379
 21
850.01288
 31
0.0
  0
LINE
  5
447
330
207
100
AcDbEntity
  8
3_ALL_AXES
  6
Continuous
 62
     7
100
AcDbLine
 10
1813.605131
 20
851.06288
 30
0.0
 11
1813.605131
 21
846.76288
 31
0.0
  0
LINE
  5
448
330
207
100
AcDbEntity
  8
3_ALL_AXES
  6
Continuous
 62
     7
100
AcDbLine
 10
1753.938534
 20
962.01288
 30
0.0
 11
1754.378931
 21
962.01288
 31
0.0
  0
LINE
  5
449
330
207
100
AcDbEntity
  8
3_ALL_AXES
  6
Continuous
 62
     7
100
AcDbLine
 10
1751.05379
 20
958.76288
 30
0.0
 11
1751.05379
 21
960.53788
 31
0.0
  0
LINE
  5
44A
330
207
100
AcDbEntity
  8
3_ALL_AXES
  6
Continuous
 62
     7
100
AcDbLine
 10
1751.05379
 20
960.53788
 30
0.0
 11
1751.05379
 21
961.28788
 31
0.0
  0
LINE
  5
44B
330
207
100
AcDbEntity
  8
3_ALL_AXES
  6
Continuous
 62
     7
100
AcDbLine
 10
1751.05379
 20
961.28788
 30
0.0
 11
1751.05379
 21
963.06288
 31
0.0
  0
LINE
  5
44C
330
207
100
AcDbEntity
  8
3_ALL_AXES
  6
Continuous
 62
     7
100
AcDbLine
 10
1753.938588
 20
959.81288
 30
0.0
 11
1754.378871
 21
959.81288
 31
0.0
  0
LINE
  5
44D
330
207
100
AcDbEntity
  8
3_ALL_AXES
  6
Continuous
 62
     7
100
AcDbLine
 10
1751.05379
 20
958.76288
 30
0.0
 11
1751.102448
 21
958.76288
 31
0.0
  0
LINE
  5
44E
330
207
100
AcDbEntity
  8
3_ALL_AXES
  6
Continuous
 62
     7
100
AcDbLine
 10
1751.05379
 20
963.06288
 30
0.0
 11
1751.102448
 21
963.06288
 31
0.0
  0
LINE
  5
44F
330
207
100
AcDbEntity
  8
3_ALL_AXES
  6
Continuous
 62
     7
100
AcDbLine
 10
1751.102448
 20
963.06288
 30
0.0
 11
1752.35379
 21
962.01288
 31
0.0
  0
LINE
  5
450
330
207
100
AcDbEntity
  8
3_ALL_AXES
  6
Continuous
 62
     7
100
AcDbLine
 10
1751.102448
 20
958.76288
 30
0.0
 11
1752.35379
 21
959.81288
 31
0.0
  0
LINE
  5
451
330
207
100
AcDbEntity
  8
3_ALL_AXES
  6
Continuous
 62
     7
100
AcDbLine
 10
1751.102448
 20
958.76288
 30
0.0
 11
1751.102448
 21
963.06288
 31
0.0
  0
LINE
  5
452
330
207
100
AcDbEntity
  8
3_ALL_AXES
  6
Continuous
 62
     7
100
AcDbLine
 10
1753.938534
 20
850.01288
 30
0.0
 11
1754.378931
 21
850.01288
 31
0.0
  0
LINE
  5
453
330
207
100
AcDbEntity
  8
3_ALL_AXES
  6
Continuous
 62
     7
100
AcDbLine
 10
1751.05379
 20
846.76288
 30
0.0
 11
1751.05379
 21
848.53788
 31
0.0
  0
LINE
  5
454
330
207
100
AcDbEntity
  8
3_ALL_AXES
  6
Continuous
 62
     7
100
AcDbLine
 10
1751.05379
 20
848.53788
 30
0.0
 11
1751.05379
 21
849.28788
 31
0.0
  0
LINE
  5
455
330
207
100
AcDbEntity
  8
3_ALL_AXES
  6
Continuous
 62
     7
100
AcDbLine
 10
1751.05379
 20
849.28788
 30
0.0
 11
1751.05379
 21
851.06288
 31
0.0
  0
LINE
  5
456
330
207
100
AcDbEntity
  8
3_ALL_AXES
  6
Continuous
 62
     7
100
AcDbLine
 10
1753.938588
 20
847.81288
 30
0.0
 11
1754.378871
 21
847.81288
 31
0.0
  0
LINE
  5
457
330
207
100
AcDbEntity
  8
3_ALL_AXES
  6
Continuous
 62
     7
100
AcDbLine
 10
1751.05379
 20
846.76288
 30
0.0
 11
1751.102448
 21
846.76288
 31
0.0
  0
LINE
  5
458
330
207
100
AcDbEntity
  8
3_ALL_AXES
  6
Continuous
 62
     7
100
AcDbLine
 10
1751.05379
 20
851.06288
 30
0.0
 11
1751.102448
 21
851.06288
 31
0.0
  0
LINE
  5
459
330
207
100
AcDbEntity
  8
3_ALL_AXES
  6
Continuous
 62
     7
100
AcDbLine
 10
1751.102448
 20
851.06288
 30
0.0
 11
1752.35379
 21
850.01288
 31
0.0
  0
LINE
  5
45A
330
207
100
AcDbEntity
  8
3_ALL_AXES
  6
Continuous
 62
     7
100
AcDbLine
 10
1751.102448
 20
846.76288
 30
0.0
 11
1752.35379
 21
847.81288
 31
0.0
  0
LINE
  5
45B
330
207
100
AcDbEntity
  8
3_ALL_AXES
  6
Continuous
 62
     7
100
AcDbLine
 10
1751.102448
 20
846.76288
 30
0.0
 11
1751.102448
 21
851.06288
 31
0.0
  0
ARC
  5
45C
330
207
100
AcDbEntity
  8
3_ALL_AXES
  6
Continuous
 62
     7
100
AcDbCircle
 10
1769.85379
 20
957.91288
 30
0.0
 40
2.9
100
AcDbArc
 50
180.0
 51
360.0
  0
ARC
  5
45D
330
207
100
AcDbEntity
  8
3_ALL_AXES
  6
Continuous
 62
     7
100
AcDbCircle
 10
1769.85379
 20
957.91288
 30
0.0
 40
2.9
100
AcDbArc
 50
0.0
 51
180.0
  0
ARC
  5
45E
330
207
100
AcDbEntity
  8
3_ALL_AXES
  6
Continuous
 62
     7
100
AcDbCircle
 10
1794.85379
 20
957.91288
 30
0.0
 40
2.9
100
AcDbArc
 50
180.0
 51
360.0
  0
ARC
  5
45F
330
207
100
AcDbEntity
  8
3_ALL_AXES
  6
Continuous
 62
     7
100
AcDbCircle
 10
1794.85379
 20
957.91288
 30
0.0
 40
2.9
100
AcDbArc
 50
0.0
 51
180.0
  0
SPLINE
  5
460
330
207
100
AcDbEntity
  8
7_ALL_FEATURES
  6
Continuous
 62
     7
100
AcDbSpline
 70
     0
 71
     3
 72
     9
 73
     5
 74
     0
 42
0.000000001
 43
0.0000001
 40
0.0
 40
0.0
 40
0.0
 40
0.0
 40
0.2290577445
 40
1.0
 40
1.0
 40
1.0
 40
1.0
 10
1753.2324693524
 20
850.4128800676
 30
0.0
 10
1753.2808035201
 20
850.4128800676
 30
0.0
 10
1753.4917900785
 20
850.4007899337
 30
0.0
 10
1753.6991316419
 20
850.3479442432
 30
0.0
 10
1753.8521949527
 20
850.2928440277
 30
0.0
  0
ARC
  5
461
330
207
100
AcDbEntity
  8
7_ALL_FEATURES
  6
Continuous
 62
     7
100
AcDbCircle
 10
1753.023146
 20
847.991812
 30
0.0
 40
2.4458276186
100
AcDbArc
 50
66.211352
 51
70.186196
  0
SPLINE
  5
462
330
207
100
AcDbEntity
  8
7_ALL_FEATURES
  6
Continuous
 62
     7
100
AcDbSpline
 70
     0
 71
     3
 72
    11
 73
     7
 74
     0
 42
0.000000001
 43
0.0000001
 40
0.0
 40
0.0
 40
0.0
 40
0.0
 40
0.2469989496
 40
0.4999932342
 40
0.7529948986
 40
1.0
 40
1.0
 40
1.0
 40
1.0
 10
1754.0097048516
 20
850.2298406533
 30
0.0
 10
1754.2779762173
 20
850.111663916
 30
0.0
 10
1754.7889316122
 20
849.7957809155
 30
0.0
 10
1755.2681220103
 20
848.912925395
 30
0.0
 10
1754.7890011459
 20
848.0299960477
 30
0.0
 10
1754.2780133375
 20
847.7141260554
 30
0.0
 10
1754.0097382904
 20
847.5959395641
 30
0.0
  0
ARC
  5
463
330
207
100
AcDbEntity
  8
7_ALL_FEATURES
  6
Continuous
 62
     7
100
AcDbCircle
 10
1753.022979
 20
849.83426
 30
0.0
 40
2.44617438
100
AcDbArc
 50
289.815027
 51
293.790187
  0
SPLINE
  5
464
330
207
100
AcDbEntity
  8
7_ALL_FEATURES
  6
Continuous
 62
     7
100
AcDbSpline
 70
     0
 71
     3
 72
     9
 73
     5
 74
     0
 42
0.000000001
 43
0.0000001
 40
0.0
 40
0.0
 40
0.0
 40
0.0
 40
0.2703815455
 40
1.0
 40
1.0
 40
1.0
 40
1.0
 10
1753.8521950914
 20
847.5329184659
 30
0.0
 10
1753.7985290205
 20
847.5135983785
 30
0.0
 10
1753.5977355448
 20
847.4494217792
 30
0.0
 10
1753.3863846139
 20
847.4128800676
 30
0.0
 10
1753.2324693524
 20
847.4128800676
 30
0.0
  0
LINE
  5
465
330
207
100
AcDbEntity
  8
7_ALL_FEATURES
  6
Continuous
 62
     7
100
AcDbLine
 10
1752.35379
 20
846.46288
 30
0.0
 11
1752.35379
 21
851.36288
 31
0.0
  0
LINE
  5
466
330
207
100
AcDbEntity
  8
7_ALL_FEATURES
  6
Continuous
 62
     7
100
AcDbLine
 10
1752.35379
 20
845.41288
 30
0.0
 11
1753.232469
 21
845.41288
 31
0.0
  0
LINE
  5
467
330
207
100
AcDbEntity
  8
7_ALL_FEATURES
  6
Continuous
 62
     7
100
AcDbLine
 10
1753.232469
 20
845.41288
 30
0.0
 11
1753.85379
 21
845.41288
 31
0.0
  0
LINE
  5
468
330
207
100
AcDbEntity
  8
7_ALL_FEATURES
  6
Continuous
 62
     7
100
AcDbLine
 10
1753.85379
 20
845.41288
 30
0.0
 11
1755.35379
 21
845.41288
 31
0.0
  0
LINE
  5
469
330
207
100
AcDbEntity
  8
7_ALL_FEATURES
  6
Continuous
 62
     7
100
AcDbLine
 10
1755.35379
 20
852.41288
 30
0.0
 11
1753.85379
 21
852.41288
 31
0.0
  0
LINE
  5
46A
330
207
100
AcDbEntity
  8
7_ALL_FEATURES
  6
Continuous
 62
     7
100
AcDbLine
 10
1753.85379
 20
852.41288
 30
0.0
 11
1753.232469
 21
852.41288
 31
0.0
  0
LINE
  5
46B
330
207
100
AcDbEntity
  8
7_ALL_FEATURES
  6
Continuous
 62
     7
100
AcDbLine
 10
1753.232469
 20
852.41288
 30
0.0
 11
1752.35379
 21
852.41288
 31
0.0
  0
SPLINE
  5
46C
330
207
100
AcDbEntity
  8
7_ALL_FEATURES
  6
Continuous
 62
     7
100
AcDbSpline
 70
     0
 71
     3
 72
     9
 73
     5
 74
     0
 42
0.000000001
 43
0.0000001
 40
0.0
 40
0.0
 40
0.0
 40
0.0
 40
0.2290577445
 40
1.0
 40
1.0
 40
1.0
 40
1.0
 10
1811.4751100395
 20
847.4128800676
 30
0.0
 10
1811.4267758717
 20
847.4128800676
 30
0.0
 10
1811.2157893134
 20
847.4249702014
 30
0.0
 10
1811.00844775
 20
847.477815892
 30
0.0
 10
1810.8553844392
 20
847.5329161074
 30
0.0
  0
ARC
  5
46D
330
207
100
AcDbEntity
  8
7_ALL_FEATURES
  6
Continuous
 62
     7
100
AcDbCircle
 10
1811.684433
 20
849.833949
 30
0.0
 40
2.4458276186
100
AcDbArc
 50
246.211352
 51
250.186196
  0
SPLINE
  5
46E
330
207
100
AcDbEntity
  8
7_ALL_FEATURES
  6
Continuous
 62
     7
100
AcDbSpline
 70
     0
 71
     3
 72
    11
 73
     7
 74
     0
 42
0.000000001
 43
0.0000001
 40
0.0
 40
0.0
 40
0.0
 40
0.0
 40
0.2469989496
 40
0.4999932342
 40
0.7529948985
 40
1.0
 40
1.0
 40
1.0
 40
1.0
 10
1810.6978745404
 20
847.5959194818
 30
0.0
 10
1810.4296031747
 20
847.7140962191
 30
0.0
 10
1809.91864778
 20
848.0299792197
 30
0.0
 10
1809.4394573807
 20
848.9128347399
 30
0.0
 10
1809.9185782463
 20
849.7957640869
 30
0.0
 10
1810.4295660542
 20
850.1116340796
 30
0.0
 10
1810.6978411013
 20
850.229820571
 30
0.0
  0
ARC
  5
46F
330
207
100
AcDbEntity
  8
7_ALL_FEATURES
  6
Continuous
 62
     7
100
AcDbCircle
 10
1811.6846
 20
847.991501
 30
0.0
 40
2.4461743783
100
AcDbArc
 50
109.815027
 51
113.790187
  0
SPLINE
  5
470
330
207
100
AcDbEntity
  8
7_ALL_FEATURES
  6
Continuous
 62
     7
100
AcDbSpline
 70
     0
 71
     3
 72
     9
 73
     5
 74
     0
 42
0.000000001
 43
0.0000001
 40
0.0
 40
0.0
 40
0.0
 40
0.0
 40
0.2703815455
 40
1.0
 40
1.0
 40
1.0
 40
1.0
 10
1810.8553843006
 20
850.2928416694
 30
0.0
 10
1810.9090503715
 20
850.3121617567
 30
0.0
 10
1811.1098438471
 20
850.376338356
 30
0.0
 10
1811.321194778
 20
850.4128800676
 30
0.0
 10
1811.4751100395
 20
850.4128800676
 30
0.0
  0
LINE
  5
471
330
207
100
AcDbEntity
  8
7_ALL_FEATURES
  6
Continuous
 62
     7
100
AcDbLine
 10
1812.35379
 20
851.36288
 30
0.0
 11
1812.35379
 21
846.46288
 31
0.0
  0
LINE
  5
472
330
207
100
AcDbEntity
  8
7_ALL_FEATURES
  6
Continuous
 62
     7
100
AcDbLine
 10
1812.35379
 20
852.41288
 30
0.0
 11
1811.47511
 21
852.41288
 31
0.0
  0
LINE
  5
473
330
207
100
AcDbEntity
  8
7_ALL_FEATURES
  6
Continuous
 62
     7
100
AcDbLine
 10
1811.47511
 20
852.41288
 30
0.0
 11
1810.85379
 21
852.41288
 31
0.0
  0
LINE
  5
474
330
207
100
AcDbEntity
  8
7_ALL_FEATURES
  6
Continuous
 62
     7
100
AcDbLine
 10
1810.85379
 20
852.41288
 30
0.0
 11
1809.35379
 21
852.41288
 31
0.0
  0
LINE
  5
475
330
207
100
AcDbEntity
  8
7_ALL_FEATURES
  6
Continuous
 62
     7
100
AcDbLine
 10
1809.35379
 20
845.41288
 30
0.0
 11
1810.85379
 21
845.41288
 31
0.0
  0
LINE
  5
476
330
207
100
AcDbEntity
  8
7_ALL_FEATURES
  6
Continuous
 62
     7
100
AcDbLine
 10
1810.85379
 20
845.41288
 30
0.0
 11
1811.47511
 21
845.41288
 31
0.0
  0
LINE
  5
477
330
207
100
AcDbEntity
  8
7_ALL_FEATURES
  6
Continuous
 62
     7
100
AcDbLine
 10
1811.47511
 20
845.41288
 30
0.0
 11
1812.35379
 21
845.41288
 31
0.0
  0
SPLINE
  5
478
330
207
100
AcDbEntity
  8
7_ALL_FEATURES
  6
Continuous
 62
     7
100
AcDbSpline
 70
     0
 71
     3
 72
     9
 73
     5
 74
     0
 42
0.000000001
 43
0.0000001
 40
0.0
 40
0.0
 40
0.0
 40
0.0
 40
0.2290577445
 40
1.0
 40
1.0
 40
1.0
 40
1.0
 10
1811.4751100395
 20
959.4128800676
 30
0.0
 10
1811.4267758717
 20
959.4128800676
 30
0.0
 10
1811.2157893134
 20
959.4249702014
 30
0.0
 10
1811.00844775
 20
959.477815892
 30
0.0
 10
1810.8553844392
 20
959.5329161074
 30
0.0
  0
ARC
  5
479
330
207
100
AcDbEntity
  8
7_ALL_FEATURES
  6
Continuous
 62
     7
100
AcDbCircle
 10
1811.684433
 20
961.833949
 30
0.0
 40
2.4458276185
100
AcDbArc
 50
246.211352
 51
250.186196
  0
SPLINE
  5
47A
330
207
100
AcDbEntity
  8
7_ALL_FEATURES
  6
Continuous
 62
     7
100
AcDbSpline
 70
     0
 71
     3
 72
    11
 73
     7
 74
     0
 42
0.000000001
 43
0.0000001
 40
0.0
 40
0.0
 40
0.0
 40
0.0
 40
0.2469989496
 40
0.4999932342
 40
0.7529948986
 40
1.0
 40
1.0
 40
1.0
 40
1.0
 10
1810.6978745403
 20
959.5959194819
 30
0.0
 10
1810.4296031746
 20
959.7140962191
 30
0.0
 10
1809.9186477796
 20
960.0299792197
 30
0.0
 10
1809.4394573816
 20
960.9128347402
 30
0.0
 10
1809.918578246
 20
961.7957640874
 30
0.0
 10
1810.4295660544
 20
962.1116340797
 30
0.0
 10
1810.6978411014
 20
962.229820571
 30
0.0
  0
ARC
  5
47B
330
207
100
AcDbEntity
  8
7_ALL_FEATURES
  6
Continuous
 62
     7
100
AcDbCircle
 10
1811.6846
 20
959.991501
 30
0.0
 40
2.4461743797
100
AcDbArc
 50
109.815027
 51
113.790187
  0
SPLINE
  5
47C
330
207
100
AcDbEntity
  8
7_ALL_FEATURES
  6
Continuous
 62
     7
100
AcDbSpline
 70
     0
 71
     3
 72
     9
 73
     5
 74
     0
 42
0.000000001
 43
0.0000001
 40
0.0
 40
0.0
 40
0.0
 40
0.0
 40
0.2703815455
 40
1.0
 40
1.0
 40
1.0
 40
1.0
 10
1810.8553843005
 20
962.2928416693
 30
0.0
 10
1810.9090503714
 20
962.3121617566
 30
0.0
 10
1811.1098438471
 20
962.3763383559
 30
0.0
 10
1811.321194778
 20
962.4128800676
 30
0.0
 10
1811.4751100395
 20
962.4128800676
 30
0.0
  0
LINE
  5
47D
330
207
100
AcDbEntity
  8
7_ALL_FEATURES
  6
Continuous
 62
     7
100
AcDbLine
 10
1812.35379
 20
963.36288
 30
0.0
 11
1812.35379
 21
958.46288
 31
0.0
  0
LINE
  5
47E
330
207
100
AcDbEntity
  8
7_ALL_FEATURES
  6
Continuous
 62
     7
100
AcDbLine
 10
1811.47511
 20
964.41288
 30
0.0
 11
1810.85379
 21
964.41288
 31
0.0
  0
LINE
  5
47F
330
207
100
AcDbEntity
  8
7_ALL_FEATURES
  6
Continuous
 62
     7
100
AcDbLine
 10
1810.85379
 20
964.41288
 30
0.0
 11
1809.35379
 21
964.41288
 31
0.0
  0
LINE
  5
480
330
207
100
AcDbEntity
  8
7_ALL_FEATURES
  6
Continuous
 62
     7
100
AcDbLine
 10
1809.35379
 20
957.41288
 30
0.0
 11
1810.85379
 21
957.41288
 31
0.0
  0
LINE
  5
481
330
207
100
AcDbEntity
  8
7_ALL_FEATURES
  6
Continuous
 62
     7
100
AcDbLine
 10
1810.85379
 20
957.41288
 30
0.0
 11
1811.47511
 21
957.41288
 31
0.0
  0
LINE
  5
482
330
207
100
AcDbEntity
  8
7_ALL_FEATURES
  6
Continuous
 62
     7
100
AcDbLine
 10
1811.47511
 20
957.41288
 30
0.0
 11
1812.35379
 21
957.41288
 31
0.0
  0
SPLINE
  5
483
330
207
100
AcDbEntity
  8
7_ALL_FEATURES
  6
Continuous
 62
     7
100
AcDbSpline
 70
     0
 71
     3
 72
     9
 73
     5
 74
     0
 42
0.000000001
 43
0.0000001
 40
0.0
 40
0.0
 40
0.0
 40
0.0
 40
0.2290577445
 40
1.0
 40
1.0
 40
1.0
 40
1.0
 10
1753.2324693524
 20
962.4128800676
 30
0.0
 10
1753.2808035201
 20
962.4128800676
 30
0.0
 10
1753.4917900785
 20
962.4007899337
 30
0.0
 10
1753.6991316419
 20
962.3479442432
 30
0.0
 10
1753.8521949527
 20
962.2928440277
 30
0.0
  0
ARC
  5
484
330
207
100
AcDbEntity
  8
7_ALL_FEATURES
  6
Continuous
 62
     7
100
AcDbCircle
 10
1753.023146
 20
959.991812
 30
0.0
 40
2.4458276191
100
AcDbArc
 50
66.211352
 51
70.186196
  0
SPLINE
  5
485
330
207
100
AcDbEntity
  8
7_ALL_FEATURES
  6
Continuous
 62
     7
100
AcDbSpline
 70
     0
 71
     3
 72
    11
 73
     7
 74
     0
 42
0.000000001
 43
0.0000001
 40
0.0
 40
0.0
 40
0.0
 40
0.0
 40
0.2469989496
 40
0.4999932342
 40
0.7529948986
 40
1.0
 40
1.0
 40
1.0
 40
1.0
 10
1754.0097048516
 20
962.2298406533
 30
0.0
 10
1754.2779762173
 20
962.111663916
 30
0.0
 10
1754.7889316122
 20
961.7957809155
 30
0.0
 10
1755.2681220102
 20
960.912925395
 30
0.0
 10
1754.7890011459
 20
960.0299960477
 30
0.0
 10
1754.2780133375
 20
959.7141260554
 30
0.0
 10
1754.0097382904
 20
959.5959395641
 30
0.0
  0
ARC
  5
486
330
207
100
AcDbEntity
  8
7_ALL_FEATURES
  6
Continuous
 62
     7
100
AcDbCircle
 10
1753.022979
 20
961.83426
 30
0.0
 40
2.4461743802
100
AcDbArc
 50
289.815027
 51
293.790187
  0
SPLINE
  5
487
330
207
100
AcDbEntity
  8
7_ALL_FEATURES
  6
Continuous
 62
     7
100
AcDbSpline
 70
     0
 71
     3
 72
     9
 73
     5
 74
     0
 42
0.000000001
 43
0.0000001
 40
0.0
 40
0.0
 40
0.0
 40
0.0
 40
0.2703815455
 40
1.0
 40
1.0
 40
1.0
 40
1.0
 10
1753.8521950914
 20
959.5329184659
 30
0.0
 10
1753.7985290204
 20
959.5135983785
 30
0.0
 10
1753.5977355448
 20
959.4494217792
 30
0.0
 10
1753.3863846139
 20
959.4128800676
 30
0.0
 10
1753.2324693524
 20
959.4128800676
 30
0.0
  0
LINE
  5
488
330
207
100
AcDbEntity
  8
7_ALL_FEATURES
  6
Continuous
 62
     7
100
AcDbLine
 10
1752.35379
 20
958.46288
 30
0.0
 11
1752.35379
 21
963.36288
 31
0.0
  0
LINE
  5
489
330
207
100
AcDbEntity
  8
7_ALL_FEATURES
  6
Continuous
 62
     7
100
AcDbLine
 10
1752.35379
 20
957.41288
 30
0.0
 11
1753.232469
 21
957.41288
 31
0.0
  0
LINE
  5
48A
330
207
100
AcDbEntity
  8
7_ALL_FEATURES
  6
Continuous
 62
     7
100
AcDbLine
 10
1753.232469
 20
957.41288
 30
0.0
 11
1753.85379
 21
957.41288
 31
0.0
  0
LINE
  5
48B
330
207
100
AcDbEntity
  8
7_ALL_FEATURES
  6
Continuous
 62
     7
100
AcDbLine
 10
1753.85379
 20
957.41288
 30
0.0
 11
1755.35379
 21
957.41288
 31
0.0
  0
LINE
  5
48C
330
207
100
AcDbEntity
  8
7_ALL_FEATURES
  6
Continuous
 62
     7
100
AcDbLine
 10
1755.35379
 20
964.41288
 30
0.0
 11
1753.85379
 21
964.41288
 31
0.0
  0
LINE
  5
48D
330
207
100
AcDbEntity
  8
7_ALL_FEATURES
  6
Continuous
 62
     7
100
AcDbLine
 10
1753.85379
 20
964.41288
 30
0.0
 11
1753.232469
 21
964.41288
 31
0.0
  0
LINE
  5
48E
330
207
100
AcDbEntity
  8
7_ALL_FEATURES
  6
Continuous
 62
     7
100
AcDbLine
 10
1753.232469
 20
964.41288
 30
0.0
 11
1752.35379
 21
964.41288
 31
0.0
  0
ARC
  5
48F
330
207
100
AcDbEntity
  8
3_ALL_AXES
  6
Continuous
 62
     7
100
AcDbCircle
 10
1769.625868
 20
849.66288
 30
0.0
 40
0.25
100
AcDbArc
 50
270.0
 51
356.627713
  0
ARC
  5
490
330
207
100
AcDbEntity
  8
3_ALL_AXES
  6
Continuous
 62
     7
100
AcDbCircle
 10
1769.125033
 20
849.66288
 30
0.0
 40
0.25
100
AcDbArc
 50
176.755108
 51
270.0
  0
ARC
  5
491
330
207
100
AcDbEntity
  8
3_ALL_AXES
  6
Continuous
 62
     7
100
AcDbCircle
 10
1782.35379
 20
848.91288
 30
0.0
 40
13.5
100
AcDbArc
 50
3.244892
 51
176.755108
  0
ARC
  5
492
330
207
100
AcDbEntity
  8
3_ALL_AXES
  6
Continuous
 62
     7
100
AcDbCircle
 10
1795.582546
 20
849.66288
 30
0.0
 40
0.25
100
AcDbArc
 50
270.0
 51
3.244892
  0
ARC
  5
493
330
207
100
AcDbEntity
  8
3_ALL_AXES
  6
Continuous
 62
     7
100
AcDbCircle
 10
1795.081712
 20
849.66288
 30
0.0
 40
0.25
100
AcDbArc
 50
183.372287
 51
270.0
  0
ARC
  5
494
330
207
100
AcDbEntity
  8
3_ALL_AXES
  6
Continuous
 62
     7
100
AcDbCircle
 10
1782.35379
 20
848.91288
 30
0.0
 40
12.5
100
AcDbArc
 50
3.372287
 51
176.627713
  0
SPLINE
  5
495
330
207
100
AcDbEntity
  8
3_ALL_AXES
  6
Continuous
 62
     7
100
AcDbSpline
 70
     0
 71
     3
 72
     9
 73
     5
 74
     0
 42
0.000000001
 43
0.0000001
 40
0.0
 40
0.0
 40
0.0
 40
0.0
 40
0.4932353882
 40
1.0
 40
1.0
 40
1.0
 40
1.0
 10
1782.8537896959
 20
835.6841235122
 30
0.0
 10
1782.8537896959
 20
835.6206136114
 30
0.0
 10
1782.9086196692
 20
835.4890113226
 30
0.0
 10
1783.042725445
 20
835.4293310154
 30
0.0
 10
1783.1078727766
 20
835.4330245219
 30
0.0
  0
ARC
  5
496
330
207
100
AcDbEntity
  8
3_ALL_AXES
  6
Continuous
 62
     7
100
AcDbCircle
 10
1783.10379
 20
836.184958
 30
0.0
 40
0.25
100
AcDbArc
 50
93.372287
 51
180.0
  0
ARC
  5
497
330
207
100
AcDbEntity
  8
3_ALL_AXES
  6
Continuous
 62
     7
100
AcDbCircle
 10
1782.35379
 20
848.91288
 30
0.0
 40
12.5
100
AcDbArc
 50
273.372287
 51
356.627713
  0
ARC
  5
498
330
207
100
AcDbEntity
  8
3_ALL_AXES
  6
Continuous
 62
     7
100
AcDbCircle
 10
1795.081712
 20
848.16288
 30
0.0
 40
0.25
100
AcDbArc
 50
90.0
 51
176.627713
  0
ARC
  5
499
330
207
100
AcDbEntity
  8
3_ALL_AXES
  6
Continuous
 62
     7
100
AcDbCircle
 10
1795.582546
 20
848.16288
 30
0.0
 40
0.25
100
AcDbArc
 50
356.755108
 51
90.0
  0
ARC
  5
49A
330
207
100
AcDbEntity
  8
3_ALL_AXES
  6
Continuous
 62
     7
100
AcDbCircle
 10
1782.35379
 20
848.91288
 30
0.0
 40
13.5
100
AcDbArc
 50
273.201874
 51
356.755108
  0
ARC
  5
49B
330
207
100
AcDbEntity
  8
3_ALL_AXES
  6
Continuous
 62
     7
100
AcDbCircle
 10
1769.125033
 20
848.16288
 30
0.0
 40
0.25
100
AcDbArc
 50
90.0
 51
183.244892
  0
LINE
  5
49C
330
207
100
AcDbEntity
  8
3_ALL_AXES
  6
Continuous
 62
     7
100
AcDbLine
 10
1769.625868
 20
848.41288
 30
0.0
 11
1769.125033
 21
848.41288
 31
0.0
  0
ARC
  5
49D
330
207
100
AcDbEntity
  8
3_ALL_AXES
  6
Continuous
 62
     7
100
AcDbCircle
 10
1769.625868
 20
848.16288
 30
0.0
 40
0.25
100
AcDbArc
 50
3.372287
 51
90.0
  0
ARC
  5
49E
330
207
100
AcDbEntity
  8
3_ALL_AXES
  6
Continuous
 62
     7
100
AcDbCircle
 10
1782.35379
 20
848.91288
 30
0.0
 40
12.5
100
AcDbArc
 50
183.372287
 51
266.627713
  0
ARC
  5
49F
330
207
100
AcDbEntity
  8
3_ALL_AXES
  6
Continuous
 62
     7
100
AcDbCircle
 10
1781.60379
 20
836.184958
 30
0.0
 40
0.25
100
AcDbArc
 50
0.0
 51
86.627713
  0
LINE
  5
4A0
330
207
100
AcDbEntity
  8
3_ALL_AXES
  6
Continuous
 62
     7
100
AcDbLine
 10
1781.85379
 20
835.684124
 30
0.0
 11
1781.85379
 21
836.184958
 31
0.0
  0
SPLINE
  5
4A1
330
207
100
AcDbEntity
  8
3_ALL_AXES
  6
Continuous
 62
     7
100
AcDbSpline
 70
     0
 71
     3
 72
     9
 73
     5
 74
     0
 42
0.000000001
 43
0.0000001
 40
0.0
 40
0.0
 40
0.0
 40
0.0
 40
0.5066311484
 40
1.0
 40
1.0
 40
1.0
 40
1.0
 10
1781.5997056339
 20
835.4330246974
 30
0.0
 10
1781.6648359762
 20
835.4293321541
 30
0.0
 10
1781.7989394059
 20
835.4889912495
 30
0.0
 10
1781.8537896959
 20
835.6205962624
 30
0.0
 10
1781.8537896959
 20
835.6841235122
 30
0.0
  0
ARC
  5
4A2
330
207
100
AcDbEntity
  8
3_ALL_AXES
  6
Continuous
 62
     7
100
AcDbCircle
 10
1782.35379
 20
848.91288
 30
0.0
 40
13.5
100
AcDbArc
 50
183.244892
 51
266.798122
  0
ARC
  5
4A3
330
207
100
AcDbEntity
  8
3_ALL_AXES
  6
Continuous
 62
     7
100
AcDbCircle
 10
1752.85379
 20
967.16288
 30
0.0
 40
0.5
100
AcDbArc
 50
180.0
 51
270.0
  0
ARC
  5
4A4
330
207
100
AcDbEntity
  8
3_ALL_AXES
  6
Continuous
 62
     7
100
AcDbCircle
 10
1754.85379
 20
966.16288
 30
0.0
 40
0.5
100
AcDbArc
 50
0.0
 51
90.0
  0
ARC
  5
4A5
330
207
100
AcDbEntity
  8
3_ALL_AXES
  6
Continuous
 62
     7
100
AcDbCircle
 10
1754.85379
 20
955.66288
 30
0.0
 40
0.5
100
AcDbArc
 50
270.0
 51
360.0
  0
ARC
  5
4A6
330
207
100
AcDbEntity
  8
3_ALL_AXES
  6
Continuous
 62
     7
100
AcDbCircle
 10
1752.85379
 20
954.66288
 30
0.0
 40
0.5
100
AcDbArc
 50
90.0
 51
180.0
  0
ARC
  5
4A7
330
207
100
AcDbEntity
  8
3_ALL_AXES
  6
Continuous
 62
     7
100
AcDbCircle
 10
1752.85379
 20
855.16288
 30
0.0
 40
0.5
100
AcDbArc
 50
180.0
 51
270.0
  0
ARC
  5
4A8
330
207
100
AcDbEntity
  8
3_ALL_AXES
  6
Continuous
 62
     7
100
AcDbCircle
 10
1754.85379
 20
854.16288
 30
0.0
 40
0.5
100
AcDbArc
 50
0.0
 51
90.0
  0
ARC
  5
4A9
330
207
100
AcDbEntity
  8
3_ALL_AXES
  6
Continuous
 62
     7
100
AcDbCircle
 10
1754.85379
 20
843.66288
 30
0.0
 40
0.5
100
AcDbArc
 50
270.0
 51
360.0
  0
ARC
  5
4AA
330
207
100
AcDbEntity
  8
3_ALL_AXES
  6
Continuous
 62
     7
100
AcDbCircle
 10
1752.85379
 20
842.66288
 30
0.0
 40
0.5
100
AcDbArc
 50
90.0
 51
180.0
  0
ARC
  5
4AB
330
207
100
AcDbEntity
  8
3_ALL_AXES
  6
Continuous
 62
     7
100
AcDbCircle
 10
1754.35379
 20
830.66288
 30
0.0
 40
2.0
100
AcDbArc
 50
180.0
 51
270.0
  0
ARC
  5
4AC
330
207
100
AcDbEntity
  8
3_ALL_AXES
  6
Continuous
 62
     7
100
AcDbCircle
 10
1810.35379
 20
830.66288
 30
0.0
 40
2.0
100
AcDbArc
 50
270.0
 51
360.0
  0
ARC
  5
4AD
330
207
100
AcDbEntity
  8
3_ALL_AXES
  6
Continuous
 62
     7
100
AcDbCircle
 10
1811.85379
 20
842.66288
 30
0.0
 40
0.5
100
AcDbArc
 50
0.0
 51
90.0
  0
ARC
  5
4AE
330
207
100
AcDbEntity
  8
3_ALL_AXES
  6
Continuous
 62
     7
100
AcDbCircle
 10
1809.85379
 20
843.66288
 30
0.0
 40
0.5
100
AcDbArc
 50
180.0
 51
270.0
  0
ARC
  5
4AF
330
207
100
AcDbEntity
  8
3_ALL_AXES
  6
Continuous
 62
     7
100
AcDbCircle
 10
1809.85379
 20
854.16288
 30
0.0
 40
0.5
100
AcDbArc
 50
90.0
 51
180.0
  0
ARC
  5
4B0
330
207
100
AcDbEntity
  8
3_ALL_AXES
  6
Continuous
 62
     7
100
AcDbCircle
 10
1811.85379
 20
855.16288
 30
0.0
 40
0.5
100
AcDbArc
 50
270.0
 51
360.0
  0
ARC
  5
4B1
330
207
100
AcDbEntity
  8
3_ALL_AXES
  6
Continuous
 62
     7
100
AcDbCircle
 10
1811.85379
 20
954.66288
 30
0.0
 40
0.5
100
AcDbArc
 50
0.0
 51
90.0
  0
ARC
  5
4B2
330
207
100
AcDbEntity
  8
3_ALL_AXES
  6
Continuous
 62
     7
100
AcDbCircle
 10
1809.85379
 20
955.66288
 30
0.0
 40
0.5
100
AcDbArc
 50
180.0
 51
270.0
  0
ARC
  5
4B3
330
207
100
AcDbEntity
  8
3_ALL_AXES
  6
Continuous
 62
     7
100
AcDbCircle
 10
1809.85379
 20
966.16288
 30
0.0
 40
0.5
100
AcDbArc
 50
90.0
 51
180.0
  0
ARC
  5
4B4
330
207
100
AcDbEntity
  8
3_ALL_AXES
  6
Continuous
 62
     7
100
AcDbCircle
 10
1811.85379
 20
967.16288
 30
0.0
 40
0.5
100
AcDbArc
 50
270.0
 51
360.0
  0
ARC
  5
4B5
330
207
100
AcDbEntity
  8
3_ALL_AXES
  6
Continuous
 62
     7
100
AcDbCircle
 10
1811.85379
 20
978.16288
 30
0.0
 40
0.5
100
AcDbArc
 50
0.0
 51
90.0
  0
ARC
  5
4B6
330
207
100
AcDbEntity
  8
3_ALL_AXES
  6
Continuous
 62
     7
100
AcDbCircle
 10
1752.85379
 20
978.16288
 30
0.0
 40
0.5
100
AcDbArc
 50
90.0
 51
180.0
  0
LINE
  5
4B7
330
207
100
AcDbEntity
  8
3_ALL_AXES
  6
Continuous
 62
     7
100
AcDbLine
 10
1795.582546
 20
849.41288
 30
0.0
 11
1795.081712
 21
849.41288
 31
0.0
  0
LINE
  5
4B8
330
207
100
AcDbEntity
  8
3_ALL_AXES
  6
Continuous
 62
     7
100
AcDbLine
 10
1769.625868
 20
849.41288
 30
0.0
 11
1769.125033
 21
849.41288
 31
0.0
  0
LINE
  5
4B9
330
207
100
AcDbEntity
  8
3_ALL_AXES
  6
Continuous
 62
     7
100
AcDbLine
 10
1795.081712
 20
848.41288
 30
0.0
 11
1795.582546
 21
848.41288
 31
0.0
  0
LINE
  5
4BA
330
207
100
AcDbEntity
  8
3_ALL_AXES
  6
Continuous
 62
     7
100
AcDbLine
 10
1782.85379
 20
835.684124
 30
0.0
 11
1782.85379
 21
836.184958
 31
0.0
  0
LINE
  5
4BB
330
207
100
AcDbEntity
  8
3_ALL_AXES
  6
Continuous
 62
     7
100
AcDbLine
 10
1811.85379
 20
978.66288
 30
0.0
 11
1752.85379
 21
978.66288
 31
0.0
  0
LINE
  5
4BC
330
207
100
AcDbEntity
  8
3_ALL_AXES
  6
Continuous
 62
     7
100
AcDbLine
 10
1812.35379
 20
967.16288
 30
0.0
 11
1812.35379
 21
978.16288
 31
0.0
  0
LINE
  5
4BD
330
207
100
AcDbEntity
  8
3_ALL_AXES
  6
Continuous
 62
     7
100
AcDbLine
 10
1809.85379
 20
966.66288
 30
0.0
 11
1811.85379
 21
966.66288
 31
0.0
  0
LINE
  5
4BE
330
207
100
AcDbEntity
  8
3_ALL_AXES
  6
Continuous
 62
     7
100
AcDbLine
 10
1809.35379
 20
964.41288
 30
0.0
 11
1809.35379
 21
966.16288
 31
0.0
  0
LINE
  5
4BF
330
207
100
AcDbEntity
  8
3_ALL_AXES
  6
Continuous
 62
     7
100
AcDbLine
 10
1809.35379
 20
955.66288
 30
0.0
 11
1809.35379
 21
957.41288
 31
0.0
  0
LINE
  5
4C0
330
207
100
AcDbEntity
  8
3_ALL_AXES
  6
Continuous
 62
     7
100
AcDbLine
 10
1811.85379
 20
955.16288
 30
0.0
 11
1809.85379
 21
955.16288
 31
0.0
  0
LINE
  5
4C1
330
207
100
AcDbEntity
  8
3_ALL_AXES
  6
Continuous
 62
     7
100
AcDbLine
 10
1812.35379
 20
855.16288
 30
0.0
 11
1812.35379
 21
954.66288
 31
0.0
  0
LINE
  5
4C2
330
207
100
AcDbEntity
  8
3_ALL_AXES
  6
Continuous
 62
     7
100
AcDbLine
 10
1809.85379
 20
854.66288
 30
0.0
 11
1811.85379
 21
854.66288
 31
0.0
  0
LINE
  5
4C3
330
207
100
AcDbEntity
  8
3_ALL_AXES
  6
Continuous
 62
     7
100
AcDbLine
 10
1809.35379
 20
852.41288
 30
0.0
 11
1809.35379
 21
854.16288
 31
0.0
  0
LINE
  5
4C4
330
207
100
AcDbEntity
  8
3_ALL_AXES
  6
Continuous
 62
     7
100
AcDbLine
 10
1809.35379
 20
843.66288
 30
0.0
 11
1809.35379
 21
845.41288
 31
0.0
  0
LINE
  5
4C5
330
207
100
AcDbEntity
  8
3_ALL_AXES
  6
Continuous
 62
     7
100
AcDbLine
 10
1811.85379
 20
843.16288
 30
0.0
 11
1809.85379
 21
843.16288
 31
0.0
  0
LINE
  5
4C6
330
207
100
AcDbEntity
  8
3_ALL_AXES
  6
Continuous
 62
     7
100
AcDbLine
 10
1812.35379
 20
830.66288
 30
0.0
 11
1812.35379
 21
842.66288
 31
0.0
  0
LINE
  5
4C7
330
207
100
AcDbEntity
  8
3_ALL_AXES
  6
Continuous
 62
     7
100
AcDbLine
 10
1754.35379
 20
828.66288
 30
0.0
 11
1810.35379
 21
828.66288
 31
0.0
  0
LINE
  5
4C8
330
207
100
AcDbEntity
  8
3_ALL_AXES
  6
Continuous
 62
     7
100
AcDbLine
 10
1752.35379
 20
842.66288
 30
0.0
 11
1752.35379
 21
830.66288
 31
0.0
  0
LINE
  5
4C9
330
207
100
AcDbEntity
  8
3_ALL_AXES
  6
Continuous
 62
     7
100
AcDbLine
 10
1754.85379
 20
843.16288
 30
0.0
 11
1752.85379
 21
843.16288
 31
0.0
  0
LINE
  5
4CA
330
207
100
AcDbEntity
  8
3_ALL_AXES
  6
Continuous
 62
     7
100
AcDbLine
 10
1755.35379
 20
845.41288
 30
0.0
 11
1755.35379
 21
843.66288
 31
0.0
  0
LINE
  5
4CB
330
207
100
AcDbEntity
  8
3_ALL_AXES
  6
Continuous
 62
     7
100
AcDbLine
 10
1755.35379
 20
854.16288
 30
0.0
 11
1755.35379
 21
852.41288
 31
0.0
  0
LINE
  5
4CC
330
207
100
AcDbEntity
  8
3_ALL_AXES
  6
Continuous
 62
     7
100
AcDbLine
 10
1752.85379
 20
854.66288
 30
0.0
 11
1754.85379
 21
854.66288
 31
0.0
  0
LINE
  5
4CD
330
207
100
AcDbEntity
  8
3_ALL_AXES
  6
Continuous
 62
     7
100
AcDbLine
 10
1752.35379
 20
954.66288
 30
0.0
 11
1752.35379
 21
855.16288
 31
0.0
  0
LINE
  5
4CE
330
207
100
AcDbEntity
  8
3_ALL_AXES
  6
Continuous
 62
     7
100
AcDbLine
 10
1754.85379
 20
955.16288
 30
0.0
 11
1752.85379
 21
955.16288
 31
0.0
  0
LINE
  5
4CF
330
207
100
AcDbEntity
  8
3_ALL_AXES
  6
Continuous
 62
     7
100
AcDbLine
 10
1755.35379
 20
957.41288
 30
0.0
 11
1755.35379
 21
955.66288
 31
0.0
  0
LINE
  5
4D0
330
207
100
AcDbEntity
  8
3_ALL_AXES
  6
Continuous
 62
     7
100
AcDbLine
 10
1755.35379
 20
966.16288
 30
0.0
 11
1755.35379
 21
964.41288
 31
0.0
  0
LINE
  5
4D1
330
207
100
AcDbEntity
  8
3_ALL_AXES
  6
Continuous
 62
     7
100
AcDbLine
 10
1752.85379
 20
966.66288
 30
0.0
 11
1754.85379
 21
966.66288
 31
0.0
  0
LINE
  5
4D2
330
207
100
AcDbEntity
  8
3_ALL_AXES
  6
Continuous
 62
     7
100
AcDbLine
 10
1752.35379
 20
978.16288
 30
0.0
 11
1752.35379
 21
967.16288
 31
0.0
  0
SPLINE
  5
4D3
330
207
100
AcDbEntity
  8
7_ALL_FEATURES
  6
Continuous
 62
     7
100
AcDbSpline
 70
     0
 71
     3
 72
    15
 73
    11
 74
     0
 42
0.000000001
 43
0.0000001
 40
0.0
 40
0.0
 40
0.0
 40
0.0
 40
0.1010565498
 40
0.1998794308
 40
0.3285655687
 40
0.5003665496
 40
0.6718655084
 40
0.8002324634
 40
0.898871424
 40
1.0
 40
1.0
 40
1.0
 40
1.0
 10
1811.4751100395
 20
959.4128800676
 30
0.0
 10
1811.6085750594
 20
959.4128800676
 30
0.0
 10
1811.8810154998
 20
959.4500699309
 30
0.0
 10
1812.2271483292
 20
959.7575165535
 30
0.0
 10
1812.3392470838
 20
960.2939351383
 30
0.0
 10
1812.3463856418
 20
960.9139448269
 30
0.0
 10
1812.3391071257
 20
961.5335797416
 30
0.0
 10
1812.226656259
 20
962.068766115
 30
0.0
 10
1811.8809643376
 20
962.37565136
 30
0.0
 10
1811.6086701841
 20
962.4128800676
 30
0.0
 10
1811.4751100395
 20
962.4128800676
 30
0.0
  0
LINE
  5
4D4
330
207
100
AcDbEntity
  8
3_ALL_AXES
  6
Continuous
 62
     9
100
AcDbLine
 10
1753.85379
 20
845.31288
 30
0.0
 11
1752.55379
 21
845.31288
 31
0.0
  0
LINE
  5
4D5
330
207
100
AcDbEntity
  8
3_ALL_AXES
  6
Continuous
 62
     9
100
AcDbLine
 10
1752.55379
 20
845.31288
 30
0.0
 11
1752.35379
 21
845.31288
 31
0.0
  0
LINE
  5
4D6
330
207
100
AcDbEntity
  8
3_ALL_AXES
  6
Continuous
 62
     9
100
AcDbLine
 10
1810.85379
 20
964.51288
 30
0.0
 11
1812.15379
 21
964.51288
 31
0.0
  0
LINE
  5
4D7
330
207
100
AcDbEntity
  8
3_ALL_AXES
  6
Continuous
 62
     9
100
AcDbLine
 10
1812.15379
 20
964.51288
 30
0.0
 11
1812.35379
 21
964.51288
 31
0.0
  0
LINE
  5
4D8
330
207
100
AcDbEntity
  8
3_ALL_AXES
  6
Continuous
 62
     9
100
AcDbLine
 10
1810.85379
 20
845.31288
 30
0.0
 11
1812.15379
 21
845.31288
 31
0.0
  0
LINE
  5
4D9
330
207
100
AcDbEntity
  8
3_ALL_AXES
  6
Continuous
 62
     9
100
AcDbLine
 10
1812.15379
 20
845.31288
 30
0.0
 11
1812.35379
 21
845.31288
 31
0.0
  0
SPLINE
  5
4DA
330
207
100
AcDbEntity
  8
7_ALL_FEATURES
  6
Continuous
 62
     7
100
AcDbSpline
 70
     0
 71
     3
 72
    15
 73
    11
 74
     0
 42
0.000000001
 43
0.0000001
 40
0.0
 40
0.0
 40
0.0
 40
0.0
 40
0.1010565498
 40
0.1998794308
 40
0.3285655687
 40
0.5003665496
 40
0.6718655084
 40
0.8002324634
 40
0.898871424
 40
1.0
 40
1.0
 40
1.0
 40
1.0
 10
1811.4751100395
 20
847.4128800676
 30
0.0
 10
1811.6085750594
 20
847.4128800676
 30
0.0
 10
1811.8810154998
 20
847.4500699309
 30
0.0
 10
1812.2271483292
 20
847.7575165535
 30
0.0
 10
1812.3392470838
 20
848.2939351383
 30
0.0
 10
1812.3463856418
 20
848.9139448269
 30
0.0
 10
1812.3391071257
 20
849.5335797416
 30
0.0
 10
1812.226656259
 20
850.068766115
 30
0.0
 10
1811.8809643376
 20
850.37565136
 30
0.0
 10
1811.6086701841
 20
850.4128800675
 30
0.0
 10
1811.4751100395
 20
850.4128800676
 30
0.0
  0
LINE
  5
4DB
330
207
100
AcDbEntity
  8
3_ALL_AXES
  6
Continuous
 62
     9
100
AcDbLine
 10
1810.85379
 20
957.31288
 30
0.0
 11
1812.15379
 21
957.31288
 31
0.0
  0
LINE
  5
4DC
330
207
100
AcDbEntity
  8
3_ALL_AXES
  6
Continuous
 62
     9
100
AcDbLine
 10
1812.15379
 20
957.31288
 30
0.0
 11
1812.35379
 21
957.31288
 31
0.0
  0
LINE
  5
4DD
330
207
100
AcDbEntity
  8
7_ALL_FEATURES
  6
Continuous
 62
     9
100
AcDbLine
 10
1809.35379
 20
957.41288
 30
0.0
 11
1809.35379
 21
964.41288
 31
0.0
  0
SPLINE
  5
4DE
330
207
100
AcDbEntity
  8
7_ALL_FEATURES
  6
Continuous
 62
     7
100
AcDbSpline
 70
     0
 71
     3
 72
    15
 73
    11
 74
     0
 42
0.000000001
 43
0.0000001
 40
0.0
 40
0.0
 40
0.0
 40
0.0
 40
0.1010565498
 40
0.1998794308
 40
0.3285655687
 40
0.5003665496
 40
0.6718655084
 40
0.8002324634
 40
0.898871424
 40
1.0
 40
1.0
 40
1.0
 40
1.0
 10
1753.2324693524
 20
962.4128800676
 30
0.0
 10
1753.0990043325
 20
962.4128800676
 30
0.0
 10
1752.8265638921
 20
962.3756902043
 30
0.0
 10
1752.4804310627
 20
962.0682435817
 30
0.0
 10
1752.3683323081
 20
961.5318249968
 30
0.0
 10
1752.3611937501
 20
960.9118153082
 30
0.0
 10
1752.3684722662
 20
960.2921803936
 30
0.0
 10
1752.4809231329
 20
959.7569940201
 30
0.0
 10
1752.8266150543
 20
959.4501087752
 30
0.0
 10
1753.0989092078
 20
959.4128800676
 30
0.0
 10
1753.2324693524
 20
959.4128800676
 30
0.0
  0
LINE
  5
4DF
330
207
100
AcDbEntity
  8
7_ALL_FEATURES
  6
Continuous
 62
     9
100
AcDbLine
 10
1755.35379
 20
852.41288
 30
0.0
 11
1755.35379
 21
845.41288
 31
0.0
  0
LINE
  5
4E0
330
207
100
AcDbEntity
  8
7_ALL_FEATURES
  6
Continuous
 62
     9
100
AcDbLine
 10
1809.35379
 20
845.41288
 30
0.0
 11
1809.35379
 21
852.41288
 31
0.0
  0
LINE
  5
4E1
330
207
100
AcDbEntity
  8
7_ALL_FEATURES
  6
Continuous
 62
     9
100
AcDbLine
 10
1755.35379
 20
964.41288
 30
0.0
 11
1755.35379
 21
957.41288
 31
0.0
  0
SPLINE
  5
4E2
330
207
100
AcDbEntity
  8
7_ALL_FEATURES
  6
Continuous
 62
     7
100
AcDbSpline
 70
     0
 71
     3
 72
    15
 73
    11
 74
     0
 42
0.000000001
 43
0.0000001
 40
0.0
 40
0.0
 40
0.0
 40
0.0
 40
0.1010565498
 40
0.1998794308
 40
0.3285655687
 40
0.5003665496
 40
0.6718655084
 40
0.8002324634
 40
0.898871424
 40
1.0
 40
1.0
 40
1.0
 40
1.0
 10
1753.2324693524
 20
850.4128800676
 30
0.0
 10
1753.0990043325
 20
850.4128800676
 30
0.0
 10
1752.8265638921
 20
850.3756902043
 30
0.0
 10
1752.4804310627
 20
850.0682435816
 30
0.0
 10
1752.3683323081
 20
849.5318249968
 30
0.0
 10
1752.3611937501
 20
848.9118153082
 30
0.0
 10
1752.3684722662
 20
848.2921803936
 30
0.0
 10
1752.4809231329
 20
847.7569940201
 30
0.0
 10
1752.8266150543
 20
847.4501087752
 30
0.0
 10
1753.0989092078
 20
847.4128800676
 30
0.0
 10
1753.2324693524
 20
847.4128800676
 30
0.0
  0
LINE
  5
4E3
330
207
100
AcDbEntity
  8
3_ALL_AXES
  6
Continuous
 62
     9
100
AcDbLine
 10
1753.85379
 20
852.51288
 30
0.0
 11
1752.55379
 21
852.51288
 31
0.0
  0
LINE
  5
4E4
330
207
100
AcDbEntity
  8
3_ALL_AXES
  6
Continuous
 62
     9
100
AcDbLine
 10
1752.55379
 20
852.51288
 30
0.0
 11
1752.35379
 21
852.51288
 31
0.0
  0
LINE
  5
4E5
330
207
100
AcDbEntity
  8
3_ALL_AXES
  6
Continuous
 62
     9
100
AcDbLine
 10
1753.85379
 20
957.31288
 30
0.0
 11
1752.55379
 21
957.31288
 31
0.0
  0
LINE
  5
4E6
330
207
100
AcDbEntity
  8
3_ALL_AXES
  6
Continuous
 62
     9
100
AcDbLine
 10
1752.55379
 20
957.31288
 30
0.0
 11
1752.35379
 21
957.31288
 31
0.0
  0
LINE
  5
4E7
330
207
100
AcDbEntity
  8
3_ALL_AXES
  6
Continuous
 62
     9
100
AcDbLine
 10
1810.85379
 20
852.51288
 30
0.0
 11
1812.15379
 21
852.51288
 31
0.0
  0
LINE
  5
4E8
330
207
100
AcDbEntity
  8
3_ALL_AXES
  6
Continuous
 62
     9
100
AcDbLine
 10
1812.15379
 20
852.51288
 30
0.0
 11
1812.35379
 21
852.51288
 31
0.0
  0
LINE
  5
4E9
330
207
100
AcDbEntity
  8
3_ALL_AXES
  6
Continuous
 62
     9
100
AcDbLine
 10
1753.85379
 20
964.51288
 30
0.0
 11
1752.55379
 21
964.51288
 31
0.0
  0
LINE
  5
4EA
330
207
100
AcDbEntity
  8
3_ALL_AXES
  6
Continuous
 62
     9
100
AcDbLine
 10
1752.55379
 20
964.51288
 30
0.0
 11
1752.35379
 21
964.51288
 31
0.0
  0
LINE
  5
4EB
330
207
100
AcDbEntity
  8
3_ALL_AXES
  6
Continuous
 62
     7
100
AcDbLine
 10
1752.85379
 20
978.66288
 30
0.0
 11
1752.55379
 21
978.66288
 31
0.0
  0
ARC
  5
4EC
330
207
100
AcDbEntity
  8
3_ALL_AXES
  6
Continuous
 62
     7
100
AcDbCircle
 10
1752.55379
 20
978.46288
 30
0.0
 40
0.2
100
AcDbArc
 50
90.0
 51
180.0
  0
LINE
  5
4ED
330
207
100
AcDbEntity
  8
3_ALL_AXES
  6
Continuous
 62
     7
100
AcDbLine
 10
1752.35379
 20
978.46288
 30
0.0
 11
1752.35379
 21
978.16288
 31
0.0
  0
LINE
  5
4EE
330
207
100
AcDbEntity
  8
3_ALL_AXES
  6
Continuous
 62
     7
100
AcDbLine
 10
1752.35379
 20
967.16288
 30
0.0
 11
1752.35379
 21
966.86288
 31
0.0
  0
ARC
  5
4EF
330
207
100
AcDbEntity
  8
3_ALL_AXES
  6
Continuous
 62
     7
100
AcDbCircle
 10
1752.15379
 20
966.86288
 30
0.0
 40
0.2
100
AcDbArc
 50
270.0
 51
360.0
  0
LINE
  5
4F0
330
207
100
AcDbEntity
  8
3_ALL_AXES
  6
Continuous
 62
     7
100
AcDbLine
 10
1752.15379
 20
966.66288
 30
0.0
 11
1751.577802
 21
966.66288
 31
0.0
  0
ARC
  5
4F1
330
207
100
AcDbEntity
  8
3_ALL_AXES
  6
Continuous
 62
     7
100
AcDbCircle
 10
1751.577804
 20
965.938866
 30
0.0
 40
0.7240143391
100
AcDbArc
 50
90.0001
 51
179.9999
  0
LINE
  5
4F2
330
207
100
AcDbEntity
  8
3_ALL_AXES
  6
Continuous
 62
     7
100
AcDbLine
 10
1750.85379
 20
965.938867
 30
0.0
 11
1750.85379
 21
963.66288
 31
0.0
  0
ARC
  5
4F3
330
207
100
AcDbEntity
  8
3_ALL_AXES
  6
Continuous
 62
     7
100
AcDbCircle
 10
1751.35379
 20
963.66288
 30
0.0
 40
0.5
100
AcDbArc
 50
180.0
 51
270.0
  0
LINE
  5
4F4
330
207
100
AcDbEntity
  8
3_ALL_AXES
  6
Continuous
 62
     7
100
AcDbLine
 10
1751.35379
 20
963.16288
 30
0.0
 11
1752.15379
 21
963.16288
 31
0.0
  0
ARC
  5
4F5
330
207
100
AcDbEntity
  8
3_ALL_AXES
  6
Continuous
 62
     7
100
AcDbCircle
 10
1752.15379
 20
963.36288
 30
0.0
 40
0.2
100
AcDbArc
 50
270.0
 51
360.0
  0
LINE
  5
4F6
330
207
100
AcDbEntity
  8
3_ALL_AXES
  6
Continuous
 62
     7
100
AcDbLine
 10
1752.35379
 20
963.36288
 30
0.0
 11
1752.35379
 21
964.46288
 31
0.0
  0
ARC
  5
4F7
330
207
100
AcDbEntity
  8
3_ALL_AXES
  6
Continuous
 62
     7
100
AcDbCircle
 10
1752.55379
 20
964.46288
 30
0.0
 40
0.2
100
AcDbArc
 50
90.0
 51
180.0
  0
LINE
  5
4F8
330
207
100
AcDbEntity
  8
3_ALL_AXES
  6
Continuous
 62
     7
100
AcDbLine
 10
1752.55379
 20
964.66288
 30
0.0
 11
1755.35379
 21
964.66288
 31
0.0
  0
LINE
  5
4F9
330
207
100
AcDbEntity
  8
3_ALL_AXES
  6
Continuous
 62
     7
100
AcDbLine
 10
1755.35379
 20
957.16288
 30
0.0
 11
1752.55379
 21
957.16288
 31
0.0
  0
ARC
  5
4FA
330
207
100
AcDbEntity
  8
3_ALL_AXES
  6
Continuous
 62
     7
100
AcDbCircle
 10
1752.55379
 20
957.36288
 30
0.0
 40
0.2
100
AcDbArc
 50
180.0
 51
270.0
  0
LINE
  5
4FB
330
207
100
AcDbEntity
  8
3_ALL_AXES
  6
Continuous
 62
     7
100
AcDbLine
 10
1752.35379
 20
957.36288
 30
0.0
 11
1752.35379
 21
958.46288
 31
0.0
  0
ARC
  5
4FC
330
207
100
AcDbEntity
  8
3_ALL_AXES
  6
Continuous
 62
     7
100
AcDbCircle
 10
1752.15379
 20
958.46288
 30
0.0
 40
0.2
100
AcDbArc
 50
0.0
 51
90.0
  0
LINE
  5
4FD
330
207
100
AcDbEntity
  8
3_ALL_AXES
  6
Continuous
 62
     7
100
AcDbLine
 10
1752.15379
 20
958.66288
 30
0.0
 11
1751.35379
 21
958.66288
 31
0.0
  0
ARC
  5
4FE
330
207
100
AcDbEntity
  8
3_ALL_AXES
  6
Continuous
 62
     7
100
AcDbCircle
 10
1751.35379
 20
958.16288
 30
0.0
 40
0.5
100
AcDbArc
 50
90.0
 51
180.0
  0
LINE
  5
4FF
330
207
100
AcDbEntity
  8
3_ALL_AXES
  6
Continuous
 62
     7
100
AcDbLine
 10
1750.85379
 20
958.16288
 30
0.0
 11
1750.85379
 21
955.66288
 31
0.0
  0
ARC
  5
500
330
207
100
AcDbEntity
  8
3_ALL_AXES
  6
Continuous
 62
     7
100
AcDbCircle
 10
1751.35379
 20
955.66288
 30
0.0
 40
0.5
100
AcDbArc
 50
180.0
 51
270.0
  0
LINE
  5
501
330
207
100
AcDbEntity
  8
3_ALL_AXES
  6
Continuous
 62
     7
100
AcDbLine
 10
1751.35379
 20
955.16288
 30
0.0
 11
1752.15379
 21
955.16288
 31
0.0
  0
ARC
  5
502
330
207
100
AcDbEntity
  8
3_ALL_AXES
  6
Continuous
 62
     7
100
AcDbCircle
 10
1752.15379
 20
954.96288
 30
0.0
 40
0.2
100
AcDbArc
 50
0.0
 51
90.0
  0
LINE
  5
503
330
207
100
AcDbEntity
  8
3_ALL_AXES
  6
Continuous
 62
     7
100
AcDbLine
 10
1752.35379
 20
954.96288
 30
0.0
 11
1752.35379
 21
954.66288
 31
0.0
  0
LINE
  5
504
330
207
100
AcDbEntity
  8
3_ALL_AXES
  6
Continuous
 62
     7
100
AcDbLine
 10
1752.35379
 20
855.16288
 30
0.0
 11
1752.35379
 21
854.86288
 31
0.0
  0
ARC
  5
505
330
207
100
AcDbEntity
  8
3_ALL_AXES
  6
Continuous
 62
     7
100
AcDbCircle
 10
1752.15379
 20
854.86288
 30
0.0
 40
0.2
100
AcDbArc
 50
270.0
 51
360.0
  0
LINE
  5
506
330
207
100
AcDbEntity
  8
3_ALL_AXES
  6
Continuous
 62
     7
100
AcDbLine
 10
1752.15379
 20
854.66288
 30
0.0
 11
1751.35379
 21
854.66288
 31
0.0
  0
ARC
  5
507
330
207
100
AcDbEntity
  8
3_ALL_AXES
  6
Continuous
 62
     7
100
AcDbCircle
 10
1751.35379
 20
854.16288
 30
0.0
 40
0.5
100
AcDbArc
 50
90.0
 51
180.0
  0
LINE
  5
508
330
207
100
AcDbEntity
  8
3_ALL_AXES
  6
Continuous
 62
     7
100
AcDbLine
 10
1750.85379
 20
854.16288
 30
0.0
 11
1750.85379
 21
851.66288
 31
0.0
  0
ARC
  5
509
330
207
100
AcDbEntity
  8
3_ALL_AXES
  6
Continuous
 62
     7
100
AcDbCircle
 10
1751.35379
 20
851.66288
 30
0.0
 40
0.5
100
AcDbArc
 50
180.0
 51
270.0
  0
LINE
  5
50A
330
207
100
AcDbEntity
  8
3_ALL_AXES
  6
Continuous
 62
     7
100
AcDbLine
 10
1751.35379
 20
851.16288
 30
0.0
 11
1752.15379
 21
851.16288
 31
0.0
  0
ARC
  5
50B
330
207
100
AcDbEntity
  8
3_ALL_AXES
  6
Continuous
 62
     7
100
AcDbCircle
 10
1752.15379
 20
851.36288
 30
0.0
 40
0.2
100
AcDbArc
 50
270.0
 51
360.0
  0
LINE
  5
50C
330
207
100
AcDbEntity
  8
3_ALL_AXES
  6
Continuous
 62
     7
100
AcDbLine
 10
1752.35379
 20
851.36288
 30
0.0
 11
1752.35379
 21
852.46288
 31
0.0
  0
ARC
  5
50D
330
207
100
AcDbEntity
  8
3_ALL_AXES
  6
Continuous
 62
     7
100
AcDbCircle
 10
1752.55379
 20
852.46288
 30
0.0
 40
0.2
100
AcDbArc
 50
90.0
 51
180.0
  0
LINE
  5
50E
330
207
100
AcDbEntity
  8
3_ALL_AXES
  6
Continuous
 62
     7
100
AcDbLine
 10
1752.55379
 20
852.66288
 30
0.0
 11
1755.35379
 21
852.66288
 31
0.0
  0
LINE
  5
50F
330
207
100
AcDbEntity
  8
3_ALL_AXES
  6
Continuous
 62
     7
100
AcDbLine
 10
1755.35379
 20
845.16288
 30
0.0
 11
1752.55379
 21
845.16288
 31
0.0
  0
ARC
  5
510
330
207
100
AcDbEntity
  8
3_ALL_AXES
  6
Continuous
 62
     7
100
AcDbCircle
 10
1752.55379
 20
845.36288
 30
0.0
 40
0.2
100
AcDbArc
 50
180.0
 51
270.0
  0
LINE
  5
511
330
207
100
AcDbEntity
  8
3_ALL_AXES
  6
Continuous
 62
     7
100
AcDbLine
 10
1752.35379
 20
845.36288
 30
0.0
 11
1752.35379
 21
846.46288
 31
0.0
  0
ARC
  5
512
330
207
100
AcDbEntity
  8
3_ALL_AXES
  6
Continuous
 62
     7
100
AcDbCircle
 10
1752.15379
 20
846.46288
 30
0.0
 40
0.2
100
AcDbArc
 50
0.0
 51
90.0
  0
LINE
  5
513
330
207
100
AcDbEntity
  8
3_ALL_AXES
  6
Continuous
 62
     7
100
AcDbLine
 10
1752.15379
 20
846.66288
 30
0.0
 11
1751.35379
 21
846.66288
 31
0.0
  0
ARC
  5
514
330
207
100
AcDbEntity
  8
3_ALL_AXES
  6
Continuous
 62
     7
100
AcDbCircle
 10
1751.35379
 20
846.16288
 30
0.0
 40
0.5
100
AcDbArc
 50
90.0
 51
180.0
  0
LINE
  5
515
330
207
100
AcDbEntity
  8
3_ALL_AXES
  6
Continuous
 62
     7
100
AcDbLine
 10
1750.85379
 20
846.16288
 30
0.0
 11
1750.85379
 21
843.66288
 31
0.0
  0
ARC
  5
516
330
207
100
AcDbEntity
  8
3_ALL_AXES
  6
Continuous
 62
     7
100
AcDbCircle
 10
1751.35379
 20
843.66288
 30
0.0
 40
0.5
100
AcDbArc
 50
180.0
 51
270.0
  0
LINE
  5
517
330
207
100
AcDbEntity
  8
3_ALL_AXES
  6
Continuous
 62
     7
100
AcDbLine
 10
1751.35379
 20
843.16288
 30
0.0
 11
1752.15379
 21
843.16288
 31
0.0
  0
ARC
  5
518
330
207
100
AcDbEntity
  8
3_ALL_AXES
  6
Continuous
 62
     7
100
AcDbCircle
 10
1752.15379
 20
842.96288
 30
0.0
 40
0.2
100
AcDbArc
 50
0.0
 51
90.0
  0
LINE
  5
519
330
207
100
AcDbEntity
  8
3_ALL_AXES
  6
Continuous
 62
     7
100
AcDbLine
 10
1752.35379
 20
842.96288
 30
0.0
 11
1752.35379
 21
842.66288
 31
0.0
  0
LINE
  5
51A
330
207
100
AcDbEntity
  8
3_ALL_AXES
  6
Continuous
 62
     7
100
AcDbLine
 10
1752.35379
 20
830.66288
 30
0.0
 11
1752.35379
 21
829.66288
 31
0.0
  0
ARC
  5
51B
330
207
100
AcDbEntity
  8
3_ALL_AXES
  6
Continuous
 62
     7
100
AcDbCircle
 10
1753.35379
 20
829.66288
 30
0.0
 40
1.0
100
AcDbArc
 50
180.0
 51
270.0
  0
LINE
  5
51C
330
207
100
AcDbEntity
  8
3_ALL_AXES
  6
Continuous
 62
     7
100
AcDbLine
 10
1753.35379
 20
828.66288
 30
0.0
 11
1754.35379
 21
828.66288
 31
0.0
  0
LINE
  5
51D
330
207
100
AcDbEntity
  8
3_ALL_AXES
  6
Continuous
 62
     7
100
AcDbLine
 10
1810.35379
 20
828.66288
 30
0.0
 11
1811.35379
 21
828.66288
 31
0.0
  0
ARC
  5
51E
330
207
100
AcDbEntity
  8
3_ALL_AXES
  6
Continuous
 62
     7
100
AcDbCircle
 10
1811.35379
 20
829.66288
 30
0.0
 40
1.0
100
AcDbArc
 50
270.0
 51
360.0
  0
LINE
  5
51F
330
207
100
AcDbEntity
  8
3_ALL_AXES
  6
Continuous
 62
     7
100
AcDbLine
 10
1812.35379
 20
829.66288
 30
0.0
 11
1812.35379
 21
830.66288
 31
0.0
  0
LINE
  5
520
330
207
100
AcDbEntity
  8
3_ALL_AXES
  6
Continuous
 62
     7
100
AcDbLine
 10
1812.35379
 20
842.66288
 30
0.0
 11
1812.35379
 21
842.96288
 31
0.0
  0
ARC
  5
521
330
207
100
AcDbEntity
  8
3_ALL_AXES
  6
Continuous
 62
     7
100
AcDbCircle
 10
1812.55379
 20
842.96288
 30
0.0
 40
0.2
100
AcDbArc
 50
90.0
 51
180.0
  0
LINE
  5
522
330
207
100
AcDbEntity
  8
3_ALL_AXES
  6
Continuous
 62
     7
100
AcDbLine
 10
1812.55379
 20
843.16288
 30
0.0
 11
1813.35379
 21
843.16288
 31
0.0
  0
ARC
  5
523
330
207
100
AcDbEntity
  8
3_ALL_AXES
  6
Continuous
 62
     7
100
AcDbCircle
 10
1813.35379
 20
843.66288
 30
0.0
 40
0.5
100
AcDbArc
 50
270.0
 51
360.0
  0
LINE
  5
524
330
207
100
AcDbEntity
  8
3_ALL_AXES
  6
Continuous
 62
     7
100
AcDbLine
 10
1813.85379
 20
843.66288
 30
0.0
 11
1813.85379
 21
846.16288
 31
0.0
  0
ARC
  5
525
330
207
100
AcDbEntity
  8
3_ALL_AXES
  6
Continuous
 62
     7
100
AcDbCircle
 10
1813.35379
 20
846.16288
 30
0.0
 40
0.5
100
AcDbArc
 50
0.0
 51
90.0
  0
LINE
  5
526
330
207
100
AcDbEntity
  8
3_ALL_AXES
  6
Continuous
 62
     7
100
AcDbLine
 10
1813.35379
 20
846.66288
 30
0.0
 11
1812.55379
 21
846.66288
 31
0.0
  0
ARC
  5
527
330
207
100
AcDbEntity
  8
3_ALL_AXES
  6
Continuous
 62
     7
100
AcDbCircle
 10
1812.55379
 20
846.46288
 30
0.0
 40
0.2
100
AcDbArc
 50
90.0
 51
180.0
  0
LINE
  5
528
330
207
100
AcDbEntity
  8
3_ALL_AXES
  6
Continuous
 62
     7
100
AcDbLine
 10
1812.35379
 20
846.46288
 30
0.0
 11
1812.35379
 21
845.36288
 31
0.0
  0
ARC
  5
529
330
207
100
AcDbEntity
  8
3_ALL_AXES
  6
Continuous
 62
     7
100
AcDbCircle
 10
1812.15379
 20
845.36288
 30
0.0
 40
0.2
100
AcDbArc
 50
270.0
 51
360.0
  0
LINE
  5
52A
330
207
100
AcDbEntity
  8
3_ALL_AXES
  6
Continuous
 62
     7
100
AcDbLine
 10
1812.15379
 20
845.16288
 30
0.0
 11
1809.35379
 21
845.16288
 31
0.0
  0
LINE
  5
52B
330
207
100
AcDbEntity
  8
3_ALL_AXES
  6
Continuous
 62
     7
100
AcDbLine
 10
1809.35379
 20
852.66288
 30
0.0
 11
1812.15379
 21
852.66288
 31
0.0
  0
ARC
  5
52C
330
207
100
AcDbEntity
  8
3_ALL_AXES
  6
Continuous
 62
     7
100
AcDbCircle
 10
1812.15379
 20
852.46288
 30
0.0
 40
0.2
100
AcDbArc
 50
0.0
 51
90.0
  0
LINE
  5
52D
330
207
100
AcDbEntity
  8
3_ALL_AXES
  6
Continuous
 62
     7
100
AcDbLine
 10
1812.35379
 20
852.46288
 30
0.0
 11
1812.35379
 21
851.36288
 31
0.0
  0
ARC
  5
52E
330
207
100
AcDbEntity
  8
3_ALL_AXES
  6
Continuous
 62
     7
100
AcDbCircle
 10
1812.55379
 20
851.36288
 30
0.0
 40
0.2
100
AcDbArc
 50
180.0
 51
270.0
  0
LINE
  5
52F
330
207
100
AcDbEntity
  8
3_ALL_AXES
  6
Continuous
 62
     7
100
AcDbLine
 10
1812.55379
 20
851.16288
 30
0.0
 11
1813.35379
 21
851.16288
 31
0.0
  0
ARC
  5
530
330
207
100
AcDbEntity
  8
3_ALL_AXES
  6
Continuous
 62
     7
100
AcDbCircle
 10
1813.35379
 20
851.66288
 30
0.0
 40
0.5
100
AcDbArc
 50
270.0
 51
360.0
  0
LINE
  5
531
330
207
100
AcDbEntity
  8
3_ALL_AXES
  6
Continuous
 62
     7
100
AcDbLine
 10
1813.85379
 20
851.66288
 30
0.0
 11
1813.85379
 21
854.16288
 31
0.0
  0
ARC
  5
532
330
207
100
AcDbEntity
  8
3_ALL_AXES
  6
Continuous
 62
     7
100
AcDbCircle
 10
1813.35379
 20
854.16288
 30
0.0
 40
0.5
100
AcDbArc
 50
0.0
 51
90.0
  0
LINE
  5
533
330
207
100
AcDbEntity
  8
3_ALL_AXES
  6
Continuous
 62
     7
100
AcDbLine
 10
1813.35379
 20
854.66288
 30
0.0
 11
1812.55379
 21
854.66288
 31
0.0
  0
ARC
  5
534
330
207
100
AcDbEntity
  8
3_ALL_AXES
  6
Continuous
 62
     7
100
AcDbCircle
 10
1812.55379
 20
854.86288
 30
0.0
 40
0.2
100
AcDbArc
 50
180.0
 51
270.0
  0
LINE
  5
535
330
207
100
AcDbEntity
  8
3_ALL_AXES
  6
Continuous
 62
     7
100
AcDbLine
 10
1812.35379
 20
854.86288
 30
0.0
 11
1812.35379
 21
855.16288
 31
0.0
  0
LINE
  5
536
330
207
100
AcDbEntity
  8
3_ALL_AXES
  6
Continuous
 62
     7
100
AcDbLine
 10
1812.35379
 20
954.66288
 30
0.0
 11
1812.35379
 21
954.96288
 31
0.0
  0
ARC
  5
537
330
207
100
AcDbEntity
  8
3_ALL_AXES
  6
Continuous
 62
     7
100
AcDbCircle
 10
1812.55379
 20
954.96288
 30
0.0
 40
0.2
100
AcDbArc
 50
90.0
 51
180.0
  0
LINE
  5
538
330
207
100
AcDbEntity
  8
3_ALL_AXES
  6
Continuous
 62
     7
100
AcDbLine
 10
1812.55379
 20
955.16288
 30
0.0
 11
1813.35379
 21
955.16288
 31
0.0
  0
ARC
  5
539
330
207
100
AcDbEntity
  8
3_ALL_AXES
  6
Continuous
 62
     7
100
AcDbCircle
 10
1813.35379
 20
955.66288
 30
0.0
 40
0.5
100
AcDbArc
 50
270.0
 51
360.0
  0
LINE
  5
53A
330
207
100
AcDbEntity
  8
3_ALL_AXES
  6
Continuous
 62
     7
100
AcDbLine
 10
1813.85379
 20
955.66288
 30
0.0
 11
1813.85379
 21
958.16288
 31
0.0
  0
ARC
  5
53B
330
207
100
AcDbEntity
  8
3_ALL_AXES
  6
Continuous
 62
     7
100
AcDbCircle
 10
1813.35379
 20
958.16288
 30
0.0
 40
0.5
100
AcDbArc
 50
0.0
 51
90.0
  0
LINE
  5
53C
330
207
100
AcDbEntity
  8
3_ALL_AXES
  6
Continuous
 62
     7
100
AcDbLine
 10
1812.15379
 20
978.66288
 30
0.0
 11
1811.85379
 21
978.66288
 31
0.0
  0
ARC
  5
53D
330
207
100
AcDbEntity
  8
3_ALL_AXES
  6
Continuous
 62
     7
100
AcDbCircle
 10
1812.15379
 20
978.46288
 30
0.0
 40
0.2
100
AcDbArc
 50
0.0
 51
90.0
  0
LINE
  5
53E
330
207
100
AcDbEntity
  8
3_ALL_AXES
  6
Continuous
 62
     7
100
AcDbLine
 10
1812.35379
 20
966.86288
 30
0.0
 11
1812.35379
 21
967.16288
 31
0.0
  0
LINE
  5
53F
330
207
100
AcDbEntity
  8
3_ALL_AXES
  6
Continuous
 62
     7
100
AcDbLine
 10
1812.35379
 20
978.16288
 30
0.0
 11
1812.35379
 21
978.46288
 31
0.0
  0
ARC
  5
540
330
207
100
AcDbEntity
  8
3_ALL_AXES
  6
Continuous
 62
     7
100
AcDbCircle
 10
1812.55379
 20
966.86288
 30
0.0
 40
0.2
100
AcDbArc
 50
180.0
 51
270.0
  0
LINE
  5
541
330
207
100
AcDbEntity
  8
3_ALL_AXES
  6
Continuous
 62
     7
100
AcDbLine
 10
1813.129777
 20
966.66288
 30
0.0
 11
1812.55379
 21
966.66288
 31
0.0
  0
ARC
  5
542
330
207
100
AcDbEntity
  8
3_ALL_AXES
  6
Continuous
 62
     7
100
AcDbCircle
 10
1813.129776
 20
965.938866
 30
0.0
 40
0.7240143391
100
AcDbArc
 50
0.0001
 51
89.9999
  0
LINE
  5
543
330
207
100
AcDbEntity
  8
3_ALL_AXES
  6
Continuous
 62
     7
100
AcDbLine
 10
1813.85379
 20
963.66288
 30
0.0
 11
1813.85379
 21
965.938867
 31
0.0
  0
ARC
  5
544
330
207
100
AcDbEntity
  8
3_ALL_AXES
  6
Continuous
 62
     7
100
AcDbCircle
 10
1813.35379
 20
963.66288
 30
0.0
 40
0.5
100
AcDbArc
 50
270.0
 51
360.0
  0
LINE
  5
545
330
207
100
AcDbEntity
  8
3_ALL_AXES
  6
Continuous
 62
     7
100
AcDbLine
 10
1812.55379
 20
963.16288
 30
0.0
 11
1813.35379
 21
963.16288
 31
0.0
  0
ARC
  5
546
330
207
100
AcDbEntity
  8
3_ALL_AXES
  6
Continuous
 62
     7
100
AcDbCircle
 10
1812.55379
 20
963.36288
 30
0.0
 40
0.2
100
AcDbArc
 50
180.0
 51
270.0
  0
LINE
  5
547
330
207
100
AcDbEntity
  8
3_ALL_AXES
  6
Continuous
 62
     7
100
AcDbLine
 10
1812.35379
 20
964.46288
 30
0.0
 11
1812.35379
 21
963.36288
 31
0.0
  0
ARC
  5
548
330
207
100
AcDbEntity
  8
3_ALL_AXES
  6
Continuous
 62
     7
100
AcDbCircle
 10
1812.15379
 20
964.46288
 30
0.0
 40
0.2
100
AcDbArc
 50
0.0
 51
90.0
  0
LINE
  5
549
330
207
100
AcDbEntity
  8
3_ALL_AXES
  6
Continuous
 62
     7
100
AcDbLine
 10
1809.35379
 20
964.66288
 30
0.0
 11
1812.15379
 21
964.66288
 31
0.0
  0
LINE
  5
54A
330
207
100
AcDbEntity
  8
3_ALL_AXES
  6
Continuous
 62
     7
100
AcDbLine
 10
1812.15379
 20
957.16288
 30
0.0
 11
1809.35379
 21
957.16288
 31
0.0
  0
ARC
  5
54B
330
207
100
AcDbEntity
  8
3_ALL_AXES
  6
Continuous
 62
     7
100
AcDbCircle
 10
1812.15379
 20
957.36288
 30
0.0
 40
0.2
100
AcDbArc
 50
270.0
 51
360.0
  0
LINE
  5
54C
330
207
100
AcDbEntity
  8
3_ALL_AXES
  6
Continuous
 62
     7
100
AcDbLine
 10
1812.35379
 20
958.46288
 30
0.0
 11
1812.35379
 21
957.36288
 31
0.0
  0
ARC
  5
54D
330
207
100
AcDbEntity
  8
3_ALL_AXES
  6
Continuous
 62
     7
100
AcDbCircle
 10
1812.55379
 20
958.46288
 30
0.0
 40
0.2
100
AcDbArc
 50
90.0
 51
180.0
  0
LINE
  5
54E
330
207
100
AcDbEntity
  8
3_ALL_AXES
  6
Continuous
 62
     7
100
AcDbLine
 10
1813.35379
 20
958.66288
 30
0.0
 11
1812.55379
 21
958.66288
 31
0.0
  0
SPLINE
  5
54F
330
207
100
AcDbEntity
  8
7_ALL_FEATURES
  6
Continuous
 62
     3
100
AcDbSpline
 70
     0
 71
     3
 72
    11
 73
     7
 74
     0
 42
0.000000001
 43
0.0000001
 40
0.0
 40
0.0
 40
0.0
 40
0.0
 40
0.1940300756
 40
0.5005583448
 40
0.8064607806
 40
1.0
 40
1.0
 40
1.0
 40
1.0
 10
1754.0062490002
 20
850.2181321177
 30
0.0
 10
1753.9253492695
 20
850.0677263743
 30
0.0
 10
1753.8607451986
 20
849.6172741596
 30
0.0
 10
1753.8575639218
 20
848.911982557
 30
0.0
 10
1753.860806709
 20
848.2070748314
 30
0.0
 10
1753.9255375286
 20
847.7577078719
 30
0.0
 10
1754.0062261046
 20
847.6076791307
 30
0.0
  0
SPLINE
  5
550
330
207
100
AcDbEntity
  8
7_ALL_FEATURES
  6
Continuous
 62
     3
100
AcDbSpline
 70
     0
 71
     3
 72
    11
 73
     7
 74
     0
 42
0.000000001
 43
0.0000001
 40
0.0
 40
0.0
 40
0.0
 40
0.0
 40
0.1940300756
 40
0.5005583449
 40
0.8064607806
 40
1.0
 40
1.0
 40
1.0
 40
1.0
 10
1810.7013303917
 20
847.6076280174
 30
0.0
 10
1810.7822301224
 20
847.7580337609
 30
0.0
 10
1810.8468341933
 20
848.2084859756
 30
0.0
 10
1810.8500154701
 20
848.9137775783
 30
0.0
 10
1810.8467726829
 20
849.6186853039
 30
0.0
 10
1810.7820418633
 20
850.0680522634
 30
0.0
 10
1810.7013532872
 20
850.2180810045
 30
0.0
  0
SPLINE
  5
551
330
207
100
AcDbEntity
  8
7_ALL_FEATURES
  6
Continuous
 62
     3
100
AcDbSpline
 70
     0
 71
     3
 72
    11
 73
     7
 74
     0
 42
0.000000001
 43
0.0000001
 40
0.0
 40
0.0
 40
0.0
 40
0.0
 40
0.1940300756
 40
0.5005583448
 40
0.8064607806
 40
1.0
 40
1.0
 40
1.0
 40
1.0
 10
1810.7013303917
 20
959.6076280174
 30
0.0
 10
1810.7822301224
 20
959.7580337609
 30
0.0
 10
1810.8468341933
 20
960.2084859755
 30
0.0
 10
1810.8500154701
 20
960.9137775782
 30
0.0
 10
1810.8467726829
 20
961.6186853037
 30
0.0
 10
1810.7820418633
 20
962.0680522632
 30
0.0
 10
1810.7013532873
 20
962.2180810044
 30
0.0
  0
LINE
  5
552
330
207
100
AcDbEntity
  8
3_ALL_AXES
  6
Continuous
 62
     3
100
AcDbLine
 10
1753.85379
 20
852.51288
 30
0.0
 11
1753.85379
 21
852.41288
 31
0.0
  0
SPLINE
  5
553
330
207
100
AcDbEntity
  8
7_ALL_FEATURES
  6
Continuous
 62
     3
100
AcDbSpline
 70
     0
 71
     3
 72
    11
 73
     7
 74
     0
 42
0.000000001
 43
0.0000001
 40
0.0
 40
0.0
 40
0.0
 40
0.0
 40
0.1940300756
 40
0.5005583448
 40
0.8064607806
 40
1.0
 40
1.0
 40
1.0
 40
1.0
 10
1754.0062490002
 20
962.2181321177
 30
0.0
 10
1753.9253492695
 20
962.0677263743
 30
0.0
 10
1753.8607451986
 20
961.6172741596
 30
0.0
 10
1753.8575639218
 20
960.911982557
 30
0.0
 10
1753.860806709
 20
960.2070748314
 30
0.0
 10
1753.9255375285
 20
959.7577078719
 30
0.0
 10
1754.0062261046
 20
959.6076791307
 30
0.0
  0
LINE
  5
554
330
207
100
AcDbEntity
  8
3_ALL_AXES
  6
Continuous
 62
     3
100
AcDbLine
 10
1810.85379
 20
845.31288
 30
0.0
 11
1810.85379
 21
845.41288
 31
0.0
  0
LINE
  5
555
330
207
100
AcDbEntity
  8
3_ALL_AXES
  6
Continuous
 62
     3
100
AcDbLine
 10
1810.85379
 20
957.31288
 30
0.0
 11
1810.85379
 21
957.41288
 31
0.0
  0
LINE
  5
556
330
207
100
AcDbEntity
  8
3_ALL_AXES
  6
Continuous
 62
     3
100
AcDbLine
 10
1753.85379
 20
964.51288
 30
0.0
 11
1753.85379
 21
964.41288
 31
0.0
  0
DIMENSION
  5
557
330
207
100
AcDbEntity
  8
0
  6
Continuous
 62
     7
100
AcDbDimension
280
     0
  2
*D1
 10
1368.826144
 20
1060.459954
 30
0.0
 11
838.168924
 21
1060.459954
 31
0.0
 70
   160
 71
     2
 42
1063.0
 73
     0
 74
     0
 75
     0
  3
DIMSTYLE_1
100
AcDbAlignedDimension
 13
305.826144
 23
1023.782902
 33
0.0
 14
1368.826144
 24
1023.782902
 34
0.0
100
AcDbRotatedDimension
  0
DIMENSION
  5
558
330
207
100
AcDbEntity
  8
0
  6
Continuous
 62
     7
100
AcDbDimension
280
     0
  2
*D2
 10
1813.85379
 20
1060.459954
 30
0.0
 11
1782.22581
 21
1060.459954
 31
0.0
 70
   160
 71
     2
 42
63.0
 73
     0
 74
     0
 75
     0
  3
DIMSTYLE_2
100
AcDbAlignedDimension
 13
1750.85379
 23
1026.825354
 33
0.0
 14
1813.85379
 24
1023.782902
 34
0.0
100
AcDbRotatedDimension
  0
DIMENSION
  5
559
330
207
100
AcDbEntity
  8
0
  6
Continuous
 62
     7
100
AcDbDimension
280
     0
  2
*D3
 10
1676.935519
 20
828.66288
 30
0.0
 11
1676.935519
 21
904.522167
 31
0.0
 70
   160
 71
     2
 42
150.0
 73
     0
 74
     0
 75
     0
  3
DIMSTYLE_3
100
AcDbAlignedDimension
 13
1723.333069
 23
978.66288
 33
0.0
 14
1722.988024
 24
828.66288
 34
0.0
 50
270.0
100
AcDbRotatedDimension
  0
INSERT
  5
55A
330
207
100
AcDbEntity
  8
0
  6
Continuous
 62
     2
100
AcDbBlockReference
  2
LOGO2_BL0
 10
2372.26626
 20
43.709657
 30
0.0
  0
ACAD_TABLE
  5
55B
102
{ACAD_XDICTIONARY
360
5B2
102
}
330
207
100
AcDbEntity
  8
0
  6
Continuous
 62
     2
160
              3368
310
280D000017000000880000001D000000000000000000F03F00000000000000000000000000000000E4078B63E16CA2400000000000000000000000000000F03F0000000000000000B7C0B008D69A4C4000000000000000000000000000000000000000000000F03F0000000000000000000000000000000000000000000000
310
000000000000000000000000000000F03F54000000200000000200000000000000000000000000000000000000000000000000000000000000008056400000000000000000000000000000000000000000000000000000000000000000000000000000F03F5400000020000000020000000000000000000000000000000000
310
00000000000000000000000000000000000000000000000044C0000000000000000000000000000000000000000000000000000000000000F03F5400000020000000020000000000000000003E4000000000000018C00000000000000000000000000080564000000000000018C00000000000000000000000000000000000
310
00000000000000000000000000F03F5400000020000000020000000000000000003E4000000000000028C00000000000000000000000000080564000000000000028C0000000000000000000000000000000000000000000000000000000000000F03F5400000020000000020000000000000000003E4000000000000036C0
310
0000000000000000000000000080564000000000000036C0000000000000000000000000000000000000000000000000000000000000F03F54000000200000000200000000000000000000000000000000003BC0000000000000000000000000008056400000000000003BC000000000000000000000000000000000000000
310
0000000000000000000000F03F540000002000000002000000000000000000000000000000000044C00000000000000000000000000080564000000000000044C0000000000000000000000000000000000000000000000000000000000000F03F5400000020000000020000000000000000003E4000000000000000000000
310
0000000000000000000000003E400000000000003BC0000000000000000000000000000000000000000000000000000000000000F03F540000002000000002000000000000000080514000000000000000000000000000000000000000000080514000000000000028C0000000000000000000000000000000000000000000
310
000000000000000000F03F540000002000000002000000000000000080564000000000000000000000000000000000000000000080564000000000000044C0000000000000000000000000000000000000000000000000000000000000F03F0C000000100000000B000000D000000026000000CDCCCCCCCC7C3F404E621058
310
393412C0000000000000000000000000000000000000000000000000000000000000F03F000000000000F03F0000000000000000000000000000000041003100310037005F0043005F003400300032000000000014000000010000000000000000000840000000000000F03F0000000000000000000000000000F03F000000
310
0000000000000000000000000000000000000000000000000000000000000000000000000061007200690061006C002E00740074006600000000000000C800000026000000C2F5285C8FC6514075931804560E13C0000000000000000000000000000000000000000000000000000000000000F03F000000000000F03F0000
310
00000000000000000000000000005200650076003A0030003000000000000C000000010000000000000000000C40000000000000F03F0000000000000000000000000000F03F0000000000000000000000000000000000000000000000000000000000000000000000000000000061007200690061006C002E007400740066
310
00000000000000CC00000026000000FA7E6ABC74433F405839B4C8769E26C0000000000000000000000000000000000000000000000000000000000000F03F000000000000F03F000000000000000000000000000000005300630061006C0065003A0031003A003100000012000000010000000000000000000C4000000000
310
0000F03F0000000000000000000000000000F03F0000000000000000000000000000000000000000000000000000000000000000000000000000000061007200690061006C002E00740074006600000000000000D400000026000000CBA145B6F3D951406ABC7493180424C000000000000000000000000000000000000000
310
0000000000000000000000F03F000000000000F03F000000000000000000000000000000003200350030003000200062007900200033003200300030000000000018000000010000000000000000000040000000000000F03F0000000000000000000000000000F03F00000000000000000000000000000000000000000000
310
00000000000000000000000000000000000061007200690061006C002E00740074006600000000000000F800000026000000DD24068195533F4071AC8BDB683032C0000000000000000000000000000000000000000000000000000000000000F03F000000000000F03F000000000000000000000000000000004300410053
310
005300410046002E005400410047004F0020005400520049004D00200031002E00330020004C003D00310030003600330020006D006D00000000003C000000010000006666666666660240000000000000F03F0000000000000000000000000000F03F00000000000000000000000000000000000000000000000000000000
310
00000000000000000000000061007200690061006C002E00740074006600000000000000D40000002600000048E17A14AE373F40C3F5285C8FC239C0000000000000000000000000000000000000000000000000000000000000F03F000000000000F03F0000000000000000000000000000000044004100540045003A0030
310
0033002E00300033002E003200310000001A000000010000000000000000000440000000000000F03F0000000000000000000000000000F03F0000000000000000000000000000000000000000000000000000000000000000000000000000000061007200690061006C002E00740074006600000000000000240100002600
310
0000CDCCCCCCCCCCF73F0000000000903DC0000000000000000000000000000000000000000000000000000000000000F03F000000000000F03F0000000000000000000000000000000041006E007900200069006E00740065006700720061006C0020006F00720020007000610072007400690061006C0020007200650070
310
0072006F00640075006300740069006F006E00730020006100720065002000700072006F0068006900620069007400650064000000000068000000010000000000000000000240000000000000F03F0000000000000000000000000000F03F0000000000000000000000000000000000000000000000000000000000000000
310
000000000000000061007200690061006C002E007400740066000000000000002C01000026000000FED478E926B1F73F37894160E57C40C0000000000000000000000000000000000000000000000000000000000000F03F000000000000F03F0000000000000000000000000000000077006900740068006F007500740020
310
007000720069006F007200200061007500740068006F007200690073006100740069006F006E0020006F00660020004C002000260020004C0020004C007500630065002000260020004C006900670068007400200073002E0072002E006C002E002C00000072000000010000000000000000000240000000000000F03F0000
310
000000000000000000000000F03F0000000000000000000000000000000000000000000000000000000000000000000000000000000061007200690061006C002E007400740066000000000000000401000026000000C1CAA145B673F43F4F1E166A4D3142C000000000000000000000000000000000000000000000000000
310
0000000000F03F000000000000F03F0000000000000000000000000000000069006E0020006100630063006F007200640061006E006300650020007700690074006800200074006800650020006C0061007700200069006E00200066006F007200630065002E00000000004800000001000000000000000000024000000000
310
0000F03F0000000000000000000000000000F03F0000000000000000000000000000000000000000000000000000000000000000000000000000000061007200690061006C002E00740074006600000000000000E400000026000000CDCCCCCCCCCCF73F302AA913D0E043C000000000000000000000000000000000000000
310
0000000000000000000000F03F000000000000F03F0000000000000000000000000000000041006C006C0020007200690067006800740073002000720065007300650072007600650064002E000000000028000000010000000000000000000240000000000000F03F0000000000000000000000000000F03F000000000000
310
0000000000000000000000000000000000000000000000000000000000000000000061007200690061006C002E00740074006600000000000000080000001F000000
100
AcDbBlockReference
  2
*T5
 10
2358.440213
 20
57.209657
 30
0.0
100
AcDbTable
342
584
343
20E
 11
1.0
 21
0.0
 31
0.0
 90
       22
 91
        5
 92
        5
 93
        0
 94
        0
 95
        0
 96
        0
141
6.0
141
6.0
141
10.0
141
5.0
141
13.0
142
10.0
142
10.0
142
10.0
142
40.0
142
20.0
171
     1
172
     0
173
     0
174
     0
175
     3
176
     4
 91
       32
178
     0
145
0.0
140
3.5
 92
        0
301
CELL_VALUE
 93
        2
 90
        4
  1
 
 94
        0
300

302
 
304
ACVALUE_END
171
     1
172
     0
173
     1
174
     0
175
     1
176
     1
 91
        0
178
     0
145
0.0
 92
        0
301
CELL_VALUE
 93
        3
 90
        0
 91
        0
 94
        0
300

302

304
ACVALUE_END
171
     1
172
     0
173
     1
174
     0
175
     1
176
     1
 91
        0
178
     0
145
0.0
 92
        0
301
CELL_VALUE
 93
        3
 90
        0
 91
        0
 94
        0
300

302

304
ACVALUE_END
171
     1
172
     0
173
     0
174
     0
175
     1
176
     1
 91
       33
178
     0
145
0.0
170
     4
140
3.0
 92
        0
301
CELL_VALUE
 93
        2
 90
        4
  1
A117_C_402
 94
        0
300

302
A117_C_402
304
ACVALUE_END
171
     1
172
     0
173
     0
174
     0
175
     1
176
     1
 91
       33
178
     0
145
0.0
170
     4
140
3.5
 92
        0
301
CELL_VALUE
 93
        2
 90
        4
  1
Rev:00
 94
        0
300

302
Rev:00
304
ACVALUE_END
171
     1
172
     0
173
     1
174
     0
175
     1
176
     1
 91
        0
178
     0
145
0.0
 92
        0
301
CELL_VALUE
 93
        3
 90
        0
 91
        0
 94
        0
300

302

304
ACVALUE_END
171
     1
172
     0
173
     1
174
     0
175
     1
176
     1
 91
        0
178
     0
145
0.0
 92
        0
301
CELL_VALUE
 93
        3
 90
        0
 91
        0
 94
        0
300

302

304
ACVALUE_END
171
     1
172
     0
173
     1
174
     0
175
     1
176
     1
 91
        0
178
     0
145
0.0
 92
        0
301
CELL_VALUE
 93
        3
 90
        0
 91
        0
 94
        0
300

302

304
ACVALUE_END
171
     1
172
     0
173
     0
174
     0
175
     1
176
     1
 91
       33
178
     0
145
0.0
170
     1
140
3.5
 92
        0
301
CELL_VALUE
 93
        2
 90
        4
  1
Scale:1:1
 94
        0
300

302
Scale:1:1
304
ACVALUE_END
171
     1
172
     0
173
     0
174
     0
175
     1
176
     1
 91
       33
178
     0
145
0.0
170
     4
140
2.0
 92
        0
301
CELL_VALUE
 93
        2
 90
        4
  1
2500 by 3200
 94
        0
300

302
2500 by 3200
304
ACVALUE_END
171
     1
172
     0
173
     1
174
     0
175
     1
176
     1
 91
        0
178
     0
145
0.0
 92
        0
301
CELL_VALUE
 93
        3
 90
        0
 91
        0
 94
        0
300

302

304
ACVALUE_END
171
     1
172
     0
173
     1
174
     0
175
     1
176
     1
 91
        0
178
     0
145
0.0
 92
        0
301
CELL_VALUE
 93
        3
 90
        0
 91
        0
 94
        0
300

302

304
ACVALUE_END
171
     1
172
     0
173
     1
174
     0
175
     1
176
     1
 91
        0
178
     0
145
0.0
 92
        0
301
CELL_VALUE
 93
        3
 90
        0
 91
        0
 94
        0
300

302

304
ACVALUE_END
171
     1
172
     0
173
     0
174
     0
175
     2
176
     1
 91
       33
178
     0
145
0.0
170
     4
140
2.3
 92
        0
301
CELL_VALUE
 93
        2
 90
        4
  1
CASSAF.TAGO TRIM 1.3 L=1063 mm
 94
        0
300

302
CASSAF.TAGO TRIM 1.3 L=1063 mm
304
ACVALUE_END
171
     1
172
     0
173
     1
174
     0
175
     1
176
     1
 91
        0
178
     0
145
0.0
 92
        0
301
CELL_VALUE
 93
        3
 90
        0
 91
        0
 94
        0
300

302

304
ACVALUE_END
171
     1
172
     0
173
     1
174
     0
175
     1
176
     1
 91
        0
178
     0
145
0.0
 92
        0
301
CELL_VALUE
 93
        3
 90
        0
 91
        0
 94
        0
300

302

304
ACVALUE_END
171
     1
172
     0
173
     1
174
     0
175
     1
176
     1
 91
        0
178
     0
145
0.0
 92
        0
301
CELL_VALUE
 93
        3
 90
        0
 91
        0
 94
        0
300

302

304
ACVALUE_END
171
     1
172
     0
173
     1
174
     0
175
     1
176
     1
 91
        0
178
     0
145
0.0
 92
        0
301
CELL_VALUE
 93
        3
 90
        0
 91
        0
 94
        0
300

302

304
ACVALUE_END
171
     1
172
     0
173
     0
174
     0
175
     2
176
     1
 91
       33
178
     0
145
0.0
170
     4
140
2.5
 92
        0
301
CELL_VALUE
 93
        2
 90
        4
  1
DATE:03.03.21
 94
        0
300

302
DATE:03.03.21
304
ACVALUE_END
171
     1
172
     0
173
     1
174
     0
175
     1
176
     1
 91
        0
178
     0
145
0.0
 92
        0
301
CELL_VALUE
 93
        3
 90
        0
 91
        0
 94
        0
300

302

304
ACVALUE_END
171
     1
172
     0
173
     0
174
     0
175
     5
176
     1
 91
       33
178
     0
145
0.0
170
     4
140
2.25
 92
        0
301
CELL_VALUE
 93
        2
 90
        4
  1
Any integral or partial reproductions are prohibited \Pwithout prior authorisation of L & L Luce & Light s.r.l., \Pin accordance with the law in force. \PAll rights reserved.
 94
        0
300

302
Any integral or partial reproductions are prohibited \Pwithout prior authorisation of L & L Luce & Light s.r.l., \Pin accordance with the law in force. \PAll rights reserved.
304
ACVALUE_END
171
     1
172
     0
173
     1
174
     0
175
     1
176
     1
 91
        0
178
     0
145
0.0
 92
        0
301
CELL_VALUE
 93
        3
 90
        0
 91
        0
 94
        0
300

302

304
ACVALUE_END
171
     1
172
     0
173
     1
174
     0
175
     1
176
     1
 91
        0
178
     0
145
0.0
 92
        0
301
CELL_VALUE
 93
        3
 90
        0
 91
        0
 94
        0
300

302

304
ACVALUE_END
171
     1
172
     0
173
     1
174
     0
175
     1
176
     1
 91
        0
178
     0
145
0.0
 92
        0
301
CELL_VALUE
 93
        3
 90
        0
 91
        0
 94
        0
300

302

304
ACVALUE_END
171
     1
172
     0
173
     1
174
     0
175
     1
176
     1
 91
        0
178
     0
145
0.0
 92
        0
301
CELL_VALUE
 93
        3
 90
        0
 91
        0
 94
        0
300

302

304
ACVALUE_END
  0
ENDSEC
  0
SECTION
  2
OBJECTS
  0
DICTIONARY
  5
C
330
0
100
AcDbDictionary
281
     1
  3
ACAD_DETAILVIEWSTYLE
350
5EB
  3
ACAD_GROUP
350
D
  3
ACAD_IMAGE_DICT
350
5AB
  3
ACAD_LAYOUT
350
1A
  3
ACAD_MATERIAL
350
59F
  3
ACAD_MLEADERSTYLE
350
5EA
  3
ACAD_MLINESTYLE
350
17
  3
ACAD_PLOTSETTINGS
350
19
  3
ACAD_PLOTSTYLENAME
350
E
  3
ACAD_SCALELIST
350
561
  3
ACAD_SECTIONVIEWSTYLE
350
5EC
  3
ACAD_TABLESTYLE
350
583
  3
ACAD_VISUALSTYLE
350
586
  3
ACDB_RECOMPOSE_DATA
350
5E8
  3
AcDbVariableDictionary
350
5B4
  3
HOST_DOC_SETTINGS
350
5A9
  3
MCS_STREAM_DICT
350
5A5
  0
SUN
  5
5A8
330
1F4
100
AcDbSun
 90
        1
290
     0
 63
     7
421
 16777215
 40
1.0
291
     1
 91
  2455826
 92
 54000000
292
     0
 70
     2
 71
   256
280
     1
  0
DICTIONARY
  5
5B2
330
55B
100
AcDbDictionary
280
     1
281
     1
  3
ACAD_XREC_ROUNDTRIP
360
5B3
  0
DICTIONARY
  5
5EB
102
{ACAD_REACTORS
330
C
102
}
330
C
100
AcDbDictionary
281
     1
  0
DICTIONARY
  5
D
102
{ACAD_REACTORS
330
C
102
}
330
C
100
AcDbDictionary
281
     1
  0
DICTIONARY
  5
5AB
102
{ACAD_REACTORS
330
C
102
}
330
C
100
AcDbDictionary
281
     1
  0
DICTIONARY
  5
1A
102
{ACAD_REACTORS
330
C
102
}
330
C
100
AcDbDictionary
281
     1
  3
Layout1
350
55E
  3
Model
350
55D
  0
DICTIONARY
  5
59F
102
{ACAD_REACTORS
330
C
102
}
330
C
100
AcDbDictionary
281
     1
  3
ByBlock
350
5A1
  3
ByLayer
350
5A0
  3
Global
350
5A2
  0
DICTIONARY
  5
5EA
102
{ACAD_REACTORS
330
C
102
}
330
C
100
AcDbDictionary
281
     1
  0
DICTIONARY
  5
17
102
{ACAD_REACTORS
330
C
102
}
330
C
100
AcDbDictionary
281
     1
  3
Standard
350
18
  0
DICTIONARY
  5
19
102
{ACAD_REACTORS
330
C
102
}
330
C
100
AcDbDictionary
281
     1
  0
ACDBDICTIONARYWDFLT
  5
E
102
{ACAD_REACTORS
330
C
102
}
330
C
100
AcDbDictionary
281
     1
  3
Normal
350
F
100
AcDbDictionaryWithDefault
340
F
  0
DICTIONARY
  5
561
102
{ACAD_REACTORS
330
C
102
}
330
C
100
AcDbDictionary
281
     1
  3
A0
350
562
  3
A1
350
563
  3
A2
350
564
  3
A3
350
565
  3
A4
350
566
  3
A5
350
567
  3
A6
350
568
  3
A7
350
569
  3
A8
350
56A
  3
A9
350
56B
  3
B0
350
56C
  3
B1
350
56D
  3
B2
350
56E
  3
B3
350
56F
  3
B4
350
570
  3
B5
350
571
  3
B6
350
572
  3
B7
350
573
  3
B8
350
574
  3
B9
350
575
  3
C0
350
576
  3
C1
350
577
  3
C2
350
578
  3
C3
350
579
  3
C4
350
57A
  3
C5
350
57B
  3
C6
350
57C
  3
C7
350
57D
  3
C8
350
57E
  3
C9
350
57F
  3
D0
350
580
  3
D1
350
581
  3
D2
350
582
  0
DICTIONARY
  5
5EC
102
{ACAD_REACTORS
330
C
102
}
330
C
100
AcDbDictionary
281
     1
  0
DICTIONARY
  5
583
102
{ACAD_REACTORS
330
C
102
}
330
C
100
AcDbDictionary
281
     1
  3
Standard
350
584
  0
DICTIONARY
  5
586
102
{ACAD_REACTORS
330
C
102
}
330
C
100
AcDbDictionary
281
     1
  3
2dWireframe
350
58B
  3
Basic
350
58E
  3
Brighten
350
592
  3
ColorChange
350
596
  3
Conceptual
350
590
  3
Dim
350
591
  3
EdgeColorOff
350
599
  3
Facepattern
350
595
  3
Flat
350
587
  3
FlatWithEdges
350
588
  3
Gouraud
350
589
  3
GouraudWithEdges
350
58A
  3
Hidden
350
58D
  3
JitterOff
350
597
  3
Linepattern
350
594
  3
OverhangOff
350
598
  3
Realistic
350
58F
  3
Shaded
350
59E
  3
Shaded with edges
350
59D
  3
Shades of Gray
350
59A
  3
Sketchy
350
59B
  3
Thicken
350
593
  3
Wireframe
350
58C
  3
X-Ray
350
59C
  0
XRECORD
  5
5E8
102
{ACAD_REACTORS
330
C
102
}
330
C
100
AcDbXrecord
280
     1
 90
        1
330
55B
330
584
  0
DICTIONARY
  5
5B4
102
{ACAD_REACTORS
330
C
102
}
330
C
100
AcDbDictionary
281
     1
  3
CANNOSCALE
350
5B5
  3
CTABLESTYLE
350
5E9
  0
DICTIONARY
  5
5A9
102
{ACAD_REACTORS
330
C
102
}
330
C
100
AcDbDictionary
281
     1
  3
NCDocParameters
350
5AA
  0
DICTIONARY
  5
5A5
102
{ACAD_REACTORS
330
C
102
}
330
C
100
AcDbDictionary
281
     1
  3
MC_VERSION_DATA
350
5AE
  3
MCS_DOCUMENT_ID
350
5A6
  3
MCS_PARAMS_DATA
350
5AC
  0
XRECORD
  5
5B3
102
{ACAD_REACTORS
330
5B2
102
}
330
5B2
100
AcDbXrecord
280
     1
102
ACAD_ROUNDTRIP_2008_TABLE_ENTITY
360
5B0
 70
     2
 90
        1
 10
0.0
 20
0.0
 30
0.0
 90
        0
 90
        4
361
5B1
  0
LAYOUT
  5
55E
102
{ACAD_REACTORS
330
1A
102
}
330
1A
100
AcDbPlotSettings
  1

  2
none_device
  4

  6

 40
0.0
 41
0.0
 42
0.0
 43
0.0
 44
2500.0
 45
3200.0
 46
0.0
 47
0.0
 48
0.0
 49
0.0
140
0.0
141
0.0
142
1.0
143
1.0
 70
     0
 72
     1
 73
     0
 74
     0
  7

 75
     0
 76
     0
 77
     2
 78
   300
147
1.0
148
0.0
149
0.0
100
AcDbLayout
  1
Layout1
 70
     0
 71
     1
 10
0.0
 20
0.0
 11
2500.0
 21
3200.0
 12
0.0
 22
0.0
 32
0.0
 14
0.0
 24
0.0
 34
0.0
 15
0.0
 25
0.0
 35
0.0
146
0.0
 13
0.0
 23
0.0
 33
0.0
 16
1.0
 26
0.0
 36
0.0
 17
0.0
 27
1.0
 37
0.0
 76
     0
330
208
  0
LAYOUT
  5
55D
102
{ACAD_REACTORS
330
1A
102
}
330
1A
100
AcDbPlotSettings
  1

  2
none_device
  4

  6

 40
0.0
 41
0.0
 42
0.0
 43
0.0
 44
2500.0
 45
3200.0
 46
0.0
 47
0.0
 48
0.0
 49
0.0
140
0.0
141
0.0
142
1.0
143
1.0
 70
  1024
 72
     1
 73
     0
 74
     0
  7

 75
     0
 76
     0
 77
     2
 78
   300
147
1.0
148
0.0
149
0.0
100
AcDbLayout
  1
Model
 70
     0
 71
     0
 10
0.0
 20
0.0
 11
2500.0
 21
3200.0
 12
0.0
 22
0.0
 32
0.0
 14
0.0
 24
0.0
 34
0.0
 15
0.0
 25
0.0
 35
0.0
146
0.0
 13
0.0
 23
0.0
 33
0.0
 16
1.0
 26
0.0
 36
0.0
 17
0.0
 27
1.0
 37
0.0
 76
     0
330
207
331
1F4
  0
MATERIAL
  5
5A1
102
{ACAD_REACTORS
330
59F
102
}
330
59F
100
AcDbMaterial
  1
ByBlock
 72
     1
 94
      127
  0
MATERIAL
  5
5A0
102
{ACAD_REACTORS
330
59F
102
}
330
59F
100
AcDbMaterial
  1
ByLayer
 72
     1
 94
      127
  0
MATERIAL
  5
5A2
102
{ACAD_REACTORS
330
59F
102
}
330
59F
100
AcDbMaterial
  1
Global
 72
     1
 94
      127
  0
MLINESTYLE
  5
18
102
{ACAD_REACTORS
330
17
102
}
330
17
100
AcDbMlineStyle
  2
STANDARD
 70
     0
  3

 62
   256
 51
90.0
 52
90.0
 71
     2
 49
0.5
 62
   256
  6
BYLAYER
 49
-0.5
 62
   256
  6
BYLAYER
  0
ACDBPLACEHOLDER
  5
F
102
{ACAD_REACTORS
330
E
102
}
330
E
  0
SCALE
  5
562
102
{ACAD_REACTORS
330
561
102
}
330
561
100
AcDbScale
 70
     0
300
1:1
140
1.0
141
1.0
290
     1
  0
SCALE
  5
563
102
{ACAD_REACTORS
330
561
102
}
330
561
100
AcDbScale
 70
     0
300
1:2
140
1.0
141
2.0
290
     0
  0
SCALE
  5
564
102
{ACAD_REACTORS
330
561
102
}
330
561
100
AcDbScale
 70
     0
300
1:4
140
1.0
141
4.0
290
     0
  0
SCALE
  5
565
102
{ACAD_REACTORS
330
561
102
}
330
561
100
AcDbScale
 70
     0
300
1:5
140
1.0
141
5.0
290
     0
  0
SCALE
  5
566
102
{ACAD_REACTORS
330
561
102
}
330
561
100
AcDbScale
 70
     0
300
1:8
140
1.0
141
8.0
290
     0
  0
SCALE
  5
567
102
{ACAD_REACTORS
330
561
102
}
330
561
100
AcDbScale
 70
     0
300
1:10
140
1.0
141
10.0
290
     0
  0
SCALE
  5
568
102
{ACAD_REACTORS
330
561
102
}
330
561
100
AcDbScale
 70
     0
300
1:16
140
1.0
141
16.0
290
     0
  0
SCALE
  5
569
102
{ACAD_REACTORS
330
561
102
}
330
561
100
AcDbScale
 70
     0
300
1:20
140
1.0
141
20.0
290
     0
  0
SCALE
  5
56A
102
{ACAD_REACTORS
330
561
102
}
330
561
100
AcDbScale
 70
     0
300
1:30
140
1.0
141
30.0
290
     0
  0
SCALE
  5
56B
102
{ACAD_REACTORS
330
561
102
}
330
561
100
AcDbScale
 70
     0
300
1:40
140
1.0
141
40.0
290
     0
  0
SCALE
  5
56C
102
{ACAD_REACTORS
330
561
102
}
330
561
100
AcDbScale
 70
     0
300
1:50
140
1.0
141
50.0
290
     0
  0
SCALE
  5
56D
102
{ACAD_REACTORS
330
561
102
}
330
561
100
AcDbScale
 70
     0
300
1:100
140
1.0
141
100.0
290
     0
  0
SCALE
  5
56E
102
{ACAD_REACTORS
330
561
102
}
330
561
100
AcDbScale
 70
     0
300
2:1
140
2.0
141
1.0
290
     0
  0
SCALE
  5
56F
102
{ACAD_REACTORS
330
561
102
}
330
561
100
AcDbScale
 70
     0
300
4:1
140
4.0
141
1.0
290
     0
  0
SCALE
  5
570
102
{ACAD_REACTORS
330
561
102
}
330
561
100
AcDbScale
 70
     0
300
8:1
140
8.0
141
1.0
290
     0
  0
SCALE
  5
571
102
{ACAD_REACTORS
330
561
102
}
330
561
100
AcDbScale
 70
     0
300
10:1
140
10.0
141
1.0
290
     0
  0
SCALE
  5
572
102
{ACAD_REACTORS
330
561
102
}
330
561
100
AcDbScale
 70
     0
300
100:1
140
100.0
141
1.0
290
     0
  0
SCALE
  5
573
102
{ACAD_REACTORS
330
561
102
}
330
561
100
AcDbScale
 70
     0
300
1/128" = 1'-0"
140
0.007812
141
12.0
290
     0
  0
SCALE
  5
574
102
{ACAD_REACTORS
330
561
102
}
330
561
100
AcDbScale
 70
     0
300
1/64" = 1'-0"
140
0.015625
141
12.0
290
     0
  0
SCALE
  5
575
102
{ACAD_REACTORS
330
561
102
}
330
561
100
AcDbScale
 70
     0
300
1/32" = 1'-0"
140
0.03125
141
12.0
290
     0
  0
SCALE
  5
576
102
{ACAD_REACTORS
330
561
102
}
330
561
100
AcDbScale
 70
     0
300
1/16" = 1'-0"
140
0.0625
141
12.0
290
     0
  0
SCALE
  5
577
102
{ACAD_REACTORS
330
561
102
}
330
561
100
AcDbScale
 70
     0
300
3/32" = 1'-0"
140
0.09375
141
12.0
290
     0
  0
SCALE
  5
578
102
{ACAD_REACTORS
330
561
102
}
330
561
100
AcDbScale
 70
     0
300
1/8" = 1'-0"
140
0.125
141
12.0
290
     0
  0
SCALE
  5
579
102
{ACAD_REACTORS
330
561
102
}
330
561
100
AcDbScale
 70
     0
300
3/16" = 1'-0"
140
0.1875
141
12.0
290
     0
  0
SCALE
  5
57A
102
{ACAD_REACTORS
330
561
102
}
330
561
100
AcDbScale
 70
     0
300
1/4" = 1'-0"
140
0.25
141
12.0
290
     0
  0
SCALE
  5
57B
102
{ACAD_REACTORS
330
561
102
}
330
561
100
AcDbScale
 70
     0
300
3/8" = 1'-0"
140
0.375
141
12.0
290
     0
  0
SCALE
  5
57C
102
{ACAD_REACTORS
330
561
102
}
330
561
100
AcDbScale
 70
     0
300
1/2" = 1'-0"
140
0.5
141
12.0
290
     0
  0
SCALE
  5
57D
102
{ACAD_REACTORS
330
561
102
}
330
561
100
AcDbScale
 70
     0
300
3/4" = 1'-0"
140
0.75
141
12.0
290
     0
  0
SCALE
  5
57E
102
{ACAD_REACTORS
330
561
102
}
330
561
100
AcDbScale
 70
     0
300
1" = 1'-0"
140
1.0
141
12.0
290
     0
  0
SCALE
  5
57F
102
{ACAD_REACTORS
330
561
102
}
330
561
100
AcDbScale
 70
     0
300
1-1/2" = 1'-0"
140
1.5
141
12.0
290
     0
  0
SCALE
  5
580
102
{ACAD_REACTORS
330
561
102
}
330
561
100
AcDbScale
 70
     0
300
3" = 1'-0"
140
3.0
141
12.0
290
     0
  0
SCALE
  5
581
102
{ACAD_REACTORS
330
561
102
}
330
561
100
AcDbScale
 70
     0
300
6" = 1'-0"
140
6.0
141
12.0
290
     0
  0
SCALE
  5
582
102
{ACAD_REACTORS
330
561
102
}
330
561
100
AcDbScale
 70
     0
300
1'-0" = 1'-0"
140
12.0
141
12.0
290
     0
  0
TABLESTYLE
  5
584
102
{ACAD_REACTORS
330
583
102
}
102
{ACAD_XDICTIONARY
360
5B6
102
}
330
583
100
AcDbTableStyle
  3
Standard
 70
     0
 71
     0
 40
0.06
 41
0.06
280
     0
281
     0
  7
STANDARD
140
4.5
170
     2
 62
     0
 63
   257
283
     0
 90
        4
 91
        0
  1

274
    -2
284
     1
 64
     0
275
    -2
285
     1
 65
     0
276
    -2
286
     1
 66
     0
277
    -2
287
     1
 67
     0
278
    -2
288
     1
 68
     0
279
    -2
289
     1
 69
     0
  7
STANDARD
140
6.0
170
     5
 62
     0
 63
   257
283
     0
 90
        4
 91
        0
  1

274
    -2
284
     1
 64
     0
275
    -2
285
     1
 65
     0
276
    -2
286
     1
 66
     0
277
    -2
287
     1
 67
     0
278
    -2
288
     1
 68
     0
279
    -2
289
     1
 69
     0
  7
STANDARD
140
4.5
170
     5
 62
     0
 63
   257
283
     0
 90
        4
 91
        0
  1

274
    -2
284
     1
 64
     0
275
    -2
285
     1
 65
     0
276
    -2
286
     1
 66
     0
277
    -2
287
     1
 67
     0
278
    -2
288
     1
 68
     0
279
    -2
289
     1
 69
     0
  0
VISUALSTYLE
  5
58B
102
{ACAD_REACTORS
330
586
102
}
102
{ACAD_XDICTIONARY
360
5C0
102
}
330
586
100
AcDbVisualStyle
  2
2dWireframe
 70
     4
177
     2
291
     0
 71
     0
176
     1
 72
     2
176
     1
 73
     0
176
     1
 90
        0
176
     1
 40
0.6
176
     1
 41
30.0
176
     1
 62
     5
 63
     7
421
 16777215
176
     1
 74
     1
176
     1
 91
        4
176
     1
 64
     7
176
     1
 65
   257
176
     1
 75
     1
176
     1
175
     1
176
     1
 42
1.0
176
     1
 92
        0
176
     1
 66
   257
176
     1
 43
1.0
176
     1
 76
     1
176
     1
 77
     6
176
     1
 78
     2
176
     1
 67
     7
176
     1
 79
     5
176
     1
170
     0
176
     1
171
     0
176
     1
290
     0
176
     1
 93
        1
176
     1
 44
0.0
176
     1
173
     0
176
     1
  0
VISUALSTYLE
  5
58E
102
{ACAD_REACTORS
330
586
102
}
102
{ACAD_XDICTIONARY
360
5C6
102
}
330
586
100
AcDbVisualStyle
  2
Basic
 70
     7
177
     2
291
     1
 71
     1
176
     1
 72
     0
176
     1
 73
     1
176
     1
 90
        0
176
     1
 40
0.6
176
     1
 41
30.0
176
     1
 62
     5
 63
     7
421
 16777215
176
     1
 74
     0
176
     1
 91
        4
176
     1
 64
     7
176
     1
 65
   257
176
     1
 75
     1
176
     1
175
     1
176
     1
 42
1.0
176
     1
 92
        8
176
     1
 66
     7
176
     1
 43
1.0
176
     1
 76
     1
176
     1
 77
     6
176
     1
 78
     2
176
     1
 67
     7
176
     1
 79
     5
176
     1
170
     0
176
     1
171
     0
176
     1
290
     0
176
     1
 93
        1
176
     1
 44
0.0
176
     1
173
     0
176
     1
  0
VISUALSTYLE
  5
592
102
{ACAD_REACTORS
330
586
102
}
102
{ACAD_XDICTIONARY
360
5CE
102
}
330
586
100
AcDbVisualStyle
  2
Brighten
 70
    12
177
     2
291
     1
 71
     2
176
     1
 72
     2
176
     1
 73
     0
176
     1
 90
        0
176
     1
 40
0.6
176
     1
 41
30.0
176
     1
 62
     5
 63
     7
421
 16777215
176
     1
 74
     1
176
     1
 91
        4
176
     1
 64
     7
176
     1
 65
   257
176
     1
 75
     1
176
     1
175
     1
176
     1
 42
1.0
176
     1
 92
        8
176
     1
 66
     7
176
     1
 43
1.0
176
     1
 76
     1
176
     1
 77
     6
176
     1
 78
     2
176
     1
 67
     7
176
     1
 79
     5
176
     1
170
     0
176
     1
171
     0
176
     1
290
     0
176
     1
 93
        1
176
     1
 44
50.0
176
     1
173
     0
176
     1
  0
VISUALSTYLE
  5
596
102
{ACAD_REACTORS
330
586
102
}
102
{ACAD_XDICTIONARY
360
5D6
102
}
330
586
100
AcDbVisualStyle
  2
ColorChange
 70
    16
177
     2
291
     1
 71
     2
176
     1
 72
     2
176
     1
 73
     3
176
     1
 90
        0
176
     1
 40
0.6
176
     1
 41
30.0
176
     1
 62
     5
 63
     8
421
  8421504
176
     1
 74
     1
176
     1
 91
        4
176
     1
 64
     7
176
     1
 65
   257
176
     1
 75
     1
176
     1
175
     1
176
     1
 42
1.0
176
     1
 92
        8
176
     1
 66
     8
424
  8421504
176
     1
 43
1.0
176
     1
 76
     1
176
     1
 77
     6
176
     1
 78
     2
176
     1
 67
     7
176
     1
 79
     5
176
     1
170
     0
176
     1
171
     0
176
     1
290
     0
176
     1
 93
        1
176
     1
 44
0.0
176
     1
173
     0
176
     1
  0
VISUALSTYLE
  5
590
102
{ACAD_REACTORS
330
586
102
}
102
{ACAD_XDICTIONARY
360
5CA
102
}
330
586
100
AcDbVisualStyle
  2
Conceptual
 70
     9
177
     2
291
     0
 71
     3
176
     1
 72
     2
176
     1
 73
     0
176
     1
 90
        0
176
     1
 40
0.6
176
     1
 41
30.0
176
     1
 62
     5
 63
     7
421
 16777215
176
     1
 74
     2
176
     1
 91
        2
176
     1
 64
     7
176
     1
 65
   257
176
     1
 75
     1
176
     1
175
     1
176
     1
 42
179.0
176
     1
 92
        8
176
     1
 66
     7
176
     1
 43
1.0
176
     1
 76
     1
176
     1
 77
     6
176
     1
 78
     2
176
     1
 67
     7
176
     1
 79
     3
176
     1
170
     0
176
     1
171
     0
176
     1
290
     0
176
     1
 93
        1
176
     1
 44
0.0
176
     1
173
     0
176
     1
  0
VISUALSTYLE
  5
591
102
{ACAD_REACTORS
330
586
102
}
102
{ACAD_XDICTIONARY
360
5CC
102
}
330
586
100
AcDbVisualStyle
  2
Dim
 70
    11
177
     2
291
     1
 71
     2
176
     1
 72
     2
176
     1
 73
     0
176
     1
 90
        0
176
     1
 40
0.6
176
     1
 41
30.0
176
     1
 62
     5
 63
     7
421
 16777215
176
     1
 74
     1
176
     1
 91
        4
176
     1
 64
     7
176
     1
 65
   257
176
     1
 75
     1
176
     1
175
     1
176
     1
 42
1.0
176
     1
 92
        8
176
     1
 66
     7
176
     1
 43
1.0
176
     1
 76
     1
176
     1
 77
     6
176
     1
 78
     2
176
     1
 67
     7
176
     1
 79
     5
176
     1
170
     0
176
     1
171
     0
176
     1
290
     0
176
     1
 93
        1
176
     1
 44
-50.0
176
     1
173
     0
176
     1
  0
VISUALSTYLE
  5
599
102
{ACAD_REACTORS
330
586
102
}
102
{ACAD_XDICTIONARY
360
5DC
102
}
330
586
100
AcDbVisualStyle
  2
EdgeColorOff
 70
    22
177
     2
291
     1
 71
     2
176
     0
 72
     2
176
     0
 73
     0
176
     0
 90
        0
176
     0
 40
0.6
176
     0
 41
30.0
176
     0
 62
     5
 63
     7
421
 16777215
176
     0
 74
     1
176
     0
 91
        4
176
     0
 64
     7
176
     0
 65
   257
176
     0
 75
     1
176
     0
175
     1
176
     0
 42
1.0
176
     0
 92
        8
176
     2
 66
     7
176
     0
 43
1.0
176
     0
 76
     1
176
     0
 77
     6
176
     0
 78
     2
176
     0
 67
     7
176
     0
 79
     5
176
     0
170
     0
176
     0
171
     0
176
     0
290
     0
176
     0
 93
        1
176
     0
 44
0.0
176
     0
173
     0
176
     0
  0
VISUALSTYLE
  5
595
102
{ACAD_REACTORS
330
586
102
}
102
{ACAD_XDICTIONARY
360
5D4
102
}
330
586
100
AcDbVisualStyle
  2
Facepattern
 70
    15
177
     2
291
     1
 71
     2
176
     1
 72
     2
176
     1
 73
     0
176
     1
 90
        0
176
     1
 40
0.6
176
     1
 41
30.0
176
     1
 62
     5
 63
     7
421
 16777215
176
     1
 74
     1
176
     1
 91
        4
176
     1
 64
     7
176
     1
 65
   257
176
     1
 75
     1
176
     1
175
     1
176
     1
 42
1.0
176
     1
 92
        8
176
     1
 66
     7
176
     1
 43
1.0
176
     1
 76
     1
176
     1
 77
     6
176
     1
 78
     2
176
     1
 67
     7
176
     1
 79
     5
176
     1
170
     0
176
     1
171
     0
176
     1
290
     0
176
     1
 93
        1
176
     1
 44
0.0
176
     1
173
     0
176
     1
  0
VISUALSTYLE
  5
587
102
{ACAD_REACTORS
330
586
102
}
102
{ACAD_XDICTIONARY
360
5B8
102
}
330
586
100
AcDbVisualStyle
  2
Flat
 70
     0
177
     2
291
     1
 71
     2
176
     1
 72
     1
176
     1
 73
     1
176
     1
 90
        2
176
     1
 40
0.6
176
     1
 41
30.0
176
     1
 62
     5
 63
     7
421
 16777215
176
     1
 74
     0
176
     1
 91
        0
176
     1
 64
     7
176
     1
 65
   257
176
     1
 75
     1
176
     1
175
     1
176
     1
 42
1.0
176
     1
 92
        8
176
     1
 66
     7
176
     1
 43
1.0
176
     1
 76
     1
176
     1
 77
     6
176
     1
 78
     2
176
     1
 67
     7
176
     1
 79
     5
176
     1
170
     0
176
     1
171
     0
176
     1
290
     0
176
     1
 93
       13
176
     1
 44
0.0
176
     1
173
     0
176
     1
  0
VISUALSTYLE
  5
588
102
{ACAD_REACTORS
330
586
102
}
102
{ACAD_XDICTIONARY
360
5BA
102
}
330
586
100
AcDbVisualStyle
  2
FlatWithEdges
 70
     1
177
     2
291
     1
 71
     2
176
     1
 72
     1
176
     1
 73
     1
176
     1
 90
        2
176
     1
 40
0.6
176
     1
 41
30.0
176
     1
 62
     5
 63
     7
421
 16777215
176
     1
 74
     1
176
     1
 91
        0
176
     1
 64
     7
176
     1
 65
   257
176
     1
 75
     1
176
     1
175
     1
176
     1
 42
1.0
176
     1
 92
        0
176
     1
 66
   257
176
     1
 43
1.0
176
     1
 76
     1
176
     1
 77
     6
176
     1
 78
     2
176
     1
 67
     7
176
     1
 79
     5
176
     1
170
     0
176
     1
171
     0
176
     1
290
     0
176
     1
 93
       13
176
     1
 44
0.0
176
     1
173
     0
176
     1
  0
VISUALSTYLE
  5
589
102
{ACAD_REACTORS
330
586
102
}
102
{ACAD_XDICTIONARY
360
5BC
102
}
330
586
100
AcDbVisualStyle
  2
Gouraud
 70
     2
177
     2
291
     1
 71
     2
176
     1
 72
     2
176
     1
 73
     1
176
     1
 90
        2
176
     1
 40
0.6
176
     1
 41
30.0
176
     1
 62
     5
 63
     7
421
 16777215
176
     1
 74
     0
176
     1
 91
        0
176
     1
 64
     7
176
     1
 65
   257
176
     1
 75
     1
176
     1
175
     1
176
     1
 42
1.0
176
     1
 92
        0
176
     1
 66
     7
176
     1
 43
1.0
176
     1
 76
     1
176
     1
 77
     6
176
     1
 78
     2
176
     1
 67
     7
176
     1
 79
     5
176
     1
170
     0
176
     1
171
     0
176
     1
290
     0
176
     1
 93
       13
176
     1
 44
0.0
176
     1
173
     0
176
     1
  0
VISUALSTYLE
  5
58A
102
{ACAD_REACTORS
330
586
102
}
102
{ACAD_XDICTIONARY
360
5BE
102
}
330
586
100
AcDbVisualStyle
  2
GouraudWithEdges
 70
     3
177
     2
291
     1
 71
     2
176
     1
 72
     2
176
     1
 73
     1
176
     1
 90
        2
176
     1
 40
0.6
176
     1
 41
30.0
176
     1
 62
     5
 63
     7
421
 16777215
176
     1
 74
     1
176
     1
 91
        0
176
     1
 64
     7
176
     1
 65
   257
176
     1
 75
     1
176
     1
175
     1
176
     1
 42
1.0
176
     1
 92
        0
176
     1
 66
   257
176
     1
 43
1.0
176
     1
 76
     1
176
     1
 77
     6
176
     1
 78
     2
176
     1
 67
     7
176
     1
 79
     5
176
     1
170
     0
176
     1
171
     0
176
     1
290
     0
176
     1
 93
       13
176
     1
 44
0.0
176
     1
173
     0
176
     1
  0
VISUALSTYLE
  5
58D
102
{ACAD_REACTORS
330
586
102
}
102
{ACAD_XDICTIONARY
360
5C4
102
}
330
586
100
AcDbVisualStyle
  2
Hidden
 70
     6
177
     2
291
     0
 71
     1
176
     1
 72
     2
176
     1
 73
     2
176
     1
 90
        0
176
     1
 40
0.6
176
     1
 41
30.0
176
     1
 62
     5
 63
     7
421
 16777215
176
     1
 74
     2
176
     1
 91
        2
176
     1
 64
     7
176
     1
 65
   257
176
     1
 75
     2
176
     1
175
     1
176
     1
 42
40.0
176
     1
 92
        0
176
     1
 66
   257
176
     1
 43
1.0
176
     1
 76
     1
176
     1
 77
     6
176
     1
 78
     2
176
     1
 67
     7
176
     1
 79
     3
176
     1
170
     0
176
     1
171
     0
176
     1
290
     0
176
     1
 93
        1
176
     1
 44
0.0
176
     1
173
     0
176
     1
  0
VISUALSTYLE
  5
597
102
{ACAD_REACTORS
330
586
102
}
102
{ACAD_XDICTIONARY
360
5D8
102
}
330
586
100
AcDbVisualStyle
  2
JitterOff
 70
    20
177
     2
291
     1
 71
     2
176
     0
 72
     2
176
     0
 73
     0
176
     0
 90
        0
176
     0
 40
0.6
176
     0
 41
30.0
176
     0
 62
     5
 63
     7
421
 16777215
176
     0
 74
     1
176
     0
 91
        4
176
     0
 64
     7
176
     0
 65
   257
176
     0
 75
     1
176
     0
175
     1
176
     0
 42
1.0
176
     0
 92
       10
176
     2
 66
     7
176
     0
 43
1.0
176
     0
 76
     1
176
     0
 77
     6
176
     0
 78
     2
176
     0
 67
     7
176
     0
 79
     5
176
     0
170
     0
176
     0
171
     0
176
     0
290
     0
176
     0
 93
        1
176
     0
 44
0.0
176
     0
173
     0
176
     0
  0
VISUALSTYLE
  5
594
102
{ACAD_REACTORS
330
586
102
}
102
{ACAD_XDICTIONARY
360
5D2
102
}
330
586
100
AcDbVisualStyle
  2
Linepattern
 70
    14
177
     2
291
     1
 71
     2
176
     1
 72
     2
176
     1
 73
     0
176
     1
 90
        0
176
     1
 40
0.6
176
     1
 41
30.0
176
     1
 62
     5
 63
     7
421
 16777215
176
     1
 74
     1
176
     1
 91
        4
176
     1
 64
     7
176
     1
 65
   257
176
     1
 75
     7
176
     1
175
     7
176
     1
 42
1.0
176
     1
 92
        8
176
     1
 66
     7
176
     1
 43
1.0
176
     1
 76
     1
176
     1
 77
     6
176
     1
 78
     2
176
     1
 67
     7
176
     1
 79
     5
176
     1
170
     0
176
     1
171
     0
176
     1
290
     0
176
     1
 93
        1
176
     1
 44
0.0
176
     1
173
     0
176
     1
  0
VISUALSTYLE
  5
598
102
{ACAD_REACTORS
330
586
102
}
102
{ACAD_XDICTIONARY
360
5DA
102
}
330
586
100
AcDbVisualStyle
  2
OverhangOff
 70
    21
177
     2
291
     1
 71
     2
176
     0
 72
     2
176
     0
 73
     0
176
     0
 90
        0
176
     0
 40
0.6
176
     0
 41
30.0
176
     0
 62
     5
 63
     7
421
 16777215
176
     0
 74
     1
176
     0
 91
        4
176
     0
 64
     7
176
     0
 65
   257
176
     0
 75
     1
176
     0
175
     1
176
     0
 42
1.0
176
     0
 92
        9
176
     2
 66
     7
176
     0
 43
1.0
176
     0
 76
     1
176
     0
 77
     6
176
     0
 78
     2
176
     0
 67
     7
176
     0
 79
     5
176
     0
170
     0
176
     0
171
     0
176
     0
290
     0
176
     0
 93
        1
176
     0
 44
0.0
176
     0
173
     0
176
     0
  0
VISUALSTYLE
  5
58F
102
{ACAD_REACTORS
330
586
102
}
102
{ACAD_XDICTIONARY
360
5C8
102
}
330
586
100
AcDbVisualStyle
  2
Realistic
 70
     8
177
     2
291
     0
 71
     2
176
     1
 72
     3
176
     1
 73
     0
176
     1
 90
        2
176
     1
 40
0.6
176
     1
 41
30.0
176
     1
 62
     5
 63
     7
421
 16777215
176
     1
 74
     0
176
     1
 91
        0
176
     1
 64
     7
176
     1
 65
   257
176
     1
 75
     1
176
     1
175
     1
176
     1
 42
1.0
176
     1
 92
        8
176
     1
 66
   257
176
     1
 43
1.0
176
     1
 76
     1
176
     1
 77
     6
176
     1
 78
     2
176
     1
 67
     7
176
     1
 79
     3
176
     1
170
     0
176
     1
171
     0
176
     1
290
     0
176
     1
 93
       13
176
     1
 44
0.0
176
     1
173
     0
176
     1
  0
VISUALSTYLE
  5
59E
102
{ACAD_REACTORS
330
586
102
}
102
{ACAD_XDICTIONARY
360
5E6
102
}
330
586
100
AcDbVisualStyle
  2
Shaded
 70
    27
177
     2
291
     0
 71
     2
176
     1
 72
     2
176
     1
 73
     1
176
     1
 90
        2
176
     1
 40
0.6
176
     1
 41
30.0
176
     1
 62
     5
 63
     7
421
 16777215
176
     1
 74
     0
176
     1
 91
        4
176
     1
 64
     7
176
     1
 65
   257
176
     1
 75
     1
176
     1
175
     1
176
     1
 42
1.0
176
     1
 92
        8
176
     1
 66
   257
176
     1
 43
1.0
176
     1
 76
     1
176
     1
 77
     6
176
     1
 78
     2
176
     1
 67
     8
425
  7895160
176
     1
 79
     3
176
     1
170
     0
176
     1
171
     0
176
     1
290
     0
176
     1
 93
        5
176
     1
 44
0.0
176
     1
173
     0
176
     1
  0
VISUALSTYLE
  5
59D
102
{ACAD_REACTORS
330
586
102
}
102
{ACAD_XDICTIONARY
360
5E4
102
}
330
586
100
AcDbVisualStyle
  2
Shaded with edges
 70
    26
177
     2
291
     0
 71
     2
176
     1
 72
     2
176
     1
 73
     1
176
     1
 90
        2
176
     1
 40
0.6
176
     1
 41
30.0
176
     1
 62
     5
 63
     7
421
 16777215
176
     1
 74
     1
176
     1
 91
       10
176
     1
 64
     7
176
     1
 65
   257
176
     1
 75
     2
176
     1
175
     1
176
     1
 42
1.0
176
     1
 92
        8
176
     1
 66
   257
176
     1
 43
1.0
176
     1
 76
     1
176
     1
 77
     6
176
     1
 78
     2
176
     1
 67
     7
176
     1
 79
     3
176
     1
170
     0
176
     1
171
     0
176
     1
290
     0
176
     1
 93
        5
176
     1
 44
0.0
176
     1
173
     0
176
     1
  0
VISUALSTYLE
  5
59A
102
{ACAD_REACTORS
330
586
102
}
102
{ACAD_XDICTIONARY
360
5DE
102
}
330
586
100
AcDbVisualStyle
  2
Shades of Gray
 70
    23
177
     2
291
     0
 71
     2
176
     1
 72
     2
176
     1
 73
     3
176
     1
 90
        0
176
     1
 40
0.6
176
     1
 41
30.0
176
     1
 62
     5
 63
     7
421
 16777215
176
     1
 74
     2
176
     1
 91
        2
176
     1
 64
     7
176
     1
 65
     7
176
     1
 75
     1
176
     1
175
     1
176
     1
 42
40.0
176
     1
 92
        8
176
     1
 66
     7
176
     1
 43
1.0
176
     1
 76
     1
176
     1
 77
     6
176
     1
 78
     2
176
     1
 67
     7
176
     1
 79
     3
176
     1
170
     0
176
     1
171
     0
176
     1
290
     0
176
     1
 93
        1
176
     1
 44
0.0
176
     1
173
     0
176
     1
  0
VISUALSTYLE
  5
59B
102
{ACAD_REACTORS
330
586
102
}
102
{ACAD_XDICTIONARY
360
5E0
102
}
330
586
100
AcDbVisualStyle
  2
Sketchy
 70
    24
177
     2
291
     0
 71
     1
176
     1
 72
     2
176
     1
 73
     2
176
     1
 90
        0
176
     1
 40
0.6
176
     1
 41
30.0
176
     1
 62
     5
 63
     7
421
 16777215
176
     1
 74
     2
176
     1
 91
        2
176
     1
 64
     7
176
     1
 65
     7
176
     1
 75
     1
176
     1
175
     1
176
     1
 42
40.0
176
     1
 92
       11
176
     1
 66
     7
176
     1
 43
1.0
176
     1
 76
     1
176
     1
 77
     6
176
     1
 78
     2
176
     1
 67
     7
176
     1
 79
     6
176
     1
170
     0
176
     1
171
     0
176
     1
290
     0
176
     1
 93
        1
176
     1
 44
0.0
176
     1
173
     0
176
     1
  0
VISUALSTYLE
  5
593
102
{ACAD_REACTORS
330
586
102
}
102
{ACAD_XDICTIONARY
360
5D0
102
}
330
586
100
AcDbVisualStyle
  2
Thicken
 70
    13
177
     2
291
     1
 71
     2
176
     1
 72
     2
176
     1
 73
     0
176
     1
 90
        0
176
     1
 40
0.6
176
     1
 41
30.0
176
     1
 62
     5
 63
     7
421
 16777215
176
     1
 74
     1
176
     1
 91
        4
176
     1
 64
     7
176
     1
 65
   257
176
     1
 75
     1
176
     1
175
     1
176
     1
 42
1.0
176
     1
 92
       12
176
     1
 66
     7
176
     1
 43
1.0
176
     1
 76
     1
176
     1
 77
     6
176
     1
 78
     2
176
     1
 67
     7
176
     1
 79
     5
176
     1
170
     0
176
     1
171
     0
176
     1
290
     0
176
     1
 93
        1
176
     1
 44
0.0
176
     1
173
     0
176
     1
  0
VISUALSTYLE
  5
58C
102
{ACAD_REACTORS
330
586
102
}
102
{ACAD_XDICTIONARY
360
5C2
102
}
330
586
100
AcDbVisualStyle
  2
Wireframe
 70
     5
177
     2
291
     0
 71
     0
176
     1
 72
     2
176
     1
 73
     0
176
     1
 90
        0
176
     1
 40
0.6
176
     1
 41
30.0
176
     1
 62
     5
 63
     7
421
 16777215
176
     1
 74
     1
176
     1
 91
        4
176
     1
 64
     7
176
     1
 65
   257
176
     1
 75
     1
176
     1
175
     1
176
     1
 42
1.0
176
     1
 92
        0
176
     1
 66
   257
176
     1
 43
1.0
176
     1
 76
     1
176
     1
 77
     6
176
     1
 78
     2
176
     1
 67
     7
176
     1
 79
     3
176
     1
170
     0
176
     1
171
     0
176
     1
290
     0
176
     1
 93
        1
176
     1
 44
0.0
176
     1
173
     0
176
     1
  0
VISUALSTYLE
  5
59C
102
{ACAD_REACTORS
330
586
102
}
102
{ACAD_XDICTIONARY
360
5E2
102
}
330
586
100
AcDbVisualStyle
  2
X-Ray
 70
    25
177
     2
291
     0
 71
     2
176
     1
 72
     2
176
     1
 73
     1
176
     1
 90
        1
176
     1
 40
0.5
176
     1
 41
30.0
176
     1
 62
     5
 63
     7
421
 16777215
176
     1
 74
     1
176
     1
 91
        0
176
     1
 64
     7
176
     1
 65
   257
176
     1
 75
     1
176
     1
175
     1
176
     1
 42
1.0
176
     1
 92
        8
176
     1
 66
     7
176
     1
 43
1.0
176
     1
 76
     1
176
     1
 77
     6
176
     1
 78
     2
176
     1
 67
     7
176
     1
 79
     3
176
     1
170
     0
176
     1
171
     0
176
     1
290
     0
176
     1
 93
       13
176
     1
 44
0.0
176
     1
173
     0
176
     1
  0
DICTIONARYVAR
  5
5B5
102
{ACAD_REACTORS
330
5B4
102
}
330
5B4
100
DictionaryVariables
280
     0
  1
1:1
  0
DICTIONARYVAR
  5
5E9
102
{ACAD_REACTORS
330
5B4
102
}
330
5B4
100
DictionaryVariables
280
     0
  1
Standard
  0
CSACDOCUMENTOPTIONS
  5
5AA
102
{ACAD_REACTORS
330
5A9
102
}
330
5A9
  0
XRECORD
  5
5AE
102
{ACAD_REACTORS
330
5A5
102
}
330
5A5
100
AcDbXrecord
280
     1
300
MC_VERSION_DATA
 90
       95
310
0600000002000000570000001C000000E404000000000000000000007801936764E5D8CF7A8393818115C460606066E0646662626666706006F214793899F8DE3171E725E6E53B3BBA2878E6951050AF75FEFFFFFF520032DE0F3057000000
  0
XRECORD
  5
5A6
102
{ACAD_REACTORS
330
5A5
102
}
330
5A5
100
AcDbXrecord
280
     1
300
MCS_DOCUMENT_ID
 90
       60
310
0600000002000000150000001C000000E404000000000000000000007801E37DCAD430D5718D94EB32D9897734BF6DBAF71F08006A0D0C3115000000
  0
XRECORD
  5
5AC
102
{ACAD_REACTORS
330
5A5
102
}
330
5A5
100
AcDbXrecord
280
     1
300
MCS_PARAMS_DATA
 90
     3313
310
0600000002000000F64B00001C000000E404000000000000000000007801C55C5B905C45199EE99EBDCCE67E5DA218172C303B91307B4B8C459531245054850D55591F78B236BB49B9BAC9E6B22A082A9655BE5865596569A965F9209288CF16503EC8834088C10B092404211702988430422E9084CDAEFFD7A7FBF4DFA7CF
310
D9D99D9D39930798FF3F7DCEF7DFFAFBBBFBCC6CDBFC46297252EECB48F9CDF5ED5234493921A5206D76815820B252E4F3225F128D7D5F59BF69E3162948D9A2D485B3131313747328BF06593E960915079422437734AA3BDAA5CCD053F5ED4FD2557D257BAB94DF007A03479F859BB2B22193C9108EC1CDCADC0464C27506
310
28605703E48886E0B986E10F03BF91E33707F8E3140E7A9091C8268236920C1C662240B94888A1C8E07600AE99C32D5131CA8B3925D172EFE62D7D6D9DABBA8ADDD6F17CE16D13F0457AE8AC9268DE32DABF73B07FCFA013F9BF8491D7C17E2550D8E8FFCA8DFE4E98B3929B331718B291824FFF72EB941D9E8E2211D5A93C
310
784A44C557923911258BD0C8640531AEEC61A924855B11378280384364A422680C0A928DB9C10CD89D581114199665B722B26E4590C82B0222AB08FAA8A60626C028E0044F81BA246F5360E167F2D27C56A10E05C058C13C59DEC6207679103AFC5DEADF992F2B284F67B31C8EE359B64A9665A62453228F64269D98455E3B
310
A4B35817F7EC92C86FB8EFFE8DBD5BEEDBDCAB0CD3B5FC8E99065A7E55D536E39DE7826237F1C8BBBCB3CFADFC93302087C80397EE69C2FF69CA32234F0763E41851010DA578E8294D435524988818E84710A7B2643B4F7C034F6CE5C9368F203BE8094C6268541D70D35EE4B585DAE170F4942EB8D2D422560A9917F34B62
310
CE86919D9F1F6DDBB36DD770FFC0B6BC682E898607BEB5737424F8D83B323AF07529CFC0B69BB96D9FD3CFF9B410ED79B1A42416161FEA29AEEDEEEC5ADF532C76DEF3C5AEEEB5CAECF97A60330D2C1C3579EAD0DA7621F20269BD6768746FDBF0D0DE51F3B0EE356B3ABBD6F474F7740D76770EACED08FCFC92BEAF13F701
310
B5AF7FEBF0B6B691ED6D7D23C3DBF6F4EF840FDA9AD583C58E81E240FFEAADDD5BD70EAC0E669D2A25F27FB610851F9335859F059541B9E5971EC7A5A7E83F2CE53DB9A4040555A2661A4DDBF2C560B2E54E7D5483931EF871F7C88E5DFDA3435B878687461F6EDB313248FE3596847C70DBDEBC682809D13B22E56A5856E4
310
E9998738519B6E2A89DCE6EDDBDB542AF4E4380F8F61A4965F57116093E5A052A06AF588670205D9A715FB49B140D81A90855F902680EBB8B3A3187EEA96F2B224E392BAF898328CB1AD47DA34C1601A1B421AD816D190715CC3F276A5DE067C546F03AED6DB808FEB6DC0B57A1BB00853B49EB3E0937A47E07ABD0D188301
310
71CB797197D3603B1D06BFCB6DB024827C0C834324E60945463B3712E196397079076E990B47228783C8E09631B8F129C211385B3E540C97413DC70673C524DEAD70BD23917B079179B782793791AE77D944EFDCDC5529988B13E1069D6092C472A7F777A6F648E4C184C88239C8822913E16AE29D48176E29E0727C316496
310
EF2A967C95165E504B0C2B218EEE82DD5C63513CD614C5091F6D6FA7551865CC5C5030A1E0A3E84BEC86CFD04EC5DD01AA74CBDB05AB8C403295A124BB2908C4B032B4682A032283FB103E391B4E03172C7199C4E0F88E871E8855ADA1482D3238FA1846E0B807A77785BFF935FE1D74369F5647D0D171CA5F4F09337C2559
310
105132935A503D6DBC7A94B54D2B6DF1E0339960F436A97441791E5EC104D40283580888C4FDED577B1FD8B4B9AF6FE30605D8AAD7F1F34A62F6DD5BBEC62E92057A31FEA25A9DB3F5FBD3C1729D9CD723B0BF0DE8402BB05A67160DDE4416E59079C0D9EAA575B7321F67115FC018C76AB5B3A33D06B68CBD9BFBDC93C073
310
800CC384FD360C544F539B6F02B1820953BE9D01DE01C0D85A6C50369A5AC4065C7760793B965800321749E4B50891C0C2AB0CAE9808178444974C70F875952A9381563C01BE9D08EAFA481283ABD8C7EF7870DAABE068E68833DFAC8EA0A3E3F87C0B07AA507B2311F0889285BDC333294C4E2DB27C67BA70ABD2857B688A
310
70552AA7873DB8489E55063D5D2DCBE9BB9E49F1E554A5083C922EDCA3E9C27D2F5DB8EF7B705EE9D87E1E920E88313AAE6AECF4FBD668D3D30DB4E51ADA9BEDB0D7AFCEB4DDED85F7C4ECF6551B3BCE2AFF6E835E49458EC94883D6E73C45753FAE614C3C0A0362777435D915EC025C33F7578776011DE6F3D066954C59D6
310
D76F86AC9CD58A53F4122CF0552BAE070AEA3B5AF15752304F1F47569D50AB71F41A31FA5A51C904CD43C6B0F51D2ACEFC112ACC4CC1B0FF086CE7AD5A4D096A005126387AAD451EE384D9C035A925859E39C1AA865EE9A9B8DA21CEE289167F7CF1D4C4BC7A125EC5AED5D8BB0B5A9D9144D134CFA71BF85A8D44BE568348
310
F6AA55A2F3CAEA4F6982FD21118CC249D3CBF852A586F244BA70FBD285DB9F085793EDE56E143F0AD06C6B4CB2242BDD3DD1419166C2865E81F9CE1648F3CBD84597B22E28992A3DDCE24C77F3F311A01C8A722828EC3CF15F7D987933F818F8E59BC138E5CD4CE8AC24C94E68BA32F5C3CBAB808B6B06B9936E642F9F804C
310
903AF2F3709D37832318A078E4B37AEBDCFAA66859945B9EBB25776BAE2DD3995995E9CA1433DDFA4DAC7ECE6FE93696E96BB06712968ED2661884A9EE40230F60D0D73DE8C858453B9E8E4212D5A9B0784A762662599FEDD18C9299F4094C728A91F536658E91CDA6DFC8E89F363B15B4CB31404FD2581CF722BBF229B517
310
430944E56AB2E2A8E3461950730F2B7ECA7BC570E389706E8BA9D241C744225C40C29385944F707279EA277D998065D9EAD604B1263E66D38513E9C2490F4EE7CC6E8AA89C3D9DA588701CA708AB6414C194931EE3FC0D4515D71A4FBFE712F8CB4A26532A6E8DCF01CA61A3745BE3F3C09F6E6B442F0CD7BAD36A8D2F002E
310
AE359E3BE646F6B8926D6BBC0CD9926FBEF08C5220B9BAE91D0E14769FF44B52301E3C00E8FA74C117BD24F396E22C7F1005F2DA2902EB76053DE720B0D3EE397F2F036AE8B24A3DE750225C4DF8F8A544B81AF69C7F2482D6C4C77F067093EF36FE359541FF8E0E8A50399BA22F63681CEF0EBDEBB2C3834A9E09EF1E0654
310
1D79F708F0A7CBBB956F495E015C1CEFEE3EEC46B65FC996771F856C09285F58A7148C77872F6104D6DC9A8897D30896D457015D1FDE3DEA25B91CEFF2EBD6EB0A68F718A0D3A6DDD7CA805699768F27C2D584925E4F84AB9476A39B03E744D09CD6610FF59F44E89A78FA46BA70DDDE0ADC144A4DBCEBF1E0221D416DC23D
310
1D715254A766A8A7AC60C1FF26021ED7783E889CD89C52F24C1ACF0940D5B1F19C047E7A8DE714E0E21ACFD5436EE339AB64DB78E44B91C6730003ECCB897CE1D28548E3798246B0C6731AD0536D3CB3E90740046E0B5FD5161351555C247A084506FA9607AAEBD39C44F1E2B63A5BDCA18E17B755B2E2664A322602C34C3A
310
0393625B51C09BC60D77315EF1E1C8DB80730A9C37D5B8CD0EBF3EA3A6FB4EA2A7C18B1B2746D53A5F7BB70C687C78291FE10E3A386EE3054657F9CB297E9CF703B0E71DFC4DA3397B4068C3CF33A1A81F02C2C920DB8E7ABF712005813923946BAE06DE453454B45CC32AF6311810C751E3F85A979E7874424F9299B34AB2
310
210DC430A45A3473162283FB2F3218C7FE178FBB1CF59692CDAD957C0DECAC3739580882F7E26636C4FC0874E66F42CE013F2EB274A4C323CBB88082C5B980AE4CFD4DC879C0C5B1FFF5E7DDC89E57324556799F2F34BC006EC70CD18A8318C0D9FF0AB6807CDBB19F46B0A4BE07E8B4D9FF8207EA504E3D7E65FA3E4C7226
310
B329B0E8D703AAFEBAA304E869379E693123CD68457958A4FF2F11AE86ECFF4119D078F6E7138AD87FF2370F86D6E1E38789702D76FED2134932CCA824CB8C811832A3160D33426421BD980847AF6F0C11D33DEECB1CFE9B7175D1F926045DE5BD8DBFBDBE94081764D0049324E6DDB40A8607F372225C4D16463974B5B836
310
F393232E193EA2E499B49986C93A780A6DA631A981D7A6CD34012EAECDFCFC5937B23F52B26D33BF83CCDBCC56A5C0ECD07DE7A7A7226D661D8D6033A419D0536D33E07F56B8C4CA7C0D48229F9610695A461A0883CE7B494E8DD95B004DF38E8247AB09FE45AC1A52EDAC32A0861DD8DA85D8A76276989D08579353913989
310
700119397510D9BB4CAB9DF096393711B4263ECE4B176E7EBA700B3C389DB3F0B5335AA6A7234288EA142D784A9083AFB414616018456CF24C3293C4CD2F49D3E5A5F0410CEE7E0F2E6A6FEA11580893E29AEE529C2FC11C4DF48D4AA628982DB44A422820F8563073C8F989CF2240392BED74F7768B819FDEDE6E09E0E29A
310
EE72FA030B3CB273954C91D5916E87CC9BEEFB4FAB1E6B73B10CFB6CBEB73B4423589D2D05F4CC9AAE2E4C768646F0614DBB4BD40606DDEA2539B5A67B13A0D36EBACBCA809A9055A7E9E24B8E0D79912B896C91FE0C1655C17843E129FA335B3277F4E8510807513CB9CC44868E210AF7FE19028691B0917E39482B125CF8
310
D4FF01F0B312DAF64B0000
  0
TABLECONTENT
  5
5B0
330
5B3
100
AcDbLinkedData
  1

300

100
AcDbLinkedTableData
 90
        5
300
COLUMN
  1
LINKEDTABLEDATACOLUMN_BEGIN
300

 91
        0
301
CUSTOMDATA
  1
DATAMAP_BEGIN
 90
        0
309
DATAMAP_END
309
LINKEDTABLEDATACOLUMN_END
  1
FORMATTEDTABLEDATACOLUMN_BEGIN
300
COLUMNTABLEFORMAT
  1
TABLEFORMAT_BEGIN
 90
        3
170
     0
309
TABLEFORMAT_END
309
FORMATTEDTABLEDATACOLUMN_END
  1
TABLECOLUMN_BEGIN
 90
        0
 40
10.0
309
TABLECOLUMN_END
300
COLUMN
  1
LINKEDTABLEDATACOLUMN_BEGIN
300

 91
        0
301
CUSTOMDATA
  1
DATAMAP_BEGIN
 90
        0
309
DATAMAP_END
309
LINKEDTABLEDATACOLUMN_END
  1
FORMATTEDTABLEDATACOLUMN_BEGIN
300
COLUMNTABLEFORMAT
  1
TABLEFORMAT_BEGIN
 90
        3
170
     0
309
TABLEFORMAT_END
309
FORMATTEDTABLEDATACOLUMN_END
  1
TABLECOLUMN_BEGIN
 90
        0
 40
10.0
309
TABLECOLUMN_END
300
COLUMN
  1
LINKEDTABLEDATACOLUMN_BEGIN
300

 91
        0
301
CUSTOMDATA
  1
DATAMAP_BEGIN
 90
        0
309
DATAMAP_END
309
LINKEDTABLEDATACOLUMN_END
  1
FORMATTEDTABLEDATACOLUMN_BEGIN
300
COLUMNTABLEFORMAT
  1
TABLEFORMAT_BEGIN
 90
        3
170
     0
309
TABLEFORMAT_END
309
FORMATTEDTABLEDATACOLUMN_END
  1
TABLECOLUMN_BEGIN
 90
        0
 40
10.0
309
TABLECOLUMN_END
300
COLUMN
  1
LINKEDTABLEDATACOLUMN_BEGIN
300

 91
        0
301
CUSTOMDATA
  1
DATAMAP_BEGIN
 90
        0
309
DATAMAP_END
309
LINKEDTABLEDATACOLUMN_END
  1
FORMATTEDTABLEDATACOLUMN_BEGIN
300
COLUMNTABLEFORMAT
  1
TABLEFORMAT_BEGIN
 90
        3
170
     0
309
TABLEFORMAT_END
309
FORMATTEDTABLEDATACOLUMN_END
  1
TABLECOLUMN_BEGIN
 90
        0
 40
40.0
309
TABLECOLUMN_END
300
COLUMN
  1
LINKEDTABLEDATACOLUMN_BEGIN
300

 91
        0
301
CUSTOMDATA
  1
DATAMAP_BEGIN
 90
        0
309
DATAMAP_END
309
LINKEDTABLEDATACOLUMN_END
  1
FORMATTEDTABLEDATACOLUMN_BEGIN
300
COLUMNTABLEFORMAT
  1
TABLEFORMAT_BEGIN
 90
        3
170
     0
309
TABLEFORMAT_END
309
FORMATTEDTABLEDATACOLUMN_END
  1
TABLECOLUMN_BEGIN
 90
        0
 40
20.0
309
TABLECOLUMN_END
 91
        5
301
ROW
  1
LINKEDTABLEDATAROW_BEGIN
 90
        5
300
CELL
  1
LINKEDTABLEDATACELL_BEGIN
 90
        0
300

 91
        0
301
CUSTOMDATA
  1
DATAMAP_BEGIN
 90
        1
300
ACAD_ROUNDTRIP_2008_CELL_CHECKSUM
301
DATAMAP_VALUE
 93
        2
 90
        2
140
32.0
 94
        0
300

302

304
ACVALUE_END
309
DATAMAP_END
 92
        0
 95
        1
302
CONTENT
  1
CELLCONTENT_BEGIN
 90
        1
300
VALUE
 93
        2
 90
        4
  1
 
 94
        0
300

302
 
304
ACVALUE_END
 91
        0
309
CELLCONTENT_END
  1
FORMATTEDCELLCONTENT_BEGIN
170
     1
300
CONTENTFORMAT
  1
CONTENTFORMAT_BEGIN
 90
      132
 91
        0
 92
      512
 93
        0
300

 40
0.0
140
1.0
 94
        1
 62
     0
340
0
144
3.5
309
CONTENTFORMAT_END
309
FORMATTEDCELLCONTENT_END
309
LINKEDTABLEDATACELL_END
  1
FORMATTEDTABLEDATACELL_BEGIN
300
CELLTABLEFORMAT
  1
TABLEFORMAT_BEGIN
 90
        1
170
     1
 91
        0
 92
        0
 62
   257
 93
        1
300
CONTENTFORMAT
  1
CONTENTFORMAT_BEGIN
 90
        0
 91
        0
 92
      512
 93
        0
300

 40
0.0
140
1.0
 94
        1
 62
     0
340
0
144
0.18
309
CONTENTFORMAT_END
171
     0
 94
        0
309
TABLEFORMAT_END
309
FORMATTEDTABLEDATACELL_END
  1
TABLECELL_BEGIN
 90
        0
 91
        0
309
TABLECELL_END
300
CELL
  1
LINKEDTABLEDATACELL_BEGIN
 90
        0
300

 91
        0
301
CUSTOMDATA
  1
DATAMAP_BEGIN
 90
        0
309
DATAMAP_END
 92
        0
 95
        0
309
LINKEDTABLEDATACELL_END
  1
FORMATTEDTABLEDATACELL_BEGIN
300
CELLTABLEFORMAT
  1
TABLEFORMAT_BEGIN
 90
        1
170
     1
 91
        0
 92
        0
 62
   257
 93
        1
300
CONTENTFORMAT
  1
CONTENTFORMAT_BEGIN
 90
        0
 91
        0
 92
      512
 93
        0
300

 40
0.0
140
1.0
 94
        1
 62
     0
340
0
144
0.18
309
CONTENTFORMAT_END
171
     0
 94
        0
309
TABLEFORMAT_END
309
FORMATTEDTABLEDATACELL_END
  1
TABLECELL_BEGIN
 90
        0
 91
        0
309
TABLECELL_END
300
CELL
  1
LINKEDTABLEDATACELL_BEGIN
 90
        0
300

 91
        0
301
CUSTOMDATA
  1
DATAMAP_BEGIN
 90
        0
309
DATAMAP_END
 92
        0
 95
        0
309
LINKEDTABLEDATACELL_END
  1
FORMATTEDTABLEDATACELL_BEGIN
300
CELLTABLEFORMAT
  1
TABLEFORMAT_BEGIN
 90
        1
170
     1
 91
        0
 92
        0
 62
   257
 93
        1
300
CONTENTFORMAT
  1
CONTENTFORMAT_BEGIN
 90
        0
 91
        0
 92
      512
 93
        0
300

 40
0.0
140
1.0
 94
        1
 62
     0
340
0
144
0.18
309
CONTENTFORMAT_END
171
     0
 94
        0
309
TABLEFORMAT_END
309
FORMATTEDTABLEDATACELL_END
  1
TABLECELL_BEGIN
 90
        0
 91
        0
309
TABLECELL_END
300
CELL
  1
LINKEDTABLEDATACELL_BEGIN
 90
        0
300

 91
        0
301
CUSTOMDATA
  1
DATAMAP_BEGIN
 90
        1
300
ACAD_ROUNDTRIP_2008_CELL_CHECKSUM
301
DATAMAP_VALUE
 93
        2
 90
        2
140
3420.0
 94
        0
300

302

304
ACVALUE_END
309
DATAMAP_END
 92
        0
 95
        1
302
CONTENT
  1
CELLCONTENT_BEGIN
 90
        1
300
VALUE
 93
        2
 90
        4
  1
A117_C_402
 94
        0
300

302
A117_C_402
304
ACVALUE_END
 91
        0
309
CELLCONTENT_END
  1
FORMATTEDCELLCONTENT_BEGIN
170
     1
300
CONTENTFORMAT
  1
CONTENTFORMAT_BEGIN
 90
      132
 91
        0
 92
      512
 93
        0
300

 40
0.0
140
1.0
 94
        1
 62
     0
340
0
144
3.0
309
CONTENTFORMAT_END
309
FORMATTEDCELLCONTENT_END
309
LINKEDTABLEDATACELL_END
  1
FORMATTEDTABLEDATACELL_BEGIN
300
CELLTABLEFORMAT
  1
TABLEFORMAT_BEGIN
 90
        1
170
     1
 91
       16
 92
        0
 62
   257
 93
        1
300
CONTENTFORMAT
  1
CONTENTFORMAT_BEGIN
 90
       16
 91
        0
 92
      512
 93
        0
300

 40
0.0
140
1.0
 94
        4
 62
     0
340
0
144
0.18
309
CONTENTFORMAT_END
171
     0
 94
        4
 95
        1
302
GRIDFORMAT
  1
GRIDFORMAT_BEGIN
 90
       26
 91
        1
 62
     0
 92
       -2
340
0
 93
        0
 40
0.045
309
GRIDFORMAT_END
 95
        4
302
GRIDFORMAT
  1
GRIDFORMAT_BEGIN
 90
       26
 91
        1
 62
     0
 92
       -2
340
0
 93
        0
 40
0.045
309
GRIDFORMAT_END
 95
        8
302
GRIDFORMAT
  1
GRIDFORMAT_BEGIN
 90
       26
 91
        1
 62
     0
 92
       -2
340
0
 93
        0
 40
0.045
309
GRIDFORMAT_END
 95
       32
302
GRIDFORMAT
  1
GRIDFORMAT_BEGIN
 90
       26
 91
        1
 62
     0
 92
       -2
340
0
 93
        0
 40
0.045
309
GRIDFORMAT_END
309
TABLEFORMAT_END
309
FORMATTEDTABLEDATACELL_END
  1
TABLECELL_BEGIN
 90
        0
 91
        0
309
TABLECELL_END
300
CELL
  1
LINKEDTABLEDATACELL_BEGIN
 90
        0
300

 91
        0
301
CUSTOMDATA
  1
DATAMAP_BEGIN
 90
        1
300
ACAD_ROUNDTRIP_2008_CELL_CHECKSUM
301
DATAMAP_VALUE
 93
        2
 90
        2
140
1398.0
 94
        0
300

302

304
ACVALUE_END
309
DATAMAP_END
 92
        0
 95
        1
302
CONTENT
  1
CELLCONTENT_BEGIN
 90
        1
300
VALUE
 93
        2
 90
        4
  1
Rev:00
 94
        0
300

302
Rev:00
304
ACVALUE_END
 91
        0
309
CELLCONTENT_END
  1
FORMATTEDCELLCONTENT_BEGIN
170
     1
300
CONTENTFORMAT
  1
CONTENTFORMAT_BEGIN
 90
      132
 91
        0
 92
      512
 93
        0
300

 40
0.0
140
1.0
 94
        1
 62
     0
340
0
144
3.5
309
CONTENTFORMAT_END
309
FORMATTEDCELLCONTENT_END
309
LINKEDTABLEDATACELL_END
  1
FORMATTEDTABLEDATACELL_BEGIN
300
CELLTABLEFORMAT
  1
TABLEFORMAT_BEGIN
 90
        1
170
     1
 91
       16
 92
        0
 62
   257
 93
        1
300
CONTENTFORMAT
  1
CONTENTFORMAT_BEGIN
 90
       16
 91
        0
 92
      512
 93
        0
300

 40
0.0
140
1.0
 94
        4
 62
     0
340
0
144
0.18
309
CONTENTFORMAT_END
171
     0
 94
        4
 95
        1
302
GRIDFORMAT
  1
GRIDFORMAT_BEGIN
 90
       26
 91
        1
 62
     0
 92
       -2
340
0
 93
        0
 40
0.045
309
GRIDFORMAT_END
 95
        4
302
GRIDFORMAT
  1
GRIDFORMAT_BEGIN
 90
       26
 91
        1
 62
     0
 92
       -2
340
0
 93
        0
 40
0.045
309
GRIDFORMAT_END
 95
        8
302
GRIDFORMAT
  1
GRIDFORMAT_BEGIN
 90
       26
 91
        1
 62
     0
 92
       -2
340
0
 93
        0
 40
0.045
309
GRIDFORMAT_END
 95
       32
302
GRIDFORMAT
  1
GRIDFORMAT_BEGIN
 90
       26
 91
        1
 62
     0
 92
       -2
340
0
 93
        0
 40
0.045
309
GRIDFORMAT_END
309
TABLEFORMAT_END
309
FORMATTEDTABLEDATACELL_END
  1
TABLECELL_BEGIN
 90
        0
 91
        0
309
TABLECELL_END
 91
        0
301
CUSTOMDATA
  1
DATAMAP_BEGIN
 90
        0
309
DATAMAP_END
309
LINKEDTABLEDATAROW_END
  1
FORMATTEDTABLEDATAROW_BEGIN
300
ROWTABLEFORMAT
  1
TABLEFORMAT_BEGIN
 90
        2
170
     0
309
TABLEFORMAT_END
309
FORMATTEDTABLEDATAROW_END
  1
TABLEROW_BEGIN
 90
        1
 40
6.0
309
TABLEROW_END
301
ROW
  1
LINKEDTABLEDATAROW_BEGIN
 90
        5
300
CELL
  1
LINKEDTABLEDATACELL_BEGIN
 90
        0
300

 91
        0
301
CUSTOMDATA
  1
DATAMAP_BEGIN
 90
        0
309
DATAMAP_END
 92
        0
 95
        0
309
LINKEDTABLEDATACELL_END
  1
FORMATTEDTABLEDATACELL_BEGIN
300
CELLTABLEFORMAT
  1
TABLEFORMAT_BEGIN
 90
        1
170
     1
 91
        0
 92
        0
 62
   257
 93
        1
300
CONTENTFORMAT
  1
CONTENTFORMAT_BEGIN
 90
        0
 91
        0
 92
      512
 93
        0
300

 40
0.0
140
1.0
 94
        1
 62
     0
340
0
144
0.18
309
CONTENTFORMAT_END
171
     0
 94
        0
309
TABLEFORMAT_END
309
FORMATTEDTABLEDATACELL_END
  1
TABLECELL_BEGIN
 90
        0
 91
        0
309
TABLECELL_END
300
CELL
  1
LINKEDTABLEDATACELL_BEGIN
 90
        0
300

 91
        0
301
CUSTOMDATA
  1
DATAMAP_BEGIN
 90
        0
309
DATAMAP_END
 92
        0
 95
        0
309
LINKEDTABLEDATACELL_END
  1
FORMATTEDTABLEDATACELL_BEGIN
300
CELLTABLEFORMAT
  1
TABLEFORMAT_BEGIN
 90
        1
170
     1
 91
        0
 92
        0
 62
   257
 93
        1
300
CONTENTFORMAT
  1
CONTENTFORMAT_BEGIN
 90
        0
 91
        0
 92
      512
 93
        0
300

 40
0.0
140
1.0
 94
        1
 62
     0
340
0
144
0.18
309
CONTENTFORMAT_END
171
     0
 94
        0
309
TABLEFORMAT_END
309
FORMATTEDTABLEDATACELL_END
  1
TABLECELL_BEGIN
 90
        0
 91
        0
309
TABLECELL_END
300
CELL
  1
LINKEDTABLEDATACELL_BEGIN
 90
        0
300

 91
        0
301
CUSTOMDATA
  1
DATAMAP_BEGIN
 90
        0
309
DATAMAP_END
 92
        0
 95
        0
309
LINKEDTABLEDATACELL_END
  1
FORMATTEDTABLEDATACELL_BEGIN
300
CELLTABLEFORMAT
  1
TABLEFORMAT_BEGIN
 90
        1
170
     1
 91
        0
 92
        0
 62
   257
 93
        1
300
CONTENTFORMAT
  1
CONTENTFORMAT_BEGIN
 90
        0
 91
        0
 92
      512
 93
        0
300

 40
0.0
140
1.0
 94
        1
 62
     0
340
0
144
0.18
309
CONTENTFORMAT_END
171
     0
 94
        0
309
TABLEFORMAT_END
309
FORMATTEDTABLEDATACELL_END
  1
TABLECELL_BEGIN
 90
        0
 91
        0
309
TABLECELL_END
300
CELL
  1
LINKEDTABLEDATACELL_BEGIN
 90
        0
300

 91
        0
301
CUSTOMDATA
  1
DATAMAP_BEGIN
 90
        1
300
ACAD_ROUNDTRIP_2008_CELL_CHECKSUM
301
DATAMAP_VALUE
 93
        2
 90
        2
140
3105.0
 94
        0
300

302

304
ACVALUE_END
309
DATAMAP_END
 92
        0
 95
        1
302
CONTENT
  1
CELLCONTENT_BEGIN
 90
        1
300
VALUE
 93
        2
 90
        4
  1
Scale:1:1
 94
        0
300

302
Scale:1:1
304
ACVALUE_END
 91
        0
309
CELLCONTENT_END
  1
FORMATTEDCELLCONTENT_BEGIN
170
     1
300
CONTENTFORMAT
  1
CONTENTFORMAT_BEGIN
 90
      132
 91
        0
 92
      512
 93
        0
300

 40
0.0
140
1.0
 94
        1
 62
     0
340
0
144
3.5
309
CONTENTFORMAT_END
309
FORMATTEDCELLCONTENT_END
309
LINKEDTABLEDATACELL_END
  1
FORMATTEDTABLEDATACELL_BEGIN
300
CELLTABLEFORMAT
  1
TABLEFORMAT_BEGIN
 90
        1
170
     1
 91
       16
 92
        0
 62
   257
 93
        1
300
CONTENTFORMAT
  1
CONTENTFORMAT_BEGIN
 90
       16
 91
        0
 92
      512
 93
        0
300

 40
0.0
140
1.0
 94
        1
 62
     0
340
0
144
0.18
309
CONTENTFORMAT_END
171
     0
 94
        4
 95
        1
302
GRIDFORMAT
  1
GRIDFORMAT_BEGIN
 90
       26
 91
        1
 62
     0
 92
       -2
340
0
 93
        0
 40
0.045
309
GRIDFORMAT_END
 95
        4
302
GRIDFORMAT
  1
GRIDFORMAT_BEGIN
 90
       26
 91
        1
 62
     0
 92
       -2
340
0
 93
        0
 40
0.045
309
GRIDFORMAT_END
 95
        8
302
GRIDFORMAT
  1
GRIDFORMAT_BEGIN
 90
       26
 91
        1
 62
     0
 92
       -2
340
0
 93
        0
 40
0.045
309
GRIDFORMAT_END
 95
       32
302
GRIDFORMAT
  1
GRIDFORMAT_BEGIN
 90
       26
 91
        1
 62
     0
 92
       -2
340
0
 93
        0
 40
0.045
309
GRIDFORMAT_END
309
TABLEFORMAT_END
309
FORMATTEDTABLEDATACELL_END
  1
TABLECELL_BEGIN
 90
        0
 91
        0
309
TABLECELL_END
300
CELL
  1
LINKEDTABLEDATACELL_BEGIN
 90
        0
300

 91
        0
301
CUSTOMDATA
  1
DATAMAP_BEGIN
 90
        1
300
ACAD_ROUNDTRIP_2008_CELL_CHECKSUM
301
DATAMAP_VALUE
 93
        2
 90
        2
140
4406.0
 94
        0
300

302

304
ACVALUE_END
309
DATAMAP_END
 92
        0
 95
        1
302
CONTENT
  1
CELLCONTENT_BEGIN
 90
        1
300
VALUE
 93
        2
 90
        4
  1
2500 by 3200
 94
        0
300

302
2500 by 3200
304
ACVALUE_END
 91
        0
309
CELLCONTENT_END
  1
FORMATTEDCELLCONTENT_BEGIN
170
     1
300
CONTENTFORMAT
  1
CONTENTFORMAT_BEGIN
 90
      132
 91
        0
 92
      512
 93
        0
300

 40
0.0
140
1.0
 94
        1
 62
     0
340
0
144
2.0
309
CONTENTFORMAT_END
309
FORMATTEDCELLCONTENT_END
309
LINKEDTABLEDATACELL_END
  1
FORMATTEDTABLEDATACELL_BEGIN
300
CELLTABLEFORMAT
  1
TABLEFORMAT_BEGIN
 90
        1
170
     1
 91
       16
 92
        0
 62
   257
 93
        1
300
CONTENTFORMAT
  1
CONTENTFORMAT_BEGIN
 90
       16
 91
        0
 92
      512
 93
        0
300

 40
0.0
140
1.0
 94
        4
 62
     0
340
0
144
0.18
309
CONTENTFORMAT_END
171
     0
 94
        4
 95
        1
302
GRIDFORMAT
  1
GRIDFORMAT_BEGIN
 90
       26
 91
        1
 62
     0
 92
       -2
340
0
 93
        0
 40
0.045
309
GRIDFORMAT_END
 95
        4
302
GRIDFORMAT
  1
GRIDFORMAT_BEGIN
 90
       26
 91
        1
 62
     0
 92
       -2
340
0
 93
        0
 40
0.045
309
GRIDFORMAT_END
 95
        8
302
GRIDFORMAT
  1
GRIDFORMAT_BEGIN
 90
       26
 91
        1
 62
     0
 92
       -2
340
0
 93
        0
 40
0.045
309
GRIDFORMAT_END
 95
       32
302
GRIDFORMAT
  1
GRIDFORMAT_BEGIN
 90
       26
 91
        1
 62
     0
 92
       -2
340
0
 93
        0
 40
0.045
309
GRIDFORMAT_END
309
TABLEFORMAT_END
309
FORMATTEDTABLEDATACELL_END
  1
TABLECELL_BEGIN
 90
        0
 91
        0
309
TABLECELL_END
 91
        0
301
CUSTOMDATA
  1
DATAMAP_BEGIN
 90
        0
309
DATAMAP_END
309
LINKEDTABLEDATAROW_END
  1
FORMATTEDTABLEDATAROW_BEGIN
300
ROWTABLEFORMAT
  1
TABLEFORMAT_BEGIN
 90
        2
170
     0
309
TABLEFORMAT_END
309
FORMATTEDTABLEDATAROW_END
  1
TABLEROW_BEGIN
 90
        2
 40
6.0
309
TABLEROW_END
301
ROW
  1
LINKEDTABLEDATAROW_BEGIN
 90
        5
300
CELL
  1
LINKEDTABLEDATACELL_BEGIN
 90
        0
300

 91
        0
301
CUSTOMDATA
  1
DATAMAP_BEGIN
 90
        0
309
DATAMAP_END
 92
        0
 95
        0
309
LINKEDTABLEDATACELL_END
  1
FORMATTEDTABLEDATACELL_BEGIN
300
CELLTABLEFORMAT
  1
TABLEFORMAT_BEGIN
 90
        1
170
     1
 91
        0
 92
        0
 62
   257
 93
        1
300
CONTENTFORMAT
  1
CONTENTFORMAT_BEGIN
 90
        0
 91
        0
 92
      512
 93
        0
300

 40
0.0
140
1.0
 94
        1
 62
     0
340
0
144
0.18
309
CONTENTFORMAT_END
171
     0
 94
        0
309
TABLEFORMAT_END
309
FORMATTEDTABLEDATACELL_END
  1
TABLECELL_BEGIN
 90
        0
 91
        0
309
TABLECELL_END
300
CELL
  1
LINKEDTABLEDATACELL_BEGIN
 90
        0
300

 91
        0
301
CUSTOMDATA
  1
DATAMAP_BEGIN
 90
        0
309
DATAMAP_END
 92
        0
 95
        0
309
LINKEDTABLEDATACELL_END
  1
FORMATTEDTABLEDATACELL_BEGIN
300
CELLTABLEFORMAT
  1
TABLEFORMAT_BEGIN
 90
        1
170
     1
 91
        0
 92
        0
 62
   257
 93
        1
300
CONTENTFORMAT
  1
CONTENTFORMAT_BEGIN
 90
        0
 91
        0
 92
      512
 93
        0
300

 40
0.0
140
1.0
 94
        1
 62
     0
340
0
144
0.18
309
CONTENTFORMAT_END
171
     0
 94
        0
309
TABLEFORMAT_END
309
FORMATTEDTABLEDATACELL_END
  1
TABLECELL_BEGIN
 90
        0
 91
        0
309
TABLECELL_END
300
CELL
  1
LINKEDTABLEDATACELL_BEGIN
 90
        0
300

 91
        0
301
CUSTOMDATA
  1
DATAMAP_BEGIN
 90
        0
309
DATAMAP_END
 92
        0
 95
        0
309
LINKEDTABLEDATACELL_END
  1
FORMATTEDTABLEDATACELL_BEGIN
300
CELLTABLEFORMAT
  1
TABLEFORMAT_BEGIN
 90
        1
170
     1
 91
        0
 92
        0
 62
   257
 93
        1
300
CONTENTFORMAT
  1
CONTENTFORMAT_BEGIN
 90
        0
 91
        0
 92
      512
 93
        0
300

 40
0.0
140
1.0
 94
        1
 62
     0
340
0
144
0.18
309
CONTENTFORMAT_END
171
     0
 94
        0
309
TABLEFORMAT_END
309
FORMATTEDTABLEDATACELL_END
  1
TABLECELL_BEGIN
 90
        0
 91
        0
309
TABLECELL_END
300
CELL
  1
LINKEDTABLEDATACELL_BEGIN
 90
        0
300

 91
        0
301
CUSTOMDATA
  1
DATAMAP_BEGIN
 90
        1
300
ACAD_ROUNDTRIP_2008_CELL_CHECKSUM
301
DATAMAP_VALUE
 93
        2
 90
        2
140
29183.0
 94
        0
300

302

304
ACVALUE_END
309
DATAMAP_END
 92
        0
 95
        1
302
CONTENT
  1
CELLCONTENT_BEGIN
 90
        1
300
VALUE
 93
        2
 90
        4
  1
CASSAF.TAGO TRIM 1.3 L=1063 mm
 94
        0
300

302
CASSAF.TAGO TRIM 1.3 L=1063 mm
304
ACVALUE_END
 91
        0
309
CELLCONTENT_END
  1
FORMATTEDCELLCONTENT_BEGIN
170
     1
300
CONTENTFORMAT
  1
CONTENTFORMAT_BEGIN
 90
      132
 91
        0
 92
      512
 93
        0
300

 40
0.0
140
1.0
 94
        1
 62
     0
340
0
144
2.3
309
CONTENTFORMAT_END
309
FORMATTEDCELLCONTENT_END
309
LINKEDTABLEDATACELL_END
  1
FORMATTEDTABLEDATACELL_BEGIN
300
CELLTABLEFORMAT
  1
TABLEFORMAT_BEGIN
 90
        1
170
     1
 91
       16
 92
        0
 62
   257
 93
        1
300
CONTENTFORMAT
  1
CONTENTFORMAT_BEGIN
 90
       16
 91
        0
 92
      512
 93
        0
300

 40
0.0
140
1.0
 94
        4
 62
     0
340
0
144
0.18
309
CONTENTFORMAT_END
171
     0
 94
        4
 95
        1
302
GRIDFORMAT
  1
GRIDFORMAT_BEGIN
 90
       26
 91
        1
 62
     0
 92
       -2
340
0
 93
        0
 40
0.045
309
GRIDFORMAT_END
 95
        4
302
GRIDFORMAT
  1
GRIDFORMAT_BEGIN
 90
       26
 91
        1
 62
     0
 92
       -2
340
0
 93
        0
 40
0.045
309
GRIDFORMAT_END
 95
        8
302
GRIDFORMAT
  1
GRIDFORMAT_BEGIN
 90
       26
 91
        1
 62
     0
 92
       -2
340
0
 93
        0
 40
0.045
309
GRIDFORMAT_END
 95
       32
302
GRIDFORMAT
  1
GRIDFORMAT_BEGIN
 90
       26
 91
        1
 62
     0
 92
       -2
340
0
 93
        0
 40
0.045
309
GRIDFORMAT_END
309
TABLEFORMAT_END
309
FORMATTEDTABLEDATACELL_END
  1
TABLECELL_BEGIN
 90
        0
 91
        0
309
TABLECELL_END
300
CELL
  1
LINKEDTABLEDATACELL_BEGIN
 90
        0
300

 91
        0
301
CUSTOMDATA
  1
DATAMAP_BEGIN
 90
        0
309
DATAMAP_END
 92
        0
 95
        0
309
LINKEDTABLEDATACELL_END
  1
FORMATTEDTABLEDATACELL_BEGIN
300
CELLTABLEFORMAT
  1
TABLEFORMAT_BEGIN
 90
        1
170
     1
 91
        0
 92
        0
 62
   257
 93
        1
300
CONTENTFORMAT
  1
CONTENTFORMAT_BEGIN
 90
        0
 91
        0
 92
      512
 93
        0
300

 40
0.0
140
1.0
 94
        1
 62
     0
340
0
144
0.18
309
CONTENTFORMAT_END
171
     0
 94
        0
309
TABLEFORMAT_END
309
FORMATTEDTABLEDATACELL_END
  1
TABLECELL_BEGIN
 90
        0
 91
        0
309
TABLECELL_END
 91
        0
301
CUSTOMDATA
  1
DATAMAP_BEGIN
 90
        0
309
DATAMAP_END
309
LINKEDTABLEDATAROW_END
  1
FORMATTEDTABLEDATAROW_BEGIN
300
ROWTABLEFORMAT
  1
TABLEFORMAT_BEGIN
 90
        2
170
     0
309
TABLEFORMAT_END
309
FORMATTEDTABLEDATAROW_END
  1
TABLEROW_BEGIN
 90
        3
 40
10.0
309
TABLEROW_END
301
ROW
  1
LINKEDTABLEDATAROW_BEGIN
 90
        5
300
CELL
  1
LINKEDTABLEDATACELL_BEGIN
 90
        0
300

 91
        0
301
CUSTOMDATA
  1
DATAMAP_BEGIN
 90
        0
309
DATAMAP_END
 92
        0
 95
        0
309
LINKEDTABLEDATACELL_END
  1
FORMATTEDTABLEDATACELL_BEGIN
300
CELLTABLEFORMAT
  1
TABLEFORMAT_BEGIN
 90
        1
170
     1
 91
        0
 92
        0
 62
   257
 93
        1
300
CONTENTFORMAT
  1
CONTENTFORMAT_BEGIN
 90
        0
 91
        0
 92
      512
 93
        0
300

 40
0.0
140
1.0
 94
        1
 62
     0
340
0
144
0.18
309
CONTENTFORMAT_END
171
     0
 94
        0
309
TABLEFORMAT_END
309
FORMATTEDTABLEDATACELL_END
  1
TABLECELL_BEGIN
 90
        0
 91
        0
309
TABLECELL_END
300
CELL
  1
LINKEDTABLEDATACELL_BEGIN
 90
        0
300

 91
        0
301
CUSTOMDATA
  1
DATAMAP_BEGIN
 90
        0
309
DATAMAP_END
 92
        0
 95
        0
309
LINKEDTABLEDATACELL_END
  1
FORMATTEDTABLEDATACELL_BEGIN
300
CELLTABLEFORMAT
  1
TABLEFORMAT_BEGIN
 90
        1
170
     1
 91
        0
 92
        0
 62
   257
 93
        1
300
CONTENTFORMAT
  1
CONTENTFORMAT_BEGIN
 90
        0
 91
        0
 92
      512
 93
        0
300

 40
0.0
140
1.0
 94
        1
 62
     0
340
0
144
0.18
309
CONTENTFORMAT_END
171
     0
 94
        0
309
TABLEFORMAT_END
309
FORMATTEDTABLEDATACELL_END
  1
TABLECELL_BEGIN
 90
        0
 91
        0
309
TABLECELL_END
300
CELL
  1
LINKEDTABLEDATACELL_BEGIN
 90
        0
300

 91
        0
301
CUSTOMDATA
  1
DATAMAP_BEGIN
 90
        0
309
DATAMAP_END
 92
        0
 95
        0
309
LINKEDTABLEDATACELL_END
  1
FORMATTEDTABLEDATACELL_BEGIN
300
CELLTABLEFORMAT
  1
TABLEFORMAT_BEGIN
 90
        1
170
     1
 91
        0
 92
        0
 62
   257
 93
        1
300
CONTENTFORMAT
  1
CONTENTFORMAT_BEGIN
 90
        0
 91
        0
 92
      512
 93
        0
300

 40
0.0
140
1.0
 94
        1
 62
     0
340
0
144
0.18
309
CONTENTFORMAT_END
171
     0
 94
        0
309
TABLEFORMAT_END
309
FORMATTEDTABLEDATACELL_END
  1
TABLECELL_BEGIN
 90
        0
 91
        0
309
TABLECELL_END
300
CELL
  1
LINKEDTABLEDATACELL_BEGIN
 90
        0
300

 91
        0
301
CUSTOMDATA
  1
DATAMAP_BEGIN
 90
        1
300
ACAD_ROUNDTRIP_2008_CELL_CHECKSUM
301
DATAMAP_VALUE
 93
        2
 90
        2
140
4714.0
 94
        0
300

302

304
ACVALUE_END
309
DATAMAP_END
 92
        0
 95
        1
302
CONTENT
  1
CELLCONTENT_BEGIN
 90
        1
300
VALUE
 93
        2
 90
        4
  1
DATE:03.03.21
 94
        0
300

302
DATE:03.03.21
304
ACVALUE_END
 91
        0
309
CELLCONTENT_END
  1
FORMATTEDCELLCONTENT_BEGIN
170
     1
300
CONTENTFORMAT
  1
CONTENTFORMAT_BEGIN
 90
      132
 91
        0
 92
      512
 93
        0
300

 40
0.0
140
1.0
 94
        1
 62
     0
340
0
144
2.5
309
CONTENTFORMAT_END
309
FORMATTEDCELLCONTENT_END
309
LINKEDTABLEDATACELL_END
  1
FORMATTEDTABLEDATACELL_BEGIN
300
CELLTABLEFORMAT
  1
TABLEFORMAT_BEGIN
 90
        1
170
     1
 91
       16
 92
        0
 62
   257
 93
        1
300
CONTENTFORMAT
  1
CONTENTFORMAT_BEGIN
 90
       16
 91
        0
 92
      512
 93
        0
300

 40
0.0
140
1.0
 94
        4
 62
     0
340
0
144
0.18
309
CONTENTFORMAT_END
171
     0
 94
        4
 95
        1
302
GRIDFORMAT
  1
GRIDFORMAT_BEGIN
 90
       26
 91
        1
 62
     0
 92
       -2
340
0
 93
        0
 40
0.045
309
GRIDFORMAT_END
 95
        4
302
GRIDFORMAT
  1
GRIDFORMAT_BEGIN
 90
       26
 91
        1
 62
     0
 92
       -2
340
0
 93
        0
 40
0.045
309
GRIDFORMAT_END
 95
        8
302
GRIDFORMAT
  1
GRIDFORMAT_BEGIN
 90
       26
 91
        1
 62
     0
 92
       -2
340
0
 93
        0
 40
0.045
309
GRIDFORMAT_END
 95
       32
302
GRIDFORMAT
  1
GRIDFORMAT_BEGIN
 90
       26
 91
        1
 62
     0
 92
       -2
340
0
 93
        0
 40
0.045
309
GRIDFORMAT_END
309
TABLEFORMAT_END
309
FORMATTEDTABLEDATACELL_END
  1
TABLECELL_BEGIN
 90
        0
 91
        0
309
TABLECELL_END
300
CELL
  1
LINKEDTABLEDATACELL_BEGIN
 90
        0
300

 91
        0
301
CUSTOMDATA
  1
DATAMAP_BEGIN
 90
        0
309
DATAMAP_END
 92
        0
 95
        0
309
LINKEDTABLEDATACELL_END
  1
FORMATTEDTABLEDATACELL_BEGIN
300
CELLTABLEFORMAT
  1
TABLEFORMAT_BEGIN
 90
        1
170
     1
 91
        0
 92
        0
 62
   257
 93
        1
300
CONTENTFORMAT
  1
CONTENTFORMAT_BEGIN
 90
        0
 91
        0
 92
      512
 93
        0
300

 40
0.0
140
1.0
 94
        1
 62
     0
340
0
144
0.18
309
CONTENTFORMAT_END
171
     0
 94
        0
309
TABLEFORMAT_END
309
FORMATTEDTABLEDATACELL_END
  1
TABLECELL_BEGIN
 90
        0
 91
        0
309
TABLECELL_END
 91
        0
301
CUSTOMDATA
  1
DATAMAP_BEGIN
 90
        0
309
DATAMAP_END
309
LINKEDTABLEDATAROW_END
  1
FORMATTEDTABLEDATAROW_BEGIN
300
ROWTABLEFORMAT
  1
TABLEFORMAT_BEGIN
 90
        2
170
     0
309
TABLEFORMAT_END
309
FORMATTEDTABLEDATAROW_END
  1
TABLEROW_BEGIN
 90
        3
 40
5.0
309
TABLEROW_END
301
ROW
  1
LINKEDTABLEDATAROW_BEGIN
 90
        5
300
CELL
  1
LINKEDTABLEDATACELL_BEGIN
 90
        0
300

 91
        0
301
CUSTOMDATA
  1
DATAMAP_BEGIN
 90
        1
300
ACAD_ROUNDTRIP_2008_CELL_CHECKSUM
301
DATAMAP_VALUE
 93
        2
 90
        2
140
1361482.0
 94
        0
300

302

304
ACVALUE_END
309
DATAMAP_END
 92
        0
 95
        1
302
CONTENT
  1
CELLCONTENT_BEGIN
 90
        1
300
VALUE
 93
        2
 90
        4
  1
Any integral or partial reproductions are prohibited \Pwithout prior authorisation of L & L Luce & Light s.r.l., \Pin accordance with the law in force. \PAll rights reserved.
 94
        0
300

302
Any integral or partial reproductions are prohibited \Pwithout prior authorisation of L & L Luce & Light s.r.l., \Pin accordance with the law in force. \PAll rights reserved.
304
ACVALUE_END
 91
        0
309
CELLCONTENT_END
  1
FORMATTEDCELLCONTENT_BEGIN
170
     1
300
CONTENTFORMAT
  1
CONTENTFORMAT_BEGIN
 90
      132
 91
        0
 92
      512
 93
        0
300

 40
0.0
140
1.0
 94
        1
 62
     0
340
0
144
2.25
309
CONTENTFORMAT_END
309
FORMATTEDCELLCONTENT_END
309
LINKEDTABLEDATACELL_END
  1
FORMATTEDTABLEDATACELL_BEGIN
300
CELLTABLEFORMAT
  1
TABLEFORMAT_BEGIN
 90
        1
170
     1
 91
       16
 92
        0
 62
   257
 93
        1
300
CONTENTFORMAT
  1
CONTENTFORMAT_BEGIN
 90
       16
 91
        0
 92
      512
 93
        0
300

 40
0.0
140
1.0
 94
        4
 62
     0
340
0
144
0.18
309
CONTENTFORMAT_END
171
     0
 94
        4
 95
        1
302
GRIDFORMAT
  1
GRIDFORMAT_BEGIN
 90
       26
 91
        1
 62
     0
 92
       -2
340
0
 93
        0
 40
0.045
309
GRIDFORMAT_END
 95
        4
302
GRIDFORMAT
  1
GRIDFORMAT_BEGIN
 90
       26
 91
        1
 62
     0
 92
       -2
340
0
 93
        0
 40
0.045
309
GRIDFORMAT_END
 95
        8
302
GRIDFORMAT
  1
GRIDFORMAT_BEGIN
 90
       26
 91
        1
 62
     0
 92
       -2
340
0
 93
        0
 40
0.045
309
GRIDFORMAT_END
 95
       32
302
GRIDFORMAT
  1
GRIDFORMAT_BEGIN
 90
       26
 91
        1
 62
     0
 92
       -2
340
0
 93
        0
 40
0.045
309
GRIDFORMAT_END
309
TABLEFORMAT_END
309
FORMATTEDTABLEDATACELL_END
  1
TABLECELL_BEGIN
 90
        0
 91
        0
309
TABLECELL_END
300
CELL
  1
LINKEDTABLEDATACELL_BEGIN
 90
        0
300

 91
        0
301
CUSTOMDATA
  1
DATAMAP_BEGIN
 90
        0
309
DATAMAP_END
 92
        0
 95
        0
309
LINKEDTABLEDATACELL_END
  1
FORMATTEDTABLEDATACELL_BEGIN
300
CELLTABLEFORMAT
  1
TABLEFORMAT_BEGIN
 90
        1
170
     1
 91
        0
 92
        0
 62
   257
 93
        1
300
CONTENTFORMAT
  1
CONTENTFORMAT_BEGIN
 90
        0
 91
        0
 92
      512
 93
        0
300

 40
0.0
140
1.0
 94
        1
 62
     0
340
0
144
0.18
309
CONTENTFORMAT_END
171
     0
 94
        0
309
TABLEFORMAT_END
309
FORMATTEDTABLEDATACELL_END
  1
TABLECELL_BEGIN
 90
        0
 91
        0
309
TABLECELL_END
300
CELL
  1
LINKEDTABLEDATACELL_BEGIN
 90
        0
300

 91
        0
301
CUSTOMDATA
  1
DATAMAP_BEGIN
 90
        0
309
DATAMAP_END
 92
        0
 95
        0
309
LINKEDTABLEDATACELL_END
  1
FORMATTEDTABLEDATACELL_BEGIN
300
CELLTABLEFORMAT
  1
TABLEFORMAT_BEGIN
 90
        1
170
     1
 91
        0
 92
        0
 62
   257
 93
        1
300
CONTENTFORMAT
  1
CONTENTFORMAT_BEGIN
 90
        0
 91
        0
 92
      512
 93
        0
300

 40
0.0
140
1.0
 94
        1
 62
     0
340
0
144
0.18
309
CONTENTFORMAT_END
171
     0
 94
        0
309
TABLEFORMAT_END
309
FORMATTEDTABLEDATACELL_END
  1
TABLECELL_BEGIN
 90
        0
 91
        0
309
TABLECELL_END
300
CELL
  1
LINKEDTABLEDATACELL_BEGIN
 90
        0
300

 91
        0
301
CUSTOMDATA
  1
DATAMAP_BEGIN
 90
        0
309
DATAMAP_END
 92
        0
 95
        0
309
LINKEDTABLEDATACELL_END
  1
FORMATTEDTABLEDATACELL_BEGIN
300
CELLTABLEFORMAT
  1
TABLEFORMAT_BEGIN
 90
        1
170
     1
 91
        0
 92
        0
 62
   257
 93
        1
300
CONTENTFORMAT
  1
CONTENTFORMAT_BEGIN
 90
        0
 91
        0
 92
      512
 93
        0
300

 40
0.0
140
1.0
 94
        1
 62
     0
340
0
144
0.18
309
CONTENTFORMAT_END
171
     0
 94
        0
309
TABLEFORMAT_END
309
FORMATTEDTABLEDATACELL_END
  1
TABLECELL_BEGIN
 90
        0
 91
        0
309
TABLECELL_END
300
CELL
  1
LINKEDTABLEDATACELL_BEGIN
 90
        0
300

 91
        0
301
CUSTOMDATA
  1
DATAMAP_BEGIN
 90
        0
309
DATAMAP_END
 92
        0
 95
        0
309
LINKEDTABLEDATACELL_END
  1
FORMATTEDTABLEDATACELL_BEGIN
300
CELLTABLEFORMAT
  1
TABLEFORMAT_BEGIN
 90
        1
170
     1
 91
        0
 92
        0
 62
   257
 93
        1
300
CONTENTFORMAT
  1
CONTENTFORMAT_BEGIN
 90
        0
 91
        0
 92
      512
 93
        0
300

 40
0.0
140
1.0
 94
        1
 62
     0
340
0
144
0.18
309
CONTENTFORMAT_END
171
     0
 94
        0
309
TABLEFORMAT_END
309
FORMATTEDTABLEDATACELL_END
  1
TABLECELL_BEGIN
 90
        0
 91
        0
309
TABLECELL_END
 91
        0
301
CUSTOMDATA
  1
DATAMAP_BEGIN
 90
        0
309
DATAMAP_END
309
LINKEDTABLEDATAROW_END
  1
FORMATTEDTABLEDATAROW_BEGIN
300
ROWTABLEFORMAT
  1
TABLEFORMAT_BEGIN
 90
        2
170
     0
309
TABLEFORMAT_END
309
FORMATTEDTABLEDATAROW_END
  1
TABLEROW_BEGIN
 90
        3
 40
13.0
309
TABLEROW_END
100
AcDbFormattedTableData
300
TABLEFORMAT
  1
TABLEFORMAT_BEGIN
 90
        4
170
     1
 91
    15360
 92
        0
 62
   257
 93
        1
300
CONTENTFORMAT
  1
CONTENTFORMAT_BEGIN
 90
        0
 91
        0
 92
      512
 93
        0
300

 40
0.0
140
1.0
 94
        1
 62
     0
340
0
144
0.18
309
CONTENTFORMAT_END
171
     1
301
MARGIN
  1
CELLMARGIN_BEGIN
 40
0.06
 40
0.06
 40
0.06
 40
0.06
 40
0.06
 40
0.06
309
CELLMARGIN_END
 94
        0
309
TABLEFORMAT_END
 90
        4
 91
        0
 92
        0
 93
        3
 94
        2
 91
        2
 92
        3
 93
        2
 94
        4
 91
        3
 92
        3
 93
        3
 94
        4
 91
        4
 92
        0
 93
        4
 94
        4
100
AcDbTableContent
340
584
  0
TABLEGEOMETRY
  5
5B1
330
5B3
100
AcDbTableGeometry
 90
        5
 91
        5
 92
       25
 93
        0
 40
0.0
 41
0.0
330
0
 94
        0
 93
        0
 40
0.0
 41
0.0
330
0
 94
        0
 93
        0
 40
0.0
 41
0.0
330
0
 94
        0
 93
        0
 40
0.0
 41
0.0
330
0
 94
        0
 93
        0
 40
0.0
 41
0.0
330
0
 94
        0
 93
        0
 40
0.0
 41
0.0
330
0
 94
        0
 93
        0
 40
0.0
 41
0.0
330
0
 94
        0
 93
        0
 40
0.0
 41
0.0
330
0
 94
        0
 93
        0
 40
0.0
 41
0.0
330
0
 94
        0
 93
        0
 40
0.0
 41
0.0
330
0
 94
        0
 93
        0
 40
0.0
 41
0.0
330
0
 94
        0
 93
        0
 40
0.0
 41
0.0
330
0
 94
        0
 93
        0
 40
0.0
 41
0.0
330
0
 94
        0
 93
        0
 40
0.0
 41
0.0
330
0
 94
        0
 93
        0
 40
0.0
 41
0.0
330
0
 94
        0
 93
        0
 40
0.0
 41
0.0
330
0
 94
        0
 93
        0
 40
0.0
 41
0.0
330
0
 94
        0
 93
        0
 40
0.0
 41
0.0
330
0
 94
        0
 93
        0
 40
0.0
 41
0.0
330
0
 94
        0
 93
        0
 40
0.0
 41
0.0
330
0
 94
        0
 93
        0
 40
0.0
 41
0.0
330
0
 94
        0
 93
        0
 40
0.0
 41
0.0
330
0
 94
        0
 93
        0
 40
0.0
 41
0.0
330
0
 94
        0
 93
        0
 40
0.0
 41
0.0
330
0
 94
        0
 93
        0
 40
0.0
 41
0.0
330
0
 94
        0
  0
DICTIONARY
  5
5B6
330
584
100
AcDbDictionary
280
     1
281
     1
  3
ACAD_ROUNDTRIP_2008_TABLESTYLE_CELLSTYLEMAP
360
5B7
  0
DICTIONARY
  5
5C0
330
58B
100
AcDbDictionary
280
     1
281
     1
  3
ACAD_XREC_ROUNDTRIP
360
5C1
  0
DICTIONARY
  5
5C6
330
58E
100
AcDbDictionary
280
     1
281
     1
  3
ACAD_XREC_ROUNDTRIP
360
5C7
  0
DICTIONARY
  5
5CE
330
592
100
AcDbDictionary
280
     1
281
     1
  3
ACAD_XREC_ROUNDTRIP
360
5CF
  0
DICTIONARY
  5
5D6
330
596
100
AcDbDictionary
280
     1
281
     1
  3
ACAD_XREC_ROUNDTRIP
360
5D7
  0
DICTIONARY
  5
5CA
330
590
100
AcDbDictionary
280
     1
281
     1
  3
ACAD_XREC_ROUNDTRIP
360
5CB
  0
DICTIONARY
  5
5CC
330
591
100
AcDbDictionary
280
     1
281
     1
  3
ACAD_XREC_ROUNDTRIP
360
5CD
  0
DICTIONARY
  5
5DC
330
599
100
AcDbDictionary
280
     1
281
     1
  3
ACAD_XREC_ROUNDTRIP
360
5DD
  0
DICTIONARY
  5
5D4
330
595
100
AcDbDictionary
280
     1
281
     1
  3
ACAD_XREC_ROUNDTRIP
360
5D5
  0
DICTIONARY
  5
5B8
330
587
100
AcDbDictionary
280
     1
281
     1
  3
ACAD_XREC_ROUNDTRIP
360
5B9
  0
DICTIONARY
  5
5BA
330
588
100
AcDbDictionary
280
     1
281
     1
  3
ACAD_XREC_ROUNDTRIP
360
5BB
  0
DICTIONARY
  5
5BC
330
589
100
AcDbDictionary
280
     1
281
     1
  3
ACAD_XREC_ROUNDTRIP
360
5BD
  0
DICTIONARY
  5
5BE
330
58A
100
AcDbDictionary
280
     1
281
     1
  3
ACAD_XREC_ROUNDTRIP
360
5BF
  0
DICTIONARY
  5
5C4
330
58D
100
AcDbDictionary
280
     1
281
     1
  3
ACAD_XREC_ROUNDTRIP
360
5C5
  0
DICTIONARY
  5
5D8
330
597
100
AcDbDictionary
280
     1
281
     1
  3
ACAD_XREC_ROUNDTRIP
360
5D9
  0
DICTIONARY
  5
5D2
330
594
100
AcDbDictionary
280
     1
281
     1
  3
ACAD_XREC_ROUNDTRIP
360
5D3
  0
DICTIONARY
  5
5DA
330
598
100
AcDbDictionary
280
     1
281
     1
  3
ACAD_XREC_ROUNDTRIP
360
5DB
  0
DICTIONARY
  5
5C8
330
58F
100
AcDbDictionary
280
     1
281
     1
  3
ACAD_XREC_ROUNDTRIP
360
5C9
  0
DICTIONARY
  5
5E6
330
59E
100
AcDbDictionary
280
     1
281
     1
  3
ACAD_XREC_ROUNDTRIP
360
5E7
  0
DICTIONARY
  5
5E4
330
59D
100
AcDbDictionary
280
     1
281
     1
  3
ACAD_XREC_ROUNDTRIP
360
5E5
  0
DICTIONARY
  5
5DE
330
59A
100
AcDbDictionary
280
     1
281
     1
  3
ACAD_XREC_ROUNDTRIP
360
5DF
  0
DICTIONARY
  5
5E0
330
59B
100
AcDbDictionary
280
     1
281
     1
  3
ACAD_XREC_ROUNDTRIP
360
5E1
  0
DICTIONARY
  5
5D0
330
593
100
AcDbDictionary
280
     1
281
     1
  3
ACAD_XREC_ROUNDTRIP
360
5D1
  0
DICTIONARY
  5
5C2
330
58C
100
AcDbDictionary
280
     1
281
     1
  3
ACAD_XREC_ROUNDTRIP
360
5C3
  0
DICTIONARY
  5
5E2
330
59C
100
AcDbDictionary
280
     1
281
     1
  3
ACAD_XREC_ROUNDTRIP
360
5E3
  0
CELLSTYLEMAP
  5
5B7
102
{ACAD_REACTORS
330
5B6
102
}
330
5B6
100
AcDbCellStyleMap
 90
        3
300
CELLSTYLE
  1
TABLEFORMAT_BEGIN
 90
        5
170
     1
 91
        0
 92
        0
 62
   257
 93
        1
300
CONTENTFORMAT
  1
CONTENTFORMAT_BEGIN
 90
        0
 91
        0
 92
        4
 93
        0
300

 40
0.0
140
1.0
 94
        5
 62
     0
340
11
144
6.0
309
CONTENTFORMAT_END
171
     1
301
MARGIN
  1
CELLMARGIN_BEGIN
 40
1.5
 40
1.5
 40
1.5
 40
1.5
 40
1.5
 40
1.5
309
CELLMARGIN_END
 94
        6
 95
        1
302
GRIDFORMAT
  1
GRIDFORMAT_BEGIN
 90
        0
 91
        1
 62
     0
 92
       -2
340
14
 93
        0
 40
0.045
309
GRIDFORMAT_END
 95
        2
302
GRIDFORMAT
  1
GRIDFORMAT_BEGIN
 90
        0
 91
        1
 62
     0
 92
       -2
340
14
 93
        0
 40
0.045
309
GRIDFORMAT_END
 95
        4
302
GRIDFORMAT
  1
GRIDFORMAT_BEGIN
 90
        0
 91
        1
 62
     0
 92
       -2
340
14
 93
        0
 40
0.045
309
GRIDFORMAT_END
 95
        8
302
GRIDFORMAT
  1
GRIDFORMAT_BEGIN
 90
        0
 91
        1
 62
     0
 92
       -2
340
14
 93
        0
 40
0.045
309
GRIDFORMAT_END
 95
       16
302
GRIDFORMAT
  1
GRIDFORMAT_BEGIN
 90
        0
 91
        1
 62
     0
 92
       -2
340
14
 93
        0
 40
0.045
309
GRIDFORMAT_END
 95
       32
302
GRIDFORMAT
  1
GRIDFORMAT_BEGIN
 90
        0
 91
        1
 62
     0
 92
       -2
340
14
 93
        0
 40
0.045
309
GRIDFORMAT_END
309
TABLEFORMAT_END
  1
CELLSTYLE_BEGIN
 90
        1
 91
        1
300
_TITLE
309
CELLSTYLE_END
300
CELLSTYLE
  1
TABLEFORMAT_BEGIN
 90
        5
170
     1
 91
        0
 92
        0
 62
   257
 93
        1
300
CONTENTFORMAT
  1
CONTENTFORMAT_BEGIN
 90
        0
 91
        0
 92
        4
 93
        0
300

 40
0.0
140
1.0
 94
        5
 62
     0
340
11
144
4.5
309
CONTENTFORMAT_END
171
     1
301
MARGIN
  1
CELLMARGIN_BEGIN
 40
1.5
 40
1.5
 40
1.5
 40
1.5
 40
1.5
 40
1.5
309
CELLMARGIN_END
 94
        6
 95
        1
302
GRIDFORMAT
  1
GRIDFORMAT_BEGIN
 90
        0
 91
        1
 62
     0
 92
       -2
340
14
 93
        0
 40
0.045
309
GRIDFORMAT_END
 95
        2
302
GRIDFORMAT
  1
GRIDFORMAT_BEGIN
 90
        0
 91
        1
 62
     0
 92
       -2
340
14
 93
        0
 40
0.045
309
GRIDFORMAT_END
 95
        4
302
GRIDFORMAT
  1
GRIDFORMAT_BEGIN
 90
        0
 91
        1
 62
     0
 92
       -2
340
14
 93
        0
 40
0.045
309
GRIDFORMAT_END
 95
        8
302
GRIDFORMAT
  1
GRIDFORMAT_BEGIN
 90
        0
 91
        1
 62
     0
 92
       -2
340
14
 93
        0
 40
0.045
309
GRIDFORMAT_END
 95
       16
302
GRIDFORMAT
  1
GRIDFORMAT_BEGIN
 90
        0
 91
        1
 62
     0
 92
       -2
340
14
 93
        0
 40
0.045
309
GRIDFORMAT_END
 95
       32
302
GRIDFORMAT
  1
GRIDFORMAT_BEGIN
 90
        0
 91
        1
 62
     0
 92
       -2
340
14
 93
        0
 40
0.045
309
GRIDFORMAT_END
309
TABLEFORMAT_END
  1
CELLSTYLE_BEGIN
 90
        2
 91
        1
300
_HEADER
309
CELLSTYLE_END
300
CELLSTYLE
  1
TABLEFORMAT_BEGIN
 90
        5
170
     1
 91
        0
 92
        0
 62
   257
 93
        1
300
CONTENTFORMAT
  1
CONTENTFORMAT_BEGIN
 90
        0
 91
        0
 92
        4
 93
        0
300

 40
0.0
140
1.0
 94
        2
 62
     0
340
11
144
4.5
309
CONTENTFORMAT_END
171
     1
301
MARGIN
  1
CELLMARGIN_BEGIN
 40
1.5
 40
1.5
 40
1.5
 40
1.5
 40
1.5
 40
1.5
309
CELLMARGIN_END
 94
        6
 95
        1
302
GRIDFORMAT
  1
GRIDFORMAT_BEGIN
 90
        0
 91
        1
 62
     0
 92
       -2
340
14
 93
        0
 40
0.045
309
GRIDFORMAT_END
 95
        2
302
GRIDFORMAT
  1
GRIDFORMAT_BEGIN
 90
        0
 91
        1
 62
     0
 92
       -2
340
14
 93
        0
 40
0.045
309
GRIDFORMAT_END
 95
        4
302
GRIDFORMAT
  1
GRIDFORMAT_BEGIN
 90
        0
 91
        1
 62
     0
 92
       -2
340
14
 93
        0
 40
0.045
309
GRIDFORMAT_END
 95
        8
302
GRIDFORMAT
  1
GRIDFORMAT_BEGIN
 90
        0
 91
        1
 62
     0
 92
       -2
340
14
 93
        0
 40
0.045
309
GRIDFORMAT_END
 95
       16
302
GRIDFORMAT
  1
GRIDFORMAT_BEGIN
 90
        0
 91
        1
 62
     0
 92
       -2
340
14
 93
        0
 40
0.045
309
GRIDFORMAT_END
 95
       32
302
GRIDFORMAT
  1
GRIDFORMAT_BEGIN
 90
        0
 91
        1
 62
     0
 92
       -2
340
14
 93
        0
 40
0.045
309
GRIDFORMAT_END
309
TABLEFORMAT_END
  1
CELLSTYLE_BEGIN
 90
        3
 91
        2
300
_DATA
309
CELLSTYLE_END
  0
XRECORD
  5
5C1
102
{ACAD_REACTORS
330
5C0
102
}
330
5C0
100
AcDbXrecord
280
     1
102
RTVSPost2010Prop28
280
     1
102
RTVSPost2010PropOp28
 70
     1
102
RTVSPost2010Prop29
280
     1
102
RTVSPost2010PropOp29
 70
     1
102
RTVSPost2010Prop30
280
     0
102
RTVSPost2010PropOp30
 70
     1
102
RTVSPost2010Prop31
280
     0
102
RTVSPost2010PropOp31
 70
     1
102
RTVSPost2010Prop32
280
     0
102
RTVSPost2010PropOp32
 70
     1
102
RTVSPost2010Prop33
280
     0
102
RTVSPost2010PropOp33
 70
     1
102
RTVSPost2010Prop34
280
     0
102
RTVSPost2010PropOp34
 70
     1
102
RTVSPost2010Prop35
280
     0
102
RTVSPost2010PropOp35
 70
     1
102
RTVSPost2010Prop36
280
     0
102
RTVSPost2010PropOp36
 70
     1
102
RTVSPost2010Prop37
 90
       50
102
RTVSPost2010PropOp37
 70
     1
102
RTVSPost2010Prop38
140
0.0
102
RTVSPost2010PropOp38
 70
     1
102
RTVSPost2010Prop39
140
1.0
102
RTVSPost2010PropOp39
 70
     1
102
RTVSPost2010Prop40
 90
        0
102
RTVSPost2010PropOp40
 70
     1
102
RTVSPost2010Prop41ColorIndex
 90
       18
102
RTVSPost2010Prop41ColorRGB
 90
        0
102
RTVSPost2010PropOp41
 70
     1
102
RTVSPost2010Prop42
 90
       50
102
RTVSPost2010PropOp42
 70
     1
102
RTVSPost2010Prop43
 90
        3
102
RTVSPost2010PropOp43
 70
     1
102
RTVSPost2010Prop44ColorIndex
 90
        5
102
RTVSPost2010Prop44ColorRGB
 90
      255
102
RTVSPost2010PropOp44
 70
     1
102
RTVSPost2010Prop45
280
     0
102
RTVSPost2010PropOp45
 70
     1
102
RTVSPost2010Prop46
 90
       50
102
RTVSPost2010PropOp46
 70
     1
102
RTVSPost2010Prop47
 90
       50
102
RTVSPost2010PropOp47
 70
     1
102
RTVSPost2010Prop48
 90
       50
102
RTVSPost2010PropOp48
 70
     1
102
RTVSPost2010Prop49
280
     0
102
RTVSPost2010PropOp49
 70
     1
102
RTVSPost2010Prop50
 90
       50
102
RTVSPost2010PropOp50
 70
     1
102
RTVSPost2010Prop51ColorIndex
 90
      256
102
RTVSPost2010Prop51ColorRGB
 90
-16777216
102
RTVSPost2010PropOp51
 70
     0
102
RTVSPost2010Prop52
140
1.0
102
RTVSPost2010PropOp52
 70
     0
102
RTVSPost2010Prop53
 90
        2
102
RTVSPost2010PropOp53
 70
     1
102
RTVSPost2010Prop54
  1
strokes_ogs.tif
102
RTVSPost2010PropOp54
 70
     1
102
RTVSPost2010Prop55
280
     0
102
RTVSPost2010PropOp55
 70
     1
102
RTVSPost2010Prop56
140
1.0
102
RTVSPost2010PropOp56
 70
     1
102
RTVSPost2010Prop57
140
1.0
102
RTVSPost2010PropOp57
 70
     1
  0
XRECORD
  5
5C7
102
{ACAD_REACTORS
330
5C6
102
}
330
5C6
100
AcDbXrecord
280
     1
102
RTVSPost2010Prop28
280
     0
102
RTVSPost2010PropOp28
 70
     1
102
RTVSPost2010Prop29
280
     1
102
RTVSPost2010PropOp29
 70
     1
102
RTVSPost2010Prop30
280
     1
102
RTVSPost2010PropOp30
 70
     1
102
RTVSPost2010Prop31
280
     0
102
RTVSPost2010PropOp31
 70
     1
102
RTVSPost2010Prop32
280
     0
102
RTVSPost2010PropOp32
 70
     1
102
RTVSPost2010Prop33
280
     0
102
RTVSPost2010PropOp33
 70
     1
102
RTVSPost2010Prop34
280
     0
102
RTVSPost2010PropOp34
 70
     1
102
RTVSPost2010Prop35
280
     0
102
RTVSPost2010PropOp35
 70
     1
102
RTVSPost2010Prop36
280
     0
102
RTVSPost2010PropOp36
 70
     1
102
RTVSPost2010Prop37
 90
       50
102
RTVSPost2010PropOp37
 70
     1
102
RTVSPost2010Prop38
140
0.0
102
RTVSPost2010PropOp38
 70
     1
102
RTVSPost2010Prop39
140
1.0
102
RTVSPost2010PropOp39
 70
     1
102
RTVSPost2010Prop40
 90
        0
102
RTVSPost2010PropOp40
 70
     1
102
RTVSPost2010Prop41ColorIndex
 90
       18
102
RTVSPost2010Prop41ColorRGB
 90
        0
102
RTVSPost2010PropOp41
 70
     1
102
RTVSPost2010Prop42
 90
       50
102
RTVSPost2010PropOp42
 70
     1
102
RTVSPost2010Prop43
 90
        3
102
RTVSPost2010PropOp43
 70
     1
102
RTVSPost2010Prop44ColorIndex
 90
        5
102
RTVSPost2010Prop44ColorRGB
 90
      255
102
RTVSPost2010PropOp44
 70
     1
102
RTVSPost2010Prop45
280
     0
102
RTVSPost2010PropOp45
 70
     1
102
RTVSPost2010Prop46
 90
       50
102
RTVSPost2010PropOp46
 70
     1
102
RTVSPost2010Prop47
 90
       50
102
RTVSPost2010PropOp47
 70
     1
102
RTVSPost2010Prop48
 90
       50
102
RTVSPost2010PropOp48
 70
     1
102
RTVSPost2010Prop49
280
     0
102
RTVSPost2010PropOp49
 70
     1
102
RTVSPost2010Prop50
 90
       50
102
RTVSPost2010PropOp50
 70
     1
102
RTVSPost2010Prop51ColorIndex
 90
      256
102
RTVSPost2010Prop51ColorRGB
 90
-16777216
102
RTVSPost2010PropOp51
 70
     0
102
RTVSPost2010Prop52
140
1.0
102
RTVSPost2010PropOp52
 70
     0
102
RTVSPost2010Prop53
 90
        2
102
RTVSPost2010PropOp53
 70
     1
102
RTVSPost2010Prop54
  1
strokes_ogs.tif
102
RTVSPost2010PropOp54
 70
     1
102
RTVSPost2010Prop55
280
     0
102
RTVSPost2010PropOp55
 70
     1
102
RTVSPost2010Prop56
140
1.0
102
RTVSPost2010PropOp56
 70
     1
102
RTVSPost2010Prop57
140
1.0
102
RTVSPost2010PropOp57
 70
     1
  0
XRECORD
  5
5CF
102
{ACAD_REACTORS
330
5CE
102
}
330
5CE
100
AcDbXrecord
280
     1
102
RTVSPost2010Prop28
280
     0
102
RTVSPost2010PropOp28
 70
     1
102
RTVSPost2010Prop29
280
     1
102
RTVSPost2010PropOp29
 70
     1
102
RTVSPost2010Prop30
280
     1
102
RTVSPost2010PropOp30
 70
     1
102
RTVSPost2010Prop31
280
     0
102
RTVSPost2010PropOp31
 70
     1
102
RTVSPost2010Prop32
280
     0
102
RTVSPost2010PropOp32
 70
     1
102
RTVSPost2010Prop33
280
     0
102
RTVSPost2010PropOp33
 70
     1
102
RTVSPost2010Prop34
280
     0
102
RTVSPost2010PropOp34
 70
     1
102
RTVSPost2010Prop35
280
     0
102
RTVSPost2010PropOp35
 70
     1
102
RTVSPost2010Prop36
280
     0
102
RTVSPost2010PropOp36
 70
     1
102
RTVSPost2010Prop37
 90
       50
102
RTVSPost2010PropOp37
 70
     1
102
RTVSPost2010Prop38
140
0.0
102
RTVSPost2010PropOp38
 70
     1
102
RTVSPost2010Prop39
140
1.0
102
RTVSPost2010PropOp39
 70
     1
102
RTVSPost2010Prop40
 90
        0
102
RTVSPost2010PropOp40
 70
     1
102
RTVSPost2010Prop41ColorIndex
 90
       18
102
RTVSPost2010Prop41ColorRGB
 90
        0
102
RTVSPost2010PropOp41
 70
     1
102
RTVSPost2010Prop42
 90
       50
102
RTVSPost2010PropOp42
 70
     1
102
RTVSPost2010Prop43
 90
        3
102
RTVSPost2010PropOp43
 70
     1
102
RTVSPost2010Prop44ColorIndex
 90
        5
102
RTVSPost2010Prop44ColorRGB
 90
      255
102
RTVSPost2010PropOp44
 70
     1
102
RTVSPost2010Prop45
280
     0
102
RTVSPost2010PropOp45
 70
     1
102
RTVSPost2010Prop46
 90
       50
102
RTVSPost2010PropOp46
 70
     1
102
RTVSPost2010Prop47
 90
       50
102
RTVSPost2010PropOp47
 70
     1
102
RTVSPost2010Prop48
 90
       50
102
RTVSPost2010PropOp48
 70
     1
102
RTVSPost2010Prop49
280
     0
102
RTVSPost2010PropOp49
 70
     1
102
RTVSPost2010Prop50
 90
       50
102
RTVSPost2010PropOp50
 70
     1
102
RTVSPost2010Prop51ColorIndex
 90
      256
102
RTVSPost2010Prop51ColorRGB
 90
-16777216
102
RTVSPost2010PropOp51
 70
     0
102
RTVSPost2010Prop52
140
1.0
102
RTVSPost2010PropOp52
 70
     0
102
RTVSPost2010Prop53
 90
        2
102
RTVSPost2010PropOp53
 70
     1
102
RTVSPost2010Prop54
  1
strokes_ogs.tif
102
RTVSPost2010PropOp54
 70
     1
102
RTVSPost2010Prop55
280
     0
102
RTVSPost2010PropOp55
 70
     1
102
RTVSPost2010Prop56
140
1.0
102
RTVSPost2010PropOp56
 70
     1
102
RTVSPost2010Prop57
140
1.0
102
RTVSPost2010PropOp57
 70
     1
  0
XRECORD
  5
5D7
102
{ACAD_REACTORS
330
5D6
102
}
330
5D6
100
AcDbXrecord
280
     1
102
RTVSPost2010Prop28
280
     0
102
RTVSPost2010PropOp28
 70
     1
102
RTVSPost2010Prop29
280
     1
102
RTVSPost2010PropOp29
 70
     1
102
RTVSPost2010Prop30
280
     1
102
RTVSPost2010PropOp30
 70
     1
102
RTVSPost2010Prop31
280
     0
102
RTVSPost2010PropOp31
 70
     1
102
RTVSPost2010Prop32
280
     0
102
RTVSPost2010PropOp32
 70
     1
102
RTVSPost2010Prop33
280
     0
102
RTVSPost2010PropOp33
 70
     1
102
RTVSPost2010Prop34
280
     0
102
RTVSPost2010PropOp34
 70
     1
102
RTVSPost2010Prop35
280
     0
102
RTVSPost2010PropOp35
 70
     1
102
RTVSPost2010Prop36
280
     0
102
RTVSPost2010PropOp36
 70
     1
102
RTVSPost2010Prop37
 90
       50
102
RTVSPost2010PropOp37
 70
     1
102
RTVSPost2010Prop38
140
0.0
102
RTVSPost2010PropOp38
 70
     1
102
RTVSPost2010Prop39
140
1.0
102
RTVSPost2010PropOp39
 70
     1
102
RTVSPost2010Prop40
 90
        0
102
RTVSPost2010PropOp40
 70
     1
102
RTVSPost2010Prop41ColorIndex
 90
       18
102
RTVSPost2010Prop41ColorRGB
 90
        0
102
RTVSPost2010PropOp41
 70
     1
102
RTVSPost2010Prop42
 90
       50
102
RTVSPost2010PropOp42
 70
     1
102
RTVSPost2010Prop43
 90
        3
102
RTVSPost2010PropOp43
 70
     1
102
RTVSPost2010Prop44ColorIndex
 90
        5
102
RTVSPost2010Prop44ColorRGB
 90
      255
102
RTVSPost2010PropOp44
 70
     1
102
RTVSPost2010Prop45
280
     0
102
RTVSPost2010PropOp45
 70
     1
102
RTVSPost2010Prop46
 90
       50
102
RTVSPost2010PropOp46
 70
     1
102
RTVSPost2010Prop47
 90
       50
102
RTVSPost2010PropOp47
 70
     1
102
RTVSPost2010Prop48
 90
       50
102
RTVSPost2010PropOp48
 70
     1
102
RTVSPost2010Prop49
280
     0
102
RTVSPost2010PropOp49
 70
     1
102
RTVSPost2010Prop50
 90
       50
102
RTVSPost2010PropOp50
 70
     1
102
RTVSPost2010Prop51ColorIndex
 90
      256
102
RTVSPost2010Prop51ColorRGB
 90
-16777216
102
RTVSPost2010PropOp51
 70
     0
102
RTVSPost2010Prop52
140
1.0
102
RTVSPost2010PropOp52
 70
     0
102
RTVSPost2010Prop53
 90
        2
102
RTVSPost2010PropOp53
 70
     1
102
RTVSPost2010Prop54
  1
strokes_ogs.tif
102
RTVSPost2010PropOp54
 70
     1
102
RTVSPost2010Prop55
280
     0
102
RTVSPost2010PropOp55
 70
     1
102
RTVSPost2010Prop56
140
1.0
102
RTVSPost2010PropOp56
 70
     1
102
RTVSPost2010Prop57
140
1.0
102
RTVSPost2010PropOp57
 70
     1
  0
XRECORD
  5
5CB
102
{ACAD_REACTORS
330
5CA
102
}
330
5CA
100
AcDbXrecord
280
     1
102
RTVSPost2010Prop28
280
     0
102
RTVSPost2010PropOp28
 70
     1
102
RTVSPost2010Prop29
280
     1
102
RTVSPost2010PropOp29
 70
     1
102
RTVSPost2010Prop30
280
     1
102
RTVSPost2010PropOp30
 70
     1
102
RTVSPost2010Prop31
280
     0
102
RTVSPost2010PropOp31
 70
     1
102
RTVSPost2010Prop32
280
     0
102
RTVSPost2010PropOp32
 70
     1
102
RTVSPost2010Prop33
280
     0
102
RTVSPost2010PropOp33
 70
     1
102
RTVSPost2010Prop34
280
     0
102
RTVSPost2010PropOp34
 70
     1
102
RTVSPost2010Prop35
280
     0
102
RTVSPost2010PropOp35
 70
     1
102
RTVSPost2010Prop36
280
     0
102
RTVSPost2010PropOp36
 70
     1
102
RTVSPost2010Prop37
 90
       50
102
RTVSPost2010PropOp37
 70
     1
102
RTVSPost2010Prop38
140
0.0
102
RTVSPost2010PropOp38
 70
     1
102
RTVSPost2010Prop39
140
1.0
102
RTVSPost2010PropOp39
 70
     1
102
RTVSPost2010Prop40
 90
        0
102
RTVSPost2010PropOp40
 70
     1
102
RTVSPost2010Prop41ColorIndex
 90
       18
102
RTVSPost2010Prop41ColorRGB
 90
        0
102
RTVSPost2010PropOp41
 70
     1
102
RTVSPost2010Prop42
 90
       50
102
RTVSPost2010PropOp42
 70
     1
102
RTVSPost2010Prop43
 90
        3
102
RTVSPost2010PropOp43
 70
     1
102
RTVSPost2010Prop44ColorIndex
 90
        5
102
RTVSPost2010Prop44ColorRGB
 90
      255
102
RTVSPost2010PropOp44
 70
     1
102
RTVSPost2010Prop45
280
     0
102
RTVSPost2010PropOp45
 70
     1
102
RTVSPost2010Prop46
 90
       50
102
RTVSPost2010PropOp46
 70
     1
102
RTVSPost2010Prop47
 90
       50
102
RTVSPost2010PropOp47
 70
     1
102
RTVSPost2010Prop48
 90
       50
102
RTVSPost2010PropOp48
 70
     1
102
RTVSPost2010Prop49
280
     0
102
RTVSPost2010PropOp49
 70
     1
102
RTVSPost2010Prop50
 90
       50
102
RTVSPost2010PropOp50
 70
     1
102
RTVSPost2010Prop51ColorIndex
 90
      256
102
RTVSPost2010Prop51ColorRGB
 90
-16777216
102
RTVSPost2010PropOp51
 70
     0
102
RTVSPost2010Prop52
140
1.0
102
RTVSPost2010PropOp52
 70
     0
102
RTVSPost2010Prop53
 90
        2
102
RTVSPost2010PropOp53
 70
     1
102
RTVSPost2010Prop54
  1
strokes_ogs.tif
102
RTVSPost2010PropOp54
 70
     1
102
RTVSPost2010Prop55
280
     0
102
RTVSPost2010PropOp55
 70
     1
102
RTVSPost2010Prop56
140
1.0
102
RTVSPost2010PropOp56
 70
     1
102
RTVSPost2010Prop57
140
1.0
102
RTVSPost2010PropOp57
 70
     1
  0
XRECORD
  5
5CD
102
{ACAD_REACTORS
330
5CC
102
}
330
5CC
100
AcDbXrecord
280
     1
102
RTVSPost2010Prop28
280
     0
102
RTVSPost2010PropOp28
 70
     1
102
RTVSPost2010Prop29
280
     1
102
RTVSPost2010PropOp29
 70
     1
102
RTVSPost2010Prop30
280
     1
102
RTVSPost2010PropOp30
 70
     1
102
RTVSPost2010Prop31
280
     0
102
RTVSPost2010PropOp31
 70
     1
102
RTVSPost2010Prop32
280
     0
102
RTVSPost2010PropOp32
 70
     1
102
RTVSPost2010Prop33
280
     0
102
RTVSPost2010PropOp33
 70
     1
102
RTVSPost2010Prop34
280
     0
102
RTVSPost2010PropOp34
 70
     1
102
RTVSPost2010Prop35
280
     0
102
RTVSPost2010PropOp35
 70
     1
102
RTVSPost2010Prop36
280
     0
102
RTVSPost2010PropOp36
 70
     1
102
RTVSPost2010Prop37
 90
       50
102
RTVSPost2010PropOp37
 70
     1
102
RTVSPost2010Prop38
140
0.0
102
RTVSPost2010PropOp38
 70
     1
102
RTVSPost2010Prop39
140
1.0
102
RTVSPost2010PropOp39
 70
     1
102
RTVSPost2010Prop40
 90
        0
102
RTVSPost2010PropOp40
 70
     1
102
RTVSPost2010Prop41ColorIndex
 90
       18
102
RTVSPost2010Prop41ColorRGB
 90
        0
102
RTVSPost2010PropOp41
 70
     1
102
RTVSPost2010Prop42
 90
       50
102
RTVSPost2010PropOp42
 70
     1
102
RTVSPost2010Prop43
 90
        3
102
RTVSPost2010PropOp43
 70
     1
102
RTVSPost2010Prop44ColorIndex
 90
        5
102
RTVSPost2010Prop44ColorRGB
 90
      255
102
RTVSPost2010PropOp44
 70
     1
102
RTVSPost2010Prop45
280
     0
102
RTVSPost2010PropOp45
 70
     1
102
RTVSPost2010Prop46
 90
       50
102
RTVSPost2010PropOp46
 70
     1
102
RTVSPost2010Prop47
 90
       50
102
RTVSPost2010PropOp47
 70
     1
102
RTVSPost2010Prop48
 90
       50
102
RTVSPost2010PropOp48
 70
     1
102
RTVSPost2010Prop49
280
     0
102
RTVSPost2010PropOp49
 70
     1
102
RTVSPost2010Prop50
 90
       50
102
RTVSPost2010PropOp50
 70
     1
102
RTVSPost2010Prop51ColorIndex
 90
      256
102
RTVSPost2010Prop51ColorRGB
 90
-16777216
102
RTVSPost2010PropOp51
 70
     0
102
RTVSPost2010Prop52
140
1.0
102
RTVSPost2010PropOp52
 70
     0
102
RTVSPost2010Prop53
 90
        2
102
RTVSPost2010PropOp53
 70
     1
102
RTVSPost2010Prop54
  1
strokes_ogs.tif
102
RTVSPost2010PropOp54
 70
     1
102
RTVSPost2010Prop55
280
     0
102
RTVSPost2010PropOp55
 70
     1
102
RTVSPost2010Prop56
140
1.0
102
RTVSPost2010PropOp56
 70
     1
102
RTVSPost2010Prop57
140
1.0
102
RTVSPost2010PropOp57
 70
     1
  0
XRECORD
  5
5DD
102
{ACAD_REACTORS
330
5DC
102
}
330
5DC
100
AcDbXrecord
280
     1
102
RTVSPost2010Prop28
280
     0
102
RTVSPost2010PropOp28
 70
     0
102
RTVSPost2010Prop29
280
     1
102
RTVSPost2010PropOp29
 70
     0
102
RTVSPost2010Prop30
280
     1
102
RTVSPost2010PropOp30
 70
     0
102
RTVSPost2010Prop31
280
     0
102
RTVSPost2010PropOp31
 70
     0
102
RTVSPost2010Prop32
280
     0
102
RTVSPost2010PropOp32
 70
     0
102
RTVSPost2010Prop33
280
     0
102
RTVSPost2010PropOp33
 70
     0
102
RTVSPost2010Prop34
280
     0
102
RTVSPost2010PropOp34
 70
     0
102
RTVSPost2010Prop35
280
     0
102
RTVSPost2010PropOp35
 70
     0
102
RTVSPost2010Prop36
280
     0
102
RTVSPost2010PropOp36
 70
     0
102
RTVSPost2010Prop37
 90
       50
102
RTVSPost2010PropOp37
 70
     0
102
RTVSPost2010Prop38
140
0.0
102
RTVSPost2010PropOp38
 70
     0
102
RTVSPost2010Prop39
140
1.0
102
RTVSPost2010PropOp39
 70
     0
102
RTVSPost2010Prop40
 90
        0
102
RTVSPost2010PropOp40
 70
     0
102
RTVSPost2010Prop41ColorIndex
 90
       18
102
RTVSPost2010Prop41ColorRGB
 90
        0
102
RTVSPost2010PropOp41
 70
     0
102
RTVSPost2010Prop42
 90
       50
102
RTVSPost2010PropOp42
 70
     0
102
RTVSPost2010Prop43
 90
        3
102
RTVSPost2010PropOp43
 70
     0
102
RTVSPost2010Prop44ColorIndex
 90
        5
102
RTVSPost2010Prop44ColorRGB
 90
      255
102
RTVSPost2010PropOp44
 70
     0
102
RTVSPost2010Prop45
280
     0
102
RTVSPost2010PropOp45
 70
     0
102
RTVSPost2010Prop46
 90
       50
102
RTVSPost2010PropOp46
 70
     0
102
RTVSPost2010Prop47
 90
       50
102
RTVSPost2010PropOp47
 70
     0
102
RTVSPost2010Prop48
 90
       50
102
RTVSPost2010PropOp48
 70
     0
102
RTVSPost2010Prop49
280
     0
102
RTVSPost2010PropOp49
 70
     0
102
RTVSPost2010Prop50
 90
       50
102
RTVSPost2010PropOp50
 70
     0
102
RTVSPost2010Prop51ColorIndex
 90
      256
102
RTVSPost2010Prop51ColorRGB
 90
-16777216
102
RTVSPost2010PropOp51
 70
     0
102
RTVSPost2010Prop52
140
1.0
102
RTVSPost2010PropOp52
 70
     0
102
RTVSPost2010Prop53
 90
        2
102
RTVSPost2010PropOp53
 70
     0
102
RTVSPost2010Prop54
  1
strokes_ogs.tif
102
RTVSPost2010PropOp54
 70
     0
102
RTVSPost2010Prop55
280
     0
102
RTVSPost2010PropOp55
 70
     0
102
RTVSPost2010Prop56
140
1.0
102
RTVSPost2010PropOp56
 70
     0
102
RTVSPost2010Prop57
140
1.0
102
RTVSPost2010PropOp57
 70
     0
  0
XRECORD
  5
5D5
102
{ACAD_REACTORS
330
5D4
102
}
330
5D4
100
AcDbXrecord
280
     1
102
RTVSPost2010Prop28
280
     0
102
RTVSPost2010PropOp28
 70
     1
102
RTVSPost2010Prop29
280
     1
102
RTVSPost2010PropOp29
 70
     1
102
RTVSPost2010Prop30
280
     1
102
RTVSPost2010PropOp30
 70
     1
102
RTVSPost2010Prop31
280
     0
102
RTVSPost2010PropOp31
 70
     1
102
RTVSPost2010Prop32
280
     0
102
RTVSPost2010PropOp32
 70
     1
102
RTVSPost2010Prop33
280
     0
102
RTVSPost2010PropOp33
 70
     1
102
RTVSPost2010Prop34
280
     0
102
RTVSPost2010PropOp34
 70
     1
102
RTVSPost2010Prop35
280
     0
102
RTVSPost2010PropOp35
 70
     1
102
RTVSPost2010Prop36
280
     0
102
RTVSPost2010PropOp36
 70
     1
102
RTVSPost2010Prop37
 90
       50
102
RTVSPost2010PropOp37
 70
     1
102
RTVSPost2010Prop38
140
0.0
102
RTVSPost2010PropOp38
 70
     1
102
RTVSPost2010Prop39
140
1.0
102
RTVSPost2010PropOp39
 70
     1
102
RTVSPost2010Prop40
 90
        0
102
RTVSPost2010PropOp40
 70
     1
102
RTVSPost2010Prop41ColorIndex
 90
       18
102
RTVSPost2010Prop41ColorRGB
 90
        0
102
RTVSPost2010PropOp41
 70
     1
102
RTVSPost2010Prop42
 90
       50
102
RTVSPost2010PropOp42
 70
     1
102
RTVSPost2010Prop43
 90
        3
102
RTVSPost2010PropOp43
 70
     1
102
RTVSPost2010Prop44ColorIndex
 90
        5
102
RTVSPost2010Prop44ColorRGB
 90
      255
102
RTVSPost2010PropOp44
 70
     1
102
RTVSPost2010Prop45
280
     0
102
RTVSPost2010PropOp45
 70
     1
102
RTVSPost2010Prop46
 90
       50
102
RTVSPost2010PropOp46
 70
     1
102
RTVSPost2010Prop47
 90
       50
102
RTVSPost2010PropOp47
 70
     1
102
RTVSPost2010Prop48
 90
       50
102
RTVSPost2010PropOp48
 70
     1
102
RTVSPost2010Prop49
280
     0
102
RTVSPost2010PropOp49
 70
     1
102
RTVSPost2010Prop50
 90
       50
102
RTVSPost2010PropOp50
 70
     1
102
RTVSPost2010Prop51ColorIndex
 90
      256
102
RTVSPost2010Prop51ColorRGB
 90
-16777216
102
RTVSPost2010PropOp51
 70
     0
102
RTVSPost2010Prop52
140
1.0
102
RTVSPost2010PropOp52
 70
     0
102
RTVSPost2010Prop53
 90
        2
102
RTVSPost2010PropOp53
 70
     1
102
RTVSPost2010Prop54
  1
strokes_ogs.tif
102
RTVSPost2010PropOp54
 70
     1
102
RTVSPost2010Prop55
280
     0
102
RTVSPost2010PropOp55
 70
     1
102
RTVSPost2010Prop56
140
1.0
102
RTVSPost2010PropOp56
 70
     1
102
RTVSPost2010Prop57
140
1.0
102
RTVSPost2010PropOp57
 70
     1
  0
XRECORD
  5
5B9
102
{ACAD_REACTORS
330
5B8
102
}
330
5B8
100
AcDbXrecord
280
     1
102
RTVSPost2010Prop28
280
     0
102
RTVSPost2010PropOp28
 70
     1
102
RTVSPost2010Prop29
280
     1
102
RTVSPost2010PropOp29
 70
     1
102
RTVSPost2010Prop30
280
     1
102
RTVSPost2010PropOp30
 70
     1
102
RTVSPost2010Prop31
280
     0
102
RTVSPost2010PropOp31
 70
     1
102
RTVSPost2010Prop32
280
     0
102
RTVSPost2010PropOp32
 70
     1
102
RTVSPost2010Prop33
280
     0
102
RTVSPost2010PropOp33
 70
     1
102
RTVSPost2010Prop34
280
     0
102
RTVSPost2010PropOp34
 70
     1
102
RTVSPost2010Prop35
280
     0
102
RTVSPost2010PropOp35
 70
     1
102
RTVSPost2010Prop36
280
     0
102
RTVSPost2010PropOp36
 70
     1
102
RTVSPost2010Prop37
 90
       50
102
RTVSPost2010PropOp37
 70
     1
102
RTVSPost2010Prop38
140
0.0
102
RTVSPost2010PropOp38
 70
     1
102
RTVSPost2010Prop39
140
1.0
102
RTVSPost2010PropOp39
 70
     1
102
RTVSPost2010Prop40
 90
        0
102
RTVSPost2010PropOp40
 70
     1
102
RTVSPost2010Prop41ColorIndex
 90
       18
102
RTVSPost2010Prop41ColorRGB
 90
        0
102
RTVSPost2010PropOp41
 70
     1
102
RTVSPost2010Prop42
 90
       50
102
RTVSPost2010PropOp42
 70
     1
102
RTVSPost2010Prop43
 90
        3
102
RTVSPost2010PropOp43
 70
     1
102
RTVSPost2010Prop44ColorIndex
 90
        5
102
RTVSPost2010Prop44ColorRGB
 90
      255
102
RTVSPost2010PropOp44
 70
     1
102
RTVSPost2010Prop45
280
     0
102
RTVSPost2010PropOp45
 70
     1
102
RTVSPost2010Prop46
 90
       50
102
RTVSPost2010PropOp46
 70
     1
102
RTVSPost2010Prop47
 90
       50
102
RTVSPost2010PropOp47
 70
     1
102
RTVSPost2010Prop48
 90
       50
102
RTVSPost2010PropOp48
 70
     1
102
RTVSPost2010Prop49
280
     0
102
RTVSPost2010PropOp49
 70
     1
102
RTVSPost2010Prop50
 90
       50
102
RTVSPost2010PropOp50
 70
     1
102
RTVSPost2010Prop51ColorIndex
 90
      256
102
RTVSPost2010Prop51ColorRGB
 90
-16777216
102
RTVSPost2010PropOp51
 70
     0
102
RTVSPost2010Prop52
140
1.0
102
RTVSPost2010PropOp52
 70
     0
102
RTVSPost2010Prop53
 90
        2
102
RTVSPost2010PropOp53
 70
     1
102
RTVSPost2010Prop54
  1
strokes_ogs.tif
102
RTVSPost2010PropOp54
 70
     1
102
RTVSPost2010Prop55
280
     0
102
RTVSPost2010PropOp55
 70
     1
102
RTVSPost2010Prop56
140
1.0
102
RTVSPost2010PropOp56
 70
     1
102
RTVSPost2010Prop57
140
1.0
102
RTVSPost2010PropOp57
 70
     1
  0
XRECORD
  5
5BB
102
{ACAD_REACTORS
330
5BA
102
}
330
5BA
100
AcDbXrecord
280
     1
102
RTVSPost2010Prop28
280
     0
102
RTVSPost2010PropOp28
 70
     1
102
RTVSPost2010Prop29
280
     1
102
RTVSPost2010PropOp29
 70
     1
102
RTVSPost2010Prop30
280
     1
102
RTVSPost2010PropOp30
 70
     1
102
RTVSPost2010Prop31
280
     0
102
RTVSPost2010PropOp31
 70
     1
102
RTVSPost2010Prop32
280
     0
102
RTVSPost2010PropOp32
 70
     1
102
RTVSPost2010Prop33
280
     0
102
RTVSPost2010PropOp33
 70
     1
102
RTVSPost2010Prop34
280
     0
102
RTVSPost2010PropOp34
 70
     1
102
RTVSPost2010Prop35
280
     0
102
RTVSPost2010PropOp35
 70
     1
102
RTVSPost2010Prop36
280
     0
102
RTVSPost2010PropOp36
 70
     1
102
RTVSPost2010Prop37
 90
       50
102
RTVSPost2010PropOp37
 70
     1
102
RTVSPost2010Prop38
140
0.0
102
RTVSPost2010PropOp38
 70
     1
102
RTVSPost2010Prop39
140
1.0
102
RTVSPost2010PropOp39
 70
     1
102
RTVSPost2010Prop40
 90
        0
102
RTVSPost2010PropOp40
 70
     1
102
RTVSPost2010Prop41ColorIndex
 90
       18
102
RTVSPost2010Prop41ColorRGB
 90
        0
102
RTVSPost2010PropOp41
 70
     1
102
RTVSPost2010Prop42
 90
       50
102
RTVSPost2010PropOp42
 70
     1
102
RTVSPost2010Prop43
 90
        3
102
RTVSPost2010PropOp43
 70
     1
102
RTVSPost2010Prop44ColorIndex
 90
        5
102
RTVSPost2010Prop44ColorRGB
 90
      255
102
RTVSPost2010PropOp44
 70
     1
102
RTVSPost2010Prop45
280
     0
102
RTVSPost2010PropOp45
 70
     1
102
RTVSPost2010Prop46
 90
       50
102
RTVSPost2010PropOp46
 70
     1
102
RTVSPost2010Prop47
 90
       50
102
RTVSPost2010PropOp47
 70
     1
102
RTVSPost2010Prop48
 90
       50
102
RTVSPost2010PropOp48
 70
     1
102
RTVSPost2010Prop49
280
     0
102
RTVSPost2010PropOp49
 70
     1
102
RTVSPost2010Prop50
 90
       50
102
RTVSPost2010PropOp50
 70
     1
102
RTVSPost2010Prop51ColorIndex
 90
      256
102
RTVSPost2010Prop51ColorRGB
 90
-16777216
102
RTVSPost2010PropOp51
 70
     0
102
RTVSPost2010Prop52
140
1.0
102
RTVSPost2010PropOp52
 70
     0
102
RTVSPost2010Prop53
 90
        2
102
RTVSPost2010PropOp53
 70
     1
102
RTVSPost2010Prop54
  1
strokes_ogs.tif
102
RTVSPost2010PropOp54
 70
     1
102
RTVSPost2010Prop55
280
     0
102
RTVSPost2010PropOp55
 70
     1
102
RTVSPost2010Prop56
140
1.0
102
RTVSPost2010PropOp56
 70
     1
102
RTVSPost2010Prop57
140
1.0
102
RTVSPost2010PropOp57
 70
     1
  0
XRECORD
  5
5BD
102
{ACAD_REACTORS
330
5BC
102
}
330
5BC
100
AcDbXrecord
280
     1
102
RTVSPost2010Prop28
280
     0
102
RTVSPost2010PropOp28
 70
     1
102
RTVSPost2010Prop29
280
     1
102
RTVSPost2010PropOp29
 70
     1
102
RTVSPost2010Prop30
280
     1
102
RTVSPost2010PropOp30
 70
     1
102
RTVSPost2010Prop31
280
     0
102
RTVSPost2010PropOp31
 70
     1
102
RTVSPost2010Prop32
280
     0
102
RTVSPost2010PropOp32
 70
     1
102
RTVSPost2010Prop33
280
     0
102
RTVSPost2010PropOp33
 70
     1
102
RTVSPost2010Prop34
280
     0
102
RTVSPost2010PropOp34
 70
     1
102
RTVSPost2010Prop35
280
     0
102
RTVSPost2010PropOp35
 70
     1
102
RTVSPost2010Prop36
280
     0
102
RTVSPost2010PropOp36
 70
     1
102
RTVSPost2010Prop37
 90
       50
102
RTVSPost2010PropOp37
 70
     1
102
RTVSPost2010Prop38
140
0.0
102
RTVSPost2010PropOp38
 70
     1
102
RTVSPost2010Prop39
140
1.0
102
RTVSPost2010PropOp39
 70
     1
102
RTVSPost2010Prop40
 90
        0
102
RTVSPost2010PropOp40
 70
     1
102
RTVSPost2010Prop41ColorIndex
 90
       18
102
RTVSPost2010Prop41ColorRGB
 90
        0
102
RTVSPost2010PropOp41
 70
     1
102
RTVSPost2010Prop42
 90
       50
102
RTVSPost2010PropOp42
 70
     1
102
RTVSPost2010Prop43
 90
        3
102
RTVSPost2010PropOp43
 70
     1
102
RTVSPost2010Prop44ColorIndex
 90
        5
102
RTVSPost2010Prop44ColorRGB
 90
      255
102
RTVSPost2010PropOp44
 70
     1
102
RTVSPost2010Prop45
280
     0
102
RTVSPost2010PropOp45
 70
     1
102
RTVSPost2010Prop46
 90
       50
102
RTVSPost2010PropOp46
 70
     1
102
RTVSPost2010Prop47
 90
       50
102
RTVSPost2010PropOp47
 70
     1
102
RTVSPost2010Prop48
 90
       50
102
RTVSPost2010PropOp48
 70
     1
102
RTVSPost2010Prop49
280
     0
102
RTVSPost2010PropOp49
 70
     1
102
RTVSPost2010Prop50
 90
       50
102
RTVSPost2010PropOp50
 70
     1
102
RTVSPost2010Prop51ColorIndex
 90
      256
102
RTVSPost2010Prop51ColorRGB
 90
-16777216
102
RTVSPost2010PropOp51
 70
     0
102
RTVSPost2010Prop52
140
1.0
102
RTVSPost2010PropOp52
 70
     0
102
RTVSPost2010Prop53
 90
        2
102
RTVSPost2010PropOp53
 70
     1
102
RTVSPost2010Prop54
  1
strokes_ogs.tif
102
RTVSPost2010PropOp54
 70
     1
102
RTVSPost2010Prop55
280
     0
102
RTVSPost2010PropOp55
 70
     1
102
RTVSPost2010Prop56
140
1.0
102
RTVSPost2010PropOp56
 70
     1
102
RTVSPost2010Prop57
140
1.0
102
RTVSPost2010PropOp57
 70
     1
  0
XRECORD
  5
5BF
102
{ACAD_REACTORS
330
5BE
102
}
330
5BE
100
AcDbXrecord
280
     1
102
RTVSPost2010Prop28
280
     0
102
RTVSPost2010PropOp28
 70
     1
102
RTVSPost2010Prop29
280
     1
102
RTVSPost2010PropOp29
 70
     1
102
RTVSPost2010Prop30
280
     1
102
RTVSPost2010PropOp30
 70
     1
102
RTVSPost2010Prop31
280
     0
102
RTVSPost2010PropOp31
 70
     1
102
RTVSPost2010Prop32
280
     0
102
RTVSPost2010PropOp32
 70
     1
102
RTVSPost2010Prop33
280
     0
102
RTVSPost2010PropOp33
 70
     1
102
RTVSPost2010Prop34
280
     0
102
RTVSPost2010PropOp34
 70
     1
102
RTVSPost2010Prop35
280
     0
102
RTVSPost2010PropOp35
 70
     1
102
RTVSPost2010Prop36
280
     0
102
RTVSPost2010PropOp36
 70
     1
102
RTVSPost2010Prop37
 90
       50
102
RTVSPost2010PropOp37
 70
     1
102
RTVSPost2010Prop38
140
0.0
102
RTVSPost2010PropOp38
 70
     1
102
RTVSPost2010Prop39
140
1.0
102
RTVSPost2010PropOp39
 70
     1
102
RTVSPost2010Prop40
 90
        0
102
RTVSPost2010PropOp40
 70
     1
102
RTVSPost2010Prop41ColorIndex
 90
       18
102
RTVSPost2010Prop41ColorRGB
 90
        0
102
RTVSPost2010PropOp41
 70
     1
102
RTVSPost2010Prop42
 90
       50
102
RTVSPost2010PropOp42
 70
     1
102
RTVSPost2010Prop43
 90
        3
102
RTVSPost2010PropOp43
 70
     1
102
RTVSPost2010Prop44ColorIndex
 90
        5
102
RTVSPost2010Prop44ColorRGB
 90
      255
102
RTVSPost2010PropOp44
 70
     1
102
RTVSPost2010Prop45
280
     0
102
RTVSPost2010PropOp45
 70
     1
102
RTVSPost2010Prop46
 90
       50
102
RTVSPost2010PropOp46
 70
     1
102
RTVSPost2010Prop47
 90
       50
102
RTVSPost2010PropOp47
 70
     1
102
RTVSPost2010Prop48
 90
       50
102
RTVSPost2010PropOp48
 70
     1
102
RTVSPost2010Prop49
280
     0
102
RTVSPost2010PropOp49
 70
     1
102
RTVSPost2010Prop50
 90
       50
102
RTVSPost2010PropOp50
 70
     1
102
RTVSPost2010Prop51ColorIndex
 90
      256
102
RTVSPost2010Prop51ColorRGB
 90
-16777216
102
RTVSPost2010PropOp51
 70
     0
102
RTVSPost2010Prop52
140
1.0
102
RTVSPost2010PropOp52
 70
     0
102
RTVSPost2010Prop53
 90
        2
102
RTVSPost2010PropOp53
 70
     1
102
RTVSPost2010Prop54
  1
strokes_ogs.tif
102
RTVSPost2010PropOp54
 70
     1
102
RTVSPost2010Prop55
280
     0
102
RTVSPost2010PropOp55
 70
     1
102
RTVSPost2010Prop56
140
1.0
102
RTVSPost2010PropOp56
 70
     1
102
RTVSPost2010Prop57
140
1.0
102
RTVSPost2010PropOp57
 70
     1
  0
XRECORD
  5
5C5
102
{ACAD_REACTORS
330
5C4
102
}
330
5C4
100
AcDbXrecord
280
     1
102
RTVSPost2010Prop28
280
     0
102
RTVSPost2010PropOp28
 70
     1
102
RTVSPost2010Prop29
280
     1
102
RTVSPost2010PropOp29
 70
     1
102
RTVSPost2010Prop30
280
     1
102
RTVSPost2010PropOp30
 70
     1
102
RTVSPost2010Prop31
280
     0
102
RTVSPost2010PropOp31
 70
     1
102
RTVSPost2010Prop32
280
     0
102
RTVSPost2010PropOp32
 70
     1
102
RTVSPost2010Prop33
280
     0
102
RTVSPost2010PropOp33
 70
     1
102
RTVSPost2010Prop34
280
     0
102
RTVSPost2010PropOp34
 70
     1
102
RTVSPost2010Prop35
280
     0
102
RTVSPost2010PropOp35
 70
     1
102
RTVSPost2010Prop36
280
     0
102
RTVSPost2010PropOp36
 70
     1
102
RTVSPost2010Prop37
 90
       50
102
RTVSPost2010PropOp37
 70
     1
102
RTVSPost2010Prop38
140
0.0
102
RTVSPost2010PropOp38
 70
     1
102
RTVSPost2010Prop39
140
1.0
102
RTVSPost2010PropOp39
 70
     1
102
RTVSPost2010Prop40
 90
        0
102
RTVSPost2010PropOp40
 70
     1
102
RTVSPost2010Prop41ColorIndex
 90
       18
102
RTVSPost2010Prop41ColorRGB
 90
        0
102
RTVSPost2010PropOp41
 70
     1
102
RTVSPost2010Prop42
 90
       50
102
RTVSPost2010PropOp42
 70
     1
102
RTVSPost2010Prop43
 90
        3
102
RTVSPost2010PropOp43
 70
     1
102
RTVSPost2010Prop44ColorIndex
 90
        5
102
RTVSPost2010Prop44ColorRGB
 90
      255
102
RTVSPost2010PropOp44
 70
     1
102
RTVSPost2010Prop45
280
     0
102
RTVSPost2010PropOp45
 70
     1
102
RTVSPost2010Prop46
 90
       50
102
RTVSPost2010PropOp46
 70
     1
102
RTVSPost2010Prop47
 90
       50
102
RTVSPost2010PropOp47
 70
     1
102
RTVSPost2010Prop48
 90
       50
102
RTVSPost2010PropOp48
 70
     1
102
RTVSPost2010Prop49
280
     0
102
RTVSPost2010PropOp49
 70
     1
102
RTVSPost2010Prop50
 90
       50
102
RTVSPost2010PropOp50
 70
     1
102
RTVSPost2010Prop51ColorIndex
 90
      256
102
RTVSPost2010Prop51ColorRGB
 90
-16777216
102
RTVSPost2010PropOp51
 70
     0
102
RTVSPost2010Prop52
140
1.0
102
RTVSPost2010PropOp52
 70
     0
102
RTVSPost2010Prop53
 90
        2
102
RTVSPost2010PropOp53
 70
     1
102
RTVSPost2010Prop54
  1
strokes_ogs.tif
102
RTVSPost2010PropOp54
 70
     1
102
RTVSPost2010Prop55
280
     0
102
RTVSPost2010PropOp55
 70
     1
102
RTVSPost2010Prop56
140
1.0
102
RTVSPost2010PropOp56
 70
     1
102
RTVSPost2010Prop57
140
1.0
102
RTVSPost2010PropOp57
 70
     1
  0
XRECORD
  5
5D9
102
{ACAD_REACTORS
330
5D8
102
}
330
5D8
100
AcDbXrecord
280
     1
102
RTVSPost2010Prop28
280
     0
102
RTVSPost2010PropOp28
 70
     0
102
RTVSPost2010Prop29
280
     1
102
RTVSPost2010PropOp29
 70
     0
102
RTVSPost2010Prop30
280
     1
102
RTVSPost2010PropOp30
 70
     0
102
RTVSPost2010Prop31
280
     0
102
RTVSPost2010PropOp31
 70
     0
102
RTVSPost2010Prop32
280
     0
102
RTVSPost2010PropOp32
 70
     0
102
RTVSPost2010Prop33
280
     0
102
RTVSPost2010PropOp33
 70
     0
102
RTVSPost2010Prop34
280
     0
102
RTVSPost2010PropOp34
 70
     0
102
RTVSPost2010Prop35
280
     0
102
RTVSPost2010PropOp35
 70
     0
102
RTVSPost2010Prop36
280
     0
102
RTVSPost2010PropOp36
 70
     0
102
RTVSPost2010Prop37
 90
       50
102
RTVSPost2010PropOp37
 70
     0
102
RTVSPost2010Prop38
140
0.0
102
RTVSPost2010PropOp38
 70
     0
102
RTVSPost2010Prop39
140
1.0
102
RTVSPost2010PropOp39
 70
     0
102
RTVSPost2010Prop40
 90
        0
102
RTVSPost2010PropOp40
 70
     0
102
RTVSPost2010Prop41ColorIndex
 90
       18
102
RTVSPost2010Prop41ColorRGB
 90
        0
102
RTVSPost2010PropOp41
 70
     0
102
RTVSPost2010Prop42
 90
       50
102
RTVSPost2010PropOp42
 70
     0
102
RTVSPost2010Prop43
 90
        3
102
RTVSPost2010PropOp43
 70
     0
102
RTVSPost2010Prop44ColorIndex
 90
        5
102
RTVSPost2010Prop44ColorRGB
 90
      255
102
RTVSPost2010PropOp44
 70
     0
102
RTVSPost2010Prop45
280
     0
102
RTVSPost2010PropOp45
 70
     0
102
RTVSPost2010Prop46
 90
       50
102
RTVSPost2010PropOp46
 70
     0
102
RTVSPost2010Prop47
 90
       50
102
RTVSPost2010PropOp47
 70
     0
102
RTVSPost2010Prop48
 90
       50
102
RTVSPost2010PropOp48
 70
     0
102
RTVSPost2010Prop49
280
     0
102
RTVSPost2010PropOp49
 70
     0
102
RTVSPost2010Prop50
 90
       50
102
RTVSPost2010PropOp50
 70
     0
102
RTVSPost2010Prop51ColorIndex
 90
      256
102
RTVSPost2010Prop51ColorRGB
 90
-16777216
102
RTVSPost2010PropOp51
 70
     0
102
RTVSPost2010Prop52
140
1.0
102
RTVSPost2010PropOp52
 70
     0
102
RTVSPost2010Prop53
 90
        2
102
RTVSPost2010PropOp53
 70
     0
102
RTVSPost2010Prop54
  1
strokes_ogs.tif
102
RTVSPost2010PropOp54
 70
     0
102
RTVSPost2010Prop55
280
     0
102
RTVSPost2010PropOp55
 70
     0
102
RTVSPost2010Prop56
140
1.0
102
RTVSPost2010PropOp56
 70
     0
102
RTVSPost2010Prop57
140
1.0
102
RTVSPost2010PropOp57
 70
     0
  0
XRECORD
  5
5D3
102
{ACAD_REACTORS
330
5D2
102
}
330
5D2
100
AcDbXrecord
280
     1
102
RTVSPost2010Prop28
280
     0
102
RTVSPost2010PropOp28
 70
     1
102
RTVSPost2010Prop29
280
     1
102
RTVSPost2010PropOp29
 70
     1
102
RTVSPost2010Prop30
280
     1
102
RTVSPost2010PropOp30
 70
     1
102
RTVSPost2010Prop31
280
     0
102
RTVSPost2010PropOp31
 70
     1
102
RTVSPost2010Prop32
280
     0
102
RTVSPost2010PropOp32
 70
     1
102
RTVSPost2010Prop33
280
     0
102
RTVSPost2010PropOp33
 70
     1
102
RTVSPost2010Prop34
280
     0
102
RTVSPost2010PropOp34
 70
     1
102
RTVSPost2010Prop35
280
     0
102
RTVSPost2010PropOp35
 70
     1
102
RTVSPost2010Prop36
280
     0
102
RTVSPost2010PropOp36
 70
     1
102
RTVSPost2010Prop37
 90
       50
102
RTVSPost2010PropOp37
 70
     1
102
RTVSPost2010Prop38
140
0.0
102
RTVSPost2010PropOp38
 70
     1
102
RTVSPost2010Prop39
140
1.0
102
RTVSPost2010PropOp39
 70
     1
102
RTVSPost2010Prop40
 90
        0
102
RTVSPost2010PropOp40
 70
     1
102
RTVSPost2010Prop41ColorIndex
 90
       18
102
RTVSPost2010Prop41ColorRGB
 90
        0
102
RTVSPost2010PropOp41
 70
     1
102
RTVSPost2010Prop42
 90
       50
102
RTVSPost2010PropOp42
 70
     1
102
RTVSPost2010Prop43
 90
        3
102
RTVSPost2010PropOp43
 70
     1
102
RTVSPost2010Prop44ColorIndex
 90
        5
102
RTVSPost2010Prop44ColorRGB
 90
      255
102
RTVSPost2010PropOp44
 70
     1
102
RTVSPost2010Prop45
280
     0
102
RTVSPost2010PropOp45
 70
     1
102
RTVSPost2010Prop46
 90
       50
102
RTVSPost2010PropOp46
 70
     1
102
RTVSPost2010Prop47
 90
       50
102
RTVSPost2010PropOp47
 70
     1
102
RTVSPost2010Prop48
 90
       50
102
RTVSPost2010PropOp48
 70
     1
102
RTVSPost2010Prop49
280
     0
102
RTVSPost2010PropOp49
 70
     1
102
RTVSPost2010Prop50
 90
       50
102
RTVSPost2010PropOp50
 70
     1
102
RTVSPost2010Prop51ColorIndex
 90
      256
102
RTVSPost2010Prop51ColorRGB
 90
-16777216
102
RTVSPost2010PropOp51
 70
     0
102
RTVSPost2010Prop52
140
1.0
102
RTVSPost2010PropOp52
 70
     0
102
RTVSPost2010Prop53
 90
        2
102
RTVSPost2010PropOp53
 70
     1
102
RTVSPost2010Prop54
  1
strokes_ogs.tif
102
RTVSPost2010PropOp54
 70
     1
102
RTVSPost2010Prop55
280
     0
102
RTVSPost2010PropOp55
 70
     1
102
RTVSPost2010Prop56
140
1.0
102
RTVSPost2010PropOp56
 70
     1
102
RTVSPost2010Prop57
140
1.0
102
RTVSPost2010PropOp57
 70
     1
  0
XRECORD
  5
5DB
102
{ACAD_REACTORS
330
5DA
102
}
330
5DA
100
AcDbXrecord
280
     1
102
RTVSPost2010Prop28
280
     0
102
RTVSPost2010PropOp28
 70
     0
102
RTVSPost2010Prop29
280
     1
102
RTVSPost2010PropOp29
 70
     0
102
RTVSPost2010Prop30
280
     1
102
RTVSPost2010PropOp30
 70
     0
102
RTVSPost2010Prop31
280
     0
102
RTVSPost2010PropOp31
 70
     0
102
RTVSPost2010Prop32
280
     0
102
RTVSPost2010PropOp32
 70
     0
102
RTVSPost2010Prop33
280
     0
102
RTVSPost2010PropOp33
 70
     0
102
RTVSPost2010Prop34
280
     0
102
RTVSPost2010PropOp34
 70
     0
102
RTVSPost2010Prop35
280
     0
102
RTVSPost2010PropOp35
 70
     0
102
RTVSPost2010Prop36
280
     0
102
RTVSPost2010PropOp36
 70
     0
102
RTVSPost2010Prop37
 90
       50
102
RTVSPost2010PropOp37
 70
     0
102
RTVSPost2010Prop38
140
0.0
102
RTVSPost2010PropOp38
 70
     0
102
RTVSPost2010Prop39
140
1.0
102
RTVSPost2010PropOp39
 70
     0
102
RTVSPost2010Prop40
 90
        0
102
RTVSPost2010PropOp40
 70
     0
102
RTVSPost2010Prop41ColorIndex
 90
       18
102
RTVSPost2010Prop41ColorRGB
 90
        0
102
RTVSPost2010PropOp41
 70
     0
102
RTVSPost2010Prop42
 90
       50
102
RTVSPost2010PropOp42
 70
     0
102
RTVSPost2010Prop43
 90
        3
102
RTVSPost2010PropOp43
 70
     0
102
RTVSPost2010Prop44ColorIndex
 90
        5
102
RTVSPost2010Prop44ColorRGB
 90
      255
102
RTVSPost2010PropOp44
 70
     0
102
RTVSPost2010Prop45
280
     0
102
RTVSPost2010PropOp45
 70
     0
102
RTVSPost2010Prop46
 90
       50
102
RTVSPost2010PropOp46
 70
     0
102
RTVSPost2010Prop47
 90
       50
102
RTVSPost2010PropOp47
 70
     0
102
RTVSPost2010Prop48
 90
       50
102
RTVSPost2010PropOp48
 70
     0
102
RTVSPost2010Prop49
280
     0
102
RTVSPost2010PropOp49
 70
     0
102
RTVSPost2010Prop50
 90
       50
102
RTVSPost2010PropOp50
 70
     0
102
RTVSPost2010Prop51ColorIndex
 90
      256
102
RTVSPost2010Prop51ColorRGB
 90
-16777216
102
RTVSPost2010PropOp51
 70
     0
102
RTVSPost2010Prop52
140
1.0
102
RTVSPost2010PropOp52
 70
     0
102
RTVSPost2010Prop53
 90
        2
102
RTVSPost2010PropOp53
 70
     0
102
RTVSPost2010Prop54
  1
strokes_ogs.tif
102
RTVSPost2010PropOp54
 70
     0
102
RTVSPost2010Prop55
280
     0
102
RTVSPost2010PropOp55
 70
     0
102
RTVSPost2010Prop56
140
1.0
102
RTVSPost2010PropOp56
 70
     0
102
RTVSPost2010Prop57
140
1.0
102
RTVSPost2010PropOp57
 70
     0
  0
XRECORD
  5
5C9
102
{ACAD_REACTORS
330
5C8
102
}
330
5C8
100
AcDbXrecord
280
     1
102
RTVSPost2010Prop28
280
     0
102
RTVSPost2010PropOp28
 70
     1
102
RTVSPost2010Prop29
280
     1
102
RTVSPost2010PropOp29
 70
     1
102
RTVSPost2010Prop30
280
     1
102
RTVSPost2010PropOp30
 70
     1
102
RTVSPost2010Prop31
280
     0
102
RTVSPost2010PropOp31
 70
     1
102
RTVSPost2010Prop32
280
     0
102
RTVSPost2010PropOp32
 70
     1
102
RTVSPost2010Prop33
280
     0
102
RTVSPost2010PropOp33
 70
     1
102
RTVSPost2010Prop34
280
     0
102
RTVSPost2010PropOp34
 70
     1
102
RTVSPost2010Prop35
280
     0
102
RTVSPost2010PropOp35
 70
     1
102
RTVSPost2010Prop36
280
     0
102
RTVSPost2010PropOp36
 70
     1
102
RTVSPost2010Prop37
 90
       50
102
RTVSPost2010PropOp37
 70
     1
102
RTVSPost2010Prop38
140
0.0
102
RTVSPost2010PropOp38
 70
     1
102
RTVSPost2010Prop39
140
1.0
102
RTVSPost2010PropOp39
 70
     1
102
RTVSPost2010Prop40
 90
        0
102
RTVSPost2010PropOp40
 70
     1
102
RTVSPost2010Prop41ColorIndex
 90
       18
102
RTVSPost2010Prop41ColorRGB
 90
        0
102
RTVSPost2010PropOp41
 70
     1
102
RTVSPost2010Prop42
 90
       50
102
RTVSPost2010PropOp42
 70
     1
102
RTVSPost2010Prop43
 90
        3
102
RTVSPost2010PropOp43
 70
     1
102
RTVSPost2010Prop44ColorIndex
 90
        5
102
RTVSPost2010Prop44ColorRGB
 90
      255
102
RTVSPost2010PropOp44
 70
     1
102
RTVSPost2010Prop45
280
     0
102
RTVSPost2010PropOp45
 70
     1
102
RTVSPost2010Prop46
 90
       50
102
RTVSPost2010PropOp46
 70
     1
102
RTVSPost2010Prop47
 90
       50
102
RTVSPost2010PropOp47
 70
     1
102
RTVSPost2010Prop48
 90
       50
102
RTVSPost2010PropOp48
 70
     1
102
RTVSPost2010Prop49
280
     0
102
RTVSPost2010PropOp49
 70
     1
102
RTVSPost2010Prop50
 90
       50
102
RTVSPost2010PropOp50
 70
     1
102
RTVSPost2010Prop51ColorIndex
 90
      256
102
RTVSPost2010Prop51ColorRGB
 90
-16777216
102
RTVSPost2010PropOp51
 70
     0
102
RTVSPost2010Prop52
140
1.0
102
RTVSPost2010PropOp52
 70
     0
102
RTVSPost2010Prop53
 90
        2
102
RTVSPost2010PropOp53
 70
     1
102
RTVSPost2010Prop54
  1
strokes_ogs.tif
102
RTVSPost2010PropOp54
 70
     1
102
RTVSPost2010Prop55
280
     0
102
RTVSPost2010PropOp55
 70
     1
102
RTVSPost2010Prop56
140
1.0
102
RTVSPost2010PropOp56
 70
     1
102
RTVSPost2010Prop57
140
1.0
102
RTVSPost2010PropOp57
 70
     1
  0
XRECORD
  5
5E7
102
{ACAD_REACTORS
330
5E6
102
}
330
5E6
100
AcDbXrecord
280
     1
102
RTVSPost2010Prop28
280
     0
102
RTVSPost2010PropOp28
 70
     1
102
RTVSPost2010Prop29
280
     1
102
RTVSPost2010PropOp29
 70
     1
102
RTVSPost2010Prop30
280
     1
102
RTVSPost2010PropOp30
 70
     1
102
RTVSPost2010Prop31
280
     0
102
RTVSPost2010PropOp31
 70
     1
102
RTVSPost2010Prop32
280
     0
102
RTVSPost2010PropOp32
 70
     1
102
RTVSPost2010Prop33
280
     0
102
RTVSPost2010PropOp33
 70
     1
102
RTVSPost2010Prop34
280
     0
102
RTVSPost2010PropOp34
 70
     1
102
RTVSPost2010Prop35
280
     0
102
RTVSPost2010PropOp35
 70
     1
102
RTVSPost2010Prop36
280
     0
102
RTVSPost2010PropOp36
 70
     1
102
RTVSPost2010Prop37
 90
       50
102
RTVSPost2010PropOp37
 70
     1
102
RTVSPost2010Prop38
140
0.0
102
RTVSPost2010PropOp38
 70
     1
102
RTVSPost2010Prop39
140
1.0
102
RTVSPost2010PropOp39
 70
     1
102
RTVSPost2010Prop40
 90
        0
102
RTVSPost2010PropOp40
 70
     1
102
RTVSPost2010Prop41ColorIndex
 90
       18
102
RTVSPost2010Prop41ColorRGB
 90
        0
102
RTVSPost2010PropOp41
 70
     1
102
RTVSPost2010Prop42
 90
       50
102
RTVSPost2010PropOp42
 70
     1
102
RTVSPost2010Prop43
 90
        3
102
RTVSPost2010PropOp43
 70
     1
102
RTVSPost2010Prop44ColorIndex
 90
        5
102
RTVSPost2010Prop44ColorRGB
 90
      255
102
RTVSPost2010PropOp44
 70
     1
102
RTVSPost2010Prop45
280
     0
102
RTVSPost2010PropOp45
 70
     1
102
RTVSPost2010Prop46
 90
       50
102
RTVSPost2010PropOp46
 70
     1
102
RTVSPost2010Prop47
 90
       50
102
RTVSPost2010PropOp47
 70
     1
102
RTVSPost2010Prop48
 90
       50
102
RTVSPost2010PropOp48
 70
     1
102
RTVSPost2010Prop49
280
     0
102
RTVSPost2010PropOp49
 70
     1
102
RTVSPost2010Prop50
 90
       50
102
RTVSPost2010PropOp50
 70
     1
102
RTVSPost2010Prop51ColorIndex
 90
      256
102
RTVSPost2010Prop51ColorRGB
 90
-16777216
102
RTVSPost2010PropOp51
 70
     0
102
RTVSPost2010Prop52
140
1.0
102
RTVSPost2010PropOp52
 70
     0
102
RTVSPost2010Prop53
 90
        2
102
RTVSPost2010PropOp53
 70
     1
102
RTVSPost2010Prop54
  1
strokes_ogs.tif
102
RTVSPost2010PropOp54
 70
     1
102
RTVSPost2010Prop55
280
     0
102
RTVSPost2010PropOp55
 70
     1
102
RTVSPost2010Prop56
140
1.0
102
RTVSPost2010PropOp56
 70
     1
102
RTVSPost2010Prop57
140
1.0
102
RTVSPost2010PropOp57
 70
     1
  0
XRECORD
  5
5E5
102
{ACAD_REACTORS
330
5E4
102
}
330
5E4
100
AcDbXrecord
280
     1
102
RTVSPost2010Prop28
280
     0
102
RTVSPost2010PropOp28
 70
     1
102
RTVSPost2010Prop29
280
     1
102
RTVSPost2010PropOp29
 70
     1
102
RTVSPost2010Prop30
280
     1
102
RTVSPost2010PropOp30
 70
     1
102
RTVSPost2010Prop31
280
     0
102
RTVSPost2010PropOp31
 70
     1
102
RTVSPost2010Prop32
280
     0
102
RTVSPost2010PropOp32
 70
     1
102
RTVSPost2010Prop33
280
     0
102
RTVSPost2010PropOp33
 70
     1
102
RTVSPost2010Prop34
280
     0
102
RTVSPost2010PropOp34
 70
     1
102
RTVSPost2010Prop35
280
     0
102
RTVSPost2010PropOp35
 70
     1
102
RTVSPost2010Prop36
280
     0
102
RTVSPost2010PropOp36
 70
     1
102
RTVSPost2010Prop37
 90
       50
102
RTVSPost2010PropOp37
 70
     1
102
RTVSPost2010Prop38
140
0.0
102
RTVSPost2010PropOp38
 70
     1
102
RTVSPost2010Prop39
140
1.0
102
RTVSPost2010PropOp39
 70
     1
102
RTVSPost2010Prop40
 90
        0
102
RTVSPost2010PropOp40
 70
     1
102
RTVSPost2010Prop41ColorIndex
 90
       18
102
RTVSPost2010Prop41ColorRGB
 90
        0
102
RTVSPost2010PropOp41
 70
     1
102
RTVSPost2010Prop42
 90
       50
102
RTVSPost2010PropOp42
 70
     1
102
RTVSPost2010Prop43
 90
        3
102
RTVSPost2010PropOp43
 70
     1
102
RTVSPost2010Prop44ColorIndex
 90
        5
102
RTVSPost2010Prop44ColorRGB
 90
      255
102
RTVSPost2010PropOp44
 70
     1
102
RTVSPost2010Prop45
280
     0
102
RTVSPost2010PropOp45
 70
     1
102
RTVSPost2010Prop46
 90
       50
102
RTVSPost2010PropOp46
 70
     1
102
RTVSPost2010Prop47
 90
       50
102
RTVSPost2010PropOp47
 70
     1
102
RTVSPost2010Prop48
 90
       50
102
RTVSPost2010PropOp48
 70
     1
102
RTVSPost2010Prop49
280
     0
102
RTVSPost2010PropOp49
 70
     1
102
RTVSPost2010Prop50
 90
       50
102
RTVSPost2010PropOp50
 70
     1
102
RTVSPost2010Prop51ColorIndex
 90
      256
102
RTVSPost2010Prop51ColorRGB
 90
-16777216
102
RTVSPost2010PropOp51
 70
     0
102
RTVSPost2010Prop52
140
1.0
102
RTVSPost2010PropOp52
 70
     0
102
RTVSPost2010Prop53
 90
        2
102
RTVSPost2010PropOp53
 70
     1
102
RTVSPost2010Prop54
  1
strokes_ogs.tif
102
RTVSPost2010PropOp54
 70
     1
102
RTVSPost2010Prop55
280
     0
102
RTVSPost2010PropOp55
 70
     1
102
RTVSPost2010Prop56
140
1.0
102
RTVSPost2010PropOp56
 70
     1
102
RTVSPost2010Prop57
140
1.0
102
RTVSPost2010PropOp57
 70
     1
  0
XRECORD
  5
5DF
102
{ACAD_REACTORS
330
5DE
102
}
330
5DE
100
AcDbXrecord
280
     1
102
RTVSPost2010Prop28
280
     0
102
RTVSPost2010PropOp28
 70
     1
102
RTVSPost2010Prop29
280
     1
102
RTVSPost2010PropOp29
 70
     1
102
RTVSPost2010Prop30
280
     1
102
RTVSPost2010PropOp30
 70
     1
102
RTVSPost2010Prop31
280
     0
102
RTVSPost2010PropOp31
 70
     1
102
RTVSPost2010Prop32
280
     0
102
RTVSPost2010PropOp32
 70
     1
102
RTVSPost2010Prop33
280
     0
102
RTVSPost2010PropOp33
 70
     1
102
RTVSPost2010Prop34
280
     0
102
RTVSPost2010PropOp34
 70
     1
102
RTVSPost2010Prop35
280
     0
102
RTVSPost2010PropOp35
 70
     1
102
RTVSPost2010Prop36
280
     0
102
RTVSPost2010PropOp36
 70
     1
102
RTVSPost2010Prop37
 90
       50
102
RTVSPost2010PropOp37
 70
     1
102
RTVSPost2010Prop38
140
0.0
102
RTVSPost2010PropOp38
 70
     1
102
RTVSPost2010Prop39
140
1.0
102
RTVSPost2010PropOp39
 70
     1
102
RTVSPost2010Prop40
 90
        0
102
RTVSPost2010PropOp40
 70
     1
102
RTVSPost2010Prop41ColorIndex
 90
       18
102
RTVSPost2010Prop41ColorRGB
 90
        0
102
RTVSPost2010PropOp41
 70
     1
102
RTVSPost2010Prop42
 90
       50
102
RTVSPost2010PropOp42
 70
     1
102
RTVSPost2010Prop43
 90
        3
102
RTVSPost2010PropOp43
 70
     1
102
RTVSPost2010Prop44ColorIndex
 90
        5
102
RTVSPost2010Prop44ColorRGB
 90
      255
102
RTVSPost2010PropOp44
 70
     1
102
RTVSPost2010Prop45
280
     0
102
RTVSPost2010PropOp45
 70
     1
102
RTVSPost2010Prop46
 90
       50
102
RTVSPost2010PropOp46
 70
     1
102
RTVSPost2010Prop47
 90
       50
102
RTVSPost2010PropOp47
 70
     1
102
RTVSPost2010Prop48
 90
       50
102
RTVSPost2010PropOp48
 70
     1
102
RTVSPost2010Prop49
280
     0
102
RTVSPost2010PropOp49
 70
     1
102
RTVSPost2010Prop50
 90
       50
102
RTVSPost2010PropOp50
 70
     1
102
RTVSPost2010Prop51ColorIndex
 90
      256
102
RTVSPost2010Prop51ColorRGB
 90
-16777216
102
RTVSPost2010PropOp51
 70
     0
102
RTVSPost2010Prop52
140
1.0
102
RTVSPost2010PropOp52
 70
     0
102
RTVSPost2010Prop53
 90
        2
102
RTVSPost2010PropOp53
 70
     1
102
RTVSPost2010Prop54
  1
strokes_ogs.tif
102
RTVSPost2010PropOp54
 70
     1
102
RTVSPost2010Prop55
280
     0
102
RTVSPost2010PropOp55
 70
     1
102
RTVSPost2010Prop56
140
1.0
102
RTVSPost2010PropOp56
 70
     1
102
RTVSPost2010Prop57
140
1.0
102
RTVSPost2010PropOp57
 70
     1
  0
XRECORD
  5
5E1
102
{ACAD_REACTORS
330
5E0
102
}
330
5E0
100
AcDbXrecord
280
     1
102
RTVSPost2010Prop28
280
     0
102
RTVSPost2010PropOp28
 70
     1
102
RTVSPost2010Prop29
280
     1
102
RTVSPost2010PropOp29
 70
     1
102
RTVSPost2010Prop30
280
     1
102
RTVSPost2010PropOp30
 70
     1
102
RTVSPost2010Prop31
280
     0
102
RTVSPost2010PropOp31
 70
     1
102
RTVSPost2010Prop32
280
     0
102
RTVSPost2010PropOp32
 70
     1
102
RTVSPost2010Prop33
280
     0
102
RTVSPost2010PropOp33
 70
     1
102
RTVSPost2010Prop34
280
     0
102
RTVSPost2010PropOp34
 70
     1
102
RTVSPost2010Prop35
280
     0
102
RTVSPost2010PropOp35
 70
     1
102
RTVSPost2010Prop36
280
     0
102
RTVSPost2010PropOp36
 70
     1
102
RTVSPost2010Prop37
 90
       50
102
RTVSPost2010PropOp37
 70
     1
102
RTVSPost2010Prop38
140
0.0
102
RTVSPost2010PropOp38
 70
     1
102
RTVSPost2010Prop39
140
1.0
102
RTVSPost2010PropOp39
 70
     1
102
RTVSPost2010Prop40
 90
        0
102
RTVSPost2010PropOp40
 70
     1
102
RTVSPost2010Prop41ColorIndex
 90
       18
102
RTVSPost2010Prop41ColorRGB
 90
        0
102
RTVSPost2010PropOp41
 70
     1
102
RTVSPost2010Prop42
 90
       50
102
RTVSPost2010PropOp42
 70
     1
102
RTVSPost2010Prop43
 90
        3
102
RTVSPost2010PropOp43
 70
     1
102
RTVSPost2010Prop44ColorIndex
 90
        5
102
RTVSPost2010Prop44ColorRGB
 90
      255
102
RTVSPost2010PropOp44
 70
     1
102
RTVSPost2010Prop45
280
     0
102
RTVSPost2010PropOp45
 70
     1
102
RTVSPost2010Prop46
 90
       50
102
RTVSPost2010PropOp46
 70
     1
102
RTVSPost2010Prop47
 90
       50
102
RTVSPost2010PropOp47
 70
     1
102
RTVSPost2010Prop48
 90
       50
102
RTVSPost2010PropOp48
 70
     1
102
RTVSPost2010Prop49
280
     0
102
RTVSPost2010PropOp49
 70
     1
102
RTVSPost2010Prop50
 90
       50
102
RTVSPost2010PropOp50
 70
     1
102
RTVSPost2010Prop51ColorIndex
 90
      256
102
RTVSPost2010Prop51ColorRGB
 90
-16777216
102
RTVSPost2010PropOp51
 70
     0
102
RTVSPost2010Prop52
140
1.0
102
RTVSPost2010PropOp52
 70
     0
102
RTVSPost2010Prop53
 90
        2
102
RTVSPost2010PropOp53
 70
     1
102
RTVSPost2010Prop54
  1
strokes_ogs.tif
102
RTVSPost2010PropOp54
 70
     1
102
RTVSPost2010Prop55
280
     0
102
RTVSPost2010PropOp55
 70
     1
102
RTVSPost2010Prop56
140
1.0
102
RTVSPost2010PropOp56
 70
     1
102
RTVSPost2010Prop57
140
1.0
102
RTVSPost2010PropOp57
 70
     1
  0
XRECORD
  5
5D1
102
{ACAD_REACTORS
330
5D0
102
}
330
5D0
100
AcDbXrecord
280
     1
102
RTVSPost2010Prop28
280
     0
102
RTVSPost2010PropOp28
 70
     1
102
RTVSPost2010Prop29
280
     1
102
RTVSPost2010PropOp29
 70
     1
102
RTVSPost2010Prop30
280
     1
102
RTVSPost2010PropOp30
 70
     1
102
RTVSPost2010Prop31
280
     0
102
RTVSPost2010PropOp31
 70
     1
102
RTVSPost2010Prop32
280
     0
102
RTVSPost2010PropOp32
 70
     1
102
RTVSPost2010Prop33
280
     0
102
RTVSPost2010PropOp33
 70
     1
102
RTVSPost2010Prop34
280
     0
102
RTVSPost2010PropOp34
 70
     1
102
RTVSPost2010Prop35
280
     0
102
RTVSPost2010PropOp35
 70
     1
102
RTVSPost2010Prop36
280
     0
102
RTVSPost2010PropOp36
 70
     1
102
RTVSPost2010Prop37
 90
       50
102
RTVSPost2010PropOp37
 70
     1
102
RTVSPost2010Prop38
140
0.0
102
RTVSPost2010PropOp38
 70
     1
102
RTVSPost2010Prop39
140
1.0
102
RTVSPost2010PropOp39
 70
     1
102
RTVSPost2010Prop40
 90
        0
102
RTVSPost2010PropOp40
 70
     1
102
RTVSPost2010Prop41ColorIndex
 90
       18
102
RTVSPost2010Prop41ColorRGB
 90
        0
102
RTVSPost2010PropOp41
 70
     1
102
RTVSPost2010Prop42
 90
       50
102
RTVSPost2010PropOp42
 70
     1
102
RTVSPost2010Prop43
 90
        3
102
RTVSPost2010PropOp43
 70
     1
102
RTVSPost2010Prop44ColorIndex
 90
        5
102
RTVSPost2010Prop44ColorRGB
 90
      255
102
RTVSPost2010PropOp44
 70
     1
102
RTVSPost2010Prop45
280
     0
102
RTVSPost2010PropOp45
 70
     1
102
RTVSPost2010Prop46
 90
       50
102
RTVSPost2010PropOp46
 70
     1
102
RTVSPost2010Prop47
 90
       50
102
RTVSPost2010PropOp47
 70
     1
102
RTVSPost2010Prop48
 90
       50
102
RTVSPost2010PropOp48
 70
     1
102
RTVSPost2010Prop49
280
     0
102
RTVSPost2010PropOp49
 70
     1
102
RTVSPost2010Prop50
 90
       50
102
RTVSPost2010PropOp50
 70
     1
102
RTVSPost2010Prop51ColorIndex
 90
      256
102
RTVSPost2010Prop51ColorRGB
 90
-16777216
102
RTVSPost2010PropOp51
 70
     0
102
RTVSPost2010Prop52
140
1.0
102
RTVSPost2010PropOp52
 70
     0
102
RTVSPost2010Prop53
 90
        2
102
RTVSPost2010PropOp53
 70
     1
102
RTVSPost2010Prop54
  1
strokes_ogs.tif
102
RTVSPost2010PropOp54
 70
     1
102
RTVSPost2010Prop55
280
     0
102
RTVSPost2010PropOp55
 70
     1
102
RTVSPost2010Prop56
140
1.0
102
RTVSPost2010PropOp56
 70
     1
102
RTVSPost2010Prop57
140
1.0
102
RTVSPost2010PropOp57
 70
     1
  0
XRECORD
  5
5C3
102
{ACAD_REACTORS
330
5C2
102
}
330
5C2
100
AcDbXrecord
280
     1
102
RTVSPost2010Prop28
280
     0
102
RTVSPost2010PropOp28
 70
     1
102
RTVSPost2010Prop29
280
     1
102
RTVSPost2010PropOp29
 70
     1
102
RTVSPost2010Prop30
280
     1
102
RTVSPost2010PropOp30
 70
     1
102
RTVSPost2010Prop31
280
     0
102
RTVSPost2010PropOp31
 70
     1
102
RTVSPost2010Prop32
280
     0
102
RTVSPost2010PropOp32
 70
     1
102
RTVSPost2010Prop33
280
     0
102
RTVSPost2010PropOp33
 70
     1
102
RTVSPost2010Prop34
280
     0
102
RTVSPost2010PropOp34
 70
     1
102
RTVSPost2010Prop35
280
     0
102
RTVSPost2010PropOp35
 70
     1
102
RTVSPost2010Prop36
280
     0
102
RTVSPost2010PropOp36
 70
     1
102
RTVSPost2010Prop37
 90
       50
102
RTVSPost2010PropOp37
 70
     1
102
RTVSPost2010Prop38
140
0.0
102
RTVSPost2010PropOp38
 70
     1
102
RTVSPost2010Prop39
140
1.0
102
RTVSPost2010PropOp39
 70
     1
102
RTVSPost2010Prop40
 90
        0
102
RTVSPost2010PropOp40
 70
     1
102
RTVSPost2010Prop41ColorIndex
 90
       18
102
RTVSPost2010Prop41ColorRGB
 90
        0
102
RTVSPost2010PropOp41
 70
     1
102
RTVSPost2010Prop42
 90
       50
102
RTVSPost2010PropOp42
 70
     1
102
RTVSPost2010Prop43
 90
        3
102
RTVSPost2010PropOp43
 70
     1
102
RTVSPost2010Prop44ColorIndex
 90
        5
102
RTVSPost2010Prop44ColorRGB
 90
      255
102
RTVSPost2010PropOp44
 70
     1
102
RTVSPost2010Prop45
280
     0
102
RTVSPost2010PropOp45
 70
     1
102
RTVSPost2010Prop46
 90
       50
102
RTVSPost2010PropOp46
 70
     1
102
RTVSPost2010Prop47
 90
       50
102
RTVSPost2010PropOp47
 70
     1
102
RTVSPost2010Prop48
 90
       50
102
RTVSPost2010PropOp48
 70
     1
102
RTVSPost2010Prop49
280
     0
102
RTVSPost2010PropOp49
 70
     1
102
RTVSPost2010Prop50
 90
       50
102
RTVSPost2010PropOp50
 70
     1
102
RTVSPost2010Prop51ColorIndex
 90
      256
102
RTVSPost2010Prop51ColorRGB
 90
-16777216
102
RTVSPost2010PropOp51
 70
     0
102
RTVSPost2010Prop52
140
1.0
102
RTVSPost2010PropOp52
 70
     0
102
RTVSPost2010Prop53
 90
        2
102
RTVSPost2010PropOp53
 70
     1
102
RTVSPost2010Prop54
  1
strokes_ogs.tif
102
RTVSPost2010PropOp54
 70
     1
102
RTVSPost2010Prop55
280
     0
102
RTVSPost2010PropOp55
 70
     1
102
RTVSPost2010Prop56
140
1.0
102
RTVSPost2010PropOp56
 70
     1
102
RTVSPost2010Prop57
140
1.0
102
RTVSPost2010PropOp57
 70
     1
  0
XRECORD
  5
5E3
102
{ACAD_REACTORS
330
5E2
102
}
330
5E2
100
AcDbXrecord
280
     1
102
RTVSPost2010Prop28
280
     0
102
RTVSPost2010PropOp28
 70
     1
102
RTVSPost2010Prop29
280
     1
102
RTVSPost2010PropOp29
 70
     1
102
RTVSPost2010Prop30
280
     1
102
RTVSPost2010PropOp30
 70
     1
102
RTVSPost2010Prop31
280
     0
102
RTVSPost2010PropOp31
 70
     1
102
RTVSPost2010Prop32
280
     0
102
RTVSPost2010PropOp32
 70
     1
102
RTVSPost2010Prop33
280
     0
102
RTVSPost2010PropOp33
 70
     1
102
RTVSPost2010Prop34
280
     0
102
RTVSPost2010PropOp34
 70
     1
102
RTVSPost2010Prop35
280
     0
102
RTVSPost2010PropOp35
 70
     1
102
RTVSPost2010Prop36
280
     0
102
RTVSPost2010PropOp36
 70
     1
102
RTVSPost2010Prop37
 90
       50
102
RTVSPost2010PropOp37
 70
     1
102
RTVSPost2010Prop38
140
0.0
102
RTVSPost2010PropOp38
 70
     1
102
RTVSPost2010Prop39
140
1.0
102
RTVSPost2010PropOp39
 70
     1
102
RTVSPost2010Prop40
 90
        0
102
RTVSPost2010PropOp40
 70
     1
102
RTVSPost2010Prop41ColorIndex
 90
       18
102
RTVSPost2010Prop41ColorRGB
 90
        0
102
RTVSPost2010PropOp41
 70
     1
102
RTVSPost2010Prop42
 90
       50
102
RTVSPost2010PropOp42
 70
     1
102
RTVSPost2010Prop43
 90
        3
102
RTVSPost2010PropOp43
 70
     1
102
RTVSPost2010Prop44ColorIndex
 90
        5
102
RTVSPost2010Prop44ColorRGB
 90
      255
102
RTVSPost2010PropOp44
 70
     1
102
RTVSPost2010Prop45
280
     0
102
RTVSPost2010PropOp45
 70
     1
102
RTVSPost2010Prop46
 90
       50
102
RTVSPost2010PropOp46
 70
     1
102
RTVSPost2010Prop47
 90
       50
102
RTVSPost2010PropOp47
 70
     1
102
RTVSPost2010Prop48
 90
       50
102
RTVSPost2010PropOp48
 70
     1
102
RTVSPost2010Prop49
280
     0
102
RTVSPost2010PropOp49
 70
     1
102
RTVSPost2010Prop50
 90
       50
102
RTVSPost2010PropOp50
 70
     1
102
RTVSPost2010Prop51ColorIndex
 90
      256
102
RTVSPost2010Prop51ColorRGB
 90
-16777216
102
RTVSPost2010PropOp51
 70
     0
102
RTVSPost2010Prop52
140
1.0
102
RTVSPost2010PropOp52
 70
     0
102
RTVSPost2010Prop53
 90
        2
102
RTVSPost2010PropOp53
 70
     1
102
RTVSPost2010Prop54
  1
strokes_ogs.tif
102
RTVSPost2010PropOp54
 70
     1
102
RTVSPost2010Prop55
280
     0
102
RTVSPost2010PropOp55
 70
     1
102
RTVSPost2010Prop56
140
1.0
102
RTVSPost2010PropOp56
 70
     1
102
RTVSPost2010Prop57
140
1.0
102
RTVSPost2010PropOp57
 70
     1
  0
ENDSEC
  0
EOF
