  0
SECTION
  2
HEADER
  9
$ACADVER
  1
AC1024
  9
$ACADMAINTVER
 70
     6
  9
$DWGCODEPAGE
  3
ANSI_1252
  9
$INSBASE
 10
0.0
 20
0.0
 30
0.0
  9
$EXTMIN
 10
0.0
 20
0.0
 30
0.0
  9
$EXTMAX
 10
1189.0
 20
841.0
 30
0.0
  9
$LIMMIN
 10
0.0
 20
0.0
  9
$LIMMAX
 10
1189.0
 20
841.0
  9
$ORTHOMODE
 70
     0
  9
$REGENMODE
 70
     1
  9
$FILLMODE
 70
     1
  9
$QTEXTMODE
 70
     0
  9
$MIRRTEXT
 70
     1
  9
$LTSCALE
 40
65.395
  9
$ATTMODE
 70
     1
  9
$TEXTSIZE
 40
0.2
  9
$TRACEWID
 40
0.05
  9
$TEXTSTYLE
  7
STANDARD
  9
$CLAYER
  8
0
  9
$CELTYPE
  6
BYLAYER
  9
$CECOLOR
 62
   256
  9
$CELTSCALE
 40
1.0
  9
$DISPSILH
 70
     0
  9
$DIMSCALE
 40
1.0
  9
$DIMASZ
 40
2.5
  9
$DIMEXO
 40
0.75
  9
$DIMDLI
 40
45.182
  9
$DIMRND
 40
0.0
  9
$DIMDLE
 40
0.0
  9
$DIMEXE
 40
0.75
  9
$DIMTP
 40
0.01
  9
$DIMTM
 40
0.01
  9
$DIMTXT
 40
3.0
  9
$DIMCEN
 40
10.701
  9
$DIMTSZ
 40
0.0
  9
$DIMTOL
 70
     1
  9
$DIMLIM
 70
     0
  9
$DIMTIH
 70
     1
  9
$DIMTOH
 70
     1
  9
$DIMSE1
 70
     0
  9
$DIMSE2
 70
     0
  9
$DIMTAD
 70
     0
  9
$DIMZIN
 70
     0
  9
$DIMBLK
  1
CLOSED
  9
$DIMASO
 70
     1
  9
$DIMSHO
 70
     1
  9
$DIMPOST
  1

  9
$DIMAPOST
  1

  9
$DIMALT
 70
     0
  9
$DIMALTD
 70
     2
  9
$DIMALTF
 40
25.4
  9
$DIMLFAC
 40
1.0
  9
$DIMTOFL
 70
     0
  9
$DIMTVP
 40
0.0
  9
$DIMTIX
 70
     0
  9
$DIMSOXD
 70
     0
  9
$DIMSAH
 70
     0
  9
$DIMBLK1
  1

  9
$DIMBLK2
  1

  9
$DIMSTYLE
  2
STANDARD
  9
$DIMCLRD
 70
     0
  9
$DIMCLRE
 70
     0
  9
$DIMCLRT
 70
     0
  9
$DIMTFAC
 40
1.0
  9
$DIMGAP
 40
0.625
  9
$DIMJUST
 70
     0
  9
$DIMSD1
 70
     0
  9
$DIMSD2
 70
     0
  9
$DIMTOLJ
 70
     1
  9
$DIMTZIN
 70
     0
  9
$DIMALTZ
 70
     0
  9
$DIMALTTZ
 70
     0
  9
$DIMUPT
 70
     0
  9
$DIMDEC
 70
     4
  9
$DIMTDEC
 70
     4
  9
$DIMALTU
 70
     2
  9
$DIMALTTD
 70
     2
  9
$DIMTXSTY
  7
STANDARD
  9
$DIMAUNIT
 70
     0
  9
$DIMADEC
 70
     0
  9
$DIMALTRND
 40
0.0
  9
$DIMAZIN
 70
     0
  9
$DIMDSEP
 70
    44
  9
$DIMATFIT
 70
     3
  9
$DIMFRAC
 70
     0
  9
$DIMLDRBLK
  1

  9
$DIMLUNIT
 70
     2
  9
$DIMLWD
 70
    -2
  9
$DIMLWE
 70
    -2
  9
$DIMTMOVE
 70
     0
  9
$DIMFXL
 40
1.0
  9
$DIMFXLON
 70
     0
  9
$DIMJOGANG
 40
0.785398
  9
$DIMTFILL
 70
     0
  9
$DIMTFILLCLR
 70
     0
  9
$DIMARCSYM
 70
     0
  9
$DIMLTYPE
  6

  9
$DIMLTEX1
  6

  9
$DIMLTEX2
  6

  9
$DIMTXTDIRECTION
 70
     0
  9
$LUNITS
 70
     2
  9
$LUPREC
 70
     4
  9
$SKETCHINC
 40
0.1
  9
$FILLETRAD
 40
0.5
  9
$AUNITS
 70
     0
  9
$AUPREC
 70
     0
  9
$MENU
  1
.
  9
$ELEVATION
 40
0.0
  9
$PELEVATION
 40
0.0
  9
$THICKNESS
 40
0.0
  9
$LIMCHECK
 70
     0
  9
$CHAMFERA
 40
0.0
  9
$CHAMFERB
 40
0.0
  9
$CHAMFERC
 40
0.0
  9
$CHAMFERD
 40
0.0
  9
$SKPOLY
 70
     0
  9
$TDCREATE
 40
2447893.083333333
  9
$TDUCREATE
 40
0.0
  9
$TDUPDATE
 40
2459822.393329502
  9
$TDUUPDATE
 40
2459822.309996169
  9
$TDINDWG
 40
0.0
  9
$TDUSRTIMER
 40
0.0
  9
$USRTIMER
 70
     1
  9
$ANGBASE
 50
0.0
  9
$ANGDIR
 70
     0
  9
$PDMODE
 70
     3
  9
$PDSIZE
 40
0.3125
  9
$PLINEWID
 40
0.0
  9
$SPLFRAME
 70
     0
  9
$SPLINETYPE
 70
     6
  9
$SPLINESEGS
 70
     8
  9
$HANDSEED
  5
58A
  9
$SURFTAB1
 70
     6
  9
$SURFTAB2
 70
     6
  9
$SURFTYPE
 70
     6
  9
$SURFU
 70
     6
  9
$SURFV
 70
     6
  9
$UCSBASE
  2

  9
$UCSNAME
  2

  9
$UCSORG
 10
0.0
 20
0.0
 30
0.0
  9
$UCSXDIR
 10
1.0
 20
0.0
 30
0.0
  9
$UCSYDIR
 10
0.0
 20
1.0
 30
0.0
  9
$UCSORTHOREF
  2

  9
$UCSORTHOVIEW
 70
     0
  9
$UCSORGTOP
 10
0.0
 20
0.0
 30
0.0
  9
$UCSORGBOTTOM
 10
0.0
 20
0.0
 30
0.0
  9
$UCSORGLEFT
 10
0.0
 20
0.0
 30
0.0
  9
$UCSORGRIGHT
 10
0.0
 20
0.0
 30
0.0
  9
$UCSORGFRONT
 10
0.0
 20
0.0
 30
0.0
  9
$UCSORGBACK
 10
0.0
 20
0.0
 30
0.0
  9
$PUCSBASE
  2

  9
$PUCSNAME
  2

  9
$PUCSORG
 10
0.0
 20
0.0
 30
0.0
  9
$PUCSXDIR
 10
1.0
 20
0.0
 30
0.0
  9
$PUCSYDIR
 10
0.0
 20
1.0
 30
0.0
  9
$PUCSORTHOREF
  2

  9
$PUCSORTHOVIEW
 70
     0
  9
$PUCSORGTOP
 10
0.0
 20
0.0
 30
0.0
  9
$PUCSORGBOTTOM
 10
0.0
 20
0.0
 30
0.0
  9
$PUCSORGLEFT
 10
0.0
 20
0.0
 30
0.0
  9
$PUCSORGRIGHT
 10
0.0
 20
0.0
 30
0.0
  9
$PUCSORGFRONT
 10
0.0
 20
0.0
 30
0.0
  9
$PUCSORGBACK
 10
0.0
 20
0.0
 30
0.0
  9
$USERI1
 70
     0
  9
$USERI2
 70
     0
  9
$USERI3
 70
     0
  9
$USERI4
 70
     0
  9
$USERI5
 70
     0
  9
$USERR1
 40
0.0
  9
$USERR2
 40
0.0
  9
$USERR3
 40
0.0
  9
$USERR4
 40
0.0
  9
$USERR5
 40
0.0
  9
$WORLDVIEW
 70
     1
  9
$SHADEDGE
 70
     3
  9
$SHADEDIF
 70
    70
  9
$TILEMODE
 70
     1
  9
$MAXACTVP
 70
    64
  9
$PINSBASE
 10
0.0
 20
0.0
 30
0.0
  9
$PLIMCHECK
 70
     0
  9
$PEXTMIN
 10
1.000000E+20
 20
1.000000E+20
 30
1.000000E+20
  9
$PEXTMAX
 10
-1.000000E+20
 20
-1.000000E+20
 30
-1.000000E+20
  9
$PLIMMIN
 10
0.0
 20
0.0
  9
$PLIMMAX
 10
12.0
 20
9.0
  9
$UNITMODE
 70
     0
  9
$VISRETAIN
 70
     1
  9
$PLINEGEN
 70
     0
  9
$PSLTSCALE
 70
     0
  9
$TREEDEPTH
 70
  3020
  9
$CMLSTYLE
  2

  9
$CMLJUST
 70
     0
  9
$CMLSCALE
 40
1.0
  9
$PROXYGRAPHICS
 70
     1
  9
$MEASUREMENT
 70
     1
  9
$CELWEIGHT
370
    -1
  9
$ENDCAPS
280
     0
  9
$JOINSTYLE
280
     0
  9
$LWDISPLAY
290
     0
  9
$INSUNITS
 70
     4
  9
$HYPERLINKBASE
  1

  9
$STYLESHEET
  1

  9
$XEDIT
290
     1
  9
$CEPSNTYPE
380
     0
  9
$PSTYLEMODE
290
     1
  9
$FINGERPRINTGUID
  2
{9FB8D8AE-9FDB-45E6-A90F-DBBFCA4AE250}
  9
$VERSIONGUID
  2
{FAEB1C32-E019-11D5-929B-00C0DF256EC4}
  9
$EXTNAMES
290
     1
  9
$PSVPSCALE
 40
0.0
  9
$OLESTARTUP
290
     0
  9
$SORTENTS
280
   127
  9
$INDEXCTL
280
     0
  9
$HIDETEXT
280
     1
  9
$XCLIPFRAME
280
     2
  9
$HALOGAP
280
     0
  9
$OBSCOLOR
 70
   257
  9
$OBSLTYPE
280
     0
  9
$INTERSECTIONDISPLAY
280
     0
  9
$INTERSECTIONCOLOR
 70
   257
  9
$DIMASSOC
280
     2
  9
$PROJECTNAME
  1

  9
$CAMERADISPLAY
290
     0
  9
$LENSLENGTH
 40
50.0
  9
$CAMERAHEIGHT
 40
0.0
  9
$STEPSPERSEC
 40
2.0
  9
$STEPSIZE
 40
6.0
  9
$3DDWFPREC
 40
2.0
  9
$PSOLWIDTH
 40
0.25
  9
$PSOLHEIGHT
 40
4.0
  9
$LOFTANG1
 40
1.570796
  9
$LOFTANG2
 40
1.570796
  9
$LOFTMAG1
 40
0.0
  9
$LOFTMAG2
 40
0.0
  9
$LOFTPARAM
 70
     7
  9
$LOFTNORMALS
280
     1
  9
$LATITUDE
 40
37.795
  9
$LONGITUDE
 40
-122.394
  9
$NORTHDIRECTION
 40
0.0
  9
$TIMEZONE
 70
 -8000
  9
$LIGHTGLYPHDISPLAY
280
     1
  9
$TILEMODELIGHTSYNCH
280
     1
  9
$SOLIDHIST
280
     1
  9
$SHOWHIST
280
     1
  9
$DWFFRAME
280
     2
  9
$DGNFRAME
280
     2
  9
$REALWORLDSCALE
290
     1
  9
$INTERFERECOLOR
 62
   256
  9
$CSHADOW
280
     0
  9
$SHADOWPLANELOCATION
 40
0.0
  0
ENDSEC
  0
SECTION
  2
CLASSES
  0
CLASS
  1
ACDBDICTIONARYWDFLT
  2
AcDbDictionaryWithDefault
  3
ObjectDBX Classes
 90
        0
 91
        6
280
     0
281
     0
  0
CLASS
  1
ACDBPLACEHOLDER
  2
AcDbPlaceHolder
  3
ObjectDBX Classes
 90
        0
 91
        1
280
     0
281
     0
  0
CLASS
  1
LAYOUT
  2
AcDbLayout
  3
ObjectDBX Classes
 90
        0
 91
        1
280
     0
281
     0
  0
CLASS
  1
TABLESTYLE
  2
AcDbTableStyle
  3
ObjectDBX Classes
 90
     4095
 91
        5
280
     0
281
     0
  0
CLASS
  1
ACAD_TABLE
  2
AcDbTable
  3
ObjectDBX Classes
 90
     1025
 91
        5
280
     0
281
     1
  0
CLASS
  1
SCALE
  2
AcDbScale
  3
ObjectDBX Classes
 90
     1153
 91
        5
280
     0
281
     0
  0
CLASS
  1
TABLEGEOMETRY
  2
AcDbTableGeometry
  3
ObjectDBX Classes
 90
     1152
 91
        4
280
     0
281
     0
  0
CLASS
  1
VISUALSTYLE
  2
AcDbVisualStyle
  3
ObjectDBX Classes
 90
     4095
 91
        5
280
     0
281
     0
  0
CLASS
  1
MATERIAL
  2
AcDbMaterial
  3
ObjectDBX Classes
 90
     1153
 91
        5
280
     0
281
     0
  0
CLASS
  1
SUN
  2
AcDbSun
  3
SCENEOE
 90
     1153
 91
        5
280
     0
281
     0
  0
CLASS
  1
CSACDOCUMENTOPTIONS
  2
CDocDataContainer
  3
"DERU003_CSAPP"
 90
     4095
 91
        4
280
     0
281
     0
  0
CLASS
  1
TABLECONTENT
  2
AcDbTableContent
  3
ObjectDBX Classes
 90
     1152
 91
        4
280
     0
281
     0
  0
CLASS
  1
DICTIONARYVAR
  2
AcDbDictionaryVar
  3
ObjectDBX Classes
 90
        0
 91
        4
280
     0
281
     0
  0
CLASS
  1
CELLSTYLEMAP
  2
AcDbCellStyleMap
  3
ObjectDBX Classes
 90
     1152
 91
        4
280
     0
281
     0
  0
ENDSEC
  0
SECTION
  2
TABLES
  0
TABLE
  2
VPORT
  5
8
330
0
100
AcDbSymbolTable
 70
     1
  0
VPORT
  5
1F4
330
8
100
AcDbSymbolTableRecord
100
AcDbViewportTableRecord
  2
*ACTIVE
 70
     0
 10
0.0
 20
0.0
 11
1.0
 21
1.0
 12
594.5
 22
420.5
 13
0.0
 23
0.0
 14
1.0
 24
1.0
 15
0.0
 25
0.0
 16
0.0
 26
0.0
 36
1.0
 17
0.0
 27
0.0
 37
0.0
 40
841.0
 41
2.176471
 42
50.0
 43
0.0
 44
0.0
 50
0.0
 51
0.0
 71
    16
 72
   100
 73
     1
 74
     1
 75
     0
 76
     0
 77
     0
 78
     0
281
     0
 65
     1
110
0.0
120
0.0
130
0.0
111
1.0
121
0.0
131
0.0
112
0.0
122
1.0
132
0.0
 79
     0
146
0.0
 60
     3
 61
     5
292
     1
282
     1
141
0.0
142
0.0
 63
   256
361
545
  0
ENDTAB
  0
TABLE
  2
LTYPE
  5
5
330
0
100
AcDbSymbolTable
 70
     6
  0
LTYPE
  5
14
330
5
100
AcDbSymbolTableRecord
100
AcDbLinetypeTableRecord
  2
BYBLOCK
 70
     0
  3

 72
    65
 73
     0
 40
0.0
  0
LTYPE
  5
15
330
5
100
AcDbSymbolTableRecord
100
AcDbLinetypeTableRecord
  2
BYLAYER
 70
     0
  3

 72
    65
 73
     0
 40
0.0
  0
LTYPE
  5
16
330
5
100
AcDbSymbolTableRecord
100
AcDbLinetypeTableRecord
  2
CONTINUOUS
 70
     0
  3
Solid line
 72
    65
 73
     0
 40
0.0
  0
LTYPE
  5
1F5
330
5
100
AcDbSymbolTableRecord
100
AcDbLinetypeTableRecord
  2
CENTER
 70
     0
  3
____ _ ____ _ ____ _ ____ _ ____ _ ____ _ ____
 72
    65
 73
     4
 40
0.6
 49
0.375
 74
     0
 49
-0.075
 74
     0
 49
0.075
 74
     0
 49
-0.075
 74
     0
  0
LTYPE
  5
1F6
330
5
100
AcDbSymbolTableRecord
100
AcDbLinetypeTableRecord
  2
HIDDEN
 70
     0
  3
- - - - - - - - - - - - - - - - - - - -
 72
    65
 73
     2
 40
0.2
 49
0.1
 74
     0
 49
-0.1
 74
     0
  0
LTYPE
  5
1F7
330
5
100
AcDbSymbolTableRecord
100
AcDbLinetypeTableRecord
  2
PHANTOM
 70
     0
  3
_____ _ _ _____ _ _ _____ _ _ _____
 72
    65
 73
     6
 40
0.8
 49
0.45
 74
     0
 49
-0.05
 74
     0
 49
0.1
 74
     0
 49
-0.05
 74
     0
 49
0.1
 74
     0
 49
-0.05
 74
     0
  0
LTYPE
  5
1F8
330
5
100
AcDbSymbolTableRecord
100
AcDbLinetypeTableRecord
  2
DOT
 70
     0
  3
. . . . . . . . . . . . . . . . . . . .
 72
    65
 73
     2
 40
0.2
 49
0.1
 74
     0
 49
-0.1
 74
     0
  0
LTYPE
  5
1F9
330
5
100
AcDbSymbolTableRecord
100
AcDbLinetypeTableRecord
  2
DASHED
 70
     0
  3
- - - - - - - - - - - - - - - - - - - -
 72
    65
 73
     2
 40
0.2
 49
0.1
 74
     0
 49
-0.1
 74
     0
  0
ENDTAB
  0
TABLE
  2
LAYER
  5
2
330
0
100
AcDbSymbolTable
 70
    12
  0
LAYER
  5
10
330
2
100
AcDbSymbolTableRecord
100
AcDbLayerTableRecord
  2
0
 70
     0
 62
     7
  6
CONTINUOUS
370
    -3
390
F
347
53F
  0
LAYER
  5
1FA
330
2
100
AcDbSymbolTableRecord
100
AcDbLayerTableRecord
  2
DEFAULT_1
 70
     0
 62
     7
  6
CENTER
370
    -3
390
F
347
53F
  0
LAYER
  5
1FB
330
2
100
AcDbSymbolTableRecord
100
AcDbLayerTableRecord
  2
DEFAULT_2
 70
     0
 62
     8
  6
HIDDEN
370
    -3
390
F
347
53F
  0
LAYER
  5
1FC
330
2
100
AcDbSymbolTableRecord
100
AcDbLayerTableRecord
  2
DEFAULT_3
 70
     0
 62
     7
  6
PHANTOM
370
    -3
390
F
347
53F
  0
LAYER
  5
1FD
330
2
100
AcDbSymbolTableRecord
100
AcDbLayerTableRecord
  2
1_ALL_PLANES
 70
     0
 62
     7
  6
CONTINUOUS
370
    -3
390
F
347
53F
  0
LAYER
  5
1FE
330
2
100
AcDbSymbolTableRecord
100
AcDbLayerTableRecord
  2
2_ALL_CSYS
 70
     0
 62
     7
  6
CONTINUOUS
370
    -3
390
F
347
53F
  0
LAYER
  5
1FF
330
2
100
AcDbSymbolTableRecord
100
AcDbLayerTableRecord
  2
3_ALL_AXES
 70
     0
 62
     7
  6
CONTINUOUS
370
    -3
390
F
347
53F
  0
LAYER
  5
200
330
2
100
AcDbSymbolTableRecord
100
AcDbLayerTableRecord
  2
4_ALL_POINTS
 70
     0
 62
     7
  6
CONTINUOUS
370
    -3
390
F
347
53F
  0
LAYER
  5
201
330
2
100
AcDbSymbolTableRecord
100
AcDbLayerTableRecord
  2
5_ALL_CURVES
 70
     0
 62
     7
  6
CONTINUOUS
370
    -3
390
F
347
53F
  0
LAYER
  5
202
330
2
100
AcDbSymbolTableRecord
100
AcDbLayerTableRecord
  2
6_ALL_SURFS
 70
     0
 62
     7
  6
CONTINUOUS
370
    -3
390
F
347
53F
  0
LAYER
  5
203
330
2
100
AcDbSymbolTableRecord
100
AcDbLayerTableRecord
  2
7_ALL_FEATURES
 70
     0
 62
     7
  6
CONTINUOUS
370
    -3
390
F
347
53F
  0
LAYER
  5
204
330
2
100
AcDbSymbolTableRecord
100
AcDbLayerTableRecord
  2
9_SOLID
 70
     0
 62
     7
  6
CONTINUOUS
370
    -3
390
F
347
53F
  0
ENDTAB
  0
TABLE
  2
STYLE
  5
3
330
0
100
AcDbSymbolTable
 70
     3
  0
STYLE
  5
11
330
3
100
AcDbSymbolTableRecord
100
AcDbTextStyleTableRecord
  2
STANDARD
 70
     0
 40
0.0
 41
1.0
 50
0.0
 71
     0
 42
0.2
  3
arial.ttf
  4

  0
STYLE
  5
205
330
3
100
AcDbSymbolTableRecord
100
AcDbTextStyleTableRecord
  2
TEXTSTYLE_1
 70
     0
 40
0.0
 41
0.8
 50
0.0
 71
     0
 42
0.2
  3
gdt
  4

  0
STYLE
  5
206
330
3
100
AcDbSymbolTableRecord
100
AcDbTextStyleTableRecord
  2
TEXTSTYLE_2
 70
     0
 40
0.0
 41
0.9
 50
0.0
 71
     0
 42
0.2
  3
txt
  4

  0
ENDTAB
  0
TABLE
  2
VIEW
  5
6
330
0
100
AcDbSymbolTable
 70
     0
  0
ENDTAB
  0
TABLE
  2
UCS
  5
7
330
0
100
AcDbSymbolTable
 70
     0
  0
ENDTAB
  0
TABLE
  2
APPID
  5
9
330
0
100
AcDbSymbolTable
 70
     6
  0
APPID
  5
207
330
9
100
AcDbSymbolTableRecord
100
AcDbRegAppTableRecord
  2
ACAD
 70
     0
  0
APPID
  5
540
330
9
100
AcDbSymbolTableRecord
100
AcDbRegAppTableRecord
  2
MCS_DIM1
 70
     0
  0
APPID
  5
541
330
9
100
AcDbSymbolTableRecord
100
AcDbRegAppTableRecord
  2
McsXdata5
 70
     0
  0
APPID
  5
544
330
9
100
AcDbSymbolTableRecord
100
AcDbRegAppTableRecord
  2
MCS_DOCUMENT_ID
 70
     0
  0
APPID
  5
54A
330
9
100
AcDbSymbolTableRecord
100
AcDbRegAppTableRecord
  2
MCS_PARAMS_DATA
 70
     0
  0
APPID
  5
54C
330
9
100
AcDbSymbolTableRecord
100
AcDbRegAppTableRecord
  2
MC_VERSION_DATA
 70
     0
  0
ENDTAB
  0
TABLE
  2
DIMSTYLE
  5
A
330
0
100
AcDbSymbolTable
 70
     4
100
AcDbDimStyleTable
  0
DIMSTYLE
105
210
330
A
100
AcDbSymbolTableRecord
100
AcDbDimStyleTableRecord
  2
STANDARD
 70
     0
 41
2.5
 42
0.75
 44
0.75
 47
0.01
 48
0.01
 71
     1
 73
     0
 74
     0
 77
     1
 78
     8
 79
     2
140
3.0
147
0.625
171
     1
178
     0
179
     2
271
     2
272
     2
278
    44
284
     8
340
11
341
20A
342
20A
343
20A
344
20A
  0
DIMSTYLE
105
211
330
A
100
AcDbSymbolTableRecord
100
AcDbDimStyleTableRecord
  2
DIMSTYLE_1
 70
     0
 41
2.5
 42
0.75
 44
0.75
 47
0.3
 48
0.3
 73
     0
 74
     0
 77
     1
 78
     8
 79
     2
140
6.0
147
1.5
171
     1
178
     0
179
     2
271
     2
272
     2
278
    44
284
     8
340
11
341
20A
342
20A
343
20A
344
20A
  0
DIMSTYLE
105
212
330
A
100
AcDbSymbolTableRecord
100
AcDbDimStyleTableRecord
  2
DIMSTYLE_2
 70
     0
 41
2.5
 42
0.75
 44
0.75
 47
0.5
 48
0.5
 73
     0
 74
     0
 77
     1
 78
     8
 79
     2
140
6.0
147
1.5
171
     1
178
     0
179
     2
271
     2
272
     2
278
    44
284
     8
340
11
341
20A
342
20A
343
20A
344
20A
  0
DIMSTYLE
105
213
330
A
100
AcDbSymbolTableRecord
100
AcDbDimStyleTableRecord
  2
DIMSTYLE_3
 70
     0
 41
2.5
 42
0.75
 44
0.75
 47
0.8
 48
0.8
 73
     0
 74
     0
 77
     1
 78
     8
 79
     2
140
6.0
147
1.5
171
     1
178
     0
179
     2
271
     2
272
     2
278
    44
284
     8
340
11
341
20A
342
20A
343
20A
344
20A
  0
ENDTAB
  0
TABLE
  2
BLOCK_RECORD
  5
1
330
0
100
AcDbSymbolTable
 70
     6
  0
BLOCK_RECORD
  5
208
330
1
100
AcDbSymbolTableRecord
100
AcDbBlockTableRecord
  2
*Model_Space
340
4FA
 70
     0
280
     1
281
     0
  0
BLOCK_RECORD
  5
209
330
1
100
AcDbSymbolTableRecord
100
AcDbBlockTableRecord
  2
*Paper_Space
340
4FB
 70
     0
280
     1
281
     0
  0
BLOCK_RECORD
  5
20A
330
1
100
AcDbSymbolTableRecord
100
AcDbBlockTableRecord
  2
_CLOSED
340
0
102
{BLKREFS
331
25C
331
25D
331
265
331
266
331
26E
331
26F
102
}
 70
     0
280
     1
281
     0
  0
BLOCK_RECORD
  5
20B
330
1
100
AcDbSymbolTableRecord
100
AcDbBlockTableRecord
  2
*D1
340
0
 70
     0
280
     1
281
     0
  0
BLOCK_RECORD
  5
20C
330
1
100
AcDbSymbolTableRecord
100
AcDbBlockTableRecord
  2
*D2
340
0
 70
     0
280
     1
281
     0
  0
BLOCK_RECORD
  5
20D
330
1
100
AcDbSymbolTableRecord
100
AcDbBlockTableRecord
  2
*D3
340
0
 70
     0
280
     1
281
     0
  0
BLOCK_RECORD
  5
20E
330
1
100
AcDbSymbolTableRecord
100
AcDbBlockTableRecord
  2
LOGO2_BL0
340
0
102
{BLKREFS
331
4F7
102
}
 70
     0
280
     1
281
     0
  0
BLOCK_RECORD
  5
20F
330
1
100
AcDbSymbolTableRecord
100
AcDbBlockTableRecord
  2
*T5
340
0
102
{BLKREFS
331
4F8
102
}
 70
     0
280
     1
281
     0
  0
ENDTAB
  0
ENDSEC
  0
SECTION
  2
BLOCKS
  0
BLOCK
  5
20
330
208
100
AcDbEntity
  8
0
100
AcDbBlockBegin
  2
*Model_Space
 70
     0
 10
0.0
 20
0.0
 30
0.0
  3
*Model_Space
  1
*Model_Space
  0
ENDBLK
  5
21
330
208
100
AcDbEntity
  8
0
100
AcDbBlockEnd
  0
BLOCK
  5
1C
330
209
100
AcDbEntity
 67
     1
  8
0
100
AcDbBlockBegin
  2
*Paper_Space
 70
     0
 10
0.0
 20
0.0
 30
0.0
  3
*Paper_Space
  1
*Paper_Space
  0
ENDBLK
  5
1D
330
209
100
AcDbEntity
 67
     1
  8
0
100
AcDbBlockEnd
  0
BLOCK
  5
250
330
20A
100
AcDbEntity
  8
0
100
AcDbBlockBegin
  2
_CLOSED
 70
     0
 10
0.0
 20
0.0
 30
0.0
  3
_CLOSED
  1
_CLOSED
  0
LINE
  5
251
330
20A
100
AcDbEntity
  8
0
  6
ByBlock
 62
     0
100
AcDbLine
 10
0.0
 20
0.0
 30
0.0
 11
-1.0
 21
0.2
 31
0.0
  0
LINE
  5
252
330
20A
100
AcDbEntity
  8
0
  6
ByBlock
 62
     0
100
AcDbLine
 10
-1.0
 20
0.2
 30
0.0
 11
-1.0
 21
-0.2
 31
0.0
  0
LINE
  5
253
330
20A
100
AcDbEntity
  8
0
  6
ByBlock
 62
     0
100
AcDbLine
 10
-1.0
 20
-0.2
 30
0.0
 11
0.0
 21
0.0
 31
0.0
  0
LINE
  5
254
330
20A
100
AcDbEntity
  8
0
  6
ByBlock
 62
     0
100
AcDbLine
 10
-1.0
 20
0.0
 30
0.0
 11
0.0
 21
0.0
 31
0.0
  0
ENDBLK
  5
255
330
20A
100
AcDbEntity
  8
0
  6
ByBlock
 62
     0
100
AcDbBlockEnd
  0
BLOCK
  5
256
330
20B
100
AcDbEntity
  8
0
100
AcDbBlockBegin
  2
*D1
 70
     1
 10
0.0
 20
0.0
 30
0.0
  3
*D1
  1
*D1
  0
MTEXT
  5
257
330
20B
100
AcDbEntity
  8
0
  6
Continuous
 62
     2
100
AcDbMText
 10
995.685547
 20
728.936268
 30
0.0
 40
6.0
 41
20.966543
 46
0.0
 71
     2
 72
     1
  1
101,4
 73
     1
 44
0.9
  0
LINE
  5
258
330
20B
100
AcDbEntity
  8
0
  6
Continuous
 62
     2
100
AcDbLine
 10
944.985547
 20
700.765898
 30
0.0
 11
944.985547
 21
722.186268
 31
0.0
  0
LINE
  5
259
330
20B
100
AcDbEntity
  8
0
  6
Continuous
 62
     2
100
AcDbLine
 10
1046.385547
 20
700.480816
 30
0.0
 11
1046.385547
 21
722.186268
 31
0.0
  0
LINE
  5
25A
330
20B
100
AcDbEntity
  8
0
  6
Continuous
 62
     2
100
AcDbLine
 10
944.985547
 20
721.436268
 30
0.0
 11
995.685547
 21
721.436268
 31
0.0
  0
LINE
  5
25B
330
20B
100
AcDbEntity
  8
0
  6
Continuous
 62
     2
100
AcDbLine
 10
1046.385547
 20
721.436268
 30
0.0
 11
995.685547
 21
721.436268
 31
0.0
  0
INSERT
  5
25C
330
20B
100
AcDbEntity
  8
0
  6
Continuous
 62
     2
100
AcDbBlockReference
  2
_CLOSED
 10
944.985547
 20
721.436268
 30
0.0
 41
2.5
 42
2.5
 43
2.5
 50
180.0
  0
INSERT
  5
25D
330
20B
100
AcDbEntity
  8
0
  6
Continuous
 62
     2
100
AcDbBlockReference
  2
_CLOSED
 10
1046.385547
 20
721.436268
 30
0.0
 41
2.5
 42
2.5
 43
2.5
  0
ENDBLK
  5
25E
330
20B
100
AcDbEntity
  8
0
  6
ByBlock
 62
     0
100
AcDbBlockEnd
  0
BLOCK
  5
25F
330
20C
100
AcDbEntity
  8
0
100
AcDbBlockBegin
  2
*D2
 70
     1
 10
0.0
 20
0.0
 30
0.0
  3
*D2
  1
*D2
  0
MTEXT
  5
260
330
20C
100
AcDbEntity
  8
0
  6
Continuous
 62
     2
100
AcDbMText
 10
787.833009
 20
610.472656
 30
0.0
 40
6.0
 41
20.966543
 46
0.0
 71
     2
 72
     1
  1
150,5
 11
0.0
 21
1.0
 31
0.0
 73
     1
 44
0.9
  0
LINE
  5
261
330
20C
100
AcDbEntity
  8
0
  6
Continuous
 62
     2
100
AcDbLine
 10
767.397637
 20
685.722656
 30
0.0
 11
796.083009
 21
685.722656
 31
0.0
  0
LINE
  5
262
330
20C
100
AcDbEntity
  8
0
  6
Continuous
 62
     2
100
AcDbLine
 10
766.506758
 20
535.222656
 30
0.0
 11
796.083009
 21
535.222656
 31
0.0
  0
LINE
  5
263
330
20C
100
AcDbEntity
  8
0
  6
Continuous
 62
     2
100
AcDbLine
 10
795.333009
 20
685.722656
 30
0.0
 11
795.333009
 21
610.472656
 31
0.0
  0
LINE
  5
264
330
20C
100
AcDbEntity
  8
0
  6
Continuous
 62
     2
100
AcDbLine
 10
795.333009
 20
535.222656
 30
0.0
 11
795.333009
 21
610.472656
 31
0.0
  0
INSERT
  5
265
330
20C
100
AcDbEntity
  8
0
  6
Continuous
 62
     2
100
AcDbBlockReference
  2
_CLOSED
 10
795.333009
 20
685.722656
 30
0.0
 41
2.5
 42
2.5
 43
2.5
 50
90.0
  0
INSERT
  5
266
330
20C
100
AcDbEntity
  8
0
  6
Continuous
 62
     2
100
AcDbBlockReference
  2
_CLOSED
 10
795.333009
 20
535.222656
 30
0.0
 41
2.5
 42
2.5
 43
2.5
 50
270.0
  0
ENDBLK
  5
267
330
20C
100
AcDbEntity
  8
0
  6
ByBlock
 62
     0
100
AcDbBlockEnd
  0
BLOCK
  5
268
330
20D
100
AcDbEntity
  8
0
100
AcDbBlockBegin
  2
*D3
 70
     1
 10
0.0
 20
0.0
 30
0.0
  3
*D3
  1
*D3
  0
MTEXT
  5
269
330
20D
100
AcDbEntity
  8
0
  6
Continuous
 62
     2
100
AcDbMText
 10
423.898438
 20
426.776923
 30
0.0
 40
6.0
 41
20.966543
 46
0.0
 71
     2
 72
     1
  1
636,5
 73
     1
 44
0.9
  0
LINE
  5
26A
330
20D
100
AcDbEntity
  8
0
  6
Continuous
 62
     2
100
AcDbLine
 10
742.148438
 20
389.830906
 30
0.0
 11
742.148438
 21
420.026923
 31
0.0
  0
LINE
  5
26B
330
20D
100
AcDbEntity
  8
0
  6
Continuous
 62
     2
100
AcDbLine
 10
105.648438
 20
387.742906
 30
0.0
 11
105.648438
 21
420.026923
 31
0.0
  0
LINE
  5
26C
330
20D
100
AcDbEntity
  8
0
  6
Continuous
 62
     2
100
AcDbLine
 10
742.148438
 20
419.276923
 30
0.0
 11
423.898438
 21
419.276923
 31
0.0
  0
LINE
  5
26D
330
20D
100
AcDbEntity
  8
0
  6
Continuous
 62
     2
100
AcDbLine
 10
105.648438
 20
419.276923
 30
0.0
 11
423.898438
 21
419.276923
 31
0.0
  0
INSERT
  5
26E
330
20D
100
AcDbEntity
  8
0
  6
Continuous
 62
     2
100
AcDbBlockReference
  2
_CLOSED
 10
742.148438
 20
419.276923
 30
0.0
 41
2.5
 42
2.5
 43
2.5
  0
INSERT
  5
26F
330
20D
100
AcDbEntity
  8
0
  6
Continuous
 62
     2
100
AcDbBlockReference
  2
_CLOSED
 10
105.648438
 20
419.276923
 30
0.0
 41
2.5
 42
2.5
 43
2.5
 50
180.0
  0
ENDBLK
  5
270
330
20D
100
AcDbEntity
  8
0
  6
ByBlock
 62
     0
100
AcDbBlockEnd
  0
BLOCK
  5
214
330
20E
100
AcDbEntity
  8
0
100
AcDbBlockBegin
  2
LOGO2_BL0
 70
     0
 10
1102.860957
 20
36.533893
 30
0.0
  3
LOGO2_BL0
  1
LOGO2_BL0
  0
LINE
  5
215
330
20E
100
AcDbEntity
  8
0
  6
Continuous
 62
     7
100
AcDbLine
 10
1094.603883
 20
39.729385
 30
0.0
 11
1093.299542
 21
39.729385
 31
0.0
  0
LINE
  5
216
330
20E
100
AcDbEntity
  8
0
  6
Continuous
 62
     7
100
AcDbLine
 10
1093.299542
 20
39.729385
 30
0.0
 11
1093.299542
 21
29.270319
 31
0.0
  0
LINE
  5
217
330
20E
100
AcDbEntity
  8
0
  6
Continuous
 62
     7
100
AcDbLine
 10
1093.299542
 20
29.270319
 30
0.0
 11
1097.780597
 21
29.270319
 31
0.0
  0
LINE
  5
218
330
20E
100
AcDbEntity
  8
0
  6
Continuous
 62
     7
100
AcDbLine
 10
1097.780597
 20
29.270319
 30
0.0
 11
1097.780597
 21
30.463173
 31
0.0
  0
LINE
  5
219
330
20E
100
AcDbEntity
  8
0
  6
Continuous
 62
     7
100
AcDbLine
 10
1097.780597
 20
30.463173
 30
0.0
 11
1094.603883
 21
30.463173
 31
0.0
  0
LINE
  5
21A
330
20E
100
AcDbEntity
  8
0
  6
Continuous
 62
     7
100
AcDbLine
 10
1094.603883
 20
30.463173
 30
0.0
 11
1094.603883
 21
39.729385
 31
0.0
  0
LINE
  5
21B
330
20E
100
AcDbEntity
  8
0
  6
Continuous
 62
     7
100
AcDbLine
 10
1109.540209
 20
39.729385
 30
0.0
 11
1108.236391
 21
39.729385
 31
0.0
  0
LINE
  5
21C
330
20E
100
AcDbEntity
  8
0
  6
Continuous
 62
     7
100
AcDbLine
 10
1108.236391
 20
39.729385
 30
0.0
 11
1108.236391
 21
29.270319
 31
0.0
  0
LINE
  5
21D
330
20E
100
AcDbEntity
  8
0
  6
Continuous
 62
     7
100
AcDbLine
 10
1108.236391
 20
29.270319
 30
0.0
 11
1112.717577
 21
29.270319
 31
0.0
  0
LINE
  5
21E
330
20E
100
AcDbEntity
  8
0
  6
Continuous
 62
     7
100
AcDbLine
 10
1112.717577
 20
29.270319
 30
0.0
 11
1112.717577
 21
30.463173
 31
0.0
  0
LINE
  5
21F
330
20E
100
AcDbEntity
  8
0
  6
Continuous
 62
     7
100
AcDbLine
 10
1112.717577
 20
30.463173
 30
0.0
 11
1109.540209
 21
30.463173
 31
0.0
  0
LINE
  5
220
330
20E
100
AcDbEntity
  8
0
  6
Continuous
 62
     7
100
AcDbLine
 10
1109.540209
 20
30.463173
 30
0.0
 11
1109.540209
 21
39.729385
 31
0.0
  0
LWPOLYLINE
  5
221
330
20E
100
AcDbEntity
  8
0
  6
Continuous
 62
     7
100
AcDbPolyline
 90
        2
 70
     0
 43
0.2
 10
1091.653937
 20
25.926767
 10
1091.653937
 20
24.069704
  0
LWPOLYLINE
  5
222
330
20E
100
AcDbEntity
  8
0
  6
Continuous
 62
     7
100
AcDbPolyline
 90
        2
 70
     0
 43
0.2
 10
1091.653937
 20
24.069704
 10
1092.449653
 20
24.069704
  0
LWPOLYLINE
  5
223
330
20E
100
AcDbEntity
  8
0
  6
Continuous
 62
     7
100
AcDbPolyline
 90
        2
 70
     0
 43
0.2
 10
1092.449653
 20
24.069704
 10
1092.449653
 20
24.281686
  0
LWPOLYLINE
  5
224
330
20E
100
AcDbEntity
  8
0
  6
Continuous
 62
     7
100
AcDbPolyline
 90
        2
 70
     0
 43
0.2
 10
1092.449653
 20
24.281686
 10
1091.885546
 20
24.281686
  0
LWPOLYLINE
  5
225
330
20E
100
AcDbEntity
  8
0
  6
Continuous
 62
     7
100
AcDbPolyline
 90
        2
 70
     0
 43
0.2
 10
1091.885546
 20
24.281686
 10
1091.885546
 20
25.926767
  0
LWPOLYLINE
  5
226
330
20E
100
AcDbEntity
  8
0
  6
Continuous
 62
     7
100
AcDbPolyline
 90
        2
 70
     0
 43
0.2
 10
1091.885546
 20
25.926767
 10
1091.653937
 20
25.926767
  0
SPLINE
  5
227
330
20E
100
AcDbEntity
  8
0
  6
Continuous
 62
     7
100
AcDbSpline
 70
     3
 71
     3
 72
    35
 73
    31
 74
     0
 42
0.000000001
 43
0.0000001
 40
0.0
 40
0.0
 40
0.0
 40
0.0
 40
1.0
 40
1.0
 40
1.0
 40
2.0
 40
2.0
 40
2.0
 40
3.0
 40
3.0
 40
3.0
 40
4.0
 40
4.0
 40
4.0
 40
5.0
 40
5.0
 40
5.0
 40
6.0
 40
6.0
 40
6.0
 40
7.0
 40
7.0
 40
7.0
 40
8.0
 40
8.0
 40
8.0
 40
9.0
 40
9.0
 40
9.0
 40
10.0
 40
10.0
 40
10.0
 40
10.0
 10
1093.8479459295
 20
25.2222558308
 30
0.0
 10
1093.8479459295
 20
25.2222558308
 30
0.0
 10
1093.8479459295
 20
24.5601405517
 30
0.0
 10
1093.8479459295
 20
24.5601405517
 30
0.0
 10
1093.8479459295
 20
24.2450469564
 30
0.0
 10
1093.9958096184
 20
24.0304483284
 30
0.0
 10
1094.3358961027
 20
24.0304483284
 30
0.0
 10
1094.6754591757
 20
24.0304483284
 30
0.0
 10
1094.8235845701
 20
24.2450469564
 30
0.0
 10
1094.8235845701
 20
24.5601405517
 30
0.0
 10
1094.8235845701
 20
24.5601405517
 30
0.0
 10
1094.8235845701
 20
25.2222558308
 30
0.0
 10
1094.8235845701
 20
25.2222558308
 30
0.0
 10
1094.8235845701
 20
25.2222558308
 30
0.0
 10
1094.6015273313
 20
25.2222558308
 30
0.0
 10
1094.6015273313
 20
25.2222558308
 30
0.0
 10
1094.6015273313
 20
25.2222558308
 30
0.0
 10
1094.6015273313
 20
24.5852642935
 30
0.0
 10
1094.6015273313
 20
24.5852642935
 30
0.0
 10
1094.6015273313
 20
24.3994532863
 30
0.0
 10
1094.5548128738
 20
24.2366723758
 30
0.0
 10
1094.3358961027
 20
24.2366723758
 30
0.0
 10
1094.1164559202
 20
24.2366723758
 30
0.0
 10
1094.0697414628
 20
24.3994532863
 30
0.0
 10
1094.0697414628
 20
24.5852642935
 30
0.0
 10
1094.0697414628
 20
24.5852642935
 30
0.0
 10
1094.0697414628
 20
25.2222558308
 30
0.0
 10
1094.0697414628
 20
25.2222558308
 30
0.0
 10
1094.0697414628
 20
25.2222558308
 30
0.0
 10
1093.8479459295
 20
25.2222558308
 30
0.0
 10
1093.8479459295
 20
25.2222558308
 30
0.0
  0
SPLINE
  5
228
330
20E
100
AcDbEntity
  8
0
  6
Continuous
 62
     7
100
AcDbSpline
 70
     3
 71
     3
 72
    35
 73
    31
 74
     0
 42
0.000000001
 43
0.0000001
 40
0.0
 40
0.0
 40
0.0
 40
0.0
 40
1.0
 40
1.0
 40
1.0
 40
2.0
 40
2.0
 40
2.0
 40
3.0
 40
3.0
 40
3.0
 40
4.0
 40
4.0
 40
4.0
 40
5.0
 40
5.0
 40
5.0
 40
6.0
 40
6.0
 40
6.0
 40
7.0
 40
7.0
 40
7.0
 40
8.0
 40
8.0
 40
8.0
 40
9.0
 40
9.0
 40
9.0
 40
10.0
 40
10.0
 40
10.0
 40
10.0
 10
1097.2467171273
 20
25.1809063391
 30
0.0
 10
1097.1582606197
 20
25.2322006453
 30
0.0
 10
1097.044811223
 20
25.2573243871
 30
0.0
 10
1096.941175788
 20
25.2573243871
 30
0.0
 10
1096.5863029349
 20
25.2573243871
 30
0.0
 10
1096.3108577446
 20
24.993525098
 30
0.0
 10
1096.3108577446
 20
24.6360351884
 30
0.0
 10
1096.3108577446
 20
24.2911071497
 30
0.0
 10
1096.5893125498
 20
24.0309717397
 30
0.0
 10
1096.9288756228
 20
24.0309717397
 30
0.0
 10
1097.044811223
 20
24.0309717397
 30
0.0
 10
1097.1455678959
 20
24.0529550137
 30
0.0
 10
1097.2467171273
 20
24.1068663764
 30
0.0
 10
1097.2467171273
 20
24.1068663764
 30
0.0
 10
1097.2467171273
 20
24.3895084718
 30
0.0
 10
1097.2467171273
 20
24.3895084718
 30
0.0
 10
1097.1628404684
 20
24.2963412626
 30
0.0
 10
1097.0593358863
 20
24.2371957871
 30
0.0
 10
1096.9312309736
 20
24.2371957871
 30
0.0
 10
1096.6975278335
 20
24.2371957871
 30
0.0
 10
1096.5322607194
 20
24.4093981008
 30
0.0
 10
1096.5322607194
 20
24.6459800029
 30
0.0
 10
1096.5322607194
 20
24.8579615745
 30
0.0
 10
1096.7000140371
 20
25.0500535171
 30
0.0
 10
1096.9168371631
 20
25.0500535171
 30
0.0
 10
1097.0496527774
 20
25.0500535171
 30
0.0
 10
1097.1582606197
 20
24.9961421545
 30
0.0
 10
1097.2467171273
 20
24.8951237759
 30
0.0
 10
1097.2467171273
 20
24.8951237759
 30
0.0
 10
1097.2467171273
 20
25.1809063391
 30
0.0
 10
1097.2467171273
 20
25.1809063391
 30
0.0
  0
SPLINE
  5
229
330
20E
100
AcDbEntity
  8
0
  6
Continuous
 62
     7
100
AcDbSpline
 70
     3
 71
     3
 72
    32
 73
    28
 74
     0
 42
0.000000001
 43
0.0000001
 40
0.0
 40
0.0
 40
0.0
 40
0.0
 40
1.0
 40
1.0
 40
1.0
 40
2.0
 40
2.0
 40
2.0
 40
3.0
 40
3.0
 40
3.0
 40
4.0
 40
4.0
 40
4.0
 40
5.0
 40
5.0
 40
5.0
 40
6.0
 40
6.0
 40
6.0
 40
7.0
 40
7.0
 40
7.0
 40
8.0
 40
8.0
 40
8.0
 40
9.0
 40
9.0
 40
9.0
 40
9.0
 10
1099.7785883796
 20
24.6093412127
 30
0.0
 10
1099.7785883796
 20
24.6093412127
 30
0.0
 10
1099.7785883796
 20
24.6433629465
 30
0.0
 10
1099.7785883796
 20
24.6433629465
 30
0.0
 10
1099.7785883796
 20
24.9856739287
 30
0.0
 10
1099.6057318018
 20
25.2573243871
 30
0.0
 10
1099.2390821946
 20
25.2573243871
 30
0.0
 10
1098.8674601802
 20
25.2573243871
 30
0.0
 10
1098.6777235884
 20
24.9909080416
 30
0.0
 10
1098.6777235884
 20
24.6360351884
 30
0.0
 10
1098.6777235884
 20
24.2963412626
 30
0.0
 10
1098.8917988051
 20
24.0304483284
 30
0.0
 10
1099.243923749
 20
24.0304483284
 30
0.0
 10
1099.4679437802
 20
24.0304483284
 30
0.0
 10
1099.6701113902
 20
24.146122223
 30
0.0
 10
1099.7785883796
 20
24.3455419237
 30
0.0
 10
1099.7785883796
 20
24.3455419237
 30
0.0
 10
1099.5909454329
 20
24.4523178264
 30
0.0
 10
1099.5909454329
 20
24.4523178264
 30
0.0
 10
1099.5074613325
 20
24.3136138351
 30
0.0
 10
1099.4162569155
 20
24.2277743839
 30
0.0
 10
1099.2466716583
 20
24.2277743839
 30
0.0
 10
1099.0346900867
 20
24.2277743839
 30
0.0
 10
1098.9017436196
 20
24.4125385685
 30
0.0
 10
1098.8993882688
 20
24.6093412127
 30
0.0
 10
1098.8993882688
 20
24.6093412127
 30
0.0
 10
1099.7785883796
 20
24.6093412127
 30
0.0
 10
1099.7785883796
 20
24.6093412127
 30
0.0
  0
SPLINE
  5
22A
330
20E
100
AcDbEntity
  8
0
  6
Continuous
 62
     7
100
AcDbSpline
 70
     3
 71
     3
 72
    14
 73
    10
 74
     0
 42
0.000000001
 43
0.0000001
 40
0.0
 40
0.0
 40
0.0
 40
0.0
 40
1.0
 40
1.0
 40
1.0
 40
2.0
 40
2.0
 40
2.0
 40
3.0
 40
3.0
 40
3.0
 40
3.0
 10
1098.9114267284
 20
24.7768328249
 30
0.0
 10
1098.9390366738
 20
24.9417073805
 30
0.0
 10
1099.0668798809
 20
25.0647090332
 30
0.0
 10
1099.2390821946
 20
25.0647090332
 30
0.0
 10
1099.4162569155
 20
25.0647090332
 30
0.0
 10
1099.5297063122
 20
24.9490351386
 30
0.0
 10
1099.5569236992
 20
24.7768328249
 30
0.0
 10
1099.5569236992
 20
24.7768328249
 30
0.0
 10
1098.9114267284
 20
24.7768328249
 30
0.0
 10
1098.9114267284
 20
24.7768328249
 30
0.0
  0
SPLINE
  5
22B
330
20E
100
AcDbEntity
  8
0
  6
Continuous
 62
     7
100
AcDbSpline
 70
     3
 71
     3
 72
    20
 73
    16
 74
     0
 42
0.000000001
 43
0.0000001
 40
0.0
 40
0.0
 40
0.0
 40
0.0
 40
1.0
 40
1.0
 40
1.0
 40
2.0
 40
2.0
 40
2.0
 40
3.0
 40
3.0
 40
3.0
 40
4.0
 40
4.0
 40
4.0
 40
5.0
 40
5.0
 40
5.0
 40
5.0
 10
1101.8026198298
 20
24.98619734
 30
0.0
 10
1101.8026198298
 20
24.98619734
 30
0.0
 10
1102.2137593964
 20
24.4837225037
 30
0.0
 10
1102.2137593964
 20
24.4837225037
 30
0.0
 10
1102.0976929433
 20
24.368048609
 30
0.0
 10
1101.9599049218
 20
24.2377191984
 30
0.0
 10
1101.7879643137
 20
24.2377191984
 30
0.0
 10
1101.6105278871
 20
24.2377191984
 30
0.0
 10
1101.443036275
 20
24.4020703428
 30
0.0
 10
1101.443036275
 20
24.5789833581
 30
0.0
 10
1101.443036275
 20
24.7569431959
 30
0.0
 10
1101.6527933486
 20
24.8830853163
 30
0.0
 10
1101.78037485
 20
24.9710184127
 30
0.0
 10
1101.78037485
 20
24.9710184127
 30
0.0
 10
1101.8026198298
 20
24.98619734
 30
0.0
 10
1101.8026198298
 20
24.98619734
 30
0.0
  0
SPLINE
  5
22C
330
20E
100
AcDbEntity
  8
0
  6
Continuous
 62
     7
100
AcDbSpline
 70
     3
 71
     3
 72
    23
 73
    19
 74
     0
 42
0.000000001
 43
0.0000001
 40
0.0
 40
0.0
 40
0.0
 40
0.0
 40
1.0
 40
1.0
 40
1.0
 40
2.0
 40
2.0
 40
2.0
 40
3.0
 40
3.0
 40
3.0
 40
4.0
 40
4.0
 40
4.0
 40
5.0
 40
5.0
 40
5.0
 40
6.0
 40
6.0
 40
6.0
 40
6.0
 10
1101.8519513436
 20
25.2772140161
 30
0.0
 10
1101.8519513436
 20
25.2772140161
 30
0.0
 10
1101.7903196645
 20
25.3557257093
 30
0.0
 10
1101.7903196645
 20
25.3557257093
 30
0.0
 10
1101.7364083019
 20
25.424292588
 30
0.0
 10
1101.6796181771
 20
25.493382878
 30
0.0
 10
1101.6796181771
 20
25.5870734985
 30
0.0
 10
1101.6796181771
 20
25.7058878608
 30
0.0
 10
1101.7755332956
 20
25.7833527314
 30
0.0
 10
1101.8864964886
 20
25.7833527314
 30
0.0
 10
1102.0097598469
 20
25.7833527314
 30
0.0
 10
1102.103057909
 20
25.7121687963
 30
0.0
 10
1102.103057909
 20
25.5818393856
 30
0.0
 10
1102.103057909
 20
25.4467992733
 30
0.0
 10
1101.9749529963
 20
25.3703812253
 30
0.0
 10
1101.8813932286
 20
25.2965802337
 30
0.0
 10
1101.8813932286
 20
25.2965802337
 30
0.0
 10
1101.8519513436
 20
25.2772140161
 30
0.0
 10
1101.8519513436
 20
25.2772140161
 30
0.0
  0
SPLINE
  5
22D
330
20E
100
AcDbEntity
  8
0
  6
Continuous
 62
     7
100
AcDbSpline
 70
     3
 71
     3
 72
    50
 73
    46
 74
     0
 42
0.000000001
 43
0.0000001
 40
0.0
 40
0.0
 40
0.0
 40
0.0
 40
1.0
 40
1.0
 40
1.0
 40
2.0
 40
2.0
 40
2.0
 40
3.0
 40
3.0
 40
3.0
 40
4.0
 40
4.0
 40
4.0
 40
5.0
 40
5.0
 40
5.0
 40
6.0
 40
6.0
 40
6.0
 40
7.0
 40
7.0
 40
7.0
 40
8.0
 40
8.0
 40
8.0
 40
9.0
 40
9.0
 40
9.0
 40
10.0
 40
10.0
 40
10.0
 40
11.0
 40
11.0
 40
11.0
 40
12.0
 40
12.0
 40
12.0
 40
13.0
 40
13.0
 40
13.0
 40
14.0
 40
14.0
 40
14.0
 40
15.0
 40
15.0
 40
15.0
 40
15.0
 10
1102.5541075863
 20
24.0702275862
 30
0.0
 10
1102.5541075863
 20
24.0702275862
 30
0.0
 10
1102.839497591
 20
24.0702275862
 30
0.0
 10
1102.839497591
 20
24.0702275862
 30
0.0
 10
1102.839497591
 20
24.0702275862
 30
0.0
 10
1102.5071314232
 20
24.4811054472
 30
0.0
 10
1102.5071314232
 20
24.4811054472
 30
0.0
 10
1102.5071314232
 20
24.4811054472
 30
0.0
 10
1102.7336376581
 20
24.7469983815
 30
0.0
 10
1102.7336376581
 20
24.7469983815
 30
0.0
 10
1102.7336376581
 20
24.7469983815
 30
0.0
 10
1102.5853814108
 20
24.8998344775
 30
0.0
 10
1102.5853814108
 20
24.8998344775
 30
0.0
 10
1102.5853814108
 20
24.8998344775
 30
0.0
 10
1102.3694742545
 20
24.6485970593
 30
0.0
 10
1102.3694742545
 20
24.6485970593
 30
0.0
 10
1102.3694742545
 20
24.6485970593
 30
0.0
 10
1101.9824116072
 20
25.1165267507
 30
0.0
 10
1101.9824116072
 20
25.1165267507
 30
0.0
 10
1102.1378647596
 20
25.2306304115
 30
0.0
 10
1102.3201427406
 20
25.3703812253
 30
0.0
 10
1102.3201427406
 20
25.5797457405
 30
0.0
 10
1102.3201427406
 20
25.8236554006
 30
0.0
 10
1102.1181059835
 20
25.9670700935
 30
0.0
 10
1101.8915997487
 20
25.9670700935
 30
0.0
 10
1101.6474283829
 20
25.9670700935
 30
0.0
 10
1101.4630567568
 20
25.8163276426
 30
0.0
 10
1101.4630567568
 20
25.5598561115
 30
0.0
 10
1101.4630567568
 20
25.4023093139
 30
0.0
 10
1101.5617197845
 20
25.2646521452
 30
0.0
 10
1101.6670563062
 20
25.1536889521
 30
0.0
 10
1101.6670563062
 20
25.1536889521
 30
0.0
 10
1101.5515132644
 20
25.0699431461
 30
0.0
 10
1101.5515132644
 20
25.0699431461
 30
0.0
 10
1101.3738151322
 20
24.9417073805
 30
0.0
 10
1101.2264748546
 20
24.8139950263
 30
0.0
 10
1101.2264748546
 20
24.5768897129
 30
0.0
 10
1101.2264748546
 20
24.2565620047
 30
0.0
 10
1101.4850400309
 20
24.0304483284
 30
0.0
 10
1101.7954229246
 20
24.0304483284
 30
0.0
 10
1102.0143396957
 20
24.0304483284
 30
0.0
 10
1102.2115348984
 20
24.1555436262
 30
0.0
 10
1102.3518091236
 20
24.3214650044
 30
0.0
 10
1102.3518091236
 20
24.3214650044
 30
0.0
 10
1102.5541075863
 20
24.0702275862
 30
0.0
 10
1102.5541075863
 20
24.0702275862
 30
0.0
  0
LWPOLYLINE
  5
22E
330
20E
100
AcDbEntity
  8
0
  6
Continuous
 62
     7
100
AcDbPolyline
 90
        2
 70
     0
 43
0.2
 10
1104.489552
 20
25.926767
 10
1104.258204
 20
25.926767
  0
LWPOLYLINE
  5
22F
330
20E
100
AcDbEntity
  8
0
  6
Continuous
 62
     7
100
AcDbPolyline
 90
        2
 70
     0
 43
0.2
 10
1104.258204
 20
25.926767
 10
1104.258204
 20
24.069704
  0
LWPOLYLINE
  5
230
330
20E
100
AcDbEntity
  8
0
  6
Continuous
 62
     7
100
AcDbPolyline
 90
        2
 70
     0
 43
0.2
 10
1104.258204
 20
24.069704
 10
1105.053527
 20
24.069704
  0
LWPOLYLINE
  5
231
330
20E
100
AcDbEntity
  8
0
  6
Continuous
 62
     7
100
AcDbPolyline
 90
        2
 70
     0
 43
0.2
 10
1105.053527
 20
24.069704
 10
1105.053527
 20
24.281686
  0
LWPOLYLINE
  5
232
330
20E
100
AcDbEntity
  8
0
  6
Continuous
 62
     7
100
AcDbPolyline
 90
        2
 70
     0
 43
0.2
 10
1105.053527
 20
24.281686
 10
1104.489552
 20
24.281686
  0
LWPOLYLINE
  5
233
330
20E
100
AcDbEntity
  8
0
  6
Continuous
 62
     7
100
AcDbPolyline
 90
        2
 70
     0
 43
0.2
 10
1104.489552
 20
24.281686
 10
1104.489552
 20
25.926767
  0
LWPOLYLINE
  5
234
330
20E
100
AcDbEntity
  8
0
  6
Continuous
 62
     7
100
AcDbPolyline
 90
        2
 70
     0
 43
0.2
 10
1106.732631
 20
25.222256
 10
1106.511489
 20
25.222256
  0
LWPOLYLINE
  5
235
330
20E
100
AcDbEntity
  8
0
  6
Continuous
 62
     7
100
AcDbPolyline
 90
        2
 70
     0
 43
0.2
 10
1106.511489
 20
25.222256
 10
1106.511489
 20
24.070228
  0
LWPOLYLINE
  5
236
330
20E
100
AcDbEntity
  8
0
  6
Continuous
 62
     7
100
AcDbPolyline
 90
        2
 70
     0
 43
0.2
 10
1106.511489
 20
24.070228
 10
1106.732631
 20
24.070228
  0
LWPOLYLINE
  5
237
330
20E
100
AcDbEntity
  8
0
  6
Continuous
 62
     7
100
AcDbPolyline
 90
        2
 70
     0
 43
0.2
 10
1106.732631
 20
24.070228
 10
1106.732631
 20
25.222256
  0
LWPOLYLINE
  5
238
330
20E
100
AcDbEntity
  8
0
  6
Continuous
 62
     7
100
AcDbPolyline
 90
        2
 70
     1
 43
0.2
 10
1106.469607
 20
25.75221
 42
1.0
 10
1106.774774
 20
25.75221
 42
1.0
  0
SPLINE
  5
239
330
20E
100
AcDbEntity
  8
0
  6
Continuous
 62
     7
100
AcDbSpline
 70
     3
 71
     3
 72
    17
 73
    13
 74
     0
 42
0.000000001
 43
0.0000001
 40
0.0
 40
0.0
 40
0.0
 40
0.0
 40
1.0
 40
1.0
 40
1.0
 40
2.0
 40
2.0
 40
2.0
 40
3.0
 40
3.0
 40
3.0
 40
4.0
 40
4.0
 40
4.0
 40
4.0
 10
1108.8629146918
 20
24.2277743839
 30
0.0
 10
1108.6289498462
 20
24.2277743839
 30
0.0
 10
1108.4986204355
 20
24.429811141
 30
0.0
 10
1108.4986204355
 20
24.6459800029
 30
0.0
 10
1108.4986204355
 20
24.8605786309
 30
0.0
 10
1108.6344456647
 20
25.0594749203
 30
0.0
 10
1108.8629146918
 20
25.0594749203
 30
0.0
 10
1109.102375356
 20
25.0594749203
 30
0.0
 10
1109.2379388796
 20
24.8705234454
 30
0.0
 10
1109.2379388796
 20
24.6459800029
 30
0.0
 10
1109.2379388796
 20
24.4198663265
 30
0.0
 10
1109.1047307068
 20
24.2277743839
 30
0.0
 10
1108.8629146918
 20
24.2277743839
 30
0.0
  0
SPLINE
  5
23A
330
20E
100
AcDbEntity
  8
0
  6
Continuous
 62
     7
100
AcDbSpline
 70
     3
 71
     3
 72
    50
 73
    46
 74
     0
 42
0.000000001
 43
0.0000001
 40
0.0
 40
0.0
 40
0.0
 40
0.0
 40
1.0
 40
1.0
 40
1.0
 40
2.0
 40
2.0
 40
2.0
 40
3.0
 40
3.0
 40
3.0
 40
4.0
 40
4.0
 40
4.0
 40
5.0
 40
5.0
 40
5.0
 40
6.0
 40
6.0
 40
6.0
 40
7.0
 40
7.0
 40
7.0
 40
8.0
 40
8.0
 40
8.0
 40
9.0
 40
9.0
 40
9.0
 40
10.0
 40
10.0
 40
10.0
 40
11.0
 40
11.0
 40
11.0
 40
12.0
 40
12.0
 40
12.0
 40
13.0
 40
13.0
 40
13.0
 40
14.0
 40
14.0
 40
14.0
 40
15.0
 40
15.0
 40
15.0
 40
15.0
 10
1109.4470416891
 20
25.2227792421
 30
0.0
 10
1109.4470416891
 20
25.2227792421
 30
0.0
 10
1109.2253770087
 20
25.2227792421
 30
0.0
 10
1109.2253770087
 20
25.2227792421
 30
0.0
 10
1109.2253770087
 20
25.2227792421
 30
0.0
 10
1109.2253770087
 20
25.0254531866
 30
0.0
 10
1109.2253770087
 20
25.0254531866
 30
0.0
 10
1109.2253770087
 20
25.0254531866
 30
0.0
 10
1109.2206663071
 20
25.0254531866
 30
0.0
 10
1109.2206663071
 20
25.0254531866
 30
0.0
 10
1109.1293310374
 20
25.1683444682
 30
0.0
 10
1108.991412163
 20
25.2568009758
 30
0.0
 10
1108.818686438
 20
25.2568009758
 30
0.0
 10
1108.4863202702
 20
25.2568009758
 30
0.0
 10
1108.2772174607
 20
24.9689247675
 30
0.0
 10
1108.2772174607
 20
24.6533077609
 30
0.0
 10
1108.2772174607
 20
24.3235586496
 30
0.0
 10
1108.4742818106
 20
24.0304483284
 30
0.0
 10
1108.8291546638
 20
24.0304483284
 30
0.0
 10
1108.991412163
 20
24.0304483284
 30
0.0
 10
1109.1314246825
 20
24.118904836
 30
0.0
 10
1109.2206663071
 20
24.249757658
 30
0.0
 10
1109.2206663071
 20
24.249757658
 30
0.0
 10
1109.2253770087
 20
24.249757658
 30
0.0
 10
1109.2253770087
 20
24.249757658
 30
0.0
 10
1109.2253770087
 20
24.249757658
 30
0.0
 10
1109.2253770087
 20
24.0304483284
 30
0.0
 10
1109.2253770087
 20
24.0304483284
 30
0.0
 10
1109.2253770087
 20
23.7938664262
 30
0.0
 10
1109.1688485896
 20
23.6070085965
 30
0.0
 10
1108.8956278973
 20
23.6070085965
 30
0.0
 10
1108.6933294346
 20
23.6070085965
 30
0.0
 10
1108.5506998586
 20
23.7252995475
 30
0.0
 10
1108.5506998586
 20
23.931523595
 30
0.0
 10
1108.5506998586
 20
23.931523595
 30
0.0
 10
1108.3290351782
 20
23.931523595
 30
0.0
 10
1108.3290351782
 20
23.931523595
 30
0.0
 10
1108.3340075855
 20
23.6070085965
 30
0.0
 10
1108.565093669
 20
23.4102059522
 30
0.0
 10
1108.8854213772
 20
23.4102059522
 30
0.0
 10
1109.3334614396
 20
23.4102059522
 30
0.0
 10
1109.4470416891
 20
23.6954651041
 30
0.0
 10
1109.4470416891
 20
24.0922108603
 30
0.0
 10
1109.4470416891
 20
24.0922108603
 30
0.0
 10
1109.4470416891
 20
25.2227792421
 30
0.0
 10
1109.4470416891
 20
25.2227792421
 30
0.0
  0
SPLINE
  5
23B
330
20E
100
AcDbEntity
  8
0
  6
Continuous
 62
     7
100
AcDbSpline
 70
     3
 71
     3
 72
    44
 73
    40
 74
     0
 42
0.000000001
 43
0.0000001
 40
0.0
 40
0.0
 40
0.0
 40
0.0
 40
1.0
 40
1.0
 40
1.0
 40
2.0
 40
2.0
 40
2.0
 40
3.0
 40
3.0
 40
3.0
 40
4.0
 40
4.0
 40
4.0
 40
5.0
 40
5.0
 40
5.0
 40
6.0
 40
6.0
 40
6.0
 40
7.0
 40
7.0
 40
7.0
 40
8.0
 40
8.0
 40
8.0
 40
9.0
 40
9.0
 40
9.0
 40
10.0
 40
10.0
 40
10.0
 40
11.0
 40
11.0
 40
11.0
 40
12.0
 40
12.0
 40
12.0
 40
13.0
 40
13.0
 40
13.0
 40
13.0
 10
1111.0159670245
 20
26.2078392859
 30
0.0
 10
1111.0159670245
 20
26.2078392859
 30
0.0
 10
1111.0159670245
 20
24.069704175
 30
0.0
 10
1111.0159670245
 20
24.069704175
 30
0.0
 10
1111.0159670245
 20
24.069704175
 30
0.0
 10
1111.2373699993
 20
24.069704175
 30
0.0
 10
1111.2373699993
 20
24.069704175
 30
0.0
 10
1111.2373699993
 20
24.069704175
 30
0.0
 10
1111.2373699993
 20
24.5993963983
 30
0.0
 10
1111.2373699993
 20
24.5993963983
 30
0.0
 10
1111.2373699993
 20
24.8092843247
 30
0.0
 10
1111.2373699993
 20
25.0599983316
 30
0.0
 10
1111.5226291512
 20
25.0599983316
 30
0.0
 10
1111.7495279445
 20
25.0599983316
 30
0.0
 10
1111.7764836258
 20
24.9270518645
 30
0.0
 10
1111.7764836258
 20
24.7307726315
 30
0.0
 10
1111.7764836258
 20
24.7307726315
 30
0.0
 10
1111.7764836258
 20
24.069704175
 30
0.0
 10
1111.7764836258
 20
24.069704175
 30
0.0
 10
1111.7764836258
 20
24.069704175
 30
0.0
 10
1111.9984100118
 20
24.069704175
 30
0.0
 10
1111.9984100118
 20
24.069704175
 30
0.0
 10
1111.9984100118
 20
24.069704175
 30
0.0
 10
1111.9984100118
 20
24.7569431959
 30
0.0
 10
1111.9984100118
 20
24.7569431959
 30
0.0
 10
1111.9984100118
 20
25.0374916462
 30
0.0
 10
1111.9144025001
 20
25.2573243871
 30
0.0
 10
1111.5893640904
 20
25.2573243871
 30
0.0
 10
1111.4496132765
 20
25.2573243871
 30
0.0
 10
1111.3114326965
 20
25.1908511536
 30
0.0
 10
1111.2420807009
 20
25.0678495009
 30
0.0
 10
1111.2420807009
 20
25.0678495009
 30
0.0
 10
1111.2373699993
 20
25.0678495009
 30
0.0
 10
1111.2373699993
 20
25.0678495009
 30
0.0
 10
1111.2373699993
 20
25.0678495009
 30
0.0
 10
1111.2373699993
 20
26.2078392859
 30
0.0
 10
1111.2373699993
 20
26.2078392859
 30
0.0
 10
1111.2373699993
 20
26.2078392859
 30
0.0
 10
1111.0159670245
 20
26.2078392859
 30
0.0
 10
1111.0159670245
 20
26.2078392859
 30
0.0
  0
LWPOLYLINE
  5
23C
330
20E
100
AcDbEntity
  8
0
  6
Continuous
 62
     7
100
AcDbPolyline
 90
        2
 70
     0
 43
0.2
 10
1113.838201
 20
25.015508
 10
1114.054631
 20
25.015508
  0
LWPOLYLINE
  5
23D
330
20E
100
AcDbEntity
  8
0
  6
Continuous
 62
     7
100
AcDbPolyline
 90
        2
 70
     0
 43
0.2
 10
1114.054631
 20
25.015508
 10
1114.054631
 20
25.222256
  0
LWPOLYLINE
  5
23E
330
20E
100
AcDbEntity
  8
0
  6
Continuous
 62
     7
100
AcDbPolyline
 90
        2
 70
     0
 43
0.2
 10
1114.054631
 20
25.222256
 10
1113.838201
 20
25.222256
  0
LWPOLYLINE
  5
23F
330
20E
100
AcDbEntity
  8
0
  6
Continuous
 62
     7
100
AcDbPolyline
 90
        2
 70
     0
 43
0.2
 10
1113.838201
 20
25.222256
 10
1113.838201
 20
25.662968
  0
LWPOLYLINE
  5
240
330
20E
100
AcDbEntity
  8
0
  6
Continuous
 62
     7
100
AcDbPolyline
 90
        2
 70
     0
 43
0.2
 10
1113.838201
 20
25.662968
 10
1113.616536
 20
25.662968
  0
LWPOLYLINE
  5
241
330
20E
100
AcDbEntity
  8
0
  6
Continuous
 62
     7
100
AcDbPolyline
 90
        2
 70
     0
 43
0.2
 10
1113.616536
 20
25.662968
 10
1113.616536
 20
25.222256
  0
LWPOLYLINE
  5
242
330
20E
100
AcDbEntity
  8
0
  6
Continuous
 62
     7
100
AcDbPolyline
 90
        2
 70
     0
 43
0.2
 10
1113.616536
 20
25.222256
 10
1113.49589
 20
25.222256
  0
LWPOLYLINE
  5
243
330
20E
100
AcDbEntity
  8
0
  6
Continuous
 62
     7
100
AcDbPolyline
 90
        2
 70
     0
 43
0.2
 10
1113.49589
 20
25.222256
 10
1113.49589
 20
25.015508
  0
LWPOLYLINE
  5
244
330
20E
100
AcDbEntity
  8
0
  6
Continuous
 62
     7
100
AcDbPolyline
 90
        2
 70
     0
 43
0.2
 10
1113.49589
 20
25.015508
 10
1113.616536
 20
25.015508
  0
LWPOLYLINE
  5
245
330
20E
100
AcDbEntity
  8
0
  6
Continuous
 62
     7
100
AcDbPolyline
 90
        2
 70
     0
 43
0.2
 10
1113.616536
 20
25.015508
 10
1113.616536
 20
24.069704
  0
LWPOLYLINE
  5
246
330
20E
100
AcDbEntity
  8
0
  6
Continuous
 62
     7
100
AcDbPolyline
 90
        2
 70
     0
 43
0.2
 10
1113.616536
 20
24.069704
 10
1113.838201
 20
24.069704
  0
LWPOLYLINE
  5
247
330
20E
100
AcDbEntity
  8
0
  6
Continuous
 62
     7
100
AcDbPolyline
 90
        2
 70
     0
 43
0.2
 10
1113.838201
 20
24.069704
 10
1113.838201
 20
25.015508
  0
SPLINE
  5
248
330
20E
100
AcDbEntity
  8
0
  6
Continuous
 62
     7
100
AcDbSpline
 70
     3
 71
     3
 72
    20
 73
    16
 74
     0
 42
0.000000001
 43
0.0000001
 40
0.0
 40
0.0
 40
0.0
 40
0.0
 40
1.0
 40
1.0
 40
1.0
 40
2.0
 40
2.0
 40
2.0
 40
3.0
 40
3.0
 40
3.0
 40
4.0
 40
4.0
 40
4.0
 40
5.0
 40
5.0
 40
5.0
 40
5.0
 10
1101.6202109959
 20
34.4306306183
 30
0.0
 10
1101.6202109959
 20
34.4306306183
 30
0.0
 10
1103.9365676504
 20
31.6010691961
 30
0.0
 10
1103.9365676504
 20
31.6010691961
 30
0.0
 10
1103.284920597
 20
30.9488987314
 30
0.0
 10
1102.508047393
 20
30.2129824607
 30
0.0
 10
1101.5368577484
 20
30.2129824607
 30
0.0
 10
1100.5383198639
 20
30.2129824607
 30
0.0
 10
1099.5950018704
 20
31.1425609079
 30
0.0
 10
1099.5950018704
 20
32.1417530565
 30
0.0
 10
1099.5950018704
 20
33.140945205
 30
0.0
 10
1100.7738549435
 20
33.8475504437
 30
0.0
 10
1101.4953774038
 20
34.3474082236
 30
0.0
 10
1101.4953774038
 20
34.3474082236
 30
0.0
 10
1101.6202109959
 20
34.4306306183
 30
0.0
 10
1101.6202109959
 20
34.4306306183
 30
0.0
  0
SPLINE
  5
249
330
20E
100
AcDbEntity
  8
0
  6
Continuous
 62
     7
100
AcDbSpline
 70
     3
 71
     3
 72
    23
 73
    19
 74
     0
 42
0.000000001
 43
0.0000001
 40
0.0
 40
0.0
 40
0.0
 40
0.0
 40
1.0
 40
1.0
 40
1.0
 40
2.0
 40
2.0
 40
2.0
 40
3.0
 40
3.0
 40
3.0
 40
4.0
 40
4.0
 40
4.0
 40
5.0
 40
5.0
 40
5.0
 40
6.0
 40
6.0
 40
6.0
 40
6.0
 10
1101.8976189785
 20
36.0683845381
 30
0.0
 10
1101.8976189785
 20
36.0683845381
 30
0.0
 10
1101.5511207059
 20
36.5117138989
 30
0.0
 10
1101.5511207059
 20
36.5117138989
 30
0.0
 10
1101.245317661
 20
36.8998233689
 30
0.0
 10
1100.9264293339
 20
37.2883253973
 30
0.0
 10
1100.9264293339
 20
37.8152697114
 30
0.0
 10
1100.9264293339
 20
38.481441428
 30
0.0
 10
1101.4677674584
 20
38.9251633473
 30
0.0
 10
1102.0916737135
 20
38.9251633473
 30
0.0
 10
1102.7854553756
 20
38.9251633473
 30
0.0
 10
1103.3126613953
 20
38.5229217726
 30
0.0
 10
1103.3126613953
 20
37.7879214716
 30
0.0
 10
1103.3126613953
 20
37.024656961
 30
0.0
 10
1102.5914006406
 20
36.5945437352
 30
0.0
 10
1102.0643254737
 20
36.1788243198
 30
0.0
 10
1102.0643254737
 20
36.1788243198
 30
0.0
 10
1101.8976189785
 20
36.0683845381
 30
0.0
 10
1101.8976189785
 20
36.0683845381
 30
0.0
  0
SPLINE
  5
24A
330
20E
100
AcDbEntity
  8
0
  6
Continuous
 62
     7
100
AcDbSpline
 70
     3
 71
     3
 72
    50
 73
    46
 74
     0
 42
0.000000001
 43
0.0000001
 40
0.0
 40
0.0
 40
0.0
 40
0.0
 40
1.0
 40
1.0
 40
1.0
 40
2.0
 40
2.0
 40
2.0
 40
3.0
 40
3.0
 40
3.0
 40
4.0
 40
4.0
 40
4.0
 40
5.0
 40
5.0
 40
5.0
 40
6.0
 40
6.0
 40
6.0
 40
7.0
 40
7.0
 40
7.0
 40
8.0
 40
8.0
 40
8.0
 40
9.0
 40
9.0
 40
9.0
 40
10.0
 40
10.0
 40
10.0
 40
11.0
 40
11.0
 40
11.0
 40
12.0
 40
12.0
 40
12.0
 40
13.0
 40
13.0
 40
13.0
 40
14.0
 40
14.0
 40
14.0
 40
15.0
 40
15.0
 40
15.0
 40
15.0
 10
1105.8512061414
 20
29.2697953199
 30
0.0
 10
1105.8512061414
 20
29.2697953199
 30
0.0
 10
1107.460434146
 20
29.2697953199
 30
0.0
 10
1107.460434146
 20
29.2697953199
 30
0.0
 10
1107.460434146
 20
29.2697953199
 30
0.0
 10
1105.5874068524
 20
31.5869370913
 30
0.0
 10
1105.5874068524
 20
31.5869370913
 30
0.0
 10
1105.5874068524
 20
31.5869370913
 30
0.0
 10
1106.8637452778
 20
33.0844167859
 30
0.0
 10
1106.8637452778
 20
33.0844167859
 30
0.0
 10
1106.8637452778
 20
33.0844167859
 30
0.0
 10
1106.0315213301
 20
33.9454283545
 30
0.0
 10
1106.0315213301
 20
33.9454283545
 30
0.0
 10
1106.0315213301
 20
33.9454283545
 30
0.0
 10
1104.8109262068
 20
32.5301242321
 30
0.0
 10
1104.8109262068
 20
32.5301242321
 30
0.0
 10
1104.8109262068
 20
32.5301242321
 30
0.0
 10
1102.633011838
 20
35.1655000665
 30
0.0
 10
1102.633011838
 20
35.1655000665
 30
0.0
 10
1103.5065852774
 20
35.8035384264
 30
0.0
 10
1104.5332565186
 20
36.5945437352
 30
0.0
 10
1104.5332565186
 20
37.7733968083
 30
0.0
 10
1104.5332565186
 20
39.1470897333
 30
0.0
 10
1103.3953603788
 20
39.9515728828
 30
0.0
 10
1102.1200687759
 20
39.9515728828
 30
0.0
 10
1100.7466375565
 20
39.9515728828
 30
0.0
 10
1099.7057033577
 20
39.1053476831
 30
0.0
 10
1099.7057033577
 20
37.6626953209
 30
0.0
 10
1099.7057033577
 20
36.7751206295
 30
0.0
 10
1100.2610427342
 20
35.9982474255
 30
0.0
 10
1100.8572081911
 20
35.3738177591
 30
0.0
 10
1100.8572081911
 20
35.3738177591
 30
0.0
 10
1100.205299432
 20
34.9022241887
 30
0.0
 10
1100.205299432
 20
34.9022241887
 30
0.0
 10
1099.2067615476
 20
34.180963434
 30
0.0
 10
1098.3738833358
 20
33.4597026793
 30
0.0
 10
1098.3738833358
 20
32.128144363
 30
0.0
 10
1098.3738833358
 20
30.324469065
 30
0.0
 10
1099.8309295084
 20
29.0478689339
 30
0.0
 10
1101.5784689457
 20
29.0478689339
 30
0.0
 10
1102.8133270266
 20
29.0478689339
 30
0.0
 10
1103.9226972513
 20
29.7560444064
 30
0.0
 10
1104.7135717073
 20
30.6845760311
 30
0.0
 10
1104.7135717073
 20
30.6845760311
 30
0.0
 10
1105.8512061414
 20
29.2697953199
 30
0.0
 10
1105.8512061414
 20
29.2697953199
 30
0.0
  0
LINE
  5
24B
330
20E
100
AcDbEntity
  8
0
  6
Continuous
 62
     7
100
AcDbLine
 10
1091.654068
 20
27.24367
 30
0.0
 11
1114.067978
 21
27.24367
 31
0.0
  0
LINE
  5
24C
330
20E
100
AcDbEntity
  8
0
  6
Continuous
 62
     7
100
AcDbLine
 10
1114.067978
 20
27.24367
 30
0.0
 11
1114.067978
 21
49.657581
 31
0.0
  0
LINE
  5
24D
330
20E
100
AcDbEntity
  8
0
  6
Continuous
 62
     7
100
AcDbLine
 10
1114.067978
 20
49.657581
 30
0.0
 11
1091.654068
 21
49.657581
 31
0.0
  0
LINE
  5
24E
330
20E
100
AcDbEntity
  8
0
  6
Continuous
 62
     7
100
AcDbLine
 10
1091.654068
 20
49.657581
 30
0.0
 11
1091.654068
 21
27.24367
 31
0.0
  0
ENDBLK
  5
24F
330
20E
100
AcDbEntity
  8
0
  6
ByBlock
 62
     0
100
AcDbBlockEnd
  0
BLOCK
  5
271
330
20F
100
AcDbEntity
  8
0
100
AcDbBlockBegin
  2
*T5
 70
     1
 10
0.0
 20
0.0
 30
0.0
  3
*T5
  1
*T5
  0
LINE
  5
272
330
20F
100
AcDbEntity
  8
0
  6
Continuous
 62
     2
100
AcDbLine
 10
0.0
 20
0.0
 30
0.0
 11
90.0
 21
0.0
 31
0.0
  0
LINE
  5
273
330
20F
100
AcDbEntity
  8
0
  6
Continuous
 62
     2
100
AcDbLine
 10
0.0
 20
0.0
 30
0.0
 11
0.0
 21
-40.0
 31
0.0
  0
LINE
  5
274
330
20F
100
AcDbEntity
  8
0
  6
Continuous
 62
     2
100
AcDbLine
 10
30.0
 20
-6.0
 30
0.0
 11
90.0
 21
-6.0
 31
0.0
  0
LINE
  5
275
330
20F
100
AcDbEntity
  8
0
  6
Continuous
 62
     2
100
AcDbLine
 10
30.0
 20
-12.0
 30
0.0
 11
90.0
 21
-12.0
 31
0.0
  0
LINE
  5
276
330
20F
100
AcDbEntity
  8
0
  6
Continuous
 62
     2
100
AcDbLine
 10
30.0
 20
-22.0
 30
0.0
 11
90.0
 21
-22.0
 31
0.0
  0
LINE
  5
277
330
20F
100
AcDbEntity
  8
0
  6
Continuous
 62
     2
100
AcDbLine
 10
0.0
 20
-27.0
 30
0.0
 11
90.0
 21
-27.0
 31
0.0
  0
LINE
  5
278
330
20F
100
AcDbEntity
  8
0
  6
Continuous
 62
     2
100
AcDbLine
 10
0.0
 20
-40.0
 30
0.0
 11
90.0
 21
-40.0
 31
0.0
  0
LINE
  5
279
330
20F
100
AcDbEntity
  8
0
  6
Continuous
 62
     2
100
AcDbLine
 10
30.0
 20
0.0
 30
0.0
 11
30.0
 21
-27.0
 31
0.0
  0
LINE
  5
27A
330
20F
100
AcDbEntity
  8
0
  6
Continuous
 62
     2
100
AcDbLine
 10
70.0
 20
0.0
 30
0.0
 11
70.0
 21
-12.0
 31
0.0
  0
LINE
  5
27B
330
20F
100
AcDbEntity
  8
0
  6
Continuous
 62
     2
100
AcDbLine
 10
90.0
 20
0.0
 30
0.0
 11
90.0
 21
-40.0
 31
0.0
  0
MTEXT
  5
27C
330
20F
100
AcDbEntity
  8
9_SOLID
  6
Continuous
 62
     2
100
AcDbMText
 10
31.4875
 20
-1.5
 30
0.0
 40
3.0
 41
48.914498
 46
0.0
 71
     1
 72
     1
  1
A172_C_402
 73
     1
 44
0.9
  0
MTEXT
  5
27D
330
20F
100
AcDbEntity
  8
9_SOLID
  6
Continuous
 62
     2
100
AcDbMText
 10
71.4875
 20
-1.25
 30
0.0
 40
3.5
 41
30.966543
 46
0.0
 71
     1
 72
     1
  1
Rev:00
 73
     1
 44
0.9
  0
MTEXT
  5
27E
330
20F
100
AcDbEntity
  8
9_SOLID
  6
Continuous
 62
     2
100
AcDbMText
 10
31.4875
 20
-7.75
 30
0.0
 40
3.5
 41
40.724907
 46
0.0
 71
     1
 72
     1
  1
Scale:1:1
 73
     1
 44
0.9
  0
MTEXT
  5
27F
330
20F
100
AcDbEntity
  8
9_SOLID
  6
Continuous
 62
     2
100
AcDbMText
 10
71.4875
 20
-7.25
 30
0.0
 40
3.5
 41
11.944238
 46
0.0
 71
     1
 72
     1
  1
A0
 73
     1
 44
0.9
  0
MTEXT
  5
280
330
20F
100
AcDbEntity
  8
9_SOLID
  6
Continuous
 62
     2
100
AcDbMText
 10
31.4875
 20
-16.0
 30
0.0
 40
2.0
 41
111.256506
 46
0.0
 71
     1
 72
     1
  1
CASSAFORMA TRIMLESS COLORADO 2.0
 73
     1
 44
0.9
  0
MTEXT
  5
281
330
20F
100
AcDbEntity
  8
9_SOLID
  6
Continuous
 62
     2
100
AcDbMText
 10
31.4875
 20
-23.25
 30
0.0
 40
2.5
 41
47.695167
 46
0.0
 71
     1
 72
     1
  1
DATE:30.08.22
 73
     1
 44
0.9
  0
MTEXT
  5
282
330
20F
100
AcDbEntity
  8
9_SOLID
  6
Continuous
 62
     2
100
AcDbMText
 10
1.4875
 20
-27.3125
 30
0.0
 40
2.25
 41
148.98513
 46
0.0
 71
     1
 72
     1
  1
Any integral or partial reproductions are prohibited \Pwithout prior authorisation of L & L Luce & Light s.r.l., \Pin accordance with the law in force. \PAll rights reserved.
 73
     1
 44
0.9
  0
ENDBLK
  5
283
330
20F
100
AcDbEntity
  8
0
  6
ByBlock
 62
     0
100
AcDbBlockEnd
  0
ENDSEC
  0
SECTION
  2
ENTITIES
  0
LINE
  5
284
330
208
100
AcDbEntity
  8
0
  6
Continuous
 62
     7
100
AcDbLine
 10
1189.0
 20
0.0
 30
0.0
 11
1189.0
 21
841.0
 31
0.0
  0
LINE
  5
285
330
208
100
AcDbEntity
  8
0
  6
Continuous
 62
     7
100
AcDbLine
 10
0.0
 20
841.0
 30
0.0
 11
1189.0
 21
841.0
 31
0.0
  0
LINE
  5
286
330
208
100
AcDbEntity
  8
0
  6
Continuous
 62
     7
100
AcDbLine
 10
0.0
 20
0.0
 30
0.0
 11
0.0
 21
841.0
 31
0.0
  0
LINE
  5
287
330
208
100
AcDbEntity
  8
0
  6
Continuous
 62
     7
100
AcDbLine
 10
7.0
 20
834.0
 30
0.0
 11
1182.0
 21
834.0
 31
0.0
  0
LINE
  5
288
330
208
100
AcDbEntity
  8
0
  6
Continuous
 62
     7
100
AcDbLine
 10
1182.0
 20
7.0
 30
0.0
 11
1182.0
 21
834.0
 31
0.0
  0
LINE
  5
289
330
208
100
AcDbEntity
  8
0
  6
Continuous
 62
     7
100
AcDbLine
 10
7.0
 20
7.0
 30
0.0
 11
7.0
 21
841.0
 31
0.0
  0
LINE
  5
28A
330
208
100
AcDbEntity
  8
0
  6
Continuous
 62
     7
100
AcDbLine
 10
7.0
 20
7.0
 30
0.0
 11
1182.0
 21
7.0
 31
0.0
  0
LINE
  5
28B
330
208
100
AcDbEntity
  8
0
  6
Continuous
 62
     7
100
AcDbLine
 10
10.0
 20
831.0
 30
0.0
 11
1179.0
 21
831.0
 31
0.0
  0
LINE
  5
28C
330
208
100
AcDbEntity
  8
0
  6
Continuous
 62
     7
100
AcDbLine
 10
10.0
 20
10.0
 30
0.0
 11
10.0
 21
831.0
 31
0.0
  0
LINE
  5
28D
330
208
100
AcDbEntity
  8
0
  6
Continuous
 62
     7
100
AcDbLine
 10
10.0
 20
10.0
 30
0.0
 11
1179.0
 21
10.0
 31
0.0
  0
LINE
  5
28E
330
208
100
AcDbEntity
  8
0
  6
Continuous
 62
     7
100
AcDbLine
 10
1179.0
 20
10.0
 30
0.0
 11
1179.0
 21
831.0
 31
0.0
  0
LINE
  5
28F
330
208
100
AcDbEntity
  8
0
  6
Continuous
 62
     7
100
AcDbLine
 10
594.5
 20
841.0
 30
0.0
 11
594.5
 21
830.996355
 31
0.0
  0
LINE
  5
290
330
208
100
AcDbEntity
  8
0
  6
Continuous
 62
     7
100
AcDbLine
 10
1189.0
 20
420.5
 30
0.0
 11
1179.032471
 21
420.5
 31
0.0
  0
LINE
  5
291
330
208
100
AcDbEntity
  8
0
  6
Continuous
 62
     7
100
AcDbLine
 10
979.0
 20
0.0
 30
0.0
 11
979.0
 21
10.0
 31
0.0
  0
LINE
  5
292
330
208
100
AcDbEntity
  8
0
  6
Continuous
 62
     7
100
AcDbLine
 10
0.0
 20
0.0
 30
0.0
 11
1189.0
 21
0.0
 31
0.0
  0
LINE
  5
293
330
208
100
AcDbEntity
  8
0
  6
Continuous
 62
     7
100
AcDbLine
 10
1182.0
 20
7.0
 30
0.0
 11
1182.0
 21
0.0
 31
0.0
  0
LINE
  5
294
330
208
100
AcDbEntity
  8
0
  6
Continuous
 62
     7
100
AcDbLine
 10
1182.0
 20
7.0
 30
0.0
 11
1189.0
 21
7.0
 31
0.0
  0
LINE
  5
295
330
208
100
AcDbEntity
  8
0
  6
Continuous
 62
     7
100
AcDbLine
 10
1082.0
 20
7.0
 30
0.0
 11
1082.0
 21
0.0
 31
0.0
  0
LINE
  5
296
330
208
100
AcDbEntity
  8
0
  6
Continuous
 62
     7
100
AcDbLine
 10
882.0
 20
7.0
 30
0.0
 11
882.0
 21
0.0
 31
0.0
  0
LINE
  5
297
330
208
100
AcDbEntity
  8
0
  6
Continuous
 62
     7
100
AcDbLine
 10
782.0
 20
7.0
 30
0.0
 11
782.0
 21
0.0
 31
0.0
  0
LINE
  5
298
330
208
100
AcDbEntity
  8
0
  6
Continuous
 62
     7
100
AcDbLine
 10
682.0
 20
7.0
 30
0.0
 11
682.0
 21
0.0
 31
0.0
  0
LINE
  5
299
330
208
100
AcDbEntity
  8
0
  6
Continuous
 62
     7
100
AcDbLine
 10
582.0
 20
7.0
 30
0.0
 11
582.0
 21
0.0
 31
0.0
  0
LINE
  5
29A
330
208
100
AcDbEntity
  8
0
  6
Continuous
 62
     7
100
AcDbLine
 10
482.0
 20
7.0
 30
0.0
 11
482.0
 21
0.0
 31
0.0
  0
LINE
  5
29B
330
208
100
AcDbEntity
  8
0
  6
Continuous
 62
     7
100
AcDbLine
 10
382.0
 20
7.0
 30
0.0
 11
382.0
 21
0.0
 31
0.0
  0
LINE
  5
29C
330
208
100
AcDbEntity
  8
0
  6
Continuous
 62
     7
100
AcDbLine
 10
282.0
 20
7.0
 30
0.0
 11
282.0
 21
0.0
 31
0.0
  0
LINE
  5
29D
330
208
100
AcDbEntity
  8
0
  6
Continuous
 62
     7
100
AcDbLine
 10
182.0
 20
7.0
 30
0.0
 11
182.0
 21
0.0
 31
0.0
  0
LINE
  5
29E
330
208
100
AcDbEntity
  8
0
  6
Continuous
 62
     7
100
AcDbLine
 10
82.0
 20
7.0
 30
0.0
 11
82.0
 21
0.0
 31
0.0
  0
LINE
  5
29F
330
208
100
AcDbEntity
  8
0
  6
Continuous
 62
     7
100
AcDbLine
 10
7.0
 20
7.0
 30
0.0
 11
0.0
 21
7.0
 31
0.0
  0
LINE
  5
2A0
330
208
100
AcDbEntity
  8
0
  6
Continuous
 62
     7
100
AcDbLine
 10
7.0
 20
7.0
 30
0.0
 11
7.0
 21
0.0
 31
0.0
  0
LINE
  5
2A1
330
208
100
AcDbEntity
  8
0
  6
Continuous
 62
     7
100
AcDbLine
 10
1182.0
 20
107.0
 30
0.0
 11
1189.0
 21
107.0
 31
0.0
  0
LINE
  5
2A2
330
208
100
AcDbEntity
  8
0
  6
Continuous
 62
     7
100
AcDbLine
 10
1182.0
 20
207.0
 30
0.0
 11
1189.0
 21
207.0
 31
0.0
  0
LINE
  5
2A3
330
208
100
AcDbEntity
  8
0
  6
Continuous
 62
     7
100
AcDbLine
 10
1182.0
 20
307.0
 30
0.0
 11
1189.0
 21
307.0
 31
0.0
  0
LINE
  5
2A4
330
208
100
AcDbEntity
  8
0
  6
Continuous
 62
     7
100
AcDbLine
 10
1179.0
 20
507.0
 30
0.0
 11
1189.0
 21
507.0
 31
0.0
  0
LINE
  5
2A5
330
208
100
AcDbEntity
  8
0
  6
Continuous
 62
     7
100
AcDbLine
 10
1182.0
 20
607.0
 30
0.0
 11
1189.0
 21
607.0
 31
0.0
  0
LINE
  5
2A6
330
208
100
AcDbEntity
  8
0
  6
Continuous
 62
     7
100
AcDbLine
 10
1182.0
 20
707.0
 30
0.0
 11
1189.0
 21
707.0
 31
0.0
  0
LINE
  5
2A7
330
208
100
AcDbEntity
  8
0
  6
Continuous
 62
     7
100
AcDbLine
 10
1182.0
 20
834.0
 30
0.0
 11
1189.0
 21
834.0
 31
0.0
  0
LINE
  5
2A8
330
208
100
AcDbEntity
  8
0
  6
Continuous
 62
     7
100
AcDbLine
 10
1182.0
 20
834.0
 30
0.0
 11
1182.0
 21
841.0
 31
0.0
  0
LINE
  5
2A9
330
208
100
AcDbEntity
  8
0
  6
Continuous
 62
     7
100
AcDbLine
 10
0.0
 20
834.0
 30
0.0
 11
1189.0
 21
834.0
 31
0.0
  0
LINE
  5
2AA
330
208
100
AcDbEntity
  8
0
  6
Continuous
 62
     7
100
AcDbLine
 10
979.0
 20
831.0
 30
0.0
 11
979.0
 21
841.0
 31
0.0
  0
LINE
  5
2AB
330
208
100
AcDbEntity
  8
0
  6
Continuous
 62
     7
100
AcDbLine
 10
1082.0
 20
841.0
 30
0.0
 11
1082.0
 21
834.0
 31
0.0
  0
LINE
  5
2AC
330
208
100
AcDbEntity
  8
0
  6
Continuous
 62
     7
100
AcDbLine
 10
882.0
 20
841.0
 30
0.0
 11
882.0
 21
834.0
 31
0.0
  0
LINE
  5
2AD
330
208
100
AcDbEntity
  8
0
  6
Continuous
 62
     7
100
AcDbLine
 10
782.0
 20
841.0
 30
0.0
 11
782.0
 21
834.0
 31
0.0
  0
LINE
  5
2AE
330
208
100
AcDbEntity
  8
0
  6
Continuous
 62
     7
100
AcDbLine
 10
682.0
 20
841.0
 30
0.0
 11
682.0
 21
834.0
 31
0.0
  0
LINE
  5
2AF
330
208
100
AcDbEntity
  8
0
  6
Continuous
 62
     7
100
AcDbLine
 10
582.0
 20
841.0
 30
0.0
 11
582.0
 21
834.0
 31
0.0
  0
LINE
  5
2B0
330
208
100
AcDbEntity
  8
0
  6
Continuous
 62
     7
100
AcDbLine
 10
482.0
 20
841.0
 30
0.0
 11
482.0
 21
834.0
 31
0.0
  0
LINE
  5
2B1
330
208
100
AcDbEntity
  8
0
  6
Continuous
 62
     7
100
AcDbLine
 10
382.0
 20
841.0
 30
0.0
 11
382.0
 21
834.0
 31
0.0
  0
LINE
  5
2B2
330
208
100
AcDbEntity
  8
0
  6
Continuous
 62
     7
100
AcDbLine
 10
282.0
 20
841.0
 30
0.0
 11
282.0
 21
834.0
 31
0.0
  0
LINE
  5
2B3
330
208
100
AcDbEntity
  8
0
  6
Continuous
 62
     7
100
AcDbLine
 10
182.0
 20
841.0
 30
0.0
 11
182.0
 21
834.0
 31
0.0
  0
LINE
  5
2B4
330
208
100
AcDbEntity
  8
0
  6
Continuous
 62
     7
100
AcDbLine
 10
82.0
 20
841.0
 30
0.0
 11
82.0
 21
834.0
 31
0.0
  0
LINE
  5
2B5
330
208
100
AcDbEntity
  8
0
  6
Continuous
 62
     7
100
AcDbLine
 10
7.0
 20
420.5
 30
0.0
 11
-2.967529
 21
420.5
 31
0.0
  0
LINE
  5
2B6
330
208
100
AcDbEntity
  8
0
  6
Continuous
 62
     7
100
AcDbLine
 10
0.0
 20
107.0
 30
0.0
 11
7.0
 21
107.0
 31
0.0
  0
LINE
  5
2B7
330
208
100
AcDbEntity
  8
0
  6
Continuous
 62
     7
100
AcDbLine
 10
0.0
 20
207.0
 30
0.0
 11
7.0
 21
207.0
 31
0.0
  0
LINE
  5
2B8
330
208
100
AcDbEntity
  8
0
  6
Continuous
 62
     7
100
AcDbLine
 10
0.0
 20
307.0
 30
0.0
 11
7.0
 21
307.0
 31
0.0
  0
LINE
  5
2B9
330
208
100
AcDbEntity
  8
0
  6
Continuous
 62
     7
100
AcDbLine
 10
-3.0
 20
507.0
 30
0.0
 11
7.0
 21
507.0
 31
0.0
  0
LINE
  5
2BA
330
208
100
AcDbEntity
  8
0
  6
Continuous
 62
     7
100
AcDbLine
 10
0.0
 20
607.0
 30
0.0
 11
7.0
 21
607.0
 31
0.0
  0
LINE
  5
2BB
330
208
100
AcDbEntity
  8
0
  6
Continuous
 62
     7
100
AcDbLine
 10
0.0
 20
707.0
 30
0.0
 11
7.0
 21
707.0
 31
0.0
  0
MTEXT
  5
2BC
330
208
100
AcDbEntity
  8
0
  6
Continuous
 62
     2
100
AcDbMText
 10
1131.154891
 20
5.35876
 30
0.0
 40
4.0
 41
5.142857
 46
0.0
 71
     1
 72
     1
  1
A
  7
TEXTSTYLE_2
 73
     1
 44
0.9
  0
MTEXT
  5
2BD
330
208
100
AcDbEntity
  8
0
  6
Continuous
 62
     2
100
AcDbMText
 10
1031.154891
 20
5.35876
 30
0.0
 40
4.0
 41
4.714286
 46
0.0
 71
     1
 72
     1
  1
B
  7
TEXTSTYLE_2
 73
     1
 44
0.9
  0
MTEXT
  5
2BE
330
208
100
AcDbEntity
  8
0
  6
Continuous
 62
     2
100
AcDbMText
 10
931.154891
 20
5.35876
 30
0.0
 40
4.0
 41
5.0
 46
0.0
 71
     1
 72
     1
  1
C
  7
TEXTSTYLE_2
 73
     1
 44
0.9
  0
MTEXT
  5
2BF
330
208
100
AcDbEntity
  8
0
  6
Continuous
 62
     2
100
AcDbMText
 10
831.154891
 20
5.35876
 30
0.0
 40
4.0
 41
5.428571
 46
0.0
 71
     1
 72
     1
  1
D
  7
TEXTSTYLE_2
 73
     1
 44
0.9
  0
MTEXT
  5
2C0
330
208
100
AcDbEntity
  8
0
  6
Continuous
 62
     2
100
AcDbMText
 10
731.154891
 20
5.35876
 30
0.0
 40
4.0
 41
4.285714
 46
0.0
 71
     1
 72
     1
  1
E
  7
TEXTSTYLE_2
 73
     1
 44
0.9
  0
MTEXT
  5
2C1
330
208
100
AcDbEntity
  8
0
  6
Continuous
 62
     2
100
AcDbMText
 10
631.154891
 20
5.35876
 30
0.0
 40
4.0
 41
4.285714
 46
0.0
 71
     1
 72
     1
  1
F
  7
TEXTSTYLE_2
 73
     1
 44
0.9
  0
MTEXT
  5
2C2
330
208
100
AcDbEntity
  8
0
  6
Continuous
 62
     2
100
AcDbMText
 10
531.154891
 20
5.35876
 30
0.0
 40
4.0
 41
4.714286
 46
0.0
 71
     1
 72
     1
  1
G
  7
TEXTSTYLE_2
 73
     1
 44
0.9
  0
MTEXT
  5
2C3
330
208
100
AcDbEntity
  8
0
  6
Continuous
 62
     2
100
AcDbMText
 10
431.154891
 20
5.35876
 30
0.0
 40
4.0
 41
4.714286
 46
0.0
 71
     1
 72
     1
  1
H
  7
TEXTSTYLE_2
 73
     1
 44
0.9
  0
MTEXT
  5
2C4
330
208
100
AcDbEntity
  8
0
  6
Continuous
 62
     2
100
AcDbMText
 10
331.154891
 20
5.35876
 30
0.0
 40
4.0
 41
3.857143
 46
0.0
 71
     1
 72
     1
  1
I
  7
TEXTSTYLE_2
 73
     1
 44
0.9
  0
MTEXT
  5
2C5
330
208
100
AcDbEntity
  8
0
  6
Continuous
 62
     2
100
AcDbMText
 10
231.154891
 20
5.35876
 30
0.0
 40
4.0
 41
3.857143
 46
0.0
 71
     1
 72
     1
  1
L
  7
TEXTSTYLE_2
 73
     1
 44
0.9
  0
MTEXT
  5
2C6
330
208
100
AcDbEntity
  8
0
  6
Continuous
 62
     2
100
AcDbMText
 10
131.154891
 20
5.35876
 30
0.0
 40
4.0
 41
5.142857
 46
0.0
 71
     1
 72
     1
  1
M
  7
TEXTSTYLE_2
 73
     1
 44
0.9
  0
MTEXT
  5
2C7
330
208
100
AcDbEntity
  8
0
  6
Continuous
 62
     2
100
AcDbMText
 10
31.154891
 20
5.35876
 30
0.0
 40
4.0
 41
4.714286
 46
0.0
 71
     1
 72
     1
  1
N
  7
TEXTSTYLE_2
 73
     1
 44
0.9
  0
MTEXT
  5
2C8
330
208
100
AcDbEntity
  8
0
  6
Continuous
 62
     2
100
AcDbMText
 10
1183.646722
 20
60.626871
 30
0.0
 40
4.0
 41
3.428571
 46
0.0
 71
     1
 72
     1
  1
1
  7
TEXTSTYLE_2
 73
     1
 44
0.9
  0
MTEXT
  5
2C9
330
208
100
AcDbEntity
  8
0
  6
Continuous
 62
     2
100
AcDbMText
 10
1183.646722
 20
160.626871
 30
0.0
 40
4.0
 41
4.714286
 46
0.0
 71
     1
 72
     1
  1
2
  7
TEXTSTYLE_2
 73
     1
 44
0.9
  0
MTEXT
  5
2CA
330
208
100
AcDbEntity
  8
0
  6
Continuous
 62
     2
100
AcDbMText
 10
1183.646722
 20
260.626871
 30
0.0
 40
4.0
 41
4.285714
 46
0.0
 71
     1
 72
     1
  1
3
  7
TEXTSTYLE_2
 73
     1
 44
0.9
  0
MTEXT
  5
2CB
330
208
100
AcDbEntity
  8
0
  6
Continuous
 62
     2
100
AcDbMText
 10
1183.646722
 20
360.626871
 30
0.0
 40
4.0
 41
4.714286
 46
0.0
 71
     1
 72
     1
  1
4
  7
TEXTSTYLE_2
 73
     1
 44
0.9
  0
MTEXT
  5
2CC
330
208
100
AcDbEntity
  8
0
  6
Continuous
 62
     2
100
AcDbMText
 10
1183.646722
 20
460.626871
 30
0.0
 40
4.0
 41
4.285714
 46
0.0
 71
     1
 72
     1
  1
5
  7
TEXTSTYLE_2
 73
     1
 44
0.9
  0
MTEXT
  5
2CD
330
208
100
AcDbEntity
  8
0
  6
Continuous
 62
     2
100
AcDbMText
 10
1183.646722
 20
560.626871
 30
0.0
 40
4.0
 41
4.714286
 46
0.0
 71
     1
 72
     1
  1
6
  7
TEXTSTYLE_2
 73
     1
 44
0.9
  0
MTEXT
  5
2CE
330
208
100
AcDbEntity
  8
0
  6
Continuous
 62
     2
100
AcDbMText
 10
1183.646722
 20
660.626871
 30
0.0
 40
4.0
 41
4.714286
 46
0.0
 71
     1
 72
     1
  1
7
  7
TEXTSTYLE_2
 73
     1
 44
0.9
  0
MTEXT
  5
2CF
330
208
100
AcDbEntity
  8
0
  6
Continuous
 62
     2
100
AcDbMText
 10
1183.848746
 20
775.172594
 30
0.0
 40
4.0
 41
4.714286
 46
0.0
 71
     1
 72
     1
  1
8
  7
TEXTSTYLE_2
 73
     1
 44
0.9
  0
MTEXT
  5
2D0
330
208
100
AcDbEntity
  8
0
  6
Continuous
 62
     2
100
AcDbMText
 10
1131.154891
 20
839.35876
 30
0.0
 40
4.0
 41
5.142857
 46
0.0
 71
     1
 72
     1
  1
A
  7
TEXTSTYLE_2
 73
     1
 44
0.9
  0
MTEXT
  5
2D1
330
208
100
AcDbEntity
  8
0
  6
Continuous
 62
     2
100
AcDbMText
 10
1031.154891
 20
839.35876
 30
0.0
 40
4.0
 41
4.714286
 46
0.0
 71
     1
 72
     1
  1
B
  7
TEXTSTYLE_2
 73
     1
 44
0.9
  0
MTEXT
  5
2D2
330
208
100
AcDbEntity
  8
0
  6
Continuous
 62
     2
100
AcDbMText
 10
931.154891
 20
839.35876
 30
0.0
 40
4.0
 41
5.0
 46
0.0
 71
     1
 72
     1
  1
C
  7
TEXTSTYLE_2
 73
     1
 44
0.9
  0
MTEXT
  5
2D3
330
208
100
AcDbEntity
  8
0
  6
Continuous
 62
     2
100
AcDbMText
 10
831.154891
 20
839.35876
 30
0.0
 40
4.0
 41
5.428571
 46
0.0
 71
     1
 72
     1
  1
D
  7
TEXTSTYLE_2
 73
     1
 44
0.9
  0
MTEXT
  5
2D4
330
208
100
AcDbEntity
  8
0
  6
Continuous
 62
     2
100
AcDbMText
 10
731.154891
 20
839.35876
 30
0.0
 40
4.0
 41
4.285714
 46
0.0
 71
     1
 72
     1
  1
E
  7
TEXTSTYLE_2
 73
     1
 44
0.9
  0
MTEXT
  5
2D5
330
208
100
AcDbEntity
  8
0
  6
Continuous
 62
     2
100
AcDbMText
 10
631.154891
 20
839.35876
 30
0.0
 40
4.0
 41
4.285714
 46
0.0
 71
     1
 72
     1
  1
F
  7
TEXTSTYLE_2
 73
     1
 44
0.9
  0
MTEXT
  5
2D6
330
208
100
AcDbEntity
  8
0
  6
Continuous
 62
     2
100
AcDbMText
 10
531.154891
 20
839.35876
 30
0.0
 40
4.0
 41
4.714286
 46
0.0
 71
     1
 72
     1
  1
G
  7
TEXTSTYLE_2
 73
     1
 44
0.9
  0
MTEXT
  5
2D7
330
208
100
AcDbEntity
  8
0
  6
Continuous
 62
     2
100
AcDbMText
 10
431.154891
 20
839.35876
 30
0.0
 40
4.0
 41
4.714286
 46
0.0
 71
     1
 72
     1
  1
H
  7
TEXTSTYLE_2
 73
     1
 44
0.9
  0
MTEXT
  5
2D8
330
208
100
AcDbEntity
  8
0
  6
Continuous
 62
     2
100
AcDbMText
 10
331.154891
 20
839.35876
 30
0.0
 40
4.0
 41
3.857143
 46
0.0
 71
     1
 72
     1
  1
I
  7
TEXTSTYLE_2
 73
     1
 44
0.9
  0
MTEXT
  5
2D9
330
208
100
AcDbEntity
  8
0
  6
Continuous
 62
     2
100
AcDbMText
 10
231.154891
 20
839.35876
 30
0.0
 40
4.0
 41
3.857143
 46
0.0
 71
     1
 72
     1
  1
L
  7
TEXTSTYLE_2
 73
     1
 44
0.9
  0
MTEXT
  5
2DA
330
208
100
AcDbEntity
  8
0
  6
Continuous
 62
     2
100
AcDbMText
 10
131.154891
 20
839.35876
 30
0.0
 40
4.0
 41
5.142857
 46
0.0
 71
     1
 72
     1
  1
M
  7
TEXTSTYLE_2
 73
     1
 44
0.9
  0
MTEXT
  5
2DB
330
208
100
AcDbEntity
  8
0
  6
Continuous
 62
     2
100
AcDbMText
 10
31.154891
 20
839.35876
 30
0.0
 40
4.0
 41
4.714286
 46
0.0
 71
     1
 72
     1
  1
N
  7
TEXTSTYLE_2
 73
     1
 44
0.9
  0
MTEXT
  5
2DC
330
208
100
AcDbEntity
  8
0
  6
Continuous
 62
     2
100
AcDbMText
 10
1.646722
 20
60.626871
 30
0.0
 40
4.0
 41
3.428571
 46
0.0
 71
     1
 72
     1
  1
1
  7
TEXTSTYLE_2
 73
     1
 44
0.9
  0
MTEXT
  5
2DD
330
208
100
AcDbEntity
  8
0
  6
Continuous
 62
     2
100
AcDbMText
 10
1.646722
 20
160.626871
 30
0.0
 40
4.0
 41
4.714286
 46
0.0
 71
     1
 72
     1
  1
2
  7
TEXTSTYLE_2
 73
     1
 44
0.9
  0
MTEXT
  5
2DE
330
208
100
AcDbEntity
  8
0
  6
Continuous
 62
     2
100
AcDbMText
 10
1.646722
 20
260.626871
 30
0.0
 40
4.0
 41
4.285714
 46
0.0
 71
     1
 72
     1
  1
3
  7
TEXTSTYLE_2
 73
     1
 44
0.9
  0
MTEXT
  5
2DF
330
208
100
AcDbEntity
  8
0
  6
Continuous
 62
     2
100
AcDbMText
 10
1.646722
 20
360.626871
 30
0.0
 40
4.0
 41
4.714286
 46
0.0
 71
     1
 72
     1
  1
4
  7
TEXTSTYLE_2
 73
     1
 44
0.9
  0
MTEXT
  5
2E0
330
208
100
AcDbEntity
  8
0
  6
Continuous
 62
     2
100
AcDbMText
 10
1.646722
 20
460.626871
 30
0.0
 40
4.0
 41
4.285714
 46
0.0
 71
     1
 72
     1
  1
5
  7
TEXTSTYLE_2
 73
     1
 44
0.9
  0
MTEXT
  5
2E1
330
208
100
AcDbEntity
  8
0
  6
Continuous
 62
     2
100
AcDbMText
 10
1.646722
 20
560.626871
 30
0.0
 40
4.0
 41
4.714286
 46
0.0
 71
     1
 72
     1
  1
6
  7
TEXTSTYLE_2
 73
     1
 44
0.9
  0
MTEXT
  5
2E2
330
208
100
AcDbEntity
  8
0
  6
Continuous
 62
     2
100
AcDbMText
 10
1.646722
 20
660.626871
 30
0.0
 40
4.0
 41
4.714286
 46
0.0
 71
     1
 72
     1
  1
7
  7
TEXTSTYLE_2
 73
     1
 44
0.9
  0
MTEXT
  5
2E3
330
208
100
AcDbEntity
  8
0
  6
Continuous
 62
     2
100
AcDbMText
 10
1.848746
 20
775.172594
 30
0.0
 40
4.0
 41
4.714286
 46
0.0
 71
     1
 72
     1
  1
8
  7
TEXTSTYLE_2
 73
     1
 44
0.9
  0
SPLINE
  5
2E4
330
208
100
AcDbEntity
  8
7_ALL_FEATURES
  6
Continuous
 62
     7
100
AcDbSpline
 70
     0
 71
     3
 72
    11
 73
     7
 74
     0
 42
0.000000001
 43
0.0000001
 40
0.0
 40
0.0
 40
0.0
 40
0.0
 40
0.213367679
 40
0.4626815885
 40
0.729901919
 40
1.0
 40
1.0
 40
1.0
 40
1.0
 10
106.5060762934
 20
557.47265625
 30
0.0
 10
106.6898281553
 20
557.47265625
 30
0.0
 10
107.0884309898
 20
557.5452851162
 30
0.0
 10
107.6646131865
 20
557.8108914515
 30
0.0
 10
108.1820034571
 20
558.2723005509
 30
0.0
 10
108.3472389249
 20
558.7400482678
 30
0.0
 10
108.3472389249
 20
558.97265625
 30
0.0
  0
SPLINE
  5
2E5
330
208
100
AcDbEntity
  8
7_ALL_FEATURES
  6
Continuous
 62
     7
100
AcDbSpline
 70
     0
 71
     3
 72
    11
 73
     7
 74
     0
 42
0.000000001
 43
0.0000001
 40
0.0
 40
0.0
 40
0.0
 40
0.0
 40
0.2133676794
 40
0.4626816934
 40
0.7299022505
 40
1.0
 40
1.0
 40
1.0
 40
1.0
 10
106.5060762934
 20
664.47265625
 30
0.0
 10
106.6898281479
 20
664.47265625
 30
0.0
 10
107.0884310279
 20
664.5452851605
 30
0.0
 10
107.6646136018
 20
664.8108914632
 30
0.0
 10
108.182003264
 20
665.2723011622
 30
0.0
 10
108.3472389249
 20
665.740048563
 30
0.0
 10
108.3472389249
 20
665.97265625
 30
0.0
  0
LINE
  5
2E6
330
208
100
AcDbEntity
  8
7_ALL_FEATURES
  6
Continuous
 62
     7
100
AcDbLine
 10
105.648438
 20
537.222656
 30
0.0
 11
105.648438
 21
535.222656
 31
0.0
  0
LINE
  5
2E7
330
208
100
AcDbEntity
  8
7_ALL_FEATURES
  6
Continuous
 62
     7
100
AcDbLine
 10
105.648438
 20
552.722656
 30
0.0
 11
105.648438
 21
537.222656
 31
0.0
  0
LINE
  5
2E8
330
208
100
AcDbEntity
  8
7_ALL_FEATURES
  6
Continuous
 62
     7
100
AcDbLine
 10
105.648438
 20
553.222656
 30
0.0
 11
105.648438
 21
552.722656
 31
0.0
  0
LINE
  5
2E9
330
208
100
AcDbEntity
  8
7_ALL_FEATURES
  6
Continuous
 62
     7
100
AcDbLine
 10
105.648438
 20
553.722656
 30
0.0
 11
105.648438
 21
553.222656
 31
0.0
  0
LINE
  5
2EA
330
208
100
AcDbEntity
  8
7_ALL_FEATURES
  6
Continuous
 62
     7
100
AcDbLine
 10
105.648438
 20
555.472656
 30
0.0
 11
105.648438
 21
553.722656
 31
0.0
  0
LINE
  5
2EB
330
208
100
AcDbEntity
  8
7_ALL_FEATURES
  6
Continuous
 62
     7
100
AcDbLine
 10
105.648438
 20
555.472656
 30
0.0
 11
105.648438
 21
558.972656
 31
0.0
  0
LINE
  5
2EC
330
208
100
AcDbEntity
  8
7_ALL_FEATURES
  6
Continuous
 62
     7
100
AcDbLine
 10
105.648438
 20
558.972656
 30
0.0
 11
105.648438
 21
562.472656
 31
0.0
  0
LINE
  5
2ED
330
208
100
AcDbEntity
  8
7_ALL_FEATURES
  6
Continuous
 62
     7
100
AcDbLine
 10
105.648438
 20
564.222656
 30
0.0
 11
105.648438
 21
562.472656
 31
0.0
  0
LINE
  5
2EE
330
208
100
AcDbEntity
  8
7_ALL_FEATURES
  6
Continuous
 62
     7
100
AcDbLine
 10
105.648438
 20
564.722656
 30
0.0
 11
105.648438
 21
564.222656
 31
0.0
  0
LINE
  5
2EF
330
208
100
AcDbEntity
  8
7_ALL_FEATURES
  6
Continuous
 62
     7
100
AcDbLine
 10
105.648438
 20
565.222656
 30
0.0
 11
105.648438
 21
564.722656
 31
0.0
  0
LINE
  5
2F0
330
208
100
AcDbEntity
  8
7_ALL_FEATURES
  6
Continuous
 62
     7
100
AcDbLine
 10
105.648438
 20
659.722656
 30
0.0
 11
105.648438
 21
565.222656
 31
0.0
  0
LINE
  5
2F1
330
208
100
AcDbEntity
  8
7_ALL_FEATURES
  6
Continuous
 62
     7
100
AcDbLine
 10
105.648438
 20
660.222656
 30
0.0
 11
105.648438
 21
659.722656
 31
0.0
  0
LINE
  5
2F2
330
208
100
AcDbEntity
  8
7_ALL_FEATURES
  6
Continuous
 62
     7
100
AcDbLine
 10
105.648438
 20
660.722656
 30
0.0
 11
105.648438
 21
660.222656
 31
0.0
  0
LINE
  5
2F3
330
208
100
AcDbEntity
  8
7_ALL_FEATURES
  6
Continuous
 62
     7
100
AcDbLine
 10
105.648438
 20
662.472656
 30
0.0
 11
105.648438
 21
660.722656
 31
0.0
  0
LINE
  5
2F4
330
208
100
AcDbEntity
  8
7_ALL_FEATURES
  6
Continuous
 62
     7
100
AcDbLine
 10
105.648438
 20
662.472656
 30
0.0
 11
105.648438
 21
665.972656
 31
0.0
  0
LINE
  5
2F5
330
208
100
AcDbEntity
  8
7_ALL_FEATURES
  6
Continuous
 62
     7
100
AcDbLine
 10
105.648438
 20
665.972656
 30
0.0
 11
105.648438
 21
669.472656
 31
0.0
  0
LINE
  5
2F6
330
208
100
AcDbEntity
  8
7_ALL_FEATURES
  6
Continuous
 62
     7
100
AcDbLine
 10
105.648438
 20
671.222656
 30
0.0
 11
105.648438
 21
669.472656
 31
0.0
  0
LINE
  5
2F7
330
208
100
AcDbEntity
  8
7_ALL_FEATURES
  6
Continuous
 62
     7
100
AcDbLine
 10
105.648438
 20
671.722656
 30
0.0
 11
105.648438
 21
671.222656
 31
0.0
  0
LINE
  5
2F8
330
208
100
AcDbEntity
  8
7_ALL_FEATURES
  6
Continuous
 62
     7
100
AcDbLine
 10
105.648438
 20
672.222656
 30
0.0
 11
105.648438
 21
671.722656
 31
0.0
  0
LINE
  5
2F9
330
208
100
AcDbEntity
  8
7_ALL_FEATURES
  6
Continuous
 62
     7
100
AcDbLine
 10
105.648438
 20
684.722656
 30
0.0
 11
105.648438
 21
672.222656
 31
0.0
  0
LINE
  5
2FA
330
208
100
AcDbEntity
  8
7_ALL_FEATURES
  6
Continuous
 62
     7
100
AcDbLine
 10
105.648438
 20
685.722656
 30
0.0
 11
105.648438
 21
684.722656
 31
0.0
  0
LINE
  5
2FB
330
208
100
AcDbEntity
  8
7_ALL_FEATURES
  6
Continuous
 62
     7
100
AcDbLine
 10
107.148438
 20
553.222656
 30
0.0
 11
105.648438
 21
553.222656
 31
0.0
  0
LINE
  5
2FC
330
208
100
AcDbEntity
  8
7_ALL_FEATURES
  6
Continuous
 62
     7
100
AcDbLine
 10
107.148438
 20
535.222656
 30
0.0
 11
105.648438
 21
535.222656
 31
0.0
  0
LINE
  5
2FD
330
208
100
AcDbEntity
  8
7_ALL_FEATURES
  6
Continuous
 62
     7
100
AcDbLine
 10
107.148438
 20
685.722656
 30
0.0
 11
105.648438
 21
685.722656
 31
0.0
  0
LINE
  5
2FE
330
208
100
AcDbEntity
  8
7_ALL_FEATURES
  6
Continuous
 62
     7
100
AcDbLine
 10
107.148438
 20
671.722656
 30
0.0
 11
105.648438
 21
671.722656
 31
0.0
  0
LINE
  5
2FF
330
208
100
AcDbEntity
  8
7_ALL_FEATURES
  6
Continuous
 62
     7
100
AcDbLine
 10
107.148438
 20
660.222656
 30
0.0
 11
105.648438
 21
660.222656
 31
0.0
  0
LINE
  5
300
330
208
100
AcDbEntity
  8
7_ALL_FEATURES
  6
Continuous
 62
     7
100
AcDbLine
 10
107.148438
 20
564.722656
 30
0.0
 11
105.648438
 21
564.722656
 31
0.0
  0
ARC
  5
301
330
208
100
AcDbEntity
  8
7_ALL_FEATURES
  6
Continuous
 62
     7
100
AcDbCircle
 10
119.105395
 20
560.972656
 30
0.0
 40
1.5
100
AcDbArc
 50
0.0
 51
9.648474
  0
LINE
  5
302
330
208
100
AcDbEntity
  8
7_ALL_FEATURES
  6
Continuous
 62
     7
100
AcDbLine
 10
120.605395
 20
560.972656
 30
0.0
 11
120.605395
 21
556.972656
 31
0.0
  0
ARC
  5
303
330
208
100
AcDbEntity
  8
7_ALL_FEATURES
  6
Continuous
 62
     7
100
AcDbCircle
 10
119.105395
 20
556.972656
 30
0.0
 40
1.5
100
AcDbArc
 50
350.351526
 51
360.0
  0
SPLINE
  5
304
330
208
100
AcDbEntity
  8
7_ALL_FEATURES
  6
Continuous
 62
     7
100
AcDbSpline
 70
     0
 71
     3
 72
    11
 73
     7
 74
     0
 42
0.000000001
 43
0.0000001
 40
0.0
 40
0.0
 40
0.0
 40
0.0
 40
0.2700977495
 40
0.5373183066
 40
0.7866323206
 40
1.0
 40
1.0
 40
1.0
 40
1.0
 10
108.3472389249
 20
665.97265625
 30
0.0
 10
108.3472389249
 20
666.205263937
 30
0.0
 10
108.182003264
 20
666.6730113378
 30
0.0
 10
107.6646136018
 20
667.1344210368
 30
0.0
 10
107.0884310279
 20
667.4000273395
 30
0.0
 10
106.6898281479
 20
667.47265625
 30
0.0
 10
106.5060762934
 20
667.47265625
 30
0.0
  0
LINE
  5
305
330
208
100
AcDbEntity
  8
7_ALL_FEATURES
  6
Continuous
 62
     7
100
AcDbLine
 10
105.648438
 20
669.472656
 30
0.0
 11
107.148438
 21
669.472656
 31
0.0
  0
LINE
  5
306
330
208
100
AcDbEntity
  8
7_ALL_FEATURES
  6
Continuous
 62
     7
100
AcDbLine
 10
107.148438
 20
662.472656
 30
0.0
 11
106.527117
 21
662.472656
 31
0.0
  0
LINE
  5
307
330
208
100
AcDbEntity
  8
7_ALL_FEATURES
  6
Continuous
 62
     7
100
AcDbLine
 10
106.527117
 20
662.472656
 30
0.0
 11
105.648438
 21
662.472656
 31
0.0
  0
LINE
  5
308
330
208
100
AcDbEntity
  8
7_ALL_FEATURES
  6
Continuous
 62
     7
100
AcDbLine
 10
107.148438
 20
555.472656
 30
0.0
 11
106.527117
 21
555.472656
 31
0.0
  0
LINE
  5
309
330
208
100
AcDbEntity
  8
7_ALL_FEATURES
  6
Continuous
 62
     7
100
AcDbLine
 10
106.527117
 20
555.472656
 30
0.0
 11
105.648438
 21
555.472656
 31
0.0
  0
LINE
  5
30A
330
208
100
AcDbEntity
  8
7_ALL_FEATURES
  6
Continuous
 62
     7
100
AcDbLine
 10
105.648438
 20
562.472656
 30
0.0
 11
107.148438
 21
562.472656
 31
0.0
  0
SPLINE
  5
30B
330
208
100
AcDbEntity
  8
7_ALL_FEATURES
  6
Continuous
 62
     7
100
AcDbSpline
 70
     0
 71
     3
 72
    11
 73
     7
 74
     0
 42
0.000000001
 43
0.0000001
 40
0.0
 40
0.0
 40
0.0
 40
0.0
 40
0.270098081
 40
0.5373184115
 40
0.786632321
 40
1.0
 40
1.0
 40
1.0
 40
1.0
 10
108.3472389249
 20
558.97265625
 30
0.0
 10
108.3472389249
 20
559.2052642322
 30
0.0
 10
108.1820034571
 20
559.6730119491
 30
0.0
 10
107.6646131865
 20
560.1344210486
 30
0.0
 10
107.0884309898
 20
560.4000273838
 30
0.0
 10
106.6898281553
 20
560.47265625
 30
0.0
 10
106.5060762934
 20
560.47265625
 30
0.0
  0
ARC
  5
30C
330
208
100
AcDbEntity
  8
7_ALL_FEATURES
  6
Continuous
 62
     7
100
AcDbCircle
 10
119.105395
 20
663.972656
 30
0.0
 40
1.5
100
AcDbArc
 50
350.351526
 51
360.0
  0
LINE
  5
30D
330
208
100
AcDbEntity
  8
7_ALL_FEATURES
  6
Continuous
 62
     7
100
AcDbLine
 10
120.605395
 20
667.972656
 30
0.0
 11
120.605395
 21
663.972656
 31
0.0
  0
ARC
  5
30E
330
208
100
AcDbEntity
  8
7_ALL_FEATURES
  6
Continuous
 62
     7
100
AcDbCircle
 10
119.105395
 20
667.972656
 30
0.0
 40
1.5
100
AcDbArc
 50
0.0
 51
9.648474
  0
LINE
  5
30F
330
208
100
AcDbEntity
  8
7_ALL_FEATURES
  6
Continuous
 62
     9
100
AcDbLine
 10
108.648438
 20
663.722656
 30
0.0
 11
108.648438
 21
668.222656
 31
0.0
  0
LINE
  5
310
330
208
100
AcDbEntity
  8
7_ALL_FEATURES
  6
Continuous
 62
     9
100
AcDbLine
 10
107.148438
 20
552.722656
 30
0.0
 11
105.648438
 21
552.722656
 31
0.0
  0
LINE
  5
311
330
208
100
AcDbEntity
  8
7_ALL_FEATURES
  6
Continuous
 62
     9
100
AcDbLine
 10
107.148438
 20
565.222656
 30
0.0
 11
105.648438
 21
565.222656
 31
0.0
  0
LINE
  5
312
330
208
100
AcDbEntity
  8
7_ALL_FEATURES
  6
Continuous
 62
     9
100
AcDbLine
 10
107.148438
 20
537.222656
 30
0.0
 11
105.648438
 21
537.222656
 31
0.0
  0
LINE
  5
313
330
208
100
AcDbEntity
  8
7_ALL_FEATURES
  6
Continuous
 62
     9
100
AcDbLine
 10
108.648438
 20
556.722656
 30
0.0
 11
108.648438
 21
561.222656
 31
0.0
  0
LINE
  5
314
330
208
100
AcDbEntity
  8
7_ALL_FEATURES
  6
Continuous
 62
     9
100
AcDbLine
 10
107.148438
 20
564.222656
 30
0.0
 11
105.648438
 21
564.222656
 31
0.0
  0
LINE
  5
315
330
208
100
AcDbEntity
  8
7_ALL_FEATURES
  6
Continuous
 62
     9
100
AcDbLine
 10
107.148438
 20
684.722656
 30
0.0
 11
105.648438
 21
684.722656
 31
0.0
  0
SPLINE
  5
316
330
208
100
AcDbEntity
  8
7_ALL_FEATURES
  6
Continuous
 62
     7
100
AcDbSpline
 70
     0
 71
     3
 72
    13
 73
     9
 74
     0
 42
0.000000001
 43
0.0000001
 40
0.0
 40
0.0
 40
0.0
 40
0.0
 40
0.3347426612
 40
0.4703710492
 40
0.583816385
 40
0.6833319184
 40
0.7800839948
 40
1.0
 40
1.0
 40
1.0
 40
1.0
 10
105.6581844358
 20
558.97265625
 30
0.0
 10
105.6581844358
 20
558.751062157
 30
0.0
 10
105.6605573654
 20
558.4388164545
 30
0.0
 10
105.7168231309
 20
558.0554546248
 30
0.0
 10
105.7918571292
 20
557.8350414171
 30
0.0
 10
105.9121887418
 20
557.6645107506
 30
0.0
 10
106.1421737265
 20
557.504049217
 30
0.0
 10
106.3604955433
 20
557.47265625
 30
0.0
 10
106.5060762934
 20
557.47265625
 30
0.0
  0
LINE
  5
317
330
208
100
AcDbEntity
  8
7_ALL_FEATURES
  6
Continuous
 62
     9
100
AcDbLine
 10
107.148438
 20
672.222656
 30
0.0
 11
105.648438
 21
672.222656
 31
0.0
  0
SPLINE
  5
318
330
208
100
AcDbEntity
  8
7_ALL_FEATURES
  6
Continuous
 62
     7
100
AcDbSpline
 70
     0
 71
     3
 72
    13
 73
     9
 74
     0
 42
0.000000001
 43
0.0000001
 40
0.0
 40
0.0
 40
0.0
 40
0.0
 40
0.2199159979
 40
0.3166680922
 40
0.4161836706
 40
0.529629098
 40
0.6652577681
 40
1.0
 40
1.0
 40
1.0
 40
1.0
 10
106.5060762934
 20
667.47265625
 30
0.0
 10
106.3604955485
 20
667.47265625
 30
0.0
 10
106.1421737262
 20
667.4412632789
 30
0.0
 10
105.9121887107
 20
667.2808017301
 30
0.0
 10
105.791857034
 20
667.1102709696
 30
0.0
 10
105.7168230922
 20
666.8898574478
 30
0.0
 10
105.6605572979
 20
666.5064956694
 30
0.0
 10
105.6581844358
 20
666.1942500583
 30
0.0
 10
105.6581844358
 20
665.97265625
 30
0.0
  0
LINE
  5
319
330
208
100
AcDbEntity
  8
7_ALL_FEATURES
  6
Continuous
 62
     9
100
AcDbLine
 10
107.148438
 20
671.222656
 30
0.0
 11
105.648438
 21
671.222656
 31
0.0
  0
LINE
  5
31A
330
208
100
AcDbEntity
  8
7_ALL_FEATURES
  6
Continuous
 62
     9
100
AcDbLine
 10
107.148438
 20
660.722656
 30
0.0
 11
105.648438
 21
660.722656
 31
0.0
  0
LINE
  5
31B
330
208
100
AcDbEntity
  8
7_ALL_FEATURES
  6
Continuous
 62
     9
100
AcDbLine
 10
107.148438
 20
553.722656
 30
0.0
 11
105.648438
 21
553.722656
 31
0.0
  0
LINE
  5
31C
330
208
100
AcDbEntity
  8
7_ALL_FEATURES
  6
Continuous
 62
     9
100
AcDbLine
 10
107.153311
 20
558.972656
 30
0.0
 11
105.658184
 21
558.972656
 31
0.0
  0
LINE
  5
31D
330
208
100
AcDbEntity
  8
7_ALL_FEATURES
  6
Continuous
 62
     9
100
AcDbLine
 10
107.153311
 20
665.972656
 30
0.0
 11
105.658184
 21
665.972656
 31
0.0
  0
SPLINE
  5
31E
330
208
100
AcDbEntity
  8
7_ALL_FEATURES
  6
Continuous
 62
     7
100
AcDbSpline
 70
     0
 71
     3
 72
    13
 73
     9
 74
     0
 42
0.000000001
 43
0.0000001
 40
0.0
 40
0.0
 40
0.0
 40
0.0
 40
0.2199160052
 40
0.3166680816
 40
0.416183615
 40
0.5296289508
 40
0.6652573388
 40
1.0
 40
1.0
 40
1.0
 40
1.0
 10
106.5060762934
 20
560.47265625
 30
0.0
 10
106.3604955433
 20
560.47265625
 30
0.0
 10
106.1421737265
 20
560.441263283
 30
0.0
 10
105.9121887418
 20
560.2808017494
 30
0.0
 10
105.7918571292
 20
560.1102710829
 30
0.0
 10
105.7168231309
 20
559.8898578752
 30
0.0
 10
105.6605573654
 20
559.5064960455
 30
0.0
 10
105.6581844358
 20
559.194250343
 30
0.0
 10
105.6581844358
 20
558.97265625
 30
0.0
  0
LINE
  5
31F
330
208
100
AcDbEntity
  8
7_ALL_FEATURES
  6
Continuous
 62
     9
100
AcDbLine
 10
107.148438
 20
659.722656
 30
0.0
 11
105.648438
 21
659.722656
 31
0.0
  0
SPLINE
  5
320
330
208
100
AcDbEntity
  8
7_ALL_FEATURES
  6
Continuous
 62
     7
100
AcDbSpline
 70
     0
 71
     3
 72
    13
 73
     9
 74
     0
 42
0.000000001
 43
0.0000001
 40
0.0
 40
0.0
 40
0.0
 40
0.0
 40
0.3347422319
 40
0.470370902
 40
0.5838163294
 40
0.6833319078
 40
0.7800840021
 40
1.0
 40
1.0
 40
1.0
 40
1.0
 10
105.6581844358
 20
665.97265625
 30
0.0
 10
105.6581844358
 20
665.7510624417
 30
0.0
 10
105.6605572979
 20
665.4388168306
 30
0.0
 10
105.7168230922
 20
665.0554550522
 30
0.0
 10
105.791857034
 20
664.8350415304
 30
0.0
 10
105.9121887107
 20
664.6645107699
 30
0.0
 10
106.1421737262
 20
664.5040492211
 30
0.0
 10
106.3604955485
 20
664.47265625
 30
0.0
 10
106.5060762934
 20
664.47265625
 30
0.0
  0
SPLINE
  5
321
330
208
100
AcDbEntity
  8
7_ALL_FEATURES
  6
Continuous
 62
     7
100
AcDbSpline
 70
     0
 71
     3
 72
    11
 73
     7
 74
     0
 42
0.000000001
 43
0.0000001
 40
0.0
 40
0.0
 40
0.0
 40
0.0
 40
0.2133676784
 40
0.4626829476
 40
0.729906232
 40
1.0
 40
1.0
 40
1.0
 40
1.0
 10
741.2907987066
 20
664.47265625
 30
0.0
 10
741.1070469452
 20
664.47265625
 30
0.0
 10
740.708443526
 20
664.5452856913
 30
0.0
 10
740.132256417
 20
664.8108915943
 30
0.0
 10
739.6148740689
 20
665.2723085054
 30
0.0
 10
739.4496360751
 20
665.7400521086
 30
0.0
 10
739.4496360751
 20
665.97265625
 30
0.0
  0
SPLINE
  5
322
330
208
100
AcDbEntity
  8
7_ALL_FEATURES
  6
Continuous
 62
     7
100
AcDbSpline
 70
     0
 71
     3
 72
    11
 73
     7
 74
     0
 42
0.000000001
 43
0.0000001
 40
0.0
 40
0.0
 40
0.0
 40
0.0
 40
0.2133676784
 40
0.4626829476
 40
0.729906232
 40
1.0
 40
1.0
 40
1.0
 40
1.0
 10
741.2907987066
 20
557.47265625
 30
0.0
 10
741.1070469452
 20
557.47265625
 30
0.0
 10
740.708443526
 20
557.5452856913
 30
0.0
 10
740.132256417
 20
557.8108915943
 30
0.0
 10
739.6148740689
 20
558.2723085054
 30
0.0
 10
739.4496360751
 20
558.7400521086
 30
0.0
 10
739.4496360751
 20
558.97265625
 30
0.0
  0
LINE
  5
323
330
208
100
AcDbEntity
  8
7_ALL_FEATURES
  6
Continuous
 62
     7
100
AcDbLine
 10
742.148438
 20
555.472656
 30
0.0
 11
742.148438
 21
553.722656
 31
0.0
  0
LINE
  5
324
330
208
100
AcDbEntity
  8
7_ALL_FEATURES
  6
Continuous
 62
     7
100
AcDbLine
 10
742.148438
 20
553.722656
 30
0.0
 11
742.148438
 21
553.222656
 31
0.0
  0
LINE
  5
325
330
208
100
AcDbEntity
  8
7_ALL_FEATURES
  6
Continuous
 62
     7
100
AcDbLine
 10
742.148438
 20
553.222656
 30
0.0
 11
742.148438
 21
552.722656
 31
0.0
  0
LINE
  5
326
330
208
100
AcDbEntity
  8
7_ALL_FEATURES
  6
Continuous
 62
     7
100
AcDbLine
 10
742.148438
 20
552.722656
 30
0.0
 11
742.148438
 21
537.222656
 31
0.0
  0
LINE
  5
327
330
208
100
AcDbEntity
  8
7_ALL_FEATURES
  6
Continuous
 62
     7
100
AcDbLine
 10
742.148438
 20
537.222656
 30
0.0
 11
742.148438
 21
535.222656
 31
0.0
  0
LINE
  5
328
330
208
100
AcDbEntity
  8
7_ALL_FEATURES
  6
Continuous
 62
     7
100
AcDbLine
 10
742.148438
 20
685.722656
 30
0.0
 11
742.148438
 21
684.722656
 31
0.0
  0
LINE
  5
329
330
208
100
AcDbEntity
  8
7_ALL_FEATURES
  6
Continuous
 62
     7
100
AcDbLine
 10
742.148438
 20
684.722656
 30
0.0
 11
742.148438
 21
672.222656
 31
0.0
  0
LINE
  5
32A
330
208
100
AcDbEntity
  8
7_ALL_FEATURES
  6
Continuous
 62
     7
100
AcDbLine
 10
742.148438
 20
672.222656
 30
0.0
 11
742.148438
 21
671.722656
 31
0.0
  0
LINE
  5
32B
330
208
100
AcDbEntity
  8
7_ALL_FEATURES
  6
Continuous
 62
     7
100
AcDbLine
 10
742.148438
 20
671.722656
 30
0.0
 11
742.148438
 21
671.222656
 31
0.0
  0
LINE
  5
32C
330
208
100
AcDbEntity
  8
7_ALL_FEATURES
  6
Continuous
 62
     7
100
AcDbLine
 10
742.148438
 20
671.222656
 30
0.0
 11
742.148438
 21
669.472656
 31
0.0
  0
ARC
  5
32D
330
208
100
AcDbEntity
  8
7_ALL_FEATURES
  6
Continuous
 62
     7
100
AcDbCircle
 10
728.69148
 20
556.972656
 30
0.0
 40
1.5
100
AcDbArc
 50
180.0
 51
189.648474
  0
LINE
  5
32E
330
208
100
AcDbEntity
  8
7_ALL_FEATURES
  6
Continuous
 62
     7
100
AcDbLine
 10
727.19148
 20
560.972656
 30
0.0
 11
727.19148
 21
556.972656
 31
0.0
  0
ARC
  5
32F
330
208
100
AcDbEntity
  8
7_ALL_FEATURES
  6
Continuous
 62
     7
100
AcDbCircle
 10
728.69148
 20
560.972656
 30
0.0
 40
1.5
100
AcDbArc
 50
170.351526
 51
180.0
  0
LINE
  5
330
330
208
100
AcDbEntity
  8
7_ALL_FEATURES
  6
Continuous
 62
     7
100
AcDbLine
 10
742.148438
 20
662.472656
 30
0.0
 11
742.148438
 21
665.972656
 31
0.0
  0
LINE
  5
331
330
208
100
AcDbEntity
  8
7_ALL_FEATURES
  6
Continuous
 62
     7
100
AcDbLine
 10
742.148438
 20
665.972656
 30
0.0
 11
742.148438
 21
669.472656
 31
0.0
  0
LINE
  5
332
330
208
100
AcDbEntity
  8
7_ALL_FEATURES
  6
Continuous
 62
     7
100
AcDbLine
 10
742.148438
 20
662.472656
 30
0.0
 11
742.148438
 21
660.722656
 31
0.0
  0
LINE
  5
333
330
208
100
AcDbEntity
  8
7_ALL_FEATURES
  6
Continuous
 62
     7
100
AcDbLine
 10
742.148438
 20
660.722656
 30
0.0
 11
742.148438
 21
660.222656
 31
0.0
  0
LINE
  5
334
330
208
100
AcDbEntity
  8
7_ALL_FEATURES
  6
Continuous
 62
     7
100
AcDbLine
 10
742.148438
 20
660.222656
 30
0.0
 11
742.148438
 21
659.722656
 31
0.0
  0
LINE
  5
335
330
208
100
AcDbEntity
  8
7_ALL_FEATURES
  6
Continuous
 62
     7
100
AcDbLine
 10
742.148438
 20
659.722656
 30
0.0
 11
742.148438
 21
565.222656
 31
0.0
  0
LINE
  5
336
330
208
100
AcDbEntity
  8
7_ALL_FEATURES
  6
Continuous
 62
     7
100
AcDbLine
 10
742.148438
 20
565.222656
 30
0.0
 11
742.148438
 21
564.722656
 31
0.0
  0
LINE
  5
337
330
208
100
AcDbEntity
  8
7_ALL_FEATURES
  6
Continuous
 62
     7
100
AcDbLine
 10
742.148438
 20
564.722656
 30
0.0
 11
742.148438
 21
564.222656
 31
0.0
  0
LINE
  5
338
330
208
100
AcDbEntity
  8
7_ALL_FEATURES
  6
Continuous
 62
     7
100
AcDbLine
 10
742.148438
 20
564.222656
 30
0.0
 11
742.148438
 21
562.472656
 31
0.0
  0
LINE
  5
339
330
208
100
AcDbEntity
  8
7_ALL_FEATURES
  6
Continuous
 62
     7
100
AcDbLine
 10
742.148438
 20
555.472656
 30
0.0
 11
742.148438
 21
558.972656
 31
0.0
  0
LINE
  5
33A
330
208
100
AcDbEntity
  8
7_ALL_FEATURES
  6
Continuous
 62
     7
100
AcDbLine
 10
742.148438
 20
558.972656
 30
0.0
 11
742.148438
 21
562.472656
 31
0.0
  0
LINE
  5
33B
330
208
100
AcDbEntity
  8
7_ALL_FEATURES
  6
Continuous
 62
     7
100
AcDbLine
 10
740.648438
 20
535.222656
 30
0.0
 11
742.148438
 21
535.222656
 31
0.0
  0
LINE
  5
33C
330
208
100
AcDbEntity
  8
7_ALL_FEATURES
  6
Continuous
 62
     7
100
AcDbLine
 10
740.648438
 20
553.222656
 30
0.0
 11
742.148438
 21
553.222656
 31
0.0
  0
LINE
  5
33D
330
208
100
AcDbEntity
  8
7_ALL_FEATURES
  6
Continuous
 62
     7
100
AcDbLine
 10
742.148438
 20
562.472656
 30
0.0
 11
740.648438
 21
562.472656
 31
0.0
  0
LINE
  5
33E
330
208
100
AcDbEntity
  8
7_ALL_FEATURES
  6
Continuous
 62
     7
100
AcDbLine
 10
740.648438
 20
555.472656
 30
0.0
 11
741.269758
 21
555.472656
 31
0.0
  0
LINE
  5
33F
330
208
100
AcDbEntity
  8
7_ALL_FEATURES
  6
Continuous
 62
     7
100
AcDbLine
 10
741.269758
 20
555.472656
 30
0.0
 11
742.148438
 21
555.472656
 31
0.0
  0
SPLINE
  5
340
330
208
100
AcDbEntity
  8
7_ALL_FEATURES
  6
Continuous
 62
     7
100
AcDbSpline
 70
     0
 71
     3
 72
    11
 73
     7
 74
     0
 42
0.000000001
 43
0.0000001
 40
0.0
 40
0.0
 40
0.0
 40
0.0
 40
0.270093768
 40
0.5373170524
 40
0.7866323216
 40
1.0
 40
1.0
 40
1.0
 40
1.0
 10
739.4496360751
 20
558.97265625
 30
0.0
 10
739.4496360751
 20
559.2052603914
 30
0.0
 10
739.6148740689
 20
559.6730039946
 30
0.0
 10
740.132256417
 20
560.1344209057
 30
0.0
 10
740.708443526
 20
560.4000268087
 30
0.0
 10
741.1070469452
 20
560.47265625
 30
0.0
 10
741.2907987066
 20
560.47265625
 30
0.0
  0
LINE
  5
341
330
208
100
AcDbEntity
  8
7_ALL_FEATURES
  6
Continuous
 62
     7
100
AcDbLine
 10
740.648438
 20
564.722656
 30
0.0
 11
742.148438
 21
564.722656
 31
0.0
  0
ARC
  5
342
330
208
100
AcDbEntity
  8
7_ALL_FEATURES
  6
Continuous
 62
     7
100
AcDbCircle
 10
728.69148
 20
663.972656
 30
0.0
 40
1.5
100
AcDbArc
 50
180.0
 51
189.648474
  0
LINE
  5
343
330
208
100
AcDbEntity
  8
7_ALL_FEATURES
  6
Continuous
 62
     7
100
AcDbLine
 10
727.19148
 20
667.972656
 30
0.0
 11
727.19148
 21
663.972656
 31
0.0
  0
ARC
  5
344
330
208
100
AcDbEntity
  8
7_ALL_FEATURES
  6
Continuous
 62
     7
100
AcDbCircle
 10
728.69148
 20
667.972656
 30
0.0
 40
1.5
100
AcDbArc
 50
170.351526
 51
180.0
  0
LINE
  5
345
330
208
100
AcDbEntity
  8
7_ALL_FEATURES
  6
Continuous
 62
     7
100
AcDbLine
 10
740.648438
 20
660.222656
 30
0.0
 11
742.148438
 21
660.222656
 31
0.0
  0
LINE
  5
346
330
208
100
AcDbEntity
  8
7_ALL_FEATURES
  6
Continuous
 62
     7
100
AcDbLine
 10
740.648438
 20
671.722656
 30
0.0
 11
742.148438
 21
671.722656
 31
0.0
  0
LINE
  5
347
330
208
100
AcDbEntity
  8
7_ALL_FEATURES
  6
Continuous
 62
     7
100
AcDbLine
 10
740.648438
 20
685.722656
 30
0.0
 11
742.148438
 21
685.722656
 31
0.0
  0
LINE
  5
348
330
208
100
AcDbEntity
  8
7_ALL_FEATURES
  6
Continuous
 62
     7
100
AcDbLine
 10
742.148438
 20
669.472656
 30
0.0
 11
740.648438
 21
669.472656
 31
0.0
  0
LINE
  5
349
330
208
100
AcDbEntity
  8
7_ALL_FEATURES
  6
Continuous
 62
     7
100
AcDbLine
 10
740.648438
 20
662.472656
 30
0.0
 11
741.269758
 21
662.472656
 31
0.0
  0
LINE
  5
34A
330
208
100
AcDbEntity
  8
7_ALL_FEATURES
  6
Continuous
 62
     7
100
AcDbLine
 10
741.269758
 20
662.472656
 30
0.0
 11
742.148438
 21
662.472656
 31
0.0
  0
SPLINE
  5
34B
330
208
100
AcDbEntity
  8
7_ALL_FEATURES
  6
Continuous
 62
     7
100
AcDbSpline
 70
     0
 71
     3
 72
    11
 73
     7
 74
     0
 42
0.000000001
 43
0.0000001
 40
0.0
 40
0.0
 40
0.0
 40
0.0
 40
0.270093768
 40
0.5373170524
 40
0.7866323216
 40
1.0
 40
1.0
 40
1.0
 40
1.0
 10
739.4496360751
 20
665.97265625
 30
0.0
 10
739.4496360751
 20
666.2052603914
 30
0.0
 10
739.6148740689
 20
666.6730039946
 30
0.0
 10
740.132256417
 20
667.1344209057
 30
0.0
 10
740.708443526
 20
667.4000268087
 30
0.0
 10
741.1070469452
 20
667.47265625
 30
0.0
 10
741.2907987066
 20
667.47265625
 30
0.0
  0
LINE
  5
34C
330
208
100
AcDbEntity
  8
7_ALL_FEATURES
  6
Continuous
 62
     9
100
AcDbLine
 10
740.648438
 20
684.722656
 30
0.0
 11
742.148438
 21
684.722656
 31
0.0
  0
SPLINE
  5
34D
330
208
100
AcDbEntity
  8
7_ALL_FEATURES
  6
Continuous
 62
     7
100
AcDbSpline
 70
     0
 71
     3
 72
    13
 73
     9
 74
     0
 42
0.000000001
 43
0.0000001
 40
0.0
 40
0.0
 40
0.0
 40
0.0
 40
0.3347370749
 40
0.4703691399
 40
0.5838156674
 40
0.6833317856
 40
0.7800840944
 40
1.0
 40
1.0
 40
1.0
 40
1.0
 10
742.1386905642
 20
558.97265625
 30
0.0
 10
742.1386905642
 20
558.7510658621
 30
0.0
 10
742.1363185197
 20
558.4388213425
 30
0.0
 10
742.0800523668
 20
558.055460179
 30
0.0
 10
742.0050191056
 20
557.83504288
 30
0.0
 10
741.884686655
 20
557.6645109945
 30
0.0
 10
741.6547012698
 20
557.5040492696
 30
0.0
 10
741.4363793861
 20
557.47265625
 30
0.0
 10
741.2907987066
 20
557.47265625
 30
0.0
  0
SPLINE
  5
34E
330
208
100
AcDbEntity
  8
7_ALL_FEATURES
  6
Continuous
 62
     7
100
AcDbSpline
 70
     0
 71
     3
 72
    13
 73
     9
 74
     0
 42
0.000000001
 43
0.0000001
 40
0.0
 40
0.0
 40
0.0
 40
0.0
 40
0.2199159056
 40
0.3166682144
 40
0.4161843326
 40
0.5296308601
 40
0.6652629251
 40
1.0
 40
1.0
 40
1.0
 40
1.0
 10
741.2907987066
 20
560.47265625
 30
0.0
 10
741.4363793861
 20
560.47265625
 30
0.0
 10
741.6547012698
 20
560.4412632304
 30
0.0
 10
741.884686655
 20
560.2808015055
 30
0.0
 10
742.0050191056
 20
560.11026962
 30
0.0
 10
742.0800523668
 20
559.889852321
 30
0.0
 10
742.1363185197
 20
559.5064911575
 30
0.0
 10
742.1386905642
 20
559.1942466379
 30
0.0
 10
742.1386905642
 20
558.97265625
 30
0.0
  0
LINE
  5
34F
330
208
100
AcDbEntity
  8
7_ALL_FEATURES
  6
Continuous
 62
     9
100
AcDbLine
 10
740.648438
 20
537.222656
 30
0.0
 11
742.148438
 21
537.222656
 31
0.0
  0
LINE
  5
350
330
208
100
AcDbEntity
  8
7_ALL_FEATURES
  6
Continuous
 62
     9
100
AcDbLine
 10
740.648438
 20
553.722656
 30
0.0
 11
742.148438
 21
553.722656
 31
0.0
  0
LINE
  5
351
330
208
100
AcDbEntity
  8
7_ALL_FEATURES
  6
Continuous
 62
     9
100
AcDbLine
 10
740.648438
 20
564.222656
 30
0.0
 11
742.148438
 21
564.222656
 31
0.0
  0
LINE
  5
352
330
208
100
AcDbEntity
  8
7_ALL_FEATURES
  6
Continuous
 62
     9
100
AcDbLine
 10
740.648438
 20
565.222656
 30
0.0
 11
742.148438
 21
565.222656
 31
0.0
  0
LINE
  5
353
330
208
100
AcDbEntity
  8
7_ALL_FEATURES
  6
Continuous
 62
     9
100
AcDbLine
 10
739.148438
 20
663.722656
 30
0.0
 11
739.148438
 21
668.222656
 31
0.0
  0
LINE
  5
354
330
208
100
AcDbEntity
  8
7_ALL_FEATURES
  6
Continuous
 62
     9
100
AcDbLine
 10
740.648438
 20
659.722656
 30
0.0
 11
742.148438
 21
659.722656
 31
0.0
  0
LINE
  5
355
330
208
100
AcDbEntity
  8
7_ALL_FEATURES
  6
Continuous
 62
     9
100
AcDbLine
 10
740.648438
 20
552.722656
 30
0.0
 11
742.148438
 21
552.722656
 31
0.0
  0
SPLINE
  5
356
330
208
100
AcDbEntity
  8
7_ALL_FEATURES
  6
Continuous
 62
     7
100
AcDbSpline
 70
     0
 71
     3
 72
    13
 73
     9
 74
     0
 42
0.000000001
 43
0.0000001
 40
0.0
 40
0.0
 40
0.0
 40
0.0
 40
0.3347370749
 40
0.4703691399
 40
0.5838156674
 40
0.6833317856
 40
0.7800840944
 40
1.0
 40
1.0
 40
1.0
 40
1.0
 10
742.1386905642
 20
665.97265625
 30
0.0
 10
742.1386905642
 20
665.7510658621
 30
0.0
 10
742.1363185197
 20
665.4388213425
 30
0.0
 10
742.0800523668
 20
665.055460179
 30
0.0
 10
742.0050191056
 20
664.83504288
 30
0.0
 10
741.884686655
 20
664.6645109945
 30
0.0
 10
741.6547012698
 20
664.5040492696
 30
0.0
 10
741.4363793861
 20
664.47265625
 30
0.0
 10
741.2907987066
 20
664.47265625
 30
0.0
  0
SPLINE
  5
357
330
208
100
AcDbEntity
  8
7_ALL_FEATURES
  6
Continuous
 62
     7
100
AcDbSpline
 70
     0
 71
     3
 72
    13
 73
     9
 74
     0
 42
0.000000001
 43
0.0000001
 40
0.0
 40
0.0
 40
0.0
 40
0.0
 40
0.2199159056
 40
0.3166682144
 40
0.4161843326
 40
0.5296308601
 40
0.6652629251
 40
1.0
 40
1.0
 40
1.0
 40
1.0
 10
741.2907987066
 20
667.47265625
 30
0.0
 10
741.4363793861
 20
667.47265625
 30
0.0
 10
741.6547012698
 20
667.4412632304
 30
0.0
 10
741.884686655
 20
667.2808015055
 30
0.0
 10
742.0050191056
 20
667.11026962
 30
0.0
 10
742.0800523668
 20
666.889852321
 30
0.0
 10
742.1363185197
 20
666.5064911575
 30
0.0
 10
742.1386905642
 20
666.1942466379
 30
0.0
 10
742.1386905642
 20
665.97265625
 30
0.0
  0
LINE
  5
358
330
208
100
AcDbEntity
  8
7_ALL_FEATURES
  6
Continuous
 62
     9
100
AcDbLine
 10
740.648438
 20
660.722656
 30
0.0
 11
742.148438
 21
660.722656
 31
0.0
  0
LINE
  5
359
330
208
100
AcDbEntity
  8
7_ALL_FEATURES
  6
Continuous
 62
     9
100
AcDbLine
 10
740.648438
 20
671.222656
 30
0.0
 11
742.148438
 21
671.222656
 31
0.0
  0
LINE
  5
35A
330
208
100
AcDbEntity
  8
7_ALL_FEATURES
  6
Continuous
 62
     9
100
AcDbLine
 10
739.148438
 20
556.722656
 30
0.0
 11
739.148438
 21
561.222656
 31
0.0
  0
LINE
  5
35B
330
208
100
AcDbEntity
  8
7_ALL_FEATURES
  6
Continuous
 62
     9
100
AcDbLine
 10
740.648438
 20
672.222656
 30
0.0
 11
742.148438
 21
672.222656
 31
0.0
  0
LINE
  5
35C
330
208
100
AcDbEntity
  8
7_ALL_FEATURES
  6
Continuous
 62
     9
100
AcDbLine
 10
740.643564
 20
665.972656
 30
0.0
 11
742.138691
 21
665.972656
 31
0.0
  0
LINE
  5
35D
330
208
100
AcDbEntity
  8
7_ALL_FEATURES
  6
Continuous
 62
     9
100
AcDbLine
 10
740.643564
 20
558.972656
 30
0.0
 11
742.138691
 21
558.972656
 31
0.0
  0
LINE
  5
35E
330
208
100
AcDbEntity
  8
7_ALL_FEATURES
  6
Continuous
 62
     7
100
AcDbLine
 10
107.148438
 20
685.722656
 30
0.0
 11
740.648438
 21
685.722656
 31
0.0
  0
LINE
  5
35F
330
208
100
AcDbEntity
  8
7_ALL_FEATURES
  6
Continuous
 62
     7
100
AcDbLine
 10
107.148438
 20
668.222656
 30
0.0
 11
740.648438
 21
668.222656
 31
0.0
  0
LINE
  5
360
330
208
100
AcDbEntity
  8
7_ALL_FEATURES
  6
Continuous
 62
     7
100
AcDbLine
 10
107.148438
 20
663.722656
 30
0.0
 11
740.648438
 21
663.722656
 31
0.0
  0
LINE
  5
361
330
208
100
AcDbEntity
  8
7_ALL_FEATURES
  6
Continuous
 62
     7
100
AcDbLine
 10
107.148438
 20
660.222656
 30
0.0
 11
740.648438
 21
660.222656
 31
0.0
  0
LINE
  5
362
330
208
100
AcDbEntity
  8
7_ALL_FEATURES
  6
Continuous
 62
     7
100
AcDbLine
 10
107.148438
 20
564.722656
 30
0.0
 11
740.648438
 21
564.722656
 31
0.0
  0
LINE
  5
363
330
208
100
AcDbEntity
  8
7_ALL_FEATURES
  6
Continuous
 62
     7
100
AcDbLine
 10
107.148438
 20
561.222656
 30
0.0
 11
740.648438
 21
561.222656
 31
0.0
  0
LINE
  5
364
330
208
100
AcDbEntity
  8
7_ALL_FEATURES
  6
Continuous
 62
     7
100
AcDbLine
 10
107.148438
 20
556.722656
 30
0.0
 11
740.648438
 21
556.722656
 31
0.0
  0
LINE
  5
365
330
208
100
AcDbEntity
  8
7_ALL_FEATURES
  6
Continuous
 62
     7
100
AcDbLine
 10
107.148438
 20
553.222656
 30
0.0
 11
740.648438
 21
553.222656
 31
0.0
  0
LINE
  5
366
330
208
100
AcDbEntity
  8
7_ALL_FEATURES
  6
Continuous
 62
     7
100
AcDbLine
 10
107.148438
 20
535.222656
 30
0.0
 11
740.648438
 21
535.222656
 31
0.0
  0
LINE
  5
367
330
208
100
AcDbEntity
  8
7_ALL_FEATURES
  6
Continuous
 62
     7
100
AcDbLine
 10
740.648438
 20
685.722656
 30
0.0
 11
740.648438
 21
685.522656
 31
0.0
  0
LINE
  5
368
330
208
100
AcDbEntity
  8
7_ALL_FEATURES
  6
Continuous
 62
     7
100
AcDbLine
 10
740.648438
 20
685.522656
 30
0.0
 11
740.648438
 21
684.722656
 31
0.0
  0
LINE
  5
369
330
208
100
AcDbEntity
  8
7_ALL_FEATURES
  6
Continuous
 62
     7
100
AcDbLine
 10
740.648438
 20
684.722656
 30
0.0
 11
740.648438
 21
672.222656
 31
0.0
  0
LINE
  5
36A
330
208
100
AcDbEntity
  8
7_ALL_FEATURES
  6
Continuous
 62
     7
100
AcDbLine
 10
740.648438
 20
672.222656
 30
0.0
 11
740.648438
 21
671.922656
 31
0.0
  0
LINE
  5
36B
330
208
100
AcDbEntity
  8
7_ALL_FEATURES
  6
Continuous
 62
     7
100
AcDbLine
 10
740.648438
 20
671.922656
 30
0.0
 11
740.648438
 21
671.722656
 31
0.0
  0
LINE
  5
36C
330
208
100
AcDbEntity
  8
7_ALL_FEATURES
  6
Continuous
 62
     7
100
AcDbLine
 10
740.648438
 20
671.722656
 30
0.0
 11
740.648438
 21
671.222656
 31
0.0
  0
LINE
  5
36D
330
208
100
AcDbEntity
  8
7_ALL_FEATURES
  6
Continuous
 62
     7
100
AcDbLine
 10
740.648438
 20
671.222656
 30
0.0
 11
740.648438
 21
669.722656
 31
0.0
  0
LINE
  5
36E
330
208
100
AcDbEntity
  8
7_ALL_FEATURES
  6
Continuous
 62
     7
100
AcDbLine
 10
740.648438
 20
669.722656
 30
0.0
 11
740.648438
 21
668.722656
 31
0.0
  0
LINE
  5
36F
330
208
100
AcDbEntity
  8
7_ALL_FEATURES
  6
Continuous
 62
     7
100
AcDbLine
 10
740.648438
 20
668.722656
 30
0.0
 11
740.648438
 21
668.222656
 31
0.0
  0
LINE
  5
370
330
208
100
AcDbEntity
  8
7_ALL_FEATURES
  6
Continuous
 62
     7
100
AcDbLine
 10
740.648438
 20
663.722656
 30
0.0
 11
740.648438
 21
663.222656
 31
0.0
  0
LINE
  5
371
330
208
100
AcDbEntity
  8
7_ALL_FEATURES
  6
Continuous
 62
     7
100
AcDbLine
 10
740.648438
 20
663.222656
 30
0.0
 11
740.648438
 21
662.222656
 31
0.0
  0
LINE
  5
372
330
208
100
AcDbEntity
  8
7_ALL_FEATURES
  6
Continuous
 62
     7
100
AcDbLine
 10
740.648438
 20
662.222656
 30
0.0
 11
740.648438
 21
660.722656
 31
0.0
  0
LINE
  5
373
330
208
100
AcDbEntity
  8
7_ALL_FEATURES
  6
Continuous
 62
     7
100
AcDbLine
 10
740.648438
 20
660.722656
 30
0.0
 11
740.648438
 21
660.222656
 31
0.0
  0
LINE
  5
374
330
208
100
AcDbEntity
  8
7_ALL_FEATURES
  6
Continuous
 62
     7
100
AcDbLine
 10
740.648438
 20
660.022656
 30
0.0
 11
740.648438
 21
659.722656
 31
0.0
  0
LINE
  5
375
330
208
100
AcDbEntity
  8
7_ALL_FEATURES
  6
Continuous
 62
     7
100
AcDbLine
 10
740.648438
 20
659.722656
 30
0.0
 11
740.648438
 21
565.222656
 31
0.0
  0
LINE
  5
376
330
208
100
AcDbEntity
  8
7_ALL_FEATURES
  6
Continuous
 62
     7
100
AcDbLine
 10
740.648438
 20
565.222656
 30
0.0
 11
740.648438
 21
564.922656
 31
0.0
  0
LINE
  5
377
330
208
100
AcDbEntity
  8
7_ALL_FEATURES
  6
Continuous
 62
     7
100
AcDbLine
 10
740.648438
 20
564.922656
 30
0.0
 11
740.648438
 21
564.722656
 31
0.0
  0
LINE
  5
378
330
208
100
AcDbEntity
  8
7_ALL_FEATURES
  6
Continuous
 62
     7
100
AcDbLine
 10
740.648438
 20
564.722656
 30
0.0
 11
740.648438
 21
564.222656
 31
0.0
  0
LINE
  5
379
330
208
100
AcDbEntity
  8
7_ALL_FEATURES
  6
Continuous
 62
     7
100
AcDbLine
 10
740.648438
 20
564.222656
 30
0.0
 11
740.648438
 21
562.722656
 31
0.0
  0
LINE
  5
37A
330
208
100
AcDbEntity
  8
7_ALL_FEATURES
  6
Continuous
 62
     7
100
AcDbLine
 10
740.648438
 20
562.722656
 30
0.0
 11
740.648438
 21
561.722656
 31
0.0
  0
LINE
  5
37B
330
208
100
AcDbEntity
  8
7_ALL_FEATURES
  6
Continuous
 62
     7
100
AcDbLine
 10
740.648438
 20
561.722656
 30
0.0
 11
740.648438
 21
561.222656
 31
0.0
  0
LINE
  5
37C
330
208
100
AcDbEntity
  8
7_ALL_FEATURES
  6
Continuous
 62
     7
100
AcDbLine
 10
740.648438
 20
556.722656
 30
0.0
 11
740.648438
 21
556.222656
 31
0.0
  0
LINE
  5
37D
330
208
100
AcDbEntity
  8
7_ALL_FEATURES
  6
Continuous
 62
     7
100
AcDbLine
 10
740.648438
 20
556.222656
 30
0.0
 11
740.648438
 21
555.222656
 31
0.0
  0
LINE
  5
37E
330
208
100
AcDbEntity
  8
7_ALL_FEATURES
  6
Continuous
 62
     7
100
AcDbLine
 10
740.648438
 20
555.222656
 30
0.0
 11
740.648438
 21
553.722656
 31
0.0
  0
LINE
  5
37F
330
208
100
AcDbEntity
  8
7_ALL_FEATURES
  6
Continuous
 62
     7
100
AcDbLine
 10
740.648438
 20
553.722656
 30
0.0
 11
740.648438
 21
553.222656
 31
0.0
  0
LINE
  5
380
330
208
100
AcDbEntity
  8
7_ALL_FEATURES
  6
Continuous
 62
     7
100
AcDbLine
 10
740.648438
 20
553.022656
 30
0.0
 11
740.648438
 21
552.722656
 31
0.0
  0
LINE
  5
381
330
208
100
AcDbEntity
  8
7_ALL_FEATURES
  6
Continuous
 62
     7
100
AcDbLine
 10
740.648438
 20
552.722656
 30
0.0
 11
740.648438
 21
537.222656
 31
0.0
  0
LINE
  5
382
330
208
100
AcDbEntity
  8
7_ALL_FEATURES
  6
Continuous
 62
     7
100
AcDbLine
 10
740.648438
 20
537.222656
 30
0.0
 11
740.648438
 21
536.222656
 31
0.0
  0
LINE
  5
383
330
208
100
AcDbEntity
  8
7_ALL_FEATURES
  6
Continuous
 62
     7
100
AcDbLine
 10
740.648438
 20
536.222656
 30
0.0
 11
740.648438
 21
535.222656
 31
0.0
  0
LINE
  5
384
330
208
100
AcDbEntity
  8
7_ALL_FEATURES
  6
Continuous
 62
     7
100
AcDbLine
 10
107.148438
 20
671.722656
 30
0.0
 11
740.648438
 21
671.722656
 31
0.0
  0
LINE
  5
385
330
208
100
AcDbEntity
  8
7_ALL_FEATURES
  6
Continuous
 62
     7
100
AcDbLine
 10
107.148438
 20
536.222656
 30
0.0
 11
107.148438
 21
535.222656
 31
0.0
  0
LINE
  5
386
330
208
100
AcDbEntity
  8
7_ALL_FEATURES
  6
Continuous
 62
     7
100
AcDbLine
 10
107.148438
 20
553.022656
 30
0.0
 11
107.148438
 21
552.722656
 31
0.0
  0
LINE
  5
387
330
208
100
AcDbEntity
  8
7_ALL_FEATURES
  6
Continuous
 62
     7
100
AcDbLine
 10
107.148438
 20
552.722656
 30
0.0
 11
107.148438
 21
537.222656
 31
0.0
  0
LINE
  5
388
330
208
100
AcDbEntity
  8
7_ALL_FEATURES
  6
Continuous
 62
     7
100
AcDbLine
 10
107.148438
 20
537.222656
 30
0.0
 11
107.148438
 21
536.222656
 31
0.0
  0
LINE
  5
389
330
208
100
AcDbEntity
  8
7_ALL_FEATURES
  6
Continuous
 62
     7
100
AcDbLine
 10
107.148438
 20
553.722656
 30
0.0
 11
107.148438
 21
553.222656
 31
0.0
  0
LINE
  5
38A
330
208
100
AcDbEntity
  8
7_ALL_FEATURES
  6
Continuous
 62
     7
100
AcDbLine
 10
107.148438
 20
556.222656
 30
0.0
 11
107.148438
 21
553.722656
 31
0.0
  0
LINE
  5
38B
330
208
100
AcDbEntity
  8
7_ALL_FEATURES
  6
Continuous
 62
     7
100
AcDbLine
 10
107.148438
 20
556.722656
 30
0.0
 11
107.148438
 21
556.222656
 31
0.0
  0
LINE
  5
38C
330
208
100
AcDbEntity
  8
7_ALL_FEATURES
  6
Continuous
 62
     7
100
AcDbLine
 10
107.148438
 20
561.722656
 30
0.0
 11
107.148438
 21
561.222656
 31
0.0
  0
LINE
  5
38D
330
208
100
AcDbEntity
  8
7_ALL_FEATURES
  6
Continuous
 62
     7
100
AcDbLine
 10
107.148438
 20
564.222656
 30
0.0
 11
107.148438
 21
561.722656
 31
0.0
  0
LINE
  5
38E
330
208
100
AcDbEntity
  8
7_ALL_FEATURES
  6
Continuous
 62
     7
100
AcDbLine
 10
107.148438
 20
564.722656
 30
0.0
 11
107.148438
 21
564.313433
 31
0.0
  0
LINE
  5
38F
330
208
100
AcDbEntity
  8
7_ALL_FEATURES
  6
Continuous
 62
     7
100
AcDbLine
 10
107.148438
 20
564.313433
 30
0.0
 11
107.148438
 21
564.222656
 31
0.0
  0
LINE
  5
390
330
208
100
AcDbEntity
  8
7_ALL_FEATURES
  6
Continuous
 62
     7
100
AcDbLine
 10
107.148438
 20
564.922656
 30
0.0
 11
107.148438
 21
564.722656
 31
0.0
  0
LINE
  5
391
330
208
100
AcDbEntity
  8
7_ALL_FEATURES
  6
Continuous
 62
     7
100
AcDbLine
 10
107.148438
 20
660.022656
 30
0.0
 11
107.148438
 21
659.722656
 31
0.0
  0
LINE
  5
392
330
208
100
AcDbEntity
  8
7_ALL_FEATURES
  6
Continuous
 62
     7
100
AcDbLine
 10
107.148438
 20
659.722656
 30
0.0
 11
107.148438
 21
565.222656
 31
0.0
  0
LINE
  5
393
330
208
100
AcDbEntity
  8
7_ALL_FEATURES
  6
Continuous
 62
     7
100
AcDbLine
 10
107.148438
 20
565.222656
 30
0.0
 11
107.148438
 21
564.922656
 31
0.0
  0
LINE
  5
394
330
208
100
AcDbEntity
  8
7_ALL_FEATURES
  6
Continuous
 62
     7
100
AcDbLine
 10
107.148438
 20
660.722656
 30
0.0
 11
107.148438
 21
660.222656
 31
0.0
  0
LINE
  5
395
330
208
100
AcDbEntity
  8
7_ALL_FEATURES
  6
Continuous
 62
     7
100
AcDbLine
 10
107.148438
 20
663.222656
 30
0.0
 11
107.148438
 21
660.722656
 31
0.0
  0
LINE
  5
396
330
208
100
AcDbEntity
  8
7_ALL_FEATURES
  6
Continuous
 62
     7
100
AcDbLine
 10
107.148438
 20
663.722656
 30
0.0
 11
107.148438
 21
663.222656
 31
0.0
  0
LINE
  5
397
330
208
100
AcDbEntity
  8
7_ALL_FEATURES
  6
Continuous
 62
     7
100
AcDbLine
 10
107.148438
 20
668.722656
 30
0.0
 11
107.148438
 21
668.222656
 31
0.0
  0
LINE
  5
398
330
208
100
AcDbEntity
  8
7_ALL_FEATURES
  6
Continuous
 62
     7
100
AcDbLine
 10
107.148438
 20
671.222656
 30
0.0
 11
107.148438
 21
668.722656
 31
0.0
  0
LINE
  5
399
330
208
100
AcDbEntity
  8
7_ALL_FEATURES
  6
Continuous
 62
     7
100
AcDbLine
 10
107.148438
 20
671.722656
 30
0.0
 11
107.148438
 21
671.313433
 31
0.0
  0
LINE
  5
39A
330
208
100
AcDbEntity
  8
7_ALL_FEATURES
  6
Continuous
 62
     7
100
AcDbLine
 10
107.148438
 20
671.313433
 30
0.0
 11
107.148438
 21
671.222656
 31
0.0
  0
LINE
  5
39B
330
208
100
AcDbEntity
  8
7_ALL_FEATURES
  6
Continuous
 62
     7
100
AcDbLine
 10
107.148438
 20
671.922656
 30
0.0
 11
107.148438
 21
671.722656
 31
0.0
  0
LINE
  5
39C
330
208
100
AcDbEntity
  8
7_ALL_FEATURES
  6
Continuous
 62
     7
100
AcDbLine
 10
107.148438
 20
685.522656
 30
0.0
 11
107.148438
 21
684.722656
 31
0.0
  0
LINE
  5
39D
330
208
100
AcDbEntity
  8
7_ALL_FEATURES
  6
Continuous
 62
     7
100
AcDbLine
 10
107.148438
 20
684.722656
 30
0.0
 11
107.148438
 21
672.222656
 31
0.0
  0
LINE
  5
39E
330
208
100
AcDbEntity
  8
7_ALL_FEATURES
  6
Continuous
 62
     7
100
AcDbLine
 10
107.148438
 20
672.222656
 30
0.0
 11
107.148438
 21
671.922656
 31
0.0
  0
LINE
  5
39F
330
208
100
AcDbEntity
  8
7_ALL_FEATURES
  6
Continuous
 62
     7
100
AcDbLine
 10
107.148438
 20
685.722656
 30
0.0
 11
107.148438
 21
685.522656
 31
0.0
  0
LINE
  5
3A0
330
208
100
AcDbEntity
  8
7_ALL_FEATURES
  6
Continuous
 62
     9
100
AcDbLine
 10
107.148438
 20
553.022656
 30
0.0
 11
740.648438
 21
553.022656
 31
0.0
  0
LINE
  5
3A1
330
208
100
AcDbEntity
  8
7_ALL_FEATURES
  6
Continuous
 62
     9
100
AcDbLine
 10
107.148438
 20
536.222656
 30
0.0
 11
740.648438
 21
536.222656
 31
0.0
  0
LINE
  5
3A2
330
208
100
AcDbEntity
  8
7_ALL_FEATURES
  6
Continuous
 62
     9
100
AcDbLine
 10
107.148438
 20
660.722656
 30
0.0
 11
740.648438
 21
660.722656
 31
0.0
  0
LINE
  5
3A3
330
208
100
AcDbEntity
  8
7_ALL_FEATURES
  6
Continuous
 62
     9
100
AcDbLine
 10
107.148438
 20
671.222656
 30
0.0
 11
740.648438
 21
671.222656
 31
0.0
  0
LINE
  5
3A4
330
208
100
AcDbEntity
  8
7_ALL_FEATURES
  6
Continuous
 62
     9
100
AcDbLine
 10
107.148438
 20
668.722656
 30
0.0
 11
740.648438
 21
668.722656
 31
0.0
  0
LINE
  5
3A5
330
208
100
AcDbEntity
  8
7_ALL_FEATURES
  6
Continuous
 62
     9
100
AcDbLine
 10
107.148438
 20
660.022656
 30
0.0
 11
740.648438
 21
660.022656
 31
0.0
  0
LINE
  5
3A6
330
208
100
AcDbEntity
  8
7_ALL_FEATURES
  6
Continuous
 62
     9
100
AcDbLine
 10
107.148438
 20
564.922656
 30
0.0
 11
740.648438
 21
564.922656
 31
0.0
  0
LINE
  5
3A7
330
208
100
AcDbEntity
  8
7_ALL_FEATURES
  6
Continuous
 62
     9
100
AcDbLine
 10
107.148438
 20
671.922656
 30
0.0
 11
740.648438
 21
671.922656
 31
0.0
  0
LINE
  5
3A8
330
208
100
AcDbEntity
  8
7_ALL_FEATURES
  6
Continuous
 62
     9
100
AcDbLine
 10
107.148438
 20
564.222656
 30
0.0
 11
740.648438
 21
564.222656
 31
0.0
  0
LINE
  5
3A9
330
208
100
AcDbEntity
  8
7_ALL_FEATURES
  6
Continuous
 62
     9
100
AcDbLine
 10
107.148438
 20
561.722656
 30
0.0
 11
740.648438
 21
561.722656
 31
0.0
  0
LINE
  5
3AA
330
208
100
AcDbEntity
  8
7_ALL_FEATURES
  6
Continuous
 62
     9
100
AcDbLine
 10
107.148438
 20
556.222656
 30
0.0
 11
740.648438
 21
556.222656
 31
0.0
  0
LINE
  5
3AB
330
208
100
AcDbEntity
  8
7_ALL_FEATURES
  6
Continuous
 62
     9
100
AcDbLine
 10
107.148438
 20
553.722656
 30
0.0
 11
740.648438
 21
553.722656
 31
0.0
  0
LINE
  5
3AC
330
208
100
AcDbEntity
  8
7_ALL_FEATURES
  6
Continuous
 62
     9
100
AcDbLine
 10
107.148438
 20
685.522656
 30
0.0
 11
740.648438
 21
685.522656
 31
0.0
  0
LINE
  5
3AD
330
208
100
AcDbEntity
  8
7_ALL_FEATURES
  6
Continuous
 62
     9
100
AcDbLine
 10
107.148438
 20
663.222656
 30
0.0
 11
740.648438
 21
663.222656
 31
0.0
  0
LINE
  5
3AE
330
208
100
AcDbEntity
  8
7_ALL_FEATURES
  6
Continuous
 62
     3
100
AcDbLine
 10
107.148438
 20
552.722656
 30
0.0
 11
107.148438
 21
537.222656
 31
0.0
  0
LINE
  5
3AF
330
208
100
AcDbEntity
  8
7_ALL_FEATURES
  6
Continuous
 62
     3
100
AcDbLine
 10
107.148438
 20
552.813433
 30
0.0
 11
107.148438
 21
552.722656
 31
0.0
  0
LINE
  5
3B0
330
208
100
AcDbEntity
  8
7_ALL_FEATURES
  6
Continuous
 62
     3
100
AcDbLine
 10
107.148438
 20
659.722656
 30
0.0
 11
107.148438
 21
565.222656
 31
0.0
  0
LINE
  5
3B1
330
208
100
AcDbEntity
  8
7_ALL_FEATURES
  6
Continuous
 62
     3
100
AcDbLine
 10
107.148438
 20
659.813433
 30
0.0
 11
107.148438
 21
659.722656
 31
0.0
  0
SPLINE
  5
3B2
330
208
100
AcDbEntity
  8
7_ALL_FEATURES
  6
Continuous
 62
     3
100
AcDbSpline
 70
     0
 71
     3
 72
    10
 73
     6
 74
     0
 42
0.000000001
 43
0.0000001
 40
0.0
 40
0.0
 40
0.0
 40
0.0
 40
0.2129160947
 40
0.4593558822
 40
1.0
 40
1.0
 40
1.0
 40
1.0
 10
107.295130288
 20
560.2933737486
 30
0.0
 10
107.2489787529
 20
560.2104517919
 30
0.0
 10
107.1951137731
 20
560.0083481304
 30
0.0
 10
107.1539660516
 20
559.5653857468
 30
0.0
 10
107.1533109679
 20
559.2136297723
 30
0.0
 10
107.1533109679
 20
558.97265625
 30
0.0
  0
LINE
  5
3B3
330
208
100
AcDbEntity
  8
7_ALL_FEATURES
  6
Continuous
 62
     3
100
AcDbLine
 10
107.148438
 20
684.722656
 30
0.0
 11
107.148438
 21
672.222656
 31
0.0
  0
LINE
  5
3B4
330
208
100
AcDbEntity
  8
7_ALL_FEATURES
  6
Continuous
 62
     3
100
AcDbLine
 10
107.148438
 20
684.904209
 30
0.0
 11
107.148438
 21
684.722656
 31
0.0
  0
SPLINE
  5
3B5
330
208
100
AcDbEntity
  8
7_ALL_FEATURES
  6
Continuous
 62
     3
100
AcDbSpline
 70
     0
 71
     3
 72
    10
 73
     6
 74
     0
 42
0.000000001
 43
0.0000001
 40
0.0
 40
0.0
 40
0.0
 40
0.0
 40
0.2129161852
 40
0.4593559001
 40
1.0
 40
1.0
 40
1.0
 40
1.0
 10
107.2951294952
 20
667.2933722382
 30
0.0
 10
107.248978435
 20
667.2104501078
 30
0.0
 10
107.1951135022
 20
667.0083468456
 30
0.0
 10
107.1539660196
 20
666.5653849079
 30
0.0
 10
107.1533109679
 20
666.2136294608
 30
0.0
 10
107.1533109679
 20
665.97265625
 30
0.0
  0
SPLINE
  5
3B6
330
208
100
AcDbEntity
  8
7_ALL_FEATURES
  6
Continuous
 62
     3
100
AcDbSpline
 70
     0
 71
     3
 72
    10
 73
     6
 74
     0
 42
0.000000001
 43
0.0000001
 40
0.0
 40
0.0
 40
0.0
 40
0.0
 40
0.5406440999
 40
0.7870838148
 40
1.0
 40
1.0
 40
1.0
 40
1.0
 10
107.1533109679
 20
665.97265625
 30
0.0
 10
107.1533109679
 20
665.7316830392
 30
0.0
 10
107.1539660196
 20
665.3799275921
 30
0.0
 10
107.1951135022
 20
664.9369656544
 30
0.0
 10
107.248978435
 20
664.7348623922
 30
0.0
 10
107.2951294952
 20
664.6519402618
 30
0.0
  0
SPLINE
  5
3B7
330
208
100
AcDbEntity
  8
7_ALL_FEATURES
  6
Continuous
 62
     3
100
AcDbSpline
 70
     0
 71
     3
 72
    10
 73
     6
 74
     0
 42
0.000000001
 43
0.0000001
 40
0.0
 40
0.0
 40
0.0
 40
0.0
 40
0.5406441178
 40
0.7870839053
 40
1.0
 40
1.0
 40
1.0
 40
1.0
 10
107.1533109679
 20
558.97265625
 30
0.0
 10
107.1533109679
 20
558.7316827277
 30
0.0
 10
107.1539660516
 20
558.3799267532
 30
0.0
 10
107.1951137731
 20
557.9369643696
 30
0.0
 10
107.2489787529
 20
557.7348607081
 30
0.0
 10
107.295130288
 20
557.6519387514
 30
0.0
  0
LINE
  5
3B8
330
208
100
AcDbEntity
  8
7_ALL_FEATURES
  6
Continuous
 62
     3
100
AcDbLine
 10
740.648438
 20
552.813433
 30
0.0
 11
740.648438
 21
552.722656
 31
0.0
  0
LINE
  5
3B9
330
208
100
AcDbEntity
  8
7_ALL_FEATURES
  6
Continuous
 62
     3
100
AcDbLine
 10
740.648438
 20
552.722656
 30
0.0
 11
740.648438
 21
537.222656
 31
0.0
  0
SPLINE
  5
3BA
330
208
100
AcDbEntity
  8
7_ALL_FEATURES
  6
Continuous
 62
     3
100
AcDbSpline
 70
     0
 71
     3
 72
    10
 73
     6
 74
     0
 42
0.000000001
 43
0.0000001
 40
0.0
 40
0.0
 40
0.0
 40
0.0
 40
0.2129172817
 40
0.459356123
 40
1.0
 40
1.0
 40
1.0
 40
1.0
 10
740.5017551258
 20
667.2933538869
 30
0.0
 10
740.5479004444
 20
667.2104296642
 30
0.0
 10
740.601764775
 20
667.0083312289
 30
0.0
 10
740.6429093698
 20
666.5653747199
 30
0.0
 10
740.6435640321
 20
666.2136256731
 30
0.0
 10
740.6435640321
 20
665.97265625
 30
0.0
  0
SPLINE
  5
3BB
330
208
100
AcDbEntity
  8
7_ALL_FEATURES
  6
Continuous
 62
     3
100
AcDbSpline
 70
     0
 71
     3
 72
    10
 73
     6
 74
     0
 42
0.000000001
 43
0.0000001
 40
0.0
 40
0.0
 40
0.0
 40
0.0
 40
0.2129172817
 40
0.459356123
 40
1.0
 40
1.0
 40
1.0
 40
1.0
 10
740.5017551258
 20
560.2933538869
 30
0.0
 10
740.5479004444
 20
560.2104296642
 30
0.0
 10
740.601764775
 20
560.0083312289
 30
0.0
 10
740.6429093698
 20
559.5653747199
 30
0.0
 10
740.6435640321
 20
559.2136256731
 30
0.0
 10
740.6435640321
 20
558.97265625
 30
0.0
  0
LINE
  5
3BC
330
208
100
AcDbEntity
  8
7_ALL_FEATURES
  6
Continuous
 62
     3
100
AcDbLine
 10
740.648438
 20
684.904209
 30
0.0
 11
740.648438
 21
684.722656
 31
0.0
  0
LINE
  5
3BD
330
208
100
AcDbEntity
  8
7_ALL_FEATURES
  6
Continuous
 62
     3
100
AcDbLine
 10
740.648438
 20
684.722656
 30
0.0
 11
740.648438
 21
672.222656
 31
0.0
  0
LINE
  5
3BE
330
208
100
AcDbEntity
  8
7_ALL_FEATURES
  6
Continuous
 62
     3
100
AcDbLine
 10
740.648438
 20
659.813433
 30
0.0
 11
740.648438
 21
659.722656
 31
0.0
  0
LINE
  5
3BF
330
208
100
AcDbEntity
  8
7_ALL_FEATURES
  6
Continuous
 62
     3
100
AcDbLine
 10
740.648438
 20
659.722656
 30
0.0
 11
740.648438
 21
565.222656
 31
0.0
  0
SPLINE
  5
3C0
330
208
100
AcDbEntity
  8
7_ALL_FEATURES
  6
Continuous
 62
     3
100
AcDbSpline
 70
     0
 71
     3
 72
    10
 73
     6
 74
     0
 42
0.000000001
 43
0.0000001
 40
0.0
 40
0.0
 40
0.0
 40
0.0
 40
0.540643877
 40
0.7870827183
 40
1.0
 40
1.0
 40
1.0
 40
1.0
 10
740.6435640321
 20
558.97265625
 30
0.0
 10
740.6435640321
 20
558.7316868269
 30
0.0
 10
740.6429093698
 20
558.3799377801
 30
0.0
 10
740.601764775
 20
557.9369812711
 30
0.0
 10
740.5479004444
 20
557.7348828358
 30
0.0
 10
740.5017551258
 20
557.6519586131
 30
0.0
  0
SPLINE
  5
3C1
330
208
100
AcDbEntity
  8
7_ALL_FEATURES
  6
Continuous
 62
     3
100
AcDbSpline
 70
     0
 71
     3
 72
    10
 73
     6
 74
     0
 42
0.000000001
 43
0.0000001
 40
0.0
 40
0.0
 40
0.0
 40
0.0
 40
0.540643877
 40
0.7870827183
 40
1.0
 40
1.0
 40
1.0
 40
1.0
 10
740.6435640321
 20
665.97265625
 30
0.0
 10
740.6435640321
 20
665.7316868269
 30
0.0
 10
740.6429093698
 20
665.3799377801
 30
0.0
 10
740.601764775
 20
664.9369812711
 30
0.0
 10
740.5479004444
 20
664.7348828358
 30
0.0
 10
740.5017551258
 20
664.6519586131
 30
0.0
  0
SPLINE
  5
3C2
330
208
100
AcDbEntity
  8
7_ALL_FEATURES
  6
Continuous
 62
     7
100
AcDbSpline
 70
     0
 71
     3
 72
    11
 73
     7
 74
     0
 42
0.000000001
 43
0.0000001
 40
0.0
 40
0.0
 40
0.0
 40
0.0
 40
0.2153721172
 40
0.4651339941
 40
0.7314607295
 40
1.0
 40
1.0
 40
1.0
 40
1.0
 10
947.3854781951
 20
667.47265625
 30
0.0
 10
947.5720744049
 20
667.47265625
 30
0.0
 10
947.9753230349
 20
667.4007587758
 30
0.0
 10
948.5573982397
 20
667.1353909115
 30
0.0
 10
949.0780425816
 20
666.6737820418
 30
0.0
 10
949.243913657
 20
666.2053159401
 30
0.0
 10
949.243913657
 20
665.97265625
 30
0.0
  0
SPLINE
  5
3C3
330
208
100
AcDbEntity
  8
7_ALL_FEATURES
  6
Continuous
 62
     7
100
AcDbSpline
 70
     0
 71
     3
 72
    11
 73
     7
 74
     0
 42
0.000000001
 43
0.0000001
 40
0.0
 40
0.0
 40
0.0
 40
0.0
 40
0.2153721172
 40
0.4651339941
 40
0.7314607295
 40
1.0
 40
1.0
 40
1.0
 40
1.0
 10
947.3854781951
 20
560.47265625
 30
0.0
 10
947.5720744049
 20
560.47265625
 30
0.0
 10
947.9753230349
 20
560.4007587758
 30
0.0
 10
948.5573982397
 20
560.1353909115
 30
0.0
 10
949.0780425816
 20
559.6737820418
 30
0.0
 10
949.243913657
 20
559.2053159401
 30
0.0
 10
949.243913657
 20
558.97265625
 30
0.0
  0
SPLINE
  5
3C4
330
208
100
AcDbEntity
  8
7_ALL_FEATURES
  6
Continuous
 62
     7
100
AcDbSpline
 70
     0
 71
     3
 72
    11
 73
     7
 74
     0
 42
0.000000001
 43
0.0000001
 40
0.0
 40
0.0
 40
0.0
 40
0.0
 40
0.2153721181
 40
0.4651326362
 40
0.7314564388
 40
1.0
 40
1.0
 40
1.0
 40
1.0
 10
1043.9856155549
 20
560.47265625
 30
0.0
 10
1043.7990192433
 20
560.47265625
 30
0.0
 10
1043.3957711987
 20
560.4007593546
 30
0.0
 10
1042.8137009202
 20
560.1353910316
 30
0.0
 10
1042.2930486749
 20
559.6737900022
 30
0.0
 10
1042.127180093
 20
559.2053197836
 30
0.0
 10
1042.127180093
 20
558.97265625
 30
0.0
  0
SPLINE
  5
3C5
330
208
100
AcDbEntity
  8
7_ALL_FEATURES
  6
Continuous
 62
     7
100
AcDbSpline
 70
     0
 71
     3
 72
    11
 73
     7
 74
     0
 42
0.000000001
 43
0.0000001
 40
0.0
 40
0.0
 40
0.0
 40
0.0
 40
0.2153721184
 40
0.465132741
 40
0.7314567686
 40
1.0
 40
1.0
 40
1.0
 40
1.0
 10
1043.9856155549
 20
667.47265625
 30
0.0
 10
1043.7990192508
 20
667.47265625
 30
0.0
 10
1043.3957711606
 20
667.40075931
 30
0.0
 10
1042.8137005039
 20
667.1353910215
 30
0.0
 10
1042.2930488655
 20
666.6737893904
 30
0.0
 10
1042.127180093
 20
666.2053194881
 30
0.0
 10
1042.127180093
 20
665.97265625
 30
0.0
  0
LINE
  5
3C6
330
208
100
AcDbEntity
  8
7_ALL_FEATURES
  6
Continuous
 62
     7
100
AcDbLine
 10
980.193613
 20
564.222656
 30
0.0
 11
979.193124
 21
564.222656
 31
0.0
  0
LINE
  5
3C7
330
208
100
AcDbEntity
  8
7_ALL_FEATURES
  6
Continuous
 62
     7
100
AcDbLine
 10
1011.17748
 20
564.222656
 30
0.0
 11
1012.177969
 21
564.222656
 31
0.0
  0
LINE
  5
3C8
330
208
100
AcDbEntity
  8
7_ALL_FEATURES
  6
Continuous
 62
     7
100
AcDbLine
 10
979.193124
 20
563.222656
 30
0.0
 11
980.193614
 21
563.222656
 31
0.0
  0
LINE
  5
3C9
330
208
100
AcDbEntity
  8
7_ALL_FEATURES
  6
Continuous
 62
     7
100
AcDbLine
 10
1012.17797
 20
563.222656
 30
0.0
 11
1011.17748
 21
563.222656
 31
0.0
  0
LINE
  5
3CA
330
208
100
AcDbEntity
  8
7_ALL_FEATURES
  6
Continuous
 62
     7
100
AcDbLine
 10
949.485547
 20
555.472656
 30
0.0
 11
949.485547
 21
553.722656
 31
0.0
  0
ARC
  5
3CB
330
208
100
AcDbEntity
  8
7_ALL_FEATURES
  6
Continuous
 62
     7
100
AcDbCircle
 10
948.985547
 20
553.722656
 30
0.0
 40
0.5
100
AcDbArc
 50
270.0
 51
360.0
  0
LINE
  5
3CC
330
208
100
AcDbEntity
  8
7_ALL_FEATURES
  6
Continuous
 62
     7
100
AcDbLine
 10
948.985547
 20
553.222656
 30
0.0
 11
946.985547
 21
553.222656
 31
0.0
  0
ARC
  5
3CD
330
208
100
AcDbEntity
  8
7_ALL_FEATURES
  6
Continuous
 62
     7
100
AcDbCircle
 10
946.985547
 20
552.722656
 30
0.0
 40
0.5
100
AcDbArc
 50
90.0
 51
180.0
  0
LINE
  5
3CE
330
208
100
AcDbEntity
  8
7_ALL_FEATURES
  6
Continuous
 62
     7
100
AcDbLine
 10
946.485547
 20
552.722656
 30
0.0
 11
946.485547
 21
537.222656
 31
0.0
  0
ARC
  5
3CF
330
208
100
AcDbEntity
  8
7_ALL_FEATURES
  6
Continuous
 62
     7
100
AcDbCircle
 10
948.485547
 20
537.222656
 30
0.0
 40
2.0
100
AcDbArc
 50
180.0
 51
270.0
  0
ARC
  5
3D0
330
208
100
AcDbEntity
  8
7_ALL_FEATURES
  6
Continuous
 62
     7
100
AcDbCircle
 10
1042.885547
 20
537.222656
 30
0.0
 40
2.0
100
AcDbArc
 50
270.0
 51
360.0
  0
LINE
  5
3D1
330
208
100
AcDbEntity
  8
7_ALL_FEATURES
  6
Continuous
 62
     7
100
AcDbLine
 10
1044.885547
 20
552.722656
 30
0.0
 11
1044.885547
 21
537.222656
 31
0.0
  0
ARC
  5
3D2
330
208
100
AcDbEntity
  8
7_ALL_FEATURES
  6
Continuous
 62
     7
100
AcDbCircle
 10
1044.385547
 20
552.722656
 30
0.0
 40
0.5
100
AcDbArc
 50
0.0
 51
90.0
  0
LINE
  5
3D3
330
208
100
AcDbEntity
  8
7_ALL_FEATURES
  6
Continuous
 62
     7
100
AcDbLine
 10
1042.385547
 20
553.222656
 30
0.0
 11
1044.385547
 21
553.222656
 31
0.0
  0
ARC
  5
3D4
330
208
100
AcDbEntity
  8
7_ALL_FEATURES
  6
Continuous
 62
     7
100
AcDbCircle
 10
1042.385547
 20
553.722656
 30
0.0
 40
0.5
100
AcDbArc
 50
180.0
 51
270.0
  0
LINE
  5
3D5
330
208
100
AcDbEntity
  8
7_ALL_FEATURES
  6
Continuous
 62
     7
100
AcDbLine
 10
1041.885547
 20
555.472656
 30
0.0
 11
1041.885547
 21
553.722656
 31
0.0
  0
LINE
  5
3D6
330
208
100
AcDbEntity
  8
7_ALL_FEATURES
  6
Continuous
 62
     7
100
AcDbLine
 10
1041.885547
 20
564.222656
 30
0.0
 11
1041.885547
 21
562.472656
 31
0.0
  0
ARC
  5
3D7
330
208
100
AcDbEntity
  8
7_ALL_FEATURES
  6
Continuous
 62
     7
100
AcDbCircle
 10
1042.385547
 20
564.222656
 30
0.0
 40
0.5
100
AcDbArc
 50
90.0
 51
180.0
  0
LINE
  5
3D8
330
208
100
AcDbEntity
  8
7_ALL_FEATURES
  6
Continuous
 62
     7
100
AcDbLine
 10
1044.385547
 20
564.722656
 30
0.0
 11
1042.385547
 21
564.722656
 31
0.0
  0
ARC
  5
3D9
330
208
100
AcDbEntity
  8
7_ALL_FEATURES
  6
Continuous
 62
     7
100
AcDbCircle
 10
1044.385547
 20
565.222656
 30
0.0
 40
0.5
100
AcDbArc
 50
270.0
 51
360.0
  0
LINE
  5
3DA
330
208
100
AcDbEntity
  8
7_ALL_FEATURES
  6
Continuous
 62
     7
100
AcDbLine
 10
1044.885547
 20
659.722656
 30
0.0
 11
1044.885547
 21
565.222656
 31
0.0
  0
ARC
  5
3DB
330
208
100
AcDbEntity
  8
7_ALL_FEATURES
  6
Continuous
 62
     7
100
AcDbCircle
 10
1044.385547
 20
659.722656
 30
0.0
 40
0.5
100
AcDbArc
 50
0.0
 51
90.0
  0
LINE
  5
3DC
330
208
100
AcDbEntity
  8
7_ALL_FEATURES
  6
Continuous
 62
     7
100
AcDbLine
 10
1042.385547
 20
660.222656
 30
0.0
 11
1044.385547
 21
660.222656
 31
0.0
  0
ARC
  5
3DD
330
208
100
AcDbEntity
  8
7_ALL_FEATURES
  6
Continuous
 62
     7
100
AcDbCircle
 10
1042.385547
 20
660.722656
 30
0.0
 40
0.5
100
AcDbArc
 50
180.0
 51
270.0
  0
LINE
  5
3DE
330
208
100
AcDbEntity
  8
7_ALL_FEATURES
  6
Continuous
 62
     7
100
AcDbLine
 10
1041.885547
 20
662.472656
 30
0.0
 11
1041.885547
 21
660.722656
 31
0.0
  0
LINE
  5
3DF
330
208
100
AcDbEntity
  8
7_ALL_FEATURES
  6
Continuous
 62
     7
100
AcDbLine
 10
1041.885547
 20
671.222656
 30
0.0
 11
1041.885547
 21
669.472656
 31
0.0
  0
ARC
  5
3E0
330
208
100
AcDbEntity
  8
7_ALL_FEATURES
  6
Continuous
 62
     7
100
AcDbCircle
 10
1042.385547
 20
671.222656
 30
0.0
 40
0.5
100
AcDbArc
 50
90.0
 51
180.0
  0
LINE
  5
3E1
330
208
100
AcDbEntity
  8
7_ALL_FEATURES
  6
Continuous
 62
     7
100
AcDbLine
 10
1044.385547
 20
671.722656
 30
0.0
 11
1042.385547
 21
671.722656
 31
0.0
  0
ARC
  5
3E2
330
208
100
AcDbEntity
  8
7_ALL_FEATURES
  6
Continuous
 62
     7
100
AcDbCircle
 10
1044.385547
 20
672.222656
 30
0.0
 40
0.5
100
AcDbArc
 50
270.0
 51
360.0
  0
LINE
  5
3E3
330
208
100
AcDbEntity
  8
7_ALL_FEATURES
  6
Continuous
 62
     7
100
AcDbLine
 10
1044.885547
 20
684.722656
 30
0.0
 11
1044.885547
 21
672.222656
 31
0.0
  0
ARC
  5
3E4
330
208
100
AcDbEntity
  8
7_ALL_FEATURES
  6
Continuous
 62
     7
100
AcDbCircle
 10
1043.885547
 20
684.722656
 30
0.0
 40
1.0
100
AcDbArc
 50
0.0
 51
90.0
  0
ARC
  5
3E5
330
208
100
AcDbEntity
  8
7_ALL_FEATURES
  6
Continuous
 62
     7
100
AcDbCircle
 10
947.485547
 20
684.722656
 30
0.0
 40
1.0
100
AcDbArc
 50
90.0
 51
180.0
  0
LINE
  5
3E6
330
208
100
AcDbEntity
  8
7_ALL_FEATURES
  6
Continuous
 62
     7
100
AcDbLine
 10
946.485547
 20
684.722656
 30
0.0
 11
946.485547
 21
672.222656
 31
0.0
  0
ARC
  5
3E7
330
208
100
AcDbEntity
  8
7_ALL_FEATURES
  6
Continuous
 62
     7
100
AcDbCircle
 10
946.985547
 20
672.222656
 30
0.0
 40
0.5
100
AcDbArc
 50
180.0
 51
270.0
  0
LINE
  5
3E8
330
208
100
AcDbEntity
  8
7_ALL_FEATURES
  6
Continuous
 62
     7
100
AcDbLine
 10
946.485547
 20
556.522656
 30
0.0
 11
946.485547
 21
558.972656
 31
0.0
  0
LINE
  5
3E9
330
208
100
AcDbEntity
  8
7_ALL_FEATURES
  6
Continuous
 62
     7
100
AcDbLine
 10
946.485547
 20
558.972656
 30
0.0
 11
946.485547
 21
561.422656
 31
0.0
  0
LINE
  5
3EA
330
208
100
AcDbEntity
  8
7_ALL_FEATURES
  6
Continuous
 62
     7
100
AcDbLine
 10
949.485547
 20
562.472656
 30
0.0
 11
947.985547
 21
562.472656
 31
0.0
  0
LINE
  5
3EB
330
208
100
AcDbEntity
  8
7_ALL_FEATURES
  6
Continuous
 62
     7
100
AcDbLine
 10
947.985547
 20
562.472656
 30
0.0
 11
946.485547
 21
562.472656
 31
0.0
  0
LINE
  5
3EC
330
208
100
AcDbEntity
  8
7_ALL_FEATURES
  6
Continuous
 62
     7
100
AcDbLine
 10
946.485547
 20
555.472656
 30
0.0
 11
947.105747
 21
555.472656
 31
0.0
  0
LINE
  5
3ED
330
208
100
AcDbEntity
  8
7_ALL_FEATURES
  6
Continuous
 62
     7
100
AcDbLine
 10
947.105747
 20
555.472656
 30
0.0
 11
947.985547
 21
555.472656
 31
0.0
  0
LINE
  5
3EE
330
208
100
AcDbEntity
  8
7_ALL_FEATURES
  6
Continuous
 62
     7
100
AcDbLine
 10
947.985547
 20
555.472656
 30
0.0
 11
949.485547
 21
555.472656
 31
0.0
  0
SPLINE
  5
3EF
330
208
100
AcDbEntity
  8
7_ALL_FEATURES
  6
Continuous
 62
     7
100
AcDbSpline
 70
     0
 71
     3
 72
    11
 73
     7
 74
     0
 42
0.000000001
 43
0.0000001
 40
0.0
 40
0.0
 40
0.0
 40
0.0
 40
0.2685392705
 40
0.5348660059
 40
0.7846278828
 40
1.0
 40
1.0
 40
1.0
 40
1.0
 10
949.243913657
 20
558.97265625
 30
0.0
 10
949.243913657
 20
558.7399965599
 30
0.0
 10
949.0780425816
 20
558.2715304582
 30
0.0
 10
948.5573982397
 20
557.8099215885
 30
0.0
 10
947.9753230349
 20
557.5445537242
 30
0.0
 10
947.5720744049
 20
557.47265625
 30
0.0
 10
947.3854781951
 20
557.47265625
 30
0.0
  0
LINE
  5
3F0
330
208
100
AcDbEntity
  8
7_ALL_FEATURES
  6
Continuous
 62
     7
100
AcDbLine
 10
946.985547
 20
671.722656
 30
0.0
 11
948.985547
 21
671.722656
 31
0.0
  0
ARC
  5
3F1
330
208
100
AcDbEntity
  8
7_ALL_FEATURES
  6
Continuous
 62
     7
100
AcDbCircle
 10
948.985547
 20
671.222656
 30
0.0
 40
0.5
100
AcDbArc
 50
0.0
 51
90.0
  0
LINE
  5
3F2
330
208
100
AcDbEntity
  8
7_ALL_FEATURES
  6
Continuous
 62
     7
100
AcDbLine
 10
949.485547
 20
671.222656
 30
0.0
 11
949.485547
 21
669.472656
 31
0.0
  0
LINE
  5
3F3
330
208
100
AcDbEntity
  8
7_ALL_FEATURES
  6
Continuous
 62
     7
100
AcDbLine
 10
949.485547
 20
662.472656
 30
0.0
 11
949.485547
 21
660.722656
 31
0.0
  0
ARC
  5
3F4
330
208
100
AcDbEntity
  8
7_ALL_FEATURES
  6
Continuous
 62
     7
100
AcDbCircle
 10
948.985547
 20
660.722656
 30
0.0
 40
0.5
100
AcDbArc
 50
270.0
 51
360.0
  0
LINE
  5
3F5
330
208
100
AcDbEntity
  8
7_ALL_FEATURES
  6
Continuous
 62
     7
100
AcDbLine
 10
948.985547
 20
660.222656
 30
0.0
 11
946.985547
 21
660.222656
 31
0.0
  0
ARC
  5
3F6
330
208
100
AcDbEntity
  8
7_ALL_FEATURES
  6
Continuous
 62
     7
100
AcDbCircle
 10
946.985547
 20
659.722656
 30
0.0
 40
0.5
100
AcDbArc
 50
90.0
 51
180.0
  0
LINE
  5
3F7
330
208
100
AcDbEntity
  8
7_ALL_FEATURES
  6
Continuous
 62
     7
100
AcDbLine
 10
946.485547
 20
659.722656
 30
0.0
 11
946.485547
 21
565.222656
 31
0.0
  0
ARC
  5
3F8
330
208
100
AcDbEntity
  8
7_ALL_FEATURES
  6
Continuous
 62
     7
100
AcDbCircle
 10
946.985547
 20
565.222656
 30
0.0
 40
0.5
100
AcDbArc
 50
180.0
 51
270.0
  0
LINE
  5
3F9
330
208
100
AcDbEntity
  8
7_ALL_FEATURES
  6
Continuous
 62
     7
100
AcDbLine
 10
946.985547
 20
564.722656
 30
0.0
 11
948.985547
 21
564.722656
 31
0.0
  0
ARC
  5
3FA
330
208
100
AcDbEntity
  8
7_ALL_FEATURES
  6
Continuous
 62
     7
100
AcDbCircle
 10
948.985547
 20
564.222656
 30
0.0
 40
0.5
100
AcDbArc
 50
0.0
 51
90.0
  0
LINE
  5
3FB
330
208
100
AcDbEntity
  8
7_ALL_FEATURES
  6
Continuous
 62
     7
100
AcDbLine
 10
949.485547
 20
564.222656
 30
0.0
 11
949.485547
 21
562.472656
 31
0.0
  0
LINE
  5
3FC
330
208
100
AcDbEntity
  8
7_ALL_FEATURES
  6
Continuous
 62
     7
100
AcDbLine
 10
948.485547
 20
535.222656
 30
0.0
 11
1042.885547
 21
535.222656
 31
0.0
  0
LINE
  5
3FD
330
208
100
AcDbEntity
  8
7_ALL_FEATURES
  6
Continuous
 62
     7
100
AcDbLine
 10
946.485547
 20
663.522656
 30
0.0
 11
946.485547
 21
665.972656
 31
0.0
  0
LINE
  5
3FE
330
208
100
AcDbEntity
  8
7_ALL_FEATURES
  6
Continuous
 62
     7
100
AcDbLine
 10
946.485547
 20
665.972656
 30
0.0
 11
946.485547
 21
668.422656
 31
0.0
  0
LINE
  5
3FF
330
208
100
AcDbEntity
  8
7_ALL_FEATURES
  6
Continuous
 62
     7
100
AcDbLine
 10
949.485547
 20
669.472656
 30
0.0
 11
947.985547
 21
669.472656
 31
0.0
  0
LINE
  5
400
330
208
100
AcDbEntity
  8
7_ALL_FEATURES
  6
Continuous
 62
     7
100
AcDbLine
 10
947.985547
 20
669.472656
 30
0.0
 11
946.485547
 21
669.472656
 31
0.0
  0
LINE
  5
401
330
208
100
AcDbEntity
  8
7_ALL_FEATURES
  6
Continuous
 62
     7
100
AcDbLine
 10
946.485547
 20
662.472656
 30
0.0
 11
947.105747
 21
662.472656
 31
0.0
  0
LINE
  5
402
330
208
100
AcDbEntity
  8
7_ALL_FEATURES
  6
Continuous
 62
     7
100
AcDbLine
 10
947.105747
 20
662.472656
 30
0.0
 11
947.985547
 21
662.472656
 31
0.0
  0
LINE
  5
403
330
208
100
AcDbEntity
  8
7_ALL_FEATURES
  6
Continuous
 62
     7
100
AcDbLine
 10
947.985547
 20
662.472656
 30
0.0
 11
949.485547
 21
662.472656
 31
0.0
  0
SPLINE
  5
404
330
208
100
AcDbEntity
  8
7_ALL_FEATURES
  6
Continuous
 62
     7
100
AcDbSpline
 70
     0
 71
     3
 72
    11
 73
     7
 74
     0
 42
0.000000001
 43
0.0000001
 40
0.0
 40
0.0
 40
0.0
 40
0.0
 40
0.2685392705
 40
0.5348660059
 40
0.7846278828
 40
1.0
 40
1.0
 40
1.0
 40
1.0
 10
949.243913657
 20
665.97265625
 30
0.0
 10
949.243913657
 20
665.7399965599
 30
0.0
 10
949.0780425816
 20
665.2715304582
 30
0.0
 10
948.5573982397
 20
664.8099215885
 30
0.0
 10
947.9753230349
 20
664.5445537242
 30
0.0
 10
947.5720744049
 20
664.47265625
 30
0.0
 10
947.3854781951
 20
664.47265625
 30
0.0
  0
LINE
  5
405
330
208
100
AcDbEntity
  8
7_ALL_FEATURES
  6
Continuous
 62
     7
100
AcDbLine
 10
1043.885547
 20
685.722656
 30
0.0
 11
947.485547
 21
685.722656
 31
0.0
  0
ARC
  5
406
330
208
100
AcDbEntity
  8
7_ALL_FEATURES
  6
Continuous
 62
     7
100
AcDbCircle
 10
995.685547
 20
563.722656
 30
0.0
 40
16.5
100
AcDbArc
 50
1.736502
 51
178.263498
  0
ARC
  5
407
330
208
100
AcDbEntity
  8
7_ALL_FEATURES
  6
Continuous
 62
     7
100
AcDbCircle
 10
995.685547
 20
563.722656
 30
0.0
 40
15.5
100
AcDbArc
 50
1.848572
 51
178.151428
  0
ARC
  5
408
330
208
100
AcDbEntity
  8
7_ALL_FEATURES
  6
Continuous
 62
     7
100
AcDbCircle
 10
995.685547
 20
563.722656
 30
0.0
 40
15.4999996154
100
AcDbArc
 50
181.848572
 51
358.151428
  0
ARC
  5
409
330
208
100
AcDbEntity
  8
7_ALL_FEATURES
  6
Continuous
 62
     7
100
AcDbCircle
 10
995.685547
 20
563.722656
 30
0.0
 40
16.5000004973
100
AcDbArc
 50
181.736502
 51
358.263498
  0
SPLINE
  5
40A
330
208
100
AcDbEntity
  8
7_ALL_FEATURES
  6
Continuous
 62
     7
100
AcDbSpline
 70
     0
 71
     3
 72
    11
 73
     7
 74
     0
 42
0.000000001
 43
0.0000001
 40
0.0
 40
0.0
 40
0.0
 40
0.0
 40
0.2685432314
 40
0.534867259
 40
0.7846278816
 40
1.0
 40
1.0
 40
1.0
 40
1.0
 10
1042.127180093
 20
665.97265625
 30
0.0
 10
1042.127180093
 20
665.7399930119
 30
0.0
 10
1042.2930488655
 20
665.2715231096
 30
0.0
 10
1042.8137005039
 20
664.8099214785
 30
0.0
 10
1043.3957711606
 20
664.54455319
 30
0.0
 10
1043.7990192508
 20
664.47265625
 30
0.0
 10
1043.9856155549
 20
664.47265625
 30
0.0
  0
LINE
  5
40B
330
208
100
AcDbEntity
  8
7_ALL_FEATURES
  6
Continuous
 62
     7
100
AcDbLine
 10
1041.885547
 20
669.472656
 30
0.0
 11
1043.385547
 21
669.472656
 31
0.0
  0
LINE
  5
40C
330
208
100
AcDbEntity
  8
7_ALL_FEATURES
  6
Continuous
 62
     7
100
AcDbLine
 10
1043.385547
 20
669.472656
 30
0.0
 11
1044.885547
 21
669.472656
 31
0.0
  0
LINE
  5
40D
330
208
100
AcDbEntity
  8
7_ALL_FEATURES
  6
Continuous
 62
     7
100
AcDbLine
 10
1044.885547
 20
662.472656
 30
0.0
 11
1044.265346
 21
662.472656
 31
0.0
  0
LINE
  5
40E
330
208
100
AcDbEntity
  8
7_ALL_FEATURES
  6
Continuous
 62
     7
100
AcDbLine
 10
1044.265346
 20
662.472656
 30
0.0
 11
1043.385547
 21
662.472656
 31
0.0
  0
LINE
  5
40F
330
208
100
AcDbEntity
  8
7_ALL_FEATURES
  6
Continuous
 62
     7
100
AcDbLine
 10
1043.385547
 20
662.472656
 30
0.0
 11
1041.885547
 21
662.472656
 31
0.0
  0
LINE
  5
410
330
208
100
AcDbEntity
  8
7_ALL_FEATURES
  6
Continuous
 62
     7
100
AcDbLine
 10
1044.885547
 20
556.522656
 30
0.0
 11
1044.885547
 21
558.972656
 31
0.0
  0
LINE
  5
411
330
208
100
AcDbEntity
  8
7_ALL_FEATURES
  6
Continuous
 62
     7
100
AcDbLine
 10
1044.885547
 20
558.972656
 30
0.0
 11
1044.885547
 21
561.422656
 31
0.0
  0
LINE
  5
412
330
208
100
AcDbEntity
  8
7_ALL_FEATURES
  6
Continuous
 62
     7
100
AcDbLine
 10
1044.885547
 20
555.472656
 30
0.0
 11
1044.265346
 21
555.472656
 31
0.0
  0
LINE
  5
413
330
208
100
AcDbEntity
  8
7_ALL_FEATURES
  6
Continuous
 62
     7
100
AcDbLine
 10
1044.265346
 20
555.472656
 30
0.0
 11
1043.385547
 21
555.472656
 31
0.0
  0
LINE
  5
414
330
208
100
AcDbEntity
  8
7_ALL_FEATURES
  6
Continuous
 62
     7
100
AcDbLine
 10
1043.385547
 20
555.472656
 30
0.0
 11
1041.885547
 21
555.472656
 31
0.0
  0
LINE
  5
415
330
208
100
AcDbEntity
  8
7_ALL_FEATURES
  6
Continuous
 62
     7
100
AcDbLine
 10
1041.885547
 20
562.472656
 30
0.0
 11
1043.385547
 21
562.472656
 31
0.0
  0
LINE
  5
416
330
208
100
AcDbEntity
  8
7_ALL_FEATURES
  6
Continuous
 62
     7
100
AcDbLine
 10
1043.385547
 20
562.472656
 30
0.0
 11
1044.885547
 21
562.472656
 31
0.0
  0
SPLINE
  5
417
330
208
100
AcDbEntity
  8
7_ALL_FEATURES
  6
Continuous
 62
     7
100
AcDbSpline
 70
     0
 71
     3
 72
    11
 73
     7
 74
     0
 42
0.000000001
 43
0.0000001
 40
0.0
 40
0.0
 40
0.0
 40
0.0
 40
0.2685435612
 40
0.5348673638
 40
0.7846278819
 40
1.0
 40
1.0
 40
1.0
 40
1.0
 10
1042.127180093
 20
558.97265625
 30
0.0
 10
1042.127180093
 20
558.7399927164
 30
0.0
 10
1042.2930486749
 20
558.2715224978
 30
0.0
 10
1042.8137009202
 20
557.8099214684
 30
0.0
 10
1043.3957711987
 20
557.5445531454
 30
0.0
 10
1043.7990192433
 20
557.47265625
 30
0.0
 10
1043.9856155549
 20
557.47265625
 30
0.0
  0
LINE
  5
418
330
208
100
AcDbEntity
  8
7_ALL_FEATURES
  6
Continuous
 62
     7
100
AcDbLine
 10
1044.885547
 20
663.522656
 30
0.0
 11
1044.885547
 21
665.972656
 31
0.0
  0
LINE
  5
419
330
208
100
AcDbEntity
  8
7_ALL_FEATURES
  6
Continuous
 62
     7
100
AcDbLine
 10
1044.885547
 20
665.972656
 30
0.0
 11
1044.885547
 21
668.422656
 31
0.0
  0
SPLINE
  5
41A
330
208
100
AcDbEntity
  8
7_ALL_FEATURES
  6
Continuous
 62
     7
100
AcDbSpline
 70
     0
 71
     3
 72
    13
 73
     9
 74
     0
 42
0.000000001
 43
0.0000001
 40
0.0
 40
0.0
 40
0.0
 40
0.0
 40
0.3311712888
 40
0.4657163661
 40
0.5788816889
 40
0.6790436692
 40
0.7771437174
 40
1.0
 40
1.0
 40
1.0
 40
1.0
 10
946.5007052681
 20
665.97265625
 30
0.0
 10
946.5007052681
 20
666.1943049469
 30
0.0
 10
946.5049165629
 20
666.5070646169
 30
0.0
 10
946.5676944208
 20
666.8905124853
 30
0.0
 10
946.6486080994
 20
667.1111733417
 30
0.0
 10
946.7752722457
 20
667.281321555
 30
0.0
 10
947.0132071482
 20
667.441049722
 30
0.0
 10
947.2363233429
 20
667.47265625
 30
0.0
 10
947.3854781951
 20
667.47265625
 30
0.0
  0
LINE
  5
41B
330
208
100
AcDbEntity
  8
7_ALL_FEATURES
  6
Continuous
 62
     9
100
AcDbLine
 10
1041.885547
 20
662.472656
 30
0.0
 11
1041.885547
 21
669.472656
 31
0.0
  0
LINE
  5
41C
330
208
100
AcDbEntity
  8
7_ALL_FEATURES
  6
Continuous
 62
     9
100
AcDbLine
 10
949.485547
 20
555.472656
 30
0.0
 11
949.485547
 21
562.472656
 31
0.0
  0
SPLINE
  5
41D
330
208
100
AcDbEntity
  8
7_ALL_FEATURES
  6
Continuous
 62
     7
100
AcDbSpline
 70
     0
 71
     3
 72
    13
 73
     9
 74
     0
 42
0.000000001
 43
0.0000001
 40
0.0
 40
0.0
 40
0.0
 40
0.0
 40
0.2228562826
 40
0.3209563308
 40
0.4211183111
 40
0.5342836339
 40
0.6688287112
 40
1.0
 40
1.0
 40
1.0
 40
1.0
 10
947.3854781951
 20
557.47265625
 30
0.0
 10
947.2363233429
 20
557.47265625
 30
0.0
 10
947.0132071482
 20
557.504262778
 30
0.0
 10
946.7752722457
 20
557.663990945
 30
0.0
 10
946.6486080994
 20
557.8341391583
 30
0.0
 10
946.5676944208
 20
558.0548000147
 30
0.0
 10
946.5049165629
 20
558.4382478831
 30
0.0
 10
946.5007052681
 20
558.7510075531
 30
0.0
 10
946.5007052681
 20
558.97265625
 30
0.0
  0
SPLINE
  5
41E
330
208
100
AcDbEntity
  8
7_ALL_FEATURES
  6
Continuous
 62
     7
100
AcDbSpline
 70
     0
 71
     3
 72
    13
 73
     9
 74
     0
 42
0.000000001
 43
0.0000001
 40
0.0
 40
0.0
 40
0.0
 40
0.0
 40
0.3311763935
 40
0.4657181194
 40
0.5788823569
 40
0.6790437941
 40
0.7771436236
 40
1.0
 40
1.0
 40
1.0
 40
1.0
 10
1044.8703884819
 20
665.97265625
 30
0.0
 10
1044.8703884819
 20
666.1943083698
 30
0.0
 10
1044.8661765445
 20
666.5070691644
 30
0.0
 10
1044.8033986905
 20
666.8905175994
 30
0.0
 10
1044.7224844629
 20
667.1111746705
 30
0.0
 10
1044.595821127
 20
667.2813217778
 30
0.0
 10
1044.357886604
 20
667.4410497709
 30
0.0
 10
1044.1347704742
 20
667.47265625
 30
0.0
 10
1043.9856155549
 20
667.47265625
 30
0.0
  0
LINE
  5
41F
330
208
100
AcDbEntity
  8
7_ALL_FEATURES
  6
Continuous
 62
     9
100
AcDbLine
 10
1043.385547
 20
669.572656
 30
0.0
 11
1044.685547
 21
669.572656
 31
0.0
  0
LINE
  5
420
330
208
100
AcDbEntity
  8
7_ALL_FEATURES
  6
Continuous
 62
     9
100
AcDbLine
 10
1044.685547
 20
669.572656
 30
0.0
 11
1044.885547
 21
669.572656
 31
0.0
  0
LINE
  5
421
330
208
100
AcDbEntity
  8
7_ALL_FEATURES
  6
Continuous
 62
     9
100
AcDbLine
 10
1041.885547
 20
555.472656
 30
0.0
 11
1041.885547
 21
562.472656
 31
0.0
  0
SPLINE
  5
422
330
208
100
AcDbEntity
  8
7_ALL_FEATURES
  6
Continuous
 62
     7
100
AcDbSpline
 70
     0
 71
     3
 72
    13
 73
     9
 74
     0
 42
0.000000001
 43
0.0000001
 40
0.0
 40
0.0
 40
0.0
 40
0.0
 40
0.2228562826
 40
0.3209563308
 40
0.4211183111
 40
0.5342836339
 40
0.6688287112
 40
1.0
 40
1.0
 40
1.0
 40
1.0
 10
947.3854781951
 20
664.47265625
 30
0.0
 10
947.2363233429
 20
664.47265625
 30
0.0
 10
947.0132071482
 20
664.504262778
 30
0.0
 10
946.7752722457
 20
664.663990945
 30
0.0
 10
946.6486080994
 20
664.8341391583
 30
0.0
 10
946.5676944208
 20
665.0548000147
 30
0.0
 10
946.5049165629
 20
665.4382478831
 30
0.0
 10
946.5007052681
 20
665.7510075531
 30
0.0
 10
946.5007052681
 20
665.97265625
 30
0.0
  0
LINE
  5
423
330
208
100
AcDbEntity
  8
7_ALL_FEATURES
  6
Continuous
 62
     9
100
AcDbLine
 10
949.485547
 20
662.472656
 30
0.0
 11
949.485547
 21
669.472656
 31
0.0
  0
LINE
  5
424
330
208
100
AcDbEntity
  8
7_ALL_FEATURES
  6
Continuous
 62
     9
100
AcDbLine
 10
947.985547
 20
555.372656
 30
0.0
 11
946.685547
 21
555.372656
 31
0.0
  0
LINE
  5
425
330
208
100
AcDbEntity
  8
7_ALL_FEATURES
  6
Continuous
 62
     9
100
AcDbLine
 10
946.685547
 20
555.372656
 30
0.0
 11
946.485547
 21
555.372656
 31
0.0
  0
LINE
  5
426
330
208
100
AcDbEntity
  8
7_ALL_FEATURES
  6
Continuous
 62
     9
100
AcDbLine
 10
947.985547
 20
562.572656
 30
0.0
 11
946.685547
 21
562.572656
 31
0.0
  0
LINE
  5
427
330
208
100
AcDbEntity
  8
7_ALL_FEATURES
  6
Continuous
 62
     9
100
AcDbLine
 10
946.685547
 20
562.572656
 30
0.0
 11
946.485547
 21
562.572656
 31
0.0
  0
SPLINE
  5
428
330
208
100
AcDbEntity
  8
7_ALL_FEATURES
  6
Continuous
 62
     7
100
AcDbSpline
 70
     0
 71
     3
 72
    13
 73
     9
 74
     0
 42
0.000000001
 43
0.0000001
 40
0.0
 40
0.0
 40
0.0
 40
0.0
 40
0.2228563764
 40
0.3209562059
 40
0.4211176431
 40
0.5342818806
 40
0.6688236065
 40
1.0
 40
1.0
 40
1.0
 40
1.0
 10
1043.9856155549
 20
664.47265625
 30
0.0
 10
1044.1347704742
 20
664.47265625
 30
0.0
 10
1044.357886604
 20
664.5042627291
 30
0.0
 10
1044.595821127
 20
664.6639907222
 30
0.0
 10
1044.7224844629
 20
664.8341378295
 30
0.0
 10
1044.8033986905
 20
665.0547949006
 30
0.0
 10
1044.8661765445
 20
665.4382433356
 30
0.0
 10
1044.8703884819
 20
665.7510041302
 30
0.0
 10
1044.8703884819
 20
665.97265625
 30
0.0
  0
SPLINE
  5
429
330
208
100
AcDbEntity
  8
7_ALL_FEATURES
  6
Continuous
 62
     7
100
AcDbSpline
 70
     0
 71
     3
 72
    13
 73
     9
 74
     0
 42
0.000000001
 43
0.0000001
 40
0.0
 40
0.0
 40
0.0
 40
0.0
 40
0.3311768184
 40
0.4657182659
 40
0.5788824131
 40
0.679043805
 40
0.7771436162
 40
1.0
 40
1.0
 40
1.0
 40
1.0
 10
1044.8703884819
 20
558.97265625
 30
0.0
 10
1044.8703884819
 20
559.1943086548
 30
0.0
 10
1044.8661764916
 20
559.5070695434
 30
0.0
 10
1044.8033986369
 20
559.8905180257
 30
0.0
 10
1044.7224843636
 20
560.1111747821
 30
0.0
 10
1044.5958210949
 20
560.281321797
 30
0.0
 10
1044.3578866035
 20
560.441049775
 30
0.0
 10
1044.1347704795
 20
560.47265625
 30
0.0
 10
1043.9856155549
 20
560.47265625
 30
0.0
  0
LINE
  5
42A
330
208
100
AcDbEntity
  8
7_ALL_FEATURES
  6
Continuous
 62
     9
100
AcDbLine
 10
1043.385547
 20
562.572656
 30
0.0
 11
1044.685547
 21
562.572656
 31
0.0
  0
LINE
  5
42B
330
208
100
AcDbEntity
  8
7_ALL_FEATURES
  6
Continuous
 62
     9
100
AcDbLine
 10
1044.685547
 20
562.572656
 30
0.0
 11
1044.885547
 21
562.572656
 31
0.0
  0
LINE
  5
42C
330
208
100
AcDbEntity
  8
7_ALL_FEATURES
  6
Continuous
 62
     9
100
AcDbLine
 10
947.985547
 20
662.372656
 30
0.0
 11
946.685547
 21
662.372656
 31
0.0
  0
LINE
  5
42D
330
208
100
AcDbEntity
  8
7_ALL_FEATURES
  6
Continuous
 62
     9
100
AcDbLine
 10
946.685547
 20
662.372656
 30
0.0
 11
946.485547
 21
662.372656
 31
0.0
  0
LINE
  5
42E
330
208
100
AcDbEntity
  8
7_ALL_FEATURES
  6
Continuous
 62
     9
100
AcDbLine
 10
1043.385547
 20
662.372656
 30
0.0
 11
1044.685547
 21
662.372656
 31
0.0
  0
LINE
  5
42F
330
208
100
AcDbEntity
  8
7_ALL_FEATURES
  6
Continuous
 62
     9
100
AcDbLine
 10
1044.685547
 20
662.372656
 30
0.0
 11
1044.885547
 21
662.372656
 31
0.0
  0
SPLINE
  5
430
330
208
100
AcDbEntity
  8
7_ALL_FEATURES
  6
Continuous
 62
     7
100
AcDbSpline
 70
     0
 71
     3
 72
    13
 73
     9
 74
     0
 42
0.000000001
 43
0.0000001
 40
0.0
 40
0.0
 40
0.0
 40
0.0
 40
0.2228563838
 40
0.320956195
 40
0.4211175869
 40
0.5342817341
 40
0.6688231816
 40
1.0
 40
1.0
 40
1.0
 40
1.0
 10
1043.9856155549
 20
557.47265625
 30
0.0
 10
1044.1347704795
 20
557.47265625
 30
0.0
 10
1044.3578866035
 20
557.504262725
 30
0.0
 10
1044.5958210949
 20
557.663990703
 30
0.0
 10
1044.7224843636
 20
557.8341377179
 30
0.0
 10
1044.8033986369
 20
558.0547944743
 30
0.0
 10
1044.8661764916
 20
558.4382429566
 30
0.0
 10
1044.8703884819
 20
558.7510038452
 30
0.0
 10
1044.8703884819
 20
558.97265625
 30
0.0
  0
LINE
  5
431
330
208
100
AcDbEntity
  8
7_ALL_FEATURES
  6
Continuous
 62
     9
100
AcDbLine
 10
1043.385547
 20
555.372656
 30
0.0
 11
1044.685547
 21
555.372656
 31
0.0
  0
LINE
  5
432
330
208
100
AcDbEntity
  8
7_ALL_FEATURES
  6
Continuous
 62
     9
100
AcDbLine
 10
1044.685547
 20
555.372656
 30
0.0
 11
1044.885547
 21
555.372656
 31
0.0
  0
LINE
  5
433
330
208
100
AcDbEntity
  8
7_ALL_FEATURES
  6
Continuous
 62
     9
100
AcDbLine
 10
947.985547
 20
669.572656
 30
0.0
 11
946.685547
 21
669.572656
 31
0.0
  0
LINE
  5
434
330
208
100
AcDbEntity
  8
7_ALL_FEATURES
  6
Continuous
 62
     9
100
AcDbLine
 10
946.685547
 20
669.572656
 30
0.0
 11
946.485547
 21
669.572656
 31
0.0
  0
LINE
  5
435
330
208
100
AcDbEntity
  8
7_ALL_FEATURES
  6
Continuous
 62
     9
100
AcDbLine
 10
947.993126
 20
665.972656
 30
0.0
 11
946.500705
 21
665.972656
 31
0.0
  0
LINE
  5
436
330
208
100
AcDbEntity
  8
7_ALL_FEATURES
  6
Continuous
 62
     9
100
AcDbLine
 10
947.993126
 20
558.972656
 30
0.0
 11
946.500705
 21
558.972656
 31
0.0
  0
SPLINE
  5
437
330
208
100
AcDbEntity
  8
7_ALL_FEATURES
  6
Continuous
 62
     7
100
AcDbSpline
 70
     0
 71
     3
 72
    13
 73
     9
 74
     0
 42
0.000000001
 43
0.0000001
 40
0.0
 40
0.0
 40
0.0
 40
0.0
 40
0.3311712888
 40
0.4657163661
 40
0.5788816889
 40
0.6790436692
 40
0.7771437174
 40
1.0
 40
1.0
 40
1.0
 40
1.0
 10
946.5007052681
 20
558.97265625
 30
0.0
 10
946.5007052681
 20
559.1943049469
 30
0.0
 10
946.5049165629
 20
559.5070646169
 30
0.0
 10
946.5676944208
 20
559.8905124853
 30
0.0
 10
946.6486080994
 20
560.1111733417
 30
0.0
 10
946.7752722457
 20
560.281321555
 30
0.0
 10
947.0132071482
 20
560.441049722
 30
0.0
 10
947.2363233429
 20
560.47265625
 30
0.0
 10
947.3854781951
 20
560.47265625
 30
0.0
  0
LINE
  5
438
330
208
100
AcDbEntity
  8
7_ALL_FEATURES
  6
Continuous
 62
     9
100
AcDbLine
 10
1043.377968
 20
558.972656
 30
0.0
 11
1044.870388
 21
558.972656
 31
0.0
  0
LINE
  5
439
330
208
100
AcDbEntity
  8
7_ALL_FEATURES
  6
Continuous
 62
     9
100
AcDbLine
 10
1043.377968
 20
665.972656
 30
0.0
 11
1044.870388
 21
665.972656
 31
0.0
  0
LINE
  5
43A
330
208
100
AcDbEntity
  8
7_ALL_FEATURES
  6
Continuous
 62
     7
100
AcDbLine
 10
947.485547
 20
685.722656
 30
0.0
 11
946.685547
 21
685.722656
 31
0.0
  0
ARC
  5
43B
330
208
100
AcDbEntity
  8
7_ALL_FEATURES
  6
Continuous
 62
     7
100
AcDbCircle
 10
946.685547
 20
685.522656
 30
0.0
 40
0.2
100
AcDbArc
 50
90.0
 51
180.0
  0
LINE
  5
43C
330
208
100
AcDbEntity
  8
7_ALL_FEATURES
  6
Continuous
 62
     7
100
AcDbLine
 10
946.485547
 20
685.522656
 30
0.0
 11
946.485547
 21
684.722656
 31
0.0
  0
LINE
  5
43D
330
208
100
AcDbEntity
  8
7_ALL_FEATURES
  6
Continuous
 62
     7
100
AcDbLine
 10
946.485547
 20
672.222656
 30
0.0
 11
946.485547
 21
671.922656
 31
0.0
  0
ARC
  5
43E
330
208
100
AcDbEntity
  8
7_ALL_FEATURES
  6
Continuous
 62
     7
100
AcDbCircle
 10
946.285547
 20
671.922656
 30
0.0
 40
0.2
100
AcDbArc
 50
270.0
 51
360.0
  0
LINE
  5
43F
330
208
100
AcDbEntity
  8
7_ALL_FEATURES
  6
Continuous
 62
     7
100
AcDbLine
 10
946.285547
 20
671.722656
 30
0.0
 11
945.485547
 21
671.722656
 31
0.0
  0
ARC
  5
440
330
208
100
AcDbEntity
  8
7_ALL_FEATURES
  6
Continuous
 62
     7
100
AcDbCircle
 10
945.485547
 20
671.222656
 30
0.0
 40
0.5
100
AcDbArc
 50
90.0
 51
180.0
  0
LINE
  5
441
330
208
100
AcDbEntity
  8
7_ALL_FEATURES
  6
Continuous
 62
     7
100
AcDbLine
 10
944.985547
 20
671.222656
 30
0.0
 11
944.985547
 21
668.722656
 31
0.0
  0
ARC
  5
442
330
208
100
AcDbEntity
  8
7_ALL_FEATURES
  6
Continuous
 62
     7
100
AcDbCircle
 10
945.485547
 20
668.722656
 30
0.0
 40
0.5
100
AcDbArc
 50
180.0
 51
270.0
  0
LINE
  5
443
330
208
100
AcDbEntity
  8
7_ALL_FEATURES
  6
Continuous
 62
     7
100
AcDbLine
 10
945.485547
 20
668.222656
 30
0.0
 11
946.285547
 21
668.222656
 31
0.0
  0
ARC
  5
444
330
208
100
AcDbEntity
  8
7_ALL_FEATURES
  6
Continuous
 62
     7
100
AcDbCircle
 10
946.285547
 20
668.422656
 30
0.0
 40
0.2
100
AcDbArc
 50
270.0
 51
360.0
  0
LINE
  5
445
330
208
100
AcDbEntity
  8
7_ALL_FEATURES
  6
Continuous
 62
     7
100
AcDbLine
 10
946.485547
 20
668.422656
 30
0.0
 11
946.485547
 21
669.522656
 31
0.0
  0
ARC
  5
446
330
208
100
AcDbEntity
  8
7_ALL_FEATURES
  6
Continuous
 62
     7
100
AcDbCircle
 10
946.685547
 20
669.522656
 30
0.0
 40
0.2
100
AcDbArc
 50
90.0
 51
180.0
  0
LINE
  5
447
330
208
100
AcDbEntity
  8
7_ALL_FEATURES
  6
Continuous
 62
     7
100
AcDbLine
 10
946.685547
 20
669.722656
 30
0.0
 11
949.485547
 21
669.722656
 31
0.0
  0
LINE
  5
448
330
208
100
AcDbEntity
  8
7_ALL_FEATURES
  6
Continuous
 62
     7
100
AcDbLine
 10
949.485547
 20
662.222656
 30
0.0
 11
946.685547
 21
662.222656
 31
0.0
  0
ARC
  5
449
330
208
100
AcDbEntity
  8
7_ALL_FEATURES
  6
Continuous
 62
     7
100
AcDbCircle
 10
946.685547
 20
662.422656
 30
0.0
 40
0.2
100
AcDbArc
 50
180.0
 51
270.0
  0
LINE
  5
44A
330
208
100
AcDbEntity
  8
7_ALL_FEATURES
  6
Continuous
 62
     7
100
AcDbLine
 10
946.485547
 20
662.422656
 30
0.0
 11
946.485547
 21
663.522656
 31
0.0
  0
ARC
  5
44B
330
208
100
AcDbEntity
  8
7_ALL_FEATURES
  6
Continuous
 62
     7
100
AcDbCircle
 10
946.285547
 20
663.522656
 30
0.0
 40
0.2
100
AcDbArc
 50
0.0
 51
90.0
  0
LINE
  5
44C
330
208
100
AcDbEntity
  8
7_ALL_FEATURES
  6
Continuous
 62
     7
100
AcDbLine
 10
946.285547
 20
663.722656
 30
0.0
 11
945.485547
 21
663.722656
 31
0.0
  0
ARC
  5
44D
330
208
100
AcDbEntity
  8
7_ALL_FEATURES
  6
Continuous
 62
     7
100
AcDbCircle
 10
945.485547
 20
663.222656
 30
0.0
 40
0.5
100
AcDbArc
 50
90.0
 51
180.0
  0
LINE
  5
44E
330
208
100
AcDbEntity
  8
7_ALL_FEATURES
  6
Continuous
 62
     7
100
AcDbLine
 10
944.985547
 20
663.222656
 30
0.0
 11
944.985547
 21
660.722656
 31
0.0
  0
ARC
  5
44F
330
208
100
AcDbEntity
  8
7_ALL_FEATURES
  6
Continuous
 62
     7
100
AcDbCircle
 10
945.485547
 20
660.722656
 30
0.0
 40
0.5
100
AcDbArc
 50
180.0
 51
270.0
  0
LINE
  5
450
330
208
100
AcDbEntity
  8
7_ALL_FEATURES
  6
Continuous
 62
     7
100
AcDbLine
 10
945.485547
 20
660.222656
 30
0.0
 11
946.285547
 21
660.222656
 31
0.0
  0
ARC
  5
451
330
208
100
AcDbEntity
  8
7_ALL_FEATURES
  6
Continuous
 62
     7
100
AcDbCircle
 10
946.285547
 20
660.022656
 30
0.0
 40
0.2
100
AcDbArc
 50
0.0
 51
90.0
  0
LINE
  5
452
330
208
100
AcDbEntity
  8
7_ALL_FEATURES
  6
Continuous
 62
     7
100
AcDbLine
 10
946.485547
 20
660.022656
 30
0.0
 11
946.485547
 21
659.722656
 31
0.0
  0
LINE
  5
453
330
208
100
AcDbEntity
  8
7_ALL_FEATURES
  6
Continuous
 62
     7
100
AcDbLine
 10
946.485547
 20
565.222656
 30
0.0
 11
946.485547
 21
564.922656
 31
0.0
  0
ARC
  5
454
330
208
100
AcDbEntity
  8
7_ALL_FEATURES
  6
Continuous
 62
     7
100
AcDbCircle
 10
946.285547
 20
564.922656
 30
0.0
 40
0.2
100
AcDbArc
 50
270.0
 51
360.0
  0
LINE
  5
455
330
208
100
AcDbEntity
  8
7_ALL_FEATURES
  6
Continuous
 62
     7
100
AcDbLine
 10
946.285547
 20
564.722656
 30
0.0
 11
945.485547
 21
564.722656
 31
0.0
  0
ARC
  5
456
330
208
100
AcDbEntity
  8
7_ALL_FEATURES
  6
Continuous
 62
     7
100
AcDbCircle
 10
945.485547
 20
564.222656
 30
0.0
 40
0.5
100
AcDbArc
 50
90.0
 51
180.0
  0
LINE
  5
457
330
208
100
AcDbEntity
  8
7_ALL_FEATURES
  6
Continuous
 62
     7
100
AcDbLine
 10
944.985547
 20
564.222656
 30
0.0
 11
944.985547
 21
561.722656
 31
0.0
  0
ARC
  5
458
330
208
100
AcDbEntity
  8
7_ALL_FEATURES
  6
Continuous
 62
     7
100
AcDbCircle
 10
945.485547
 20
561.722656
 30
0.0
 40
0.5
100
AcDbArc
 50
180.0
 51
270.0
  0
LINE
  5
459
330
208
100
AcDbEntity
  8
7_ALL_FEATURES
  6
Continuous
 62
     7
100
AcDbLine
 10
945.485547
 20
561.222656
 30
0.0
 11
946.285547
 21
561.222656
 31
0.0
  0
ARC
  5
45A
330
208
100
AcDbEntity
  8
7_ALL_FEATURES
  6
Continuous
 62
     7
100
AcDbCircle
 10
946.285547
 20
561.422656
 30
0.0
 40
0.2
100
AcDbArc
 50
270.0
 51
360.0
  0
LINE
  5
45B
330
208
100
AcDbEntity
  8
7_ALL_FEATURES
  6
Continuous
 62
     7
100
AcDbLine
 10
946.485547
 20
561.422656
 30
0.0
 11
946.485547
 21
562.522656
 31
0.0
  0
ARC
  5
45C
330
208
100
AcDbEntity
  8
7_ALL_FEATURES
  6
Continuous
 62
     7
100
AcDbCircle
 10
946.685547
 20
562.522656
 30
0.0
 40
0.2
100
AcDbArc
 50
90.0
 51
180.0
  0
LINE
  5
45D
330
208
100
AcDbEntity
  8
7_ALL_FEATURES
  6
Continuous
 62
     7
100
AcDbLine
 10
946.685547
 20
562.722656
 30
0.0
 11
949.485547
 21
562.722656
 31
0.0
  0
LINE
  5
45E
330
208
100
AcDbEntity
  8
7_ALL_FEATURES
  6
Continuous
 62
     7
100
AcDbLine
 10
949.485547
 20
555.222656
 30
0.0
 11
946.685547
 21
555.222656
 31
0.0
  0
ARC
  5
45F
330
208
100
AcDbEntity
  8
7_ALL_FEATURES
  6
Continuous
 62
     7
100
AcDbCircle
 10
946.685547
 20
555.422656
 30
0.0
 40
0.2
100
AcDbArc
 50
180.0
 51
270.0
  0
LINE
  5
460
330
208
100
AcDbEntity
  8
7_ALL_FEATURES
  6
Continuous
 62
     7
100
AcDbLine
 10
946.485547
 20
555.422656
 30
0.0
 11
946.485547
 21
556.522656
 31
0.0
  0
ARC
  5
461
330
208
100
AcDbEntity
  8
7_ALL_FEATURES
  6
Continuous
 62
     7
100
AcDbCircle
 10
946.285547
 20
556.522656
 30
0.0
 40
0.2
100
AcDbArc
 50
0.0
 51
90.0
  0
LINE
  5
462
330
208
100
AcDbEntity
  8
7_ALL_FEATURES
  6
Continuous
 62
     7
100
AcDbLine
 10
946.285547
 20
556.722656
 30
0.0
 11
945.485547
 21
556.722656
 31
0.0
  0
ARC
  5
463
330
208
100
AcDbEntity
  8
7_ALL_FEATURES
  6
Continuous
 62
     7
100
AcDbCircle
 10
945.485547
 20
556.222656
 30
0.0
 40
0.5
100
AcDbArc
 50
90.0
 51
180.0
  0
LINE
  5
464
330
208
100
AcDbEntity
  8
7_ALL_FEATURES
  6
Continuous
 62
     7
100
AcDbLine
 10
944.985547
 20
556.222656
 30
0.0
 11
944.985547
 21
553.722656
 31
0.0
  0
ARC
  5
465
330
208
100
AcDbEntity
  8
7_ALL_FEATURES
  6
Continuous
 62
     7
100
AcDbCircle
 10
945.485547
 20
553.722656
 30
0.0
 40
0.5
100
AcDbArc
 50
180.0
 51
270.0
  0
LINE
  5
466
330
208
100
AcDbEntity
  8
7_ALL_FEATURES
  6
Continuous
 62
     7
100
AcDbLine
 10
945.485547
 20
553.222656
 30
0.0
 11
946.285547
 21
553.222656
 31
0.0
  0
ARC
  5
467
330
208
100
AcDbEntity
  8
7_ALL_FEATURES
  6
Continuous
 62
     7
100
AcDbCircle
 10
946.285547
 20
553.022656
 30
0.0
 40
0.2
100
AcDbArc
 50
0.0
 51
90.0
  0
LINE
  5
468
330
208
100
AcDbEntity
  8
7_ALL_FEATURES
  6
Continuous
 62
     7
100
AcDbLine
 10
946.485547
 20
553.022656
 30
0.0
 11
946.485547
 21
552.722656
 31
0.0
  0
LINE
  5
469
330
208
100
AcDbEntity
  8
7_ALL_FEATURES
  6
Continuous
 62
     7
100
AcDbLine
 10
946.485547
 20
537.222656
 30
0.0
 11
946.485547
 21
536.222656
 31
0.0
  0
ARC
  5
46A
330
208
100
AcDbEntity
  8
7_ALL_FEATURES
  6
Continuous
 62
     7
100
AcDbCircle
 10
947.485547
 20
536.222656
 30
0.0
 40
1.0
100
AcDbArc
 50
180.0
 51
270.0
  0
LINE
  5
46B
330
208
100
AcDbEntity
  8
7_ALL_FEATURES
  6
Continuous
 62
     7
100
AcDbLine
 10
947.485547
 20
535.222656
 30
0.0
 11
948.485547
 21
535.222656
 31
0.0
  0
LINE
  5
46C
330
208
100
AcDbEntity
  8
7_ALL_FEATURES
  6
Continuous
 62
     7
100
AcDbLine
 10
1043.885547
 20
535.222656
 30
0.0
 11
1042.885547
 21
535.222656
 31
0.0
  0
ARC
  5
46D
330
208
100
AcDbEntity
  8
7_ALL_FEATURES
  6
Continuous
 62
     7
100
AcDbCircle
 10
1043.885547
 20
536.222656
 30
0.0
 40
1.0
100
AcDbArc
 50
270.0
 51
360.0
  0
LINE
  5
46E
330
208
100
AcDbEntity
  8
7_ALL_FEATURES
  6
Continuous
 62
     7
100
AcDbLine
 10
1044.885547
 20
553.022656
 30
0.0
 11
1044.885547
 21
552.722656
 31
0.0
  0
LINE
  5
46F
330
208
100
AcDbEntity
  8
7_ALL_FEATURES
  6
Continuous
 62
     7
100
AcDbLine
 10
1044.885547
 20
537.222656
 30
0.0
 11
1044.885547
 21
536.222656
 31
0.0
  0
ARC
  5
470
330
208
100
AcDbEntity
  8
7_ALL_FEATURES
  6
Continuous
 62
     7
100
AcDbCircle
 10
1045.085547
 20
553.022656
 30
0.0
 40
0.2
100
AcDbArc
 50
90.0
 51
180.0
  0
LINE
  5
471
330
208
100
AcDbEntity
  8
7_ALL_FEATURES
  6
Continuous
 62
     7
100
AcDbLine
 10
1045.885547
 20
553.222656
 30
0.0
 11
1045.085547
 21
553.222656
 31
0.0
  0
ARC
  5
472
330
208
100
AcDbEntity
  8
7_ALL_FEATURES
  6
Continuous
 62
     7
100
AcDbCircle
 10
1045.885547
 20
553.722656
 30
0.0
 40
0.5
100
AcDbArc
 50
270.0
 51
360.0
  0
LINE
  5
473
330
208
100
AcDbEntity
  8
7_ALL_FEATURES
  6
Continuous
 62
     7
100
AcDbLine
 10
1046.385547
 20
556.222656
 30
0.0
 11
1046.385547
 21
553.722656
 31
0.0
  0
ARC
  5
474
330
208
100
AcDbEntity
  8
7_ALL_FEATURES
  6
Continuous
 62
     7
100
AcDbCircle
 10
1045.885547
 20
556.222656
 30
0.0
 40
0.5
100
AcDbArc
 50
0.0
 51
90.0
  0
LINE
  5
475
330
208
100
AcDbEntity
  8
7_ALL_FEATURES
  6
Continuous
 62
     7
100
AcDbLine
 10
1045.085547
 20
556.722656
 30
0.0
 11
1045.885547
 21
556.722656
 31
0.0
  0
ARC
  5
476
330
208
100
AcDbEntity
  8
7_ALL_FEATURES
  6
Continuous
 62
     7
100
AcDbCircle
 10
1045.085547
 20
556.522656
 30
0.0
 40
0.2
100
AcDbArc
 50
90.0
 51
180.0
  0
LINE
  5
477
330
208
100
AcDbEntity
  8
7_ALL_FEATURES
  6
Continuous
 62
     7
100
AcDbLine
 10
1044.885547
 20
555.422656
 30
0.0
 11
1044.885547
 21
556.522656
 31
0.0
  0
ARC
  5
478
330
208
100
AcDbEntity
  8
7_ALL_FEATURES
  6
Continuous
 62
     7
100
AcDbCircle
 10
1044.685547
 20
555.422656
 30
0.0
 40
0.2
100
AcDbArc
 50
270.0
 51
360.0
  0
LINE
  5
479
330
208
100
AcDbEntity
  8
7_ALL_FEATURES
  6
Continuous
 62
     7
100
AcDbLine
 10
1041.885547
 20
555.222656
 30
0.0
 11
1044.685547
 21
555.222656
 31
0.0
  0
LINE
  5
47A
330
208
100
AcDbEntity
  8
7_ALL_FEATURES
  6
Continuous
 62
     7
100
AcDbLine
 10
1044.685547
 20
562.722656
 30
0.0
 11
1041.885547
 21
562.722656
 31
0.0
  0
ARC
  5
47B
330
208
100
AcDbEntity
  8
7_ALL_FEATURES
  6
Continuous
 62
     7
100
AcDbCircle
 10
1044.685547
 20
562.522656
 30
0.0
 40
0.2
100
AcDbArc
 50
0.0
 51
90.0
  0
LINE
  5
47C
330
208
100
AcDbEntity
  8
7_ALL_FEATURES
  6
Continuous
 62
     7
100
AcDbLine
 10
1044.885547
 20
561.422656
 30
0.0
 11
1044.885547
 21
562.522656
 31
0.0
  0
ARC
  5
47D
330
208
100
AcDbEntity
  8
7_ALL_FEATURES
  6
Continuous
 62
     7
100
AcDbCircle
 10
1045.085547
 20
561.422656
 30
0.0
 40
0.2
100
AcDbArc
 50
180.0
 51
270.0
  0
LINE
  5
47E
330
208
100
AcDbEntity
  8
7_ALL_FEATURES
  6
Continuous
 62
     7
100
AcDbLine
 10
1045.885547
 20
561.222656
 30
0.0
 11
1045.085547
 21
561.222656
 31
0.0
  0
ARC
  5
47F
330
208
100
AcDbEntity
  8
7_ALL_FEATURES
  6
Continuous
 62
     7
100
AcDbCircle
 10
1045.885547
 20
561.722656
 30
0.0
 40
0.5
100
AcDbArc
 50
270.0
 51
360.0
  0
LINE
  5
480
330
208
100
AcDbEntity
  8
7_ALL_FEATURES
  6
Continuous
 62
     7
100
AcDbLine
 10
1046.385547
 20
564.222656
 30
0.0
 11
1046.385547
 21
561.722656
 31
0.0
  0
ARC
  5
481
330
208
100
AcDbEntity
  8
7_ALL_FEATURES
  6
Continuous
 62
     7
100
AcDbCircle
 10
1045.885547
 20
564.222656
 30
0.0
 40
0.5
100
AcDbArc
 50
0.0
 51
90.0
  0
LINE
  5
482
330
208
100
AcDbEntity
  8
7_ALL_FEATURES
  6
Continuous
 62
     7
100
AcDbLine
 10
1045.085547
 20
564.722656
 30
0.0
 11
1045.885547
 21
564.722656
 31
0.0
  0
ARC
  5
483
330
208
100
AcDbEntity
  8
7_ALL_FEATURES
  6
Continuous
 62
     7
100
AcDbCircle
 10
1045.085547
 20
564.922656
 30
0.0
 40
0.2
100
AcDbArc
 50
180.0
 51
270.0
  0
LINE
  5
484
330
208
100
AcDbEntity
  8
7_ALL_FEATURES
  6
Continuous
 62
     7
100
AcDbLine
 10
1044.885547
 20
660.022656
 30
0.0
 11
1044.885547
 21
659.722656
 31
0.0
  0
LINE
  5
485
330
208
100
AcDbEntity
  8
7_ALL_FEATURES
  6
Continuous
 62
     7
100
AcDbLine
 10
1044.885547
 20
565.222656
 30
0.0
 11
1044.885547
 21
564.922656
 31
0.0
  0
ARC
  5
486
330
208
100
AcDbEntity
  8
7_ALL_FEATURES
  6
Continuous
 62
     7
100
AcDbCircle
 10
1045.085547
 20
660.022656
 30
0.0
 40
0.2
100
AcDbArc
 50
90.0
 51
180.0
  0
LINE
  5
487
330
208
100
AcDbEntity
  8
7_ALL_FEATURES
  6
Continuous
 62
     7
100
AcDbLine
 10
1045.885547
 20
660.222656
 30
0.0
 11
1045.085547
 21
660.222656
 31
0.0
  0
ARC
  5
488
330
208
100
AcDbEntity
  8
7_ALL_FEATURES
  6
Continuous
 62
     7
100
AcDbCircle
 10
1045.885547
 20
660.722656
 30
0.0
 40
0.5
100
AcDbArc
 50
270.0
 51
360.0
  0
LINE
  5
489
330
208
100
AcDbEntity
  8
7_ALL_FEATURES
  6
Continuous
 62
     7
100
AcDbLine
 10
1046.385547
 20
663.222656
 30
0.0
 11
1046.385547
 21
660.722656
 31
0.0
  0
ARC
  5
48A
330
208
100
AcDbEntity
  8
7_ALL_FEATURES
  6
Continuous
 62
     7
100
AcDbCircle
 10
1045.885547
 20
663.222656
 30
0.0
 40
0.5
100
AcDbArc
 50
0.0
 51
90.0
  0
LINE
  5
48B
330
208
100
AcDbEntity
  8
7_ALL_FEATURES
  6
Continuous
 62
     7
100
AcDbLine
 10
1045.085547
 20
663.722656
 30
0.0
 11
1045.885547
 21
663.722656
 31
0.0
  0
ARC
  5
48C
330
208
100
AcDbEntity
  8
7_ALL_FEATURES
  6
Continuous
 62
     7
100
AcDbCircle
 10
1045.085547
 20
663.522656
 30
0.0
 40
0.2
100
AcDbArc
 50
90.0
 51
180.0
  0
LINE
  5
48D
330
208
100
AcDbEntity
  8
7_ALL_FEATURES
  6
Continuous
 62
     7
100
AcDbLine
 10
1044.885547
 20
662.422656
 30
0.0
 11
1044.885547
 21
663.522656
 31
0.0
  0
ARC
  5
48E
330
208
100
AcDbEntity
  8
7_ALL_FEATURES
  6
Continuous
 62
     7
100
AcDbCircle
 10
1044.685547
 20
662.422656
 30
0.0
 40
0.2
100
AcDbArc
 50
270.0
 51
360.0
  0
LINE
  5
48F
330
208
100
AcDbEntity
  8
7_ALL_FEATURES
  6
Continuous
 62
     7
100
AcDbLine
 10
1041.885547
 20
662.222656
 30
0.0
 11
1044.685547
 21
662.222656
 31
0.0
  0
LINE
  5
490
330
208
100
AcDbEntity
  8
7_ALL_FEATURES
  6
Continuous
 62
     7
100
AcDbLine
 10
1044.685547
 20
669.722656
 30
0.0
 11
1041.885547
 21
669.722656
 31
0.0
  0
ARC
  5
491
330
208
100
AcDbEntity
  8
7_ALL_FEATURES
  6
Continuous
 62
     7
100
AcDbCircle
 10
1044.685547
 20
669.522656
 30
0.0
 40
0.2
100
AcDbArc
 50
0.0
 51
90.0
  0
LINE
  5
492
330
208
100
AcDbEntity
  8
7_ALL_FEATURES
  6
Continuous
 62
     7
100
AcDbLine
 10
1044.885547
 20
668.422656
 30
0.0
 11
1044.885547
 21
669.522656
 31
0.0
  0
ARC
  5
493
330
208
100
AcDbEntity
  8
7_ALL_FEATURES
  6
Continuous
 62
     7
100
AcDbCircle
 10
1045.085547
 20
668.422656
 30
0.0
 40
0.2
100
AcDbArc
 50
180.0
 51
270.0
  0
LINE
  5
494
330
208
100
AcDbEntity
  8
7_ALL_FEATURES
  6
Continuous
 62
     7
100
AcDbLine
 10
1045.885547
 20
668.222656
 30
0.0
 11
1045.085547
 21
668.222656
 31
0.0
  0
ARC
  5
495
330
208
100
AcDbEntity
  8
7_ALL_FEATURES
  6
Continuous
 62
     7
100
AcDbCircle
 10
1045.885547
 20
668.722656
 30
0.0
 40
0.5
100
AcDbArc
 50
270.0
 51
360.0
  0
LINE
  5
496
330
208
100
AcDbEntity
  8
7_ALL_FEATURES
  6
Continuous
 62
     7
100
AcDbLine
 10
1046.385547
 20
671.222656
 30
0.0
 11
1046.385547
 21
668.722656
 31
0.0
  0
ARC
  5
497
330
208
100
AcDbEntity
  8
7_ALL_FEATURES
  6
Continuous
 62
     7
100
AcDbCircle
 10
1045.885547
 20
671.222656
 30
0.0
 40
0.5
100
AcDbArc
 50
0.0
 51
90.0
  0
LINE
  5
498
330
208
100
AcDbEntity
  8
7_ALL_FEATURES
  6
Continuous
 62
     7
100
AcDbLine
 10
1045.085547
 20
671.722656
 30
0.0
 11
1045.885547
 21
671.722656
 31
0.0
  0
ARC
  5
499
330
208
100
AcDbEntity
  8
7_ALL_FEATURES
  6
Continuous
 62
     7
100
AcDbCircle
 10
1045.085547
 20
671.922656
 30
0.0
 40
0.2
100
AcDbArc
 50
180.0
 51
270.0
  0
LINE
  5
49A
330
208
100
AcDbEntity
  8
7_ALL_FEATURES
  6
Continuous
 62
     7
100
AcDbLine
 10
1044.885547
 20
685.522656
 30
0.0
 11
1044.885547
 21
684.722656
 31
0.0
  0
LINE
  5
49B
330
208
100
AcDbEntity
  8
7_ALL_FEATURES
  6
Continuous
 62
     7
100
AcDbLine
 10
1044.885547
 20
672.222656
 30
0.0
 11
1044.885547
 21
671.922656
 31
0.0
  0
ARC
  5
49C
330
208
100
AcDbEntity
  8
7_ALL_FEATURES
  6
Continuous
 62
     7
100
AcDbCircle
 10
1044.685547
 20
685.522656
 30
0.0
 40
0.2
100
AcDbArc
 50
0.0
 51
90.0
  0
LINE
  5
49D
330
208
100
AcDbEntity
  8
7_ALL_FEATURES
  6
Continuous
 62
     7
100
AcDbLine
 10
1043.885547
 20
685.722656
 30
0.0
 11
1044.685547
 21
685.722656
 31
0.0
  0
SPLINE
  5
49E
330
208
100
AcDbEntity
  8
7_ALL_FEATURES
  6
Continuous
 62
     3
100
AcDbSpline
 70
     0
 71
     3
 72
    10
 73
     6
 74
     0
 42
0.000000001
 43
0.0000001
 40
0.0
 40
0.0
 40
0.0
 40
0.0
 40
0.2121982815
 40
0.4583966525
 40
1.0
 40
1.0
 40
1.0
 40
1.0
 10
948.1545255272
 20
664.6368242229
 30
0.0
 10
948.1035133194
 20
664.7180868557
 30
0.0
 10
948.0424569466
 20
664.92172401
 30
0.0
 10
947.9948231782
 20
665.3703967781
 30
0.0
 10
947.9931260715
 20
665.7277658952
 30
0.0
 10
947.9931260715
 20
665.97265625
 30
0.0
  0
SPLINE
  5
49F
330
208
100
AcDbEntity
  8
7_ALL_FEATURES
  6
Continuous
 62
     3
100
AcDbSpline
 70
     0
 71
     3
 72
    10
 73
     6
 74
     0
 42
0.000000001
 43
0.0000001
 40
0.0
 40
0.0
 40
0.0
 40
0.0
 40
0.2121982815
 40
0.4583966525
 40
1.0
 40
1.0
 40
1.0
 40
1.0
 10
948.1545255272
 20
557.6368242229
 30
0.0
 10
948.1035133194
 20
557.7180868557
 30
0.0
 10
948.0424569466
 20
557.92172401
 30
0.0
 10
947.9948231782
 20
558.3703967781
 30
0.0
 10
947.9931260715
 20
558.7277658952
 30
0.0
 10
947.9931260715
 20
558.97265625
 30
0.0
  0
SPLINE
  5
4A0
330
208
100
AcDbEntity
  8
7_ALL_FEATURES
  6
Continuous
 62
     3
100
AcDbSpline
 70
     0
 71
     3
 72
    10
 73
     6
 74
     0
 42
0.000000001
 43
0.0000001
 40
0.0
 40
0.0
 40
0.0
 40
0.0
 40
0.2121986795
 40
0.4583981475
 40
1.0
 40
1.0
 40
1.0
 40
1.0
 10
1043.216566098
 20
557.6368206832
 30
0.0
 10
1043.2675816499
 20
557.7180817603
 30
0.0
 10
1043.3286352923
 20
557.9217225875
 30
0.0
 10
1043.3762699477
 20
558.3703953646
 30
0.0
 10
1043.3779676785
 20
558.7277658554
 30
0.0
 10
1043.3779676785
 20
558.97265625
 30
0.0
  0
SPLINE
  5
4A1
330
208
100
AcDbEntity
  8
7_ALL_FEATURES
  6
Continuous
 62
     3
100
AcDbSpline
 70
     0
 71
     3
 72
    10
 73
     6
 74
     0
 42
0.000000001
 43
0.0000001
 40
0.0
 40
0.0
 40
0.0
 40
0.0
 40
0.2121986482
 40
0.458398032
 40
1.0
 40
1.0
 40
1.0
 40
1.0
 10
1043.2165662536
 20
664.6368209406
 30
0.0
 10
1043.2675815516
 20
664.7180821363
 30
0.0
 10
1043.3286354062
 20
664.9217226837
 30
0.0
 10
1043.3762699954
 20
665.3703954651
 30
0.0
 10
1043.3779676785
 20
665.7277658551
 30
0.0
 10
1043.3779676785
 20
665.97265625
 30
0.0
  0
LINE
  5
4A2
330
208
100
AcDbEntity
  8
7_ALL_FEATURES
  6
Continuous
 62
     3
100
AcDbLine
 10
947.985547
 20
562.572656
 30
0.0
 11
947.985547
 21
562.722656
 31
0.0
  0
LINE
  5
4A3
330
208
100
AcDbEntity
  8
7_ALL_FEATURES
  6
Continuous
 62
     3
100
AcDbLine
 10
947.985547
 20
555.222656
 30
0.0
 11
947.985547
 21
555.372656
 31
0.0
  0
LINE
  5
4A4
330
208
100
AcDbEntity
  8
7_ALL_FEATURES
  6
Continuous
 62
     3
100
AcDbLine
 10
947.985547
 20
555.372656
 30
0.0
 11
947.985547
 21
555.472656
 31
0.0
  0
SPLINE
  5
4A5
330
208
100
AcDbEntity
  8
7_ALL_FEATURES
  6
Continuous
 62
     3
100
AcDbSpline
 70
     0
 71
     3
 72
    10
 73
     6
 74
     0
 42
0.000000001
 43
0.0000001
 40
0.0
 40
0.0
 40
0.0
 40
0.0
 40
0.5416033475
 40
0.7878017185
 40
1.0
 40
1.0
 40
1.0
 40
1.0
 10
947.9931260715
 20
558.97265625
 30
0.0
 10
947.9931260715
 20
559.2175466048
 30
0.0
 10
947.9948231782
 20
559.5749157219
 30
0.0
 10
948.0424569466
 20
560.02358849
 30
0.0
 10
948.1035133194
 20
560.2272256443
 30
0.0
 10
948.1545255272
 20
560.3084882771
 30
0.0
  0
LINE
  5
4A6
330
208
100
AcDbEntity
  8
7_ALL_FEATURES
  6
Continuous
 62
     3
100
AcDbLine
 10
947.985547
 20
669.572656
 30
0.0
 11
947.985547
 21
669.722656
 31
0.0
  0
LINE
  5
4A7
330
208
100
AcDbEntity
  8
7_ALL_FEATURES
  6
Continuous
 62
     3
100
AcDbLine
 10
947.985547
 20
662.222656
 30
0.0
 11
947.985547
 21
662.372656
 31
0.0
  0
LINE
  5
4A8
330
208
100
AcDbEntity
  8
7_ALL_FEATURES
  6
Continuous
 62
     3
100
AcDbLine
 10
947.985547
 20
662.372656
 30
0.0
 11
947.985547
 21
662.472656
 31
0.0
  0
SPLINE
  5
4A9
330
208
100
AcDbEntity
  8
7_ALL_FEATURES
  6
Continuous
 62
     3
100
AcDbSpline
 70
     0
 71
     3
 72
    10
 73
     6
 74
     0
 42
0.000000001
 43
0.0000001
 40
0.0
 40
0.0
 40
0.0
 40
0.0
 40
0.5416033475
 40
0.7878017185
 40
1.0
 40
1.0
 40
1.0
 40
1.0
 10
947.9931260715
 20
665.97265625
 30
0.0
 10
947.9931260715
 20
666.2175466048
 30
0.0
 10
947.9948231782
 20
666.5749157219
 30
0.0
 10
948.0424569466
 20
667.02358849
 30
0.0
 10
948.1035133194
 20
667.2272256443
 30
0.0
 10
948.1545255272
 20
667.3084882771
 30
0.0
  0
LINE
  5
4AA
330
208
100
AcDbEntity
  8
7_ALL_FEATURES
  6
Continuous
 62
     3
100
AcDbLine
 10
1043.385547
 20
555.372656
 30
0.0
 11
1043.385547
 21
555.472656
 31
0.0
  0
LINE
  5
4AB
330
208
100
AcDbEntity
  8
7_ALL_FEATURES
  6
Continuous
 62
     3
100
AcDbLine
 10
1043.385547
 20
555.222656
 30
0.0
 11
1043.385547
 21
555.372656
 31
0.0
  0
SPLINE
  5
4AC
330
208
100
AcDbEntity
  8
7_ALL_FEATURES
  6
Continuous
 62
     3
100
AcDbSpline
 70
     0
 71
     3
 72
    10
 73
     6
 74
     0
 42
0.000000001
 43
0.0000001
 40
0.0
 40
0.0
 40
0.0
 40
0.0
 40
0.541601968
 40
0.7878013518
 40
1.0
 40
1.0
 40
1.0
 40
1.0
 10
1043.3779676785
 20
665.97265625
 30
0.0
 10
1043.3779676785
 20
666.2175466449
 30
0.0
 10
1043.3762699954
 20
666.5749170349
 30
0.0
 10
1043.3286354062
 20
667.0235898163
 30
0.0
 10
1043.2675815516
 20
667.2272303637
 30
0.0
 10
1043.2165662536
 20
667.3084915594
 30
0.0
  0
LINE
  5
4AD
330
208
100
AcDbEntity
  8
7_ALL_FEATURES
  6
Continuous
 62
     3
100
AcDbLine
 10
1043.385547
 20
562.572656
 30
0.0
 11
1043.385547
 21
562.722656
 31
0.0
  0
LINE
  5
4AE
330
208
100
AcDbEntity
  8
7_ALL_FEATURES
  6
Continuous
 62
     3
100
AcDbLine
 10
1043.385547
 20
669.572656
 30
0.0
 11
1043.385547
 21
669.722656
 31
0.0
  0
SPLINE
  5
4AF
330
208
100
AcDbEntity
  8
7_ALL_FEATURES
  6
Continuous
 62
     3
100
AcDbSpline
 70
     0
 71
     3
 72
    10
 73
     6
 74
     0
 42
0.000000001
 43
0.0000001
 40
0.0
 40
0.0
 40
0.0
 40
0.0
 40
0.5416018525
 40
0.7878013205
 40
1.0
 40
1.0
 40
1.0
 40
1.0
 10
1043.3779676785
 20
558.97265625
 30
0.0
 10
1043.3779676785
 20
559.2175466446
 30
0.0
 10
1043.3762699477
 20
559.5749171354
 30
0.0
 10
1043.3286352923
 20
560.0235899125
 30
0.0
 10
1043.2675816499
 20
560.2272307397
 30
0.0
 10
1043.216566098
 20
560.3084918168
 30
0.0
  0
LINE
  5
4B0
330
208
100
AcDbEntity
  8
7_ALL_FEATURES
  6
Continuous
 62
     3
100
AcDbLine
 10
1043.385547
 20
662.222656
 30
0.0
 11
1043.385547
 21
662.372656
 31
0.0
  0
LINE
  5
4B1
330
208
100
AcDbEntity
  8
7_ALL_FEATURES
  6
Continuous
 62
     3
100
AcDbLine
 10
1043.385547
 20
662.372656
 30
0.0
 11
1043.385547
 21
662.472656
 31
0.0
  0
LINE
  5
4B2
330
208
100
AcDbEntity
  8
7_ALL_FEATURES
  6
Continuous
 62
     7
100
AcDbLine
 10
742.148438
 20
362.328906
 30
0.0
 11
742.148438
 21
363.328906
 31
0.0
  0
LINE
  5
4B3
330
208
100
AcDbEntity
  8
7_ALL_FEATURES
  6
Continuous
 62
     7
100
AcDbLine
 10
742.148438
 20
265.928906
 30
0.0
 11
742.148438
 21
264.928906
 31
0.0
  0
LINE
  5
4B4
330
208
100
AcDbEntity
  8
7_ALL_FEATURES
  6
Continuous
 62
     7
100
AcDbLine
 10
740.648438
 20
264.928906
 30
0.0
 11
742.148438
 21
264.928906
 31
0.0
  0
LINE
  5
4B5
330
208
100
AcDbEntity
  8
7_ALL_FEATURES
  6
Continuous
 62
     7
100
AcDbLine
 10
742.148438
 20
362.328906
 30
0.0
 11
742.148438
 21
265.928906
 31
0.0
  0
LINE
  5
4B6
330
208
100
AcDbEntity
  8
7_ALL_FEATURES
  6
Continuous
 62
     7
100
AcDbLine
 10
740.648438
 20
363.328906
 30
0.0
 11
742.148438
 21
363.328906
 31
0.0
  0
LINE
  5
4B7
330
208
100
AcDbEntity
  8
7_ALL_FEATURES
  6
Continuous
 62
     9
100
AcDbLine
 10
740.648438
 20
265.928906
 30
0.0
 11
742.148438
 21
265.928906
 31
0.0
  0
LINE
  5
4B8
330
208
100
AcDbEntity
  8
7_ALL_FEATURES
  6
Continuous
 62
     9
100
AcDbLine
 10
740.648438
 20
362.328906
 30
0.0
 11
742.148438
 21
362.328906
 31
0.0
  0
LINE
  5
4B9
330
208
100
AcDbEntity
  8
7_ALL_FEATURES
  6
Continuous
 62
     7
100
AcDbLine
 10
105.648438
 20
265.928906
 30
0.0
 11
105.648438
 21
264.928906
 31
0.0
  0
LINE
  5
4BA
330
208
100
AcDbEntity
  8
7_ALL_FEATURES
  6
Continuous
 62
     7
100
AcDbLine
 10
105.648438
 20
362.328906
 30
0.0
 11
105.648438
 21
363.328906
 31
0.0
  0
LINE
  5
4BB
330
208
100
AcDbEntity
  8
7_ALL_FEATURES
  6
Continuous
 62
     7
100
AcDbLine
 10
107.148438
 20
363.328906
 30
0.0
 11
105.648438
 21
363.328906
 31
0.0
  0
LINE
  5
4BC
330
208
100
AcDbEntity
  8
7_ALL_FEATURES
  6
Continuous
 62
     7
100
AcDbLine
 10
105.648438
 20
265.928906
 30
0.0
 11
105.648438
 21
362.328906
 31
0.0
  0
LINE
  5
4BD
330
208
100
AcDbEntity
  8
7_ALL_FEATURES
  6
Continuous
 62
     7
100
AcDbLine
 10
107.148438
 20
264.928906
 30
0.0
 11
105.648438
 21
264.928906
 31
0.0
  0
LINE
  5
4BE
330
208
100
AcDbEntity
  8
7_ALL_FEATURES
  6
Continuous
 62
     9
100
AcDbLine
 10
107.148438
 20
362.328906
 30
0.0
 11
105.648438
 21
362.328906
 31
0.0
  0
LINE
  5
4BF
330
208
100
AcDbEntity
  8
7_ALL_FEATURES
  6
Continuous
 62
     9
100
AcDbLine
 10
107.148438
 20
265.928906
 30
0.0
 11
105.648438
 21
265.928906
 31
0.0
  0
ARC
  5
4C0
330
208
100
AcDbEntity
  8
3_ALL_AXES
  6
Continuous
 62
     7
100
AcDbCircle
 10
720.648438
 20
314.128906
 30
0.0
 40
5.0
100
AcDbArc
 50
180.0
 51
360.0
  0
ARC
  5
4C1
330
208
100
AcDbEntity
  8
3_ALL_AXES
  6
Continuous
 62
     7
100
AcDbCircle
 10
720.648438
 20
314.128906
 30
0.0
 40
5.0
100
AcDbArc
 50
0.0
 51
180.0
  0
LINE
  5
4C2
330
208
100
AcDbEntity
  8
7_ALL_FEATURES
  6
Continuous
 62
     7
100
AcDbLine
 10
107.148438
 20
266.428906
 30
0.0
 11
740.648438
 21
266.428906
 31
0.0
  0
LINE
  5
4C3
330
208
100
AcDbEntity
  8
7_ALL_FEATURES
  6
Continuous
 62
     7
100
AcDbLine
 10
107.148438
 20
264.928906
 30
0.0
 11
740.648438
 21
264.928906
 31
0.0
  0
LINE
  5
4C4
330
208
100
AcDbEntity
  8
7_ALL_FEATURES
  6
Continuous
 62
     7
100
AcDbLine
 10
107.148438
 20
263.428906
 30
0.0
 11
740.648438
 21
263.428906
 31
0.0
  0
LINE
  5
4C5
330
208
100
AcDbEntity
  8
7_ALL_FEATURES
  6
Continuous
 62
     7
100
AcDbLine
 10
740.648438
 20
364.328906
 30
0.0
 11
740.648438
 21
364.828906
 31
0.0
  0
LINE
  5
4C6
330
208
100
AcDbEntity
  8
7_ALL_FEATURES
  6
Continuous
 62
     7
100
AcDbLine
 10
740.648438
 20
363.528906
 30
0.0
 11
740.648438
 21
364.328906
 31
0.0
  0
LINE
  5
4C7
330
208
100
AcDbEntity
  8
7_ALL_FEATURES
  6
Continuous
 62
     7
100
AcDbLine
 10
740.648438
 20
363.128906
 30
0.0
 11
740.648438
 21
363.328906
 31
0.0
  0
LINE
  5
4C8
330
208
100
AcDbEntity
  8
7_ALL_FEATURES
  6
Continuous
 62
     7
100
AcDbLine
 10
740.648438
 20
361.928906
 30
0.0
 11
740.648438
 21
362.328906
 31
0.0
  0
LINE
  5
4C9
330
208
100
AcDbEntity
  8
7_ALL_FEATURES
  6
Continuous
 62
     7
100
AcDbLine
 10
740.648438
 20
362.328906
 30
0.0
 11
740.648438
 21
363.128906
 31
0.0
  0
LINE
  5
4CA
330
208
100
AcDbEntity
  8
7_ALL_FEATURES
  6
Continuous
 62
     7
100
AcDbLine
 10
740.648438
 20
361.828906
 30
0.0
 11
740.648438
 21
361.928906
 31
0.0
  0
LINE
  5
4CB
330
208
100
AcDbEntity
  8
7_ALL_FEATURES
  6
Continuous
 62
     7
100
AcDbLine
 10
740.648438
 20
266.428906
 30
0.0
 11
740.648438
 21
266.328906
 31
0.0
  0
LINE
  5
4CC
330
208
100
AcDbEntity
  8
7_ALL_FEATURES
  6
Continuous
 62
     7
100
AcDbLine
 10
740.648438
 20
266.328906
 30
0.0
 11
740.648438
 21
265.928906
 31
0.0
  0
LINE
  5
4CD
330
208
100
AcDbEntity
  8
7_ALL_FEATURES
  6
Continuous
 62
     7
100
AcDbLine
 10
740.648438
 20
265.928906
 30
0.0
 11
740.648438
 21
265.128906
 31
0.0
  0
LINE
  5
4CE
330
208
100
AcDbEntity
  8
7_ALL_FEATURES
  6
Continuous
 62
     7
100
AcDbLine
 10
740.648438
 20
265.128906
 30
0.0
 11
740.648438
 21
264.928906
 31
0.0
  0
LINE
  5
4CF
330
208
100
AcDbEntity
  8
7_ALL_FEATURES
  6
Continuous
 62
     7
100
AcDbLine
 10
740.648438
 20
264.728906
 30
0.0
 11
740.648438
 21
263.928906
 31
0.0
  0
LINE
  5
4D0
330
208
100
AcDbEntity
  8
7_ALL_FEATURES
  6
Continuous
 62
     7
100
AcDbLine
 10
740.648438
 20
263.928906
 30
0.0
 11
740.648438
 21
263.428906
 31
0.0
  0
LINE
  5
4D1
330
208
100
AcDbEntity
  8
7_ALL_FEATURES
  6
Continuous
 62
     7
100
AcDbLine
 10
107.148438
 20
361.828906
 30
0.0
 11
740.648438
 21
361.828906
 31
0.0
  0
LINE
  5
4D2
330
208
100
AcDbEntity
  8
7_ALL_FEATURES
  6
Continuous
 62
     7
100
AcDbLine
 10
107.148438
 20
363.328906
 30
0.0
 11
740.648438
 21
363.328906
 31
0.0
  0
LINE
  5
4D3
330
208
100
AcDbEntity
  8
7_ALL_FEATURES
  6
Continuous
 62
     7
100
AcDbLine
 10
107.148438
 20
364.828906
 30
0.0
 11
740.648438
 21
364.828906
 31
0.0
  0
LINE
  5
4D4
330
208
100
AcDbEntity
  8
7_ALL_FEATURES
  6
Continuous
 62
     7
100
AcDbLine
 10
107.148438
 20
361.828906
 30
0.0
 11
107.148438
 21
361.928906
 31
0.0
  0
LINE
  5
4D5
330
208
100
AcDbEntity
  8
7_ALL_FEATURES
  6
Continuous
 62
     7
100
AcDbLine
 10
107.148438
 20
361.928906
 30
0.0
 11
107.148438
 21
362.328906
 31
0.0
  0
LINE
  5
4D6
330
208
100
AcDbEntity
  8
7_ALL_FEATURES
  6
Continuous
 62
     7
100
AcDbLine
 10
107.148438
 20
362.328906
 30
0.0
 11
107.148438
 21
363.128906
 31
0.0
  0
LINE
  5
4D7
330
208
100
AcDbEntity
  8
7_ALL_FEATURES
  6
Continuous
 62
     7
100
AcDbLine
 10
107.148438
 20
363.128906
 30
0.0
 11
107.148438
 21
363.328906
 31
0.0
  0
LINE
  5
4D8
330
208
100
AcDbEntity
  8
7_ALL_FEATURES
  6
Continuous
 62
     7
100
AcDbLine
 10
107.148438
 20
363.528906
 30
0.0
 11
107.148438
 21
364.328906
 31
0.0
  0
LINE
  5
4D9
330
208
100
AcDbEntity
  8
7_ALL_FEATURES
  6
Continuous
 62
     7
100
AcDbLine
 10
107.148438
 20
364.328906
 30
0.0
 11
107.148438
 21
364.828906
 31
0.0
  0
LINE
  5
4DA
330
208
100
AcDbEntity
  8
7_ALL_FEATURES
  6
Continuous
 62
     7
100
AcDbLine
 10
107.148438
 20
263.928906
 30
0.0
 11
107.148438
 21
263.428906
 31
0.0
  0
LINE
  5
4DB
330
208
100
AcDbEntity
  8
7_ALL_FEATURES
  6
Continuous
 62
     7
100
AcDbLine
 10
107.148438
 20
264.728906
 30
0.0
 11
107.148438
 21
263.928906
 31
0.0
  0
LINE
  5
4DC
330
208
100
AcDbEntity
  8
7_ALL_FEATURES
  6
Continuous
 62
     7
100
AcDbLine
 10
107.148438
 20
265.128906
 30
0.0
 11
107.148438
 21
264.928906
 31
0.0
  0
LINE
  5
4DD
330
208
100
AcDbEntity
  8
7_ALL_FEATURES
  6
Continuous
 62
     7
100
AcDbLine
 10
107.148438
 20
266.328906
 30
0.0
 11
107.148438
 21
265.928906
 31
0.0
  0
LINE
  5
4DE
330
208
100
AcDbEntity
  8
7_ALL_FEATURES
  6
Continuous
 62
     7
100
AcDbLine
 10
107.148438
 20
265.928906
 30
0.0
 11
107.148438
 21
265.128906
 31
0.0
  0
LINE
  5
4DF
330
208
100
AcDbEntity
  8
7_ALL_FEATURES
  6
Continuous
 62
     7
100
AcDbLine
 10
107.148438
 20
266.428906
 30
0.0
 11
107.148438
 21
266.328906
 31
0.0
  0
LINE
  5
4E0
330
208
100
AcDbEntity
  8
7_ALL_FEATURES
  6
Continuous
 62
     9
100
AcDbLine
 10
107.148438
 20
265.128906
 30
0.0
 11
740.648438
 21
265.128906
 31
0.0
  0
LINE
  5
4E1
330
208
100
AcDbEntity
  8
7_ALL_FEATURES
  6
Continuous
 62
     9
100
AcDbLine
 10
107.148438
 20
264.728906
 30
0.0
 11
740.648438
 21
264.728906
 31
0.0
  0
LINE
  5
4E2
330
208
100
AcDbEntity
  8
7_ALL_FEATURES
  6
Continuous
 62
     9
100
AcDbLine
 10
107.148438
 20
263.928906
 30
0.0
 11
740.648438
 21
263.928906
 31
0.0
  0
LINE
  5
4E3
330
208
100
AcDbEntity
  8
7_ALL_FEATURES
  6
Continuous
 62
     9
100
AcDbLine
 10
107.148438
 20
364.328906
 30
0.0
 11
740.648438
 21
364.328906
 31
0.0
  0
LINE
  5
4E4
330
208
100
AcDbEntity
  8
7_ALL_FEATURES
  6
Continuous
 62
     7
100
AcDbLine
 10
107.148438
 20
267.871726
 30
0.0
 11
740.648438
 21
267.871726
 31
0.0
  0
LINE
  5
4E5
330
208
100
AcDbEntity
  8
7_ALL_FEATURES
  6
Continuous
 62
     7
100
AcDbLine
 10
107.148438
 20
360.386086
 30
0.0
 11
740.648438
 21
360.386086
 31
0.0
  0
LINE
  5
4E6
330
208
100
AcDbEntity
  8
7_ALL_FEATURES
  6
Continuous
 62
     9
100
AcDbLine
 10
107.148438
 20
361.928906
 30
0.0
 11
740.648438
 21
361.928906
 31
0.0
  0
LINE
  5
4E7
330
208
100
AcDbEntity
  8
7_ALL_FEATURES
  6
Continuous
 62
     9
100
AcDbLine
 10
107.148438
 20
363.128906
 30
0.0
 11
740.648438
 21
363.128906
 31
0.0
  0
LINE
  5
4E8
330
208
100
AcDbEntity
  8
7_ALL_FEATURES
  6
Continuous
 62
     9
100
AcDbLine
 10
107.148438
 20
363.528906
 30
0.0
 11
740.648438
 21
363.528906
 31
0.0
  0
LINE
  5
4E9
330
208
100
AcDbEntity
  8
7_ALL_FEATURES
  6
Continuous
 62
     9
100
AcDbLine
 10
107.148438
 20
266.328906
 30
0.0
 11
740.648438
 21
266.328906
 31
0.0
  0
LINE
  5
4EA
330
208
100
AcDbEntity
  8
7_ALL_FEATURES
  6
Continuous
 62
     3
100
AcDbLine
 10
740.648438
 20
362.328906
 30
0.0
 11
740.648438
 21
361.928906
 31
0.0
  0
LINE
  5
4EB
330
208
100
AcDbEntity
  8
7_ALL_FEATURES
  6
Continuous
 62
     3
100
AcDbLine
 10
740.648438
 20
361.928906
 30
0.0
 11
740.648438
 21
361.828906
 31
0.0
  0
LINE
  5
4EC
330
208
100
AcDbEntity
  8
7_ALL_FEATURES
  6
Continuous
 62
     3
100
AcDbLine
 10
740.648438
 20
361.828906
 30
0.0
 11
740.648438
 21
266.428906
 31
0.0
  0
LINE
  5
4ED
330
208
100
AcDbEntity
  8
7_ALL_FEATURES
  6
Continuous
 62
     3
100
AcDbLine
 10
740.648438
 20
266.428906
 30
0.0
 11
740.648438
 21
266.328906
 31
0.0
  0
LINE
  5
4EE
330
208
100
AcDbEntity
  8
7_ALL_FEATURES
  6
Continuous
 62
     3
100
AcDbLine
 10
740.648438
 20
266.328906
 30
0.0
 11
740.648438
 21
265.928906
 31
0.0
  0
LINE
  5
4EF
330
208
100
AcDbEntity
  8
7_ALL_FEATURES
  6
Continuous
 62
     3
100
AcDbLine
 10
107.148438
 20
265.928906
 30
0.0
 11
107.148438
 21
266.328906
 31
0.0
  0
LINE
  5
4F0
330
208
100
AcDbEntity
  8
7_ALL_FEATURES
  6
Continuous
 62
     3
100
AcDbLine
 10
107.148438
 20
266.328906
 30
0.0
 11
107.148438
 21
266.428906
 31
0.0
  0
LINE
  5
4F1
330
208
100
AcDbEntity
  8
7_ALL_FEATURES
  6
Continuous
 62
     3
100
AcDbLine
 10
107.148438
 20
266.428906
 30
0.0
 11
107.148438
 21
361.828906
 31
0.0
  0
LINE
  5
4F2
330
208
100
AcDbEntity
  8
7_ALL_FEATURES
  6
Continuous
 62
     3
100
AcDbLine
 10
107.148438
 20
361.828906
 30
0.0
 11
107.148438
 21
361.928906
 31
0.0
  0
LINE
  5
4F3
330
208
100
AcDbEntity
  8
7_ALL_FEATURES
  6
Continuous
 62
     3
100
AcDbLine
 10
107.148438
 20
361.928906
 30
0.0
 11
107.148438
 21
362.328906
 31
0.0
  0
DIMENSION
  5
4F4
330
208
100
AcDbEntity
  8
0
  6
Continuous
 62
     2
100
AcDbDimension
280
     0
  2
*D1
 10
1046.385547
 20
721.436268
 30
0.0
 11
995.940479
 21
721.436268
 31
0.0
 70
   160
 71
     2
 42
101.4
 73
     0
 74
     0
 75
     0
  3
DIMSTYLE_1
100
AcDbAlignedDimension
 13
944.985547
 23
700.015898
 33
0.0
 14
1046.385547
 24
699.730816
 34
0.0
100
AcDbRotatedDimension
  0
DIMENSION
  5
4F5
330
208
100
AcDbEntity
  8
0
  6
Continuous
 62
     2
100
AcDbDimension
280
     0
  2
*D2
 10
795.333009
 20
535.222656
 30
0.0
 11
795.333009
 21
610.749896
 31
0.0
 70
   160
 71
     2
 42
150.5
 73
     0
 74
     0
 75
     0
  3
DIMSTYLE_2
100
AcDbAlignedDimension
 13
766.647637
 23
685.722656
 33
0.0
 14
765.756758
 24
535.222656
 34
0.0
 50
270.0
100
AcDbRotatedDimension
  0
DIMENSION
  5
4F6
330
208
100
AcDbEntity
  8
0
  6
Continuous
 62
     2
100
AcDbDimension
280
     0
  2
*D3
 10
105.648438
 20
419.276923
 30
0.0
 11
423.874563
 21
419.276923
 31
0.0
 70
   160
 71
     2
 42
636.5
 73
     0
 74
     0
 75
     0
  3
DIMSTYLE_3
100
AcDbAlignedDimension
 13
742.148438
 23
389.080906
 33
0.0
 14
105.648438
 24
386.992906
 34
0.0
 50
180.0
100
AcDbRotatedDimension
  0
INSERT
  5
4F7
330
208
100
AcDbEntity
  8
0
  6
Continuous
 62
     2
100
AcDbBlockReference
  2
LOGO2_BL0
 10
1102.860957
 20
36.533893
 30
0.0
  0
ACAD_TABLE
  5
4F8
102
{ACAD_XDICTIONARY
360
54F
102
}
330
208
100
AcDbEntity
  8
0
  6
Continuous
 62
     2
160
              3352
310
180D000017000000880000001D000000000000000000F03F000000000000000000000000000000007FE58DBF230491400000000000000000000000000000F03F0000000000000000AF5FE29E5604494000000000000000000000000000000000000000000000F03F0000000000000000000000000000000000000000000000
310
000000000000000000000000000000F03F54000000200000000200000000000000000000000000000000000000000000000000000000000000008056400000000000000000000000000000000000000000000000000000000000000000000000000000F03F5400000020000000020000000000000000000000000000000000
310
00000000000000000000000000000000000000000000000044C0000000000000000000000000000000000000000000000000000000000000F03F5400000020000000020000000000000000003E4000000000000018C00000000000000000000000000080564000000000000018C00000000000000000000000000000000000
310
00000000000000000000000000F03F5400000020000000020000000000000000003E4000000000000028C00000000000000000000000000080564000000000000028C0000000000000000000000000000000000000000000000000000000000000F03F5400000020000000020000000000000000003E4000000000000036C0
310
0000000000000000000000000080564000000000000036C0000000000000000000000000000000000000000000000000000000000000F03F54000000200000000200000000000000000000000000000000003BC0000000000000000000000000008056400000000000003BC000000000000000000000000000000000000000
310
0000000000000000000000F03F540000002000000002000000000000000000000000000000000044C00000000000000000000000000080564000000000000044C0000000000000000000000000000000000000000000000000000000000000F03F5400000020000000020000000000000000003E4000000000000000000000
310
0000000000000000000000003E400000000000003BC0000000000000000000000000000000000000000000000000000000000000F03F540000002000000002000000000000000080514000000000000000000000000000000000000000000080514000000000000028C0000000000000000000000000000000000000000000
310
000000000000000000F03F540000002000000002000000000000000080564000000000000000000000000000000000000000000080564000000000000044C0000000000000000000000000000000000000000000000000000000000000F03F0C000000100000000B000000D000000026000000CDCCCCCCCC7C3F404E621058
310
393412C0000000000000000000000000000000000000000000000000000000000000F03F000000000000F03F0000000000000000000000000000000041003100370032005F0043005F003400300032000000000014000000010000000000000000000840000000000000F03F0000000000000000000000000000F03F000000
310
0000000000000000000000000000000000000000000000000000000000000000000000000061007200690061006C002E00740074006600000000000000C800000026000000C2F5285C8FC6514075931804560E13C0000000000000000000000000000000000000000000000000000000000000F03F000000000000F03F0000
310
00000000000000000000000000005200650076003A0030003000000000000C000000010000000000000000000C40000000000000F03F0000000000000000000000000000F03F0000000000000000000000000000000000000000000000000000000000000000000000000000000061007200690061006C002E007400740066
310
00000000000000CC00000026000000FA7E6ABC74433F405839B4C8769E26C0000000000000000000000000000000000000000000000000000000000000F03F000000000000F03F000000000000000000000000000000005300630061006C0065003A0031003A003100000012000000010000000000000000000C4000000000
310
0000F03F0000000000000000000000000000F03F0000000000000000000000000000000000000000000000000000000000000000000000000000000061007200690061006C002E00740074006600000000000000C0000000260000003333333333DF5140BA490C022B8725C000000000000000000000000000000000000000
310
0000000000000000000000F03F000000000000F03F00000000000000000000000000000000410030000000000004000000010000000000000000000C40000000000000F03F0000000000000000000000000000F03F000000000000000000000000000000000000000000000000000000000000000000000000000000006100
310
7200690061006C002E00740074006600000000000000FC00000026000000295C8FC2F5583F4062105839B40832C0000000000000000000000000000000000000000000000000000000000000F03F000000000000F03F000000000000000000000000000000004300410053005300410046004F0052004D0041002000540052
310
0049004D004C00450053005300200043004F004C004F005200410044004F00200032002E0030000000000040000000010000000000000000000040000000000000F03F0000000000000000000000000000F03F0000000000000000000000000000000000000000000000000000000000000000000000000000000061007200
310
690061006C002E00740074006600000000000000D40000002600000048E17A14AE373F40C3F5285C8FC239C0000000000000000000000000000000000000000000000000000000000000F03F000000000000F03F0000000000000000000000000000000044004100540045003A00330030002E00300038002E003200320000
310
001A000000010000000000000000000440000000000000F03F0000000000000000000000000000F03F0000000000000000000000000000000000000000000000000000000000000000000000000000000061007200690061006C002E007400740066000000000000002401000026000000CDCCCCCCCCCCF73F000000000090
310
3DC0000000000000000000000000000000000000000000000000000000000000F03F000000000000F03F0000000000000000000000000000000041006E007900200069006E00740065006700720061006C0020006F00720020007000610072007400690061006C00200072006500700072006F00640075006300740069006F
310
006E00730020006100720065002000700072006F0068006900620069007400650064000000000068000000010000000000000000000240000000000000F03F0000000000000000000000000000F03F000000000000000000000000000000000000000000000000000000000000000000000000000000006100720069006100
310
6C002E007400740066000000000000002C01000026000000FED478E926B1F73F37894160E57C40C0000000000000000000000000000000000000000000000000000000000000F03F000000000000F03F0000000000000000000000000000000077006900740068006F007500740020007000720069006F0072002000610075
310
00740068006F007200690073006100740069006F006E0020006F00660020004C002000260020004C0020004C007500630065002000260020004C006900670068007400200073002E0072002E006C002E002C00000072000000010000000000000000000240000000000000F03F0000000000000000000000000000F03F0000
310
000000000000000000000000000000000000000000000000000000000000000000000000000061007200690061006C002E007400740066000000000000000401000026000000C1CAA145B673F43F4F1E166A4D3142C0000000000000000000000000000000000000000000000000000000000000F03F000000000000F03F00
310
00000000000000000000000000000069006E0020006100630063006F007200640061006E006300650020007700690074006800200074006800650020006C0061007700200069006E00200066006F007200630065002E000000000048000000010000000000000000000240000000000000F03F000000000000000000000000
310
0000F03F0000000000000000000000000000000000000000000000000000000000000000000000000000000061007200690061006C002E00740074006600000000000000E400000026000000CDCCCCCCCCCCF73F302AA913D0E043C0000000000000000000000000000000000000000000000000000000000000F03F000000
310
000000F03F0000000000000000000000000000000041006C006C0020007200690067006800740073002000720065007300650072007600650064002E000000000028000000010000000000000000000240000000000000F03F0000000000000000000000000000F03F00000000000000000000000000000000000000000000
310
00000000000000000000000000000000000061007200690061006C002E00740074006600000000000000080000001F000000
100
AcDbBlockReference
  2
*T5
 10
1089.03491
 20
50.033893
 30
0.0
100
AcDbTable
342
521
343
20F
 11
1.0
 21
0.0
 31
0.0
 90
       22
 91
        5
 92
        5
 93
        0
 94
        0
 95
        0
 96
        0
141
6.0
141
6.0
141
10.0
141
5.0
141
13.0
142
10.0
142
10.0
142
10.0
142
40.0
142
20.0
171
     1
172
     0
173
     0
174
     0
175
     3
176
     4
 91
       32
178
     0
145
0.0
140
3.5
 92
        0
301
CELL_VALUE
 93
        2
 90
        4
  1
 
 94
        0
300

302
 
304
ACVALUE_END
171
     1
172
     0
173
     1
174
     0
175
     1
176
     1
 91
        0
178
     0
145
0.0
 92
        0
301
CELL_VALUE
 93
        3
 90
        0
 91
        0
 94
        0
300

302

304
ACVALUE_END
171
     1
172
     0
173
     1
174
     0
175
     1
176
     1
 91
        0
178
     0
145
0.0
 92
        0
301
CELL_VALUE
 93
        3
 90
        0
 91
        0
 94
        0
300

302

304
ACVALUE_END
171
     1
172
     0
173
     0
174
     0
175
     1
176
     1
 91
       33
178
     0
145
0.0
170
     4
140
3.0
 92
        0
301
CELL_VALUE
 93
        2
 90
        4
  1
A172_C_402
 94
        0
300

302
A172_C_402
304
ACVALUE_END
171
     1
172
     0
173
     0
174
     0
175
     1
176
     1
 91
       33
178
     0
145
0.0
170
     4
140
3.5
 92
        0
301
CELL_VALUE
 93
        2
 90
        4
  1
Rev:00
 94
        0
300

302
Rev:00
304
ACVALUE_END
171
     1
172
     0
173
     1
174
     0
175
     1
176
     1
 91
        0
178
     0
145
0.0
 92
        0
301
CELL_VALUE
 93
        3
 90
        0
 91
        0
 94
        0
300

302

304
ACVALUE_END
171
     1
172
     0
173
     1
174
     0
175
     1
176
     1
 91
        0
178
     0
145
0.0
 92
        0
301
CELL_VALUE
 93
        3
 90
        0
 91
        0
 94
        0
300

302

304
ACVALUE_END
171
     1
172
     0
173
     1
174
     0
175
     1
176
     1
 91
        0
178
     0
145
0.0
 92
        0
301
CELL_VALUE
 93
        3
 90
        0
 91
        0
 94
        0
300

302

304
ACVALUE_END
171
     1
172
     0
173
     0
174
     0
175
     1
176
     1
 91
       33
178
     0
145
0.0
170
     1
140
3.5
 92
        0
301
CELL_VALUE
 93
        2
 90
        4
  1
Scale:1:1
 94
        0
300

302
Scale:1:1
304
ACVALUE_END
171
     1
172
     0
173
     0
174
     0
175
     1
176
     1
 91
       33
178
     0
145
0.0
170
     4
140
3.5
 92
        0
301
CELL_VALUE
 93
        2
 90
        4
  1
A0
 94
        0
300

302
A0
304
ACVALUE_END
171
     1
172
     0
173
     1
174
     0
175
     1
176
     1
 91
        0
178
     0
145
0.0
 92
        0
301
CELL_VALUE
 93
        3
 90
        0
 91
        0
 94
        0
300

302

304
ACVALUE_END
171
     1
172
     0
173
     1
174
     0
175
     1
176
     1
 91
        0
178
     0
145
0.0
 92
        0
301
CELL_VALUE
 93
        3
 90
        0
 91
        0
 94
        0
300

302

304
ACVALUE_END
171
     1
172
     0
173
     1
174
     0
175
     1
176
     1
 91
        0
178
     0
145
0.0
 92
        0
301
CELL_VALUE
 93
        3
 90
        0
 91
        0
 94
        0
300

302

304
ACVALUE_END
171
     1
172
     0
173
     0
174
     0
175
     2
176
     1
 91
       33
178
     0
145
0.0
170
     4
140
2.0
 92
        0
301
CELL_VALUE
 93
        2
 90
        4
  1
CASSAFORMA TRIMLESS COLORADO 2.0
 94
        0
300

302
CASSAFORMA TRIMLESS COLORADO 2.0
304
ACVALUE_END
171
     1
172
     0
173
     1
174
     0
175
     1
176
     1
 91
        0
178
     0
145
0.0
 92
        0
301
CELL_VALUE
 93
        3
 90
        0
 91
        0
 94
        0
300

302

304
ACVALUE_END
171
     1
172
     0
173
     1
174
     0
175
     1
176
     1
 91
        0
178
     0
145
0.0
 92
        0
301
CELL_VALUE
 93
        3
 90
        0
 91
        0
 94
        0
300

302

304
ACVALUE_END
171
     1
172
     0
173
     1
174
     0
175
     1
176
     1
 91
        0
178
     0
145
0.0
 92
        0
301
CELL_VALUE
 93
        3
 90
        0
 91
        0
 94
        0
300

302

304
ACVALUE_END
171
     1
172
     0
173
     1
174
     0
175
     1
176
     1
 91
        0
178
     0
145
0.0
 92
        0
301
CELL_VALUE
 93
        3
 90
        0
 91
        0
 94
        0
300

302

304
ACVALUE_END
171
     1
172
     0
173
     0
174
     0
175
     2
176
     1
 91
       33
178
     0
145
0.0
170
     4
140
2.5
 92
        0
301
CELL_VALUE
 93
        2
 90
        4
  1
DATE:30.08.22
 94
        0
300

302
DATE:30.08.22
304
ACVALUE_END
171
     1
172
     0
173
     1
174
     0
175
     1
176
     1
 91
        0
178
     0
145
0.0
 92
        0
301
CELL_VALUE
 93
        3
 90
        0
 91
        0
 94
        0
300

302

304
ACVALUE_END
171
     1
172
     0
173
     0
174
     0
175
     5
176
     1
 91
       33
178
     0
145
0.0
170
     4
140
2.25
 92
        0
301
CELL_VALUE
 93
        2
 90
        4
  1
Any integral or partial reproductions are prohibited \Pwithout prior authorisation of L & L Luce & Light s.r.l., \Pin accordance with the law in force. \PAll rights reserved.
 94
        0
300

302
Any integral or partial reproductions are prohibited \Pwithout prior authorisation of L & L Luce & Light s.r.l., \Pin accordance with the law in force. \PAll rights reserved.
304
ACVALUE_END
171
     1
172
     0
173
     1
174
     0
175
     1
176
     1
 91
        0
178
     0
145
0.0
 92
        0
301
CELL_VALUE
 93
        3
 90
        0
 91
        0
 94
        0
300

302

304
ACVALUE_END
171
     1
172
     0
173
     1
174
     0
175
     1
176
     1
 91
        0
178
     0
145
0.0
 92
        0
301
CELL_VALUE
 93
        3
 90
        0
 91
        0
 94
        0
300

302

304
ACVALUE_END
171
     1
172
     0
173
     1
174
     0
175
     1
176
     1
 91
        0
178
     0
145
0.0
 92
        0
301
CELL_VALUE
 93
        3
 90
        0
 91
        0
 94
        0
300

302

304
ACVALUE_END
171
     1
172
     0
173
     1
174
     0
175
     1
176
     1
 91
        0
178
     0
145
0.0
 92
        0
301
CELL_VALUE
 93
        3
 90
        0
 91
        0
 94
        0
300

302

304
ACVALUE_END
  0
ENDSEC
  0
SECTION
  2
OBJECTS
  0
DICTIONARY
  5
C
330
0
100
AcDbDictionary
281
     1
  3
ACAD_DETAILVIEWSTYLE
350
588
  3
ACAD_GROUP
350
D
  3
ACAD_IMAGE_DICT
350
548
  3
ACAD_LAYOUT
350
1A
  3
ACAD_MATERIAL
350
53C
  3
ACAD_MLEADERSTYLE
350
587
  3
ACAD_MLINESTYLE
350
17
  3
ACAD_PLOTSETTINGS
350
19
  3
ACAD_PLOTSTYLENAME
350
E
  3
ACAD_SCALELIST
350
4FE
  3
ACAD_SECTIONVIEWSTYLE
350
589
  3
ACAD_TABLESTYLE
350
520
  3
ACAD_VISUALSTYLE
350
523
  3
ACDB_RECOMPOSE_DATA
350
585
  3
AcDbVariableDictionary
350
551
  3
HOST_DOC_SETTINGS
350
546
  3
MCS_STREAM_DICT
350
542
  0
SUN
  5
545
330
1F4
100
AcDbSun
 90
        1
290
     0
 63
     7
421
 16777215
 40
1.0
291
     1
 91
  2455826
 92
 54000000
292
     0
 70
     2
 71
   256
280
     1
  0
DICTIONARY
  5
54F
330
4F8
100
AcDbDictionary
280
     1
281
     1
  3
ACAD_XREC_ROUNDTRIP
360
550
  0
DICTIONARY
  5
588
102
{ACAD_REACTORS
330
C
102
}
330
C
100
AcDbDictionary
281
     1
  0
DICTIONARY
  5
D
102
{ACAD_REACTORS
330
C
102
}
330
C
100
AcDbDictionary
281
     1
  0
DICTIONARY
  5
548
102
{ACAD_REACTORS
330
C
102
}
330
C
100
AcDbDictionary
281
     1
  0
DICTIONARY
  5
1A
102
{ACAD_REACTORS
330
C
102
}
330
C
100
AcDbDictionary
281
     1
  3
Layout1
350
4FB
  3
Model
350
4FA
  0
DICTIONARY
  5
53C
102
{ACAD_REACTORS
330
C
102
}
330
C
100
AcDbDictionary
281
     1
  3
ByBlock
350
53E
  3
ByLayer
350
53D
  3
Global
350
53F
  0
DICTIONARY
  5
587
102
{ACAD_REACTORS
330
C
102
}
330
C
100
AcDbDictionary
281
     1
  0
DICTIONARY
  5
17
102
{ACAD_REACTORS
330
C
102
}
330
C
100
AcDbDictionary
281
     1
  3
Standard
350
18
  0
DICTIONARY
  5
19
102
{ACAD_REACTORS
330
C
102
}
330
C
100
AcDbDictionary
281
     1
  0
ACDBDICTIONARYWDFLT
  5
E
102
{ACAD_REACTORS
330
C
102
}
330
C
100
AcDbDictionary
281
     1
  3
Normal
350
F
100
AcDbDictionaryWithDefault
340
F
  0
DICTIONARY
  5
4FE
102
{ACAD_REACTORS
330
C
102
}
330
C
100
AcDbDictionary
281
     1
  3
A0
350
4FF
  3
A1
350
500
  3
A2
350
501
  3
A3
350
502
  3
A4
350
503
  3
A5
350
504
  3
A6
350
505
  3
A7
350
506
  3
A8
350
507
  3
A9
350
508
  3
B0
350
509
  3
B1
350
50A
  3
B2
350
50B
  3
B3
350
50C
  3
B4
350
50D
  3
B5
350
50E
  3
B6
350
50F
  3
B7
350
510
  3
B8
350
511
  3
B9
350
512
  3
C0
350
513
  3
C1
350
514
  3
C2
350
515
  3
C3
350
516
  3
C4
350
517
  3
C5
350
518
  3
C6
350
519
  3
C7
350
51A
  3
C8
350
51B
  3
C9
350
51C
  3
D0
350
51D
  3
D1
350
51E
  3
D2
350
51F
  0
DICTIONARY
  5
589
102
{ACAD_REACTORS
330
C
102
}
330
C
100
AcDbDictionary
281
     1
  0
DICTIONARY
  5
520
102
{ACAD_REACTORS
330
C
102
}
330
C
100
AcDbDictionary
281
     1
  3
Standard
350
521
  0
DICTIONARY
  5
523
102
{ACAD_REACTORS
330
C
102
}
330
C
100
AcDbDictionary
281
     1
  3
2dWireframe
350
528
  3
Basic
350
52B
  3
Brighten
350
52F
  3
ColorChange
350
533
  3
Conceptual
350
52D
  3
Dim
350
52E
  3
EdgeColorOff
350
536
  3
Facepattern
350
532
  3
Flat
350
524
  3
FlatWithEdges
350
525
  3
Gouraud
350
526
  3
GouraudWithEdges
350
527
  3
Hidden
350
52A
  3
JitterOff
350
534
  3
Linepattern
350
531
  3
OverhangOff
350
535
  3
Realistic
350
52C
  3
Shaded
350
53B
  3
Shaded with edges
350
53A
  3
Shades of Gray
350
537
  3
Sketchy
350
538
  3
Thicken
350
530
  3
Wireframe
350
529
  3
X-Ray
350
539
  0
XRECORD
  5
585
102
{ACAD_REACTORS
330
C
102
}
330
C
100
AcDbXrecord
280
     1
 90
        1
330
4F8
330
521
  0
DICTIONARY
  5
551
102
{ACAD_REACTORS
330
C
102
}
330
C
100
AcDbDictionary
281
     1
  3
CANNOSCALE
350
552
  3
CTABLESTYLE
350
586
  0
DICTIONARY
  5
546
102
{ACAD_REACTORS
330
C
102
}
330
C
100
AcDbDictionary
281
     1
  3
NCDocParameters
350
547
  0
DICTIONARY
  5
542
102
{ACAD_REACTORS
330
C
102
}
330
C
100
AcDbDictionary
281
     1
  3
MC_VERSION_DATA
350
54B
  3
MCS_DOCUMENT_ID
350
543
  3
MCS_PARAMS_DATA
350
549
  0
XRECORD
  5
550
102
{ACAD_REACTORS
330
54F
102
}
330
54F
100
AcDbXrecord
280
     1
102
ACAD_ROUNDTRIP_2008_TABLE_ENTITY
360
54D
 70
     2
 90
        1
 10
0.0
 20
0.0
 30
0.0
 90
        0
 90
        4
361
54E
  0
LAYOUT
  5
4FB
102
{ACAD_REACTORS
330
1A
102
}
330
1A
100
AcDbPlotSettings
  1

  2
none_device
  4
ISO_A0_(1189.00_x_841.00_MM)
  6

 40
0.0
 41
0.0
 42
0.0
 43
0.0
 44
1189.0
 45
841.0
 46
0.0
 47
0.0
 48
0.0
 49
0.0
140
0.0
141
0.0
142
1.0
143
1.0
 70
     0
 72
     1
 73
     0
 74
     0
  7

 75
     0
 76
     0
 77
     2
 78
   300
147
1.0
148
0.0
149
0.0
100
AcDbLayout
  1
Layout1
 70
     0
 71
     1
 10
0.0
 20
0.0
 11
1189.0
 21
841.0
 12
0.0
 22
0.0
 32
0.0
 14
0.0
 24
0.0
 34
0.0
 15
0.0
 25
0.0
 35
0.0
146
0.0
 13
0.0
 23
0.0
 33
0.0
 16
1.0
 26
0.0
 36
0.0
 17
0.0
 27
1.0
 37
0.0
 76
     0
330
209
  0
LAYOUT
  5
4FA
102
{ACAD_REACTORS
330
1A
102
}
330
1A
100
AcDbPlotSettings
  1

  2
none_device
  4
ISO_A0_(1189.00_x_841.00_MM)
  6

 40
0.0
 41
0.0
 42
0.0
 43
0.0
 44
1189.0
 45
841.0
 46
0.0
 47
0.0
 48
0.0
 49
0.0
140
0.0
141
0.0
142
1.0
143
1.0
 70
  1024
 72
     1
 73
     0
 74
     0
  7

 75
     0
 76
     0
 77
     2
 78
   300
147
1.0
148
0.0
149
0.0
100
AcDbLayout
  1
Model
 70
     0
 71
     0
 10
0.0
 20
0.0
 11
1189.0
 21
841.0
 12
0.0
 22
0.0
 32
0.0
 14
0.0
 24
0.0
 34
0.0
 15
0.0
 25
0.0
 35
0.0
146
0.0
 13
0.0
 23
0.0
 33
0.0
 16
1.0
 26
0.0
 36
0.0
 17
0.0
 27
1.0
 37
0.0
 76
     0
330
208
331
1F4
  0
MATERIAL
  5
53E
102
{ACAD_REACTORS
330
53C
102
}
330
53C
100
AcDbMaterial
  1
ByBlock
 72
     1
 94
      127
  0
MATERIAL
  5
53D
102
{ACAD_REACTORS
330
53C
102
}
330
53C
100
AcDbMaterial
  1
ByLayer
 72
     1
 94
      127
  0
MATERIAL
  5
53F
102
{ACAD_REACTORS
330
53C
102
}
330
53C
100
AcDbMaterial
  1
Global
 72
     1
 94
      127
  0
MLINESTYLE
  5
18
102
{ACAD_REACTORS
330
17
102
}
330
17
100
AcDbMlineStyle
  2
STANDARD
 70
     0
  3

 62
   256
 51
90.0
 52
90.0
 71
     2
 49
0.5
 62
   256
  6
BYLAYER
 49
-0.5
 62
   256
  6
BYLAYER
  0
ACDBPLACEHOLDER
  5
F
102
{ACAD_REACTORS
330
E
102
}
330
E
  0
SCALE
  5
4FF
102
{ACAD_REACTORS
330
4FE
102
}
330
4FE
100
AcDbScale
 70
     0
300
1:1
140
1.0
141
1.0
290
     1
  0
SCALE
  5
500
102
{ACAD_REACTORS
330
4FE
102
}
330
4FE
100
AcDbScale
 70
     0
300
1:2
140
1.0
141
2.0
290
     0
  0
SCALE
  5
501
102
{ACAD_REACTORS
330
4FE
102
}
330
4FE
100
AcDbScale
 70
     0
300
1:4
140
1.0
141
4.0
290
     0
  0
SCALE
  5
502
102
{ACAD_REACTORS
330
4FE
102
}
330
4FE
100
AcDbScale
 70
     0
300
1:5
140
1.0
141
5.0
290
     0
  0
SCALE
  5
503
102
{ACAD_REACTORS
330
4FE
102
}
330
4FE
100
AcDbScale
 70
     0
300
1:8
140
1.0
141
8.0
290
     0
  0
SCALE
  5
504
102
{ACAD_REACTORS
330
4FE
102
}
330
4FE
100
AcDbScale
 70
     0
300
1:10
140
1.0
141
10.0
290
     0
  0
SCALE
  5
505
102
{ACAD_REACTORS
330
4FE
102
}
330
4FE
100
AcDbScale
 70
     0
300
1:16
140
1.0
141
16.0
290
     0
  0
SCALE
  5
506
102
{ACAD_REACTORS
330
4FE
102
}
330
4FE
100
AcDbScale
 70
     0
300
1:20
140
1.0
141
20.0
290
     0
  0
SCALE
  5
507
102
{ACAD_REACTORS
330
4FE
102
}
330
4FE
100
AcDbScale
 70
     0
300
1:30
140
1.0
141
30.0
290
     0
  0
SCALE
  5
508
102
{ACAD_REACTORS
330
4FE
102
}
330
4FE
100
AcDbScale
 70
     0
300
1:40
140
1.0
141
40.0
290
     0
  0
SCALE
  5
509
102
{ACAD_REACTORS
330
4FE
102
}
330
4FE
100
AcDbScale
 70
     0
300
1:50
140
1.0
141
50.0
290
     0
  0
SCALE
  5
50A
102
{ACAD_REACTORS
330
4FE
102
}
330
4FE
100
AcDbScale
 70
     0
300
1:100
140
1.0
141
100.0
290
     0
  0
SCALE
  5
50B
102
{ACAD_REACTORS
330
4FE
102
}
330
4FE
100
AcDbScale
 70
     0
300
2:1
140
2.0
141
1.0
290
     0
  0
SCALE
  5
50C
102
{ACAD_REACTORS
330
4FE
102
}
330
4FE
100
AcDbScale
 70
     0
300
4:1
140
4.0
141
1.0
290
     0
  0
SCALE
  5
50D
102
{ACAD_REACTORS
330
4FE
102
}
330
4FE
100
AcDbScale
 70
     0
300
8:1
140
8.0
141
1.0
290
     0
  0
SCALE
  5
50E
102
{ACAD_REACTORS
330
4FE
102
}
330
4FE
100
AcDbScale
 70
     0
300
10:1
140
10.0
141
1.0
290
     0
  0
SCALE
  5
50F
102
{ACAD_REACTORS
330
4FE
102
}
330
4FE
100
AcDbScale
 70
     0
300
100:1
140
100.0
141
1.0
290
     0
  0
SCALE
  5
510
102
{ACAD_REACTORS
330
4FE
102
}
330
4FE
100
AcDbScale
 70
     0
300
1/128" = 1'-0"
140
0.007812
141
12.0
290
     0
  0
SCALE
  5
511
102
{ACAD_REACTORS
330
4FE
102
}
330
4FE
100
AcDbScale
 70
     0
300
1/64" = 1'-0"
140
0.015625
141
12.0
290
     0
  0
SCALE
  5
512
102
{ACAD_REACTORS
330
4FE
102
}
330
4FE
100
AcDbScale
 70
     0
300
1/32" = 1'-0"
140
0.03125
141
12.0
290
     0
  0
SCALE
  5
513
102
{ACAD_REACTORS
330
4FE
102
}
330
4FE
100
AcDbScale
 70
     0
300
1/16" = 1'-0"
140
0.0625
141
12.0
290
     0
  0
SCALE
  5
514
102
{ACAD_REACTORS
330
4FE
102
}
330
4FE
100
AcDbScale
 70
     0
300
3/32" = 1'-0"
140
0.09375
141
12.0
290
     0
  0
SCALE
  5
515
102
{ACAD_REACTORS
330
4FE
102
}
330
4FE
100
AcDbScale
 70
     0
300
1/8" = 1'-0"
140
0.125
141
12.0
290
     0
  0
SCALE
  5
516
102
{ACAD_REACTORS
330
4FE
102
}
330
4FE
100
AcDbScale
 70
     0
300
3/16" = 1'-0"
140
0.1875
141
12.0
290
     0
  0
SCALE
  5
517
102
{ACAD_REACTORS
330
4FE
102
}
330
4FE
100
AcDbScale
 70
     0
300
1/4" = 1'-0"
140
0.25
141
12.0
290
     0
  0
SCALE
  5
518
102
{ACAD_REACTORS
330
4FE
102
}
330
4FE
100
AcDbScale
 70
     0
300
3/8" = 1'-0"
140
0.375
141
12.0
290
     0
  0
SCALE
  5
519
102
{ACAD_REACTORS
330
4FE
102
}
330
4FE
100
AcDbScale
 70
     0
300
1/2" = 1'-0"
140
0.5
141
12.0
290
     0
  0
SCALE
  5
51A
102
{ACAD_REACTORS
330
4FE
102
}
330
4FE
100
AcDbScale
 70
     0
300
3/4" = 1'-0"
140
0.75
141
12.0
290
     0
  0
SCALE
  5
51B
102
{ACAD_REACTORS
330
4FE
102
}
330
4FE
100
AcDbScale
 70
     0
300
1" = 1'-0"
140
1.0
141
12.0
290
     0
  0
SCALE
  5
51C
102
{ACAD_REACTORS
330
4FE
102
}
330
4FE
100
AcDbScale
 70
     0
300
1-1/2" = 1'-0"
140
1.5
141
12.0
290
     0
  0
SCALE
  5
51D
102
{ACAD_REACTORS
330
4FE
102
}
330
4FE
100
AcDbScale
 70
     0
300
3" = 1'-0"
140
3.0
141
12.0
290
     0
  0
SCALE
  5
51E
102
{ACAD_REACTORS
330
4FE
102
}
330
4FE
100
AcDbScale
 70
     0
300
6" = 1'-0"
140
6.0
141
12.0
290
     0
  0
SCALE
  5
51F
102
{ACAD_REACTORS
330
4FE
102
}
330
4FE
100
AcDbScale
 70
     0
300
1'-0" = 1'-0"
140
12.0
141
12.0
290
     0
  0
TABLESTYLE
  5
521
102
{ACAD_REACTORS
330
520
102
}
102
{ACAD_XDICTIONARY
360
553
102
}
330
520
100
AcDbTableStyle
  3
Standard
 70
     0
 71
     0
 40
0.06
 41
0.06
280
     0
281
     0
  7
STANDARD
140
4.5
170
     2
 62
     0
 63
   257
283
     0
 90
        4
 91
        0
  1

274
    -2
284
     1
 64
     0
275
    -2
285
     1
 65
     0
276
    -2
286
     1
 66
     0
277
    -2
287
     1
 67
     0
278
    -2
288
     1
 68
     0
279
    -2
289
     1
 69
     0
  7
STANDARD
140
6.0
170
     5
 62
     0
 63
   257
283
     0
 90
        4
 91
        0
  1

274
    -2
284
     1
 64
     0
275
    -2
285
     1
 65
     0
276
    -2
286
     1
 66
     0
277
    -2
287
     1
 67
     0
278
    -2
288
     1
 68
     0
279
    -2
289
     1
 69
     0
  7
STANDARD
140
4.5
170
     5
 62
     0
 63
   257
283
     0
 90
        4
 91
        0
  1

274
    -2
284
     1
 64
     0
275
    -2
285
     1
 65
     0
276
    -2
286
     1
 66
     0
277
    -2
287
     1
 67
     0
278
    -2
288
     1
 68
     0
279
    -2
289
     1
 69
     0
  0
VISUALSTYLE
  5
528
102
{ACAD_REACTORS
330
523
102
}
102
{ACAD_XDICTIONARY
360
55D
102
}
330
523
100
AcDbVisualStyle
  2
2dWireframe
 70
     4
177
     2
291
     0
 71
     0
176
     1
 72
     2
176
     1
 73
     0
176
     1
 90
        0
176
     1
 40
0.6
176
     1
 41
30.0
176
     1
 62
     5
 63
     7
421
 16777215
176
     1
 74
     1
176
     1
 91
        4
176
     1
 64
     7
176
     1
 65
   257
176
     1
 75
     1
176
     1
175
     1
176
     1
 42
1.0
176
     1
 92
        0
176
     1
 66
   257
176
     1
 43
1.0
176
     1
 76
     1
176
     1
 77
     6
176
     1
 78
     2
176
     1
 67
     7
176
     1
 79
     5
176
     1
170
     0
176
     1
171
     0
176
     1
290
     0
176
     1
 93
        1
176
     1
 44
0.0
176
     1
173
     0
176
     1
  0
VISUALSTYLE
  5
52B
102
{ACAD_REACTORS
330
523
102
}
102
{ACAD_XDICTIONARY
360
563
102
}
330
523
100
AcDbVisualStyle
  2
Basic
 70
     7
177
     2
291
     1
 71
     1
176
     1
 72
     0
176
     1
 73
     1
176
     1
 90
        0
176
     1
 40
0.6
176
     1
 41
30.0
176
     1
 62
     5
 63
     7
421
 16777215
176
     1
 74
     0
176
     1
 91
        4
176
     1
 64
     7
176
     1
 65
   257
176
     1
 75
     1
176
     1
175
     1
176
     1
 42
1.0
176
     1
 92
        8
176
     1
 66
     7
176
     1
 43
1.0
176
     1
 76
     1
176
     1
 77
     6
176
     1
 78
     2
176
     1
 67
     7
176
     1
 79
     5
176
     1
170
     0
176
     1
171
     0
176
     1
290
     0
176
     1
 93
        1
176
     1
 44
0.0
176
     1
173
     0
176
     1
  0
VISUALSTYLE
  5
52F
102
{ACAD_REACTORS
330
523
102
}
102
{ACAD_XDICTIONARY
360
56B
102
}
330
523
100
AcDbVisualStyle
  2
Brighten
 70
    12
177
     2
291
     1
 71
     2
176
     1
 72
     2
176
     1
 73
     0
176
     1
 90
        0
176
     1
 40
0.6
176
     1
 41
30.0
176
     1
 62
     5
 63
     7
421
 16777215
176
     1
 74
     1
176
     1
 91
        4
176
     1
 64
     7
176
     1
 65
   257
176
     1
 75
     1
176
     1
175
     1
176
     1
 42
1.0
176
     1
 92
        8
176
     1
 66
     7
176
     1
 43
1.0
176
     1
 76
     1
176
     1
 77
     6
176
     1
 78
     2
176
     1
 67
     7
176
     1
 79
     5
176
     1
170
     0
176
     1
171
     0
176
     1
290
     0
176
     1
 93
        1
176
     1
 44
50.0
176
     1
173
     0
176
     1
  0
VISUALSTYLE
  5
533
102
{ACAD_REACTORS
330
523
102
}
102
{ACAD_XDICTIONARY
360
573
102
}
330
523
100
AcDbVisualStyle
  2
ColorChange
 70
    16
177
     2
291
     1
 71
     2
176
     1
 72
     2
176
     1
 73
     3
176
     1
 90
        0
176
     1
 40
0.6
176
     1
 41
30.0
176
     1
 62
     5
 63
     8
421
  8421504
176
     1
 74
     1
176
     1
 91
        4
176
     1
 64
     7
176
     1
 65
   257
176
     1
 75
     1
176
     1
175
     1
176
     1
 42
1.0
176
     1
 92
        8
176
     1
 66
     8
424
  8421504
176
     1
 43
1.0
176
     1
 76
     1
176
     1
 77
     6
176
     1
 78
     2
176
     1
 67
     7
176
     1
 79
     5
176
     1
170
     0
176
     1
171
     0
176
     1
290
     0
176
     1
 93
        1
176
     1
 44
0.0
176
     1
173
     0
176
     1
  0
VISUALSTYLE
  5
52D
102
{ACAD_REACTORS
330
523
102
}
102
{ACAD_XDICTIONARY
360
567
102
}
330
523
100
AcDbVisualStyle
  2
Conceptual
 70
     9
177
     2
291
     0
 71
     3
176
     1
 72
     2
176
     1
 73
     0
176
     1
 90
        0
176
     1
 40
0.6
176
     1
 41
30.0
176
     1
 62
     5
 63
     7
421
 16777215
176
     1
 74
     2
176
     1
 91
        2
176
     1
 64
     7
176
     1
 65
   257
176
     1
 75
     1
176
     1
175
     1
176
     1
 42
179.0
176
     1
 92
        8
176
     1
 66
     7
176
     1
 43
1.0
176
     1
 76
     1
176
     1
 77
     6
176
     1
 78
     2
176
     1
 67
     7
176
     1
 79
     3
176
     1
170
     0
176
     1
171
     0
176
     1
290
     0
176
     1
 93
        1
176
     1
 44
0.0
176
     1
173
     0
176
     1
  0
VISUALSTYLE
  5
52E
102
{ACAD_REACTORS
330
523
102
}
102
{ACAD_XDICTIONARY
360
569
102
}
330
523
100
AcDbVisualStyle
  2
Dim
 70
    11
177
     2
291
     1
 71
     2
176
     1
 72
     2
176
     1
 73
     0
176
     1
 90
        0
176
     1
 40
0.6
176
     1
 41
30.0
176
     1
 62
     5
 63
     7
421
 16777215
176
     1
 74
     1
176
     1
 91
        4
176
     1
 64
     7
176
     1
 65
   257
176
     1
 75
     1
176
     1
175
     1
176
     1
 42
1.0
176
     1
 92
        8
176
     1
 66
     7
176
     1
 43
1.0
176
     1
 76
     1
176
     1
 77
     6
176
     1
 78
     2
176
     1
 67
     7
176
     1
 79
     5
176
     1
170
     0
176
     1
171
     0
176
     1
290
     0
176
     1
 93
        1
176
     1
 44
-50.0
176
     1
173
     0
176
     1
  0
VISUALSTYLE
  5
536
102
{ACAD_REACTORS
330
523
102
}
102
{ACAD_XDICTIONARY
360
579
102
}
330
523
100
AcDbVisualStyle
  2
EdgeColorOff
 70
    22
177
     2
291
     1
 71
     2
176
     0
 72
     2
176
     0
 73
     0
176
     0
 90
        0
176
     0
 40
0.6
176
     0
 41
30.0
176
     0
 62
     5
 63
     7
421
 16777215
176
     0
 74
     1
176
     0
 91
        4
176
     0
 64
     7
176
     0
 65
   257
176
     0
 75
     1
176
     0
175
     1
176
     0
 42
1.0
176
     0
 92
        8
176
     2
 66
     7
176
     0
 43
1.0
176
     0
 76
     1
176
     0
 77
     6
176
     0
 78
     2
176
     0
 67
     7
176
     0
 79
     5
176
     0
170
     0
176
     0
171
     0
176
     0
290
     0
176
     0
 93
        1
176
     0
 44
0.0
176
     0
173
     0
176
     0
  0
VISUALSTYLE
  5
532
102
{ACAD_REACTORS
330
523
102
}
102
{ACAD_XDICTIONARY
360
571
102
}
330
523
100
AcDbVisualStyle
  2
Facepattern
 70
    15
177
     2
291
     1
 71
     2
176
     1
 72
     2
176
     1
 73
     0
176
     1
 90
        0
176
     1
 40
0.6
176
     1
 41
30.0
176
     1
 62
     5
 63
     7
421
 16777215
176
     1
 74
     1
176
     1
 91
        4
176
     1
 64
     7
176
     1
 65
   257
176
     1
 75
     1
176
     1
175
     1
176
     1
 42
1.0
176
     1
 92
        8
176
     1
 66
     7
176
     1
 43
1.0
176
     1
 76
     1
176
     1
 77
     6
176
     1
 78
     2
176
     1
 67
     7
176
     1
 79
     5
176
     1
170
     0
176
     1
171
     0
176
     1
290
     0
176
     1
 93
        1
176
     1
 44
0.0
176
     1
173
     0
176
     1
  0
VISUALSTYLE
  5
524
102
{ACAD_REACTORS
330
523
102
}
102
{ACAD_XDICTIONARY
360
555
102
}
330
523
100
AcDbVisualStyle
  2
Flat
 70
     0
177
     2
291
     1
 71
     2
176
     1
 72
     1
176
     1
 73
     1
176
     1
 90
        2
176
     1
 40
0.6
176
     1
 41
30.0
176
     1
 62
     5
 63
     7
421
 16777215
176
     1
 74
     0
176
     1
 91
        0
176
     1
 64
     7
176
     1
 65
   257
176
     1
 75
     1
176
     1
175
     1
176
     1
 42
1.0
176
     1
 92
        8
176
     1
 66
     7
176
     1
 43
1.0
176
     1
 76
     1
176
     1
 77
     6
176
     1
 78
     2
176
     1
 67
     7
176
     1
 79
     5
176
     1
170
     0
176
     1
171
     0
176
     1
290
     0
176
     1
 93
       13
176
     1
 44
0.0
176
     1
173
     0
176
     1
  0
VISUALSTYLE
  5
525
102
{ACAD_REACTORS
330
523
102
}
102
{ACAD_XDICTIONARY
360
557
102
}
330
523
100
AcDbVisualStyle
  2
FlatWithEdges
 70
     1
177
     2
291
     1
 71
     2
176
     1
 72
     1
176
     1
 73
     1
176
     1
 90
        2
176
     1
 40
0.6
176
     1
 41
30.0
176
     1
 62
     5
 63
     7
421
 16777215
176
     1
 74
     1
176
     1
 91
        0
176
     1
 64
     7
176
     1
 65
   257
176
     1
 75
     1
176
     1
175
     1
176
     1
 42
1.0
176
     1
 92
        0
176
     1
 66
   257
176
     1
 43
1.0
176
     1
 76
     1
176
     1
 77
     6
176
     1
 78
     2
176
     1
 67
     7
176
     1
 79
     5
176
     1
170
     0
176
     1
171
     0
176
     1
290
     0
176
     1
 93
       13
176
     1
 44
0.0
176
     1
173
     0
176
     1
  0
VISUALSTYLE
  5
526
102
{ACAD_REACTORS
330
523
102
}
102
{ACAD_XDICTIONARY
360
559
102
}
330
523
100
AcDbVisualStyle
  2
Gouraud
 70
     2
177
     2
291
     1
 71
     2
176
     1
 72
     2
176
     1
 73
     1
176
     1
 90
        2
176
     1
 40
0.6
176
     1
 41
30.0
176
     1
 62
     5
 63
     7
421
 16777215
176
     1
 74
     0
176
     1
 91
        0
176
     1
 64
     7
176
     1
 65
   257
176
     1
 75
     1
176
     1
175
     1
176
     1
 42
1.0
176
     1
 92
        0
176
     1
 66
     7
176
     1
 43
1.0
176
     1
 76
     1
176
     1
 77
     6
176
     1
 78
     2
176
     1
 67
     7
176
     1
 79
     5
176
     1
170
     0
176
     1
171
     0
176
     1
290
     0
176
     1
 93
       13
176
     1
 44
0.0
176
     1
173
     0
176
     1
  0
VISUALSTYLE
  5
527
102
{ACAD_REACTORS
330
523
102
}
102
{ACAD_XDICTIONARY
360
55B
102
}
330
523
100
AcDbVisualStyle
  2
GouraudWithEdges
 70
     3
177
     2
291
     1
 71
     2
176
     1
 72
     2
176
     1
 73
     1
176
     1
 90
        2
176
     1
 40
0.6
176
     1
 41
30.0
176
     1
 62
     5
 63
     7
421
 16777215
176
     1
 74
     1
176
     1
 91
        0
176
     1
 64
     7
176
     1
 65
   257
176
     1
 75
     1
176
     1
175
     1
176
     1
 42
1.0
176
     1
 92
        0
176
     1
 66
   257
176
     1
 43
1.0
176
     1
 76
     1
176
     1
 77
     6
176
     1
 78
     2
176
     1
 67
     7
176
     1
 79
     5
176
     1
170
     0
176
     1
171
     0
176
     1
290
     0
176
     1
 93
       13
176
     1
 44
0.0
176
     1
173
     0
176
     1
  0
VISUALSTYLE
  5
52A
102
{ACAD_REACTORS
330
523
102
}
102
{ACAD_XDICTIONARY
360
561
102
}
330
523
100
AcDbVisualStyle
  2
Hidden
 70
     6
177
     2
291
     0
 71
     1
176
     1
 72
     2
176
     1
 73
     2
176
     1
 90
        0
176
     1
 40
0.6
176
     1
 41
30.0
176
     1
 62
     5
 63
     7
421
 16777215
176
     1
 74
     2
176
     1
 91
        2
176
     1
 64
     7
176
     1
 65
   257
176
     1
 75
     2
176
     1
175
     1
176
     1
 42
40.0
176
     1
 92
        0
176
     1
 66
   257
176
     1
 43
1.0
176
     1
 76
     1
176
     1
 77
     6
176
     1
 78
     2
176
     1
 67
     7
176
     1
 79
     3
176
     1
170
     0
176
     1
171
     0
176
     1
290
     0
176
     1
 93
        1
176
     1
 44
0.0
176
     1
173
     0
176
     1
  0
VISUALSTYLE
  5
534
102
{ACAD_REACTORS
330
523
102
}
102
{ACAD_XDICTIONARY
360
575
102
}
330
523
100
AcDbVisualStyle
  2
JitterOff
 70
    20
177
     2
291
     1
 71
     2
176
     0
 72
     2
176
     0
 73
     0
176
     0
 90
        0
176
     0
 40
0.6
176
     0
 41
30.0
176
     0
 62
     5
 63
     7
421
 16777215
176
     0
 74
     1
176
     0
 91
        4
176
     0
 64
     7
176
     0
 65
   257
176
     0
 75
     1
176
     0
175
     1
176
     0
 42
1.0
176
     0
 92
       10
176
     2
 66
     7
176
     0
 43
1.0
176
     0
 76
     1
176
     0
 77
     6
176
     0
 78
     2
176
     0
 67
     7
176
     0
 79
     5
176
     0
170
     0
176
     0
171
     0
176
     0
290
     0
176
     0
 93
        1
176
     0
 44
0.0
176
     0
173
     0
176
     0
  0
VISUALSTYLE
  5
531
102
{ACAD_REACTORS
330
523
102
}
102
{ACAD_XDICTIONARY
360
56F
102
}
330
523
100
AcDbVisualStyle
  2
Linepattern
 70
    14
177
     2
291
     1
 71
     2
176
     1
 72
     2
176
     1
 73
     0
176
     1
 90
        0
176
     1
 40
0.6
176
     1
 41
30.0
176
     1
 62
     5
 63
     7
421
 16777215
176
     1
 74
     1
176
     1
 91
        4
176
     1
 64
     7
176
     1
 65
   257
176
     1
 75
     7
176
     1
175
     7
176
     1
 42
1.0
176
     1
 92
        8
176
     1
 66
     7
176
     1
 43
1.0
176
     1
 76
     1
176
     1
 77
     6
176
     1
 78
     2
176
     1
 67
     7
176
     1
 79
     5
176
     1
170
     0
176
     1
171
     0
176
     1
290
     0
176
     1
 93
        1
176
     1
 44
0.0
176
     1
173
     0
176
     1
  0
VISUALSTYLE
  5
535
102
{ACAD_REACTORS
330
523
102
}
102
{ACAD_XDICTIONARY
360
577
102
}
330
523
100
AcDbVisualStyle
  2
OverhangOff
 70
    21
177
     2
291
     1
 71
     2
176
     0
 72
     2
176
     0
 73
     0
176
     0
 90
        0
176
     0
 40
0.6
176
     0
 41
30.0
176
     0
 62
     5
 63
     7
421
 16777215
176
     0
 74
     1
176
     0
 91
        4
176
     0
 64
     7
176
     0
 65
   257
176
     0
 75
     1
176
     0
175
     1
176
     0
 42
1.0
176
     0
 92
        9
176
     2
 66
     7
176
     0
 43
1.0
176
     0
 76
     1
176
     0
 77
     6
176
     0
 78
     2
176
     0
 67
     7
176
     0
 79
     5
176
     0
170
     0
176
     0
171
     0
176
     0
290
     0
176
     0
 93
        1
176
     0
 44
0.0
176
     0
173
     0
176
     0
  0
VISUALSTYLE
  5
52C
102
{ACAD_REACTORS
330
523
102
}
102
{ACAD_XDICTIONARY
360
565
102
}
330
523
100
AcDbVisualStyle
  2
Realistic
 70
     8
177
     2
291
     0
 71
     2
176
     1
 72
     3
176
     1
 73
     0
176
     1
 90
        2
176
     1
 40
0.6
176
     1
 41
30.0
176
     1
 62
     5
 63
     7
421
 16777215
176
     1
 74
     0
176
     1
 91
        0
176
     1
 64
     7
176
     1
 65
   257
176
     1
 75
     1
176
     1
175
     1
176
     1
 42
1.0
176
     1
 92
        8
176
     1
 66
   257
176
     1
 43
1.0
176
     1
 76
     1
176
     1
 77
     6
176
     1
 78
     2
176
     1
 67
     7
176
     1
 79
     3
176
     1
170
     0
176
     1
171
     0
176
     1
290
     0
176
     1
 93
       13
176
     1
 44
0.0
176
     1
173
     0
176
     1
  0
VISUALSTYLE
  5
53B
102
{ACAD_REACTORS
330
523
102
}
102
{ACAD_XDICTIONARY
360
583
102
}
330
523
100
AcDbVisualStyle
  2
Shaded
 70
    27
177
     2
291
     0
 71
     2
176
     1
 72
     2
176
     1
 73
     1
176
     1
 90
        2
176
     1
 40
0.6
176
     1
 41
30.0
176
     1
 62
     5
 63
     7
421
 16777215
176
     1
 74
     0
176
     1
 91
        4
176
     1
 64
     7
176
     1
 65
   257
176
     1
 75
     1
176
     1
175
     1
176
     1
 42
1.0
176
     1
 92
        8
176
     1
 66
   257
176
     1
 43
1.0
176
     1
 76
     1
176
     1
 77
     6
176
     1
 78
     2
176
     1
 67
     8
425
  7895160
176
     1
 79
     3
176
     1
170
     0
176
     1
171
     0
176
     1
290
     0
176
     1
 93
        5
176
     1
 44
0.0
176
     1
173
     0
176
     1
  0
VISUALSTYLE
  5
53A
102
{ACAD_REACTORS
330
523
102
}
102
{ACAD_XDICTIONARY
360
581
102
}
330
523
100
AcDbVisualStyle
  2
Shaded with edges
 70
    26
177
     2
291
     0
 71
     2
176
     1
 72
     2
176
     1
 73
     1
176
     1
 90
        2
176
     1
 40
0.6
176
     1
 41
30.0
176
     1
 62
     5
 63
     7
421
 16777215
176
     1
 74
     1
176
     1
 91
       10
176
     1
 64
     7
176
     1
 65
   257
176
     1
 75
     2
176
     1
175
     1
176
     1
 42
1.0
176
     1
 92
        8
176
     1
 66
   257
176
     1
 43
1.0
176
     1
 76
     1
176
     1
 77
     6
176
     1
 78
     2
176
     1
 67
     7
176
     1
 79
     3
176
     1
170
     0
176
     1
171
     0
176
     1
290
     0
176
     1
 93
        5
176
     1
 44
0.0
176
     1
173
     0
176
     1
  0
VISUALSTYLE
  5
537
102
{ACAD_REACTORS
330
523
102
}
102
{ACAD_XDICTIONARY
360
57B
102
}
330
523
100
AcDbVisualStyle
  2
Shades of Gray
 70
    23
177
     2
291
     0
 71
     2
176
     1
 72
     2
176
     1
 73
     3
176
     1
 90
        0
176
     1
 40
0.6
176
     1
 41
30.0
176
     1
 62
     5
 63
     7
421
 16777215
176
     1
 74
     2
176
     1
 91
        2
176
     1
 64
     7
176
     1
 65
     7
176
     1
 75
     1
176
     1
175
     1
176
     1
 42
40.0
176
     1
 92
        8
176
     1
 66
     7
176
     1
 43
1.0
176
     1
 76
     1
176
     1
 77
     6
176
     1
 78
     2
176
     1
 67
     7
176
     1
 79
     3
176
     1
170
     0
176
     1
171
     0
176
     1
290
     0
176
     1
 93
        1
176
     1
 44
0.0
176
     1
173
     0
176
     1
  0
VISUALSTYLE
  5
538
102
{ACAD_REACTORS
330
523
102
}
102
{ACAD_XDICTIONARY
360
57D
102
}
330
523
100
AcDbVisualStyle
  2
Sketchy
 70
    24
177
     2
291
     0
 71
     1
176
     1
 72
     2
176
     1
 73
     2
176
     1
 90
        0
176
     1
 40
0.6
176
     1
 41
30.0
176
     1
 62
     5
 63
     7
421
 16777215
176
     1
 74
     2
176
     1
 91
        2
176
     1
 64
     7
176
     1
 65
     7
176
     1
 75
     1
176
     1
175
     1
176
     1
 42
40.0
176
     1
 92
       11
176
     1
 66
     7
176
     1
 43
1.0
176
     1
 76
     1
176
     1
 77
     6
176
     1
 78
     2
176
     1
 67
     7
176
     1
 79
     6
176
     1
170
     0
176
     1
171
     0
176
     1
290
     0
176
     1
 93
        1
176
     1
 44
0.0
176
     1
173
     0
176
     1
  0
VISUALSTYLE
  5
530
102
{ACAD_REACTORS
330
523
102
}
102
{ACAD_XDICTIONARY
360
56D
102
}
330
523
100
AcDbVisualStyle
  2
Thicken
 70
    13
177
     2
291
     1
 71
     2
176
     1
 72
     2
176
     1
 73
     0
176
     1
 90
        0
176
     1
 40
0.6
176
     1
 41
30.0
176
     1
 62
     5
 63
     7
421
 16777215
176
     1
 74
     1
176
     1
 91
        4
176
     1
 64
     7
176
     1
 65
   257
176
     1
 75
     1
176
     1
175
     1
176
     1
 42
1.0
176
     1
 92
       12
176
     1
 66
     7
176
     1
 43
1.0
176
     1
 76
     1
176
     1
 77
     6
176
     1
 78
     2
176
     1
 67
     7
176
     1
 79
     5
176
     1
170
     0
176
     1
171
     0
176
     1
290
     0
176
     1
 93
        1
176
     1
 44
0.0
176
     1
173
     0
176
     1
  0
VISUALSTYLE
  5
529
102
{ACAD_REACTORS
330
523
102
}
102
{ACAD_XDICTIONARY
360
55F
102
}
330
523
100
AcDbVisualStyle
  2
Wireframe
 70
     5
177
     2
291
     0
 71
     0
176
     1
 72
     2
176
     1
 73
     0
176
     1
 90
        0
176
     1
 40
0.6
176
     1
 41
30.0
176
     1
 62
     5
 63
     7
421
 16777215
176
     1
 74
     1
176
     1
 91
        4
176
     1
 64
     7
176
     1
 65
   257
176
     1
 75
     1
176
     1
175
     1
176
     1
 42
1.0
176
     1
 92
        0
176
     1
 66
   257
176
     1
 43
1.0
176
     1
 76
     1
176
     1
 77
     6
176
     1
 78
     2
176
     1
 67
     7
176
     1
 79
     3
176
     1
170
     0
176
     1
171
     0
176
     1
290
     0
176
     1
 93
        1
176
     1
 44
0.0
176
     1
173
     0
176
     1
  0
VISUALSTYLE
  5
539
102
{ACAD_REACTORS
330
523
102
}
102
{ACAD_XDICTIONARY
360
57F
102
}
330
523
100
AcDbVisualStyle
  2
X-Ray
 70
    25
177
     2
291
     0
 71
     2
176
     1
 72
     2
176
     1
 73
     1
176
     1
 90
        1
176
     1
 40
0.5
176
     1
 41
30.0
176
     1
 62
     5
 63
     7
421
 16777215
176
     1
 74
     1
176
     1
 91
        0
176
     1
 64
     7
176
     1
 65
   257
176
     1
 75
     1
176
     1
175
     1
176
     1
 42
1.0
176
     1
 92
        8
176
     1
 66
     7
176
     1
 43
1.0
176
     1
 76
     1
176
     1
 77
     6
176
     1
 78
     2
176
     1
 67
     7
176
     1
 79
     3
176
     1
170
     0
176
     1
171
     0
176
     1
290
     0
176
     1
 93
       13
176
     1
 44
0.0
176
     1
173
     0
176
     1
  0
DICTIONARYVAR
  5
552
102
{ACAD_REACTORS
330
551
102
}
330
551
100
DictionaryVariables
280
     0
  1
1:1
  0
DICTIONARYVAR
  5
586
102
{ACAD_REACTORS
330
551
102
}
330
551
100
DictionaryVariables
280
     0
  1
Standard
  0
CSACDOCUMENTOPTIONS
  5
547
102
{ACAD_REACTORS
330
546
102
}
330
546
  0
XRECORD
  5
54B
102
{ACAD_REACTORS
330
542
102
}
330
542
100
AcDbXrecord
280
     1
300
MC_VERSION_DATA
 90
       95
310
0600000002000000570000001C000000E404000000000000000000007801936764E5D8CF7A8393818115C460606066E0646662626666706006F214793899F8DE3171E725E6E53B3BBA2878E6951050AF75FEFFFFFF520032DE0F3057000000
  0
XRECORD
  5
543
102
{ACAD_REACTORS
330
542
102
}
330
542
100
AcDbXrecord
280
     1
300
MCS_DOCUMENT_ID
 90
       60
310
0600000002000000150000001C000000E404000000000000000000007801E355315C32B963619DCB169E0F33D3BA8D73FE03010065210B5A15000000
  0
XRECORD
  5
549
102
{ACAD_REACTORS
330
542
102
}
330
542
100
AcDbXrecord
280
     1
300
MCS_PARAMS_DATA
 90
     3313
310
0600000002000000F64B00001C000000E404000000000000000000007801C55C5B905C45199EE99EBDCCE67E5DA218172C303B91307B4B8C459531245054850D55591F78B236BB49B9BAC9E6B22A082A9655BE5865596569A965F9209288CF16503EC8834088C10B092404211702988430422E9084CDAEFFD7A7FBF4DFA7CF
310
D9D99D9D39930798FF3F7DCEF7DFFAFBBBFBCC6CDBFC46297252EECB48F9CDF5ED5234493921A5206D76815820B252E4F3225F128D7D5F59BF69E3162948D9A2D485B3131313747328BF06593E960915079422437734AA3BDAA5CCD053F5ED4FD2557D257BAB94DF007A03479F859BB2B22193C9108EC1CDCADC0464C27506
310
28605703E48886E0B986E10F03BF91E33707F8E3140E7A9091C8268236920C1C662240B94888A1C8E07600AE99C32D5131CA8B3925D172EFE62D7D6D9DABBA8ADDD6F17CE16D13F0457AE8AC9268DE32DABF73B07FCFA013F9BF8491D7C17E2550D8E8FFCA8DFE4E98B3929B331718B291824FFF72EB941D9E8E2211D5A93C
310
784A44C557923911258BD0C8640531AEEC61A924855B11378280384364A422680C0A928DB9C10CD89D581114199665B722B26E4590C82B0222AB08FAA8A60626C028E0044F81BA246F5360E167F2D27C56A10E05C058C13C59DEC6207679103AFC5DEADF992F2B284F67B31C8EE359B64A9665A62453228F64269D98455E3B
310
A4B35817F7EC92C86FB8EFFE8DBD5BEEDBDCAB0CD3B5FC8E99065A7E55D536E39DE7826237F1C8BBBCB3CFADFC93302087C80397EE69C2FF69CA32234F0763E41851010DA578E8294D435524988818E84710A7B2643B4F7C034F6CE5C9368F203BE8094C6268541D70D35EE4B585DAE170F4942EB8D2D422560A9917F34B62
310
CE86919D9F1F6DDBB36DD770FFC0B6BC682E898607BEB5737424F8D83B323AF07529CFC0B69BB96D9FD3CFF9B410ED79B1A42416161FEA29AEEDEEEC5ADF532C76DEF3C5AEEEB5CAECF97A60330D2C1C3579EAD0DA7621F20269BD6768746FDBF0D0DE51F3B0EE356B3ABBD6F474F7740D76770EACED08FCFC92BEAF13F701
310
B5AF7FEBF0B6B691ED6D7D23C3DBF6F4EF840FDA9AD583C58E81E240FFEAADDD5BD70EAC0E669D2A25F27FB610851F9335859F059541B9E5971EC7A5A7E83F2CE53DB9A4040555A2661A4DDBF2C560B2E54E7D5483931EF871F7C88E5DFDA3435B878687461F6EDB313248FE3596847C70DBDEBC682809D13B22E56A5856E4
310
E9998738519B6E2A89DCE6EDDBDB542AF4E4380F8F61A4965F57116093E5A052A06AF588670205D9A715FB49B140D81A90855F902680EBB8B3A3187EEA96F2B224E392BAF898328CB1AD47DA34C1601A1B421AD816D190715CC3F276A5DE067C546F03AED6DB808FEB6DC0B57A1BB00853B49EB3E0937A47E07ABD0D188301
310
71CB797197D3603B1D06BFCB6DB024827C0C834324E60945463B3712E196397079076E990B47228783C8E09631B8F129C211385B3E540C97413DC70673C524DEAD70BD23917B079179B782793791AE77D944EFDCDC5529988B13E1069D6092C472A7F777A6F648E4C184C88239C8822913E16AE29D48176E29E0727C316496
310
EF2A967C95165E504B0C2B218EEE82DD5C63513CD614C5091F6D6FA7551865CC5C5030A1E0A3E84BEC86CFD04EC5DD01AA74CBDB05AB8C403295A124BB2908C4B032B4682A032283FB103E391B4E03172C7199C4E0F88E871E8855ADA1482D3238FA1846E0B807A77785BFF935FE1D74369F5647D0D171CA5F4F09337C2559
310
105132935A503D6DBC7A94B54D2B6DF1E0339960F436A97441791E5EC104D40283580888C4FDED577B1FD8B4B9AF6FE30605D8AAD7F1F34A62F6DD5BBEC62E92057A31FEA25A9DB3F5FBD3C1729D9CD723B0BF0DE8402BB05A67160DDE4416E59079C0D9EAA575B7321F67115FC018C76AB5B3A33D06B68CBD9BFBDC93C073
310
800CC384FD360C544F539B6F02B1820953BE9D01DE01C0D85A6C50369A5AC4065C7760793B965800321749E4B50891C0C2AB0CAE9808178444974C70F875952A9381563C01BE9D08EAFA481283ABD8C7EF7870DAABE068E68833DFAC8EA0A3E3F87C0B07AA507B2311F0889285BDC333294C4E2DB27C67BA70ABD2857B688A
310
70552AA7873DB8489E55063D5D2DCBE9BB9E49F1E554A5083C922EDCA3E9C27D2F5DB8EF7B705EE9D87E1E920E88313AAE6AECF4FBD668D3D30DB4E51ADA9BEDB0D7AFCEB4DDED85F7C4ECF6551B3BCE2AFF6E835E49458EC94883D6E73C45753FAE614C3C0A0362777435D915EC025C33F7578776011DE6F3D066954C59D6
310
D76F86AC9CD58A53F4122CF0552BAE070AEA3B5AF15752304F1F47569D50AB71F41A31FA5A51C904CD43C6B0F51D2ACEFC112ACC4CC1B0FF086CE7AD5A4D096A005126387AAD451EE384D9C035A925859E39C1AA865EE9A9B8DA21CEE289167F7CF1D4C4BC7A125EC5AED5D8BB0B5A9D9144D134CFA71BF85A8D44BE568348
310
F6AA55A2F3CAEA4F6982FD21118CC249D3CBF852A586F244BA70FBD285DB9F085793EDE56E143F0AD06C6B4CB2242BDD3DD1419166C2865E81F9CE1648F3CBD84597B22E28992A3DDCE24C77F3F311A01C8A722828EC3CF15F7D987933F818F8E59BC138E5CD4CE8AC24C94E68BA32F5C3CBAB808B6B06B9936E642F9F804C
310
903AF2F3709D37832318A078E4B37AEBDCFAA66859945B9EBB25776BAE2DD3995995E9CA1433DDFA4DAC7ECE6FE93696E96BB06712968ED2661884A9EE40230F60D0D73DE8C858453B9E8E4212D5A9B0784A762662599FEDD18C9299F4094C728A91F536658E91CDA6DFC8E89F363B15B4CB31404FD2581CF722BBF229B517
310
430944E56AB2E2A8E3461950730F2B7ECA7BC570E389706E8BA9D241C744225C40C29385944F707279EA277D998065D9EAD604B1263E66D38513E9C2490F4EE7CC6E8AA89C3D9DA588701CA708AB6414C194931EE3FC0D4515D71A4FBFE712F8CB4A26532A6E8DCF01CA61A3745BE3F3C09F6E6B442F0CD7BAD36A8D2F002E
310
AE359E3BE646F6B8926D6BBC0CD9926FBEF08C5220B9BAE91D0E14769FF44B52301E3C00E8FA74C117BD24F396E22C7F1005F2DA2902EB76053DE720B0D3EE397F2F036AE8B24A3DE750225C4DF8F8A544B81AF69C7F2482D6C4C77F067093EF36FE359541FF8E0E8A50399BA22F63681CEF0EBDEBB2C3834A9E09EF1E0654
310
1D79F708F0A7CBBB956F495E015C1CEFEE3EEC46B65FC996771F856C09285F58A7148C77872F6104D6DC9A8897D30896D457015D1FDE3DEA25B91CEFF2EBD6EB0A68F718A0D3A6DDD7CA805699768F27C2D584925E4F84AB9476A39B03E744D09CD6610FF59F44E89A78FA46BA70DDDE0ADC144A4DBCEBF1E0221D416DC23D
310
1D715254A766A8A7AC60C1FF26021ED7783E889CD89C52F24C1ACF0940D5B1F19C047E7A8DE714E0E21ACFD5436EE339AB64DB78E44B91C6730003ECCB897CE1D28548E3798246B0C6731AD0536D3CB3E90740046E0B5FD5161351555C247A084506FA9607AAEBD39C44F1E2B63A5BDCA18E17B755B2E2664A322602C34C3A
310
0393625B51C09BC60D77315EF1E1C8DB80730A9C37D5B8CD0EBF3EA3A6FB4EA2A7C18B1B2746D53A5F7BB70C687C78291FE10E3A386EE3054657F9CB297E9CF703B0E71DFC4DA3397B4068C3CF33A1A81F02C2C920DB8E7ABF712005813923946BAE06DE453454B45CC32AF6311810C751E3F85A979E7874424F9299B34AB2
310
210DC430A45A3473162283FB2F3218C7FE178FBB1CF59692CDAD957C0DECAC3739580882F7E26636C4FC0874E66F42CE013F2EB274A4C323CBB88082C5B980AE4CFD4DC879C0C5B1FFF5E7DDC89E57324556799F2F34BC006EC70CD18A8318C0D9FF0AB6807CDBB19F46B0A4BE07E8B4D9FF8207EA504E3D7E65FA3E4C7226
310
B329B0E8D703AAFEBAA304E869379E693123CD68457958A4FF2F11AE86ECFF4119D078F6E7138AD87FF2370F86D6E1E38789702D76FED2134932CCA824CB8C811832A3160D33426421BD980847AF6F0C11D33DEECB1CFE9B7175D1F926045DE5BD8DBFBDBE94081764D0049324E6DDB40A8607F372225C4D16463974B5B836
310
F393232E193EA2E499B49986C93A780A6DA631A981D7A6CD34012EAECDFCFC5937B23F52B26D33BF83CCDBCC56A5C0ECD07DE7A7A7226D661D8D6033A419D0536D33E07F56B8C4CA7C0D48229F9610695A461A0883CE7B494E8DD95B004DF38E8247AB09FE45AC1A52EDAC32A0861DD8DA85D8A76276989D08579353913989
310
700119397510D9BB4CAB9DF096393711B4263ECE4B176E7EBA700B3C389DB3F0B5335AA6A7234288EA142D784A9083AFB414616018456CF24C3293C4CD2F49D3E5A5F0410CEE7E0F2E6A6FEA11580893E29AEE529C2FC11C4DF48D4AA628982DB44A422820F8563073C8F989CF2240392BED74F7768B819FDEDE6E09E0E29A
310
EE72FA030B3CB273954C91D5916E87CC9BEEFB4FAB1E6B73B10CFB6CBEB73B4423589D2D05F4CC9AAE2E4C768646F0614DBB4BD40606DDEA2539B5A67B13A0D36EBACBCA809A9055A7E9E24B8E0D79912B896C91FE0C1655C17843E129FA335B3277F4E8510807513CB9CC44868E210AF7FE19028691B0917E39482B125CF8
310
D4FF01F0B312DAF64B0000
  0
TABLECONTENT
  5
54D
330
550
100
AcDbLinkedData
  1

300

100
AcDbLinkedTableData
 90
        5
300
COLUMN
  1
LINKEDTABLEDATACOLUMN_BEGIN
300

 91
        0
301
CUSTOMDATA
  1
DATAMAP_BEGIN
 90
        0
309
DATAMAP_END
309
LINKEDTABLEDATACOLUMN_END
  1
FORMATTEDTABLEDATACOLUMN_BEGIN
300
COLUMNTABLEFORMAT
  1
TABLEFORMAT_BEGIN
 90
        3
170
     0
309
TABLEFORMAT_END
309
FORMATTEDTABLEDATACOLUMN_END
  1
TABLECOLUMN_BEGIN
 90
        0
 40
10.0
309
TABLECOLUMN_END
300
COLUMN
  1
LINKEDTABLEDATACOLUMN_BEGIN
300

 91
        0
301
CUSTOMDATA
  1
DATAMAP_BEGIN
 90
        0
309
DATAMAP_END
309
LINKEDTABLEDATACOLUMN_END
  1
FORMATTEDTABLEDATACOLUMN_BEGIN
300
COLUMNTABLEFORMAT
  1
TABLEFORMAT_BEGIN
 90
        3
170
     0
309
TABLEFORMAT_END
309
FORMATTEDTABLEDATACOLUMN_END
  1
TABLECOLUMN_BEGIN
 90
        0
 40
10.0
309
TABLECOLUMN_END
300
COLUMN
  1
LINKEDTABLEDATACOLUMN_BEGIN
300

 91
        0
301
CUSTOMDATA
  1
DATAMAP_BEGIN
 90
        0
309
DATAMAP_END
309
LINKEDTABLEDATACOLUMN_END
  1
FORMATTEDTABLEDATACOLUMN_BEGIN
300
COLUMNTABLEFORMAT
  1
TABLEFORMAT_BEGIN
 90
        3
170
     0
309
TABLEFORMAT_END
309
FORMATTEDTABLEDATACOLUMN_END
  1
TABLECOLUMN_BEGIN
 90
        0
 40
10.0
309
TABLECOLUMN_END
300
COLUMN
  1
LINKEDTABLEDATACOLUMN_BEGIN
300

 91
        0
301
CUSTOMDATA
  1
DATAMAP_BEGIN
 90
        0
309
DATAMAP_END
309
LINKEDTABLEDATACOLUMN_END
  1
FORMATTEDTABLEDATACOLUMN_BEGIN
300
COLUMNTABLEFORMAT
  1
TABLEFORMAT_BEGIN
 90
        3
170
     0
309
TABLEFORMAT_END
309
FORMATTEDTABLEDATACOLUMN_END
  1
TABLECOLUMN_BEGIN
 90
        0
 40
40.0
309
TABLECOLUMN_END
300
COLUMN
  1
LINKEDTABLEDATACOLUMN_BEGIN
300

 91
        0
301
CUSTOMDATA
  1
DATAMAP_BEGIN
 90
        0
309
DATAMAP_END
309
LINKEDTABLEDATACOLUMN_END
  1
FORMATTEDTABLEDATACOLUMN_BEGIN
300
COLUMNTABLEFORMAT
  1
TABLEFORMAT_BEGIN
 90
        3
170
     0
309
TABLEFORMAT_END
309
FORMATTEDTABLEDATACOLUMN_END
  1
TABLECOLUMN_BEGIN
 90
        0
 40
20.0
309
TABLECOLUMN_END
 91
        5
301
ROW
  1
LINKEDTABLEDATAROW_BEGIN
 90
        5
300
CELL
  1
LINKEDTABLEDATACELL_BEGIN
 90
        0
300

 91
        0
301
CUSTOMDATA
  1
DATAMAP_BEGIN
 90
        1
300
ACAD_ROUNDTRIP_2008_CELL_CHECKSUM
301
DATAMAP_VALUE
 93
        2
 90
        2
140
32.0
 94
        0
300

302

304
ACVALUE_END
309
DATAMAP_END
 92
        0
 95
        1
302
CONTENT
  1
CELLCONTENT_BEGIN
 90
        1
300
VALUE
 93
        2
 90
        4
  1
 
 94
        0
300

302
 
304
ACVALUE_END
 91
        0
309
CELLCONTENT_END
  1
FORMATTEDCELLCONTENT_BEGIN
170
     1
300
CONTENTFORMAT
  1
CONTENTFORMAT_BEGIN
 90
      132
 91
        0
 92
      512
 93
        0
300

 40
0.0
140
1.0
 94
        1
 62
     0
340
0
144
3.5
309
CONTENTFORMAT_END
309
FORMATTEDCELLCONTENT_END
309
LINKEDTABLEDATACELL_END
  1
FORMATTEDTABLEDATACELL_BEGIN
300
CELLTABLEFORMAT
  1
TABLEFORMAT_BEGIN
 90
        1
170
     1
 91
        0
 92
        0
 62
   257
 93
        1
300
CONTENTFORMAT
  1
CONTENTFORMAT_BEGIN
 90
        0
 91
        0
 92
      512
 93
        0
300

 40
0.0
140
1.0
 94
        1
 62
     0
340
0
144
0.18
309
CONTENTFORMAT_END
171
     0
 94
        0
309
TABLEFORMAT_END
309
FORMATTEDTABLEDATACELL_END
  1
TABLECELL_BEGIN
 90
        0
 91
        0
309
TABLECELL_END
300
CELL
  1
LINKEDTABLEDATACELL_BEGIN
 90
        0
300

 91
        0
301
CUSTOMDATA
  1
DATAMAP_BEGIN
 90
        0
309
DATAMAP_END
 92
        0
 95
        0
309
LINKEDTABLEDATACELL_END
  1
FORMATTEDTABLEDATACELL_BEGIN
300
CELLTABLEFORMAT
  1
TABLEFORMAT_BEGIN
 90
        1
170
     1
 91
        0
 92
        0
 62
   257
 93
        1
300
CONTENTFORMAT
  1
CONTENTFORMAT_BEGIN
 90
        0
 91
        0
 92
      512
 93
        0
300

 40
0.0
140
1.0
 94
        1
 62
     0
340
0
144
0.18
309
CONTENTFORMAT_END
171
     0
 94
        0
309
TABLEFORMAT_END
309
FORMATTEDTABLEDATACELL_END
  1
TABLECELL_BEGIN
 90
        0
 91
        0
309
TABLECELL_END
300
CELL
  1
LINKEDTABLEDATACELL_BEGIN
 90
        0
300

 91
        0
301
CUSTOMDATA
  1
DATAMAP_BEGIN
 90
        0
309
DATAMAP_END
 92
        0
 95
        0
309
LINKEDTABLEDATACELL_END
  1
FORMATTEDTABLEDATACELL_BEGIN
300
CELLTABLEFORMAT
  1
TABLEFORMAT_BEGIN
 90
        1
170
     1
 91
        0
 92
        0
 62
   257
 93
        1
300
CONTENTFORMAT
  1
CONTENTFORMAT_BEGIN
 90
        0
 91
        0
 92
      512
 93
        0
300

 40
0.0
140
1.0
 94
        1
 62
     0
340
0
144
0.18
309
CONTENTFORMAT_END
171
     0
 94
        0
309
TABLEFORMAT_END
309
FORMATTEDTABLEDATACELL_END
  1
TABLECELL_BEGIN
 90
        0
 91
        0
309
TABLECELL_END
300
CELL
  1
LINKEDTABLEDATACELL_BEGIN
 90
        0
300

 91
        0
301
CUSTOMDATA
  1
DATAMAP_BEGIN
 90
        1
300
ACAD_ROUNDTRIP_2008_CELL_CHECKSUM
301
DATAMAP_VALUE
 93
        2
 90
        2
140
3418.0
 94
        0
300

302

304
ACVALUE_END
309
DATAMAP_END
 92
        0
 95
        1
302
CONTENT
  1
CELLCONTENT_BEGIN
 90
        1
300
VALUE
 93
        2
 90
        4
  1
A172_C_402
 94
        0
300

302
A172_C_402
304
ACVALUE_END
 91
        0
309
CELLCONTENT_END
  1
FORMATTEDCELLCONTENT_BEGIN
170
     1
300
CONTENTFORMAT
  1
CONTENTFORMAT_BEGIN
 90
      132
 91
        0
 92
      512
 93
        0
300

 40
0.0
140
1.0
 94
        1
 62
     0
340
0
144
3.0
309
CONTENTFORMAT_END
309
FORMATTEDCELLCONTENT_END
309
LINKEDTABLEDATACELL_END
  1
FORMATTEDTABLEDATACELL_BEGIN
300
CELLTABLEFORMAT
  1
TABLEFORMAT_BEGIN
 90
        1
170
     1
 91
       16
 92
        0
 62
   257
 93
        1
300
CONTENTFORMAT
  1
CONTENTFORMAT_BEGIN
 90
       16
 91
        0
 92
      512
 93
        0
300

 40
0.0
140
1.0
 94
        4
 62
     0
340
0
144
0.18
309
CONTENTFORMAT_END
171
     0
 94
        4
 95
        1
302
GRIDFORMAT
  1
GRIDFORMAT_BEGIN
 90
       26
 91
        1
 62
     0
 92
       -2
340
0
 93
        0
 40
0.045
309
GRIDFORMAT_END
 95
        4
302
GRIDFORMAT
  1
GRIDFORMAT_BEGIN
 90
       26
 91
        1
 62
     0
 92
       -2
340
0
 93
        0
 40
0.045
309
GRIDFORMAT_END
 95
        8
302
GRIDFORMAT
  1
GRIDFORMAT_BEGIN
 90
       26
 91
        1
 62
     0
 92
       -2
340
0
 93
        0
 40
0.045
309
GRIDFORMAT_END
 95
       32
302
GRIDFORMAT
  1
GRIDFORMAT_BEGIN
 90
       26
 91
        1
 62
     0
 92
       -2
340
0
 93
        0
 40
0.045
309
GRIDFORMAT_END
309
TABLEFORMAT_END
309
FORMATTEDTABLEDATACELL_END
  1
TABLECELL_BEGIN
 90
        0
 91
        0
309
TABLECELL_END
300
CELL
  1
LINKEDTABLEDATACELL_BEGIN
 90
        0
300

 91
        0
301
CUSTOMDATA
  1
DATAMAP_BEGIN
 90
        1
300
ACAD_ROUNDTRIP_2008_CELL_CHECKSUM
301
DATAMAP_VALUE
 93
        2
 90
        2
140
1398.0
 94
        0
300

302

304
ACVALUE_END
309
DATAMAP_END
 92
        0
 95
        1
302
CONTENT
  1
CELLCONTENT_BEGIN
 90
        1
300
VALUE
 93
        2
 90
        4
  1
Rev:00
 94
        0
300

302
Rev:00
304
ACVALUE_END
 91
        0
309
CELLCONTENT_END
  1
FORMATTEDCELLCONTENT_BEGIN
170
     1
300
CONTENTFORMAT
  1
CONTENTFORMAT_BEGIN
 90
      132
 91
        0
 92
      512
 93
        0
300

 40
0.0
140
1.0
 94
        1
 62
     0
340
0
144
3.5
309
CONTENTFORMAT_END
309
FORMATTEDCELLCONTENT_END
309
LINKEDTABLEDATACELL_END
  1
FORMATTEDTABLEDATACELL_BEGIN
300
CELLTABLEFORMAT
  1
TABLEFORMAT_BEGIN
 90
        1
170
     1
 91
       16
 92
        0
 62
   257
 93
        1
300
CONTENTFORMAT
  1
CONTENTFORMAT_BEGIN
 90
       16
 91
        0
 92
      512
 93
        0
300

 40
0.0
140
1.0
 94
        4
 62
     0
340
0
144
0.18
309
CONTENTFORMAT_END
171
     0
 94
        4
 95
        1
302
GRIDFORMAT
  1
GRIDFORMAT_BEGIN
 90
       26
 91
        1
 62
     0
 92
       -2
340
0
 93
        0
 40
0.045
309
GRIDFORMAT_END
 95
        4
302
GRIDFORMAT
  1
GRIDFORMAT_BEGIN
 90
       26
 91
        1
 62
     0
 92
       -2
340
0
 93
        0
 40
0.045
309
GRIDFORMAT_END
 95
        8
302
GRIDFORMAT
  1
GRIDFORMAT_BEGIN
 90
       26
 91
        1
 62
     0
 92
       -2
340
0
 93
        0
 40
0.045
309
GRIDFORMAT_END
 95
       32
302
GRIDFORMAT
  1
GRIDFORMAT_BEGIN
 90
       26
 91
        1
 62
     0
 92
       -2
340
0
 93
        0
 40
0.045
309
GRIDFORMAT_END
309
TABLEFORMAT_END
309
FORMATTEDTABLEDATACELL_END
  1
TABLECELL_BEGIN
 90
        0
 91
        0
309
TABLECELL_END
 91
        0
301
CUSTOMDATA
  1
DATAMAP_BEGIN
 90
        0
309
DATAMAP_END
309
LINKEDTABLEDATAROW_END
  1
FORMATTEDTABLEDATAROW_BEGIN
300
ROWTABLEFORMAT
  1
TABLEFORMAT_BEGIN
 90
        2
170
     0
309
TABLEFORMAT_END
309
FORMATTEDTABLEDATAROW_END
  1
TABLEROW_BEGIN
 90
        1
 40
6.0
309
TABLEROW_END
301
ROW
  1
LINKEDTABLEDATAROW_BEGIN
 90
        5
300
CELL
  1
LINKEDTABLEDATACELL_BEGIN
 90
        0
300

 91
        0
301
CUSTOMDATA
  1
DATAMAP_BEGIN
 90
        0
309
DATAMAP_END
 92
        0
 95
        0
309
LINKEDTABLEDATACELL_END
  1
FORMATTEDTABLEDATACELL_BEGIN
300
CELLTABLEFORMAT
  1
TABLEFORMAT_BEGIN
 90
        1
170
     1
 91
        0
 92
        0
 62
   257
 93
        1
300
CONTENTFORMAT
  1
CONTENTFORMAT_BEGIN
 90
        0
 91
        0
 92
      512
 93
        0
300

 40
0.0
140
1.0
 94
        1
 62
     0
340
0
144
0.18
309
CONTENTFORMAT_END
171
     0
 94
        0
309
TABLEFORMAT_END
309
FORMATTEDTABLEDATACELL_END
  1
TABLECELL_BEGIN
 90
        0
 91
        0
309
TABLECELL_END
300
CELL
  1
LINKEDTABLEDATACELL_BEGIN
 90
        0
300

 91
        0
301
CUSTOMDATA
  1
DATAMAP_BEGIN
 90
        0
309
DATAMAP_END
 92
        0
 95
        0
309
LINKEDTABLEDATACELL_END
  1
FORMATTEDTABLEDATACELL_BEGIN
300
CELLTABLEFORMAT
  1
TABLEFORMAT_BEGIN
 90
        1
170
     1
 91
        0
 92
        0
 62
   257
 93
        1
300
CONTENTFORMAT
  1
CONTENTFORMAT_BEGIN
 90
        0
 91
        0
 92
      512
 93
        0
300

 40
0.0
140
1.0
 94
        1
 62
     0
340
0
144
0.18
309
CONTENTFORMAT_END
171
     0
 94
        0
309
TABLEFORMAT_END
309
FORMATTEDTABLEDATACELL_END
  1
TABLECELL_BEGIN
 90
        0
 91
        0
309
TABLECELL_END
300
CELL
  1
LINKEDTABLEDATACELL_BEGIN
 90
        0
300

 91
        0
301
CUSTOMDATA
  1
DATAMAP_BEGIN
 90
        0
309
DATAMAP_END
 92
        0
 95
        0
309
LINKEDTABLEDATACELL_END
  1
FORMATTEDTABLEDATACELL_BEGIN
300
CELLTABLEFORMAT
  1
TABLEFORMAT_BEGIN
 90
        1
170
     1
 91
        0
 92
        0
 62
   257
 93
        1
300
CONTENTFORMAT
  1
CONTENTFORMAT_BEGIN
 90
        0
 91
        0
 92
      512
 93
        0
300

 40
0.0
140
1.0
 94
        1
 62
     0
340
0
144
0.18
309
CONTENTFORMAT_END
171
     0
 94
        0
309
TABLEFORMAT_END
309
FORMATTEDTABLEDATACELL_END
  1
TABLECELL_BEGIN
 90
        0
 91
        0
309
TABLECELL_END
300
CELL
  1
LINKEDTABLEDATACELL_BEGIN
 90
        0
300

 91
        0
301
CUSTOMDATA
  1
DATAMAP_BEGIN
 90
        1
300
ACAD_ROUNDTRIP_2008_CELL_CHECKSUM
301
DATAMAP_VALUE
 93
        2
 90
        2
140
3105.0
 94
        0
300

302

304
ACVALUE_END
309
DATAMAP_END
 92
        0
 95
        1
302
CONTENT
  1
CELLCONTENT_BEGIN
 90
        1
300
VALUE
 93
        2
 90
        4
  1
Scale:1:1
 94
        0
300

302
Scale:1:1
304
ACVALUE_END
 91
        0
309
CELLCONTENT_END
  1
FORMATTEDCELLCONTENT_BEGIN
170
     1
300
CONTENTFORMAT
  1
CONTENTFORMAT_BEGIN
 90
      132
 91
        0
 92
      512
 93
        0
300

 40
0.0
140
1.0
 94
        1
 62
     0
340
0
144
3.5
309
CONTENTFORMAT_END
309
FORMATTEDCELLCONTENT_END
309
LINKEDTABLEDATACELL_END
  1
FORMATTEDTABLEDATACELL_BEGIN
300
CELLTABLEFORMAT
  1
TABLEFORMAT_BEGIN
 90
        1
170
     1
 91
       16
 92
        0
 62
   257
 93
        1
300
CONTENTFORMAT
  1
CONTENTFORMAT_BEGIN
 90
       16
 91
        0
 92
      512
 93
        0
300

 40
0.0
140
1.0
 94
        1
 62
     0
340
0
144
0.18
309
CONTENTFORMAT_END
171
     0
 94
        4
 95
        1
302
GRIDFORMAT
  1
GRIDFORMAT_BEGIN
 90
       26
 91
        1
 62
     0
 92
       -2
340
0
 93
        0
 40
0.045
309
GRIDFORMAT_END
 95
        4
302
GRIDFORMAT
  1
GRIDFORMAT_BEGIN
 90
       26
 91
        1
 62
     0
 92
       -2
340
0
 93
        0
 40
0.045
309
GRIDFORMAT_END
 95
        8
302
GRIDFORMAT
  1
GRIDFORMAT_BEGIN
 90
       26
 91
        1
 62
     0
 92
       -2
340
0
 93
        0
 40
0.045
309
GRIDFORMAT_END
 95
       32
302
GRIDFORMAT
  1
GRIDFORMAT_BEGIN
 90
       26
 91
        1
 62
     0
 92
       -2
340
0
 93
        0
 40
0.045
309
GRIDFORMAT_END
309
TABLEFORMAT_END
309
FORMATTEDTABLEDATACELL_END
  1
TABLECELL_BEGIN
 90
        0
 91
        0
309
TABLECELL_END
300
CELL
  1
LINKEDTABLEDATACELL_BEGIN
 90
        0
300

 91
        0
301
CUSTOMDATA
  1
DATAMAP_BEGIN
 90
        1
300
ACAD_ROUNDTRIP_2008_CELL_CHECKSUM
301
DATAMAP_VALUE
 93
        2
 90
        2
140
161.0
 94
        0
300

302

304
ACVALUE_END
309
DATAMAP_END
 92
        0
 95
        1
302
CONTENT
  1
CELLCONTENT_BEGIN
 90
        1
300
VALUE
 93
        2
 90
        4
  1
A0
 94
        0
300

302
A0
304
ACVALUE_END
 91
        0
309
CELLCONTENT_END
  1
FORMATTEDCELLCONTENT_BEGIN
170
     1
300
CONTENTFORMAT
  1
CONTENTFORMAT_BEGIN
 90
      132
 91
        0
 92
      512
 93
        0
300

 40
0.0
140
1.0
 94
        1
 62
     0
340
0
144
3.5
309
CONTENTFORMAT_END
309
FORMATTEDCELLCONTENT_END
309
LINKEDTABLEDATACELL_END
  1
FORMATTEDTABLEDATACELL_BEGIN
300
CELLTABLEFORMAT
  1
TABLEFORMAT_BEGIN
 90
        1
170
     1
 91
       16
 92
        0
 62
   257
 93
        1
300
CONTENTFORMAT
  1
CONTENTFORMAT_BEGIN
 90
       16
 91
        0
 92
      512
 93
        0
300

 40
0.0
140
1.0
 94
        4
 62
     0
340
0
144
0.18
309
CONTENTFORMAT_END
171
     0
 94
        4
 95
        1
302
GRIDFORMAT
  1
GRIDFORMAT_BEGIN
 90
       26
 91
        1
 62
     0
 92
       -2
340
0
 93
        0
 40
0.045
309
GRIDFORMAT_END
 95
        4
302
GRIDFORMAT
  1
GRIDFORMAT_BEGIN
 90
       26
 91
        1
 62
     0
 92
       -2
340
0
 93
        0
 40
0.045
309
GRIDFORMAT_END
 95
        8
302
GRIDFORMAT
  1
GRIDFORMAT_BEGIN
 90
       26
 91
        1
 62
     0
 92
       -2
340
0
 93
        0
 40
0.045
309
GRIDFORMAT_END
 95
       32
302
GRIDFORMAT
  1
GRIDFORMAT_BEGIN
 90
       26
 91
        1
 62
     0
 92
       -2
340
0
 93
        0
 40
0.045
309
GRIDFORMAT_END
309
TABLEFORMAT_END
309
FORMATTEDTABLEDATACELL_END
  1
TABLECELL_BEGIN
 90
        0
 91
        0
309
TABLECELL_END
 91
        0
301
CUSTOMDATA
  1
DATAMAP_BEGIN
 90
        0
309
DATAMAP_END
309
LINKEDTABLEDATAROW_END
  1
FORMATTEDTABLEDATAROW_BEGIN
300
ROWTABLEFORMAT
  1
TABLEFORMAT_BEGIN
 90
        2
170
     0
309
TABLEFORMAT_END
309
FORMATTEDTABLEDATAROW_END
  1
TABLEROW_BEGIN
 90
        2
 40
6.0
309
TABLEROW_END
301
ROW
  1
LINKEDTABLEDATAROW_BEGIN
 90
        5
300
CELL
  1
LINKEDTABLEDATACELL_BEGIN
 90
        0
300

 91
        0
301
CUSTOMDATA
  1
DATAMAP_BEGIN
 90
        0
309
DATAMAP_END
 92
        0
 95
        0
309
LINKEDTABLEDATACELL_END
  1
FORMATTEDTABLEDATACELL_BEGIN
300
CELLTABLEFORMAT
  1
TABLEFORMAT_BEGIN
 90
        1
170
     1
 91
        0
 92
        0
 62
   257
 93
        1
300
CONTENTFORMAT
  1
CONTENTFORMAT_BEGIN
 90
        0
 91
        0
 92
      512
 93
        0
300

 40
0.0
140
1.0
 94
        1
 62
     0
340
0
144
0.18
309
CONTENTFORMAT_END
171
     0
 94
        0
309
TABLEFORMAT_END
309
FORMATTEDTABLEDATACELL_END
  1
TABLECELL_BEGIN
 90
        0
 91
        0
309
TABLECELL_END
300
CELL
  1
LINKEDTABLEDATACELL_BEGIN
 90
        0
300

 91
        0
301
CUSTOMDATA
  1
DATAMAP_BEGIN
 90
        0
309
DATAMAP_END
 92
        0
 95
        0
309
LINKEDTABLEDATACELL_END
  1
FORMATTEDTABLEDATACELL_BEGIN
300
CELLTABLEFORMAT
  1
TABLEFORMAT_BEGIN
 90
        1
170
     1
 91
        0
 92
        0
 62
   257
 93
        1
300
CONTENTFORMAT
  1
CONTENTFORMAT_BEGIN
 90
        0
 91
        0
 92
      512
 93
        0
300

 40
0.0
140
1.0
 94
        1
 62
     0
340
0
144
0.18
309
CONTENTFORMAT_END
171
     0
 94
        0
309
TABLEFORMAT_END
309
FORMATTEDTABLEDATACELL_END
  1
TABLECELL_BEGIN
 90
        0
 91
        0
309
TABLECELL_END
300
CELL
  1
LINKEDTABLEDATACELL_BEGIN
 90
        0
300

 91
        0
301
CUSTOMDATA
  1
DATAMAP_BEGIN
 90
        0
309
DATAMAP_END
 92
        0
 95
        0
309
LINKEDTABLEDATACELL_END
  1
FORMATTEDTABLEDATACELL_BEGIN
300
CELLTABLEFORMAT
  1
TABLEFORMAT_BEGIN
 90
        1
170
     1
 91
        0
 92
        0
 62
   257
 93
        1
300
CONTENTFORMAT
  1
CONTENTFORMAT_BEGIN
 90
        0
 91
        0
 92
      512
 93
        0
300

 40
0.0
140
1.0
 94
        1
 62
     0
340
0
144
0.18
309
CONTENTFORMAT_END
171
     0
 94
        0
309
TABLEFORMAT_END
309
FORMATTEDTABLEDATACELL_END
  1
TABLECELL_BEGIN
 90
        0
 91
        0
309
TABLECELL_END
300
CELL
  1
LINKEDTABLEDATACELL_BEGIN
 90
        0
300

 91
        0
301
CUSTOMDATA
  1
DATAMAP_BEGIN
 90
        1
300
ACAD_ROUNDTRIP_2008_CELL_CHECKSUM
301
DATAMAP_VALUE
 93
        2
 90
        2
140
34745.0
 94
        0
300

302

304
ACVALUE_END
309
DATAMAP_END
 92
        0
 95
        1
302
CONTENT
  1
CELLCONTENT_BEGIN
 90
        1
300
VALUE
 93
        2
 90
        4
  1
CASSAFORMA TRIMLESS COLORADO 2.0
 94
        0
300

302
CASSAFORMA TRIMLESS COLORADO 2.0
304
ACVALUE_END
 91
        0
309
CELLCONTENT_END
  1
FORMATTEDCELLCONTENT_BEGIN
170
     1
300
CONTENTFORMAT
  1
CONTENTFORMAT_BEGIN
 90
      132
 91
        0
 92
      512
 93
        0
300

 40
0.0
140
1.0
 94
        1
 62
     0
340
0
144
2.0
309
CONTENTFORMAT_END
309
FORMATTEDCELLCONTENT_END
309
LINKEDTABLEDATACELL_END
  1
FORMATTEDTABLEDATACELL_BEGIN
300
CELLTABLEFORMAT
  1
TABLEFORMAT_BEGIN
 90
        1
170
     1
 91
       16
 92
        0
 62
   257
 93
        1
300
CONTENTFORMAT
  1
CONTENTFORMAT_BEGIN
 90
       16
 91
        0
 92
      512
 93
        0
300

 40
0.0
140
1.0
 94
        4
 62
     0
340
0
144
0.18
309
CONTENTFORMAT_END
171
     0
 94
        4
 95
        1
302
GRIDFORMAT
  1
GRIDFORMAT_BEGIN
 90
       26
 91
        1
 62
     0
 92
       -2
340
0
 93
        0
 40
0.045
309
GRIDFORMAT_END
 95
        4
302
GRIDFORMAT
  1
GRIDFORMAT_BEGIN
 90
       26
 91
        1
 62
     0
 92
       -2
340
0
 93
        0
 40
0.045
309
GRIDFORMAT_END
 95
        8
302
GRIDFORMAT
  1
GRIDFORMAT_BEGIN
 90
       26
 91
        1
 62
     0
 92
       -2
340
0
 93
        0
 40
0.045
309
GRIDFORMAT_END
 95
       32
302
GRIDFORMAT
  1
GRIDFORMAT_BEGIN
 90
       26
 91
        1
 62
     0
 92
       -2
340
0
 93
        0
 40
0.045
309
GRIDFORMAT_END
309
TABLEFORMAT_END
309
FORMATTEDTABLEDATACELL_END
  1
TABLECELL_BEGIN
 90
        0
 91
        0
309
TABLECELL_END
300
CELL
  1
LINKEDTABLEDATACELL_BEGIN
 90
        0
300

 91
        0
301
CUSTOMDATA
  1
DATAMAP_BEGIN
 90
        0
309
DATAMAP_END
 92
        0
 95
        0
309
LINKEDTABLEDATACELL_END
  1
FORMATTEDTABLEDATACELL_BEGIN
300
CELLTABLEFORMAT
  1
TABLEFORMAT_BEGIN
 90
        1
170
     1
 91
        0
 92
        0
 62
   257
 93
        1
300
CONTENTFORMAT
  1
CONTENTFORMAT_BEGIN
 90
        0
 91
        0
 92
      512
 93
        0
300

 40
0.0
140
1.0
 94
        1
 62
     0
340
0
144
0.18
309
CONTENTFORMAT_END
171
     0
 94
        0
309
TABLEFORMAT_END
309
FORMATTEDTABLEDATACELL_END
  1
TABLECELL_BEGIN
 90
        0
 91
        0
309
TABLECELL_END
 91
        0
301
CUSTOMDATA
  1
DATAMAP_BEGIN
 90
        0
309
DATAMAP_END
309
LINKEDTABLEDATAROW_END
  1
FORMATTEDTABLEDATAROW_BEGIN
300
ROWTABLEFORMAT
  1
TABLEFORMAT_BEGIN
 90
        2
170
     0
309
TABLEFORMAT_END
309
FORMATTEDTABLEDATAROW_END
  1
TABLEROW_BEGIN
 90
        3
 40
10.0
309
TABLEROW_END
301
ROW
  1
LINKEDTABLEDATAROW_BEGIN
 90
        5
300
CELL
  1
LINKEDTABLEDATACELL_BEGIN
 90
        0
300

 91
        0
301
CUSTOMDATA
  1
DATAMAP_BEGIN
 90
        0
309
DATAMAP_END
 92
        0
 95
        0
309
LINKEDTABLEDATACELL_END
  1
FORMATTEDTABLEDATACELL_BEGIN
300
CELLTABLEFORMAT
  1
TABLEFORMAT_BEGIN
 90
        1
170
     1
 91
        0
 92
        0
 62
   257
 93
        1
300
CONTENTFORMAT
  1
CONTENTFORMAT_BEGIN
 90
        0
 91
        0
 92
      512
 93
        0
300

 40
0.0
140
1.0
 94
        1
 62
     0
340
0
144
0.18
309
CONTENTFORMAT_END
171
     0
 94
        0
309
TABLEFORMAT_END
309
FORMATTEDTABLEDATACELL_END
  1
TABLECELL_BEGIN
 90
        0
 91
        0
309
TABLECELL_END
300
CELL
  1
LINKEDTABLEDATACELL_BEGIN
 90
        0
300

 91
        0
301
CUSTOMDATA
  1
DATAMAP_BEGIN
 90
        0
309
DATAMAP_END
 92
        0
 95
        0
309
LINKEDTABLEDATACELL_END
  1
FORMATTEDTABLEDATACELL_BEGIN
300
CELLTABLEFORMAT
  1
TABLEFORMAT_BEGIN
 90
        1
170
     1
 91
        0
 92
        0
 62
   257
 93
        1
300
CONTENTFORMAT
  1
CONTENTFORMAT_BEGIN
 90
        0
 91
        0
 92
      512
 93
        0
300

 40
0.0
140
1.0
 94
        1
 62
     0
340
0
144
0.18
309
CONTENTFORMAT_END
171
     0
 94
        0
309
TABLEFORMAT_END
309
FORMATTEDTABLEDATACELL_END
  1
TABLECELL_BEGIN
 90
        0
 91
        0
309
TABLECELL_END
300
CELL
  1
LINKEDTABLEDATACELL_BEGIN
 90
        0
300

 91
        0
301
CUSTOMDATA
  1
DATAMAP_BEGIN
 90
        0
309
DATAMAP_END
 92
        0
 95
        0
309
LINKEDTABLEDATACELL_END
  1
FORMATTEDTABLEDATACELL_BEGIN
300
CELLTABLEFORMAT
  1
TABLEFORMAT_BEGIN
 90
        1
170
     1
 91
        0
 92
        0
 62
   257
 93
        1
300
CONTENTFORMAT
  1
CONTENTFORMAT_BEGIN
 90
        0
 91
        0
 92
      512
 93
        0
300

 40
0.0
140
1.0
 94
        1
 62
     0
340
0
144
0.18
309
CONTENTFORMAT_END
171
     0
 94
        0
309
TABLEFORMAT_END
309
FORMATTEDTABLEDATACELL_END
  1
TABLECELL_BEGIN
 90
        0
 91
        0
309
TABLECELL_END
300
CELL
  1
LINKEDTABLEDATACELL_BEGIN
 90
        0
300

 91
        0
301
CUSTOMDATA
  1
DATAMAP_BEGIN
 90
        1
300
ACAD_ROUNDTRIP_2008_CELL_CHECKSUM
301
DATAMAP_VALUE
 93
        2
 90
        2
140
4774.0
 94
        0
300

302

304
ACVALUE_END
309
DATAMAP_END
 92
        0
 95
        1
302
CONTENT
  1
CELLCONTENT_BEGIN
 90
        1
300
VALUE
 93
        2
 90
        4
  1
DATE:30.08.22
 94
        0
300

302
DATE:30.08.22
304
ACVALUE_END
 91
        0
309
CELLCONTENT_END
  1
FORMATTEDCELLCONTENT_BEGIN
170
     1
300
CONTENTFORMAT
  1
CONTENTFORMAT_BEGIN
 90
      132
 91
        0
 92
      512
 93
        0
300

 40
0.0
140
1.0
 94
        1
 62
     0
340
0
144
2.5
309
CONTENTFORMAT_END
309
FORMATTEDCELLCONTENT_END
309
LINKEDTABLEDATACELL_END
  1
FORMATTEDTABLEDATACELL_BEGIN
300
CELLTABLEFORMAT
  1
TABLEFORMAT_BEGIN
 90
        1
170
     1
 91
       16
 92
        0
 62
   257
 93
        1
300
CONTENTFORMAT
  1
CONTENTFORMAT_BEGIN
 90
       16
 91
        0
 92
      512
 93
        0
300

 40
0.0
140
1.0
 94
        4
 62
     0
340
0
144
0.18
309
CONTENTFORMAT_END
171
     0
 94
        4
 95
        1
302
GRIDFORMAT
  1
GRIDFORMAT_BEGIN
 90
       26
 91
        1
 62
     0
 92
       -2
340
0
 93
        0
 40
0.045
309
GRIDFORMAT_END
 95
        4
302
GRIDFORMAT
  1
GRIDFORMAT_BEGIN
 90
       26
 91
        1
 62
     0
 92
       -2
340
0
 93
        0
 40
0.045
309
GRIDFORMAT_END
 95
        8
302
GRIDFORMAT
  1
GRIDFORMAT_BEGIN
 90
       26
 91
        1
 62
     0
 92
       -2
340
0
 93
        0
 40
0.045
309
GRIDFORMAT_END
 95
       32
302
GRIDFORMAT
  1
GRIDFORMAT_BEGIN
 90
       26
 91
        1
 62
     0
 92
       -2
340
0
 93
        0
 40
0.045
309
GRIDFORMAT_END
309
TABLEFORMAT_END
309
FORMATTEDTABLEDATACELL_END
  1
TABLECELL_BEGIN
 90
        0
 91
        0
309
TABLECELL_END
300
CELL
  1
LINKEDTABLEDATACELL_BEGIN
 90
        0
300

 91
        0
301
CUSTOMDATA
  1
DATAMAP_BEGIN
 90
        0
309
DATAMAP_END
 92
        0
 95
        0
309
LINKEDTABLEDATACELL_END
  1
FORMATTEDTABLEDATACELL_BEGIN
300
CELLTABLEFORMAT
  1
TABLEFORMAT_BEGIN
 90
        1
170
     1
 91
        0
 92
        0
 62
   257
 93
        1
300
CONTENTFORMAT
  1
CONTENTFORMAT_BEGIN
 90
        0
 91
        0
 92
      512
 93
        0
300

 40
0.0
140
1.0
 94
        1
 62
     0
340
0
144
0.18
309
CONTENTFORMAT_END
171
     0
 94
        0
309
TABLEFORMAT_END
309
FORMATTEDTABLEDATACELL_END
  1
TABLECELL_BEGIN
 90
        0
 91
        0
309
TABLECELL_END
 91
        0
301
CUSTOMDATA
  1
DATAMAP_BEGIN
 90
        0
309
DATAMAP_END
309
LINKEDTABLEDATAROW_END
  1
FORMATTEDTABLEDATAROW_BEGIN
300
ROWTABLEFORMAT
  1
TABLEFORMAT_BEGIN
 90
        2
170
     0
309
TABLEFORMAT_END
309
FORMATTEDTABLEDATAROW_END
  1
TABLEROW_BEGIN
 90
        3
 40
5.0
309
TABLEROW_END
301
ROW
  1
LINKEDTABLEDATAROW_BEGIN
 90
        5
300
CELL
  1
LINKEDTABLEDATACELL_BEGIN
 90
        0
300

 91
        0
301
CUSTOMDATA
  1
DATAMAP_BEGIN
 90
        1
300
ACAD_ROUNDTRIP_2008_CELL_CHECKSUM
301
DATAMAP_VALUE
 93
        2
 90
        2
140
1361482.0
 94
        0
300

302

304
ACVALUE_END
309
DATAMAP_END
 92
        0
 95
        1
302
CONTENT
  1
CELLCONTENT_BEGIN
 90
        1
300
VALUE
 93
        2
 90
        4
  1
Any integral or partial reproductions are prohibited \Pwithout prior authorisation of L & L Luce & Light s.r.l., \Pin accordance with the law in force. \PAll rights reserved.
 94
        0
300

302
Any integral or partial reproductions are prohibited \Pwithout prior authorisation of L & L Luce & Light s.r.l., \Pin accordance with the law in force. \PAll rights reserved.
304
ACVALUE_END
 91
        0
309
CELLCONTENT_END
  1
FORMATTEDCELLCONTENT_BEGIN
170
     1
300
CONTENTFORMAT
  1
CONTENTFORMAT_BEGIN
 90
      132
 91
        0
 92
      512
 93
        0
300

 40
0.0
140
1.0
 94
        1
 62
     0
340
0
144
2.25
309
CONTENTFORMAT_END
309
FORMATTEDCELLCONTENT_END
309
LINKEDTABLEDATACELL_END
  1
FORMATTEDTABLEDATACELL_BEGIN
300
CELLTABLEFORMAT
  1
TABLEFORMAT_BEGIN
 90
        1
170
     1
 91
       16
 92
        0
 62
   257
 93
        1
300
CONTENTFORMAT
  1
CONTENTFORMAT_BEGIN
 90
       16
 91
        0
 92
      512
 93
        0
300

 40
0.0
140
1.0
 94
        4
 62
     0
340
0
144
0.18
309
CONTENTFORMAT_END
171
     0
 94
        4
 95
        1
302
GRIDFORMAT
  1
GRIDFORMAT_BEGIN
 90
       26
 91
        1
 62
     0
 92
       -2
340
0
 93
        0
 40
0.045
309
GRIDFORMAT_END
 95
        4
302
GRIDFORMAT
  1
GRIDFORMAT_BEGIN
 90
       26
 91
        1
 62
     0
 92
       -2
340
0
 93
        0
 40
0.045
309
GRIDFORMAT_END
 95
        8
302
GRIDFORMAT
  1
GRIDFORMAT_BEGIN
 90
       26
 91
        1
 62
     0
 92
       -2
340
0
 93
        0
 40
0.045
309
GRIDFORMAT_END
 95
       32
302
GRIDFORMAT
  1
GRIDFORMAT_BEGIN
 90
       26
 91
        1
 62
     0
 92
       -2
340
0
 93
        0
 40
0.045
309
GRIDFORMAT_END
309
TABLEFORMAT_END
309
FORMATTEDTABLEDATACELL_END
  1
TABLECELL_BEGIN
 90
        0
 91
        0
309
TABLECELL_END
300
CELL
  1
LINKEDTABLEDATACELL_BEGIN
 90
        0
300

 91
        0
301
CUSTOMDATA
  1
DATAMAP_BEGIN
 90
        0
309
DATAMAP_END
 92
        0
 95
        0
309
LINKEDTABLEDATACELL_END
  1
FORMATTEDTABLEDATACELL_BEGIN
300
CELLTABLEFORMAT
  1
TABLEFORMAT_BEGIN
 90
        1
170
     1
 91
        0
 92
        0
 62
   257
 93
        1
300
CONTENTFORMAT
  1
CONTENTFORMAT_BEGIN
 90
        0
 91
        0
 92
      512
 93
        0
300

 40
0.0
140
1.0
 94
        1
 62
     0
340
0
144
0.18
309
CONTENTFORMAT_END
171
     0
 94
        0
309
TABLEFORMAT_END
309
FORMATTEDTABLEDATACELL_END
  1
TABLECELL_BEGIN
 90
        0
 91
        0
309
TABLECELL_END
300
CELL
  1
LINKEDTABLEDATACELL_BEGIN
 90
        0
300

 91
        0
301
CUSTOMDATA
  1
DATAMAP_BEGIN
 90
        0
309
DATAMAP_END
 92
        0
 95
        0
309
LINKEDTABLEDATACELL_END
  1
FORMATTEDTABLEDATACELL_BEGIN
300
CELLTABLEFORMAT
  1
TABLEFORMAT_BEGIN
 90
        1
170
     1
 91
        0
 92
        0
 62
   257
 93
        1
300
CONTENTFORMAT
  1
CONTENTFORMAT_BEGIN
 90
        0
 91
        0
 92
      512
 93
        0
300

 40
0.0
140
1.0
 94
        1
 62
     0
340
0
144
0.18
309
CONTENTFORMAT_END
171
     0
 94
        0
309
TABLEFORMAT_END
309
FORMATTEDTABLEDATACELL_END
  1
TABLECELL_BEGIN
 90
        0
 91
        0
309
TABLECELL_END
300
CELL
  1
LINKEDTABLEDATACELL_BEGIN
 90
        0
300

 91
        0
301
CUSTOMDATA
  1
DATAMAP_BEGIN
 90
        0
309
DATAMAP_END
 92
        0
 95
        0
309
LINKEDTABLEDATACELL_END
  1
FORMATTEDTABLEDATACELL_BEGIN
300
CELLTABLEFORMAT
  1
TABLEFORMAT_BEGIN
 90
        1
170
     1
 91
        0
 92
        0
 62
   257
 93
        1
300
CONTENTFORMAT
  1
CONTENTFORMAT_BEGIN
 90
        0
 91
        0
 92
      512
 93
        0
300

 40
0.0
140
1.0
 94
        1
 62
     0
340
0
144
0.18
309
CONTENTFORMAT_END
171
     0
 94
        0
309
TABLEFORMAT_END
309
FORMATTEDTABLEDATACELL_END
  1
TABLECELL_BEGIN
 90
        0
 91
        0
309
TABLECELL_END
300
CELL
  1
LINKEDTABLEDATACELL_BEGIN
 90
        0
300

 91
        0
301
CUSTOMDATA
  1
DATAMAP_BEGIN
 90
        0
309
DATAMAP_END
 92
        0
 95
        0
309
LINKEDTABLEDATACELL_END
  1
FORMATTEDTABLEDATACELL_BEGIN
300
CELLTABLEFORMAT
  1
TABLEFORMAT_BEGIN
 90
        1
170
     1
 91
        0
 92
        0
 62
   257
 93
        1
300
CONTENTFORMAT
  1
CONTENTFORMAT_BEGIN
 90
        0
 91
        0
 92
      512
 93
        0
300

 40
0.0
140
1.0
 94
        1
 62
     0
340
0
144
0.18
309
CONTENTFORMAT_END
171
     0
 94
        0
309
TABLEFORMAT_END
309
FORMATTEDTABLEDATACELL_END
  1
TABLECELL_BEGIN
 90
        0
 91
        0
309
TABLECELL_END
 91
        0
301
CUSTOMDATA
  1
DATAMAP_BEGIN
 90
        0
309
DATAMAP_END
309
LINKEDTABLEDATAROW_END
  1
FORMATTEDTABLEDATAROW_BEGIN
300
ROWTABLEFORMAT
  1
TABLEFORMAT_BEGIN
 90
        2
170
     0
309
TABLEFORMAT_END
309
FORMATTEDTABLEDATAROW_END
  1
TABLEROW_BEGIN
 90
        3
 40
13.0
309
TABLEROW_END
100
AcDbFormattedTableData
300
TABLEFORMAT
  1
TABLEFORMAT_BEGIN
 90
        4
170
     1
 91
    15360
 92
        0
 62
   257
 93
        1
300
CONTENTFORMAT
  1
CONTENTFORMAT_BEGIN
 90
        0
 91
        0
 92
      512
 93
        0
300

 40
0.0
140
1.0
 94
        1
 62
     0
340
0
144
0.18
309
CONTENTFORMAT_END
171
     1
301
MARGIN
  1
CELLMARGIN_BEGIN
 40
0.06
 40
0.06
 40
0.06
 40
0.06
 40
0.06
 40
0.06
309
CELLMARGIN_END
 94
        0
309
TABLEFORMAT_END
 90
        4
 91
        0
 92
        0
 93
        3
 94
        2
 91
        2
 92
        3
 93
        2
 94
        4
 91
        3
 92
        3
 93
        3
 94
        4
 91
        4
 92
        0
 93
        4
 94
        4
100
AcDbTableContent
340
521
  0
TABLEGEOMETRY
  5
54E
330
550
100
AcDbTableGeometry
 90
        5
 91
        5
 92
       25
 93
        0
 40
0.0
 41
0.0
330
0
 94
        0
 93
        0
 40
0.0
 41
0.0
330
0
 94
        0
 93
        0
 40
0.0
 41
0.0
330
0
 94
        0
 93
        0
 40
0.0
 41
0.0
330
0
 94
        0
 93
        0
 40
0.0
 41
0.0
330
0
 94
        0
 93
        0
 40
0.0
 41
0.0
330
0
 94
        0
 93
        0
 40
0.0
 41
0.0
330
0
 94
        0
 93
        0
 40
0.0
 41
0.0
330
0
 94
        0
 93
        0
 40
0.0
 41
0.0
330
0
 94
        0
 93
        0
 40
0.0
 41
0.0
330
0
 94
        0
 93
        0
 40
0.0
 41
0.0
330
0
 94
        0
 93
        0
 40
0.0
 41
0.0
330
0
 94
        0
 93
        0
 40
0.0
 41
0.0
330
0
 94
        0
 93
        0
 40
0.0
 41
0.0
330
0
 94
        0
 93
        0
 40
0.0
 41
0.0
330
0
 94
        0
 93
        0
 40
0.0
 41
0.0
330
0
 94
        0
 93
        0
 40
0.0
 41
0.0
330
0
 94
        0
 93
        0
 40
0.0
 41
0.0
330
0
 94
        0
 93
        0
 40
0.0
 41
0.0
330
0
 94
        0
 93
        0
 40
0.0
 41
0.0
330
0
 94
        0
 93
        0
 40
0.0
 41
0.0
330
0
 94
        0
 93
        0
 40
0.0
 41
0.0
330
0
 94
        0
 93
        0
 40
0.0
 41
0.0
330
0
 94
        0
 93
        0
 40
0.0
 41
0.0
330
0
 94
        0
 93
        0
 40
0.0
 41
0.0
330
0
 94
        0
  0
DICTIONARY
  5
553
330
521
100
AcDbDictionary
280
     1
281
     1
  3
ACAD_ROUNDTRIP_2008_TABLESTYLE_CELLSTYLEMAP
360
554
  0
DICTIONARY
  5
55D
330
528
100
AcDbDictionary
280
     1
281
     1
  3
ACAD_XREC_ROUNDTRIP
360
55E
  0
DICTIONARY
  5
563
330
52B
100
AcDbDictionary
280
     1
281
     1
  3
ACAD_XREC_ROUNDTRIP
360
564
  0
DICTIONARY
  5
56B
330
52F
100
AcDbDictionary
280
     1
281
     1
  3
ACAD_XREC_ROUNDTRIP
360
56C
  0
DICTIONARY
  5
573
330
533
100
AcDbDictionary
280
     1
281
     1
  3
ACAD_XREC_ROUNDTRIP
360
574
  0
DICTIONARY
  5
567
330
52D
100
AcDbDictionary
280
     1
281
     1
  3
ACAD_XREC_ROUNDTRIP
360
568
  0
DICTIONARY
  5
569
330
52E
100
AcDbDictionary
280
     1
281
     1
  3
ACAD_XREC_ROUNDTRIP
360
56A
  0
DICTIONARY
  5
579
330
536
100
AcDbDictionary
280
     1
281
     1
  3
ACAD_XREC_ROUNDTRIP
360
57A
  0
DICTIONARY
  5
571
330
532
100
AcDbDictionary
280
     1
281
     1
  3
ACAD_XREC_ROUNDTRIP
360
572
  0
DICTIONARY
  5
555
330
524
100
AcDbDictionary
280
     1
281
     1
  3
ACAD_XREC_ROUNDTRIP
360
556
  0
DICTIONARY
  5
557
330
525
100
AcDbDictionary
280
     1
281
     1
  3
ACAD_XREC_ROUNDTRIP
360
558
  0
DICTIONARY
  5
559
330
526
100
AcDbDictionary
280
     1
281
     1
  3
ACAD_XREC_ROUNDTRIP
360
55A
  0
DICTIONARY
  5
55B
330
527
100
AcDbDictionary
280
     1
281
     1
  3
ACAD_XREC_ROUNDTRIP
360
55C
  0
DICTIONARY
  5
561
330
52A
100
AcDbDictionary
280
     1
281
     1
  3
ACAD_XREC_ROUNDTRIP
360
562
  0
DICTIONARY
  5
575
330
534
100
AcDbDictionary
280
     1
281
     1
  3
ACAD_XREC_ROUNDTRIP
360
576
  0
DICTIONARY
  5
56F
330
531
100
AcDbDictionary
280
     1
281
     1
  3
ACAD_XREC_ROUNDTRIP
360
570
  0
DICTIONARY
  5
577
330
535
100
AcDbDictionary
280
     1
281
     1
  3
ACAD_XREC_ROUNDTRIP
360
578
  0
DICTIONARY
  5
565
330
52C
100
AcDbDictionary
280
     1
281
     1
  3
ACAD_XREC_ROUNDTRIP
360
566
  0
DICTIONARY
  5
583
330
53B
100
AcDbDictionary
280
     1
281
     1
  3
ACAD_XREC_ROUNDTRIP
360
584
  0
DICTIONARY
  5
581
330
53A
100
AcDbDictionary
280
     1
281
     1
  3
ACAD_XREC_ROUNDTRIP
360
582
  0
DICTIONARY
  5
57B
330
537
100
AcDbDictionary
280
     1
281
     1
  3
ACAD_XREC_ROUNDTRIP
360
57C
  0
DICTIONARY
  5
57D
330
538
100
AcDbDictionary
280
     1
281
     1
  3
ACAD_XREC_ROUNDTRIP
360
57E
  0
DICTIONARY
  5
56D
330
530
100
AcDbDictionary
280
     1
281
     1
  3
ACAD_XREC_ROUNDTRIP
360
56E
  0
DICTIONARY
  5
55F
330
529
100
AcDbDictionary
280
     1
281
     1
  3
ACAD_XREC_ROUNDTRIP
360
560
  0
DICTIONARY
  5
57F
330
539
100
AcDbDictionary
280
     1
281
     1
  3
ACAD_XREC_ROUNDTRIP
360
580
  0
CELLSTYLEMAP
  5
554
102
{ACAD_REACTORS
330
553
102
}
330
553
100
AcDbCellStyleMap
 90
        3
300
CELLSTYLE
  1
TABLEFORMAT_BEGIN
 90
        5
170
     1
 91
        0
 92
        0
 62
   257
 93
        1
300
CONTENTFORMAT
  1
CONTENTFORMAT_BEGIN
 90
        0
 91
        0
 92
        4
 93
        0
300

 40
0.0
140
1.0
 94
        5
 62
     0
340
11
144
6.0
309
CONTENTFORMAT_END
171
     1
301
MARGIN
  1
CELLMARGIN_BEGIN
 40
1.5
 40
1.5
 40
1.5
 40
1.5
 40
1.5
 40
1.5
309
CELLMARGIN_END
 94
        6
 95
        1
302
GRIDFORMAT
  1
GRIDFORMAT_BEGIN
 90
        0
 91
        1
 62
     0
 92
       -2
340
14
 93
        0
 40
0.045
309
GRIDFORMAT_END
 95
        2
302
GRIDFORMAT
  1
GRIDFORMAT_BEGIN
 90
        0
 91
        1
 62
     0
 92
       -2
340
14
 93
        0
 40
0.045
309
GRIDFORMAT_END
 95
        4
302
GRIDFORMAT
  1
GRIDFORMAT_BEGIN
 90
        0
 91
        1
 62
     0
 92
       -2
340
14
 93
        0
 40
0.045
309
GRIDFORMAT_END
 95
        8
302
GRIDFORMAT
  1
GRIDFORMAT_BEGIN
 90
        0
 91
        1
 62
     0
 92
       -2
340
14
 93
        0
 40
0.045
309
GRIDFORMAT_END
 95
       16
302
GRIDFORMAT
  1
GRIDFORMAT_BEGIN
 90
        0
 91
        1
 62
     0
 92
       -2
340
14
 93
        0
 40
0.045
309
GRIDFORMAT_END
 95
       32
302
GRIDFORMAT
  1
GRIDFORMAT_BEGIN
 90
        0
 91
        1
 62
     0
 92
       -2
340
14
 93
        0
 40
0.045
309
GRIDFORMAT_END
309
TABLEFORMAT_END
  1
CELLSTYLE_BEGIN
 90
        1
 91
        1
300
_TITLE
309
CELLSTYLE_END
300
CELLSTYLE
  1
TABLEFORMAT_BEGIN
 90
        5
170
     1
 91
        0
 92
        0
 62
   257
 93
        1
300
CONTENTFORMAT
  1
CONTENTFORMAT_BEGIN
 90
        0
 91
        0
 92
        4
 93
        0
300

 40
0.0
140
1.0
 94
        5
 62
     0
340
11
144
4.5
309
CONTENTFORMAT_END
171
     1
301
MARGIN
  1
CELLMARGIN_BEGIN
 40
1.5
 40
1.5
 40
1.5
 40
1.5
 40
1.5
 40
1.5
309
CELLMARGIN_END
 94
        6
 95
        1
302
GRIDFORMAT
  1
GRIDFORMAT_BEGIN
 90
        0
 91
        1
 62
     0
 92
       -2
340
14
 93
        0
 40
0.045
309
GRIDFORMAT_END
 95
        2
302
GRIDFORMAT
  1
GRIDFORMAT_BEGIN
 90
        0
 91
        1
 62
     0
 92
       -2
340
14
 93
        0
 40
0.045
309
GRIDFORMAT_END
 95
        4
302
GRIDFORMAT
  1
GRIDFORMAT_BEGIN
 90
        0
 91
        1
 62
     0
 92
       -2
340
14
 93
        0
 40
0.045
309
GRIDFORMAT_END
 95
        8
302
GRIDFORMAT
  1
GRIDFORMAT_BEGIN
 90
        0
 91
        1
 62
     0
 92
       -2
340
14
 93
        0
 40
0.045
309
GRIDFORMAT_END
 95
       16
302
GRIDFORMAT
  1
GRIDFORMAT_BEGIN
 90
        0
 91
        1
 62
     0
 92
       -2
340
14
 93
        0
 40
0.045
309
GRIDFORMAT_END
 95
       32
302
GRIDFORMAT
  1
GRIDFORMAT_BEGIN
 90
        0
 91
        1
 62
     0
 92
       -2
340
14
 93
        0
 40
0.045
309
GRIDFORMAT_END
309
TABLEFORMAT_END
  1
CELLSTYLE_BEGIN
 90
        2
 91
        1
300
_HEADER
309
CELLSTYLE_END
300
CELLSTYLE
  1
TABLEFORMAT_BEGIN
 90
        5
170
     1
 91
        0
 92
        0
 62
   257
 93
        1
300
CONTENTFORMAT
  1
CONTENTFORMAT_BEGIN
 90
        0
 91
        0
 92
        4
 93
        0
300

 40
0.0
140
1.0
 94
        2
 62
     0
340
11
144
4.5
309
CONTENTFORMAT_END
171
     1
301
MARGIN
  1
CELLMARGIN_BEGIN
 40
1.5
 40
1.5
 40
1.5
 40
1.5
 40
1.5
 40
1.5
309
CELLMARGIN_END
 94
        6
 95
        1
302
GRIDFORMAT
  1
GRIDFORMAT_BEGIN
 90
        0
 91
        1
 62
     0
 92
       -2
340
14
 93
        0
 40
0.045
309
GRIDFORMAT_END
 95
        2
302
GRIDFORMAT
  1
GRIDFORMAT_BEGIN
 90
        0
 91
        1
 62
     0
 92
       -2
340
14
 93
        0
 40
0.045
309
GRIDFORMAT_END
 95
        4
302
GRIDFORMAT
  1
GRIDFORMAT_BEGIN
 90
        0
 91
        1
 62
     0
 92
       -2
340
14
 93
        0
 40
0.045
309
GRIDFORMAT_END
 95
        8
302
GRIDFORMAT
  1
GRIDFORMAT_BEGIN
 90
        0
 91
        1
 62
     0
 92
       -2
340
14
 93
        0
 40
0.045
309
GRIDFORMAT_END
 95
       16
302
GRIDFORMAT
  1
GRIDFORMAT_BEGIN
 90
        0
 91
        1
 62
     0
 92
       -2
340
14
 93
        0
 40
0.045
309
GRIDFORMAT_END
 95
       32
302
GRIDFORMAT
  1
GRIDFORMAT_BEGIN
 90
        0
 91
        1
 62
     0
 92
       -2
340
14
 93
        0
 40
0.045
309
GRIDFORMAT_END
309
TABLEFORMAT_END
  1
CELLSTYLE_BEGIN
 90
        3
 91
        2
300
_DATA
309
CELLSTYLE_END
  0
XRECORD
  5
55E
102
{ACAD_REACTORS
330
55D
102
}
330
55D
100
AcDbXrecord
280
     1
102
RTVSPost2010Prop28
280
     1
102
RTVSPost2010PropOp28
 70
     1
102
RTVSPost2010Prop29
280
     1
102
RTVSPost2010PropOp29
 70
     1
102
RTVSPost2010Prop30
280
     0
102
RTVSPost2010PropOp30
 70
     1
102
RTVSPost2010Prop31
280
     0
102
RTVSPost2010PropOp31
 70
     1
102
RTVSPost2010Prop32
280
     0
102
RTVSPost2010PropOp32
 70
     1
102
RTVSPost2010Prop33
280
     0
102
RTVSPost2010PropOp33
 70
     1
102
RTVSPost2010Prop34
280
     0
102
RTVSPost2010PropOp34
 70
     1
102
RTVSPost2010Prop35
280
     0
102
RTVSPost2010PropOp35
 70
     1
102
RTVSPost2010Prop36
280
     0
102
RTVSPost2010PropOp36
 70
     1
102
RTVSPost2010Prop37
 90
       50
102
RTVSPost2010PropOp37
 70
     1
102
RTVSPost2010Prop38
140
0.0
102
RTVSPost2010PropOp38
 70
     1
102
RTVSPost2010Prop39
140
1.0
102
RTVSPost2010PropOp39
 70
     1
102
RTVSPost2010Prop40
 90
        0
102
RTVSPost2010PropOp40
 70
     1
102
RTVSPost2010Prop41ColorIndex
 90
       18
102
RTVSPost2010Prop41ColorRGB
 90
        0
102
RTVSPost2010PropOp41
 70
     1
102
RTVSPost2010Prop42
 90
       50
102
RTVSPost2010PropOp42
 70
     1
102
RTVSPost2010Prop43
 90
        3
102
RTVSPost2010PropOp43
 70
     1
102
RTVSPost2010Prop44ColorIndex
 90
        5
102
RTVSPost2010Prop44ColorRGB
 90
      255
102
RTVSPost2010PropOp44
 70
     1
102
RTVSPost2010Prop45
280
     0
102
RTVSPost2010PropOp45
 70
     1
102
RTVSPost2010Prop46
 90
       50
102
RTVSPost2010PropOp46
 70
     1
102
RTVSPost2010Prop47
 90
       50
102
RTVSPost2010PropOp47
 70
     1
102
RTVSPost2010Prop48
 90
       50
102
RTVSPost2010PropOp48
 70
     1
102
RTVSPost2010Prop49
280
     0
102
RTVSPost2010PropOp49
 70
     1
102
RTVSPost2010Prop50
 90
       50
102
RTVSPost2010PropOp50
 70
     1
102
RTVSPost2010Prop51ColorIndex
 90
      256
102
RTVSPost2010Prop51ColorRGB
 90
-16777216
102
RTVSPost2010PropOp51
 70
     0
102
RTVSPost2010Prop52
140
1.0
102
RTVSPost2010PropOp52
 70
     0
102
RTVSPost2010Prop53
 90
        2
102
RTVSPost2010PropOp53
 70
     1
102
RTVSPost2010Prop54
  1
strokes_ogs.tif
102
RTVSPost2010PropOp54
 70
     1
102
RTVSPost2010Prop55
280
     0
102
RTVSPost2010PropOp55
 70
     1
102
RTVSPost2010Prop56
140
1.0
102
RTVSPost2010PropOp56
 70
     1
102
RTVSPost2010Prop57
140
1.0
102
RTVSPost2010PropOp57
 70
     1
  0
XRECORD
  5
564
102
{ACAD_REACTORS
330
563
102
}
330
563
100
AcDbXrecord
280
     1
102
RTVSPost2010Prop28
280
     0
102
RTVSPost2010PropOp28
 70
     1
102
RTVSPost2010Prop29
280
     1
102
RTVSPost2010PropOp29
 70
     1
102
RTVSPost2010Prop30
280
     1
102
RTVSPost2010PropOp30
 70
     1
102
RTVSPost2010Prop31
280
     0
102
RTVSPost2010PropOp31
 70
     1
102
RTVSPost2010Prop32
280
     0
102
RTVSPost2010PropOp32
 70
     1
102
RTVSPost2010Prop33
280
     0
102
RTVSPost2010PropOp33
 70
     1
102
RTVSPost2010Prop34
280
     0
102
RTVSPost2010PropOp34
 70
     1
102
RTVSPost2010Prop35
280
     0
102
RTVSPost2010PropOp35
 70
     1
102
RTVSPost2010Prop36
280
     0
102
RTVSPost2010PropOp36
 70
     1
102
RTVSPost2010Prop37
 90
       50
102
RTVSPost2010PropOp37
 70
     1
102
RTVSPost2010Prop38
140
0.0
102
RTVSPost2010PropOp38
 70
     1
102
RTVSPost2010Prop39
140
1.0
102
RTVSPost2010PropOp39
 70
     1
102
RTVSPost2010Prop40
 90
        0
102
RTVSPost2010PropOp40
 70
     1
102
RTVSPost2010Prop41ColorIndex
 90
       18
102
RTVSPost2010Prop41ColorRGB
 90
        0
102
RTVSPost2010PropOp41
 70
     1
102
RTVSPost2010Prop42
 90
       50
102
RTVSPost2010PropOp42
 70
     1
102
RTVSPost2010Prop43
 90
        3
102
RTVSPost2010PropOp43
 70
     1
102
RTVSPost2010Prop44ColorIndex
 90
        5
102
RTVSPost2010Prop44ColorRGB
 90
      255
102
RTVSPost2010PropOp44
 70
     1
102
RTVSPost2010Prop45
280
     0
102
RTVSPost2010PropOp45
 70
     1
102
RTVSPost2010Prop46
 90
       50
102
RTVSPost2010PropOp46
 70
     1
102
RTVSPost2010Prop47
 90
       50
102
RTVSPost2010PropOp47
 70
     1
102
RTVSPost2010Prop48
 90
       50
102
RTVSPost2010PropOp48
 70
     1
102
RTVSPost2010Prop49
280
     0
102
RTVSPost2010PropOp49
 70
     1
102
RTVSPost2010Prop50
 90
       50
102
RTVSPost2010PropOp50
 70
     1
102
RTVSPost2010Prop51ColorIndex
 90
      256
102
RTVSPost2010Prop51ColorRGB
 90
-16777216
102
RTVSPost2010PropOp51
 70
     0
102
RTVSPost2010Prop52
140
1.0
102
RTVSPost2010PropOp52
 70
     0
102
RTVSPost2010Prop53
 90
        2
102
RTVSPost2010PropOp53
 70
     1
102
RTVSPost2010Prop54
  1
strokes_ogs.tif
102
RTVSPost2010PropOp54
 70
     1
102
RTVSPost2010Prop55
280
     0
102
RTVSPost2010PropOp55
 70
     1
102
RTVSPost2010Prop56
140
1.0
102
RTVSPost2010PropOp56
 70
     1
102
RTVSPost2010Prop57
140
1.0
102
RTVSPost2010PropOp57
 70
     1
  0
XRECORD
  5
56C
102
{ACAD_REACTORS
330
56B
102
}
330
56B
100
AcDbXrecord
280
     1
102
RTVSPost2010Prop28
280
     0
102
RTVSPost2010PropOp28
 70
     1
102
RTVSPost2010Prop29
280
     1
102
RTVSPost2010PropOp29
 70
     1
102
RTVSPost2010Prop30
280
     1
102
RTVSPost2010PropOp30
 70
     1
102
RTVSPost2010Prop31
280
     0
102
RTVSPost2010PropOp31
 70
     1
102
RTVSPost2010Prop32
280
     0
102
RTVSPost2010PropOp32
 70
     1
102
RTVSPost2010Prop33
280
     0
102
RTVSPost2010PropOp33
 70
     1
102
RTVSPost2010Prop34
280
     0
102
RTVSPost2010PropOp34
 70
     1
102
RTVSPost2010Prop35
280
     0
102
RTVSPost2010PropOp35
 70
     1
102
RTVSPost2010Prop36
280
     0
102
RTVSPost2010PropOp36
 70
     1
102
RTVSPost2010Prop37
 90
       50
102
RTVSPost2010PropOp37
 70
     1
102
RTVSPost2010Prop38
140
0.0
102
RTVSPost2010PropOp38
 70
     1
102
RTVSPost2010Prop39
140
1.0
102
RTVSPost2010PropOp39
 70
     1
102
RTVSPost2010Prop40
 90
        0
102
RTVSPost2010PropOp40
 70
     1
102
RTVSPost2010Prop41ColorIndex
 90
       18
102
RTVSPost2010Prop41ColorRGB
 90
        0
102
RTVSPost2010PropOp41
 70
     1
102
RTVSPost2010Prop42
 90
       50
102
RTVSPost2010PropOp42
 70
     1
102
RTVSPost2010Prop43
 90
        3
102
RTVSPost2010PropOp43
 70
     1
102
RTVSPost2010Prop44ColorIndex
 90
        5
102
RTVSPost2010Prop44ColorRGB
 90
      255
102
RTVSPost2010PropOp44
 70
     1
102
RTVSPost2010Prop45
280
     0
102
RTVSPost2010PropOp45
 70
     1
102
RTVSPost2010Prop46
 90
       50
102
RTVSPost2010PropOp46
 70
     1
102
RTVSPost2010Prop47
 90
       50
102
RTVSPost2010PropOp47
 70
     1
102
RTVSPost2010Prop48
 90
       50
102
RTVSPost2010PropOp48
 70
     1
102
RTVSPost2010Prop49
280
     0
102
RTVSPost2010PropOp49
 70
     1
102
RTVSPost2010Prop50
 90
       50
102
RTVSPost2010PropOp50
 70
     1
102
RTVSPost2010Prop51ColorIndex
 90
      256
102
RTVSPost2010Prop51ColorRGB
 90
-16777216
102
RTVSPost2010PropOp51
 70
     0
102
RTVSPost2010Prop52
140
1.0
102
RTVSPost2010PropOp52
 70
     0
102
RTVSPost2010Prop53
 90
        2
102
RTVSPost2010PropOp53
 70
     1
102
RTVSPost2010Prop54
  1
strokes_ogs.tif
102
RTVSPost2010PropOp54
 70
     1
102
RTVSPost2010Prop55
280
     0
102
RTVSPost2010PropOp55
 70
     1
102
RTVSPost2010Prop56
140
1.0
102
RTVSPost2010PropOp56
 70
     1
102
RTVSPost2010Prop57
140
1.0
102
RTVSPost2010PropOp57
 70
     1
  0
XRECORD
  5
574
102
{ACAD_REACTORS
330
573
102
}
330
573
100
AcDbXrecord
280
     1
102
RTVSPost2010Prop28
280
     0
102
RTVSPost2010PropOp28
 70
     1
102
RTVSPost2010Prop29
280
     1
102
RTVSPost2010PropOp29
 70
     1
102
RTVSPost2010Prop30
280
     1
102
RTVSPost2010PropOp30
 70
     1
102
RTVSPost2010Prop31
280
     0
102
RTVSPost2010PropOp31
 70
     1
102
RTVSPost2010Prop32
280
     0
102
RTVSPost2010PropOp32
 70
     1
102
RTVSPost2010Prop33
280
     0
102
RTVSPost2010PropOp33
 70
     1
102
RTVSPost2010Prop34
280
     0
102
RTVSPost2010PropOp34
 70
     1
102
RTVSPost2010Prop35
280
     0
102
RTVSPost2010PropOp35
 70
     1
102
RTVSPost2010Prop36
280
     0
102
RTVSPost2010PropOp36
 70
     1
102
RTVSPost2010Prop37
 90
       50
102
RTVSPost2010PropOp37
 70
     1
102
RTVSPost2010Prop38
140
0.0
102
RTVSPost2010PropOp38
 70
     1
102
RTVSPost2010Prop39
140
1.0
102
RTVSPost2010PropOp39
 70
     1
102
RTVSPost2010Prop40
 90
        0
102
RTVSPost2010PropOp40
 70
     1
102
RTVSPost2010Prop41ColorIndex
 90
       18
102
RTVSPost2010Prop41ColorRGB
 90
        0
102
RTVSPost2010PropOp41
 70
     1
102
RTVSPost2010Prop42
 90
       50
102
RTVSPost2010PropOp42
 70
     1
102
RTVSPost2010Prop43
 90
        3
102
RTVSPost2010PropOp43
 70
     1
102
RTVSPost2010Prop44ColorIndex
 90
        5
102
RTVSPost2010Prop44ColorRGB
 90
      255
102
RTVSPost2010PropOp44
 70
     1
102
RTVSPost2010Prop45
280
     0
102
RTVSPost2010PropOp45
 70
     1
102
RTVSPost2010Prop46
 90
       50
102
RTVSPost2010PropOp46
 70
     1
102
RTVSPost2010Prop47
 90
       50
102
RTVSPost2010PropOp47
 70
     1
102
RTVSPost2010Prop48
 90
       50
102
RTVSPost2010PropOp48
 70
     1
102
RTVSPost2010Prop49
280
     0
102
RTVSPost2010PropOp49
 70
     1
102
RTVSPost2010Prop50
 90
       50
102
RTVSPost2010PropOp50
 70
     1
102
RTVSPost2010Prop51ColorIndex
 90
      256
102
RTVSPost2010Prop51ColorRGB
 90
-16777216
102
RTVSPost2010PropOp51
 70
     0
102
RTVSPost2010Prop52
140
1.0
102
RTVSPost2010PropOp52
 70
     0
102
RTVSPost2010Prop53
 90
        2
102
RTVSPost2010PropOp53
 70
     1
102
RTVSPost2010Prop54
  1
strokes_ogs.tif
102
RTVSPost2010PropOp54
 70
     1
102
RTVSPost2010Prop55
280
     0
102
RTVSPost2010PropOp55
 70
     1
102
RTVSPost2010Prop56
140
1.0
102
RTVSPost2010PropOp56
 70
     1
102
RTVSPost2010Prop57
140
1.0
102
RTVSPost2010PropOp57
 70
     1
  0
XRECORD
  5
568
102
{ACAD_REACTORS
330
567
102
}
330
567
100
AcDbXrecord
280
     1
102
RTVSPost2010Prop28
280
     0
102
RTVSPost2010PropOp28
 70
     1
102
RTVSPost2010Prop29
280
     1
102
RTVSPost2010PropOp29
 70
     1
102
RTVSPost2010Prop30
280
     1
102
RTVSPost2010PropOp30
 70
     1
102
RTVSPost2010Prop31
280
     0
102
RTVSPost2010PropOp31
 70
     1
102
RTVSPost2010Prop32
280
     0
102
RTVSPost2010PropOp32
 70
     1
102
RTVSPost2010Prop33
280
     0
102
RTVSPost2010PropOp33
 70
     1
102
RTVSPost2010Prop34
280
     0
102
RTVSPost2010PropOp34
 70
     1
102
RTVSPost2010Prop35
280
     0
102
RTVSPost2010PropOp35
 70
     1
102
RTVSPost2010Prop36
280
     0
102
RTVSPost2010PropOp36
 70
     1
102
RTVSPost2010Prop37
 90
       50
102
RTVSPost2010PropOp37
 70
     1
102
RTVSPost2010Prop38
140
0.0
102
RTVSPost2010PropOp38
 70
     1
102
RTVSPost2010Prop39
140
1.0
102
RTVSPost2010PropOp39
 70
     1
102
RTVSPost2010Prop40
 90
        0
102
RTVSPost2010PropOp40
 70
     1
102
RTVSPost2010Prop41ColorIndex
 90
       18
102
RTVSPost2010Prop41ColorRGB
 90
        0
102
RTVSPost2010PropOp41
 70
     1
102
RTVSPost2010Prop42
 90
       50
102
RTVSPost2010PropOp42
 70
     1
102
RTVSPost2010Prop43
 90
        3
102
RTVSPost2010PropOp43
 70
     1
102
RTVSPost2010Prop44ColorIndex
 90
        5
102
RTVSPost2010Prop44ColorRGB
 90
      255
102
RTVSPost2010PropOp44
 70
     1
102
RTVSPost2010Prop45
280
     0
102
RTVSPost2010PropOp45
 70
     1
102
RTVSPost2010Prop46
 90
       50
102
RTVSPost2010PropOp46
 70
     1
102
RTVSPost2010Prop47
 90
       50
102
RTVSPost2010PropOp47
 70
     1
102
RTVSPost2010Prop48
 90
       50
102
RTVSPost2010PropOp48
 70
     1
102
RTVSPost2010Prop49
280
     0
102
RTVSPost2010PropOp49
 70
     1
102
RTVSPost2010Prop50
 90
       50
102
RTVSPost2010PropOp50
 70
     1
102
RTVSPost2010Prop51ColorIndex
 90
      256
102
RTVSPost2010Prop51ColorRGB
 90
-16777216
102
RTVSPost2010PropOp51
 70
     0
102
RTVSPost2010Prop52
140
1.0
102
RTVSPost2010PropOp52
 70
     0
102
RTVSPost2010Prop53
 90
        2
102
RTVSPost2010PropOp53
 70
     1
102
RTVSPost2010Prop54
  1
strokes_ogs.tif
102
RTVSPost2010PropOp54
 70
     1
102
RTVSPost2010Prop55
280
     0
102
RTVSPost2010PropOp55
 70
     1
102
RTVSPost2010Prop56
140
1.0
102
RTVSPost2010PropOp56
 70
     1
102
RTVSPost2010Prop57
140
1.0
102
RTVSPost2010PropOp57
 70
     1
  0
XRECORD
  5
56A
102
{ACAD_REACTORS
330
569
102
}
330
569
100
AcDbXrecord
280
     1
102
RTVSPost2010Prop28
280
     0
102
RTVSPost2010PropOp28
 70
     1
102
RTVSPost2010Prop29
280
     1
102
RTVSPost2010PropOp29
 70
     1
102
RTVSPost2010Prop30
280
     1
102
RTVSPost2010PropOp30
 70
     1
102
RTVSPost2010Prop31
280
     0
102
RTVSPost2010PropOp31
 70
     1
102
RTVSPost2010Prop32
280
     0
102
RTVSPost2010PropOp32
 70
     1
102
RTVSPost2010Prop33
280
     0
102
RTVSPost2010PropOp33
 70
     1
102
RTVSPost2010Prop34
280
     0
102
RTVSPost2010PropOp34
 70
     1
102
RTVSPost2010Prop35
280
     0
102
RTVSPost2010PropOp35
 70
     1
102
RTVSPost2010Prop36
280
     0
102
RTVSPost2010PropOp36
 70
     1
102
RTVSPost2010Prop37
 90
       50
102
RTVSPost2010PropOp37
 70
     1
102
RTVSPost2010Prop38
140
0.0
102
RTVSPost2010PropOp38
 70
     1
102
RTVSPost2010Prop39
140
1.0
102
RTVSPost2010PropOp39
 70
     1
102
RTVSPost2010Prop40
 90
        0
102
RTVSPost2010PropOp40
 70
     1
102
RTVSPost2010Prop41ColorIndex
 90
       18
102
RTVSPost2010Prop41ColorRGB
 90
        0
102
RTVSPost2010PropOp41
 70
     1
102
RTVSPost2010Prop42
 90
       50
102
RTVSPost2010PropOp42
 70
     1
102
RTVSPost2010Prop43
 90
        3
102
RTVSPost2010PropOp43
 70
     1
102
RTVSPost2010Prop44ColorIndex
 90
        5
102
RTVSPost2010Prop44ColorRGB
 90
      255
102
RTVSPost2010PropOp44
 70
     1
102
RTVSPost2010Prop45
280
     0
102
RTVSPost2010PropOp45
 70
     1
102
RTVSPost2010Prop46
 90
       50
102
RTVSPost2010PropOp46
 70
     1
102
RTVSPost2010Prop47
 90
       50
102
RTVSPost2010PropOp47
 70
     1
102
RTVSPost2010Prop48
 90
       50
102
RTVSPost2010PropOp48
 70
     1
102
RTVSPost2010Prop49
280
     0
102
RTVSPost2010PropOp49
 70
     1
102
RTVSPost2010Prop50
 90
       50
102
RTVSPost2010PropOp50
 70
     1
102
RTVSPost2010Prop51ColorIndex
 90
      256
102
RTVSPost2010Prop51ColorRGB
 90
-16777216
102
RTVSPost2010PropOp51
 70
     0
102
RTVSPost2010Prop52
140
1.0
102
RTVSPost2010PropOp52
 70
     0
102
RTVSPost2010Prop53
 90
        2
102
RTVSPost2010PropOp53
 70
     1
102
RTVSPost2010Prop54
  1
strokes_ogs.tif
102
RTVSPost2010PropOp54
 70
     1
102
RTVSPost2010Prop55
280
     0
102
RTVSPost2010PropOp55
 70
     1
102
RTVSPost2010Prop56
140
1.0
102
RTVSPost2010PropOp56
 70
     1
102
RTVSPost2010Prop57
140
1.0
102
RTVSPost2010PropOp57
 70
     1
  0
XRECORD
  5
57A
102
{ACAD_REACTORS
330
579
102
}
330
579
100
AcDbXrecord
280
     1
102
RTVSPost2010Prop28
280
     0
102
RTVSPost2010PropOp28
 70
     0
102
RTVSPost2010Prop29
280
     1
102
RTVSPost2010PropOp29
 70
     0
102
RTVSPost2010Prop30
280
     1
102
RTVSPost2010PropOp30
 70
     0
102
RTVSPost2010Prop31
280
     0
102
RTVSPost2010PropOp31
 70
     0
102
RTVSPost2010Prop32
280
     0
102
RTVSPost2010PropOp32
 70
     0
102
RTVSPost2010Prop33
280
     0
102
RTVSPost2010PropOp33
 70
     0
102
RTVSPost2010Prop34
280
     0
102
RTVSPost2010PropOp34
 70
     0
102
RTVSPost2010Prop35
280
     0
102
RTVSPost2010PropOp35
 70
     0
102
RTVSPost2010Prop36
280
     0
102
RTVSPost2010PropOp36
 70
     0
102
RTVSPost2010Prop37
 90
       50
102
RTVSPost2010PropOp37
 70
     0
102
RTVSPost2010Prop38
140
0.0
102
RTVSPost2010PropOp38
 70
     0
102
RTVSPost2010Prop39
140
1.0
102
RTVSPost2010PropOp39
 70
     0
102
RTVSPost2010Prop40
 90
        0
102
RTVSPost2010PropOp40
 70
     0
102
RTVSPost2010Prop41ColorIndex
 90
       18
102
RTVSPost2010Prop41ColorRGB
 90
        0
102
RTVSPost2010PropOp41
 70
     0
102
RTVSPost2010Prop42
 90
       50
102
RTVSPost2010PropOp42
 70
     0
102
RTVSPost2010Prop43
 90
        3
102
RTVSPost2010PropOp43
 70
     0
102
RTVSPost2010Prop44ColorIndex
 90
        5
102
RTVSPost2010Prop44ColorRGB
 90
      255
102
RTVSPost2010PropOp44
 70
     0
102
RTVSPost2010Prop45
280
     0
102
RTVSPost2010PropOp45
 70
     0
102
RTVSPost2010Prop46
 90
       50
102
RTVSPost2010PropOp46
 70
     0
102
RTVSPost2010Prop47
 90
       50
102
RTVSPost2010PropOp47
 70
     0
102
RTVSPost2010Prop48
 90
       50
102
RTVSPost2010PropOp48
 70
     0
102
RTVSPost2010Prop49
280
     0
102
RTVSPost2010PropOp49
 70
     0
102
RTVSPost2010Prop50
 90
       50
102
RTVSPost2010PropOp50
 70
     0
102
RTVSPost2010Prop51ColorIndex
 90
      256
102
RTVSPost2010Prop51ColorRGB
 90
-16777216
102
RTVSPost2010PropOp51
 70
     0
102
RTVSPost2010Prop52
140
1.0
102
RTVSPost2010PropOp52
 70
     0
102
RTVSPost2010Prop53
 90
        2
102
RTVSPost2010PropOp53
 70
     0
102
RTVSPost2010Prop54
  1
strokes_ogs.tif
102
RTVSPost2010PropOp54
 70
     0
102
RTVSPost2010Prop55
280
     0
102
RTVSPost2010PropOp55
 70
     0
102
RTVSPost2010Prop56
140
1.0
102
RTVSPost2010PropOp56
 70
     0
102
RTVSPost2010Prop57
140
1.0
102
RTVSPost2010PropOp57
 70
     0
  0
XRECORD
  5
572
102
{ACAD_REACTORS
330
571
102
}
330
571
100
AcDbXrecord
280
     1
102
RTVSPost2010Prop28
280
     0
102
RTVSPost2010PropOp28
 70
     1
102
RTVSPost2010Prop29
280
     1
102
RTVSPost2010PropOp29
 70
     1
102
RTVSPost2010Prop30
280
     1
102
RTVSPost2010PropOp30
 70
     1
102
RTVSPost2010Prop31
280
     0
102
RTVSPost2010PropOp31
 70
     1
102
RTVSPost2010Prop32
280
     0
102
RTVSPost2010PropOp32
 70
     1
102
RTVSPost2010Prop33
280
     0
102
RTVSPost2010PropOp33
 70
     1
102
RTVSPost2010Prop34
280
     0
102
RTVSPost2010PropOp34
 70
     1
102
RTVSPost2010Prop35
280
     0
102
RTVSPost2010PropOp35
 70
     1
102
RTVSPost2010Prop36
280
     0
102
RTVSPost2010PropOp36
 70
     1
102
RTVSPost2010Prop37
 90
       50
102
RTVSPost2010PropOp37
 70
     1
102
RTVSPost2010Prop38
140
0.0
102
RTVSPost2010PropOp38
 70
     1
102
RTVSPost2010Prop39
140
1.0
102
RTVSPost2010PropOp39
 70
     1
102
RTVSPost2010Prop40
 90
        0
102
RTVSPost2010PropOp40
 70
     1
102
RTVSPost2010Prop41ColorIndex
 90
       18
102
RTVSPost2010Prop41ColorRGB
 90
        0
102
RTVSPost2010PropOp41
 70
     1
102
RTVSPost2010Prop42
 90
       50
102
RTVSPost2010PropOp42
 70
     1
102
RTVSPost2010Prop43
 90
        3
102
RTVSPost2010PropOp43
 70
     1
102
RTVSPost2010Prop44ColorIndex
 90
        5
102
RTVSPost2010Prop44ColorRGB
 90
      255
102
RTVSPost2010PropOp44
 70
     1
102
RTVSPost2010Prop45
280
     0
102
RTVSPost2010PropOp45
 70
     1
102
RTVSPost2010Prop46
 90
       50
102
RTVSPost2010PropOp46
 70
     1
102
RTVSPost2010Prop47
 90
       50
102
RTVSPost2010PropOp47
 70
     1
102
RTVSPost2010Prop48
 90
       50
102
RTVSPost2010PropOp48
 70
     1
102
RTVSPost2010Prop49
280
     0
102
RTVSPost2010PropOp49
 70
     1
102
RTVSPost2010Prop50
 90
       50
102
RTVSPost2010PropOp50
 70
     1
102
RTVSPost2010Prop51ColorIndex
 90
      256
102
RTVSPost2010Prop51ColorRGB
 90
-16777216
102
RTVSPost2010PropOp51
 70
     0
102
RTVSPost2010Prop52
140
1.0
102
RTVSPost2010PropOp52
 70
     0
102
RTVSPost2010Prop53
 90
        2
102
RTVSPost2010PropOp53
 70
     1
102
RTVSPost2010Prop54
  1
strokes_ogs.tif
102
RTVSPost2010PropOp54
 70
     1
102
RTVSPost2010Prop55
280
     0
102
RTVSPost2010PropOp55
 70
     1
102
RTVSPost2010Prop56
140
1.0
102
RTVSPost2010PropOp56
 70
     1
102
RTVSPost2010Prop57
140
1.0
102
RTVSPost2010PropOp57
 70
     1
  0
XRECORD
  5
556
102
{ACAD_REACTORS
330
555
102
}
330
555
100
AcDbXrecord
280
     1
102
RTVSPost2010Prop28
280
     0
102
RTVSPost2010PropOp28
 70
     1
102
RTVSPost2010Prop29
280
     1
102
RTVSPost2010PropOp29
 70
     1
102
RTVSPost2010Prop30
280
     1
102
RTVSPost2010PropOp30
 70
     1
102
RTVSPost2010Prop31
280
     0
102
RTVSPost2010PropOp31
 70
     1
102
RTVSPost2010Prop32
280
     0
102
RTVSPost2010PropOp32
 70
     1
102
RTVSPost2010Prop33
280
     0
102
RTVSPost2010PropOp33
 70
     1
102
RTVSPost2010Prop34
280
     0
102
RTVSPost2010PropOp34
 70
     1
102
RTVSPost2010Prop35
280
     0
102
RTVSPost2010PropOp35
 70
     1
102
RTVSPost2010Prop36
280
     0
102
RTVSPost2010PropOp36
 70
     1
102
RTVSPost2010Prop37
 90
       50
102
RTVSPost2010PropOp37
 70
     1
102
RTVSPost2010Prop38
140
0.0
102
RTVSPost2010PropOp38
 70
     1
102
RTVSPost2010Prop39
140
1.0
102
RTVSPost2010PropOp39
 70
     1
102
RTVSPost2010Prop40
 90
        0
102
RTVSPost2010PropOp40
 70
     1
102
RTVSPost2010Prop41ColorIndex
 90
       18
102
RTVSPost2010Prop41ColorRGB
 90
        0
102
RTVSPost2010PropOp41
 70
     1
102
RTVSPost2010Prop42
 90
       50
102
RTVSPost2010PropOp42
 70
     1
102
RTVSPost2010Prop43
 90
        3
102
RTVSPost2010PropOp43
 70
     1
102
RTVSPost2010Prop44ColorIndex
 90
        5
102
RTVSPost2010Prop44ColorRGB
 90
      255
102
RTVSPost2010PropOp44
 70
     1
102
RTVSPost2010Prop45
280
     0
102
RTVSPost2010PropOp45
 70
     1
102
RTVSPost2010Prop46
 90
       50
102
RTVSPost2010PropOp46
 70
     1
102
RTVSPost2010Prop47
 90
       50
102
RTVSPost2010PropOp47
 70
     1
102
RTVSPost2010Prop48
 90
       50
102
RTVSPost2010PropOp48
 70
     1
102
RTVSPost2010Prop49
280
     0
102
RTVSPost2010PropOp49
 70
     1
102
RTVSPost2010Prop50
 90
       50
102
RTVSPost2010PropOp50
 70
     1
102
RTVSPost2010Prop51ColorIndex
 90
      256
102
RTVSPost2010Prop51ColorRGB
 90
-16777216
102
RTVSPost2010PropOp51
 70
     0
102
RTVSPost2010Prop52
140
1.0
102
RTVSPost2010PropOp52
 70
     0
102
RTVSPost2010Prop53
 90
        2
102
RTVSPost2010PropOp53
 70
     1
102
RTVSPost2010Prop54
  1
strokes_ogs.tif
102
RTVSPost2010PropOp54
 70
     1
102
RTVSPost2010Prop55
280
     0
102
RTVSPost2010PropOp55
 70
     1
102
RTVSPost2010Prop56
140
1.0
102
RTVSPost2010PropOp56
 70
     1
102
RTVSPost2010Prop57
140
1.0
102
RTVSPost2010PropOp57
 70
     1
  0
XRECORD
  5
558
102
{ACAD_REACTORS
330
557
102
}
330
557
100
AcDbXrecord
280
     1
102
RTVSPost2010Prop28
280
     0
102
RTVSPost2010PropOp28
 70
     1
102
RTVSPost2010Prop29
280
     1
102
RTVSPost2010PropOp29
 70
     1
102
RTVSPost2010Prop30
280
     1
102
RTVSPost2010PropOp30
 70
     1
102
RTVSPost2010Prop31
280
     0
102
RTVSPost2010PropOp31
 70
     1
102
RTVSPost2010Prop32
280
     0
102
RTVSPost2010PropOp32
 70
     1
102
RTVSPost2010Prop33
280
     0
102
RTVSPost2010PropOp33
 70
     1
102
RTVSPost2010Prop34
280
     0
102
RTVSPost2010PropOp34
 70
     1
102
RTVSPost2010Prop35
280
     0
102
RTVSPost2010PropOp35
 70
     1
102
RTVSPost2010Prop36
280
     0
102
RTVSPost2010PropOp36
 70
     1
102
RTVSPost2010Prop37
 90
       50
102
RTVSPost2010PropOp37
 70
     1
102
RTVSPost2010Prop38
140
0.0
102
RTVSPost2010PropOp38
 70
     1
102
RTVSPost2010Prop39
140
1.0
102
RTVSPost2010PropOp39
 70
     1
102
RTVSPost2010Prop40
 90
        0
102
RTVSPost2010PropOp40
 70
     1
102
RTVSPost2010Prop41ColorIndex
 90
       18
102
RTVSPost2010Prop41ColorRGB
 90
        0
102
RTVSPost2010PropOp41
 70
     1
102
RTVSPost2010Prop42
 90
       50
102
RTVSPost2010PropOp42
 70
     1
102
RTVSPost2010Prop43
 90
        3
102
RTVSPost2010PropOp43
 70
     1
102
RTVSPost2010Prop44ColorIndex
 90
        5
102
RTVSPost2010Prop44ColorRGB
 90
      255
102
RTVSPost2010PropOp44
 70
     1
102
RTVSPost2010Prop45
280
     0
102
RTVSPost2010PropOp45
 70
     1
102
RTVSPost2010Prop46
 90
       50
102
RTVSPost2010PropOp46
 70
     1
102
RTVSPost2010Prop47
 90
       50
102
RTVSPost2010PropOp47
 70
     1
102
RTVSPost2010Prop48
 90
       50
102
RTVSPost2010PropOp48
 70
     1
102
RTVSPost2010Prop49
280
     0
102
RTVSPost2010PropOp49
 70
     1
102
RTVSPost2010Prop50
 90
       50
102
RTVSPost2010PropOp50
 70
     1
102
RTVSPost2010Prop51ColorIndex
 90
      256
102
RTVSPost2010Prop51ColorRGB
 90
-16777216
102
RTVSPost2010PropOp51
 70
     0
102
RTVSPost2010Prop52
140
1.0
102
RTVSPost2010PropOp52
 70
     0
102
RTVSPost2010Prop53
 90
        2
102
RTVSPost2010PropOp53
 70
     1
102
RTVSPost2010Prop54
  1
strokes_ogs.tif
102
RTVSPost2010PropOp54
 70
     1
102
RTVSPost2010Prop55
280
     0
102
RTVSPost2010PropOp55
 70
     1
102
RTVSPost2010Prop56
140
1.0
102
RTVSPost2010PropOp56
 70
     1
102
RTVSPost2010Prop57
140
1.0
102
RTVSPost2010PropOp57
 70
     1
  0
XRECORD
  5
55A
102
{ACAD_REACTORS
330
559
102
}
330
559
100
AcDbXrecord
280
     1
102
RTVSPost2010Prop28
280
     0
102
RTVSPost2010PropOp28
 70
     1
102
RTVSPost2010Prop29
280
     1
102
RTVSPost2010PropOp29
 70
     1
102
RTVSPost2010Prop30
280
     1
102
RTVSPost2010PropOp30
 70
     1
102
RTVSPost2010Prop31
280
     0
102
RTVSPost2010PropOp31
 70
     1
102
RTVSPost2010Prop32
280
     0
102
RTVSPost2010PropOp32
 70
     1
102
RTVSPost2010Prop33
280
     0
102
RTVSPost2010PropOp33
 70
     1
102
RTVSPost2010Prop34
280
     0
102
RTVSPost2010PropOp34
 70
     1
102
RTVSPost2010Prop35
280
     0
102
RTVSPost2010PropOp35
 70
     1
102
RTVSPost2010Prop36
280
     0
102
RTVSPost2010PropOp36
 70
     1
102
RTVSPost2010Prop37
 90
       50
102
RTVSPost2010PropOp37
 70
     1
102
RTVSPost2010Prop38
140
0.0
102
RTVSPost2010PropOp38
 70
     1
102
RTVSPost2010Prop39
140
1.0
102
RTVSPost2010PropOp39
 70
     1
102
RTVSPost2010Prop40
 90
        0
102
RTVSPost2010PropOp40
 70
     1
102
RTVSPost2010Prop41ColorIndex
 90
       18
102
RTVSPost2010Prop41ColorRGB
 90
        0
102
RTVSPost2010PropOp41
 70
     1
102
RTVSPost2010Prop42
 90
       50
102
RTVSPost2010PropOp42
 70
     1
102
RTVSPost2010Prop43
 90
        3
102
RTVSPost2010PropOp43
 70
     1
102
RTVSPost2010Prop44ColorIndex
 90
        5
102
RTVSPost2010Prop44ColorRGB
 90
      255
102
RTVSPost2010PropOp44
 70
     1
102
RTVSPost2010Prop45
280
     0
102
RTVSPost2010PropOp45
 70
     1
102
RTVSPost2010Prop46
 90
       50
102
RTVSPost2010PropOp46
 70
     1
102
RTVSPost2010Prop47
 90
       50
102
RTVSPost2010PropOp47
 70
     1
102
RTVSPost2010Prop48
 90
       50
102
RTVSPost2010PropOp48
 70
     1
102
RTVSPost2010Prop49
280
     0
102
RTVSPost2010PropOp49
 70
     1
102
RTVSPost2010Prop50
 90
       50
102
RTVSPost2010PropOp50
 70
     1
102
RTVSPost2010Prop51ColorIndex
 90
      256
102
RTVSPost2010Prop51ColorRGB
 90
-16777216
102
RTVSPost2010PropOp51
 70
     0
102
RTVSPost2010Prop52
140
1.0
102
RTVSPost2010PropOp52
 70
     0
102
RTVSPost2010Prop53
 90
        2
102
RTVSPost2010PropOp53
 70
     1
102
RTVSPost2010Prop54
  1
strokes_ogs.tif
102
RTVSPost2010PropOp54
 70
     1
102
RTVSPost2010Prop55
280
     0
102
RTVSPost2010PropOp55
 70
     1
102
RTVSPost2010Prop56
140
1.0
102
RTVSPost2010PropOp56
 70
     1
102
RTVSPost2010Prop57
140
1.0
102
RTVSPost2010PropOp57
 70
     1
  0
XRECORD
  5
55C
102
{ACAD_REACTORS
330
55B
102
}
330
55B
100
AcDbXrecord
280
     1
102
RTVSPost2010Prop28
280
     0
102
RTVSPost2010PropOp28
 70
     1
102
RTVSPost2010Prop29
280
     1
102
RTVSPost2010PropOp29
 70
     1
102
RTVSPost2010Prop30
280
     1
102
RTVSPost2010PropOp30
 70
     1
102
RTVSPost2010Prop31
280
     0
102
RTVSPost2010PropOp31
 70
     1
102
RTVSPost2010Prop32
280
     0
102
RTVSPost2010PropOp32
 70
     1
102
RTVSPost2010Prop33
280
     0
102
RTVSPost2010PropOp33
 70
     1
102
RTVSPost2010Prop34
280
     0
102
RTVSPost2010PropOp34
 70
     1
102
RTVSPost2010Prop35
280
     0
102
RTVSPost2010PropOp35
 70
     1
102
RTVSPost2010Prop36
280
     0
102
RTVSPost2010PropOp36
 70
     1
102
RTVSPost2010Prop37
 90
       50
102
RTVSPost2010PropOp37
 70
     1
102
RTVSPost2010Prop38
140
0.0
102
RTVSPost2010PropOp38
 70
     1
102
RTVSPost2010Prop39
140
1.0
102
RTVSPost2010PropOp39
 70
     1
102
RTVSPost2010Prop40
 90
        0
102
RTVSPost2010PropOp40
 70
     1
102
RTVSPost2010Prop41ColorIndex
 90
       18
102
RTVSPost2010Prop41ColorRGB
 90
        0
102
RTVSPost2010PropOp41
 70
     1
102
RTVSPost2010Prop42
 90
       50
102
RTVSPost2010PropOp42
 70
     1
102
RTVSPost2010Prop43
 90
        3
102
RTVSPost2010PropOp43
 70
     1
102
RTVSPost2010Prop44ColorIndex
 90
        5
102
RTVSPost2010Prop44ColorRGB
 90
      255
102
RTVSPost2010PropOp44
 70
     1
102
RTVSPost2010Prop45
280
     0
102
RTVSPost2010PropOp45
 70
     1
102
RTVSPost2010Prop46
 90
       50
102
RTVSPost2010PropOp46
 70
     1
102
RTVSPost2010Prop47
 90
       50
102
RTVSPost2010PropOp47
 70
     1
102
RTVSPost2010Prop48
 90
       50
102
RTVSPost2010PropOp48
 70
     1
102
RTVSPost2010Prop49
280
     0
102
RTVSPost2010PropOp49
 70
     1
102
RTVSPost2010Prop50
 90
       50
102
RTVSPost2010PropOp50
 70
     1
102
RTVSPost2010Prop51ColorIndex
 90
      256
102
RTVSPost2010Prop51ColorRGB
 90
-16777216
102
RTVSPost2010PropOp51
 70
     0
102
RTVSPost2010Prop52
140
1.0
102
RTVSPost2010PropOp52
 70
     0
102
RTVSPost2010Prop53
 90
        2
102
RTVSPost2010PropOp53
 70
     1
102
RTVSPost2010Prop54
  1
strokes_ogs.tif
102
RTVSPost2010PropOp54
 70
     1
102
RTVSPost2010Prop55
280
     0
102
RTVSPost2010PropOp55
 70
     1
102
RTVSPost2010Prop56
140
1.0
102
RTVSPost2010PropOp56
 70
     1
102
RTVSPost2010Prop57
140
1.0
102
RTVSPost2010PropOp57
 70
     1
  0
XRECORD
  5
562
102
{ACAD_REACTORS
330
561
102
}
330
561
100
AcDbXrecord
280
     1
102
RTVSPost2010Prop28
280
     0
102
RTVSPost2010PropOp28
 70
     1
102
RTVSPost2010Prop29
280
     1
102
RTVSPost2010PropOp29
 70
     1
102
RTVSPost2010Prop30
280
     1
102
RTVSPost2010PropOp30
 70
     1
102
RTVSPost2010Prop31
280
     0
102
RTVSPost2010PropOp31
 70
     1
102
RTVSPost2010Prop32
280
     0
102
RTVSPost2010PropOp32
 70
     1
102
RTVSPost2010Prop33
280
     0
102
RTVSPost2010PropOp33
 70
     1
102
RTVSPost2010Prop34
280
     0
102
RTVSPost2010PropOp34
 70
     1
102
RTVSPost2010Prop35
280
     0
102
RTVSPost2010PropOp35
 70
     1
102
RTVSPost2010Prop36
280
     0
102
RTVSPost2010PropOp36
 70
     1
102
RTVSPost2010Prop37
 90
       50
102
RTVSPost2010PropOp37
 70
     1
102
RTVSPost2010Prop38
140
0.0
102
RTVSPost2010PropOp38
 70
     1
102
RTVSPost2010Prop39
140
1.0
102
RTVSPost2010PropOp39
 70
     1
102
RTVSPost2010Prop40
 90
        0
102
RTVSPost2010PropOp40
 70
     1
102
RTVSPost2010Prop41ColorIndex
 90
       18
102
RTVSPost2010Prop41ColorRGB
 90
        0
102
RTVSPost2010PropOp41
 70
     1
102
RTVSPost2010Prop42
 90
       50
102
RTVSPost2010PropOp42
 70
     1
102
RTVSPost2010Prop43
 90
        3
102
RTVSPost2010PropOp43
 70
     1
102
RTVSPost2010Prop44ColorIndex
 90
        5
102
RTVSPost2010Prop44ColorRGB
 90
      255
102
RTVSPost2010PropOp44
 70
     1
102
RTVSPost2010Prop45
280
     0
102
RTVSPost2010PropOp45
 70
     1
102
RTVSPost2010Prop46
 90
       50
102
RTVSPost2010PropOp46
 70
     1
102
RTVSPost2010Prop47
 90
       50
102
RTVSPost2010PropOp47
 70
     1
102
RTVSPost2010Prop48
 90
       50
102
RTVSPost2010PropOp48
 70
     1
102
RTVSPost2010Prop49
280
     0
102
RTVSPost2010PropOp49
 70
     1
102
RTVSPost2010Prop50
 90
       50
102
RTVSPost2010PropOp50
 70
     1
102
RTVSPost2010Prop51ColorIndex
 90
      256
102
RTVSPost2010Prop51ColorRGB
 90
-16777216
102
RTVSPost2010PropOp51
 70
     0
102
RTVSPost2010Prop52
140
1.0
102
RTVSPost2010PropOp52
 70
     0
102
RTVSPost2010Prop53
 90
        2
102
RTVSPost2010PropOp53
 70
     1
102
RTVSPost2010Prop54
  1
strokes_ogs.tif
102
RTVSPost2010PropOp54
 70
     1
102
RTVSPost2010Prop55
280
     0
102
RTVSPost2010PropOp55
 70
     1
102
RTVSPost2010Prop56
140
1.0
102
RTVSPost2010PropOp56
 70
     1
102
RTVSPost2010Prop57
140
1.0
102
RTVSPost2010PropOp57
 70
     1
  0
XRECORD
  5
576
102
{ACAD_REACTORS
330
575
102
}
330
575
100
AcDbXrecord
280
     1
102
RTVSPost2010Prop28
280
     0
102
RTVSPost2010PropOp28
 70
     0
102
RTVSPost2010Prop29
280
     1
102
RTVSPost2010PropOp29
 70
     0
102
RTVSPost2010Prop30
280
     1
102
RTVSPost2010PropOp30
 70
     0
102
RTVSPost2010Prop31
280
     0
102
RTVSPost2010PropOp31
 70
     0
102
RTVSPost2010Prop32
280
     0
102
RTVSPost2010PropOp32
 70
     0
102
RTVSPost2010Prop33
280
     0
102
RTVSPost2010PropOp33
 70
     0
102
RTVSPost2010Prop34
280
     0
102
RTVSPost2010PropOp34
 70
     0
102
RTVSPost2010Prop35
280
     0
102
RTVSPost2010PropOp35
 70
     0
102
RTVSPost2010Prop36
280
     0
102
RTVSPost2010PropOp36
 70
     0
102
RTVSPost2010Prop37
 90
       50
102
RTVSPost2010PropOp37
 70
     0
102
RTVSPost2010Prop38
140
0.0
102
RTVSPost2010PropOp38
 70
     0
102
RTVSPost2010Prop39
140
1.0
102
RTVSPost2010PropOp39
 70
     0
102
RTVSPost2010Prop40
 90
        0
102
RTVSPost2010PropOp40
 70
     0
102
RTVSPost2010Prop41ColorIndex
 90
       18
102
RTVSPost2010Prop41ColorRGB
 90
        0
102
RTVSPost2010PropOp41
 70
     0
102
RTVSPost2010Prop42
 90
       50
102
RTVSPost2010PropOp42
 70
     0
102
RTVSPost2010Prop43
 90
        3
102
RTVSPost2010PropOp43
 70
     0
102
RTVSPost2010Prop44ColorIndex
 90
        5
102
RTVSPost2010Prop44ColorRGB
 90
      255
102
RTVSPost2010PropOp44
 70
     0
102
RTVSPost2010Prop45
280
     0
102
RTVSPost2010PropOp45
 70
     0
102
RTVSPost2010Prop46
 90
       50
102
RTVSPost2010PropOp46
 70
     0
102
RTVSPost2010Prop47
 90
       50
102
RTVSPost2010PropOp47
 70
     0
102
RTVSPost2010Prop48
 90
       50
102
RTVSPost2010PropOp48
 70
     0
102
RTVSPost2010Prop49
280
     0
102
RTVSPost2010PropOp49
 70
     0
102
RTVSPost2010Prop50
 90
       50
102
RTVSPost2010PropOp50
 70
     0
102
RTVSPost2010Prop51ColorIndex
 90
      256
102
RTVSPost2010Prop51ColorRGB
 90
-16777216
102
RTVSPost2010PropOp51
 70
     0
102
RTVSPost2010Prop52
140
1.0
102
RTVSPost2010PropOp52
 70
     0
102
RTVSPost2010Prop53
 90
        2
102
RTVSPost2010PropOp53
 70
     0
102
RTVSPost2010Prop54
  1
strokes_ogs.tif
102
RTVSPost2010PropOp54
 70
     0
102
RTVSPost2010Prop55
280
     0
102
RTVSPost2010PropOp55
 70
     0
102
RTVSPost2010Prop56
140
1.0
102
RTVSPost2010PropOp56
 70
     0
102
RTVSPost2010Prop57
140
1.0
102
RTVSPost2010PropOp57
 70
     0
  0
XRECORD
  5
570
102
{ACAD_REACTORS
330
56F
102
}
330
56F
100
AcDbXrecord
280
     1
102
RTVSPost2010Prop28
280
     0
102
RTVSPost2010PropOp28
 70
     1
102
RTVSPost2010Prop29
280
     1
102
RTVSPost2010PropOp29
 70
     1
102
RTVSPost2010Prop30
280
     1
102
RTVSPost2010PropOp30
 70
     1
102
RTVSPost2010Prop31
280
     0
102
RTVSPost2010PropOp31
 70
     1
102
RTVSPost2010Prop32
280
     0
102
RTVSPost2010PropOp32
 70
     1
102
RTVSPost2010Prop33
280
     0
102
RTVSPost2010PropOp33
 70
     1
102
RTVSPost2010Prop34
280
     0
102
RTVSPost2010PropOp34
 70
     1
102
RTVSPost2010Prop35
280
     0
102
RTVSPost2010PropOp35
 70
     1
102
RTVSPost2010Prop36
280
     0
102
RTVSPost2010PropOp36
 70
     1
102
RTVSPost2010Prop37
 90
       50
102
RTVSPost2010PropOp37
 70
     1
102
RTVSPost2010Prop38
140
0.0
102
RTVSPost2010PropOp38
 70
     1
102
RTVSPost2010Prop39
140
1.0
102
RTVSPost2010PropOp39
 70
     1
102
RTVSPost2010Prop40
 90
        0
102
RTVSPost2010PropOp40
 70
     1
102
RTVSPost2010Prop41ColorIndex
 90
       18
102
RTVSPost2010Prop41ColorRGB
 90
        0
102
RTVSPost2010PropOp41
 70
     1
102
RTVSPost2010Prop42
 90
       50
102
RTVSPost2010PropOp42
 70
     1
102
RTVSPost2010Prop43
 90
        3
102
RTVSPost2010PropOp43
 70
     1
102
RTVSPost2010Prop44ColorIndex
 90
        5
102
RTVSPost2010Prop44ColorRGB
 90
      255
102
RTVSPost2010PropOp44
 70
     1
102
RTVSPost2010Prop45
280
     0
102
RTVSPost2010PropOp45
 70
     1
102
RTVSPost2010Prop46
 90
       50
102
RTVSPost2010PropOp46
 70
     1
102
RTVSPost2010Prop47
 90
       50
102
RTVSPost2010PropOp47
 70
     1
102
RTVSPost2010Prop48
 90
       50
102
RTVSPost2010PropOp48
 70
     1
102
RTVSPost2010Prop49
280
     0
102
RTVSPost2010PropOp49
 70
     1
102
RTVSPost2010Prop50
 90
       50
102
RTVSPost2010PropOp50
 70
     1
102
RTVSPost2010Prop51ColorIndex
 90
      256
102
RTVSPost2010Prop51ColorRGB
 90
-16777216
102
RTVSPost2010PropOp51
 70
     0
102
RTVSPost2010Prop52
140
1.0
102
RTVSPost2010PropOp52
 70
     0
102
RTVSPost2010Prop53
 90
        2
102
RTVSPost2010PropOp53
 70
     1
102
RTVSPost2010Prop54
  1
strokes_ogs.tif
102
RTVSPost2010PropOp54
 70
     1
102
RTVSPost2010Prop55
280
     0
102
RTVSPost2010PropOp55
 70
     1
102
RTVSPost2010Prop56
140
1.0
102
RTVSPost2010PropOp56
 70
     1
102
RTVSPost2010Prop57
140
1.0
102
RTVSPost2010PropOp57
 70
     1
  0
XRECORD
  5
578
102
{ACAD_REACTORS
330
577
102
}
330
577
100
AcDbXrecord
280
     1
102
RTVSPost2010Prop28
280
     0
102
RTVSPost2010PropOp28
 70
     0
102
RTVSPost2010Prop29
280
     1
102
RTVSPost2010PropOp29
 70
     0
102
RTVSPost2010Prop30
280
     1
102
RTVSPost2010PropOp30
 70
     0
102
RTVSPost2010Prop31
280
     0
102
RTVSPost2010PropOp31
 70
     0
102
RTVSPost2010Prop32
280
     0
102
RTVSPost2010PropOp32
 70
     0
102
RTVSPost2010Prop33
280
     0
102
RTVSPost2010PropOp33
 70
     0
102
RTVSPost2010Prop34
280
     0
102
RTVSPost2010PropOp34
 70
     0
102
RTVSPost2010Prop35
280
     0
102
RTVSPost2010PropOp35
 70
     0
102
RTVSPost2010Prop36
280
     0
102
RTVSPost2010PropOp36
 70
     0
102
RTVSPost2010Prop37
 90
       50
102
RTVSPost2010PropOp37
 70
     0
102
RTVSPost2010Prop38
140
0.0
102
RTVSPost2010PropOp38
 70
     0
102
RTVSPost2010Prop39
140
1.0
102
RTVSPost2010PropOp39
 70
     0
102
RTVSPost2010Prop40
 90
        0
102
RTVSPost2010PropOp40
 70
     0
102
RTVSPost2010Prop41ColorIndex
 90
       18
102
RTVSPost2010Prop41ColorRGB
 90
        0
102
RTVSPost2010PropOp41
 70
     0
102
RTVSPost2010Prop42
 90
       50
102
RTVSPost2010PropOp42
 70
     0
102
RTVSPost2010Prop43
 90
        3
102
RTVSPost2010PropOp43
 70
     0
102
RTVSPost2010Prop44ColorIndex
 90
        5
102
RTVSPost2010Prop44ColorRGB
 90
      255
102
RTVSPost2010PropOp44
 70
     0
102
RTVSPost2010Prop45
280
     0
102
RTVSPost2010PropOp45
 70
     0
102
RTVSPost2010Prop46
 90
       50
102
RTVSPost2010PropOp46
 70
     0
102
RTVSPost2010Prop47
 90
       50
102
RTVSPost2010PropOp47
 70
     0
102
RTVSPost2010Prop48
 90
       50
102
RTVSPost2010PropOp48
 70
     0
102
RTVSPost2010Prop49
280
     0
102
RTVSPost2010PropOp49
 70
     0
102
RTVSPost2010Prop50
 90
       50
102
RTVSPost2010PropOp50
 70
     0
102
RTVSPost2010Prop51ColorIndex
 90
      256
102
RTVSPost2010Prop51ColorRGB
 90
-16777216
102
RTVSPost2010PropOp51
 70
     0
102
RTVSPost2010Prop52
140
1.0
102
RTVSPost2010PropOp52
 70
     0
102
RTVSPost2010Prop53
 90
        2
102
RTVSPost2010PropOp53
 70
     0
102
RTVSPost2010Prop54
  1
strokes_ogs.tif
102
RTVSPost2010PropOp54
 70
     0
102
RTVSPost2010Prop55
280
     0
102
RTVSPost2010PropOp55
 70
     0
102
RTVSPost2010Prop56
140
1.0
102
RTVSPost2010PropOp56
 70
     0
102
RTVSPost2010Prop57
140
1.0
102
RTVSPost2010PropOp57
 70
     0
  0
XRECORD
  5
566
102
{ACAD_REACTORS
330
565
102
}
330
565
100
AcDbXrecord
280
     1
102
RTVSPost2010Prop28
280
     0
102
RTVSPost2010PropOp28
 70
     1
102
RTVSPost2010Prop29
280
     1
102
RTVSPost2010PropOp29
 70
     1
102
RTVSPost2010Prop30
280
     1
102
RTVSPost2010PropOp30
 70
     1
102
RTVSPost2010Prop31
280
     0
102
RTVSPost2010PropOp31
 70
     1
102
RTVSPost2010Prop32
280
     0
102
RTVSPost2010PropOp32
 70
     1
102
RTVSPost2010Prop33
280
     0
102
RTVSPost2010PropOp33
 70
     1
102
RTVSPost2010Prop34
280
     0
102
RTVSPost2010PropOp34
 70
     1
102
RTVSPost2010Prop35
280
     0
102
RTVSPost2010PropOp35
 70
     1
102
RTVSPost2010Prop36
280
     0
102
RTVSPost2010PropOp36
 70
     1
102
RTVSPost2010Prop37
 90
       50
102
RTVSPost2010PropOp37
 70
     1
102
RTVSPost2010Prop38
140
0.0
102
RTVSPost2010PropOp38
 70
     1
102
RTVSPost2010Prop39
140
1.0
102
RTVSPost2010PropOp39
 70
     1
102
RTVSPost2010Prop40
 90
        0
102
RTVSPost2010PropOp40
 70
     1
102
RTVSPost2010Prop41ColorIndex
 90
       18
102
RTVSPost2010Prop41ColorRGB
 90
        0
102
RTVSPost2010PropOp41
 70
     1
102
RTVSPost2010Prop42
 90
       50
102
RTVSPost2010PropOp42
 70
     1
102
RTVSPost2010Prop43
 90
        3
102
RTVSPost2010PropOp43
 70
     1
102
RTVSPost2010Prop44ColorIndex
 90
        5
102
RTVSPost2010Prop44ColorRGB
 90
      255
102
RTVSPost2010PropOp44
 70
     1
102
RTVSPost2010Prop45
280
     0
102
RTVSPost2010PropOp45
 70
     1
102
RTVSPost2010Prop46
 90
       50
102
RTVSPost2010PropOp46
 70
     1
102
RTVSPost2010Prop47
 90
       50
102
RTVSPost2010PropOp47
 70
     1
102
RTVSPost2010Prop48
 90
       50
102
RTVSPost2010PropOp48
 70
     1
102
RTVSPost2010Prop49
280
     0
102
RTVSPost2010PropOp49
 70
     1
102
RTVSPost2010Prop50
 90
       50
102
RTVSPost2010PropOp50
 70
     1
102
RTVSPost2010Prop51ColorIndex
 90
      256
102
RTVSPost2010Prop51ColorRGB
 90
-16777216
102
RTVSPost2010PropOp51
 70
     0
102
RTVSPost2010Prop52
140
1.0
102
RTVSPost2010PropOp52
 70
     0
102
RTVSPost2010Prop53
 90
        2
102
RTVSPost2010PropOp53
 70
     1
102
RTVSPost2010Prop54
  1
strokes_ogs.tif
102
RTVSPost2010PropOp54
 70
     1
102
RTVSPost2010Prop55
280
     0
102
RTVSPost2010PropOp55
 70
     1
102
RTVSPost2010Prop56
140
1.0
102
RTVSPost2010PropOp56
 70
     1
102
RTVSPost2010Prop57
140
1.0
102
RTVSPost2010PropOp57
 70
     1
  0
XRECORD
  5
584
102
{ACAD_REACTORS
330
583
102
}
330
583
100
AcDbXrecord
280
     1
102
RTVSPost2010Prop28
280
     0
102
RTVSPost2010PropOp28
 70
     1
102
RTVSPost2010Prop29
280
     1
102
RTVSPost2010PropOp29
 70
     1
102
RTVSPost2010Prop30
280
     1
102
RTVSPost2010PropOp30
 70
     1
102
RTVSPost2010Prop31
280
     0
102
RTVSPost2010PropOp31
 70
     1
102
RTVSPost2010Prop32
280
     0
102
RTVSPost2010PropOp32
 70
     1
102
RTVSPost2010Prop33
280
     0
102
RTVSPost2010PropOp33
 70
     1
102
RTVSPost2010Prop34
280
     0
102
RTVSPost2010PropOp34
 70
     1
102
RTVSPost2010Prop35
280
     0
102
RTVSPost2010PropOp35
 70
     1
102
RTVSPost2010Prop36
280
     0
102
RTVSPost2010PropOp36
 70
     1
102
RTVSPost2010Prop37
 90
       50
102
RTVSPost2010PropOp37
 70
     1
102
RTVSPost2010Prop38
140
0.0
102
RTVSPost2010PropOp38
 70
     1
102
RTVSPost2010Prop39
140
1.0
102
RTVSPost2010PropOp39
 70
     1
102
RTVSPost2010Prop40
 90
        0
102
RTVSPost2010PropOp40
 70
     1
102
RTVSPost2010Prop41ColorIndex
 90
       18
102
RTVSPost2010Prop41ColorRGB
 90
        0
102
RTVSPost2010PropOp41
 70
     1
102
RTVSPost2010Prop42
 90
       50
102
RTVSPost2010PropOp42
 70
     1
102
RTVSPost2010Prop43
 90
        3
102
RTVSPost2010PropOp43
 70
     1
102
RTVSPost2010Prop44ColorIndex
 90
        5
102
RTVSPost2010Prop44ColorRGB
 90
      255
102
RTVSPost2010PropOp44
 70
     1
102
RTVSPost2010Prop45
280
     0
102
RTVSPost2010PropOp45
 70
     1
102
RTVSPost2010Prop46
 90
       50
102
RTVSPost2010PropOp46
 70
     1
102
RTVSPost2010Prop47
 90
       50
102
RTVSPost2010PropOp47
 70
     1
102
RTVSPost2010Prop48
 90
       50
102
RTVSPost2010PropOp48
 70
     1
102
RTVSPost2010Prop49
280
     0
102
RTVSPost2010PropOp49
 70
     1
102
RTVSPost2010Prop50
 90
       50
102
RTVSPost2010PropOp50
 70
     1
102
RTVSPost2010Prop51ColorIndex
 90
      256
102
RTVSPost2010Prop51ColorRGB
 90
-16777216
102
RTVSPost2010PropOp51
 70
     0
102
RTVSPost2010Prop52
140
1.0
102
RTVSPost2010PropOp52
 70
     0
102
RTVSPost2010Prop53
 90
        2
102
RTVSPost2010PropOp53
 70
     1
102
RTVSPost2010Prop54
  1
strokes_ogs.tif
102
RTVSPost2010PropOp54
 70
     1
102
RTVSPost2010Prop55
280
     0
102
RTVSPost2010PropOp55
 70
     1
102
RTVSPost2010Prop56
140
1.0
102
RTVSPost2010PropOp56
 70
     1
102
RTVSPost2010Prop57
140
1.0
102
RTVSPost2010PropOp57
 70
     1
  0
XRECORD
  5
582
102
{ACAD_REACTORS
330
581
102
}
330
581
100
AcDbXrecord
280
     1
102
RTVSPost2010Prop28
280
     0
102
RTVSPost2010PropOp28
 70
     1
102
RTVSPost2010Prop29
280
     1
102
RTVSPost2010PropOp29
 70
     1
102
RTVSPost2010Prop30
280
     1
102
RTVSPost2010PropOp30
 70
     1
102
RTVSPost2010Prop31
280
     0
102
RTVSPost2010PropOp31
 70
     1
102
RTVSPost2010Prop32
280
     0
102
RTVSPost2010PropOp32
 70
     1
102
RTVSPost2010Prop33
280
     0
102
RTVSPost2010PropOp33
 70
     1
102
RTVSPost2010Prop34
280
     0
102
RTVSPost2010PropOp34
 70
     1
102
RTVSPost2010Prop35
280
     0
102
RTVSPost2010PropOp35
 70
     1
102
RTVSPost2010Prop36
280
     0
102
RTVSPost2010PropOp36
 70
     1
102
RTVSPost2010Prop37
 90
       50
102
RTVSPost2010PropOp37
 70
     1
102
RTVSPost2010Prop38
140
0.0
102
RTVSPost2010PropOp38
 70
     1
102
RTVSPost2010Prop39
140
1.0
102
RTVSPost2010PropOp39
 70
     1
102
RTVSPost2010Prop40
 90
        0
102
RTVSPost2010PropOp40
 70
     1
102
RTVSPost2010Prop41ColorIndex
 90
       18
102
RTVSPost2010Prop41ColorRGB
 90
        0
102
RTVSPost2010PropOp41
 70
     1
102
RTVSPost2010Prop42
 90
       50
102
RTVSPost2010PropOp42
 70
     1
102
RTVSPost2010Prop43
 90
        3
102
RTVSPost2010PropOp43
 70
     1
102
RTVSPost2010Prop44ColorIndex
 90
        5
102
RTVSPost2010Prop44ColorRGB
 90
      255
102
RTVSPost2010PropOp44
 70
     1
102
RTVSPost2010Prop45
280
     0
102
RTVSPost2010PropOp45
 70
     1
102
RTVSPost2010Prop46
 90
       50
102
RTVSPost2010PropOp46
 70
     1
102
RTVSPost2010Prop47
 90
       50
102
RTVSPost2010PropOp47
 70
     1
102
RTVSPost2010Prop48
 90
       50
102
RTVSPost2010PropOp48
 70
     1
102
RTVSPost2010Prop49
280
     0
102
RTVSPost2010PropOp49
 70
     1
102
RTVSPost2010Prop50
 90
       50
102
RTVSPost2010PropOp50
 70
     1
102
RTVSPost2010Prop51ColorIndex
 90
      256
102
RTVSPost2010Prop51ColorRGB
 90
-16777216
102
RTVSPost2010PropOp51
 70
     0
102
RTVSPost2010Prop52
140
1.0
102
RTVSPost2010PropOp52
 70
     0
102
RTVSPost2010Prop53
 90
        2
102
RTVSPost2010PropOp53
 70
     1
102
RTVSPost2010Prop54
  1
strokes_ogs.tif
102
RTVSPost2010PropOp54
 70
     1
102
RTVSPost2010Prop55
280
     0
102
RTVSPost2010PropOp55
 70
     1
102
RTVSPost2010Prop56
140
1.0
102
RTVSPost2010PropOp56
 70
     1
102
RTVSPost2010Prop57
140
1.0
102
RTVSPost2010PropOp57
 70
     1
  0
XRECORD
  5
57C
102
{ACAD_REACTORS
330
57B
102
}
330
57B
100
AcDbXrecord
280
     1
102
RTVSPost2010Prop28
280
     0
102
RTVSPost2010PropOp28
 70
     1
102
RTVSPost2010Prop29
280
     1
102
RTVSPost2010PropOp29
 70
     1
102
RTVSPost2010Prop30
280
     1
102
RTVSPost2010PropOp30
 70
     1
102
RTVSPost2010Prop31
280
     0
102
RTVSPost2010PropOp31
 70
     1
102
RTVSPost2010Prop32
280
     0
102
RTVSPost2010PropOp32
 70
     1
102
RTVSPost2010Prop33
280
     0
102
RTVSPost2010PropOp33
 70
     1
102
RTVSPost2010Prop34
280
     0
102
RTVSPost2010PropOp34
 70
     1
102
RTVSPost2010Prop35
280
     0
102
RTVSPost2010PropOp35
 70
     1
102
RTVSPost2010Prop36
280
     0
102
RTVSPost2010PropOp36
 70
     1
102
RTVSPost2010Prop37
 90
       50
102
RTVSPost2010PropOp37
 70
     1
102
RTVSPost2010Prop38
140
0.0
102
RTVSPost2010PropOp38
 70
     1
102
RTVSPost2010Prop39
140
1.0
102
RTVSPost2010PropOp39
 70
     1
102
RTVSPost2010Prop40
 90
        0
102
RTVSPost2010PropOp40
 70
     1
102
RTVSPost2010Prop41ColorIndex
 90
       18
102
RTVSPost2010Prop41ColorRGB
 90
        0
102
RTVSPost2010PropOp41
 70
     1
102
RTVSPost2010Prop42
 90
       50
102
RTVSPost2010PropOp42
 70
     1
102
RTVSPost2010Prop43
 90
        3
102
RTVSPost2010PropOp43
 70
     1
102
RTVSPost2010Prop44ColorIndex
 90
        5
102
RTVSPost2010Prop44ColorRGB
 90
      255
102
RTVSPost2010PropOp44
 70
     1
102
RTVSPost2010Prop45
280
     0
102
RTVSPost2010PropOp45
 70
     1
102
RTVSPost2010Prop46
 90
       50
102
RTVSPost2010PropOp46
 70
     1
102
RTVSPost2010Prop47
 90
       50
102
RTVSPost2010PropOp47
 70
     1
102
RTVSPost2010Prop48
 90
       50
102
RTVSPost2010PropOp48
 70
     1
102
RTVSPost2010Prop49
280
     0
102
RTVSPost2010PropOp49
 70
     1
102
RTVSPost2010Prop50
 90
       50
102
RTVSPost2010PropOp50
 70
     1
102
RTVSPost2010Prop51ColorIndex
 90
      256
102
RTVSPost2010Prop51ColorRGB
 90
-16777216
102
RTVSPost2010PropOp51
 70
     0
102
RTVSPost2010Prop52
140
1.0
102
RTVSPost2010PropOp52
 70
     0
102
RTVSPost2010Prop53
 90
        2
102
RTVSPost2010PropOp53
 70
     1
102
RTVSPost2010Prop54
  1
strokes_ogs.tif
102
RTVSPost2010PropOp54
 70
     1
102
RTVSPost2010Prop55
280
     0
102
RTVSPost2010PropOp55
 70
     1
102
RTVSPost2010Prop56
140
1.0
102
RTVSPost2010PropOp56
 70
     1
102
RTVSPost2010Prop57
140
1.0
102
RTVSPost2010PropOp57
 70
     1
  0
XRECORD
  5
57E
102
{ACAD_REACTORS
330
57D
102
}
330
57D
100
AcDbXrecord
280
     1
102
RTVSPost2010Prop28
280
     0
102
RTVSPost2010PropOp28
 70
     1
102
RTVSPost2010Prop29
280
     1
102
RTVSPost2010PropOp29
 70
     1
102
RTVSPost2010Prop30
280
     1
102
RTVSPost2010PropOp30
 70
     1
102
RTVSPost2010Prop31
280
     0
102
RTVSPost2010PropOp31
 70
     1
102
RTVSPost2010Prop32
280
     0
102
RTVSPost2010PropOp32
 70
     1
102
RTVSPost2010Prop33
280
     0
102
RTVSPost2010PropOp33
 70
     1
102
RTVSPost2010Prop34
280
     0
102
RTVSPost2010PropOp34
 70
     1
102
RTVSPost2010Prop35
280
     0
102
RTVSPost2010PropOp35
 70
     1
102
RTVSPost2010Prop36
280
     0
102
RTVSPost2010PropOp36
 70
     1
102
RTVSPost2010Prop37
 90
       50
102
RTVSPost2010PropOp37
 70
     1
102
RTVSPost2010Prop38
140
0.0
102
RTVSPost2010PropOp38
 70
     1
102
RTVSPost2010Prop39
140
1.0
102
RTVSPost2010PropOp39
 70
     1
102
RTVSPost2010Prop40
 90
        0
102
RTVSPost2010PropOp40
 70
     1
102
RTVSPost2010Prop41ColorIndex
 90
       18
102
RTVSPost2010Prop41ColorRGB
 90
        0
102
RTVSPost2010PropOp41
 70
     1
102
RTVSPost2010Prop42
 90
       50
102
RTVSPost2010PropOp42
 70
     1
102
RTVSPost2010Prop43
 90
        3
102
RTVSPost2010PropOp43
 70
     1
102
RTVSPost2010Prop44ColorIndex
 90
        5
102
RTVSPost2010Prop44ColorRGB
 90
      255
102
RTVSPost2010PropOp44
 70
     1
102
RTVSPost2010Prop45
280
     0
102
RTVSPost2010PropOp45
 70
     1
102
RTVSPost2010Prop46
 90
       50
102
RTVSPost2010PropOp46
 70
     1
102
RTVSPost2010Prop47
 90
       50
102
RTVSPost2010PropOp47
 70
     1
102
RTVSPost2010Prop48
 90
       50
102
RTVSPost2010PropOp48
 70
     1
102
RTVSPost2010Prop49
280
     0
102
RTVSPost2010PropOp49
 70
     1
102
RTVSPost2010Prop50
 90
       50
102
RTVSPost2010PropOp50
 70
     1
102
RTVSPost2010Prop51ColorIndex
 90
      256
102
RTVSPost2010Prop51ColorRGB
 90
-16777216
102
RTVSPost2010PropOp51
 70
     0
102
RTVSPost2010Prop52
140
1.0
102
RTVSPost2010PropOp52
 70
     0
102
RTVSPost2010Prop53
 90
        2
102
RTVSPost2010PropOp53
 70
     1
102
RTVSPost2010Prop54
  1
strokes_ogs.tif
102
RTVSPost2010PropOp54
 70
     1
102
RTVSPost2010Prop55
280
     0
102
RTVSPost2010PropOp55
 70
     1
102
RTVSPost2010Prop56
140
1.0
102
RTVSPost2010PropOp56
 70
     1
102
RTVSPost2010Prop57
140
1.0
102
RTVSPost2010PropOp57
 70
     1
  0
XRECORD
  5
56E
102
{ACAD_REACTORS
330
56D
102
}
330
56D
100
AcDbXrecord
280
     1
102
RTVSPost2010Prop28
280
     0
102
RTVSPost2010PropOp28
 70
     1
102
RTVSPost2010Prop29
280
     1
102
RTVSPost2010PropOp29
 70
     1
102
RTVSPost2010Prop30
280
     1
102
RTVSPost2010PropOp30
 70
     1
102
RTVSPost2010Prop31
280
     0
102
RTVSPost2010PropOp31
 70
     1
102
RTVSPost2010Prop32
280
     0
102
RTVSPost2010PropOp32
 70
     1
102
RTVSPost2010Prop33
280
     0
102
RTVSPost2010PropOp33
 70
     1
102
RTVSPost2010Prop34
280
     0
102
RTVSPost2010PropOp34
 70
     1
102
RTVSPost2010Prop35
280
     0
102
RTVSPost2010PropOp35
 70
     1
102
RTVSPost2010Prop36
280
     0
102
RTVSPost2010PropOp36
 70
     1
102
RTVSPost2010Prop37
 90
       50
102
RTVSPost2010PropOp37
 70
     1
102
RTVSPost2010Prop38
140
0.0
102
RTVSPost2010PropOp38
 70
     1
102
RTVSPost2010Prop39
140
1.0
102
RTVSPost2010PropOp39
 70
     1
102
RTVSPost2010Prop40
 90
        0
102
RTVSPost2010PropOp40
 70
     1
102
RTVSPost2010Prop41ColorIndex
 90
       18
102
RTVSPost2010Prop41ColorRGB
 90
        0
102
RTVSPost2010PropOp41
 70
     1
102
RTVSPost2010Prop42
 90
       50
102
RTVSPost2010PropOp42
 70
     1
102
RTVSPost2010Prop43
 90
        3
102
RTVSPost2010PropOp43
 70
     1
102
RTVSPost2010Prop44ColorIndex
 90
        5
102
RTVSPost2010Prop44ColorRGB
 90
      255
102
RTVSPost2010PropOp44
 70
     1
102
RTVSPost2010Prop45
280
     0
102
RTVSPost2010PropOp45
 70
     1
102
RTVSPost2010Prop46
 90
       50
102
RTVSPost2010PropOp46
 70
     1
102
RTVSPost2010Prop47
 90
       50
102
RTVSPost2010PropOp47
 70
     1
102
RTVSPost2010Prop48
 90
       50
102
RTVSPost2010PropOp48
 70
     1
102
RTVSPost2010Prop49
280
     0
102
RTVSPost2010PropOp49
 70
     1
102
RTVSPost2010Prop50
 90
       50
102
RTVSPost2010PropOp50
 70
     1
102
RTVSPost2010Prop51ColorIndex
 90
      256
102
RTVSPost2010Prop51ColorRGB
 90
-16777216
102
RTVSPost2010PropOp51
 70
     0
102
RTVSPost2010Prop52
140
1.0
102
RTVSPost2010PropOp52
 70
     0
102
RTVSPost2010Prop53
 90
        2
102
RTVSPost2010PropOp53
 70
     1
102
RTVSPost2010Prop54
  1
strokes_ogs.tif
102
RTVSPost2010PropOp54
 70
     1
102
RTVSPost2010Prop55
280
     0
102
RTVSPost2010PropOp55
 70
     1
102
RTVSPost2010Prop56
140
1.0
102
RTVSPost2010PropOp56
 70
     1
102
RTVSPost2010Prop57
140
1.0
102
RTVSPost2010PropOp57
 70
     1
  0
XRECORD
  5
560
102
{ACAD_REACTORS
330
55F
102
}
330
55F
100
AcDbXrecord
280
     1
102
RTVSPost2010Prop28
280
     0
102
RTVSPost2010PropOp28
 70
     1
102
RTVSPost2010Prop29
280
     1
102
RTVSPost2010PropOp29
 70
     1
102
RTVSPost2010Prop30
280
     1
102
RTVSPost2010PropOp30
 70
     1
102
RTVSPost2010Prop31
280
     0
102
RTVSPost2010PropOp31
 70
     1
102
RTVSPost2010Prop32
280
     0
102
RTVSPost2010PropOp32
 70
     1
102
RTVSPost2010Prop33
280
     0
102
RTVSPost2010PropOp33
 70
     1
102
RTVSPost2010Prop34
280
     0
102
RTVSPost2010PropOp34
 70
     1
102
RTVSPost2010Prop35
280
     0
102
RTVSPost2010PropOp35
 70
     1
102
RTVSPost2010Prop36
280
     0
102
RTVSPost2010PropOp36
 70
     1
102
RTVSPost2010Prop37
 90
       50
102
RTVSPost2010PropOp37
 70
     1
102
RTVSPost2010Prop38
140
0.0
102
RTVSPost2010PropOp38
 70
     1
102
RTVSPost2010Prop39
140
1.0
102
RTVSPost2010PropOp39
 70
     1
102
RTVSPost2010Prop40
 90
        0
102
RTVSPost2010PropOp40
 70
     1
102
RTVSPost2010Prop41ColorIndex
 90
       18
102
RTVSPost2010Prop41ColorRGB
 90
        0
102
RTVSPost2010PropOp41
 70
     1
102
RTVSPost2010Prop42
 90
       50
102
RTVSPost2010PropOp42
 70
     1
102
RTVSPost2010Prop43
 90
        3
102
RTVSPost2010PropOp43
 70
     1
102
RTVSPost2010Prop44ColorIndex
 90
        5
102
RTVSPost2010Prop44ColorRGB
 90
      255
102
RTVSPost2010PropOp44
 70
     1
102
RTVSPost2010Prop45
280
     0
102
RTVSPost2010PropOp45
 70
     1
102
RTVSPost2010Prop46
 90
       50
102
RTVSPost2010PropOp46
 70
     1
102
RTVSPost2010Prop47
 90
       50
102
RTVSPost2010PropOp47
 70
     1
102
RTVSPost2010Prop48
 90
       50
102
RTVSPost2010PropOp48
 70
     1
102
RTVSPost2010Prop49
280
     0
102
RTVSPost2010PropOp49
 70
     1
102
RTVSPost2010Prop50
 90
       50
102
RTVSPost2010PropOp50
 70
     1
102
RTVSPost2010Prop51ColorIndex
 90
      256
102
RTVSPost2010Prop51ColorRGB
 90
-16777216
102
RTVSPost2010PropOp51
 70
     0
102
RTVSPost2010Prop52
140
1.0
102
RTVSPost2010PropOp52
 70
     0
102
RTVSPost2010Prop53
 90
        2
102
RTVSPost2010PropOp53
 70
     1
102
RTVSPost2010Prop54
  1
strokes_ogs.tif
102
RTVSPost2010PropOp54
 70
     1
102
RTVSPost2010Prop55
280
     0
102
RTVSPost2010PropOp55
 70
     1
102
RTVSPost2010Prop56
140
1.0
102
RTVSPost2010PropOp56
 70
     1
102
RTVSPost2010Prop57
140
1.0
102
RTVSPost2010PropOp57
 70
     1
  0
XRECORD
  5
580
102
{ACAD_REACTORS
330
57F
102
}
330
57F
100
AcDbXrecord
280
     1
102
RTVSPost2010Prop28
280
     0
102
RTVSPost2010PropOp28
 70
     1
102
RTVSPost2010Prop29
280
     1
102
RTVSPost2010PropOp29
 70
     1
102
RTVSPost2010Prop30
280
     1
102
RTVSPost2010PropOp30
 70
     1
102
RTVSPost2010Prop31
280
     0
102
RTVSPost2010PropOp31
 70
     1
102
RTVSPost2010Prop32
280
     0
102
RTVSPost2010PropOp32
 70
     1
102
RTVSPost2010Prop33
280
     0
102
RTVSPost2010PropOp33
 70
     1
102
RTVSPost2010Prop34
280
     0
102
RTVSPost2010PropOp34
 70
     1
102
RTVSPost2010Prop35
280
     0
102
RTVSPost2010PropOp35
 70
     1
102
RTVSPost2010Prop36
280
     0
102
RTVSPost2010PropOp36
 70
     1
102
RTVSPost2010Prop37
 90
       50
102
RTVSPost2010PropOp37
 70
     1
102
RTVSPost2010Prop38
140
0.0
102
RTVSPost2010PropOp38
 70
     1
102
RTVSPost2010Prop39
140
1.0
102
RTVSPost2010PropOp39
 70
     1
102
RTVSPost2010Prop40
 90
        0
102
RTVSPost2010PropOp40
 70
     1
102
RTVSPost2010Prop41ColorIndex
 90
       18
102
RTVSPost2010Prop41ColorRGB
 90
        0
102
RTVSPost2010PropOp41
 70
     1
102
RTVSPost2010Prop42
 90
       50
102
RTVSPost2010PropOp42
 70
     1
102
RTVSPost2010Prop43
 90
        3
102
RTVSPost2010PropOp43
 70
     1
102
RTVSPost2010Prop44ColorIndex
 90
        5
102
RTVSPost2010Prop44ColorRGB
 90
      255
102
RTVSPost2010PropOp44
 70
     1
102
RTVSPost2010Prop45
280
     0
102
RTVSPost2010PropOp45
 70
     1
102
RTVSPost2010Prop46
 90
       50
102
RTVSPost2010PropOp46
 70
     1
102
RTVSPost2010Prop47
 90
       50
102
RTVSPost2010PropOp47
 70
     1
102
RTVSPost2010Prop48
 90
       50
102
RTVSPost2010PropOp48
 70
     1
102
RTVSPost2010Prop49
280
     0
102
RTVSPost2010PropOp49
 70
     1
102
RTVSPost2010Prop50
 90
       50
102
RTVSPost2010PropOp50
 70
     1
102
RTVSPost2010Prop51ColorIndex
 90
      256
102
RTVSPost2010Prop51ColorRGB
 90
-16777216
102
RTVSPost2010PropOp51
 70
     0
102
RTVSPost2010Prop52
140
1.0
102
RTVSPost2010PropOp52
 70
     0
102
RTVSPost2010Prop53
 90
        2
102
RTVSPost2010PropOp53
 70
     1
102
RTVSPost2010Prop54
  1
strokes_ogs.tif
102
RTVSPost2010PropOp54
 70
     1
102
RTVSPost2010Prop55
280
     0
102
RTVSPost2010PropOp55
 70
     1
102
RTVSPost2010Prop56
140
1.0
102
RTVSPost2010PropOp56
 70
     1
102
RTVSPost2010Prop57
140
1.0
102
RTVSPost2010PropOp57
 70
     1
  0
ENDSEC
  0
EOF
