999
DXF file: 6f3_c_400.dxf
999
Pro/ENGINEER 2016360 by Parametric Technology Corporation
  0
SECTION
  2
HEADER
  9
$ACADVER
  1
AC1014
  9
$DWGCODEPAGE
  3
ANSI_1252
  9
$EXTMAX
 10
1189.0
 20
841.0
 30
0.0
  9
$EXTMIN
 10
0.0
 20
0.0
 30
0.0
  9
$LIMMIN
 10
0.0
 20
0.0
  9
$LIMMAX
 10
1189.0
 20
841.0
  9
$VIEWCTR
 10
594.5
 20
420.5
  9
$VIEWSIZE
 40
841.0
  9
$CLAYER
  8
0
  9
$LTSCALE
 40
65.395
  9
$CELTYPE
  6
BYLAYER
  9
$DIMSCALE
 40
1.0
  9
$DIMASZ
 40
2.5
  9
$DIMEXO
 40
0.75
  9
$DIMDLI
 40
45.182
  9
$DIMEXE
 40
0.75
  9
$DIMCEN
 40
10.701
  9
$DIMLFAC
 40
1.0
  9
$DIMBLK
  1
_CLOSED
  9
$DIMALT
 70
0
  9
$DIMALTF
 40
25.4
  9
$DIMTXT
 40
3.0
  9
$DIMTOL
 70
1
  9
$DIMLIM
 70
0
  9
$DIMTFAC
 40
1.0
  9
$DIMTP
 40
0.01
  9
$DIMTM
 40
0.01
  9
$DIMGAP
 40
0.625
  9
$AUNITS
 70
0
  9
$PDMODE
 70
3
  9
$PDSIZE
 40
0.3125
  9
$HANDSEED
  5
623
  9
$TILEMODE
 70
1
  9
$MEASUREMENT
 70
1
  0
ENDSEC
  0
SECTION
  2
CLASSES
  0
ENDSEC
  0
SECTION
  2
TABLES
  0
TABLE
  2
VPORT
  5
8
100
AcDbSymbolTable
 70
2
  0
VPORT
  5
1F4
100
AcDbSymbolTableRecord
100
AcDbViewportTableRecord
  2
*ACTIVE
 70
0
 10
0.0
 20
0.0
 11
1.0
 21
1.0
 12
594.5
 22
420.5
 13
0.0
 23
0.0
 14
1.0
 24
1.0
 15
0.0
 25
0.0
 16
0.0
 26
0.0
 36
1.0
 17
0.0
 27
0.0
 37
0.0
 40
841.0
 41
1.4137931034
 42
50.0
 43
0.0
 44
0.0
 50
0.0
 51
0.0
 71
0
 72
100
 73
1
 74
1
 75
0
 76
0
 77
0
 78
0
  0
ENDTAB
  0
TABLE
  2
LTYPE
  5
5
100
AcDbSymbolTable
 70
6
  0
LTYPE
  5
14
100
AcDbSymbolTableRecord
100
AcDbLinetypeTableRecord
  2
BYBLOCK
 70
0
  3

 72
65
 73
0
 40
0.0
  0
LTYPE
  5
15
100
AcDbSymbolTableRecord
100
AcDbLinetypeTableRecord
  2
BYLAYER
 70
0
  3

 72
65
 73
0
 40
0.0
  0
LTYPE
  5
16
100
AcDbSymbolTableRecord
100
AcDbLinetypeTableRecord
  2
CONTINUOUS
 70
64
  3
Solid line
 72
65
 73
0
 40
0.0
  0
LTYPE
  5
1F5
100
AcDbSymbolTableRecord
100
AcDbLinetypeTableRecord
  2
CENTER
 70
64
  3
____ _ ____ _ ____ _ ____ _ ____ _ ____ _ ____
 72
65
 73
4
 40
0.6
 49
0.375
 74
0
 49
-0.075
 74
0
 49
0.075
 74
0
 49
-0.075
 74
0
  0
LTYPE
  5
1F6
100
AcDbSymbolTableRecord
100
AcDbLinetypeTableRecord
  2
HIDDEN
 70
64
  3
- - - - - - - - - - - - - - - - - - - -
 72
65
 73
2
 40
0.2
 49
0.1
 74
0
 49
-0.1
 74
0
  0
LTYPE
  5
1F7
100
AcDbSymbolTableRecord
100
AcDbLinetypeTableRecord
  2
PHANTOM
 70
64
  3
_____ _ _ _____ _ _ _____ _ _ _____
 72
65
 73
6
 40
0.8
 49
0.45
 74
0
 49
-0.05
 74
0
 49
0.1
 74
0
 49
-0.05
 74
0
 49
0.1
 74
0
 49
-0.05
 74
0
  0
LTYPE
  5
1F8
100
AcDbSymbolTableRecord
100
AcDbLinetypeTableRecord
  2
DOT
 70
64
  3
. . . . . . . . . . . . . . . . . . . .
 72
65
 73
2
 40
0.2
 49
0.1
 74
0
 49
-0.1
 74
0
  0
LTYPE
  5
1F9
100
AcDbSymbolTableRecord
100
AcDbLinetypeTableRecord
  2
DASHED
 70
64
  3
- - - - - - - - - - - - - - - - - - - -
 72
65
 73
2
 40
0.2
 49
0.1
 74
0
 49
-0.1
 74
0
  0
ENDTAB
  0
TABLE
  2
LAYER
  5
2
100
AcDbSymbolTable
 70
36
  0
LAYER
  5
10
100
AcDbSymbolTableRecord
100
AcDbLayerTableRecord
  2
0
 70
0
 62
7
  6
CONTINUOUS
  0
LAYER
  5
1FA
100
AcDbSymbolTableRecord
100
AcDbLayerTableRecord
  2
DEFAULT_1
 70
0
 62
7
  6
CENTER
  0
LAYER
  5
1FB
100
AcDbSymbolTableRecord
100
AcDbLayerTableRecord
  2
DEFAULT_2
 70
0
 62
8
  6
HIDDEN
  0
LAYER
  5
1FC
100
AcDbSymbolTableRecord
100
AcDbLayerTableRecord
  2
DEFAULT_3
 70
0
 62
7
  6
PHANTOM
  0
LAYER
  5
1FD
100
AcDbSymbolTableRecord
100
AcDbLayerTableRecord
  2
1_ALL_PLANES
 70
0
 62
7
  6
CONTINUOUS
  0
LAYER
  5
1FE
100
AcDbSymbolTableRecord
100
AcDbLayerTableRecord
  2
2_ALL_CSYS
 70
0
 62
7
  6
CONTINUOUS
  0
LAYER
  5
1FF
100
AcDbSymbolTableRecord
100
AcDbLayerTableRecord
  2
3_ALL_AXES
 70
0
 62
7
  6
CONTINUOUS
  0
LAYER
  5
200
100
AcDbSymbolTableRecord
100
AcDbLayerTableRecord
  2
4_ALL_POINTS
 70
0
 62
7
  6
CONTINUOUS
  0
LAYER
  5
201
100
AcDbSymbolTableRecord
100
AcDbLayerTableRecord
  2
5_ALL_CURVES
 70
0
 62
7
  6
CONTINUOUS
  0
LAYER
  5
202
100
AcDbSymbolTableRecord
100
AcDbLayerTableRecord
  2
5__COSTRUZIONE
 70
0
 62
7
  6
CONTINUOUS
  0
LAYER
  5
203
100
AcDbSymbolTableRecord
100
AcDbLayerTableRecord
  2
6_ALL_SURFS
 70
0
 62
7
  6
CONTINUOUS
  0
LAYER
  5
204
100
AcDbSymbolTableRecord
100
AcDbLayerTableRecord
  2
7_ALL_FEATURES
 70
0
 62
7
  6
CONTINUOUS
  0
LAYER
  5
205
100
AcDbSymbolTableRecord
100
AcDbLayerTableRecord
  2
9_SOLID
 70
0
 62
7
  6
CONTINUOUS
  0
LAYER
  5
206
100
AcDbSymbolTableRecord
100
AcDbLayerTableRecord
  2
PR9034
 70
0
 62
7
  6
CONTINUOUS
  0
LAYER
  5
207
100
AcDbSymbolTableRecord
100
AcDbLayerTableRecord
  2
WHITE
 70
0
 62
7
  6
CONTINUOUS
  0
LAYER
  5
208
100
AcDbSymbolTableRecord
100
AcDbLayerTableRecord
  2
XXX_SOLIDO
 70
0
 62
7
  6
CONTINUOUS
  0
ENDTAB
  0
TABLE
  2
STYLE
  5
3
100
AcDbSymbolTable
 70
1
  0
STYLE
  5
11
100
AcDbSymbolTableRecord
100
AcDbTextStyleTableRecord
  2
STANDARD
 70
0
 40
0.0
 41
1.0
 50
0.0
 71
0
 42
0.2
  3
arial.ttf
  4

  0
STYLE
  5
209
100
AcDbSymbolTableRecord
100
AcDbTextStyleTableRecord
  2
TEXTSTYLE_1
 70
0
 40
0.0
 41
0.8
 50
0.0
 71
0
 42
0.2
  3
gdt
  4

  0
STYLE
  5
20A
100
AcDbSymbolTableRecord
100
AcDbTextStyleTableRecord
  2
TEXTSTYLE_2
 70
0
 40
0.0
 41
0.85
 50
0.0
 71
0
 42
0.2
  3
txt
  4

  0
ENDTAB
  0
TABLE
  2
VIEW
  5
6
100
AcDbSymbolTable
 70
0
  0
ENDTAB
  0
TABLE
  2
UCS
  5
7
100
AcDbSymbolTable
 70
0
  0
ENDTAB
  0
TABLE
  2
APPID
  5
9
100
AcDbSymbolTable
 70
1
  0
APPID
  5
20B
100
AcDbSymbolTableRecord
100
AcDbRegAppTableRecord
  2
ACAD
 70
0
  0
ENDTAB
  0
TABLE
  2
BLOCK_RECORD
  5
1
100
AcDbSymbolTable
 70
0
  0
BLOCK_RECORD
  5
1F
100
AcDbSymbolTableRecord
100
AcDbBlockTableRecord
  2
*MODEL_SPACE
  0
BLOCK_RECORD
  5
1B
100
AcDbSymbolTableRecord
100
AcDbBlockTableRecord
  2
*PAPER_SPACE
  0
BLOCK_RECORD
  5
20C
100
AcDbSymbolTableRecord
100
AcDbBlockTableRecord
  2
_CLOSED
  0
BLOCK_RECORD
  5
20D
100
AcDbSymbolTableRecord
100
AcDbBlockTableRecord
  2
*D0
  0
BLOCK_RECORD
  5
20E
100
AcDbSymbolTableRecord
100
AcDbBlockTableRecord
  2
*D1
  0
BLOCK_RECORD
  5
20F
100
AcDbSymbolTableRecord
100
AcDbBlockTableRecord
  2
*D2
  0
BLOCK_RECORD
  5
210
100
AcDbSymbolTableRecord
100
AcDbBlockTableRecord
  2
LOGO2_BL0
  0
ENDTAB
  0
TABLE
  2
DIMSTYLE
  5
A
100
AcDbSymbolTable
 70
1
  0
DIMSTYLE
105
211
100
AcDbSymbolTableRecord
100
AcDbDimStyleTableRecord
  2
STANDARD
 70
0
  3

  4

  5
_CLOSED
  6
_CLOSED
  7
_CLOSED
 40
1.0
 41
2.5
 42
0.75
 43
0.38
 44
0.75
 45
0.0
 46
0.0
 47
0.01
 48
0.01
140
3.0
141
0.09
142
0.0
143
25.4
144
1.0
145
0.0
146
1.0
147
0.625
 71
1.0
 72
0.0
 73
0
 74
0
 75
0
 76
0
 77
1
 78
8
 79
2
170
0
171
1
172
0
173
0
174
0
175
0
176
0
177
0
178
0
270
2
179
2
271
2
272
2
273
2
274
2
275
0
280
0
281
0
282
0
283
1
284
8
285
0
286
0
287
3
288
0
340
11
  0
DIMSTYLE
105
212
100
AcDbSymbolTableRecord
100
AcDbDimStyleTableRecord
  2
DIMSTYLE_1
 70
0
  3

  4

  5
_CLOSED
  6
_CLOSED
  7
_CLOSED
 40
1.0
 41
2.5
 42
0.75
 43
0.38
 44
0.75
 45
0.0
 46
0.0
 47
0.8
 48
0.8
140
10.0
141
0.09
142
0.0
143
25.4
144
1.0
145
0.0
146
1.0
147
2.5
 71
0.0
 72
0.0
 73
0
 74
0
 75
0
 76
0
 77
1
 78
8
 79
2
170
0
171
1
172
0
173
0
174
0
175
0
176
0
177
0
178
0
270
2
179
2
271
2
272
2
273
2
274
2
275
0
280
0
281
0
282
0
283
1
284
8
285
0
286
0
287
3
288
0
340
11
  0
DIMSTYLE
105
213
100
AcDbSymbolTableRecord
100
AcDbDimStyleTableRecord
  2
DIMSTYLE_2
 70
0
  3

  4

  5
_CLOSED
  6
_CLOSED
  7
_CLOSED
 40
1.0
 41
2.5
 42
0.75
 43
0.38
 44
0.75
 45
0.0
 46
0.0
 47
0.3
 48
0.3
140
10.0
141
0.09
142
0.0
143
25.4
144
1.0
145
0.0
146
1.0
147
2.5
 71
0.0
 72
0.0
 73
0
 74
0
 75
0
 76
0
 77
1
 78
8
 79
2
170
0
171
1
172
0
173
0
174
0
175
0
176
0
177
0
178
0
270
2
179
2
271
2
272
2
273
2
274
2
275
0
280
0
281
0
282
0
283
1
284
8
285
0
286
0
287
3
288
0
340
11
  0
ENDTAB
  0
ENDSEC
  0
SECTION
  2
BLOCKS
  0
BLOCK
  5
20
100
AcDbEntity
  8
0
100
AcDbBlockBegin
  2
*MODEL_SPACE
 70
0
 10
0.0
 20
0.0
 30
0.0
  3
*MODEL_SPACE
  1

  0
ENDBLK
  5
21
100
AcDbEntity
  8
0
100
AcDbBlockEnd
  0
BLOCK
  5
1C
100
AcDbEntity
  8
0
100
AcDbBlockBegin
  2
*PAPER_SPACE
 70
0
 10
0.0
 20
0.0
 30
0.0
  3
*PAPER_SPACE
  1

  0
ENDBLK
  5
1D
100
AcDbEntity
  8
0
100
AcDbBlockEnd
  0
BLOCK
  5
214
100
AcDbEntity
  8
0
100
AcDbBlockBegin
 62
2
  6
CONTINUOUS
  2
LOGO2_BL0
 70
64
 10
1067.5220025126
 20
37.7204939402
  3
LOGO2_BL0
  1

  0
LINE
  5
215
100
AcDbEntity
  8
0
100
AcDbLine
 62
7
  6
CONTINUOUS
 10
1059.2649277409
 20
40.9159852791
 11
1057.9605868115
 21
40.9159852791
  0
LINE
  5
216
100
AcDbEntity
  8
0
100
AcDbLine
 62
7
  6
CONTINUOUS
 10
1057.9605868115
 20
40.9159852791
 11
1057.9605868115
 21
30.4569192192
  0
LINE
  5
217
100
AcDbEntity
  8
0
100
AcDbLine
 62
7
  6
CONTINUOUS
 10
1057.9605868115
 20
30.4569192192
 11
1062.4416416998
 21
30.4569192192
  0
LINE
  5
218
100
AcDbEntity
  8
0
100
AcDbLine
 62
7
  6
CONTINUOUS
 10
1062.4416416998
 20
30.4569192192
 11
1062.4416416998
 21
31.6497735443
  0
LINE
  5
219
100
AcDbEntity
  8
0
100
AcDbLine
 62
7
  6
CONTINUOUS
 10
1062.4416416998
 20
31.6497735443
 11
1059.2649277409
 21
31.6497735443
  0
LINE
  5
21A
100
AcDbEntity
  8
0
100
AcDbLine
 62
7
  6
CONTINUOUS
 10
1059.2649277409
 20
31.6497735443
 11
1059.2649277409
 21
40.9159852791
  0
LINE
  5
21B
100
AcDbEntity
  8
0
100
AcDbLine
 62
7
  6
CONTINUOUS
 10
1074.2012539572
 20
40.9159852791
 11
1072.8974364391
 21
40.9159852791
  0
LINE
  5
21C
100
AcDbEntity
  8
0
100
AcDbLine
 62
7
  6
CONTINUOUS
 10
1072.8974364391
 20
40.9159852791
 11
1072.8974364391
 21
30.4569192192
  0
LINE
  5
21D
100
AcDbEntity
  8
0
100
AcDbLine
 62
7
  6
CONTINUOUS
 10
1072.8974364391
 20
30.4569192192
 11
1077.3786221802
 21
30.4569192192
  0
LINE
  5
21E
100
AcDbEntity
  8
0
100
AcDbLine
 62
7
  6
CONTINUOUS
 10
1077.3786221802
 20
30.4569192192
 11
1077.3786221802
 21
31.6497735443
  0
LINE
  5
21F
100
AcDbEntity
  8
0
100
AcDbLine
 62
7
  6
CONTINUOUS
 10
1077.3786221802
 20
31.6497735443
 11
1074.2012539572
 21
31.6497735443
  0
LINE
  5
220
100
AcDbEntity
  8
0
100
AcDbLine
 62
7
  6
CONTINUOUS
 10
1074.2012539572
 20
31.6497735443
 11
1074.2012539572
 21
40.9159852791
  0
LWPOLYLINE
  5
221
100
AcDbEntity
  8
0
100
AcDbPolyline
 62
7
  6
CONTINUOUS
 90
2
 70
0
 43
0.2
 10
1056.3149817224
 20
27.1133679123
 10
1056.3149817224
 20
25.256304663
  0
LWPOLYLINE
  5
222
100
AcDbEntity
  8
0
100
AcDbPolyline
 62
7
  6
CONTINUOUS
 90
2
 70
0
 43
0.2
 10
1056.3149817224
 20
25.256304663
 10
1057.1106977328
 20
25.256304663
  0
LWPOLYLINE
  5
223
100
AcDbEntity
  8
0
100
AcDbPolyline
 62
7
  6
CONTINUOUS
 90
2
 70
0
 43
0.2
 10
1057.1106977328
 20
25.256304663
 10
1057.1106977328
 20
25.4682862346
  0
LWPOLYLINE
  5
224
100
AcDbEntity
  8
0
100
AcDbPolyline
 62
7
  6
CONTINUOUS
 90
2
 70
0
 43
0.2
 10
1057.1106977328
 20
25.4682862346
 10
1056.5465912173
 20
25.4682862346
  0
LWPOLYLINE
  5
225
100
AcDbEntity
  8
0
100
AcDbPolyline
 62
7
  6
CONTINUOUS
 90
2
 70
0
 43
0.2
 10
1056.5465912173
 20
25.4682862346
 10
1056.5465912173
 20
27.1133679123
  0
LWPOLYLINE
  5
226
100
AcDbEntity
  8
0
100
AcDbPolyline
 62
7
  6
CONTINUOUS
 90
2
 70
0
 43
0.2
 10
1056.5465912173
 20
27.1133679123
 10
1056.3149817224
 20
27.1133679123
  0
SPLINE
  5
227
100
AcDbEntity
  8
0
100
AcDbSpline
 62
7
  6
CONTINUOUS
 70
2
 71
3
 72
35
 73
31
 74
0
 42
0.0000001
 43
0.0000001
 44
0.0000000001
 40
0.0
 40
0.0
 40
0.0
 40
0.0
 40
1.0
 40
1.0
 40
1.0
 40
2.0
 40
2.0
 40
2.0
 40
3.0
 40
3.0
 40
3.0
 40
4.0
 40
4.0
 40
4.0
 40
5.0
 40
5.0
 40
5.0
 40
6.0
 40
6.0
 40
6.0
 40
7.0
 40
7.0
 40
7.0
 40
8.0
 40
8.0
 40
8.0
 40
9.0
 40
9.0
 40
9.0
 40
10.0
 40
10.0
 40
10.0
 40
10.0
 10
1058.5089909883
 20
26.4088563189
 30
0.0
 10
1058.5089909883
 20
26.4088563189
 30
0.0
 10
1058.5089909883
 20
25.7467410397
 30
0.0
 10
1058.5089909883
 20
25.7467410397
 30
0.0
 10
1058.5089909883
 20
25.4316474444
 30
0.0
 10
1058.6568546772
 20
25.2170488164
 30
0.0
 10
1058.9969411615
 20
25.2170488164
 30
0.0
 10
1059.3365042345
 20
25.2170488164
 30
0.0
 10
1059.4846296289
 20
25.4316474444
 30
0.0
 10
1059.4846296289
 20
25.7467410397
 30
0.0
 10
1059.4846296289
 20
25.7467410397
 30
0.0
 10
1059.4846296289
 20
26.4088563189
 30
0.0
 10
1059.4846296289
 20
26.4088563189
 30
0.0
 10
1059.4846296289
 20
26.4088563189
 30
0.0
 10
1059.2625723901
 20
26.4088563189
 30
0.0
 10
1059.2625723901
 20
26.4088563189
 30
0.0
 10
1059.2625723901
 20
26.4088563189
 30
0.0
 10
1059.2625723901
 20
25.7718647815
 30
0.0
 10
1059.2625723901
 20
25.7718647815
 30
0.0
 10
1059.2625723901
 20
25.5860537743
 30
0.0
 10
1059.2158579326
 20
25.4232728638
 30
0.0
 10
1058.9969411615
 20
25.4232728638
 30
0.0
 10
1058.777500979
 20
25.4232728638
 30
0.0
 10
1058.7307865216
 20
25.5860537743
 30
0.0
 10
1058.7307865216
 20
25.7718647815
 30
0.0
 10
1058.7307865216
 20
25.7718647815
 30
0.0
 10
1058.7307865216
 20
26.4088563189
 30
0.0
 10
1058.7307865216
 20
26.4088563189
 30
0.0
 10
1058.7307865216
 20
26.4088563189
 30
0.0
 10
1058.5089909883
 20
26.4088563189
 30
0.0
 10
1058.5089909883
 20
26.4088563189
 30
0.0
  0
SPLINE
  5
228
100
AcDbEntity
  8
0
100
AcDbSpline
 62
7
  6
CONTINUOUS
 70
2
 71
3
 72
35
 73
31
 74
0
 42
0.0000001
 43
0.0000001
 44
0.0000000001
 40
0.0
 40
0.0
 40
0.0
 40
0.0
 40
1.0
 40
1.0
 40
1.0
 40
2.0
 40
2.0
 40
2.0
 40
3.0
 40
3.0
 40
3.0
 40
4.0
 40
4.0
 40
4.0
 40
5.0
 40
5.0
 40
5.0
 40
6.0
 40
6.0
 40
6.0
 40
7.0
 40
7.0
 40
7.0
 40
8.0
 40
8.0
 40
8.0
 40
9.0
 40
9.0
 40
9.0
 40
10.0
 40
10.0
 40
10.0
 40
10.0
 10
1061.9077621861
 20
26.3675068271
 30
0.0
 10
1061.8193056785
 20
26.4188011333
 30
0.0
 10
1061.7058562818
 20
26.4439248751
 30
0.0
 10
1061.6022208468
 20
26.4439248751
 30
0.0
 10
1061.2473479937
 20
26.4439248751
 30
0.0
 10
1060.9719028034
 20
26.1801255861
 30
0.0
 10
1060.9719028034
 20
25.8226356764
 30
0.0
 10
1060.9719028034
 20
25.4777076377
 30
0.0
 10
1061.2503576086
 20
25.2175722277
 30
0.0
 10
1061.5899206816
 20
25.2175722277
 30
0.0
 10
1061.7058562818
 20
25.2175722277
 30
0.0
 10
1061.8066129547
 20
25.2395555018
 30
0.0
 10
1061.9077621861
 20
25.2934668644
 30
0.0
 10
1061.9077621861
 20
25.2934668644
 30
0.0
 10
1061.9077621861
 20
25.5761089599
 30
0.0
 10
1061.9077621861
 20
25.5761089599
 30
0.0
 10
1061.8238855272
 20
25.4829417506
 30
0.0
 10
1061.7203809451
 20
25.4237962751
 30
0.0
 10
1061.5922760324
 20
25.4237962751
 30
0.0
 10
1061.3585728923
 20
25.4237962751
 30
0.0
 10
1061.1933057782
 20
25.5959985888
 30
0.0
 10
1061.1933057782
 20
25.8325804909
 30
0.0
 10
1061.1933057782
 20
26.0445620625
 30
0.0
 10
1061.3610590959
 20
26.2366540051
 30
0.0
 10
1061.5778822219
 20
26.2366540051
 30
0.0
 10
1061.7106978362
 20
26.2366540051
 30
0.0
 10
1061.8193056785
 20
26.1827426425
 30
0.0
 10
1061.9077621861
 20
26.0817242639
 30
0.0
 10
1061.9077621861
 20
26.0817242639
 30
0.0
 10
1061.9077621861
 20
26.3675068271
 30
0.0
 10
1061.9077621861
 20
26.3675068271
 30
0.0
  0
SPLINE
  5
229
100
AcDbEntity
  8
0
100
AcDbSpline
 62
7
  6
CONTINUOUS
 70
2
 71
3
 72
32
 73
28
 74
0
 42
0.0000001
 43
0.0000001
 44
0.0000000001
 40
0.0
 40
0.0
 40
0.0
 40
0.0
 40
1.0
 40
1.0
 40
1.0
 40
2.0
 40
2.0
 40
2.0
 40
3.0
 40
3.0
 40
3.0
 40
4.0
 40
4.0
 40
4.0
 40
5.0
 40
5.0
 40
5.0
 40
6.0
 40
6.0
 40
6.0
 40
7.0
 40
7.0
 40
7.0
 40
8.0
 40
8.0
 40
8.0
 40
9.0
 40
9.0
 40
9.0
 40
9.0
 10
1064.4396334384
 20
25.7959417008
 30
0.0
 10
1064.4396334384
 20
25.7959417008
 30
0.0
 10
1064.4396334384
 20
25.8299634345
 30
0.0
 10
1064.4396334384
 20
25.8299634345
 30
0.0
 10
1064.4396334384
 20
26.1722744167
 30
0.0
 10
1064.2667768606
 20
26.4439248751
 30
0.0
 10
1063.9001272534
 20
26.4439248751
 30
0.0
 10
1063.528505239
 20
26.4439248751
 30
0.0
 10
1063.3387686472
 20
26.1775085296
 30
0.0
 10
1063.3387686472
 20
25.8226356764
 30
0.0
 10
1063.3387686472
 20
25.4829417506
 30
0.0
 10
1063.5528438639
 20
25.2170488164
 30
0.0
 10
1063.9049688078
 20
25.2170488164
 30
0.0
 10
1064.128988839
 20
25.2170488164
 30
0.0
 10
1064.331156449
 20
25.332722711
 30
0.0
 10
1064.4396334384
 20
25.5321424117
 30
0.0
 10
1064.4396334384
 20
25.5321424117
 30
0.0
 10
1064.2519904917
 20
25.6389183144
 30
0.0
 10
1064.2519904917
 20
25.6389183144
 30
0.0
 10
1064.1685063913
 20
25.5002143231
 30
0.0
 10
1064.0773019744
 20
25.4143748719
 30
0.0
 10
1063.9077167171
 20
25.4143748719
 30
0.0
 10
1063.6957351455
 20
25.4143748719
 30
0.0
 10
1063.5627886784
 20
25.5991390565
 30
0.0
 10
1063.5604333276
 20
25.7959417008
 30
0.0
 10
1063.5604333276
 20
25.7959417008
 30
0.0
 10
1064.4396334384
 20
25.7959417008
 30
0.0
 10
1064.4396334384
 20
25.7959417008
 30
0.0
  0
SPLINE
  5
22A
100
AcDbEntity
  8
0
100
AcDbSpline
 62
7
  6
CONTINUOUS
 70
2
 71
3
 72
14
 73
10
 74
0
 42
0.0000001
 43
0.0000001
 44
0.0000000001
 40
0.0
 40
0.0
 40
0.0
 40
0.0
 40
1.0
 40
1.0
 40
1.0
 40
2.0
 40
2.0
 40
2.0
 40
3.0
 40
3.0
 40
3.0
 40
3.0
 10
1063.5724717872
 20
25.9634333129
 30
0.0
 10
1063.6000817326
 20
26.1283078686
 30
0.0
 10
1063.7279249397
 20
26.2513095212
 30
0.0
 10
1063.9001272534
 20
26.2513095212
 30
0.0
 10
1064.0773019744
 20
26.2513095212
 30
0.0
 10
1064.190751371
 20
26.1356356266
 30
0.0
 10
1064.217968758
 20
25.9634333129
 30
0.0
 10
1064.217968758
 20
25.9634333129
 30
0.0
 10
1063.5724717872
 20
25.9634333129
 30
0.0
 10
1063.5724717872
 20
25.9634333129
 30
0.0
  0
SPLINE
  5
22B
100
AcDbEntity
  8
0
100
AcDbSpline
 62
7
  6
CONTINUOUS
 70
2
 71
3
 72
20
 73
16
 74
0
 42
0.0000001
 43
0.0000001
 44
0.0000000001
 40
0.0
 40
0.0
 40
0.0
 40
0.0
 40
1.0
 40
1.0
 40
1.0
 40
2.0
 40
2.0
 40
2.0
 40
3.0
 40
3.0
 40
3.0
 40
4.0
 40
4.0
 40
4.0
 40
5.0
 40
5.0
 40
5.0
 40
5.0
 10
1066.4636648886
 20
26.172797828
 30
0.0
 10
1066.4636648886
 20
26.172797828
 30
0.0
 10
1066.8748044552
 20
25.6703229917
 30
0.0
 10
1066.8748044552
 20
25.6703229917
 30
0.0
 10
1066.7587380021
 20
25.5546490971
 30
0.0
 10
1066.6209499806
 20
25.4243196864
 30
0.0
 10
1066.4490093725
 20
25.4243196864
 30
0.0
 10
1066.2715729459
 20
25.4243196864
 30
0.0
 10
1066.1040813338
 20
25.5886708308
 30
0.0
 10
1066.1040813338
 20
25.7655838461
 30
0.0
 10
1066.1040813338
 20
25.9435436839
 30
0.0
 10
1066.3138384074
 20
26.0696858043
 30
0.0
 10
1066.4414199088
 20
26.1576189007
 30
0.0
 10
1066.4414199088
 20
26.1576189007
 30
0.0
 10
1066.4636648886
 20
26.172797828
 30
0.0
 10
1066.4636648886
 20
26.172797828
 30
0.0
  0
SPLINE
  5
22C
100
AcDbEntity
  8
0
100
AcDbSpline
 62
7
  6
CONTINUOUS
 70
2
 71
3
 72
23
 73
19
 74
0
 42
0.0000001
 43
0.0000001
 44
0.0000000001
 40
0.0
 40
0.0
 40
0.0
 40
0.0
 40
1.0
 40
1.0
 40
1.0
 40
2.0
 40
2.0
 40
2.0
 40
3.0
 40
3.0
 40
3.0
 40
4.0
 40
4.0
 40
4.0
 40
5.0
 40
5.0
 40
5.0
 40
6.0
 40
6.0
 40
6.0
 40
6.0
 10
1066.5129964025
 20
26.4638145041
 30
0.0
 10
1066.5129964025
 20
26.4638145041
 30
0.0
 10
1066.4513647233
 20
26.5423261973
 30
0.0
 10
1066.4513647233
 20
26.5423261973
 30
0.0
 10
1066.3974533607
 20
26.610893076
 30
0.0
 10
1066.3406632359
 20
26.679983366
 30
0.0
 10
1066.3406632359
 20
26.7736739865
 30
0.0
 10
1066.3406632359
 20
26.8924883488
 30
0.0
 10
1066.4365783544
 20
26.9699532195
 30
0.0
 10
1066.5475415475
 20
26.9699532195
 30
0.0
 10
1066.6708049057
 20
26.9699532195
 30
0.0
 10
1066.7641029678
 20
26.8987692843
 30
0.0
 10
1066.7641029678
 20
26.7684398736
 30
0.0
 10
1066.7641029678
 20
26.6333997614
 30
0.0
 10
1066.6359980551
 20
26.5569817133
 30
0.0
 10
1066.5424382874
 20
26.4831807217
 30
0.0
 10
1066.5424382874
 20
26.4831807217
 30
0.0
 10
1066.5129964025
 20
26.4638145041
 30
0.0
 10
1066.5129964025
 20
26.4638145041
 30
0.0
  0
SPLINE
  5
22D
100
AcDbEntity
  8
0
100
AcDbSpline
 62
7
  6
CONTINUOUS
 70
2
 71
3
 72
50
 73
46
 74
0
 42
0.0000001
 43
0.0000001
 44
0.0000000001
 40
0.0
 40
0.0
 40
0.0
 40
0.0
 40
1.0
 40
1.0
 40
1.0
 40
2.0
 40
2.0
 40
2.0
 40
3.0
 40
3.0
 40
3.0
 40
4.0
 40
4.0
 40
4.0
 40
5.0
 40
5.0
 40
5.0
 40
6.0
 40
6.0
 40
6.0
 40
7.0
 40
7.0
 40
7.0
 40
8.0
 40
8.0
 40
8.0
 40
9.0
 40
9.0
 40
9.0
 40
10.0
 40
10.0
 40
10.0
 40
11.0
 40
11.0
 40
11.0
 40
12.0
 40
12.0
 40
12.0
 40
13.0
 40
13.0
 40
13.0
 40
14.0
 40
14.0
 40
14.0
 40
15.0
 40
15.0
 40
15.0
 40
15.0
 10
1067.2151526451
 20
25.2568280743
 30
0.0
 10
1067.2151526451
 20
25.2568280743
 30
0.0
 10
1067.5005426498
 20
25.2568280743
 30
0.0
 10
1067.5005426498
 20
25.2568280743
 30
0.0
 10
1067.5005426498
 20
25.2568280743
 30
0.0
 10
1067.168176482
 20
25.6677059352
 30
0.0
 10
1067.168176482
 20
25.6677059352
 30
0.0
 10
1067.168176482
 20
25.6677059352
 30
0.0
 10
1067.3946827169
 20
25.9335988695
 30
0.0
 10
1067.3946827169
 20
25.9335988695
 30
0.0
 10
1067.3946827169
 20
25.9335988695
 30
0.0
 10
1067.2464264696
 20
26.0864349655
 30
0.0
 10
1067.2464264696
 20
26.0864349655
 30
0.0
 10
1067.2464264696
 20
26.0864349655
 30
0.0
 10
1067.0305193133
 20
25.8351975473
 30
0.0
 10
1067.0305193133
 20
25.8351975473
 30
0.0
 10
1067.0305193133
 20
25.8351975473
 30
0.0
 10
1066.643456666
 20
26.3031272387
 30
0.0
 10
1066.643456666
 20
26.3031272387
 30
0.0
 10
1066.7989098185
 20
26.4172308995
 30
0.0
 10
1066.9811877995
 20
26.5569817133
 30
0.0
 10
1066.9811877995
 20
26.7663462285
 30
0.0
 10
1066.9811877995
 20
27.0102558886
 30
0.0
 10
1066.7791510423
 20
27.1536705815
 30
0.0
 10
1066.5526448075
 20
27.1536705815
 30
0.0
 10
1066.3084734417
 20
27.1536705815
 30
0.0
 10
1066.1241018156
 20
27.0029281306
 30
0.0
 10
1066.1241018156
 20
26.7464565995
 30
0.0
 10
1066.1241018156
 20
26.5889098019
 30
0.0
 10
1066.2227648433
 20
26.4512526332
 30
0.0
 10
1066.328101365
 20
26.3402894401
 30
0.0
 10
1066.328101365
 20
26.3402894401
 30
0.0
 10
1066.2125583232
 20
26.2565436341
 30
0.0
 10
1066.2125583232
 20
26.2565436341
 30
0.0
 10
1066.034860191
 20
26.1283078686
 30
0.0
 10
1065.8875199135
 20
26.0005955143
 30
0.0
 10
1065.8875199135
 20
25.7634902009
 30
0.0
 10
1065.8875199135
 20
25.4431624927
 30
0.0
 10
1066.1460850897
 20
25.2170488164
 30
0.0
 10
1066.4564679834
 20
25.2170488164
 30
0.0
 10
1066.6753847545
 20
25.2170488164
 30
0.0
 10
1066.8725799572
 20
25.3421441142
 30
0.0
 10
1067.0128541824
 20
25.5080654924
 30
0.0
 10
1067.0128541824
 20
25.5080654924
 30
0.0
 10
1067.2151526451
 20
25.2568280743
 30
0.0
 10
1067.2151526451
 20
25.2568280743
 30
0.0
  0
LWPOLYLINE
  5
22E
100
AcDbEntity
  8
0
100
AcDbPolyline
 62
7
  6
CONTINUOUS
 90
2
 70
0
 43
0.2
 10
1069.1505967349
 20
27.1133679123
 10
1068.9192489456
 20
27.1133679123
  0
LWPOLYLINE
  5
22F
100
AcDbEntity
  8
0
100
AcDbPolyline
 62
7
  6
CONTINUOUS
 90
2
 70
0
 43
0.2
 10
1068.9192489456
 20
27.1133679123
 10
1068.9192489456
 20
25.256304663
  0
LWPOLYLINE
  5
230
100
AcDbEntity
  8
0
100
AcDbPolyline
 62
7
  6
CONTINUOUS
 90
2
 70
0
 43
0.2
 10
1068.9192489456
 20
25.256304663
 10
1069.7145723975
 20
25.256304663
  0
LWPOLYLINE
  5
231
100
AcDbEntity
  8
0
100
AcDbPolyline
 62
7
  6
CONTINUOUS
 90
2
 70
0
 43
0.2
 10
1069.7145723975
 20
25.256304663
 10
1069.7145723975
 20
25.4682862346
  0
LWPOLYLINE
  5
232
100
AcDbEntity
  8
0
100
AcDbPolyline
 62
7
  6
CONTINUOUS
 90
2
 70
0
 43
0.2
 10
1069.7145723975
 20
25.4682862346
 10
1069.1505967349
 20
25.4682862346
  0
LWPOLYLINE
  5
233
100
AcDbEntity
  8
0
100
AcDbPolyline
 62
7
  6
CONTINUOUS
 90
2
 70
0
 43
0.2
 10
1069.1505967349
 20
25.4682862346
 10
1069.1505967349
 20
27.1133679123
  0
LWPOLYLINE
  5
234
100
AcDbEntity
  8
0
100
AcDbPolyline
 62
7
  6
CONTINUOUS
 90
2
 70
0
 43
0.2
 10
1071.393675809
 20
26.4088563189
 10
1071.1725345399
 20
26.4088563189
  0
LWPOLYLINE
  5
235
100
AcDbEntity
  8
0
100
AcDbPolyline
 62
7
  6
CONTINUOUS
 90
2
 70
0
 43
0.2
 10
1071.1725345399
 20
26.4088563189
 10
1071.1725345399
 20
25.2568280743
  0
LWPOLYLINE
  5
236
100
AcDbEntity
  8
0
100
AcDbPolyline
 62
7
  6
CONTINUOUS
 90
2
 70
0
 43
0.2
 10
1071.1725345399
 20
25.2568280743
 10
1071.393675809
 20
25.2568280743
  0
LWPOLYLINE
  5
237
100
AcDbEntity
  8
0
100
AcDbPolyline
 62
7
  6
CONTINUOUS
 90
2
 70
0
 43
0.2
 10
1071.393675809
 20
25.2568280743
 10
1071.393675809
 20
26.4088563189
  0
LWPOLYLINE
  5
238
100
AcDbEntity
  8
0
100
AcDbPolyline
 62
7
  6
CONTINUOUS
 90
2
 70
1
 43
0.2
 10
1071.1306525318
 20
26.9388102478
 42
1.0
 10
1071.4358195227
 20
26.9388102478
 42
1.0
  0
SPLINE
  5
239
100
AcDbEntity
  8
0
100
AcDbSpline
 62
7
  6
CONTINUOUS
 70
2
 71
3
 72
17
 73
13
 74
0
 42
0.0000001
 43
0.0000001
 44
0.0000000001
 40
0.0
 40
0.0
 40
0.0
 40
0.0
 40
1.0
 40
1.0
 40
1.0
 40
2.0
 40
2.0
 40
2.0
 40
3.0
 40
3.0
 40
3.0
 40
4.0
 40
4.0
 40
4.0
 40
4.0
 10
1073.5239597507
 20
25.4143748719
 30
0.0
 10
1073.289994905
 20
25.4143748719
 30
0.0
 10
1073.1596654943
 20
25.616411629
 30
0.0
 10
1073.1596654943
 20
25.8325804909
 30
0.0
 10
1073.1596654943
 20
26.0471791189
 30
0.0
 10
1073.2954907235
 20
26.2460754083
 30
0.0
 10
1073.5239597507
 20
26.2460754083
 30
0.0
 10
1073.7634204149
 20
26.2460754083
 30
0.0
 10
1073.8989839384
 20
26.0571239334
 30
0.0
 10
1073.8989839384
 20
25.8325804909
 30
0.0
 10
1073.8989839384
 20
25.6064668145
 30
0.0
 10
1073.7657757656
 20
25.4143748719
 30
0.0
 10
1073.5239597507
 20
25.4143748719
 30
0.0
  0
SPLINE
  5
23A
100
AcDbEntity
  8
0
100
AcDbSpline
 62
7
  6
CONTINUOUS
 70
2
 71
3
 72
50
 73
46
 74
0
 42
0.0000001
 43
0.0000001
 44
0.0000000001
 40
0.0
 40
0.0
 40
0.0
 40
0.0
 40
1.0
 40
1.0
 40
1.0
 40
2.0
 40
2.0
 40
2.0
 40
3.0
 40
3.0
 40
3.0
 40
4.0
 40
4.0
 40
4.0
 40
5.0
 40
5.0
 40
5.0
 40
6.0
 40
6.0
 40
6.0
 40
7.0
 40
7.0
 40
7.0
 40
8.0
 40
8.0
 40
8.0
 40
9.0
 40
9.0
 40
9.0
 40
10.0
 40
10.0
 40
10.0
 40
11.0
 40
11.0
 40
11.0
 40
12.0
 40
12.0
 40
12.0
 40
13.0
 40
13.0
 40
13.0
 40
14.0
 40
14.0
 40
14.0
 40
15.0
 40
15.0
 40
15.0
 40
15.0
 10
1074.1080867479
 20
26.4093797301
 30
0.0
 10
1074.1080867479
 20
26.4093797301
 30
0.0
 10
1073.8864220675
 20
26.4093797301
 30
0.0
 10
1073.8864220675
 20
26.4093797301
 30
0.0
 10
1073.8864220675
 20
26.4093797301
 30
0.0
 10
1073.8864220675
 20
26.2120536746
 30
0.0
 10
1073.8864220675
 20
26.2120536746
 30
0.0
 10
1073.8864220675
 20
26.2120536746
 30
0.0
 10
1073.8817113659
 20
26.2120536746
 30
0.0
 10
1073.8817113659
 20
26.2120536746
 30
0.0
 10
1073.7903760962
 20
26.3549449562
 30
0.0
 10
1073.6524572218
 20
26.4434014639
 30
0.0
 10
1073.4797314968
 20
26.4434014639
 30
0.0
 10
1073.147365329
 20
26.4434014639
 30
0.0
 10
1072.9382625195
 20
26.1555252555
 30
0.0
 10
1072.9382625195
 20
25.8399082489
 30
0.0
 10
1072.9382625195
 20
25.5101591376
 30
0.0
 10
1073.1353268694
 20
25.2170488164
 30
0.0
 10
1073.4901997226
 20
25.2170488164
 30
0.0
 10
1073.6524572218
 20
25.2170488164
 30
0.0
 10
1073.7924697413
 20
25.305505324
 30
0.0
 10
1073.8817113659
 20
25.436358146
 30
0.0
 10
1073.8817113659
 20
25.436358146
 30
0.0
 10
1073.8864220675
 20
25.436358146
 30
0.0
 10
1073.8864220675
 20
25.436358146
 30
0.0
 10
1073.8864220675
 20
25.436358146
 30
0.0
 10
1073.8864220675
 20
25.2170488164
 30
0.0
 10
1073.8864220675
 20
25.2170488164
 30
0.0
 10
1073.8864220675
 20
24.9804669143
 30
0.0
 10
1073.8298936484
 20
24.7936090845
 30
0.0
 10
1073.5566729561
 20
24.7936090845
 30
0.0
 10
1073.3543744934
 20
24.7936090845
 30
0.0
 10
1073.2117449174
 20
24.9119000355
 30
0.0
 10
1073.2117449174
 20
25.118124083
 30
0.0
 10
1073.2117449174
 20
25.118124083
 30
0.0
 10
1072.990080237
 20
25.118124083
 30
0.0
 10
1072.990080237
 20
25.118124083
 30
0.0
 10
1072.9950526443
 20
24.7936090845
 30
0.0
 10
1073.2261387279
 20
24.5968064402
 30
0.0
 10
1073.546466436
 20
24.5968064402
 30
0.0
 10
1073.9945064984
 20
24.5968064402
 30
0.0
 10
1074.1080867479
 20
24.8820655921
 30
0.0
 10
1074.1080867479
 20
25.2788113483
 30
0.0
 10
1074.1080867479
 20
25.2788113483
 30
0.0
 10
1074.1080867479
 20
26.4093797301
 30
0.0
 10
1074.1080867479
 20
26.4093797301
 30
0.0
  0
SPLINE
  5
23B
100
AcDbEntity
  8
0
100
AcDbSpline
 62
7
  6
CONTINUOUS
 70
2
 71
3
 72
44
 73
40
 74
0
 42
0.0000001
 43
0.0000001
 44
0.0000000001
 40
0.0
 40
0.0
 40
0.0
 40
0.0
 40
1.0
 40
1.0
 40
1.0
 40
2.0
 40
2.0
 40
2.0
 40
3.0
 40
3.0
 40
3.0
 40
4.0
 40
4.0
 40
4.0
 40
5.0
 40
5.0
 40
5.0
 40
6.0
 40
6.0
 40
6.0
 40
7.0
 40
7.0
 40
7.0
 40
8.0
 40
8.0
 40
8.0
 40
9.0
 40
9.0
 40
9.0
 40
10.0
 40
10.0
 40
10.0
 40
11.0
 40
11.0
 40
11.0
 40
12.0
 40
12.0
 40
12.0
 40
13.0
 40
13.0
 40
13.0
 40
13.0
 10
1075.6770120833
 20
27.3944397739
 30
0.0
 10
1075.6770120833
 20
27.3944397739
 30
0.0
 10
1075.6770120833
 20
25.256304663
 30
0.0
 10
1075.6770120833
 20
25.256304663
 30
0.0
 10
1075.6770120833
 20
25.256304663
 30
0.0
 10
1075.8984150581
 20
25.256304663
 30
0.0
 10
1075.8984150581
 20
25.256304663
 30
0.0
 10
1075.8984150581
 20
25.256304663
 30
0.0
 10
1075.8984150581
 20
25.7859968863
 30
0.0
 10
1075.8984150581
 20
25.7859968863
 30
0.0
 10
1075.8984150581
 20
25.9958848127
 30
0.0
 10
1075.8984150581
 20
26.2465988196
 30
0.0
 10
1076.18367421
 20
26.2465988196
 30
0.0
 10
1076.4105730033
 20
26.2465988196
 30
0.0
 10
1076.4375286846
 20
26.1136523525
 30
0.0
 10
1076.4375286846
 20
25.9173731195
 30
0.0
 10
1076.4375286846
 20
25.9173731195
 30
0.0
 10
1076.4375286846
 20
25.256304663
 30
0.0
 10
1076.4375286846
 20
25.256304663
 30
0.0
 10
1076.4375286846
 20
25.256304663
 30
0.0
 10
1076.6594550706
 20
25.256304663
 30
0.0
 10
1076.6594550706
 20
25.256304663
 30
0.0
 10
1076.6594550706
 20
25.256304663
 30
0.0
 10
1076.6594550706
 20
25.9435436839
 30
0.0
 10
1076.6594550706
 20
25.9435436839
 30
0.0
 10
1076.6594550706
 20
26.2240921342
 30
0.0
 10
1076.5754475589
 20
26.4439248751
 30
0.0
 10
1076.2504091492
 20
26.4439248751
 30
0.0
 10
1076.1106583353
 20
26.4439248751
 30
0.0
 10
1075.9724777553
 20
26.3774516416
 30
0.0
 10
1075.9031257597
 20
26.2544499889
 30
0.0
 10
1075.9031257597
 20
26.2544499889
 30
0.0
 10
1075.8984150581
 20
26.2544499889
 30
0.0
 10
1075.8984150581
 20
26.2544499889
 30
0.0
 10
1075.8984150581
 20
26.2544499889
 30
0.0
 10
1075.8984150581
 20
27.3944397739
 30
0.0
 10
1075.8984150581
 20
27.3944397739
 30
0.0
 10
1075.8984150581
 20
27.3944397739
 30
0.0
 10
1075.6770120833
 20
27.3944397739
 30
0.0
 10
1075.6770120833
 20
27.3944397739
 30
0.0
  0
LWPOLYLINE
  5
23C
100
AcDbEntity
  8
0
100
AcDbPolyline
 62
7
  6
CONTINUOUS
 90
2
 70
0
 43
0.2
 10
1078.4992457475
 20
26.2021088601
 10
1078.715676315
 20
26.2021088601
  0
LWPOLYLINE
  5
23D
100
AcDbEntity
  8
0
100
AcDbPolyline
 62
7
  6
CONTINUOUS
 90
2
 70
0
 43
0.2
 10
1078.715676315
 20
26.2021088601
 10
1078.715676315
 20
26.4088563189
  0
LWPOLYLINE
  5
23E
100
AcDbEntity
  8
0
100
AcDbPolyline
 62
7
  6
CONTINUOUS
 90
2
 70
0
 43
0.2
 10
1078.715676315
 20
26.4088563189
 10
1078.4992457475
 20
26.4088563189
  0
LWPOLYLINE
  5
23F
100
AcDbEntity
  8
0
100
AcDbPolyline
 62
7
  6
CONTINUOUS
 90
2
 70
0
 43
0.2
 10
1078.4992457475
 20
26.4088563189
 10
1078.4992457475
 20
26.8495686232
  0
LWPOLYLINE
  5
240
100
AcDbEntity
  8
0
100
AcDbPolyline
 62
7
  6
CONTINUOUS
 90
2
 70
0
 43
0.2
 10
1078.4992457475
 20
26.8495686232
 10
1078.2775810671
 20
26.8495686232
  0
LWPOLYLINE
  5
241
100
AcDbEntity
  8
0
100
AcDbPolyline
 62
7
  6
CONTINUOUS
 90
2
 70
0
 43
0.2
 10
1078.2775810671
 20
26.8495686232
 10
1078.2775810671
 20
26.4088563189
  0
LWPOLYLINE
  5
242
100
AcDbEntity
  8
0
100
AcDbPolyline
 62
7
  6
CONTINUOUS
 90
2
 70
0
 43
0.2
 10
1078.2775810671
 20
26.4088563189
 10
1078.1569347652
 20
26.4088563189
  0
LWPOLYLINE
  5
243
100
AcDbEntity
  8
0
100
AcDbPolyline
 62
7
  6
CONTINUOUS
 90
2
 70
0
 43
0.2
 10
1078.1569347652
 20
26.4088563189
 10
1078.1569347652
 20
26.2021088601
  0
LWPOLYLINE
  5
244
100
AcDbEntity
  8
0
100
AcDbPolyline
 62
7
  6
CONTINUOUS
 90
2
 70
0
 43
0.2
 10
1078.1569347652
 20
26.2021088601
 10
1078.2775810671
 20
26.2021088601
  0
LWPOLYLINE
  5
245
100
AcDbEntity
  8
0
100
AcDbPolyline
 62
7
  6
CONTINUOUS
 90
2
 70
0
 43
0.2
 10
1078.2775810671
 20
26.2021088601
 10
1078.2775810671
 20
25.256304663
  0
LWPOLYLINE
  5
246
100
AcDbEntity
  8
0
100
AcDbPolyline
 62
7
  6
CONTINUOUS
 90
2
 70
0
 43
0.2
 10
1078.2775810671
 20
25.256304663
 10
1078.4992457475
 20
25.256304663
  0
LWPOLYLINE
  5
247
100
AcDbEntity
  8
0
100
AcDbPolyline
 62
7
  6
CONTINUOUS
 90
2
 70
0
 43
0.2
 10
1078.4992457475
 20
25.256304663
 10
1078.4992457475
 20
26.2021088601
  0
SPLINE
  5
248
100
AcDbEntity
  8
0
100
AcDbSpline
 62
7
  6
CONTINUOUS
 70
2
 71
3
 72
20
 73
16
 74
0
 42
0.0000001
 43
0.0000001
 44
0.0000000001
 40
0.0
 40
0.0
 40
0.0
 40
0.0
 40
1.0
 40
1.0
 40
1.0
 40
2.0
 40
2.0
 40
2.0
 40
3.0
 40
3.0
 40
3.0
 40
4.0
 40
4.0
 40
4.0
 40
5.0
 40
5.0
 40
5.0
 40
5.0
 10
1066.2812560548
 20
35.6172311064
 30
0.0
 10
1066.2812560548
 20
35.6172311064
 30
0.0
 10
1068.5976127092
 20
32.7876696841
 30
0.0
 10
1068.5976127092
 20
32.7876696841
 30
0.0
 10
1067.9459656558
 20
32.1354992194
 30
0.0
 10
1067.1690924518
 20
31.3995829487
 30
0.0
 10
1066.1979028072
 20
31.3995829487
 30
0.0
 10
1065.1993649227
 20
31.3995829487
 30
0.0
 10
1064.2560469292
 20
32.329161396
 30
0.0
 10
1064.2560469292
 20
33.3283535445
 30
0.0
 10
1064.2560469292
 20
34.327545693
 30
0.0
 10
1065.4349000023
 20
35.0341509317
 30
0.0
 10
1066.1564224626
 20
35.5340087116
 30
0.0
 10
1066.1564224626
 20
35.5340087116
 30
0.0
 10
1066.2812560548
 20
35.6172311064
 30
0.0
 10
1066.2812560548
 20
35.6172311064
 30
0.0
  0
SPLINE
  5
249
100
AcDbEntity
  8
0
100
AcDbSpline
 62
7
  6
CONTINUOUS
 70
2
 71
3
 72
23
 73
19
 74
0
 42
0.0000001
 43
0.0000001
 44
0.0000000001
 40
0.0
 40
0.0
 40
0.0
 40
0.0
 40
1.0
 40
1.0
 40
1.0
 40
2.0
 40
2.0
 40
2.0
 40
3.0
 40
3.0
 40
3.0
 40
4.0
 40
4.0
 40
4.0
 40
5.0
 40
5.0
 40
5.0
 40
6.0
 40
6.0
 40
6.0
 40
6.0
 10
1066.5586640373
 20
37.2549850261
 30
0.0
 10
1066.5586640373
 20
37.2549850261
 30
0.0
 10
1066.2121657648
 20
37.6983143869
 30
0.0
 10
1066.2121657648
 20
37.6983143869
 30
0.0
 10
1065.9063627198
 20
38.0864238569
 30
0.0
 10
1065.5874743927
 20
38.4749258853
 30
0.0
 10
1065.5874743927
 20
39.0018701994
 30
0.0
 10
1065.5874743927
 20
39.668041916
 30
0.0
 10
1066.1288125172
 20
40.1117638353
 30
0.0
 10
1066.7527187723
 20
40.1117638353
 30
0.0
 10
1067.4465004344
 20
40.1117638353
 30
0.0
 10
1067.9737064541
 20
39.7095222606
 30
0.0
 10
1067.9737064541
 20
38.9745219596
 30
0.0
 10
1067.9737064541
 20
38.211257449
 30
0.0
 10
1067.2524456994
 20
37.7811442232
 30
0.0
 10
1066.7253705325
 20
37.3654248078
 30
0.0
 10
1066.7253705325
 20
37.3654248078
 30
0.0
 10
1066.5586640373
 20
37.2549850261
 30
0.0
 10
1066.5586640373
 20
37.2549850261
 30
0.0
  0
SPLINE
  5
24A
100
AcDbEntity
  8
0
100
AcDbSpline
 62
7
  6
CONTINUOUS
 70
2
 71
3
 72
50
 73
46
 74
0
 42
0.0000001
 43
0.0000001
 44
0.0000000001
 40
0.0
 40
0.0
 40
0.0
 40
0.0
 40
1.0
 40
1.0
 40
1.0
 40
2.0
 40
2.0
 40
2.0
 40
3.0
 40
3.0
 40
3.0
 40
4.0
 40
4.0
 40
4.0
 40
5.0
 40
5.0
 40
5.0
 40
6.0
 40
6.0
 40
6.0
 40
7.0
 40
7.0
 40
7.0
 40
8.0
 40
8.0
 40
8.0
 40
9.0
 40
9.0
 40
9.0
 40
10.0
 40
10.0
 40
10.0
 40
11.0
 40
11.0
 40
11.0
 40
12.0
 40
12.0
 40
12.0
 40
13.0
 40
13.0
 40
13.0
 40
14.0
 40
14.0
 40
14.0
 40
15.0
 40
15.0
 40
15.0
 40
15.0
 10
1070.5122512002
 20
30.456395808
 30
0.0
 10
1070.5122512002
 20
30.456395808
 30
0.0
 10
1072.1214792048
 20
30.456395808
 30
0.0
 10
1072.1214792048
 20
30.456395808
 30
0.0
 10
1072.1214792048
 20
30.456395808
 30
0.0
 10
1070.2484519112
 20
32.7735375794
 30
0.0
 10
1070.2484519112
 20
32.7735375794
 30
0.0
 10
1070.2484519112
 20
32.7735375794
 30
0.0
 10
1071.5247903366
 20
34.271017274
 30
0.0
 10
1071.5247903366
 20
34.271017274
 30
0.0
 10
1071.5247903366
 20
34.271017274
 30
0.0
 10
1070.6925663889
 20
35.1320288425
 30
0.0
 10
1070.6925663889
 20
35.1320288425
 30
0.0
 10
1070.6925663889
 20
35.1320288425
 30
0.0
 10
1069.4719712656
 20
33.7167247201
 30
0.0
 10
1069.4719712656
 20
33.7167247201
 30
0.0
 10
1069.4719712656
 20
33.7167247201
 30
0.0
 10
1067.2940568968
 20
36.3521005545
 30
0.0
 10
1067.2940568968
 20
36.3521005545
 30
0.0
 10
1068.1676303362
 20
36.9901389144
 30
0.0
 10
1069.1943015774
 20
37.7811442232
 30
0.0
 10
1069.1943015774
 20
38.9599972963
 30
0.0
 10
1069.1943015774
 20
40.3336902214
 30
0.0
 10
1068.0564054376
 20
41.1381733708
 30
0.0
 10
1066.7811138347
 20
41.1381733708
 30
0.0
 10
1065.4076826153
 20
41.1381733708
 30
0.0
 10
1064.3667484165
 20
40.2919481711
 30
0.0
 10
1064.3667484165
 20
38.849295809
 30
0.0
 10
1064.3667484165
 20
37.9617211175
 30
0.0
 10
1064.922087793
 20
37.1848479135
 30
0.0
 10
1065.5182532499
 20
36.5604182471
 30
0.0
 10
1065.5182532499
 20
36.5604182471
 30
0.0
 10
1064.8663444908
 20
36.0888246767
 30
0.0
 10
1064.8663444908
 20
36.0888246767
 30
0.0
 10
1063.8678066064
 20
35.367563922
 30
0.0
 10
1063.0349283946
 20
34.6463031674
 30
0.0
 10
1063.0349283946
 20
33.314744851
 30
0.0
 10
1063.0349283946
 20
31.511069553
 30
0.0
 10
1064.4919745672
 20
30.2344694219
 30
0.0
 10
1066.2395140045
 20
30.2344694219
 30
0.0
 10
1067.4743720855
 20
30.2344694219
 30
0.0
 10
1068.5837423101
 20
30.9426448944
 30
0.0
 10
1069.3746167661
 20
31.8711765191
 30
0.0
 10
1069.3746167661
 20
31.8711765191
 30
0.0
 10
1070.5122512002
 20
30.456395808
 30
0.0
 10
1070.5122512002
 20
30.456395808
 30
0.0
  0
LINE
  5
24B
100
AcDbEntity
  8
0
100
AcDbLine
 62
7
  6
CONTINUOUS
 10
1056.3151125752
 20
28.4302707126
 11
1078.7290233029
 21
28.4302707126
  0
LINE
  5
24C
100
AcDbEntity
  8
0
100
AcDbLine
 62
7
  6
CONTINUOUS
 10
1078.7290233029
 20
28.4302707126
 11
1078.7290233029
 21
50.8441814402
  0
LINE
  5
24D
100
AcDbEntity
  8
0
100
AcDbLine
 62
7
  6
CONTINUOUS
 10
1078.7290233029
 20
50.8441814402
 11
1056.3151125752
 21
50.8441814402
  0
LINE
  5
24E
100
AcDbEntity
  8
0
100
AcDbLine
 62
7
  6
CONTINUOUS
 10
1056.3151125752
 20
50.8441814402
 11
1056.3151125752
 21
28.4302707126
  0
ENDBLK
  5
24F
100
AcDbEntity
  8
0
  6
BYBLOCK
 62
0
100
AcDbBlockEnd
  0
BLOCK
  5
250
100
AcDbEntity
  8
0
100
AcDbBlockBegin
  2
_CLOSED
 70
64
 10
0.0
 20
0.0
  3
_CLOSED
  1

  0
LINE
  5
251
100
AcDbEntity
  8
0
  6
BYBLOCK
 62
0
100
AcDbLine
 10
0.0
 20
0.0
 11
-1.0
 21
0.2
  0
LINE
  5
252
100
AcDbEntity
  8
0
  6
BYBLOCK
 62
0
100
AcDbLine
 10
-1.0
 20
0.2
 11
-1.0
 21
-0.2
  0
LINE
  5
253
100
AcDbEntity
  8
0
  6
BYBLOCK
 62
0
100
AcDbLine
 10
-1.0
 20
-0.2
 11
0.0
 21
0.0
  0
LINE
  5
254
100
AcDbEntity
  8
0
  6
BYBLOCK
 62
0
100
AcDbLine
 10
-1.0
 20
0.0
 11
0.0
 21
0.0
  0
ENDBLK
  5
255
100
AcDbEntity
  8
0
  6
BYBLOCK
 62
0
100
AcDbBlockEnd
  0
BLOCK
  5
256
100
AcDbEntity
  8
0
100
AcDbBlockBegin
 62
7
  6
CONTINUOUS
  2
*D0
 70
65
 10
0.0
 20
0.0
  3
*D0
  1

  0
MTEXT
  5
257
100
AcDbEntity
  8
0
100
AcDbMText
 62
7
  6
CONTINUOUS
  7
STANDARD
 71
2
 72
1
 10
404.0893628475
 20
668.2071511394
 30
0.0
 11
1.0
 21
0.0
 31
0.0
  1
620
 40
10.0
 41
23.3085501859
  0
LINE
  5
258
100
AcDbEntity
  8
0
100
AcDbLine
 62
7
  6
CONTINUOUS
 10
94.0893628475
 20
639.2147125953
 11
94.0893628475
 21
656.4571511394
  0
LINE
  5
259
100
AcDbEntity
  8
0
100
AcDbLine
 62
7
  6
CONTINUOUS
 10
714.0893628475
 20
639.5328834885
 11
714.0893628475
 21
656.4571511394
  0
LINE
  5
25A
100
AcDbEntity
  8
0
100
AcDbLine
 62
7
  6
CONTINUOUS
 10
94.0893628475
 20
655.7071511394
 11
404.0893628475
 21
655.7071511394
  0
LINE
  5
25B
100
AcDbEntity
  8
0
100
AcDbLine
 62
7
  6
CONTINUOUS
 10
714.0893628475
 20
655.7071511394
 11
404.0893628475
 21
655.7071511394
  0
INSERT
  5
25C
100
AcDbEntity
  8
0
100
AcDbBlockReference
 62
7
  6
CONTINUOUS
  2
_CLOSED
 10
94.0893628475
 20
655.7071511394
 41
2.5
 42
2.5
 43
2.5
 50
180.0
  0
INSERT
  5
25D
100
AcDbEntity
  8
0
100
AcDbBlockReference
 62
7
  6
CONTINUOUS
  2
_CLOSED
 10
714.0893628475
 20
655.7071511394
 41
2.5
 42
2.5
 43
2.5
  0
ENDBLK
  5
25E
100
AcDbEntity
  8
0
  6
BYBLOCK
 62
0
100
AcDbBlockEnd
  0
BLOCK
  5
25F
100
AcDbEntity
  8
0
100
AcDbBlockBegin
 62
7
  6
CONTINUOUS
  2
*D1
 70
65
 10
0.0
 20
0.0
  3
*D1
  1

  0
MTEXT
  5
260
100
AcDbEntity
  8
0
100
AcDbMText
 62
7
  6
CONTINUOUS
  7
STANDARD
 71
2
 72
1
 10
40.7577620965
 20
336.6423209622
 30
0.0
 11
0.0
 21
1.0
 31
0.0
  1
587,5
 40
10.0
 41
34.9442379182
  0
LINE
  5
261
100
AcDbEntity
  8
0
100
AcDbLine
 62
7
  6
CONTINUOUS
 10
77.1945795813
 20
630.3923209622
 11
52.5077620965
 21
630.3923209622
  0
LINE
  5
262
100
AcDbEntity
  8
0
100
AcDbLine
 62
7
  6
CONTINUOUS
 10
77.1520413303
 20
42.8923209622
 11
52.5077620965
 21
42.8923209622
  0
LINE
  5
263
100
AcDbEntity
  8
0
100
AcDbLine
 62
7
  6
CONTINUOUS
 10
53.2577620965
 20
630.3923209622
 11
53.2577620965
 21
336.6423209622
  0
LINE
  5
264
100
AcDbEntity
  8
0
100
AcDbLine
 62
7
  6
CONTINUOUS
 10
53.2577620965
 20
42.8923209622
 11
53.2577620965
 21
336.6423209622
  0
INSERT
  5
265
100
AcDbEntity
  8
0
100
AcDbBlockReference
 62
7
  6
CONTINUOUS
  2
_CLOSED
 10
53.2577620965
 20
630.3923209622
 41
2.5
 42
2.5
 43
2.5
 50
90.0
  0
INSERT
  5
266
100
AcDbEntity
  8
0
100
AcDbBlockReference
 62
7
  6
CONTINUOUS
  2
_CLOSED
 10
53.2577620965
 20
42.8923209622
 41
2.5
 42
2.5
 43
2.5
 50
270.0
  0
ENDBLK
  5
267
100
AcDbEntity
  8
0
  6
BYBLOCK
 62
0
100
AcDbBlockEnd
  0
BLOCK
  5
268
100
AcDbEntity
  8
0
100
AcDbBlockBegin
 62
7
  6
CONTINUOUS
  2
*D2
 70
65
 10
0.0
 20
0.0
  3
*D2
  1

  0
MTEXT
  5
269
100
AcDbEntity
  8
0
100
AcDbMText
 62
7
  6
CONTINUOUS
  7
STANDARD
 71
2
 72
1
 10
40.7577620965
 20
737.5797683109
 30
0.0
 11
0.0
 21
1.0
 31
0.0
  1
84,8
 40
10.0
 41
27.1747211896
  0
LINE
  5
26A
100
AcDbEntity
  8
0
100
AcDbLine
 62
7
  6
CONTINUOUS
 10
77.1520413303
 20
695.1797683109
 11
52.5077620965
 21
695.1797683109
  0
LINE
  5
26B
100
AcDbEntity
  8
0
100
AcDbLine
 62
7
  6
CONTINUOUS
 10
77.1520413303
 20
779.9797683109
 11
52.5077620965
 21
779.9797683109
  0
LINE
  5
26C
100
AcDbEntity
  8
0
100
AcDbLine
 62
7
  6
CONTINUOUS
 10
53.2577620965
 20
695.1797683109
 11
53.2577620965
 21
737.5797683109
  0
LINE
  5
26D
100
AcDbEntity
  8
0
100
AcDbLine
 62
7
  6
CONTINUOUS
 10
53.2577620965
 20
779.9797683109
 11
53.2577620965
 21
737.5797683109
  0
INSERT
  5
26E
100
AcDbEntity
  8
0
100
AcDbBlockReference
 62
7
  6
CONTINUOUS
  2
_CLOSED
 10
53.2577620965
 20
695.1797683109
 41
2.5
 42
2.5
 43
2.5
 50
270.0
  0
INSERT
  5
26F
100
AcDbEntity
  8
0
100
AcDbBlockReference
 62
7
  6
CONTINUOUS
  2
_CLOSED
 10
53.2577620965
 20
779.9797683109
 41
2.5
 42
2.5
 43
2.5
 50
90.0
  0
ENDBLK
  5
270
100
AcDbEntity
  8
0
  6
BYBLOCK
 62
0
100
AcDbBlockEnd
  0
ENDSEC
  0
SECTION
  2
ENTITIES
  0
DIMENSION
  5
271
100
AcDbEntity
  8
0
100
AcDbDimension
 62
7
  6
CONTINUOUS
  2
*D0
 10
714.0893628475
 20
655.7071511394
 11
404.0171418152
 21
655.7071511394
 70
160
  3
DIMSTYLE_1
100
AcDbAlignedDimension
 13
94.0893628475
 23
638.4647125953
 14
714.0893628475
 24
638.7828834885
100
AcDbRotatedDimension
  0
DIMENSION
  5
272
100
AcDbEntity
  8
0
100
AcDbDimension
 62
7
  6
CONTINUOUS
  2
*D1
 10
53.2577620965
 20
42.8923209622
 11
53.2577620965
 21
336.6396877628
 70
160
  3
DIMSTYLE_1
100
AcDbAlignedDimension
 13
77.9445795813
 23
630.3923209622
 14
77.9020413303
 24
42.8923209622
 50
270.0
100
AcDbRotatedDimension
  0
DIMENSION
  5
273
100
AcDbEntity
  8
0
100
AcDbDimension
 62
7
  6
CONTINUOUS
  2
*D2
 10
53.2577620965
 20
779.9797683109
 11
53.2577620965
 21
737.5110211537
 70
160
  3
DIMSTYLE_2
100
AcDbAlignedDimension
 13
77.9020413303
 23
695.1797683109
 14
77.9020413303
 24
779.9797683109
 50
90.0
100
AcDbRotatedDimension
  0
LINE
  5
274
100
AcDbEntity
  8
0
100
AcDbLine
 62
2
  6
CONTINUOUS
 10
1053.6959554679
 20
51.2204939402
 11
1143.6959554679
 21
51.2204939402
  0
LINE
  5
275
100
AcDbEntity
  8
0
100
AcDbLine
 62
2
  6
CONTINUOUS
 10
1053.6959554679
 20
51.2204939402
 11
1053.6959554679
 21
11.2204939402
  0
LINE
  5
276
100
AcDbEntity
  8
0
100
AcDbLine
 62
2
  6
CONTINUOUS
 10
1083.6959554679
 20
45.2204939402
 11
1143.6959554679
 21
45.2204939402
  0
LINE
  5
277
100
AcDbEntity
  8
0
100
AcDbLine
 62
2
  6
CONTINUOUS
 10
1083.6959554679
 20
39.2204939402
 11
1143.6959554679
 21
39.2204939402
  0
LINE
  5
278
100
AcDbEntity
  8
0
100
AcDbLine
 62
2
  6
CONTINUOUS
 10
1083.6959554679
 20
29.2204939402
 11
1143.6959554679
 21
29.2204939402
  0
LINE
  5
279
100
AcDbEntity
  8
0
100
AcDbLine
 62
2
  6
CONTINUOUS
 10
1053.6959554679
 20
24.2204939402
 11
1143.6959554679
 21
24.2204939402
  0
LINE
  5
27A
100
AcDbEntity
  8
0
100
AcDbLine
 62
2
  6
CONTINUOUS
 10
1053.6959554679
 20
11.2204939402
 11
1143.6959554679
 21
11.2204939402
  0
LINE
  5
27B
100
AcDbEntity
  8
0
100
AcDbLine
 62
2
  6
CONTINUOUS
 10
1083.6959554679
 20
51.2204939402
 11
1083.6959554679
 21
24.2204939402
  0
LINE
  5
27C
100
AcDbEntity
  8
0
100
AcDbLine
 62
2
  6
CONTINUOUS
 10
1123.6959554679
 20
51.2204939402
 11
1123.6959554679
 21
39.2204939402
  0
LINE
  5
27D
100
AcDbEntity
  8
0
100
AcDbLine
 62
2
  6
CONTINUOUS
 10
1143.6959554679
 20
51.2204939402
 11
1143.6959554679
 21
11.2204939402
  0
INSERT
  5
27E
100
AcDbEntity
  8
0
100
AcDbBlockReference
 62
2
  6
CONTINUOUS
  2
LOGO2_BL0
 10
1067.5220025126
 20
37.7204939402
  0
MTEXT
  5
27F
100
AcDbEntity
  8
9_SOLID
100
AcDbMText
 62
2
  6
CONTINUOUS
  7
TEXTSTYLE_2
 71
1
 72
1
 10
1085.1834554679
 20
49.7204939402
 30
0.0
 11
1.0
 21
0.0
 31
0.0
  1
6F3_C_400
 40
3.0
 41
32.25
  0
MTEXT
  5
280
100
AcDbEntity
  8
0
100
AcDbMText
 62
2
  6
CONTINUOUS
  7
TEXTSTYLE_2
 71
1
 72
1
 10
1125.1834554679
 20
49.4704939402
 30
0.0
 11
1.0
 21
0.0
 31
0.0
  1
Rev:00
 40
3.5
 41
22.75
  0
MTEXT
  5
281
100
AcDbEntity
  8
9_SOLID
100
AcDbMText
 62
2
  6
CONTINUOUS
  7
TEXTSTYLE_2
 71
1
 72
1
 10
1085.1834554679
 20
43.4704939402
 30
0.0
 11
1.0
 21
0.0
 31
0.0
  1
Scale:1:1
 40
3.5
 41
28.375
  0
MTEXT
  5
282
100
AcDbEntity
  8
9_SOLID
100
AcDbMText
 62
2
  6
CONTINUOUS
  7
TEXTSTYLE_2
 71
1
 72
1
 10
1125.1834554679
 20
43.9704939402
 30
0.0
 11
1.0
 21
0.0
 31
0.0
  1
A0
 40
3.5
 41
9.625
  0
MTEXT
  5
283
100
AcDbEntity
  8
0
100
AcDbMText
 62
2
  6
CONTINUOUS
  7
TEXTSTYLE_2
 71
1
 72
1
 10
1085.1834554679
 20
35.9704939402
 30
0.0
 11
1.0
 21
0.0
 31
0.0
  1
CASS. A FILO BRENTA1 ANG. PIANO 90°
 40
3.5
 41
141.8375
  0
MTEXT
  5
284
100
AcDbEntity
  8
0
100
AcDbMText
 62
2
  6
CONTINUOUS
  7
TEXTSTYLE_2
 71
1
 72
1
 10
1085.1834554679
 20
27.9704939402
 30
0.0
 11
1.0
 21
0.0
 31
0.0
  1
DATE:08/05/18
 40
2.5
 41
36.875
  0
MTEXT
  5
285
100
AcDbEntity
  8
9_SOLID
100
AcDbMText
 62
2
  6
CONTINUOUS
  7
TEXTSTYLE_2
 71
1
 72
1
 10
1055.1834554679
 20
23.9079939402
 30
0.0
 11
1.0
 21
0.0
 31
0.0
  1
Any integral or partial reproductions are prohibited \Pwithout prior authorisation of L {\Ftxt.shx;\W0.190476;\H2.250000; }& L Luce & Light s.r.l., \Pin accordance with the law in force. \PAll rights reserved.
 40
2.25
 41
134.5982142857
  0
LINE
  5
286
100
AcDbEntity
  8
0
100
AcDbLine
 62
7
  6
CONTINUOUS
 10
0.0
 20
0.0
 11
0.0
 21
841.0
  0
LINE
  5
287
100
AcDbEntity
  8
0
100
AcDbLine
 62
7
  6
CONTINUOUS
 10
0.0
 20
0.0
 11
1189.0
 21
0.0
  0
LINE
  5
288
100
AcDbEntity
  8
0
100
AcDbLine
 62
7
  6
CONTINUOUS
 10
0.0
 20
841.0
 11
1189.0
 21
841.0
  0
LINE
  5
289
100
AcDbEntity
  8
0
100
AcDbLine
 62
7
  6
CONTINUOUS
 10
1189.0
 20
0.0
 11
1189.0
 21
841.0
  0
LINE
  5
28A
100
AcDbEntity
  8
6_ALL_SURFS
100
AcDbLine
 62
7
  6
CONTINUOUS
 10
94.0893628475
 20
42.8923209622
 11
94.0893628475
 21
630.3923209622
  0
LINE
  5
28B
100
AcDbEntity
  8
7_ALL_FEATURES
100
AcDbLine
 62
9
  6
CONTINUOUS
 10
94.4438912571
 20
630.0377925526
 11
94.4438912571
 21
42.8923209622
  0
LINE
  5
28C
100
AcDbEntity
  8
6_ALL_SURFS
100
AcDbLine
 62
7
  6
CONTINUOUS
 10
96.5893628475
 20
42.8923209622
 11
96.5893628475
 21
81.6089131685
  0
LINE
  5
28D
100
AcDbEntity
  8
6_ALL_SURFS
100
AcDbLine
 62
7
  6
CONTINUOUS
 10
96.5893628475
 20
88.1757287559
 11
96.5893628475
 21
281.6089131685
  0
LINE
  5
28E
100
AcDbEntity
  8
6_ALL_SURFS
100
AcDbLine
 62
7
  6
CONTINUOUS
 10
96.5893628475
 20
288.1757287559
 11
96.5893628475
 21
481.6089131685
  0
LINE
  5
28F
100
AcDbEntity
  8
7_ALL_FEATURES
100
AcDbLine
 62
7
  6
CONTINUOUS
 10
96.5893628475
 20
488.1757287559
 11
96.5893628475
 21
627.8923209622
  0
LINE
  5
290
100
AcDbEntity
  8
6_ALL_SURFS
100
AcDbLine
 62
7
  6
CONTINUOUS
 10
99.4893628475
 20
42.8923209622
 11
99.4893628475
 21
80.1309381022
  0
LINE
  5
291
100
AcDbEntity
  8
6_ALL_SURFS
100
AcDbLine
 62
7
  6
CONTINUOUS
 10
99.4893628475
 20
89.6537038222
 11
99.4893628475
 21
280.1309381022
  0
LINE
  5
292
100
AcDbEntity
  8
6_ALL_SURFS
100
AcDbLine
 62
7
  6
CONTINUOUS
 10
99.4893628475
 20
289.6537038222
 11
99.4893628475
 21
480.1309381022
  0
LINE
  5
293
100
AcDbEntity
  8
7_ALL_FEATURES
100
AcDbLine
 62
7
  6
CONTINUOUS
 10
99.4893628475
 20
489.6537038222
 11
99.4893628475
 21
624.9923209622
  0
LINE
  5
294
100
AcDbEntity
  8
6_ALL_SURFS
100
AcDbLine
 62
7
  6
CONTINUOUS
 10
100.0893628475
 20
42.8923209622
 11
100.0893628475
 21
80.0932828565
  0
LINE
  5
295
100
AcDbEntity
  8
6_ALL_SURFS
100
AcDbLine
 62
7
  6
CONTINUOUS
 10
100.0893628475
 20
89.6913590679
 11
100.0893628475
 21
280.0932828565
  0
LINE
  5
296
100
AcDbEntity
  8
6_ALL_SURFS
100
AcDbLine
 62
7
  6
CONTINUOUS
 10
100.0893628475
 20
289.6913590679
 11
100.0893628475
 21
480.0932828565
  0
LINE
  5
297
100
AcDbEntity
  8
7_ALL_FEATURES
100
AcDbLine
 62
7
  6
CONTINUOUS
 10
100.0893628475
 20
489.6913590679
 11
100.0893628475
 21
624.3923209622
  0
LINE
  5
298
100
AcDbEntity
  8
6_ALL_SURFS
100
AcDbLine
 62
7
  6
CONTINUOUS
 10
102.4893628475
 20
42.8923209622
 11
102.4893628475
 21
80.7365097611
  0
LINE
  5
299
100
AcDbEntity
  8
6_ALL_SURFS
100
AcDbLine
 62
7
  6
CONTINUOUS
 10
102.4893628475
 20
89.0481321634
 11
102.4893628475
 21
280.7365097611
  0
LINE
  5
29A
100
AcDbEntity
  8
6_ALL_SURFS
100
AcDbLine
 62
7
  6
CONTINUOUS
 10
102.4893628475
 20
289.0481321634
 11
102.4893628475
 21
480.7365097611
  0
LINE
  5
29B
100
AcDbEntity
  8
7_ALL_FEATURES
100
AcDbLine
 62
7
  6
CONTINUOUS
 10
102.4893628475
 20
489.0481321634
 11
102.4893628475
 21
621.9923209622
  0
LINE
  5
29C
100
AcDbEntity
  8
6_ALL_SURFS
100
AcDbLine
 62
7
  6
CONTINUOUS
 10
103.0893628475
 20
42.8923209622
 11
103.0893628475
 21
81.1465544533
  0
LINE
  5
29D
100
AcDbEntity
  8
6_ALL_SURFS
100
AcDbLine
 62
7
  6
CONTINUOUS
 10
103.0893628475
 20
88.6380874712
 11
103.0893628475
 21
281.1465544533
  0
LINE
  5
29E
100
AcDbEntity
  8
6_ALL_SURFS
100
AcDbLine
 62
7
  6
CONTINUOUS
 10
103.0893628475
 20
288.6380874712
 11
103.0893628475
 21
481.1465544533
  0
LINE
  5
29F
100
AcDbEntity
  8
7_ALL_FEATURES
100
AcDbLine
 62
7
  6
CONTINUOUS
 10
103.0893628475
 20
488.6380874712
 11
103.0893628475
 21
621.3923209622
  0
LINE
  5
2A0
100
AcDbEntity
  8
7_ALL_FEATURES
100
AcDbLine
 62
7
  6
CONTINUOUS
 10
105.4893628475
 20
42.8923209622
 11
105.4893628475
 21
618.9923209622
  0
LINE
  5
2A1
100
AcDbEntity
  8
7_ALL_FEATURES
100
AcDbLine
 62
7
  6
CONTINUOUS
 10
106.0893628475
 20
42.8923209622
 11
106.0893628475
 21
618.3923209622
  0
LINE
  5
2A2
100
AcDbEntity
  8
7_ALL_FEATURES
100
AcDbLine
 62
7
  6
CONTINUOUS
 10
108.4893628475
 20
42.8923209622
 11
108.4893628475
 21
615.9923209622
  0
LINE
  5
2A3
100
AcDbEntity
  8
7_ALL_FEATURES
100
AcDbLine
 62
7
  6
CONTINUOUS
 10
109.0893628475
 20
42.8923209622
 11
109.0893628475
 21
615.3923209622
  0
LINE
  5
2A4
100
AcDbEntity
  8
7_ALL_FEATURES
100
AcDbLine
 62
7
  6
CONTINUOUS
 10
111.4893628475
 20
42.8923209622
 11
111.4893628475
 21
612.9923209622
  0
LINE
  5
2A5
100
AcDbEntity
  8
7_ALL_FEATURES
100
AcDbLine
 62
7
  6
CONTINUOUS
 10
112.0893628475
 20
42.8923209622
 11
112.0893628475
 21
612.3923209622
  0
LINE
  5
2A6
100
AcDbEntity
  8
7_ALL_FEATURES
100
AcDbLine
 62
9
  6
CONTINUOUS
 10
114.0393628475
 20
42.8923209622
 11
114.0393628475
 21
610.4423209622
  0
LINE
  5
2A7
100
AcDbEntity
  8
7_ALL_FEATURES
100
AcDbLine
 62
7
  6
CONTINUOUS
 10
114.3393628475
 20
610.1423209622
 11
114.3393628475
 21
42.8923209622
  0
LINE
  5
2A8
100
AcDbEntity
  8
7_ALL_FEATURES
100
AcDbLine
 62
9
  6
CONTINUOUS
 10
114.6393628475
 20
609.8423209622
 11
114.6393628475
 21
42.8923209622
  0
LINE
  5
2A9
100
AcDbEntity
  8
7_ALL_FEATURES
100
AcDbLine
 62
9
  6
CONTINUOUS
 10
115.2893628475
 20
609.1923209622
 11
115.2893628475
 21
42.8923209622
  0
LINE
  5
2AA
100
AcDbEntity
  8
7_ALL_FEATURES
100
AcDbLine
 62
7
  6
CONTINUOUS
 10
115.5893628475
 20
608.8923209622
 11
115.5893628475
 21
42.8923209622
  0
LINE
  5
2AB
100
AcDbEntity
  8
7_ALL_FEATURES
100
AcDbLine
 62
7
  6
CONTINUOUS
 10
115.7893628475
 20
42.8923209622
 11
115.7893628475
 21
608.3423209622
  0
LINE
  5
2AC
100
AcDbEntity
  8
7_ALL_FEATURES
100
AcDbLine
 62
9
  6
CONTINUOUS
 10
115.8893628475
 20
608.2423209622
 11
115.8893628475
 21
608.5923209622
  0
LINE
  5
2AD
100
AcDbEntity
  8
7_ALL_FEATURES
100
AcDbLine
 62
9
  6
CONTINUOUS
 10
115.9893628475
 20
42.8923209622
 11
115.9893628475
 21
608.1423209622
  0
LINE
  5
2AE
100
AcDbEntity
  8
7_ALL_FEATURES
100
AcDbLine
 62
9
  6
CONTINUOUS
 10
116.5393628475
 20
607.9423209622
 11
116.5393628475
 21
607.5923209622
  0
LINE
  5
2AF
100
AcDbEntity
  8
7_ALL_FEATURES
100
AcDbLine
 62
7
  6
CONTINUOUS
 10
116.8393628475
 20
607.6423209622
 11
116.8393628475
 21
607.2923209622
  0
LINE
  5
2B0
100
AcDbEntity
  8
7_ALL_FEATURES
100
AcDbLine
 62
9
  6
CONTINUOUS
 10
117.4004004495
 20
606.7312833602
 11
117.4004004495
 21
607.0812833602
  0
LINE
  5
2B1
100
AcDbEntity
  8
7_ALL_FEATURES
100
AcDbLine
 62
9
  6
CONTINUOUS
 10
117.61980656
 20
606.5118772497
 11
117.61980656
 21
606.8618772497
  0
LINE
  5
2B2
100
AcDbEntity
  8
7_ALL_FEATURES
100
AcDbLine
 62
9
  6
CONTINUOUS
 10
118.4393628475
 20
606.0423209622
 11
118.4393628475
 21
605.6923209622
  0
LINE
  5
2B3
100
AcDbEntity
  8
7_ALL_FEATURES
100
AcDbLine
 62
7
  6
CONTINUOUS
 10
118.7393628475
 20
605.7423209622
 11
118.7393628475
 21
605.3923209622
  0
LINE
  5
2B4
100
AcDbEntity
  8
7_ALL_FEATURES
100
AcDbLine
 62
9
  6
CONTINUOUS
 10
118.7996702267
 20
605.332013583
 11
118.7996702267
 21
605.682013583
  0
LINE
  5
2B5
100
AcDbEntity
  8
7_ALL_FEATURES
100
AcDbLine
 62
9
  6
CONTINUOUS
 10
119.1547264335
 20
605.3269573763
 11
119.1547264335
 21
604.9769573763
  0
LINE
  5
2B6
100
AcDbEntity
  8
6_ALL_SURFS
100
AcDbLine
 62
7
  6
CONTINUOUS
 10
119.1728186472
 20
604.9588651625
 11
119.1728186472
 21
605.3088651625
  0
LINE
  5
2B7
100
AcDbEntity
  8
7_ALL_FEATURES
100
AcDbLine
 62
9
  6
CONTINUOUS
 10
121.5656516921
 20
602.5660321177
 11
121.5656516921
 21
602.9160321177
  0
LINE
  5
2B8
100
AcDbEntity
  8
7_ALL_FEATURES
100
AcDbLine
 62
9
  6
CONTINUOUS
 10
122.5419476992
 20
601.5897361106
 11
122.5419476992
 21
601.9397361106
  0
LINE
  5
2B9
100
AcDbEntity
  8
6_ALL_SURFS
100
AcDbLine
 62
7
  6
CONTINUOUS
 10
94.0893673471
 20
42.8923209622
 11
115.8308357509
 21
42.8923209622
  0
LINE
  5
2BA
100
AcDbEntity
  8
7_ALL_FEATURES
100
AcDbLine
 62
7
  6
CONTINUOUS
 10
115.7893628475
 20
42.8923209622
 11
158.1893628475
 21
42.8923209622
  0
LINE
  5
2BB
100
AcDbEntity
  8
3_ALL_AXES
100
AcDbLine
 62
7
  6
CONTINUOUS
 10
158.1893628475
 20
42.8923209622
 11
173.6893628475
 21
42.8923209622
  0
LINE
  5
2BC
100
AcDbEntity
  8
7_ALL_FEATURES
100
AcDbLine
 62
7
  6
CONTINUOUS
 10
173.6893628475
 20
42.8923209622
 11
176.1893583479
 21
42.8923209622
  0
LINE
  5
2BD
100
AcDbEntity
  8
7_ALL_FEATURES
100
AcDbLine
 62
9
  6
CONTINUOUS
 10
133.1393628475
 20
591.3423209622
 11
133.1393628475
 21
590.9923209622
  0
LINE
  5
2BE
100
AcDbEntity
  8
7_ALL_FEATURES
100
AcDbLine
 62
7
  6
CONTINUOUS
 10
133.4393628475
 20
591.0423209622
 11
133.4393628475
 21
590.6923209622
  0
LINE
  5
2BF
100
AcDbEntity
  8
7_ALL_FEATURES
100
AcDbLine
 62
9
  6
CONTINUOUS
 10
133.7393628475
 20
590.3923209622
 11
133.7393628475
 21
590.7423209622
  0
LINE
  5
2C0
100
AcDbEntity
  8
7_ALL_FEATURES
100
AcDbLine
 62
9
  6
CONTINUOUS
 10
136.5393628475
 20
587.5923209622
 11
136.5393628475
 21
587.9423209622
  0
LINE
  5
2C1
100
AcDbEntity
  8
7_ALL_FEATURES
100
AcDbLine
 62
7
  6
CONTINUOUS
 10
136.8393628475
 20
587.6423209622
 11
136.8393628475
 21
587.2923209622
  0
LINE
  5
2C2
100
AcDbEntity
  8
7_ALL_FEATURES
100
AcDbLine
 62
9
  6
CONTINUOUS
 10
137.1393628475
 20
587.3423209622
 11
137.1393628475
 21
586.9923209622
  0
LINE
  5
2C3
100
AcDbEntity
  8
7_ALL_FEATURES
100
AcDbLine
 62
9
  6
CONTINUOUS
 10
147.7367779959
 20
576.3949058139
 11
147.7367779959
 21
576.7449058139
  0
LINE
  5
2C4
100
AcDbEntity
  8
7_ALL_FEATURES
100
AcDbLine
 62
9
  6
CONTINUOUS
 10
148.713074003
 20
575.4186098068
 11
148.713074003
 21
575.7686098068
  0
LINE
  5
2C5
100
AcDbEntity
  8
7_ALL_FEATURES
100
AcDbLine
 62
7
  6
CONTINUOUS
 10
151.1059070478
 20
573.3757767619
 11
151.1059070478
 21
573.0257767619
  0
LINE
  5
2C6
100
AcDbEntity
  8
7_ALL_FEATURES
100
AcDbLine
 62
9
  6
CONTINUOUS
 10
151.1239992616
 20
573.3576845482
 11
151.1239992616
 21
573.0076845482
  0
LINE
  5
2C7
100
AcDbEntity
  8
7_ALL_FEATURES
100
AcDbLine
 62
9
  6
CONTINUOUS
 10
151.4790554683
 20
572.6526283414
 11
151.4790554683
 21
573.0026283414
  0
LINE
  5
2C8
100
AcDbEntity
  8
7_ALL_FEATURES
100
AcDbLine
 62
7
  6
CONTINUOUS
 10
151.5393628475
 20
572.9423209622
 11
151.5393628475
 21
572.5923209622
  0
LINE
  5
2C9
100
AcDbEntity
  8
7_ALL_FEATURES
100
AcDbLine
 62
9
  6
CONTINUOUS
 10
151.8393628475
 20
572.6423209622
 11
151.8393628475
 21
572.2923209622
  0
LINE
  5
2CA
100
AcDbEntity
  8
7_ALL_FEATURES
100
AcDbLine
 62
9
  6
CONTINUOUS
 10
152.658919135
 20
571.4727646747
 11
152.658919135
 21
571.8227646747
  0
LINE
  5
2CB
100
AcDbEntity
  8
7_ALL_FEATURES
100
AcDbLine
 62
9
  6
CONTINUOUS
 10
152.8783252455
 20
571.2533585642
 11
152.8783252455
 21
571.6033585642
  0
LINE
  5
2CC
100
AcDbEntity
  8
7_ALL_FEATURES
100
AcDbLine
 62
7
  6
CONTINUOUS
 10
153.4393628475
 20
571.0423209622
 11
153.4393628475
 21
570.6923209622
  0
LINE
  5
2CD
100
AcDbEntity
  8
7_ALL_FEATURES
100
AcDbLine
 62
9
  6
CONTINUOUS
 10
153.7393628475
 20
570.7423209622
 11
153.7393628475
 21
570.3923209622
  0
LINE
  5
2CE
100
AcDbEntity
  8
7_ALL_FEATURES
100
AcDbLine
 62
9
  6
CONTINUOUS
 10
154.2893628475
 20
42.8923209622
 11
154.2893628475
 21
569.8423209622
  0
LINE
  5
2CF
100
AcDbEntity
  8
7_ALL_FEATURES
100
AcDbLine
 62
9
  6
CONTINUOUS
 10
154.3893628475
 20
569.7423209622
 11
154.3893628475
 21
570.0923209622
  0
LINE
  5
2D0
100
AcDbEntity
  8
7_ALL_FEATURES
100
AcDbLine
 62
7
  6
CONTINUOUS
 10
154.4893628475
 20
42.8923209622
 11
154.4893628475
 21
569.6423209622
  0
LINE
  5
2D1
100
AcDbEntity
  8
7_ALL_FEATURES
100
AcDbLine
 62
7
  6
CONTINUOUS
 10
154.6893628475
 20
569.7923209622
 11
154.6893628475
 21
42.8923209622
  0
LINE
  5
2D2
100
AcDbEntity
  8
7_ALL_FEATURES
100
AcDbLine
 62
9
  6
CONTINUOUS
 10
154.9893628475
 20
569.4923209622
 11
154.9893628475
 21
42.8923209622
  0
LINE
  5
2D3
100
AcDbEntity
  8
7_ALL_FEATURES
100
AcDbLine
 62
9
  6
CONTINUOUS
 10
155.6393628475
 20
568.8423209622
 11
155.6393628475
 21
42.8923209622
  0
LINE
  5
2D4
100
AcDbEntity
  8
7_ALL_FEATURES
100
AcDbLine
 62
7
  6
CONTINUOUS
 10
155.9393628475
 20
568.5423209622
 11
155.9393628475
 21
42.8923209622
  0
LINE
  5
2D5
100
AcDbEntity
  8
7_ALL_FEATURES
100
AcDbLine
 62
9
  6
CONTINUOUS
 10
156.2393628475
 20
42.8923209622
 11
156.2393628475
 21
568.2423209622
  0
LINE
  5
2D6
100
AcDbEntity
  8
7_ALL_FEATURES
100
AcDbLine
 62
7
  6
CONTINUOUS
 10
158.1893628475
 20
42.8923209622
 11
158.1893628475
 21
566.2923209622
  0
LINE
  5
2D7
100
AcDbEntity
  8
7_ALL_FEATURES
100
AcDbLine
 62
7
  6
CONTINUOUS
 10
158.7893628475
 20
42.8923209622
 11
158.7893628475
 21
565.6923209622
  0
LINE
  5
2D8
100
AcDbEntity
  8
7_ALL_FEATURES
100
AcDbLine
 62
7
  6
CONTINUOUS
 10
161.1893628475
 20
42.8923209622
 11
161.1893628475
 21
563.2923209622
  0
LINE
  5
2D9
100
AcDbEntity
  8
7_ALL_FEATURES
100
AcDbLine
 62
7
  6
CONTINUOUS
 10
161.7893628475
 20
42.8923209622
 11
161.7893628475
 21
562.6923209622
  0
LINE
  5
2DA
100
AcDbEntity
  8
7_ALL_FEATURES
100
AcDbLine
 62
7
  6
CONTINUOUS
 10
164.1893628475
 20
42.8923209622
 11
164.1893628475
 21
560.2923209622
  0
LINE
  5
2DB
100
AcDbEntity
  8
7_ALL_FEATURES
100
AcDbLine
 62
7
  6
CONTINUOUS
 10
164.7893628475
 20
42.8923209622
 11
164.7893628475
 21
559.6923209622
  0
LINE
  5
2DC
100
AcDbEntity
  8
7_ALL_FEATURES
100
AcDbLine
 62
7
  6
CONTINUOUS
 10
167.1893628475
 20
42.8923209622
 11
167.1893628475
 21
81.1465544533
  0
LINE
  5
2DD
100
AcDbEntity
  8
7_ALL_FEATURES
100
AcDbLine
 62
7
  6
CONTINUOUS
 10
167.1893628475
 20
88.6380874712
 11
167.1893628475
 21
281.1465544533
  0
LINE
  5
2DE
100
AcDbEntity
  8
7_ALL_FEATURES
100
AcDbLine
 62
7
  6
CONTINUOUS
 10
167.1893628475
 20
288.6380874712
 11
167.1893628475
 21
481.1465544533
  0
LINE
  5
2DF
100
AcDbEntity
  8
7_ALL_FEATURES
100
AcDbLine
 62
7
  6
CONTINUOUS
 10
167.1893628475
 20
488.6380874712
 11
167.1893628475
 21
557.2923209622
  0
LINE
  5
2E0
100
AcDbEntity
  8
7_ALL_FEATURES
100
AcDbLine
 62
7
  6
CONTINUOUS
 10
167.7893628475
 20
42.8923209622
 11
167.7893628475
 21
80.7365097611
  0
LINE
  5
2E1
100
AcDbEntity
  8
7_ALL_FEATURES
100
AcDbLine
 62
7
  6
CONTINUOUS
 10
167.7893628475
 20
89.0481321634
 11
167.7893628475
 21
280.7365097611
  0
LINE
  5
2E2
100
AcDbEntity
  8
7_ALL_FEATURES
100
AcDbLine
 62
7
  6
CONTINUOUS
 10
167.7893628475
 20
289.0481321634
 11
167.7893628475
 21
480.7365097611
  0
LINE
  5
2E3
100
AcDbEntity
  8
7_ALL_FEATURES
100
AcDbLine
 62
7
  6
CONTINUOUS
 10
167.7893628475
 20
489.0481321634
 11
167.7893628475
 21
556.6923209622
  0
LINE
  5
2E4
100
AcDbEntity
  8
7_ALL_FEATURES
100
AcDbLine
 62
7
  6
CONTINUOUS
 10
170.1893628475
 20
42.8923209622
 11
170.1893628475
 21
80.0932828565
  0
LINE
  5
2E5
100
AcDbEntity
  8
7_ALL_FEATURES
100
AcDbLine
 62
7
  6
CONTINUOUS
 10
170.1893628475
 20
89.6913590679
 11
170.1893628475
 21
280.0932828565
  0
LINE
  5
2E6
100
AcDbEntity
  8
7_ALL_FEATURES
100
AcDbLine
 62
7
  6
CONTINUOUS
 10
170.1893628475
 20
289.6913590679
 11
170.1893628475
 21
480.0932828565
  0
LINE
  5
2E7
100
AcDbEntity
  8
7_ALL_FEATURES
100
AcDbLine
 62
7
  6
CONTINUOUS
 10
170.1893628475
 20
489.6913590679
 11
170.1893628475
 21
554.2923209622
  0
LINE
  5
2E8
100
AcDbEntity
  8
7_ALL_FEATURES
100
AcDbLine
 62
7
  6
CONTINUOUS
 10
170.7893628475
 20
42.8923209622
 11
170.7893628475
 21
80.1309381022
  0
LINE
  5
2E9
100
AcDbEntity
  8
7_ALL_FEATURES
100
AcDbLine
 62
7
  6
CONTINUOUS
 10
170.7893628475
 20
89.6537038222
 11
170.7893628475
 21
280.1309381022
  0
LINE
  5
2EA
100
AcDbEntity
  8
7_ALL_FEATURES
100
AcDbLine
 62
7
  6
CONTINUOUS
 10
170.7893628475
 20
289.6537038222
 11
170.7893628475
 21
480.1309381022
  0
LINE
  5
2EB
100
AcDbEntity
  8
7_ALL_FEATURES
100
AcDbLine
 62
7
  6
CONTINUOUS
 10
170.7893628475
 20
489.6537038222
 11
170.7893628475
 21
553.6923209622
  0
LINE
  5
2EC
100
AcDbEntity
  8
7_ALL_FEATURES
100
AcDbLine
 62
7
  6
CONTINUOUS
 10
173.6893628475
 20
42.8923209622
 11
173.6893628475
 21
81.6089131685
  0
LINE
  5
2ED
100
AcDbEntity
  8
7_ALL_FEATURES
100
AcDbLine
 62
7
  6
CONTINUOUS
 10
173.6893628475
 20
88.1757287559
 11
173.6893628475
 21
281.6089131685
  0
LINE
  5
2EE
100
AcDbEntity
  8
7_ALL_FEATURES
100
AcDbLine
 62
7
  6
CONTINUOUS
 10
173.6893628475
 20
288.1757287559
 11
173.6893628475
 21
481.6089131685
  0
LINE
  5
2EF
100
AcDbEntity
  8
7_ALL_FEATURES
100
AcDbLine
 62
7
  6
CONTINUOUS
 10
173.6893628475
 20
488.1757287559
 11
173.6893628475
 21
550.7923209622
  0
LINE
  5
2F0
100
AcDbEntity
  8
7_ALL_FEATURES
100
AcDbLine
 62
9
  6
CONTINUOUS
 10
175.8348344379
 20
548.6468493718
 11
175.8348344379
 21
42.8923209622
  0
LINE
  5
2F1
100
AcDbEntity
  8
7_ALL_FEATURES
100
AcDbLine
 62
7
  6
CONTINUOUS
 10
176.1893628475
 20
548.2923209622
 11
176.1893628475
 21
42.8923209622
  0
LINE
  5
2F2
100
AcDbEntity
  8
7_ALL_FEATURES
100
AcDbLine
 62
7
  6
CONTINUOUS
 10
115.7893628475
 20
608.3423209622
 11
154.4893628475
 21
569.6423209622
  0
LINE
  5
2F3
100
AcDbEntity
  8
7_ALL_FEATURES
100
AcDbLine
 62
7
  6
CONTINUOUS
 10
176.1893909441
 20
548.2922928657
 11
133.4424936913
 21
591.0391901185
  0
LINE
  5
2F4
100
AcDbEntity
  8
7_ALL_FEATURES
100
AcDbLine
 62
7
  6
CONTINUOUS
 10
133.4393628475
 20
591.0423209622
 11
115.5924936913
 21
608.8891901185
  0
LINE
  5
2F5
100
AcDbEntity
  8
7_ALL_FEATURES
100
AcDbLine
 62
7
  6
CONTINUOUS
 10
115.5893628475
 20
608.8923209622
 11
114.3393628475
 21
610.1423209622
  0
LINE
  5
2F6
100
AcDbEntity
  8
7_ALL_FEATURES
100
AcDbLine
 62
7
  6
CONTINUOUS
 10
114.3362320038
 20
610.145451806
 11
94.0893348117
 21
630.3923489981
  0
LINE
  5
2F7
100
AcDbEntity
  8
7_ALL_FEATURES
100
AcDbLine
 62
7
  6
CONTINUOUS
 10
116.1393628475
 20
608.6923209622
 11
154.8393628475
 21
569.9923209622
  0
LINE
  5
2F8
100
AcDbEntity
  8
7_ALL_FEATURES
100
AcDbLine
 62
7
  6
CONTINUOUS
 10
714.0893628475
 20
548.2923209622
 11
176.1893628475
 21
548.2923209622
  0
LINE
  5
2F9
100
AcDbEntity
  8
7_ALL_FEATURES
100
AcDbLine
 62
9
  6
CONTINUOUS
 10
714.0893628475
 20
548.6468493718
 11
175.8348344379
 21
548.6468493718
  0
LINE
  5
2FA
100
AcDbEntity
  8
7_ALL_FEATURES
100
AcDbLine
 62
7
  6
CONTINUOUS
 10
173.6893628475
 20
550.7923209622
 11
217.8059550538
 21
550.7923209622
  0
LINE
  5
2FB
100
AcDbEntity
  8
7_ALL_FEATURES
100
AcDbLine
 62
7
  6
CONTINUOUS
 10
224.3727706412
 20
550.7923209622
 11
417.8059550538
 21
550.7923209622
  0
LINE
  5
2FC
100
AcDbEntity
  8
7_ALL_FEATURES
100
AcDbLine
 62
7
  6
CONTINUOUS
 10
424.3727706412
 20
550.7923209622
 11
617.8059550538
 21
550.7923209622
  0
LINE
  5
2FD
100
AcDbEntity
  8
7_ALL_FEATURES
100
AcDbLine
 62
7
  6
CONTINUOUS
 10
624.3727706412
 20
550.7923209622
 11
714.0893628475
 21
550.7923209622
  0
LINE
  5
2FE
100
AcDbEntity
  8
7_ALL_FEATURES
100
AcDbLine
 62
7
  6
CONTINUOUS
 10
170.7893628475
 20
553.6923209622
 11
216.3279799875
 21
553.6923209622
  0
LINE
  5
2FF
100
AcDbEntity
  8
7_ALL_FEATURES
100
AcDbLine
 62
7
  6
CONTINUOUS
 10
225.8507457076
 20
553.6923209622
 11
416.3279799875
 21
553.6923209622
  0
LINE
  5
300
100
AcDbEntity
  8
7_ALL_FEATURES
100
AcDbLine
 62
7
  6
CONTINUOUS
 10
425.8507457076
 20
553.6923209622
 11
616.3279799875
 21
553.6923209622
  0
LINE
  5
301
100
AcDbEntity
  8
7_ALL_FEATURES
100
AcDbLine
 62
7
  6
CONTINUOUS
 10
625.8507457076
 20
553.6923209622
 11
714.0893628475
 21
553.6923209622
  0
LINE
  5
302
100
AcDbEntity
  8
7_ALL_FEATURES
100
AcDbLine
 62
7
  6
CONTINUOUS
 10
170.1893628475
 20
554.2923209622
 11
216.2903247418
 21
554.2923209622
  0
LINE
  5
303
100
AcDbEntity
  8
7_ALL_FEATURES
100
AcDbLine
 62
7
  6
CONTINUOUS
 10
225.8884009532
 20
554.2923209622
 11
416.2903247418
 21
554.2923209622
  0
LINE
  5
304
100
AcDbEntity
  8
7_ALL_FEATURES
100
AcDbLine
 62
7
  6
CONTINUOUS
 10
425.8884009532
 20
554.2923209622
 11
616.2903247418
 21
554.2923209622
  0
LINE
  5
305
100
AcDbEntity
  8
7_ALL_FEATURES
100
AcDbLine
 62
7
  6
CONTINUOUS
 10
625.8884009532
 20
554.2923209622
 11
714.0893628475
 21
554.2923209622
  0
LINE
  5
306
100
AcDbEntity
  8
7_ALL_FEATURES
100
AcDbLine
 62
7
  6
CONTINUOUS
 10
167.7893628475
 20
556.6923209622
 11
216.9335516464
 21
556.6923209622
  0
LINE
  5
307
100
AcDbEntity
  8
7_ALL_FEATURES
100
AcDbLine
 62
7
  6
CONTINUOUS
 10
225.2451740487
 20
556.6923209622
 11
416.9335516464
 21
556.6923209622
  0
LINE
  5
308
100
AcDbEntity
  8
7_ALL_FEATURES
100
AcDbLine
 62
7
  6
CONTINUOUS
 10
425.2451740487
 20
556.6923209622
 11
616.9335516464
 21
556.6923209622
  0
LINE
  5
309
100
AcDbEntity
  8
7_ALL_FEATURES
100
AcDbLine
 62
7
  6
CONTINUOUS
 10
625.2451740487
 20
556.6923209622
 11
714.0893628475
 21
556.6923209622
  0
LINE
  5
30A
100
AcDbEntity
  8
7_ALL_FEATURES
100
AcDbLine
 62
7
  6
CONTINUOUS
 10
167.1893628475
 20
557.2923209622
 11
217.3435963386
 21
557.2923209622
  0
LINE
  5
30B
100
AcDbEntity
  8
7_ALL_FEATURES
100
AcDbLine
 62
7
  6
CONTINUOUS
 10
224.8351293565
 20
557.2923209622
 11
417.3435963386
 21
557.2923209622
  0
LINE
  5
30C
100
AcDbEntity
  8
7_ALL_FEATURES
100
AcDbLine
 62
7
  6
CONTINUOUS
 10
424.8351293565
 20
557.2923209622
 11
617.3435963386
 21
557.2923209622
  0
LINE
  5
30D
100
AcDbEntity
  8
7_ALL_FEATURES
100
AcDbLine
 62
7
  6
CONTINUOUS
 10
624.8351293565
 20
557.2923209622
 11
714.0893628475
 21
557.2923209622
  0
LINE
  5
30E
100
AcDbEntity
  8
7_ALL_FEATURES
100
AcDbLine
 62
7
  6
CONTINUOUS
 10
164.7893628475
 20
559.6923209622
 11
714.0893628475
 21
559.6923209622
  0
LINE
  5
30F
100
AcDbEntity
  8
7_ALL_FEATURES
100
AcDbLine
 62
7
  6
CONTINUOUS
 10
164.1893628475
 20
560.2923209622
 11
714.0893628475
 21
560.2923209622
  0
LINE
  5
310
100
AcDbEntity
  8
7_ALL_FEATURES
100
AcDbLine
 62
7
  6
CONTINUOUS
 10
161.7893628475
 20
562.6923209622
 11
714.0893628475
 21
562.6923209622
  0
LINE
  5
311
100
AcDbEntity
  8
7_ALL_FEATURES
100
AcDbLine
 62
7
  6
CONTINUOUS
 10
161.1893628475
 20
563.2923209622
 11
714.0893628475
 21
563.2923209622
  0
LINE
  5
312
100
AcDbEntity
  8
7_ALL_FEATURES
100
AcDbLine
 62
7
  6
CONTINUOUS
 10
158.7893628475
 20
565.6923209622
 11
714.0893628475
 21
565.6923209622
  0
LINE
  5
313
100
AcDbEntity
  8
7_ALL_FEATURES
100
AcDbLine
 62
7
  6
CONTINUOUS
 10
158.1893628475
 20
566.2923209622
 11
714.0893628475
 21
566.2923209622
  0
LINE
  5
314
100
AcDbEntity
  8
7_ALL_FEATURES
100
AcDbLine
 62
9
  6
CONTINUOUS
 10
156.2393628475
 20
568.2423209622
 11
714.0893628475
 21
568.2423209622
  0
LINE
  5
315
100
AcDbEntity
  8
7_ALL_FEATURES
100
AcDbLine
 62
7
  6
CONTINUOUS
 10
714.0893628475
 20
568.5423209622
 11
155.9393628475
 21
568.5423209622
  0
LINE
  5
316
100
AcDbEntity
  8
7_ALL_FEATURES
100
AcDbLine
 62
9
  6
CONTINUOUS
 10
714.0893628475
 20
568.8423209622
 11
155.6393628475
 21
568.8423209622
  0
LINE
  5
317
100
AcDbEntity
  8
7_ALL_FEATURES
100
AcDbLine
 62
9
  6
CONTINUOUS
 10
714.0893628475
 20
569.4923209622
 11
154.9893628475
 21
569.4923209622
  0
LINE
  5
318
100
AcDbEntity
  8
7_ALL_FEATURES
100
AcDbLine
 62
7
  6
CONTINUOUS
 10
714.0893628475
 20
569.7923209622
 11
154.6893628475
 21
569.7923209622
  0
LINE
  5
319
100
AcDbEntity
  8
7_ALL_FEATURES
100
AcDbLine
 62
7
  6
CONTINUOUS
 10
154.8393628475
 20
569.9923209622
 11
714.0893628475
 21
569.9923209622
  0
LINE
  5
31A
100
AcDbEntity
  8
7_ALL_FEATURES
100
AcDbLine
 62
9
  6
CONTINUOUS
 10
154.3893628475
 20
570.0923209622
 11
154.7393628475
 21
570.0923209622
  0
LINE
  5
31B
100
AcDbEntity
  8
7_ALL_FEATURES
100
AcDbLine
 62
9
  6
CONTINUOUS
 10
154.6393628475
 20
570.1923209622
 11
714.0893628475
 21
570.1923209622
  0
LINE
  5
31C
100
AcDbEntity
  8
7_ALL_FEATURES
100
AcDbLine
 62
9
  6
CONTINUOUS
 10
154.0893628475
 20
570.7423209622
 11
153.7393628475
 21
570.7423209622
  0
LINE
  5
31D
100
AcDbEntity
  8
7_ALL_FEATURES
100
AcDbLine
 62
7
  6
CONTINUOUS
 10
153.7893628475
 20
571.0423209622
 11
153.4393628475
 21
571.0423209622
  0
LINE
  5
31E
100
AcDbEntity
  8
7_ALL_FEATURES
100
AcDbLine
 62
9
  6
CONTINUOUS
 10
152.8783252455
 20
571.6033585642
 11
153.2283252455
 21
571.6033585642
  0
LINE
  5
31F
100
AcDbEntity
  8
7_ALL_FEATURES
100
AcDbLine
 62
9
  6
CONTINUOUS
 10
152.658919135
 20
571.8227646747
 11
153.008919135
 21
571.8227646747
  0
LINE
  5
320
100
AcDbEntity
  8
7_ALL_FEATURES
100
AcDbLine
 62
9
  6
CONTINUOUS
 10
152.1893628475
 20
572.6423209622
 11
151.8393628475
 21
572.6423209622
  0
LINE
  5
321
100
AcDbEntity
  8
7_ALL_FEATURES
100
AcDbLine
 62
7
  6
CONTINUOUS
 10
151.8893628475
 20
572.9423209622
 11
151.5393628475
 21
572.9423209622
  0
LINE
  5
322
100
AcDbEntity
  8
7_ALL_FEATURES
100
AcDbLine
 62
9
  6
CONTINUOUS
 10
151.4790554683
 20
573.0026283414
 11
151.8290554683
 21
573.0026283414
  0
LINE
  5
323
100
AcDbEntity
  8
7_ALL_FEATURES
100
AcDbLine
 62
9
  6
CONTINUOUS
 10
151.4739992616
 20
573.3576845482
 11
151.1239992616
 21
573.3576845482
  0
LINE
  5
324
100
AcDbEntity
  8
7_ALL_FEATURES
100
AcDbLine
 62
7
  6
CONTINUOUS
 10
151.4559070478
 20
573.3757767619
 11
151.1059070478
 21
573.3757767619
  0
LINE
  5
325
100
AcDbEntity
  8
7_ALL_FEATURES
100
AcDbLine
 62
9
  6
CONTINUOUS
 10
148.713074003
 20
575.7686098068
 11
149.063074003
 21
575.7686098068
  0
LINE
  5
326
100
AcDbEntity
  8
7_ALL_FEATURES
100
AcDbLine
 62
9
  6
CONTINUOUS
 10
147.7367779959
 20
576.7449058139
 11
148.0867779959
 21
576.7449058139
  0
LINE
  5
327
100
AcDbEntity
  8
7_ALL_FEATURES
100
AcDbLine
 62
9
  6
CONTINUOUS
 10
137.4893628475
 20
587.3423209622
 11
137.1393628475
 21
587.3423209622
  0
LINE
  5
328
100
AcDbEntity
  8
7_ALL_FEATURES
100
AcDbLine
 62
7
  6
CONTINUOUS
 10
137.1893628475
 20
587.6423209622
 11
136.8393628475
 21
587.6423209622
  0
LINE
  5
329
100
AcDbEntity
  8
7_ALL_FEATURES
100
AcDbLine
 62
9
  6
CONTINUOUS
 10
136.5393628475
 20
587.9423209622
 11
136.8893628475
 21
587.9423209622
  0
LINE
  5
32A
100
AcDbEntity
  8
7_ALL_FEATURES
100
AcDbLine
 62
9
  6
CONTINUOUS
 10
133.7393628475
 20
590.7423209622
 11
134.0893628475
 21
590.7423209622
  0
LINE
  5
32B
100
AcDbEntity
  8
7_ALL_FEATURES
100
AcDbLine
 62
7
  6
CONTINUOUS
 10
133.7893628475
 20
591.0423209622
 11
133.4393628475
 21
591.0423209622
  0
LINE
  5
32C
100
AcDbEntity
  8
7_ALL_FEATURES
100
AcDbLine
 62
9
  6
CONTINUOUS
 10
133.4893628475
 20
591.3423209622
 11
133.1393628475
 21
591.3423209622
  0
LINE
  5
32D
100
AcDbEntity
  8
7_ALL_FEATURES
100
AcDbLine
 62
9
  6
CONTINUOUS
 10
122.5419476992
 20
601.9397361106
 11
122.8919476992
 21
601.9397361106
  0
LINE
  5
32E
100
AcDbEntity
  8
7_ALL_FEATURES
100
AcDbLine
 62
9
  6
CONTINUOUS
 10
121.5656516921
 20
602.9160321177
 11
121.9156516921
 21
602.9160321177
  0
LINE
  5
32F
100
AcDbEntity
  8
6_ALL_SURFS
100
AcDbLine
 62
7
  6
CONTINUOUS
 10
119.1728186472
 20
605.3088651625
 11
119.5228186472
 21
605.3088651625
  0
LINE
  5
330
100
AcDbEntity
  8
7_ALL_FEATURES
100
AcDbLine
 62
9
  6
CONTINUOUS
 10
119.5047264335
 20
605.3269573763
 11
119.1547264335
 21
605.3269573763
  0
LINE
  5
331
100
AcDbEntity
  8
7_ALL_FEATURES
100
AcDbLine
 62
9
  6
CONTINUOUS
 10
118.7996702267
 20
605.682013583
 11
119.1496702267
 21
605.682013583
  0
LINE
  5
332
100
AcDbEntity
  8
7_ALL_FEATURES
100
AcDbLine
 62
7
  6
CONTINUOUS
 10
119.0893628475
 20
605.7423209622
 11
118.7393628475
 21
605.7423209622
  0
LINE
  5
333
100
AcDbEntity
  8
7_ALL_FEATURES
100
AcDbLine
 62
9
  6
CONTINUOUS
 10
118.7893628475
 20
606.0423209622
 11
118.4393628475
 21
606.0423209622
  0
LINE
  5
334
100
AcDbEntity
  8
7_ALL_FEATURES
100
AcDbLine
 62
9
  6
CONTINUOUS
 10
117.61980656
 20
606.8618772497
 11
117.96980656
 21
606.8618772497
  0
LINE
  5
335
100
AcDbEntity
  8
7_ALL_FEATURES
100
AcDbLine
 62
9
  6
CONTINUOUS
 10
117.4004004495
 20
607.0812833602
 11
117.7504004495
 21
607.0812833602
  0
LINE
  5
336
100
AcDbEntity
  8
7_ALL_FEATURES
100
AcDbLine
 62
7
  6
CONTINUOUS
 10
117.1893628475
 20
607.6423209622
 11
116.8393628475
 21
607.6423209622
  0
LINE
  5
337
100
AcDbEntity
  8
7_ALL_FEATURES
100
AcDbLine
 62
9
  6
CONTINUOUS
 10
116.8893628475
 20
607.9423209622
 11
116.5393628475
 21
607.9423209622
  0
LINE
  5
338
100
AcDbEntity
  8
7_ALL_FEATURES
100
AcDbLine
 62
9
  6
CONTINUOUS
 10
116.3393628475
 20
608.4923209622
 11
714.0893628475
 21
608.4923209622
  0
LINE
  5
339
100
AcDbEntity
  8
7_ALL_FEATURES
100
AcDbLine
 62
9
  6
CONTINUOUS
 10
115.8893628475
 20
608.5923209622
 11
116.2393628475
 21
608.5923209622
  0
LINE
  5
33A
100
AcDbEntity
  8
7_ALL_FEATURES
100
AcDbLine
 62
7
  6
CONTINUOUS
 10
116.1393628475
 20
608.6923209622
 11
714.0893628475
 21
608.6923209622
  0
LINE
  5
33B
100
AcDbEntity
  8
7_ALL_FEATURES
100
AcDbLine
 62
7
  6
CONTINUOUS
 10
714.0893628475
 20
608.8923209622
 11
115.5893628475
 21
608.8923209622
  0
LINE
  5
33C
100
AcDbEntity
  8
7_ALL_FEATURES
100
AcDbLine
 62
9
  6
CONTINUOUS
 10
714.0893628475
 20
609.1923209622
 11
115.2893628475
 21
609.1923209622
  0
LINE
  5
33D
100
AcDbEntity
  8
7_ALL_FEATURES
100
AcDbLine
 62
9
  6
CONTINUOUS
 10
714.0893628475
 20
609.8423209622
 11
114.6393628475
 21
609.8423209622
  0
LINE
  5
33E
100
AcDbEntity
  8
7_ALL_FEATURES
100
AcDbLine
 62
7
  6
CONTINUOUS
 10
714.0893628475
 20
610.1423209622
 11
114.3393628475
 21
610.1423209622
  0
LINE
  5
33F
100
AcDbEntity
  8
7_ALL_FEATURES
100
AcDbLine
 62
9
  6
CONTINUOUS
 10
114.0393628475
 20
610.4423209622
 11
714.0893628475
 21
610.4423209622
  0
LINE
  5
340
100
AcDbEntity
  8
7_ALL_FEATURES
100
AcDbLine
 62
7
  6
CONTINUOUS
 10
112.0893628475
 20
612.3923209622
 11
714.0893628475
 21
612.3923209622
  0
LINE
  5
341
100
AcDbEntity
  8
7_ALL_FEATURES
100
AcDbLine
 62
7
  6
CONTINUOUS
 10
111.4893628475
 20
612.9923209622
 11
714.0893628475
 21
612.9923209622
  0
LINE
  5
342
100
AcDbEntity
  8
7_ALL_FEATURES
100
AcDbLine
 62
7
  6
CONTINUOUS
 10
109.0893628475
 20
615.3923209622
 11
714.0893628475
 21
615.3923209622
  0
LINE
  5
343
100
AcDbEntity
  8
7_ALL_FEATURES
100
AcDbLine
 62
7
  6
CONTINUOUS
 10
108.4893628475
 20
615.9923209622
 11
714.0893628475
 21
615.9923209622
  0
LINE
  5
344
100
AcDbEntity
  8
7_ALL_FEATURES
100
AcDbLine
 62
7
  6
CONTINUOUS
 10
106.0893628475
 20
618.3923209622
 11
714.0893628475
 21
618.3923209622
  0
LINE
  5
345
100
AcDbEntity
  8
7_ALL_FEATURES
100
AcDbLine
 62
7
  6
CONTINUOUS
 10
105.4893628475
 20
618.9923209622
 11
714.0893628475
 21
618.9923209622
  0
LINE
  5
346
100
AcDbEntity
  8
7_ALL_FEATURES
100
AcDbLine
 62
7
  6
CONTINUOUS
 10
103.0893628475
 20
621.3923209622
 11
217.3435963386
 21
621.3923209622
  0
LINE
  5
347
100
AcDbEntity
  8
6_ALL_SURFS
100
AcDbLine
 62
7
  6
CONTINUOUS
 10
224.8351293565
 20
621.3923209622
 11
417.3435963386
 21
621.3923209622
  0
LINE
  5
348
100
AcDbEntity
  8
6_ALL_SURFS
100
AcDbLine
 62
7
  6
CONTINUOUS
 10
424.8351293565
 20
621.3923209622
 11
617.3435963386
 21
621.3923209622
  0
LINE
  5
349
100
AcDbEntity
  8
6_ALL_SURFS
100
AcDbLine
 62
7
  6
CONTINUOUS
 10
624.8351293565
 20
621.3923209622
 11
714.0893628475
 21
621.3923209622
  0
LINE
  5
34A
100
AcDbEntity
  8
7_ALL_FEATURES
100
AcDbLine
 62
7
  6
CONTINUOUS
 10
102.4893628475
 20
621.9923209622
 11
216.9335516464
 21
621.9923209622
  0
LINE
  5
34B
100
AcDbEntity
  8
6_ALL_SURFS
100
AcDbLine
 62
7
  6
CONTINUOUS
 10
225.2451740487
 20
621.9923209622
 11
416.9335516464
 21
621.9923209622
  0
LINE
  5
34C
100
AcDbEntity
  8
6_ALL_SURFS
100
AcDbLine
 62
7
  6
CONTINUOUS
 10
425.2451740487
 20
621.9923209622
 11
616.9335516464
 21
621.9923209622
  0
LINE
  5
34D
100
AcDbEntity
  8
6_ALL_SURFS
100
AcDbLine
 62
7
  6
CONTINUOUS
 10
625.2451740487
 20
621.9923209622
 11
714.0893628475
 21
621.9923209622
  0
LINE
  5
34E
100
AcDbEntity
  8
7_ALL_FEATURES
100
AcDbLine
 62
7
  6
CONTINUOUS
 10
100.0893628475
 20
624.3923209622
 11
216.2903247418
 21
624.3923209622
  0
LINE
  5
34F
100
AcDbEntity
  8
6_ALL_SURFS
100
AcDbLine
 62
7
  6
CONTINUOUS
 10
225.8884009532
 20
624.3923209622
 11
416.2903247419
 21
624.3923209622
  0
LINE
  5
350
100
AcDbEntity
  8
6_ALL_SURFS
100
AcDbLine
 62
7
  6
CONTINUOUS
 10
425.8884009532
 20
624.3923209622
 11
616.2903247418
 21
624.3923209622
  0
LINE
  5
351
100
AcDbEntity
  8
6_ALL_SURFS
100
AcDbLine
 62
7
  6
CONTINUOUS
 10
625.8884009532
 20
624.3923209622
 11
714.0893628475
 21
624.3923209622
  0
LINE
  5
352
100
AcDbEntity
  8
7_ALL_FEATURES
100
AcDbLine
 62
7
  6
CONTINUOUS
 10
99.4893628475
 20
624.9923209622
 11
216.3279799875
 21
624.9923209622
  0
LINE
  5
353
100
AcDbEntity
  8
6_ALL_SURFS
100
AcDbLine
 62
7
  6
CONTINUOUS
 10
225.8507457076
 20
624.9923209622
 11
416.3279799875
 21
624.9923209622
  0
LINE
  5
354
100
AcDbEntity
  8
6_ALL_SURFS
100
AcDbLine
 62
7
  6
CONTINUOUS
 10
425.8507457076
 20
624.9923209622
 11
616.3279799875
 21
624.9923209622
  0
LINE
  5
355
100
AcDbEntity
  8
6_ALL_SURFS
100
AcDbLine
 62
7
  6
CONTINUOUS
 10
625.8507457076
 20
624.9923209622
 11
714.0893628475
 21
624.9923209622
  0
LINE
  5
356
100
AcDbEntity
  8
7_ALL_FEATURES
100
AcDbLine
 62
7
  6
CONTINUOUS
 10
714.0893628475
 20
608.6923209622
 11
714.0893628475
 21
566.2923209622
  0
LINE
  5
357
100
AcDbEntity
  8
3_ALL_AXES
100
AcDbLine
 62
7
  6
CONTINUOUS
 10
714.0893628475
 20
566.2923209622
 11
714.0893628475
 21
550.7923209622
  0
LINE
  5
358
100
AcDbEntity
  8
7_ALL_FEATURES
100
AcDbLine
 62
7
  6
CONTINUOUS
 10
714.0893628475
 20
550.7923209622
 11
714.0893628475
 21
548.2923254618
  0
LINE
  5
359
100
AcDbEntity
  8
6_ALL_SURFS
100
AcDbLine
 62
7
  6
CONTINUOUS
 10
714.0893628475
 20
608.7071259919
 11
714.0893628475
 21
630.3923164626
  0
LINE
  5
35A
100
AcDbEntity
  8
7_ALL_FEATURES
100
AcDbLine
 62
7
  6
CONTINUOUS
 10
96.5893628475
 20
627.8923209622
 11
217.8059550538
 21
627.8923209622
  0
LINE
  5
35B
100
AcDbEntity
  8
6_ALL_SURFS
100
AcDbLine
 62
7
  6
CONTINUOUS
 10
224.3727706412
 20
627.8923209622
 11
417.8059550538
 21
627.8923209622
  0
LINE
  5
35C
100
AcDbEntity
  8
6_ALL_SURFS
100
AcDbLine
 62
7
  6
CONTINUOUS
 10
424.3727706412
 20
627.8923209622
 11
617.8059550538
 21
627.8923209622
  0
LINE
  5
35D
100
AcDbEntity
  8
6_ALL_SURFS
100
AcDbLine
 62
7
  6
CONTINUOUS
 10
624.3727706412
 20
627.8923209622
 11
714.0893628475
 21
627.8923209622
  0
LINE
  5
35E
100
AcDbEntity
  8
7_ALL_FEATURES
100
AcDbLine
 62
9
  6
CONTINUOUS
 10
714.0893628475
 20
630.0377925526
 11
94.4438912571
 21
630.0377925526
  0
LINE
  5
35F
100
AcDbEntity
  8
6_ALL_SURFS
100
AcDbLine
 62
7
  6
CONTINUOUS
 10
94.0893628475
 20
630.3923209622
 11
714.0893628475
 21
630.3923209622
  0
LINE
  5
360
100
AcDbEntity
  8
6_ALL_SURFS
100
AcDbLine
 62
7
  6
CONTINUOUS
 10
113.9393628475
 20
769.8797683109
 11
113.9393628475
 21
768.0797683109
  0
LINE
  5
361
100
AcDbEntity
  8
6_ALL_SURFS
100
AcDbLine
 62
7
  6
CONTINUOUS
 10
114.0893628475
 20
777.1797683109
 11
114.0893628475
 21
776.26726886
  0
LINE
  5
362
100
AcDbEntity
  8
6_ALL_SURFS
100
AcDbLine
 62
7
  6
CONTINUOUS
 10
114.3393628475
 20
779.6797683109
 11
114.3393628475
 21
778.7797683109
  0
LINE
  5
363
100
AcDbEntity
  8
6_ALL_SURFS
100
AcDbLine
 62
7
  6
CONTINUOUS
 10
115.5893628475
 20
776.3854420027
 11
115.5893628475
 21
777.1797683109
  0
LINE
  5
364
100
AcDbEntity
  8
6_ALL_SURFS
100
AcDbLine
 62
7
  6
CONTINUOUS
 10
115.5893628475
 20
779.2797683109
 11
115.5893628475
 21
779.6797683109
  0
LINE
  5
365
100
AcDbEntity
  8
7_ALL_FEATURES
100
AcDbLine
 62
7
  6
CONTINUOUS
 10
115.6393628475
 20
697.1797683109
 11
115.6393628475
 21
700.1797683109
  0
LINE
  5
366
100
AcDbEntity
  8
7_ALL_FEATURES
100
AcDbLine
 62
7
  6
CONTINUOUS
 10
115.7893628475
 20
779.1797683109
 11
115.7893628475
 21
779.7797683109
  0
LINE
  5
367
100
AcDbEntity
  8
6_ALL_SURFS
100
AcDbLine
 62
7
  6
CONTINUOUS
 10
116.8393628475
 20
777.8045667118
 11
116.8393628475
 21
778.6797683109
  0
LINE
  5
368
100
AcDbEntity
  8
6_ALL_SURFS
100
AcDbLine
 62
7
  6
CONTINUOUS
 10
116.9893628475
 20
772.3695786497
 11
116.9893628475
 21
772.1797683109
  0
LINE
  5
369
100
AcDbEntity
  8
7_ALL_FEATURES
100
AcDbLine
 62
7
  6
CONTINUOUS
 10
117.0393628475
 20
778.1597683109
 11
117.0393628475
 21
778.7797683109
  0
LINE
  5
36A
100
AcDbEntity
  8
6_ALL_SURFS
100
AcDbLine
 62
7
  6
CONTINUOUS
 10
117.1393628475
 20
765.7797683109
 11
117.1393628475
 21
721.0342543816
  0
LINE
  5
36B
100
AcDbEntity
  8
7_ALL_FEATURES
100
AcDbLine
 62
7
  6
CONTINUOUS
 10
117.8393628475
 20
778.6797683109
 11
117.8393628475
 21
778.1597683109
  0
LINE
  5
36C
100
AcDbEntity
  8
7_ALL_FEATURES
100
AcDbLine
 62
7
  6
CONTINUOUS
 10
118.1893628475
 20
778.6797683109
 11
118.1893628475
 21
778.1597683109
  0
LINE
  5
36D
100
AcDbEntity
  8
6_ALL_SURFS
100
AcDbLine
 62
7
  6
CONTINUOUS
 10
118.7393628475
 20
722.5119595123
 11
118.7393628475
 21
767.7095977187
  0
LINE
  5
36E
100
AcDbEntity
  8
6_ALL_SURFS
100
AcDbLine
 62
7
  6
CONTINUOUS
 10
118.7393628475
 20
770.2499389031
 11
118.7393628475
 21
773.9297683109
  0
LINE
  5
36F
100
AcDbEntity
  8
6_ALL_SURFS
100
AcDbLine
 62
7
  6
CONTINUOUS
 10
119.1393628475
 20
701.1797683109
 11
119.1393628475
 21
700.4797683109
  0
LINE
  5
370
100
AcDbEntity
  8
3_ALL_AXES
100
AcDbLine
 62
7
  6
CONTINUOUS
 10
123.1393628475
 20
707.8797683109
 11
123.1393628475
 21
707.5797683109
  0
LINE
  5
371
100
AcDbEntity
  8
3_ALL_AXES
100
AcDbLine
 62
7
  6
CONTINUOUS
 10
123.7893628475
 20
695.1797683109
 11
123.7893628475
 21
697.1797683109
  0
LINE
  5
372
100
AcDbEntity
  8
7_ALL_FEATURES
100
AcDbLine
 62
7
  6
CONTINUOUS
 10
125.6393628475
 20
705.0797683109
 11
125.6393628475
 21
704.6376180036
  0
LINE
  5
373
100
AcDbEntity
  8
7_ALL_FEATURES
100
AcDbLine
 62
7
  6
CONTINUOUS
 10
125.6393628475
 20
695.1797683109
 11
125.6393628475
 21
694.3797683109
  0
LINE
  5
374
100
AcDbEntity
  8
6_ALL_SURFS
100
AcDbLine
 62
7
  6
CONTINUOUS
 10
125.9393628475
 20
700.4797683109
 11
125.9393628475
 21
703.3797683109
  0
LINE
  5
375
100
AcDbEntity
  8
7_ALL_FEATURES
100
AcDbLine
 62
7
  6
CONTINUOUS
 10
127.6393628475
 20
708.1297683109
 11
127.6393628475
 21
707.1297683109
  0
LINE
  5
376
100
AcDbEntity
  8
7_ALL_FEATURES
100
AcDbLine
 62
7
  6
CONTINUOUS
 10
130.6393628475
 20
705.0797683109
 11
130.6393628475
 21
700.1797683109
  0
LINE
  5
377
100
AcDbEntity
  8
7_ALL_FEATURES
100
AcDbLine
 62
7
  6
CONTINUOUS
 10
130.6393628475
 20
695.1797683109
 11
130.6393628475
 21
694.3797683109
  0
LINE
  5
378
100
AcDbEntity
  8
7_ALL_FEATURES
100
AcDbLine
 62
7
  6
CONTINUOUS
 10
131.1393628475
 20
710.1579715412
 11
131.1393628475
 21
708.1297683109
  0
LINE
  5
379
100
AcDbEntity
  8
6_ALL_SURFS
100
AcDbLine
 62
7
  6
CONTINUOUS
 10
131.5393628475
 20
705.2297683109
 11
131.5393628475
 21
701.9797683109
  0
LINE
  5
37A
100
AcDbEntity
  8
3_ALL_AXES
100
AcDbLine
 62
7
  6
CONTINUOUS
 10
132.4893628475
 20
695.1797683109
 11
132.4893628475
 21
697.1797683109
  0
LINE
  5
37B
100
AcDbEntity
  8
7_ALL_FEATURES
100
AcDbLine
 62
7
  6
CONTINUOUS
 10
133.1393628475
 20
710.9595807278
 11
133.1393628475
 21
710.9757350033
  0
LINE
  5
37C
100
AcDbEntity
  8
6_ALL_SURFS
100
AcDbLine
 62
7
  6
CONTINUOUS
 10
133.4393628475
 20
702.0797683109
 11
133.4393628475
 21
706.8297683109
  0
LINE
  5
37D
100
AcDbEntity
  8
7_ALL_FEATURES
100
AcDbLine
 62
7
  6
CONTINUOUS
 10
134.6393628475
 20
710.9595807278
 11
134.6393628475
 21
711.1984570362
  0
LINE
  5
37E
100
AcDbEntity
  8
7_ALL_FEATURES
100
AcDbLine
 62
7
  6
CONTINUOUS
 10
135.6393628475
 20
711.1984570362
 11
135.6393628475
 21
710.9595807278
  0
LINE
  5
37F
100
AcDbEntity
  8
6_ALL_SURFS
100
AcDbLine
 62
7
  6
CONTINUOUS
 10
116.7910615818
 20
777.6389268421
 11
116.8042471254
 21
777.6637252429
  0
LINE
  5
380
100
AcDbEntity
  8
6_ALL_SURFS
100
AcDbLine
 62
7
  6
CONTINUOUS
 10
119.1547264335
 20
721.1944304584
 11
118.7996702267
 21
722.169939369
  0
LINE
  5
381
100
AcDbEntity
  8
6_ALL_SURFS
100
AcDbLine
 62
7
  6
CONTINUOUS
 10
117.2578828119
 20
719.9520563119
 11
120.2845171588
 21
706.2997910261
  0
LINE
  5
382
100
AcDbEntity
  8
6_ALL_SURFS
100
AcDbLine
 62
7
  6
CONTINUOUS
 10
121.5656516921
 20
707.913328697
 11
118.7861383027
 21
720.4509033784
  0
LINE
  5
383
100
AcDbEntity
  8
7_ALL_FEATURES
100
AcDbLine
 62
7
  6
CONTINUOUS
 10
136.8393628475
 20
702.0797683109
 11
136.8393628475
 21
706.8297683109
  0
LINE
  5
384
100
AcDbEntity
  8
7_ALL_FEATURES
100
AcDbLine
 62
7
  6
CONTINUOUS
 10
137.1393628475
 20
710.9757350033
 11
137.1393628475
 21
710.9595807278
  0
LINE
  5
385
100
AcDbEntity
  8
7_ALL_FEATURES
100
AcDbLine
 62
7
  6
CONTINUOUS
 10
138.7393628475
 20
705.2297683109
 11
138.7393628475
 21
701.9797683109
  0
LINE
  5
386
100
AcDbEntity
  8
7_ALL_FEATURES
100
AcDbLine
 62
7
  6
CONTINUOUS
 10
139.1393628475
 20
710.1579715412
 11
139.1393628475
 21
708.1297683109
  0
LINE
  5
387
100
AcDbEntity
  8
3_ALL_AXES
100
AcDbLine
 62
7
  6
CONTINUOUS
 10
139.2893628475
 20
695.1797683109
 11
139.2893628475
 21
697.1797683109
  0
LINE
  5
388
100
AcDbEntity
  8
7_ALL_FEATURES
100
AcDbLine
 62
7
  6
CONTINUOUS
 10
140.6393628475
 20
697.1797683109
 11
140.6393628475
 21
700.1797683109
  0
LINE
  5
389
100
AcDbEntity
  8
7_ALL_FEATURES
100
AcDbLine
 62
7
  6
CONTINUOUS
 10
141.4393628475
 20
695.1797683109
 11
141.4393628475
 21
694.3797683109
  0
LINE
  5
38A
100
AcDbEntity
  8
7_ALL_FEATURES
100
AcDbLine
 62
7
  6
CONTINUOUS
 10
142.6393628475
 20
707.1297683109
 11
142.6393628475
 21
708.1297683109
  0
LINE
  5
38B
100
AcDbEntity
  8
7_ALL_FEATURES
100
AcDbLine
 62
7
  6
CONTINUOUS
 10
144.3393628475
 20
700.4797683109
 11
144.3393628475
 21
703.3797683109
  0
LINE
  5
38C
100
AcDbEntity
  8
7_ALL_FEATURES
100
AcDbLine
 62
7
  6
CONTINUOUS
 10
146.4393628475
 20
695.1797683109
 11
146.4393628475
 21
694.3797683109
  0
LINE
  5
38D
100
AcDbEntity
  8
3_ALL_AXES
100
AcDbLine
 62
7
  6
CONTINUOUS
 10
147.9893628475
 20
695.1797683109
 11
147.9893628475
 21
697.1797683109
  0
LINE
  5
38E
100
AcDbEntity
  8
3_ALL_AXES
100
AcDbLine
 62
7
  6
CONTINUOUS
 10
151.0393628475
 20
735.1797683109
 11
151.0393628475
 21
725.1797683109
  0
LINE
  5
38F
100
AcDbEntity
  8
7_ALL_FEATURES
100
AcDbLine
 62
7
  6
CONTINUOUS
 10
151.1393628475
 20
701.1797683109
 11
151.1393628475
 21
700.4797683109
  0
LINE
  5
390
100
AcDbEntity
  8
3_ALL_AXES
100
AcDbLine
 62
7
  6
CONTINUOUS
 10
151.3393628475
 20
735.1797683109
 11
151.3393628475
 21
725.1797683109
  0
LINE
  5
391
100
AcDbEntity
  8
7_ALL_FEATURES
100
AcDbLine
 62
7
  6
CONTINUOUS
 10
151.5393628475
 20
722.5119595123
 11
151.5393628475
 21
767.7095977187
  0
LINE
  5
392
100
AcDbEntity
  8
7_ALL_FEATURES
100
AcDbLine
 62
7
  6
CONTINUOUS
 10
151.5393628475
 20
770.2499389031
 11
151.5393628475
 21
773.9297683109
  0
LINE
  5
393
100
AcDbEntity
  8
7_ALL_FEATURES
100
AcDbLine
 62
7
  6
CONTINUOUS
 10
152.4393628475
 20
778.1597683109
 11
152.4393628475
 21
778.6797683109
  0
LINE
  5
394
100
AcDbEntity
  8
7_ALL_FEATURES
100
AcDbLine
 62
7
  6
CONTINUOUS
 10
153.1393628475
 20
765.7797683109
 11
153.1393628475
 21
721.0342543816
  0
LINE
  5
395
100
AcDbEntity
  8
7_ALL_FEATURES
100
AcDbLine
 62
7
  6
CONTINUOUS
 10
153.2393628475
 20
778.7797683109
 11
153.2393628475
 21
778.1597683109
  0
LINE
  5
396
100
AcDbEntity
  8
7_ALL_FEATURES
100
AcDbLine
 62
7
  6
CONTINUOUS
 10
153.2893628475
 20
772.3695786497
 11
153.2893628475
 21
772.1797683109
  0
LINE
  5
397
100
AcDbEntity
  8
7_ALL_FEATURES
100
AcDbLine
 62
7
  6
CONTINUOUS
 10
153.4393628475
 20
777.8045667118
 11
153.4393628475
 21
778.6797683109
  0
LINE
  5
398
100
AcDbEntity
  8
7_ALL_FEATURES
100
AcDbLine
 62
7
  6
CONTINUOUS
 10
154.4893628475
 20
779.7797683109
 11
154.4893628475
 21
779.1797683109
  0
LINE
  5
399
100
AcDbEntity
  8
7_ALL_FEATURES
100
AcDbLine
 62
7
  6
CONTINUOUS
 10
154.6893628475
 20
776.3854420027
 11
154.6893628475
 21
777.1797683109
  0
LINE
  5
39A
100
AcDbEntity
  8
7_ALL_FEATURES
100
AcDbLine
 62
7
  6
CONTINUOUS
 10
154.6893628475
 20
779.2797683109
 11
154.6893628475
 21
779.6797683109
  0
LINE
  5
39B
100
AcDbEntity
  8
7_ALL_FEATURES
100
AcDbLine
 62
7
  6
CONTINUOUS
 10
155.9393628475
 20
779.6797683109
 11
155.9393628475
 21
778.7797683109
  0
LINE
  5
39C
100
AcDbEntity
  8
7_ALL_FEATURES
100
AcDbLine
 62
7
  6
CONTINUOUS
 10
156.1393628475
 20
721.6797683109
 11
156.1393628475
 21
746.6797683109
  0
LINE
  5
39D
100
AcDbEntity
  8
7_ALL_FEATURES
100
AcDbLine
 62
7
  6
CONTINUOUS
 10
156.1893628475
 20
777.1797683109
 11
156.1893628475
 21
776.26726886
  0
LINE
  5
39E
100
AcDbEntity
  8
7_ALL_FEATURES
100
AcDbLine
 62
7
  6
CONTINUOUS
 10
156.3393628475
 20
769.8797683109
 11
156.3393628475
 21
768.0797683109
  0
LINE
  5
39F
100
AcDbEntity
  8
6_ALL_SURFS
100
AcDbLine
 62
7
  6
CONTINUOUS
 10
123.9251745298
 20
702.018702552
 11
124.9002811686
 21
700.3297683109
  0
LINE
  5
3A0
100
AcDbEntity
  8
3_ALL_AXES
100
AcDbLine
 62
7
  6
CONTINUOUS
 10
158.1393628475
 20
725.8297683109
 11
158.1393628475
 21
734.5297683109
  0
LINE
  5
3A1
100
AcDbEntity
  8
7_ALL_FEATURES
100
AcDbLine
 62
7
  6
CONTINUOUS
 10
158.5393628475
 20
732.6797683109
 11
158.5393628475
 21
727.6797683109
  0
LINE
  5
3A2
100
AcDbEntity
  8
7_ALL_FEATURES
100
AcDbLine
 62
7
  6
CONTINUOUS
 10
159.0393628475
 20
732.1797683109
 11
159.0393628475
 21
728.1797683109
  0
LINE
  5
3A3
100
AcDbEntity
  8
7_ALL_FEATURES
100
AcDbLine
 62
9
  6
CONTINUOUS
 10
159.1393628475
 20
746.6797683109
 11
159.1393628475
 21
721.6797683109
  0
LINE
  5
3A4
100
AcDbEntity
  8
7_ALL_FEATURES
100
AcDbLine
 62
7
  6
CONTINUOUS
 10
170.6393628475
 20
697.1797683109
 11
170.6393628475
 21
700.1797683109
  0
LINE
  5
3A5
100
AcDbEntity
  8
7_ALL_FEATURES
100
AcDbLine
 62
7
  6
CONTINUOUS
 10
148.713074003
 20
707.913328697
 11
151.4925873923
 21
720.4509033784
  0
LINE
  5
3A6
100
AcDbEntity
  8
7_ALL_FEATURES
100
AcDbLine
 62
7
  6
CONTINUOUS
 10
153.0208428831
 20
719.9520563119
 11
149.9942085363
 21
706.2997910261
  0
LINE
  5
3A7
100
AcDbEntity
  8
7_ALL_FEATURES
100
AcDbLine
 62
7
  6
CONTINUOUS
 10
151.1239992616
 20
721.1944304584
 11
151.4790554683
 21
722.169939369
  0
LINE
  5
3A8
100
AcDbEntity
  8
7_ALL_FEATURES
100
AcDbLine
 62
7
  6
CONTINUOUS
 10
126.1393628475
 20
693.8797683109
 11
125.6393628475
 21
694.3797683109
  0
LINE
  5
3A9
100
AcDbEntity
  8
7_ALL_FEATURES
100
AcDbLine
 62
7
  6
CONTINUOUS
 10
148.9002811686
 20
700.3297683109
 11
147.9251745298
 21
702.018702552
  0
LINE
  5
3AA
100
AcDbEntity
  8
7_ALL_FEATURES
100
AcDbLine
 62
7
  6
CONTINUOUS
 10
198.1393628475
 20
721.6797683109
 11
198.1393628475
 21
746.6797683109
  0
LINE
  5
3AB
100
AcDbEntity
  8
6_ALL_SURFS
100
AcDbLine
 62
7
  6
CONTINUOUS
 10
121.3784445265
 20
700.3297683109
 11
122.3535511653
 21
702.018702552
  0
LINE
  5
3AC
100
AcDbEntity
  8
7_ALL_FEATURES
100
AcDbLine
 62
7
  6
CONTINUOUS
 10
152.9360329773
 20
775.952567655
 11
153.3004607905
 21
776.3433686389
  0
LINE
  5
3AD
100
AcDbEntity
  8
7_ALL_FEATURES
100
AcDbLine
 62
7
  6
CONTINUOUS
 10
153.8855437518
 20
775.7977699509
 11
153.5211159386
 21
775.4069689669
  0
LINE
  5
3AE
100
AcDbEntity
  8
7_ALL_FEATURES
100
AcDbLine
 62
7
  6
CONTINUOUS
 10
154.2355437518
 20
775.7977699509
 11
153.8711159386
 21
775.4069689669
  0
LINE
  5
3AF
100
AcDbEntity
  8
7_ALL_FEATURES
100
AcDbLine
 62
7
  6
CONTINUOUS
 10
152.8783252455
 20
774.3251688029
 11
154.608768958
 21
776.1808424946
  0
LINE
  5
3B0
100
AcDbEntity
  8
7_ALL_FEATURES
100
AcDbLine
 62
7
  6
CONTINUOUS
 10
155.7863934
 20
775.2442713199
 11
153.4236859967
 21
772.7105778297
  0
LINE
  5
3B1
100
AcDbEntity
  8
3_ALL_AXES
100
AcDbLine
 62
7
  6
CONTINUOUS
 10
123.1393628475
 20
707.5797683109
 11
123.5893628475
 21
707.1297683109
  0
LINE
  5
3B2
100
AcDbEntity
  8
3_ALL_AXES
100
AcDbLine
 62
7
  6
CONTINUOUS
 10
125.5254883881
 20
705.1936427704
 11
125.6393628475
 21
705.0797683109
  0
LINE
  5
3B3
100
AcDbEntity
  8
7_ALL_FEATURES
100
AcDbLine
 62
7
  6
CONTINUOUS
 10
133.6393628475
 20
702.1297683109
 11
133.4393628475
 21
702.3297683109
  0
LINE
  5
3B4
100
AcDbEntity
  8
7_ALL_FEATURES
100
AcDbLine
 62
7
  6
CONTINUOUS
 10
141.9393628475
 20
693.8797683109
 11
141.4393628475
 21
694.3797683109
  0
LINE
  5
3B5
100
AcDbEntity
  8
7_ALL_FEATURES
100
AcDbLine
 62
7
  6
CONTINUOUS
 10
146.3535511653
 20
702.018702552
 11
145.3784445265
 21
700.3297683109
  0
LINE
  5
3B6
100
AcDbEntity
  8
6_ALL_SURFS
100
AcDbLine
 62
7
  6
CONTINUOUS
 10
114.4923322951
 20
775.2442713199
 11
116.8550396983
 21
772.7105778297
  0
LINE
  5
3B7
100
AcDbEntity
  8
7_ALL_FEATURES
100
AcDbLine
 62
7
  6
CONTINUOUS
 10
153.4876641133
 20
777.6389268421
 11
153.4744785697
 21
777.6637252429
  0
LINE
  5
3B8
100
AcDbEntity
  8
3_ALL_AXES
100
AcDbLine
 62
7
  6
CONTINUOUS
 10
131.0893628475
 20
705.5297683109
 11
130.6393628475
 21
705.0797683109
  0
LINE
  5
3B9
100
AcDbEntity
  8
3_ALL_AXES
100
AcDbLine
 62
7
  6
CONTINUOUS
 10
151.3393628475
 20
725.1797683109
 11
151.5393628475
 21
725.3797683109
  0
LINE
  5
3BA
100
AcDbEntity
  8
7_ALL_FEATURES
100
AcDbLine
 62
7
  6
CONTINUOUS
 10
159.0393628475
 20
728.1797683109
 11
158.5393628475
 21
727.6797683109
  0
LINE
  5
3BB
100
AcDbEntity
  8
7_ALL_FEATURES
100
AcDbLine
 62
7
  6
CONTINUOUS
 10
136.6393628475
 20
702.1297683109
 11
136.8393628475
 21
702.3297683109
  0
LINE
  5
3BC
100
AcDbEntity
  8
6_ALL_SURFS
100
AcDbLine
 62
7
  6
CONTINUOUS
 10
118.2004286064
 20
769.7655799932
 11
118.5893628475
 21
769.990131282
  0
LINE
  5
3BD
100
AcDbEntity
  8
6_ALL_SURFS
100
AcDbLine
 62
7
  6
CONTINUOUS
 10
96.7893628475
 20
777.3297683109
 11
97.0893628475
 21
777.4797683109
  0
LINE
  5
3BE
100
AcDbEntity
  8
6_ALL_SURFS
100
AcDbLine
 62
7
  6
CONTINUOUS
 10
99.7893628475
 20
777.3297683109
 11
100.0893628475
 21
777.4797683109
  0
LINE
  5
3BF
100
AcDbEntity
  8
6_ALL_SURFS
100
AcDbLine
 62
7
  6
CONTINUOUS
 10
102.7893628475
 20
777.3297683109
 11
103.0893628475
 21
777.4797683109
  0
LINE
  5
3C0
100
AcDbEntity
  8
6_ALL_SURFS
100
AcDbLine
 62
7
  6
CONTINUOUS
 10
105.7893628475
 20
777.3297683109
 11
106.0893628475
 21
777.4797683109
  0
LINE
  5
3C1
100
AcDbEntity
  8
6_ALL_SURFS
100
AcDbLine
 62
7
  6
CONTINUOUS
 10
108.7893628475
 20
777.3297683109
 11
109.0893628475
 21
777.4797683109
  0
LINE
  5
3C2
100
AcDbEntity
  8
6_ALL_SURFS
100
AcDbLine
 62
7
  6
CONTINUOUS
 10
111.7893628475
 20
777.3297683109
 11
112.0893628475
 21
777.4797683109
  0
LINE
  5
3C3
100
AcDbEntity
  8
3_ALL_AXES
100
AcDbLine
 62
7
  6
CONTINUOUS
 10
151.3393628475
 20
735.1797683109
 11
151.5393628475
 21
734.9797683109
  0
LINE
  5
3C4
100
AcDbEntity
  8
7_ALL_FEATURES
100
AcDbLine
 62
7
  6
CONTINUOUS
 10
159.0393628475
 20
732.1797683109
 11
158.5393628475
 21
732.6797683109
  0
LINE
  5
3C5
100
AcDbEntity
  8
6_ALL_SURFS
100
AcDbLine
 62
7
  6
CONTINUOUS
 10
117.4004004495
 20
774.3251688029
 11
115.669956737
 21
776.1808424946
  0
LINE
  5
3C6
100
AcDbEntity
  8
7_ALL_FEATURES
100
AcDbLine
 62
7
  6
CONTINUOUS
 10
116.7576097564
 20
775.4069689669
 11
116.3931819432
 21
775.7977699509
  0
LINE
  5
3C7
100
AcDbEntity
  8
7_ALL_FEATURES
100
AcDbLine
 62
7
  6
CONTINUOUS
 10
116.9782649045
 20
776.3433686389
 11
117.3426927177
 21
775.952567655
  0
LINE
  5
3C8
100
AcDbEntity
  8
7_ALL_FEATURES
100
AcDbLine
 62
7
  6
CONTINUOUS
 10
117.3282649045
 20
776.3433686389
 11
117.6926927177
 21
775.952567655
  0
LINE
  5
3C9
100
AcDbEntity
  8
7_ALL_FEATURES
100
AcDbLine
 62
7
  6
CONTINUOUS
 10
130.1393628475
 20
693.8797683109
 11
130.6393628475
 21
694.3797683109
  0
LINE
  5
3CA
100
AcDbEntity
  8
7_ALL_FEATURES
100
AcDbLine
 62
7
  6
CONTINUOUS
 10
145.9393628475
 20
693.8797683109
 11
146.4393628475
 21
694.3797683109
  0
LINE
  5
3CB
100
AcDbEntity
  8
7_ALL_FEATURES
100
AcDbLine
 62
7
  6
CONTINUOUS
 10
151.6893628475
 20
767.9694053398
 11
152.0782970886
 21
768.1939566287
  0
LINE
  5
3CC
100
AcDbEntity
  8
3_ALL_AXES
100
AcDbLine
 62
7
  6
CONTINUOUS
 10
158.7893628475
 20
777.4797683109
 11
158.4893628475
 21
777.3297683109
  0
LINE
  5
3CD
100
AcDbEntity
  8
3_ALL_AXES
100
AcDbLine
 62
7
  6
CONTINUOUS
 10
161.7893628475
 20
777.4797683109
 11
161.4893628475
 21
777.3297683109
  0
LINE
  5
3CE
100
AcDbEntity
  8
3_ALL_AXES
100
AcDbLine
 62
7
  6
CONTINUOUS
 10
164.7893628475
 20
777.4797683109
 11
164.4893628475
 21
777.3297683109
  0
LINE
  5
3CF
100
AcDbEntity
  8
7_ALL_FEATURES
100
AcDbLine
 62
7
  6
CONTINUOUS
 10
151.3540473168
 20
720.7730831403
 11
151.2515583212
 21
720.8345765377
  0
LINE
  5
3D0
100
AcDbEntity
  8
6_ALL_SURFS
100
AcDbLine
 62
7
  6
CONTINUOUS
 10
118.9246783782
 20
720.7730831403
 11
119.0271673739
 21
720.8345765377
  0
LINE
  5
3D1
100
AcDbEntity
  8
3_ALL_AXES
100
AcDbLine
 62
7
  6
CONTINUOUS
 10
167.7893628475
 20
777.4797683109
 11
167.4893628475
 21
777.3297683109
  0
LINE
  5
3D2
100
AcDbEntity
  8
3_ALL_AXES
100
AcDbLine
 62
7
  6
CONTINUOUS
 10
170.7893628475
 20
777.4797683109
 11
170.4893628475
 21
777.3297683109
  0
LINE
  5
3D3
100
AcDbEntity
  8
3_ALL_AXES
100
AcDbLine
 62
7
  6
CONTINUOUS
 10
173.7893628475
 20
777.4797683109
 11
173.4893628475
 21
777.3297683109
  0
LINE
  5
3D4
100
AcDbEntity
  8
6_ALL_SURFS
100
AcDbLine
 62
7
  6
CONTINUOUS
 10
118.5893628475
 20
767.9694053398
 11
118.2004286064
 21
768.1939566287
  0
LINE
  5
3D5
100
AcDbEntity
  8
6_ALL_SURFS
100
AcDbLine
 62
7
  6
CONTINUOUS
 10
96.4893628475
 20
777.4797683109
 11
96.7893628475
 21
777.3297683109
  0
LINE
  5
3D6
100
AcDbEntity
  8
6_ALL_SURFS
100
AcDbLine
 62
7
  6
CONTINUOUS
 10
99.4893628475
 20
777.4797683109
 11
99.7893628475
 21
777.3297683109
  0
LINE
  5
3D7
100
AcDbEntity
  8
6_ALL_SURFS
100
AcDbLine
 62
7
  6
CONTINUOUS
 10
102.4893628475
 20
777.4797683109
 11
102.7893628475
 21
777.3297683109
  0
LINE
  5
3D8
100
AcDbEntity
  8
6_ALL_SURFS
100
AcDbLine
 62
7
  6
CONTINUOUS
 10
105.4893628475
 20
777.4797683109
 11
105.7893628475
 21
777.3297683109
  0
LINE
  5
3D9
100
AcDbEntity
  8
6_ALL_SURFS
100
AcDbLine
 62
7
  6
CONTINUOUS
 10
108.4893628475
 20
777.4797683109
 11
108.7893628475
 21
777.3297683109
  0
LINE
  5
3DA
100
AcDbEntity
  8
6_ALL_SURFS
100
AcDbLine
 62
7
  6
CONTINUOUS
 10
111.4893628475
 20
777.4797683109
 11
111.7893628475
 21
777.3297683109
  0
LINE
  5
3DB
100
AcDbEntity
  8
7_ALL_FEATURES
100
AcDbLine
 62
7
  6
CONTINUOUS
 10
152.0782970886
 20
769.7655799932
 11
151.6893628475
 21
769.990131282
  0
LINE
  5
3DC
100
AcDbEntity
  8
3_ALL_AXES
100
AcDbLine
 62
7
  6
CONTINUOUS
 10
158.4893628475
 20
777.3297683109
 11
158.1893628475
 21
777.4797683109
  0
LINE
  5
3DD
100
AcDbEntity
  8
3_ALL_AXES
100
AcDbLine
 62
7
  6
CONTINUOUS
 10
161.4893628475
 20
777.3297683109
 11
161.1893628475
 21
777.4797683109
  0
LINE
  5
3DE
100
AcDbEntity
  8
3_ALL_AXES
100
AcDbLine
 62
7
  6
CONTINUOUS
 10
164.4893628475
 20
777.3297683109
 11
164.1893628475
 21
777.4797683109
  0
LINE
  5
3DF
100
AcDbEntity
  8
3_ALL_AXES
100
AcDbLine
 62
7
  6
CONTINUOUS
 10
167.4893628475
 20
777.3297683109
 11
167.1893628475
 21
777.4797683109
  0
LINE
  5
3E0
100
AcDbEntity
  8
3_ALL_AXES
100
AcDbLine
 62
7
  6
CONTINUOUS
 10
170.4893628475
 20
777.3297683109
 11
170.1893628475
 21
777.4797683109
  0
LINE
  5
3E1
100
AcDbEntity
  8
3_ALL_AXES
100
AcDbLine
 62
7
  6
CONTINUOUS
 10
173.4893628475
 20
777.3297683109
 11
173.1893628475
 21
777.4797683109
  0
LINE
  5
3E2
100
AcDbEntity
  8
7_ALL_FEATURES
100
AcDbLine
 62
7
  6
CONTINUOUS
 10
145.9393628475
 20
693.8797683109
 11
141.9393628475
 21
693.8797683109
  0
LINE
  5
3E3
100
AcDbEntity
  8
7_ALL_FEATURES
100
AcDbLine
 62
7
  6
CONTINUOUS
 10
130.1393628475
 20
693.8797683109
 11
126.1393628475
 21
693.8797683109
  0
LINE
  5
3E4
100
AcDbEntity
  8
7_ALL_FEATURES
100
AcDbLine
 62
7
  6
CONTINUOUS
 10
146.4393628475
 20
694.3797683109
 11
141.4393628475
 21
694.3797683109
  0
LINE
  5
3E5
100
AcDbEntity
  8
7_ALL_FEATURES
100
AcDbLine
 62
7
  6
CONTINUOUS
 10
130.6393628475
 20
694.3797683109
 11
125.6393628475
 21
694.3797683109
  0
LINE
  5
3E6
100
AcDbEntity
  8
3_ALL_AXES
100
AcDbLine
 62
7
  6
CONTINUOUS
 10
123.7893628475
 20
695.1797683109
 11
132.4893628475
 21
695.1797683109
  0
LINE
  5
3E7
100
AcDbEntity
  8
3_ALL_AXES
100
AcDbLine
 62
7
  6
CONTINUOUS
 10
139.2893628475
 20
695.1797683109
 11
147.9893628475
 21
695.1797683109
  0
LINE
  5
3E8
100
AcDbEntity
  8
7_ALL_FEATURES
100
AcDbLine
 62
3
  6
CONTINUOUS
 10
115.6393628475
 20
697.1797683109
 11
170.6393628475
 21
697.1797683109
  0
LINE
  5
3E9
100
AcDbEntity
  8
7_ALL_FEATURES
100
AcDbLine
 62
7
  6
CONTINUOUS
 10
115.6393628475
 20
700.1797683109
 11
119.4393628475
 21
700.1797683109
  0
LINE
  5
3EA
100
AcDbEntity
  8
6_ALL_SURFS
100
AcDbLine
 62
7
  6
CONTINUOUS
 10
119.4393628475
 20
700.1797683109
 11
121.1186369054
 21
700.1797683109
  0
LINE
  5
3EB
100
AcDbEntity
  8
7_ALL_FEATURES
100
AcDbLine
 62
7
  6
CONTINUOUS
 10
121.1186369054
 20
700.1797683109
 11
125.1600887897
 21
700.1797683109
  0
LINE
  5
3EC
100
AcDbEntity
  8
6_ALL_SURFS
100
AcDbLine
 62
7
  6
CONTINUOUS
 10
125.1600887897
 20
700.1797683109
 11
125.6393628475
 21
700.1797683109
  0
LINE
  5
3ED
100
AcDbEntity
  8
7_ALL_FEATURES
100
AcDbLine
 62
7
  6
CONTINUOUS
 10
125.6393628475
 20
700.1797683109
 11
714.0893628475
 21
700.1797683109
  0
LINE
  5
3EE
100
AcDbEntity
  8
7_ALL_FEATURES
100
AcDbLine
 62
9
  6
CONTINUOUS
 10
148.9002811686
 20
700.3297683109
 11
145.3784445265
 21
700.3297683109
  0
LINE
  5
3EF
100
AcDbEntity
  8
7_ALL_FEATURES
100
AcDbLine
 62
9
  6
CONTINUOUS
 10
124.9002811686
 20
700.3297683109
 11
121.3784445265
 21
700.3297683109
  0
LINE
  5
3F0
100
AcDbEntity
  8
3_ALL_AXES
100
AcDbLine
 62
9
  6
CONTINUOUS
 10
132.3464837406
 20
700.4797683109
 11
130.6393628475
 21
700.4797683109
  0
LINE
  5
3F1
100
AcDbEntity
  8
7_ALL_FEATURES
100
AcDbLine
 62
9
  6
CONTINUOUS
 10
151.1393628475
 20
700.4797683109
 11
714.0893628475
 21
700.4797683109
  0
LINE
  5
3F2
100
AcDbEntity
  8
7_ALL_FEATURES
100
AcDbLine
 62
9
  6
CONTINUOUS
 10
714.0893628475
 20
701.1797683109
 11
151.1393628475
 21
701.1797683109
  0
LINE
  5
3F3
100
AcDbEntity
  8
6_ALL_SURFS
100
AcDbLine
 62
7
  6
CONTINUOUS
 10
120.3734995103
 20
701.6797683109
 11
119.6393628475
 21
701.6797683109
  0
LINE
  5
3F4
100
AcDbEntity
  8
7_ALL_FEATURES
100
AcDbLine
 62
7
  6
CONTINUOUS
 10
149.9052261847
 20
701.6797683109
 11
714.0893628475
 21
701.6797683109
  0
LINE
  5
3F5
100
AcDbEntity
  8
7_ALL_FEATURES
100
AcDbLine
 62
7
  6
CONTINUOUS
 10
133.7393628475
 20
701.7797683109
 11
136.5393628475
 21
701.7797683109
  0
LINE
  5
3F6
100
AcDbEntity
  8
7_ALL_FEATURES
100
AcDbLine
 62
9
  6
CONTINUOUS
 10
144.3393628475
 20
701.9797683109
 11
138.7393628475
 21
701.9797683109
  0
LINE
  5
3F7
100
AcDbEntity
  8
7_ALL_FEATURES
100
AcDbLine
 62
9
  6
CONTINUOUS
 10
147.9251745298
 20
702.018702552
 11
146.3535511653
 21
702.018702552
  0
LINE
  5
3F8
100
AcDbEntity
  8
7_ALL_FEATURES
100
AcDbLine
 62
9
  6
CONTINUOUS
 10
123.9251745298
 20
702.018702552
 11
122.3535511653
 21
702.018702552
  0
LINE
  5
3F9
100
AcDbEntity
  8
7_ALL_FEATURES
100
AcDbLine
 62
9
  6
CONTINUOUS
 10
133.4393628475
 20
702.0797683109
 11
136.8393628475
 21
702.0797683109
  0
LINE
  5
3FA
100
AcDbEntity
  8
7_ALL_FEATURES
100
AcDbLine
 62
9
  6
CONTINUOUS
 10
149.6375619908
 20
702.1152521819
 11
714.0893628475
 21
702.1152521819
  0
LINE
  5
3FB
100
AcDbEntity
  8
7_ALL_FEATURES
100
AcDbLine
 62
7
  6
CONTINUOUS
 10
136.6393628475
 20
702.1297683109
 11
133.6393628475
 21
702.1297683109
  0
LINE
  5
3FC
100
AcDbEntity
  8
7_ALL_FEATURES
100
AcDbLine
 62
9
  6
CONTINUOUS
 10
147.9889285315
 20
702.3957773818
 11
146.2897971635
 21
702.3957773818
  0
LINE
  5
3FD
100
AcDbEntity
  8
7_ALL_FEATURES
100
AcDbLine
 62
9
  6
CONTINUOUS
 10
123.9889285315
 20
702.3957773818
 11
122.2897971635
 21
702.3957773818
  0
LINE
  5
3FE
100
AcDbEntity
  8
7_ALL_FEATURES
100
AcDbLine
 62
7
  6
CONTINUOUS
 10
136.8393628475
 20
702.6297683109
 11
133.4393628475
 21
702.6297683109
  0
LINE
  5
3FF
100
AcDbEntity
  8
3_ALL_AXES
100
AcDbLine
 62
9
  6
CONTINUOUS
 10
130.6393628475
 20
703.3797683109
 11
131.5393628475
 21
703.3797683109
  0
LINE
  5
400
100
AcDbEntity
  8
3_ALL_AXES
100
AcDbLine
 62
9
  6
CONTINUOUS
 10
125.5642339781
 20
704.7797683109
 11
125.6393628475
 21
704.7797683109
  0
LINE
  5
401
100
AcDbEntity
  8
3_ALL_AXES
100
AcDbLine
 62
9
  6
CONTINUOUS
 10
130.6393628475
 20
704.7797683109
 11
131.5393628475
 21
704.7797683109
  0
LINE
  5
402
100
AcDbEntity
  8
3_ALL_AXES
100
AcDbLine
 62
7
  6
CONTINUOUS
 10
130.6393628475
 20
705.0797683109
 11
125.6393628475
 21
705.0797683109
  0
LINE
  5
403
100
AcDbEntity
  8
7_ALL_FEATURES
100
AcDbLine
 62
9
  6
CONTINUOUS
 10
149.3160246034
 20
705.1410586335
 11
714.0893628475
 21
705.1410586335
  0
LINE
  5
404
100
AcDbEntity
  8
7_ALL_FEATURES
100
AcDbLine
 62
9
  6
CONTINUOUS
 10
138.7393628475
 20
705.2297683109
 11
144.7383011016
 21
705.2297683109
  0
LINE
  5
405
100
AcDbEntity
  8
7_ALL_FEATURES
100
AcDbLine
 62
7
  6
CONTINUOUS
 10
144.281479015
 20
705.5297683109
 11
139.0393628475
 21
705.5297683109
  0
LINE
  5
406
100
AcDbEntity
  8
6_ALL_SURFS
100
AcDbLine
 62
7
  6
CONTINUOUS
 10
125.99724668
 20
705.5297683109
 11
131.2393628475
 21
705.5297683109
  0
LINE
  5
407
100
AcDbEntity
  8
7_ALL_FEATURES
100
AcDbLine
 62
9
  6
CONTINUOUS
 10
714.0893628475
 20
705.6035673099
 11
149.426624709
 21
705.6035673099
  0
LINE
  5
408
100
AcDbEntity
  8
7_ALL_FEATURES
100
AcDbLine
 62
9
  6
CONTINUOUS
 10
714.0893628475
 20
706.2997910261
 11
149.9942085363
 21
706.2997910261
  0
LINE
  5
409
100
AcDbEntity
  8
6_ALL_SURFS
100
AcDbLine
 62
7
  6
CONTINUOUS
 10
133.1393628475
 20
707.1297683109
 11
122.5419476992
 21
707.1297683109
  0
LINE
  5
40A
100
AcDbEntity
  8
7_ALL_FEATURES
100
AcDbLine
 62
7
  6
CONTINUOUS
 10
133.1393628475
 20
707.1297683109
 11
147.7367779959
 21
707.1297683109
  0
LINE
  5
40B
100
AcDbEntity
  8
3_ALL_AXES
100
AcDbLine
 62
7
  6
CONTINUOUS
 10
148.5696497885
 20
707.5797683109
 11
142.6393628475
 21
707.5797683109
  0
LINE
  5
40C
100
AcDbEntity
  8
3_ALL_AXES
100
AcDbLine
 62
7
  6
CONTINUOUS
 10
127.6393628475
 20
707.5797683109
 11
123.1393628475
 21
707.5797683109
  0
LINE
  5
40D
100
AcDbEntity
  8
3_ALL_AXES
100
AcDbLine
 62
7
  6
CONTINUOUS
 10
148.7034497082
 20
707.8797683109
 11
142.6393628475
 21
707.8797683109
  0
LINE
  5
40E
100
AcDbEntity
  8
3_ALL_AXES
100
AcDbLine
 62
7
  6
CONTINUOUS
 10
127.6393628475
 20
707.8797683109
 11
123.1393628475
 21
707.8797683109
  0
LINE
  5
40F
100
AcDbEntity
  8
7_ALL_FEATURES
100
AcDbLine
 62
9
  6
CONTINUOUS
 10
121.5656516921
 20
707.913328697
 11
127.6393628475
 21
707.913328697
  0
LINE
  5
410
100
AcDbEntity
  8
7_ALL_FEATURES
100
AcDbLine
 62
9
  6
CONTINUOUS
 10
142.6393628475
 20
707.913328697
 11
148.713074003
 21
707.913328697
  0
LINE
  5
411
100
AcDbEntity
  8
7_ALL_FEATURES
100
AcDbLine
 62
7
  6
CONTINUOUS
 10
142.6393628475
 20
708.1297683109
 11
127.6393628475
 21
708.1297683109
  0
LINE
  5
412
100
AcDbEntity
  8
7_ALL_FEATURES
100
AcDbLine
 62
7
  6
CONTINUOUS
 10
131.1393628475
 20
710.1579715412
 11
139.1393628475
 21
710.1579715412
  0
LINE
  5
413
100
AcDbEntity
  8
7_ALL_FEATURES
100
AcDbLine
 62
9
  6
CONTINUOUS
 10
714.0893628475
 20
719.9520563119
 11
153.0208428831
 21
719.9520563119
  0
LINE
  5
414
100
AcDbEntity
  8
7_ALL_FEATURES
100
AcDbLine
 62
9
  6
CONTINUOUS
 10
118.7861383027
 20
720.4509033784
 11
151.4925873923
 21
720.4509033784
  0
LINE
  5
415
100
AcDbEntity
  8
7_ALL_FEATURES
100
AcDbLine
 62
9
  6
CONTINUOUS
 10
118.9246783782
 20
720.7730831403
 11
151.3540473168
 21
720.7730831403
  0
LINE
  5
416
100
AcDbEntity
  8
7_ALL_FEATURES
100
AcDbLine
 62
9
  6
CONTINUOUS
 10
151.2515583212
 20
720.8345765377
 11
119.0271673739
 21
720.8345765377
  0
LINE
  5
417
100
AcDbEntity
  8
7_ALL_FEATURES
100
AcDbLine
 62
9
  6
CONTINUOUS
 10
714.0893628475
 20
721.0342543816
 11
153.1393628475
 21
721.0342543816
  0
LINE
  5
418
100
AcDbEntity
  8
7_ALL_FEATURES
100
AcDbLine
 62
9
  6
CONTINUOUS
 10
151.1239992616
 20
721.1944304584
 11
119.1547264335
 21
721.1944304584
  0
LINE
  5
419
100
AcDbEntity
  8
7_ALL_FEATURES
100
AcDbLine
 62
7
  6
CONTINUOUS
 10
153.1393628475
 20
721.6797683109
 11
198.1393628475
 21
721.6797683109
  0
LINE
  5
41A
100
AcDbEntity
  8
7_ALL_FEATURES
100
AcDbLine
 62
9
  6
CONTINUOUS
 10
118.7996702267
 20
722.169939369
 11
151.4790554683
 21
722.169939369
  0
LINE
  5
41B
100
AcDbEntity
  8
7_ALL_FEATURES
100
AcDbLine
 62
9
  6
CONTINUOUS
 10
118.7393628475
 20
722.5119595123
 11
151.5393628475
 21
722.5119595123
  0
LINE
  5
41C
100
AcDbEntity
  8
3_ALL_AXES
100
AcDbLine
 62
7
  6
CONTINUOUS
 10
151.0393628475
 20
725.1797683109
 11
151.3393628475
 21
725.1797683109
  0
LINE
  5
41D
100
AcDbEntity
  8
3_ALL_AXES
100
AcDbLine
 62
7
  6
CONTINUOUS
 10
158.1393628475
 20
725.8297683109
 11
156.1393628475
 21
725.8297683109
  0
LINE
  5
41E
100
AcDbEntity
  8
7_ALL_FEATURES
100
AcDbLine
 62
7
  6
CONTINUOUS
 10
158.1393628475
 20
727.6797683109
 11
158.5393628475
 21
727.6797683109
  0
LINE
  5
41F
100
AcDbEntity
  8
7_ALL_FEATURES
100
AcDbLine
 62
7
  6
CONTINUOUS
 10
158.1393628475
 20
732.6797683109
 11
158.5393628475
 21
732.6797683109
  0
LINE
  5
420
100
AcDbEntity
  8
3_ALL_AXES
100
AcDbLine
 62
7
  6
CONTINUOUS
 10
158.1393628475
 20
734.5297683109
 11
156.1393628475
 21
734.5297683109
  0
LINE
  5
421
100
AcDbEntity
  8
3_ALL_AXES
100
AcDbLine
 62
7
  6
CONTINUOUS
 10
151.0393628475
 20
735.1797683109
 11
151.3393628475
 21
735.1797683109
  0
LINE
  5
422
100
AcDbEntity
  8
7_ALL_FEATURES
100
AcDbLine
 62
7
  6
CONTINUOUS
 10
153.1393628475
 20
746.6797683109
 11
198.1393628475
 21
746.6797683109
  0
LINE
  5
423
100
AcDbEntity
  8
7_ALL_FEATURES
100
AcDbLine
 62
7
  6
CONTINUOUS
 10
173.6893628475
 20
778.4797683109
 11
175.8348344379
 21
778.2652211519
  0
LINE
  5
424
100
AcDbEntity
  8
7_ALL_FEATURES
100
AcDbLine
 62
9
  6
CONTINUOUS
 10
153.1393628475
 20
765.7797683109
 11
714.0893628475
 21
765.7797683109
  0
LINE
  5
425
100
AcDbEntity
  8
7_ALL_FEATURES
100
AcDbLine
 62
7
  6
CONTINUOUS
 10
714.0893628475
 20
766.0797683109
 11
153.4393628475
 21
766.0797683109
  0
LINE
  5
426
100
AcDbEntity
  8
6_ALL_SURFS
100
AcDbLine
 62
7
  6
CONTINUOUS
 10
115.9393628475
 20
766.0797683109
 11
116.8393628475
 21
766.0797683109
  0
LINE
  5
427
100
AcDbEntity
  8
7_ALL_FEATURES
100
AcDbLine
 62
9
  6
CONTINUOUS
 10
151.5393628475
 20
767.7095977187
 11
118.7393628475
 21
767.7095977187
  0
LINE
  5
428
100
AcDbEntity
  8
7_ALL_FEATURES
100
AcDbLine
 62
9
  6
CONTINUOUS
 10
151.6893628475
 20
767.9694053398
 11
118.5893628475
 21
767.9694053398
  0
LINE
  5
429
100
AcDbEntity
  8
7_ALL_FEATURES
100
AcDbLine
 62
9
  6
CONTINUOUS
 10
714.0893628475
 20
768.0797683109
 11
156.3393628475
 21
768.0797683109
  0
LINE
  5
42A
100
AcDbEntity
  8
7_ALL_FEATURES
100
AcDbLine
 62
9
  6
CONTINUOUS
 10
154.4198605383
 20
768.1302026269
 11
152.4553719184
 21
768.1302026269
  0
LINE
  5
42B
100
AcDbEntity
  8
7_ALL_FEATURES
100
AcDbLine
 62
9
  6
CONTINUOUS
 10
152.0782970886
 20
768.1939566287
 11
118.2004286064
 21
768.1939566287
  0
LINE
  5
42C
100
AcDbEntity
  8
7_ALL_FEATURES
100
AcDbLine
 62
7
  6
CONTINUOUS
 10
154.5023601298
 20
768.2341490075
 11
152.2282970886
 21
768.2341490075
  0
LINE
  5
42D
100
AcDbEntity
  8
6_ALL_SURFS
100
AcDbLine
 62
7
  6
CONTINUOUS
 10
118.0504286064
 20
768.2341490075
 11
152.2282970958
 21
768.2341490075
  0
LINE
  5
42E
100
AcDbEntity
  8
7_ALL_FEATURES
100
AcDbLine
 62
7
  6
CONTINUOUS
 10
154.5023601298
 20
769.7253876143
 11
152.2282970886
 21
769.7253876143
  0
LINE
  5
42F
100
AcDbEntity
  8
6_ALL_SURFS
100
AcDbLine
 62
7
  6
CONTINUOUS
 10
118.0504286064
 20
769.7253876143
 11
152.2282970958
 21
769.7253876143
  0
LINE
  5
430
100
AcDbEntity
  8
7_ALL_FEATURES
100
AcDbLine
 62
9
  6
CONTINUOUS
 10
152.0782970886
 20
769.7655799932
 11
118.2004286064
 21
769.7655799932
  0
LINE
  5
431
100
AcDbEntity
  8
7_ALL_FEATURES
100
AcDbLine
 62
9
  6
CONTINUOUS
 10
154.4198605383
 20
769.8293339949
 11
152.4553719184
 21
769.8293339949
  0
LINE
  5
432
100
AcDbEntity
  8
7_ALL_FEATURES
100
AcDbLine
 62
9
  6
CONTINUOUS
 10
714.0893628475
 20
769.8797683109
 11
156.3393628475
 21
769.8797683109
  0
LINE
  5
433
100
AcDbEntity
  8
7_ALL_FEATURES
100
AcDbLine
 62
9
  6
CONTINUOUS
 10
151.6893628475
 20
769.990131282
 11
118.5893628475
 21
769.990131282
  0
LINE
  5
434
100
AcDbEntity
  8
7_ALL_FEATURES
100
AcDbLine
 62
9
  6
CONTINUOUS
 10
151.5393628475
 20
770.2499389031
 11
118.7393628475
 21
770.2499389031
  0
LINE
  5
435
100
AcDbEntity
  8
6_ALL_SURFS
100
AcDbLine
 62
7
  6
CONTINUOUS
 10
116.6893628475
 20
771.8797683109
 11
115.9393628475
 21
771.8797683109
  0
LINE
  5
436
100
AcDbEntity
  8
7_ALL_FEATURES
100
AcDbLine
 62
7
  6
CONTINUOUS
 10
153.5893628475
 20
771.8797683109
 11
714.0893628475
 21
771.8797683109
  0
LINE
  5
437
100
AcDbEntity
  8
7_ALL_FEATURES
100
AcDbLine
 62
9
  6
CONTINUOUS
 10
153.2893628475
 20
772.1797683109
 11
714.0893628475
 21
772.1797683109
  0
LINE
  5
438
100
AcDbEntity
  8
7_ALL_FEATURES
100
AcDbLine
 62
9
  6
CONTINUOUS
 10
153.2893628475
 20
772.3695786497
 11
714.0893628475
 21
772.3695786497
  0
LINE
  5
439
100
AcDbEntity
  8
7_ALL_FEATURES
100
AcDbLine
 62
9
  6
CONTINUOUS
 10
153.4236859967
 20
772.7105778297
 11
714.0893628475
 21
772.7105778297
  0
LINE
  5
43A
100
AcDbEntity
  8
7_ALL_FEATURES
100
AcDbLine
 62
9
  6
CONTINUOUS
 10
151.5393628475
 20
773.9297683109
 11
118.7393628475
 21
773.9297683109
  0
LINE
  5
43B
100
AcDbEntity
  8
6_ALL_SURFS
100
AcDbLine
 62
7
  6
CONTINUOUS
 10
118.4393628475
 20
774.2297683109
 11
117.61980656
 21
774.2297683109
  0
LINE
  5
43C
100
AcDbEntity
  8
7_ALL_FEATURES
100
AcDbLine
 62
7
  6
CONTINUOUS
 10
118.4393628475
 20
774.2297683109
 11
152.658919135
 21
774.2297683109
  0
LINE
  5
43D
100
AcDbEntity
  8
7_ALL_FEATURES
100
AcDbLine
 62
9
  6
CONTINUOUS
 10
117.4004004495
 20
774.3251688029
 11
152.8783252455
 21
774.3251688029
  0
LINE
  5
43E
100
AcDbEntity
  8
7_ALL_FEATURES
100
AcDbLine
 62
9
  6
CONTINUOUS
 10
714.0893628475
 20
775.2442713199
 11
155.7863934
 21
775.2442713199
  0
LINE
  5
43F
100
AcDbEntity
  8
7_ALL_FEATURES
100
AcDbLine
 62
7
  6
CONTINUOUS
 10
117.4001512371
 20
775.2797683109
 11
153.768503688
 21
775.2797683109
  0
LINE
  5
440
100
AcDbEntity
  8
7_ALL_FEATURES
100
AcDbLine
 62
9
  6
CONTINUOUS
 10
153.8711159386
 20
775.4069689669
 11
153.8871202186
 21
775.4069689669
  0
LINE
  5
441
100
AcDbEntity
  8
7_ALL_FEATURES
100
AcDbLine
 62
9
  6
CONTINUOUS
 10
154.2355437518
 20
775.7977699509
 11
154.2515480319
 21
775.7977699509
  0
LINE
  5
442
100
AcDbEntity
  8
7_ALL_FEATURES
100
AcDbLine
 62
9
  6
CONTINUOUS
 10
117.6926927177
 20
775.952567655
 11
152.9360329773
 21
775.952567655
  0
LINE
  5
443
100
AcDbEntity
  8
7_ALL_FEATURES
100
AcDbLine
 62
9
  6
CONTINUOUS
 10
115.669956737
 20
776.1808424946
 11
116.1710361801
 21
776.1808424946
  0
LINE
  5
444
100
AcDbEntity
  8
7_ALL_FEATURES
100
AcDbLine
 62
9
  6
CONTINUOUS
 10
714.0893628475
 20
776.26726886
 11
156.1893628475
 21
776.26726886
  0
LINE
  5
445
100
AcDbEntity
  8
7_ALL_FEATURES
100
AcDbLine
 62
9
  6
CONTINUOUS
 10
117.3282649045
 20
776.3433686389
 11
153.3004607905
 21
776.3433686389
  0
LINE
  5
446
100
AcDbEntity
  8
7_ALL_FEATURES
100
AcDbLine
 62
9
  6
CONTINUOUS
 10
115.5893628475
 20
776.3854420027
 11
116.129599533
 21
776.3854420027
  0
LINE
  5
447
100
AcDbEntity
  8
7_ALL_FEATURES
100
AcDbLine
 62
9
  6
CONTINUOUS
 10
117.3660183651
 20
776.6477683109
 11
153.26270733
 21
776.6477683109
  0
LINE
  5
448
100
AcDbEntity
  8
7_ALL_FEATURES
100
AcDbLine
 62
9
  6
CONTINUOUS
 10
115.5893628475
 20
777.1797683109
 11
116.4111352449
 21
777.1797683109
  0
LINE
  5
449
100
AcDbEntity
  8
7_ALL_FEATURES
100
AcDbLine
 62
9
  6
CONTINUOUS
 10
156.1893628475
 20
777.1797683109
 11
714.0893628475
 21
777.1797683109
  0
LINE
  5
44A
100
AcDbEntity
  8
7_ALL_FEATURES
100
AcDbLine
 62
9
  6
CONTINUOUS
 10
154.0467764489
 20
777.3197683109
 11
154.6538703604
 21
777.3197683109
  0
LINE
  5
44B
100
AcDbEntity
  8
7_ALL_FEATURES
100
AcDbLine
 62
7
  6
CONTINUOUS
 10
96.7893628475
 20
777.3297683109
 11
114.048054564
 21
777.3297683109
  0
LINE
  5
44C
100
AcDbEntity
  8
7_ALL_FEATURES
100
AcDbLine
 62
7
  6
CONTINUOUS
 10
158.4893628475
 20
777.3297683109
 11
714.0893628475
 21
777.3297683109
  0
LINE
  5
44D
100
AcDbEntity
  8
7_ALL_FEATURES
100
AcDbLine
 62
7
  6
CONTINUOUS
 10
714.0893628475
 20
777.4797683109
 11
173.7893628475
 21
777.4797683109
  0
LINE
  5
44E
100
AcDbEntity
  8
3_ALL_AXES
100
AcDbLine
 62
7
  6
CONTINUOUS
 10
173.1893628475
 20
777.4797683109
 11
170.7893628475
 21
777.4797683109
  0
LINE
  5
44F
100
AcDbEntity
  8
3_ALL_AXES
100
AcDbLine
 62
7
  6
CONTINUOUS
 10
170.1893628475
 20
777.4797683109
 11
167.7893628475
 21
777.4797683109
  0
LINE
  5
450
100
AcDbEntity
  8
3_ALL_AXES
100
AcDbLine
 62
7
  6
CONTINUOUS
 10
167.1893628475
 20
777.4797683109
 11
164.7893628475
 21
777.4797683109
  0
LINE
  5
451
100
AcDbEntity
  8
3_ALL_AXES
100
AcDbLine
 62
7
  6
CONTINUOUS
 10
164.1893628475
 20
777.4797683109
 11
161.7893628475
 21
777.4797683109
  0
LINE
  5
452
100
AcDbEntity
  8
3_ALL_AXES
100
AcDbLine
 62
7
  6
CONTINUOUS
 10
161.1893628475
 20
777.4797683109
 11
158.7893628475
 21
777.4797683109
  0
LINE
  5
453
100
AcDbEntity
  8
7_ALL_FEATURES
100
AcDbLine
 62
7
  6
CONTINUOUS
 10
158.1893628475
 20
777.4797683109
 11
156.4893628475
 21
777.4797683109
  0
LINE
  5
454
100
AcDbEntity
  8
7_ALL_FEATURES
100
AcDbLine
 62
7
  6
CONTINUOUS
 10
154.3893628475
 20
777.4797683109
 11
153.7525483912
 21
777.4797683109
  0
LINE
  5
455
100
AcDbEntity
  8
7_ALL_FEATURES
100
AcDbLine
 62
7
  6
CONTINUOUS
 10
116.7725640749
 20
777.4797683109
 11
116.5261773039
 21
777.4797683109
  0
LINE
  5
456
100
AcDbEntity
  8
6_ALL_SURFS
100
AcDbLine
 62
7
  6
CONTINUOUS
 10
94.4830662054
 20
777.4797683109
 11
96.4893628475
 21
777.4797683109
  0
LINE
  5
457
100
AcDbEntity
  8
6_ALL_SURFS
100
AcDbLine
 62
7
  6
CONTINUOUS
 10
97.0893628475
 20
777.4797683109
 11
99.4893628475
 21
777.4797683109
  0
LINE
  5
458
100
AcDbEntity
  8
6_ALL_SURFS
100
AcDbLine
 62
7
  6
CONTINUOUS
 10
100.0893628475
 20
777.4797683109
 11
102.4893628475
 21
777.4797683109
  0
LINE
  5
459
100
AcDbEntity
  8
6_ALL_SURFS
100
AcDbLine
 62
7
  6
CONTINUOUS
 10
103.0893628475
 20
777.4797683109
 11
105.4893628475
 21
777.4797683109
  0
LINE
  5
45A
100
AcDbEntity
  8
6_ALL_SURFS
100
AcDbLine
 62
7
  6
CONTINUOUS
 10
106.0893628475
 20
777.4797683109
 11
108.4893628475
 21
777.4797683109
  0
LINE
  5
45B
100
AcDbEntity
  8
6_ALL_SURFS
100
AcDbLine
 62
7
  6
CONTINUOUS
 10
109.0893628475
 20
777.4797683109
 11
111.4893628475
 21
777.4797683109
  0
LINE
  5
45C
100
AcDbEntity
  8
6_ALL_SURFS
100
AcDbLine
 62
7
  6
CONTINUOUS
 10
112.0893628475
 20
777.4797683109
 11
113.7893628475
 21
777.4797683109
  0
LINE
  5
45D
100
AcDbEntity
  8
6_ALL_SURFS
100
AcDbLine
 62
7
  6
CONTINUOUS
 10
115.8893628475
 20
777.4797683109
 11
116.5261773039
 21
777.4797683109
  0
LINE
  5
45E
100
AcDbEntity
  8
7_ALL_FEATURES
100
AcDbLine
 62
9
  6
CONTINUOUS
 10
116.8920437664
 20
777.6389268421
 11
116.7910615818
 21
777.6389268421
  0
LINE
  5
45F
100
AcDbEntity
  8
7_ALL_FEATURES
100
AcDbLine
 62
9
  6
CONTINUOUS
 10
116.9069152392
 20
777.6637252429
 11
116.8042471254
 21
777.6637252429
  0
LINE
  5
460
100
AcDbEntity
  8
7_ALL_FEATURES
100
AcDbLine
 62
9
  6
CONTINUOUS
 10
116.9732885009
 20
777.8045667118
 11
116.8393628475
 21
777.8045667118
  0
LINE
  5
461
100
AcDbEntity
  8
7_ALL_FEATURES
100
AcDbLine
 62
9
  6
CONTINUOUS
 10
118.1893628475
 20
778.1597683109
 11
152.4393628475
 21
778.1597683109
  0
LINE
  5
462
100
AcDbEntity
  8
7_ALL_FEATURES
100
AcDbLine
 62
9
  6
CONTINUOUS
 10
714.0893628475
 20
778.2652211519
 11
175.8348344379
 21
778.2652211519
  0
LINE
  5
463
100
AcDbEntity
  8
6_ALL_SURFS
100
AcDbLine
 62
7
  6
CONTINUOUS
 10
114.0393628475
 20
778.4797683109
 11
112.0893628475
 21
778.4797683109
  0
LINE
  5
464
100
AcDbEntity
  8
6_ALL_SURFS
100
AcDbLine
 62
7
  6
CONTINUOUS
 10
111.4893628475
 20
778.4797683109
 11
109.0893628475
 21
778.4797683109
  0
LINE
  5
465
100
AcDbEntity
  8
6_ALL_SURFS
100
AcDbLine
 62
7
  6
CONTINUOUS
 10
108.4893628475
 20
778.4797683109
 11
106.0893628475
 21
778.4797683109
  0
LINE
  5
466
100
AcDbEntity
  8
6_ALL_SURFS
100
AcDbLine
 62
7
  6
CONTINUOUS
 10
105.4893628475
 20
778.4797683109
 11
103.0893628475
 21
778.4797683109
  0
LINE
  5
467
100
AcDbEntity
  8
6_ALL_SURFS
100
AcDbLine
 62
7
  6
CONTINUOUS
 10
102.4893628475
 20
778.4797683109
 11
100.0893628475
 21
778.4797683109
  0
LINE
  5
468
100
AcDbEntity
  8
6_ALL_SURFS
100
AcDbLine
 62
7
  6
CONTINUOUS
 10
99.4893628475
 20
778.4797683109
 11
96.5893628475
 21
778.4797683109
  0
LINE
  5
469
100
AcDbEntity
  8
7_ALL_FEATURES
100
AcDbLine
 62
7
  6
CONTINUOUS
 10
99.4893628475
 20
778.4797683109
 11
100.0893628475
 21
778.4797683109
  0
LINE
  5
46A
100
AcDbEntity
  8
7_ALL_FEATURES
100
AcDbLine
 62
7
  6
CONTINUOUS
 10
102.4893628475
 20
778.4797683109
 11
103.0893628475
 21
778.4797683109
  0
LINE
  5
46B
100
AcDbEntity
  8
7_ALL_FEATURES
100
AcDbLine
 62
7
  6
CONTINUOUS
 10
105.4893628475
 20
778.4797683109
 11
106.0893628475
 21
778.4797683109
  0
LINE
  5
46C
100
AcDbEntity
  8
7_ALL_FEATURES
100
AcDbLine
 62
7
  6
CONTINUOUS
 10
108.4893628475
 20
778.4797683109
 11
109.0893628475
 21
778.4797683109
  0
LINE
  5
46D
100
AcDbEntity
  8
7_ALL_FEATURES
100
AcDbLine
 62
7
  6
CONTINUOUS
 10
111.4893628475
 20
778.4797683109
 11
112.0893628475
 21
778.4797683109
  0
LINE
  5
46E
100
AcDbEntity
  8
3_ALL_AXES
100
AcDbLine
 62
7
  6
CONTINUOUS
 10
158.7893628475
 20
778.4797683109
 11
161.1893628475
 21
778.4797683109
  0
LINE
  5
46F
100
AcDbEntity
  8
7_ALL_FEATURES
100
AcDbLine
 62
7
  6
CONTINUOUS
 10
156.2393628475
 20
778.4797683109
 11
158.7893628475
 21
778.4797683109
  0
LINE
  5
470
100
AcDbEntity
  8
7_ALL_FEATURES
100
AcDbLine
 62
7
  6
CONTINUOUS
 10
161.1893628475
 20
778.4797683109
 11
161.7893628475
 21
778.4797683109
  0
LINE
  5
471
100
AcDbEntity
  8
3_ALL_AXES
100
AcDbLine
 62
7
  6
CONTINUOUS
 10
161.7893628475
 20
778.4797683109
 11
164.1893628475
 21
778.4797683109
  0
LINE
  5
472
100
AcDbEntity
  8
3_ALL_AXES
100
AcDbLine
 62
7
  6
CONTINUOUS
 10
164.7893628475
 20
778.4797683109
 11
167.1893628475
 21
778.4797683109
  0
LINE
  5
473
100
AcDbEntity
  8
7_ALL_FEATURES
100
AcDbLine
 62
7
  6
CONTINUOUS
 10
164.1893628475
 20
778.4797683109
 11
164.7893628475
 21
778.4797683109
  0
LINE
  5
474
100
AcDbEntity
  8
7_ALL_FEATURES
100
AcDbLine
 62
7
  6
CONTINUOUS
 10
167.1893628475
 20
778.4797683109
 11
167.7893628475
 21
778.4797683109
  0
LINE
  5
475
100
AcDbEntity
  8
3_ALL_AXES
100
AcDbLine
 62
7
  6
CONTINUOUS
 10
167.7893628475
 20
778.4797683109
 11
170.1893628475
 21
778.4797683109
  0
LINE
  5
476
100
AcDbEntity
  8
3_ALL_AXES
100
AcDbLine
 62
7
  6
CONTINUOUS
 10
170.7893628475
 20
778.4797683109
 11
173.6893628475
 21
778.4797683109
  0
LINE
  5
477
100
AcDbEntity
  8
7_ALL_FEATURES
100
AcDbLine
 62
7
  6
CONTINUOUS
 10
170.1893628475
 20
778.4797683109
 11
170.7893628475
 21
778.4797683109
  0
LINE
  5
478
100
AcDbEntity
  8
7_ALL_FEATURES
100
AcDbLine
 62
7
  6
CONTINUOUS
 10
173.6893628475
 20
778.4797683109
 11
714.0893628475
 21
778.4797683109
  0
LINE
  5
479
100
AcDbEntity
  8
7_ALL_FEATURES
100
AcDbLine
 62
9
  6
CONTINUOUS
 10
117.0393628475
 20
778.6797683109
 11
116.8393628475
 21
778.6797683109
  0
LINE
  5
47A
100
AcDbEntity
  8
7_ALL_FEATURES
100
AcDbLine
 62
9
  6
CONTINUOUS
 10
118.1893628475
 20
778.6797683109
 11
152.4393628475
 21
778.6797683109
  0
LINE
  5
47B
100
AcDbEntity
  8
7_ALL_FEATURES
100
AcDbLine
 62
9
  6
CONTINUOUS
 10
155.9393628475
 20
778.7797683109
 11
714.0893628475
 21
778.7797683109
  0
LINE
  5
47C
100
AcDbEntity
  8
7_ALL_FEATURES
100
AcDbLine
 62
7
  6
CONTINUOUS
 10
152.2393628475
 20
778.8797683109
 11
118.0393628475
 21
778.8797683109
  0
LINE
  5
47D
100
AcDbEntity
  8
7_ALL_FEATURES
100
AcDbLine
 62
7
  6
CONTINUOUS
 10
116.8393628475
 20
778.9797683109
 11
115.9893628475
 21
778.9797683109
  0
LINE
  5
47E
100
AcDbEntity
  8
6_ALL_SURFS
100
AcDbLine
 62
7
  6
CONTINUOUS
 10
116.5393628475
 20
778.9797683109
 11
115.8893628475
 21
778.9797683109
  0
LINE
  5
47F
100
AcDbEntity
  8
7_ALL_FEATURES
100
AcDbLine
 62
7
  6
CONTINUOUS
 10
153.4393628475
 20
778.9797683109
 11
154.3893628475
 21
778.9797683109
  0
LINE
  5
480
100
AcDbEntity
  8
7_ALL_FEATURES
100
AcDbLine
 62
9
  6
CONTINUOUS
 10
115.5893628475
 20
779.2797683109
 11
115.7893628475
 21
779.2797683109
  0
LINE
  5
481
100
AcDbEntity
  8
7_ALL_FEATURES
100
AcDbLine
 62
9
  6
CONTINUOUS
 10
714.0893628475
 20
779.6797683109
 11
155.9393628475
 21
779.6797683109
  0
LINE
  5
482
100
AcDbEntity
  8
7_ALL_FEATURES
100
AcDbLine
 62
9
  6
CONTINUOUS
 10
115.7893628475
 20
779.6797683109
 11
115.5893628475
 21
779.6797683109
  0
LINE
  5
483
100
AcDbEntity
  8
6_ALL_SURFS
100
AcDbLine
 62
7
  6
CONTINUOUS
 10
115.2893628475
 20
779.9797683109
 11
114.6393628475
 21
779.9797683109
  0
LINE
  5
484
100
AcDbEntity
  8
7_ALL_FEATURES
100
AcDbLine
 62
7
  6
CONTINUOUS
 10
115.2893628475
 20
779.9797683109
 11
714.0893628475
 21
779.9797683109
  0
LINE
  5
485
100
AcDbEntity
  8
6_ALL_SURFS
100
AcDbLine
 62
7
  6
CONTINUOUS
 10
96.5893628475
 20
778.4797683109
 11
94.4438912571
 21
778.2652211519
  0
LINE
  5
486
100
AcDbEntity
  8
3_ALL_AXES
100
AcDbLine
 62
7
  6
CONTINUOUS
 10
714.0893628475
 20
777.4797683109
 11
714.0893628475
 21
777.3297683109
  0
LINE
  5
487
100
AcDbEntity
  8
7_ALL_FEATURES
100
AcDbLine
 62
7
  6
CONTINUOUS
 10
714.0893628475
 20
779.9797683109
 11
714.0893628475
 21
777.4797683109
  0
LINE
  5
488
100
AcDbEntity
  8
7_ALL_FEATURES
100
AcDbLine
 62
7
  6
CONTINUOUS
 10
714.0893628475
 20
777.3297683109
 11
714.0893628475
 21
700.1797683109
  0
LINE
  5
489
100
AcDbEntity
  8
6_ALL_SURFS
100
AcDbLine
 62
7
  6
CONTINUOUS
 10
786.6990176569
 20
42.8923209622
 11
866.4990176569
 21
42.8923209622
  0
LINE
  5
48A
100
AcDbEntity
  8
7_ALL_FEATURES
100
AcDbLine
 62
7
  6
CONTINUOUS
 10
780.3990176569
 20
598.3423209622
 11
780.8990176569
 21
598.8423209622
  0
LINE
  5
48B
100
AcDbEntity
  8
7_ALL_FEATURES
100
AcDbLine
 62
7
  6
CONTINUOUS
 10
780.3990176569
 20
569.8423209622
 11
780.8990176569
 21
570.3423209622
  0
LINE
  5
48C
100
AcDbEntity
  8
7_ALL_FEATURES
100
AcDbLine
 62
7
  6
CONTINUOUS
 10
861.7635206659
 20
609.9893515147
 11
859.2298271757
 21
607.6266441114
  0
LINE
  5
48D
100
AcDbEntity
  8
7_ALL_FEATURES
100
AcDbLine
 62
7
  6
CONTINUOUS
 10
815.8329922532
 20
542.4423209622
 11
814.9669668494
 21
540.9423209622
  0
LINE
  5
48E
100
AcDbEntity
  8
7_ALL_FEATURES
100
AcDbLine
 62
7
  6
CONTINUOUS
 10
817.5650430607
 20
539.4423209622
 11
818.4310684645
 21
540.9423209622
  0
LINE
  5
48F
100
AcDbEntity
  8
7_ALL_FEATURES
100
AcDbLine
 62
7
  6
CONTINUOUS
 10
863.9990176569
 20
627.9923209622
 11
863.8490176569
 21
627.6923209622
  0
LINE
  5
490
100
AcDbEntity
  8
7_ALL_FEATURES
100
AcDbLine
 62
7
  6
CONTINUOUS
 10
780.3990176569
 20
565.8423209622
 11
780.3990176569
 21
569.8423209622
  0
LINE
  5
491
100
AcDbEntity
  8
7_ALL_FEATURES
100
AcDbLine
 62
7
  6
CONTINUOUS
 10
780.3990176569
 20
594.3423209622
 11
780.3990176569
 21
598.3423209622
  0
LINE
  5
492
100
AcDbEntity
  8
7_ALL_FEATURES
100
AcDbLine
 62
7
  6
CONTINUOUS
 10
780.8990176569
 20
565.3423209622
 11
780.8990176569
 21
570.3423209622
  0
LINE
  5
493
100
AcDbEntity
  8
7_ALL_FEATURES
100
AcDbLine
 62
7
  6
CONTINUOUS
 10
780.8990176569
 20
593.8423209622
 11
780.8990176569
 21
598.8423209622
  0
LINE
  5
494
100
AcDbEntity
  8
3_ALL_AXES
100
AcDbLine
 62
7
  6
CONTINUOUS
 10
781.6990176569
 20
600.6923209622
 11
781.6990176569
 21
591.9923209622
  0
LINE
  5
495
100
AcDbEntity
  8
3_ALL_AXES
100
AcDbLine
 62
7
  6
CONTINUOUS
 10
781.6990176569
 20
572.6923209622
 11
781.6990176569
 21
563.9923209622
  0
LINE
  5
496
100
AcDbEntity
  8
7_ALL_FEATURES
100
AcDbLine
 62
3
  6
CONTINUOUS
 10
783.6990176569
 20
608.8423209622
 11
783.6990176569
 21
553.8423209622
  0
LINE
  5
497
100
AcDbEntity
  8
7_ALL_FEATURES
100
AcDbLine
 62
7
  6
CONTINUOUS
 10
786.6990176569
 20
42.8923209622
 11
786.6990176569
 21
608.8423209622
  0
LINE
  5
498
100
AcDbEntity
  8
7_ALL_FEATURES
100
AcDbLine
 62
9
  6
CONTINUOUS
 10
786.9990176569
 20
42.8923209622
 11
786.9990176569
 21
605.3423209622
  0
LINE
  5
499
100
AcDbEntity
  8
7_ALL_FEATURES
100
AcDbLine
 62
9
  6
CONTINUOUS
 10
787.6990176569
 20
605.3423209622
 11
787.6990176569
 21
42.8923209622
  0
LINE
  5
49A
100
AcDbEntity
  8
7_ALL_FEATURES
100
AcDbLine
 62
7
  6
CONTINUOUS
 10
788.1990176569
 20
604.8423209622
 11
788.1990176569
 21
42.8923209622
  0
LINE
  5
49B
100
AcDbEntity
  8
7_ALL_FEATURES
100
AcDbLine
 62
9
  6
CONTINUOUS
 10
788.6345015279
 20
42.8923209622
 11
788.6345015279
 21
603.8405201055
  0
LINE
  5
49C
100
AcDbEntity
  8
7_ALL_FEATURES
100
AcDbLine
 62
9
  6
CONTINUOUS
 10
791.6603079795
 20
42.8923209622
 11
791.6603079795
 21
603.5189827181
  0
LINE
  5
49D
100
AcDbEntity
  8
7_ALL_FEATURES
100
AcDbLine
 62
9
  6
CONTINUOUS
 10
792.122816656
 20
603.6295828237
 11
792.122816656
 21
42.8923209622
  0
LINE
  5
49E
100
AcDbEntity
  8
7_ALL_FEATURES
100
AcDbLine
 62
9
  6
CONTINUOUS
 10
792.8190403721
 20
604.197166651
 11
792.8190403721
 21
42.8923209622
  0
LINE
  5
49F
100
AcDbEntity
  8
7_ALL_FEATURES
100
AcDbLine
 62
9
  6
CONTINUOUS
 10
806.471305658
 20
607.2238009978
 11
806.471305658
 21
42.8923209622
  0
LINE
  5
4A0
100
AcDbEntity
  8
7_ALL_FEATURES
100
AcDbLine
 62
9
  6
CONTINUOUS
 10
807.5535037277
 20
607.3423209622
 11
807.5535037277
 21
42.8923209622
  0
LINE
  5
4A1
100
AcDbEntity
  8
7_ALL_FEATURES
100
AcDbLine
 62
9
  6
CONTINUOUS
 10
852.2990176569
 20
42.8923209622
 11
852.2990176569
 21
607.3423209622
  0
LINE
  5
4A2
100
AcDbEntity
  8
7_ALL_FEATURES
100
AcDbLine
 62
7
  6
CONTINUOUS
 10
852.5990176569
 20
608.5423209622
 11
852.5990176569
 21
42.8923209622
  0
LINE
  5
4A3
100
AcDbEntity
  8
7_ALL_FEATURES
100
AcDbLine
 62
9
  6
CONTINUOUS
 10
854.5990176569
 20
610.5423209622
 11
854.5990176569
 21
42.8923209622
  0
LINE
  5
4A4
100
AcDbEntity
  8
7_ALL_FEATURES
100
AcDbLine
 62
9
  6
CONTINUOUS
 10
856.3990176569
 20
610.5423209622
 11
856.3990176569
 21
42.8923209622
  0
LINE
  5
4A5
100
AcDbEntity
  8
7_ALL_FEATURES
100
AcDbLine
 62
7
  6
CONTINUOUS
 10
858.3990176569
 20
608.5423209622
 11
858.3990176569
 21
42.8923209622
  0
LINE
  5
4A6
100
AcDbEntity
  8
7_ALL_FEATURES
100
AcDbLine
 62
9
  6
CONTINUOUS
 10
858.6990176569
 20
42.8923209622
 11
858.6990176569
 21
607.4923209622
  0
LINE
  5
4A7
100
AcDbEntity
  8
7_ALL_FEATURES
100
AcDbLine
 62
9
  6
CONTINUOUS
 10
858.8888279957
 20
42.8923209622
 11
858.8888279957
 21
607.4923209622
  0
LINE
  5
4A8
100
AcDbEntity
  8
7_ALL_FEATURES
100
AcDbLine
 62
9
  6
CONTINUOUS
 10
859.2298271757
 20
42.8923209622
 11
859.2298271757
 21
607.6266441114
  0
LINE
  5
4A9
100
AcDbEntity
  8
7_ALL_FEATURES
100
AcDbLine
 62
9
  6
CONTINUOUS
 10
861.7635206659
 20
609.9893515147
 11
861.7635206659
 21
42.8923209622
  0
LINE
  5
4AA
100
AcDbEntity
  8
7_ALL_FEATURES
100
AcDbLine
 62
9
  6
CONTINUOUS
 10
862.786518206
 20
610.3923209622
 11
862.786518206
 21
42.8923209622
  0
LINE
  5
4AB
100
AcDbEntity
  8
7_ALL_FEATURES
100
AcDbLine
 62
9
  6
CONTINUOUS
 10
863.6990176569
 20
42.8923209622
 11
863.6990176569
 21
610.3923209622
  0
LINE
  5
4AC
100
AcDbEntity
  8
6_ALL_SURFS
100
AcDbLine
 62
7
  6
CONTINUOUS
 10
863.8490176569
 20
42.8923209622
 11
863.8490176569
 21
83.7261305833
  0
LINE
  5
4AD
100
AcDbEntity
  8
7_ALL_FEATURES
100
AcDbLine
 62
7
  6
CONTINUOUS
 10
863.8490176569
 20
83.7261305833
 11
863.8490176569
 21
86.0585113412
  0
LINE
  5
4AE
100
AcDbEntity
  8
6_ALL_SURFS
100
AcDbLine
 62
7
  6
CONTINUOUS
 10
863.8490176569
 20
86.0585113412
 11
863.8490176569
 21
283.7261305833
  0
LINE
  5
4AF
100
AcDbEntity
  8
7_ALL_FEATURES
100
AcDbLine
 62
7
  6
CONTINUOUS
 10
863.8490176569
 20
283.7261305833
 11
863.8490176569
 21
286.0585113412
  0
LINE
  5
4B0
100
AcDbEntity
  8
6_ALL_SURFS
100
AcDbLine
 62
7
  6
CONTINUOUS
 10
863.8490176569
 20
286.0585113412
 11
863.8490176569
 21
483.7261305833
  0
LINE
  5
4B1
100
AcDbEntity
  8
7_ALL_FEATURES
100
AcDbLine
 62
7
  6
CONTINUOUS
 10
863.8490176569
 20
483.7261305833
 11
863.8490176569
 21
627.6923209622
  0
LINE
  5
4B2
100
AcDbEntity
  8
7_ALL_FEATURES
100
AcDbLine
 62
7
  6
CONTINUOUS
 10
863.9990176569
 20
629.9986176043
 11
863.9990176569
 21
42.8923209622
  0
LINE
  5
4B3
100
AcDbEntity
  8
7_ALL_FEATURES
100
AcDbLine
 62
9
  6
CONTINUOUS
 10
864.7844704979
 20
630.0377925526
 11
864.7844704979
 21
42.8923209622
  0
LINE
  5
4B4
100
AcDbEntity
  8
6_ALL_SURFS
100
AcDbLine
 62
7
  6
CONTINUOUS
 10
864.9990176569
 20
42.8923209622
 11
864.9990176569
 21
488.1757287559
  0
LINE
  5
4B5
100
AcDbEntity
  8
7_ALL_FEATURES
100
AcDbLine
 62
7
  6
CONTINUOUS
 10
864.9990176569
 20
488.1757287559
 11
864.9990176569
 21
627.8923209622
  0
LINE
  5
4B6
100
AcDbEntity
  8
7_ALL_FEATURES
100
AcDbLine
 62
9
  6
CONTINUOUS
 10
865.2990176569
 20
42.8923209622
 11
865.2990176569
 21
610.1423209622
  0
LINE
  5
4B7
100
AcDbEntity
  8
7_ALL_FEATURES
100
AcDbLine
 62
9
  6
CONTINUOUS
 10
866.1990176569
 20
610.1423209622
 11
866.1990176569
 21
42.8923209622
  0
LINE
  5
4B8
100
AcDbEntity
  8
7_ALL_FEATURES
100
AcDbLine
 62
7
  6
CONTINUOUS
 10
866.4990176569
 20
609.8423209622
 11
866.4990176569
 21
42.8923209622
  0
LINE
  5
4B9
100
AcDbEntity
  8
7_ALL_FEATURES
100
AcDbLine
 62
7
  6
CONTINUOUS
 10
864.9990176569
 20
627.8923209622
 11
864.7844704979
 21
630.0377925526
  0
LINE
  5
4BA
100
AcDbEntity
  8
7_ALL_FEATURES
100
AcDbLine
 62
7
  6
CONTINUOUS
 10
814.9669668494
 20
540.9423209622
 11
815.8329922532
 21
539.4423209622
  0
LINE
  5
4BB
100
AcDbEntity
  8
7_ALL_FEATURES
100
AcDbLine
 62
7
  6
CONTINUOUS
 10
818.4310684645
 20
540.9423209622
 11
817.5650430607
 21
542.4423209622
  0
LINE
  5
4BC
100
AcDbEntity
  8
7_ALL_FEATURES
100
AcDbLine
 62
7
  6
CONTINUOUS
 10
780.3990176569
 20
565.8423209622
 11
780.8990176569
 21
565.3423209622
  0
LINE
  5
4BD
100
AcDbEntity
  8
7_ALL_FEATURES
100
AcDbLine
 62
7
  6
CONTINUOUS
 10
780.3990176569
 20
594.3423209622
 11
780.8990176569
 21
593.8423209622
  0
LINE
  5
4BE
100
AcDbEntity
  8
7_ALL_FEATURES
100
AcDbLine
 62
7
  6
CONTINUOUS
 10
815.8329922532
 20
539.4423209622
 11
817.5650430607
 21
539.4423209622
  0
LINE
  5
4BF
100
AcDbEntity
  8
7_ALL_FEATURES
100
AcDbLine
 62
7
  6
CONTINUOUS
 10
817.5650430607
 20
542.4423209622
 11
815.8329922532
 21
542.4423209622
  0
LINE
  5
4C0
100
AcDbEntity
  8
7_ALL_FEATURES
100
AcDbLine
 62
7
  6
CONTINUOUS
 10
783.6990176569
 20
553.8423209622
 11
786.6990176569
 21
553.8423209622
  0
LINE
  5
4C1
100
AcDbEntity
  8
3_ALL_AXES
100
AcDbLine
 62
7
  6
CONTINUOUS
 10
781.6990176569
 20
563.9923209622
 11
783.6990176569
 21
563.9923209622
  0
LINE
  5
4C2
100
AcDbEntity
  8
3_ALL_AXES
100
AcDbLine
 62
7
  6
CONTINUOUS
 10
780.8990176569
 20
565.3423209622
 11
781.6990176569
 21
565.3423209622
  0
LINE
  5
4C3
100
AcDbEntity
  8
3_ALL_AXES
100
AcDbLine
 62
7
  6
CONTINUOUS
 10
780.8990176569
 20
570.3423209622
 11
781.6990176569
 21
570.3423209622
  0
LINE
  5
4C4
100
AcDbEntity
  8
3_ALL_AXES
100
AcDbLine
 62
7
  6
CONTINUOUS
 10
781.6990176569
 20
572.6923209622
 11
783.6990176569
 21
572.6923209622
  0
LINE
  5
4C5
100
AcDbEntity
  8
3_ALL_AXES
100
AcDbLine
 62
7
  6
CONTINUOUS
 10
781.6990176569
 20
591.9923209622
 11
783.6990176569
 21
591.9923209622
  0
LINE
  5
4C6
100
AcDbEntity
  8
3_ALL_AXES
100
AcDbLine
 62
7
  6
CONTINUOUS
 10
780.8990176569
 20
593.8423209622
 11
781.6990176569
 21
593.8423209622
  0
LINE
  5
4C7
100
AcDbEntity
  8
7_ALL_FEATURES
100
AcDbLine
 62
7
  6
CONTINUOUS
 10
806.471305658
 20
607.2238009978
 11
792.8190403721
 21
604.197166651
  0
LINE
  5
4C8
100
AcDbEntity
  8
3_ALL_AXES
100
AcDbLine
 62
7
  6
CONTINUOUS
 10
780.8990176569
 20
598.8423209622
 11
781.6990176569
 21
598.8423209622
  0
LINE
  5
4C9
100
AcDbEntity
  8
3_ALL_AXES
100
AcDbLine
 62
7
  6
CONTINUOUS
 10
781.6990176569
 20
600.6923209622
 11
783.6990176569
 21
600.6923209622
  0
LINE
  5
4CA
100
AcDbEntity
  8
7_ALL_FEATURES
100
AcDbLine
 62
7
  6
CONTINUOUS
 10
787.6990176569
 20
605.3423209622
 11
786.9990176569
 21
605.3423209622
  0
LINE
  5
4CB
100
AcDbEntity
  8
7_ALL_FEATURES
100
AcDbLine
 62
7
  6
CONTINUOUS
 10
852.2990176569
 20
607.3423209622
 11
807.5535037277
 21
607.3423209622
  0
LINE
  5
4CC
100
AcDbEntity
  8
7_ALL_FEATURES
100
AcDbLine
 62
7
  6
CONTINUOUS
 10
858.8888279957
 20
607.4923209622
 11
858.6990176569
 21
607.4923209622
  0
LINE
  5
4CD
100
AcDbEntity
  8
7_ALL_FEATURES
100
AcDbLine
 62
7
  6
CONTINUOUS
 10
783.6990176569
 20
608.8423209622
 11
786.6990176569
 21
608.8423209622
  0
LINE
  5
4CE
100
AcDbEntity
  8
7_ALL_FEATURES
100
AcDbLine
 62
7
  6
CONTINUOUS
 10
866.1990176569
 20
610.1423209622
 11
865.2990176569
 21
610.1423209622
  0
LINE
  5
4CF
100
AcDbEntity
  8
7_ALL_FEATURES
100
AcDbLine
 62
7
  6
CONTINUOUS
 10
863.6990176569
 20
610.3923209622
 11
862.786518206
 21
610.3923209622
  0
LINE
  5
4D0
100
AcDbEntity
  8
7_ALL_FEATURES
100
AcDbLine
 62
7
  6
CONTINUOUS
 10
856.3990176569
 20
610.5423209622
 11
854.5990176569
 21
610.5423209622
  0
ARC
  5
4D1
100
AcDbEntity
  8
6_ALL_SURFS
100
AcDbCircle
 62
7
  6
CONTINUOUS
 10
100.0893628475
 20
284.8923209622
 40
4.7990381057
100
AcDbArc
 50
223.171184019
 51
262.8177973595
  0
ARC
  5
4D2
100
AcDbEntity
  8
6_ALL_SURFS
100
AcDbCircle
 62
7
  6
CONTINUOUS
 10
100.0893628475
 20
84.8923209622
 40
4.7990381057
100
AcDbArc
 50
223.171184019
 51
262.8177973595
  0
ARC
  5
4D3
100
AcDbEntity
  8
6_ALL_SURFS
100
AcDbCircle
 62
7
  6
CONTINUOUS
 10
100.0893628475
 20
284.8923209622
 40
4.7990381057
100
AcDbArc
 50
59.9933694481
 51
90.0
  0
ARC
  5
4D4
100
AcDbEntity
  8
6_ALL_SURFS
100
AcDbCircle
 62
7
  6
CONTINUOUS
 10
100.0893628475
 20
84.8923209622
 40
4.7990381057
100
AcDbArc
 50
59.9933694481
 51
90.0
  0
ARC
  5
4D5
100
AcDbEntity
  8
6_ALL_SURFS
100
AcDbCircle
 62
7
  6
CONTINUOUS
 10
100.0893628475
 20
284.8923209622
 40
4.7990381057
100
AcDbArc
 50
270.0
 51
300.0066305519
  0
ARC
  5
4D6
100
AcDbEntity
  8
6_ALL_SURFS
100
AcDbCircle
 62
7
  6
CONTINUOUS
 10
100.0893628475
 20
84.8923209622
 40
4.7990381057
100
AcDbArc
 50
270.0
 51
300.0066305519
  0
ARC
  5
4D7
100
AcDbEntity
  8
6_ALL_SURFS
100
AcDbCircle
 62
7
  6
CONTINUOUS
 10
100.0893628475
 20
284.8923209622
 40
4.7990381057
100
AcDbArc
 50
308.6913826582
 51
51.3086173418
  0
ARC
  5
4D8
100
AcDbEntity
  8
6_ALL_SURFS
100
AcDbCircle
 62
7
  6
CONTINUOUS
 10
100.0893628475
 20
84.8923209622
 40
4.7990381057
100
AcDbArc
 50
308.6913826582
 51
51.3086173418
  0
ARC
  5
4D9
100
AcDbEntity
  8
7_ALL_FEATURES
100
AcDbCircle
 62
7
  6
CONTINUOUS
 10
170.1893628475
 20
284.8923209622
 40
4.7990381057
100
AcDbArc
 50
128.6913826582
 51
231.3086173418
  0
ARC
  5
4DA
100
AcDbEntity
  8
7_ALL_FEATURES
100
AcDbCircle
 62
7
  6
CONTINUOUS
 10
170.1893628475
 20
84.8923209622
 40
4.7990381057
100
AcDbArc
 50
128.6913826582
 51
231.3086173418
  0
ARC
  5
4DB
100
AcDbEntity
  8
7_ALL_FEATURES
100
AcDbCircle
 62
7
  6
CONTINUOUS
 10
170.1893628475
 20
84.8923209622
 40
4.7990381057
100
AcDbArc
 50
239.9933694481
 51
270.0
  0
ARC
  5
4DC
100
AcDbEntity
  8
7_ALL_FEATURES
100
AcDbCircle
 62
7
  6
CONTINUOUS
 10
170.1893628475
 20
284.8923209622
 40
4.7990381057
100
AcDbArc
 50
239.9933694481
 51
270.0
  0
ARC
  5
4DD
100
AcDbEntity
  8
7_ALL_FEATURES
100
AcDbCircle
 62
7
  6
CONTINUOUS
 10
170.1893628475
 20
84.8923209622
 40
4.7990381057
100
AcDbArc
 50
90.0
 51
120.0066305519
  0
ARC
  5
4DE
100
AcDbEntity
  8
7_ALL_FEATURES
100
AcDbCircle
 62
7
  6
CONTINUOUS
 10
170.1893628475
 20
284.8923209622
 40
4.7990381057
100
AcDbArc
 50
90.0
 51
120.0066305519
  0
ARC
  5
4DF
100
AcDbEntity
  8
7_ALL_FEATURES
100
AcDbCircle
 62
7
  6
CONTINUOUS
 10
170.1893628475
 20
84.8923209622
 40
4.7990381057
100
AcDbArc
 50
277.1822026405
 51
316.828815981
  0
ARC
  5
4E0
100
AcDbEntity
  8
7_ALL_FEATURES
100
AcDbCircle
 62
7
  6
CONTINUOUS
 10
170.1893628475
 20
284.8923209622
 40
4.7990381057
100
AcDbArc
 50
277.1822026405
 51
316.828815981
  0
ARC
  5
4E1
100
AcDbEntity
  8
7_ALL_FEATURES
100
AcDbCircle
 62
7
  6
CONTINUOUS
 10
170.1893628475
 20
84.8923209622
 40
4.7990381057
100
AcDbArc
 50
43.171184019
 51
82.8177973595
  0
ARC
  5
4E2
100
AcDbEntity
  8
7_ALL_FEATURES
100
AcDbCircle
 62
7
  6
CONTINUOUS
 10
170.1893628475
 20
284.8923209622
 40
4.7990381057
100
AcDbArc
 50
43.171184019
 51
82.8177973595
  0
ARC
  5
4E3
100
AcDbEntity
  8
6_ALL_SURFS
100
AcDbCircle
 62
7
  6
CONTINUOUS
 10
100.0893628475
 20
284.8923209622
 40
4.7990381057
100
AcDbArc
 50
97.1822026405
 51
136.828815981
  0
ARC
  5
4E4
100
AcDbEntity
  8
6_ALL_SURFS
100
AcDbCircle
 62
7
  6
CONTINUOUS
 10
100.0893628475
 20
84.8923209622
 40
4.7990381057
100
AcDbArc
 50
97.1822026405
 51
136.828815981
  0
CIRCLE
  5
4E5
100
AcDbEntity
  8
6_ALL_SURFS
100
AcDbCircle
 62
7
  6
CONTINUOUS
 10
100.0893628475
 20
284.8923209622
 40
3.5
  0
CIRCLE
  5
4E6
100
AcDbEntity
  8
6_ALL_SURFS
100
AcDbCircle
 62
7
  6
CONTINUOUS
 10
100.0893628475
 20
84.8923209622
 40
3.5
  0
CIRCLE
  5
4E7
100
AcDbEntity
  8
6_ALL_SURFS
100
AcDbCircle
 62
7
  6
CONTINUOUS
 10
170.1893628475
 20
284.8923209622
 40
3.5
  0
CIRCLE
  5
4E8
100
AcDbEntity
  8
6_ALL_SURFS
100
AcDbCircle
 62
7
  6
CONTINUOUS
 10
170.1893628475
 20
84.8923209622
 40
3.5
  0
ARC
  5
4E9
100
AcDbEntity
  8
6_ALL_SURFS
100
AcDbCircle
 62
7
  6
CONTINUOUS
 10
100.0893628475
 20
484.8923209622
 40
4.7990381057
100
AcDbArc
 50
59.9933694481
 51
90.0
  0
ARC
  5
4EA
100
AcDbEntity
  8
6_ALL_SURFS
100
AcDbCircle
 62
7
  6
CONTINUOUS
 10
100.0893628475
 20
484.8923209622
 40
4.7990381057
100
AcDbArc
 50
270.0
 51
300.0066305519
  0
ARC
  5
4EB
100
AcDbEntity
  8
6_ALL_SURFS
100
AcDbCircle
 62
7
  6
CONTINUOUS
 10
100.0893628475
 20
484.8923209622
 40
4.7990381057
100
AcDbArc
 50
308.6913826582
 51
51.3086173418
  0
ARC
  5
4EC
100
AcDbEntity
  8
7_ALL_FEATURES
100
AcDbCircle
 62
7
  6
CONTINUOUS
 10
170.1893628475
 20
484.8923209622
 40
4.7990381057
100
AcDbArc
 50
128.6913826582
 51
231.3086173418
  0
ARC
  5
4ED
100
AcDbEntity
  8
7_ALL_FEATURES
100
AcDbCircle
 62
7
  6
CONTINUOUS
 10
170.1893628475
 20
484.8923209622
 40
4.7990381057
100
AcDbArc
 50
239.9933694481
 51
270.0
  0
ARC
  5
4EE
100
AcDbEntity
  8
7_ALL_FEATURES
100
AcDbCircle
 62
7
  6
CONTINUOUS
 10
170.1893628475
 20
484.8923209622
 40
4.7990381057
100
AcDbArc
 50
90.0
 51
120.0066305519
  0
ARC
  5
4EF
100
AcDbEntity
  8
7_ALL_FEATURES
100
AcDbCircle
 62
7
  6
CONTINUOUS
 10
170.1893628475
 20
484.8923209622
 40
4.7990381057
100
AcDbArc
 50
277.1822026405
 51
316.828815981
  0
ARC
  5
4F0
100
AcDbEntity
  8
7_ALL_FEATURES
100
AcDbCircle
 62
7
  6
CONTINUOUS
 10
170.1893628475
 20
484.8923209622
 40
4.7990381057
100
AcDbArc
 50
43.171184019
 51
82.8177973595
  0
ARC
  5
4F1
100
AcDbEntity
  8
6_ALL_SURFS
100
AcDbCircle
 62
7
  6
CONTINUOUS
 10
100.0893628475
 20
484.8923209622
 40
4.7990381057
100
AcDbArc
 50
97.1822026405
 51
136.828815981
  0
ARC
  5
4F2
100
AcDbEntity
  8
6_ALL_SURFS
100
AcDbCircle
 62
7
  6
CONTINUOUS
 10
100.0893628475
 20
484.8923209622
 40
4.7990381057
100
AcDbArc
 50
223.171184019
 51
262.8177973595
  0
ARC
  5
4F3
100
AcDbEntity
  8
6_ALL_SURFS
100
AcDbCircle
 62
7
  6
CONTINUOUS
 10
221.0893628475
 20
624.3923209622
 40
4.7990381057
100
AcDbArc
 50
133.171184019
 51
172.8177973595
  0
ARC
  5
4F4
100
AcDbEntity
  8
6_ALL_SURFS
100
AcDbCircle
 62
7
  6
CONTINUOUS
 10
221.0893628475
 20
624.3923209622
 40
4.7990381057
100
AcDbArc
 50
329.9933694481
 51
360.0
  0
ARC
  5
4F5
100
AcDbEntity
  8
6_ALL_SURFS
100
AcDbCircle
 62
7
  6
CONTINUOUS
 10
221.0893628475
 20
624.3923209622
 40
4.7990381057
100
AcDbArc
 50
180.0
 51
210.0066305519
  0
ARC
  5
4F6
100
AcDbEntity
  8
6_ALL_SURFS
100
AcDbCircle
 62
7
  6
CONTINUOUS
 10
221.0893628475
 20
624.3923209622
 40
4.7990381057
100
AcDbArc
 50
218.6913826582
 51
321.3086173418
  0
ARC
  5
4F7
100
AcDbEntity
  8
7_ALL_FEATURES
100
AcDbCircle
 62
7
  6
CONTINUOUS
 10
221.0893628475
 20
554.2923209622
 40
4.7990381057
100
AcDbArc
 50
38.6913826582
 51
141.3086173418
  0
ARC
  5
4F8
100
AcDbEntity
  8
7_ALL_FEATURES
100
AcDbCircle
 62
7
  6
CONTINUOUS
 10
221.0893628475
 20
554.2923209622
 40
4.7990381057
100
AcDbArc
 50
149.9933694481
 51
180.0
  0
ARC
  5
4F9
100
AcDbEntity
  8
7_ALL_FEATURES
100
AcDbCircle
 62
7
  6
CONTINUOUS
 10
221.0893628475
 20
554.2923209622
 40
4.7990381057
100
AcDbArc
 50
0.0
 51
30.0066305519
  0
ARC
  5
4FA
100
AcDbEntity
  8
7_ALL_FEATURES
100
AcDbCircle
 62
7
  6
CONTINUOUS
 10
221.0893628475
 20
554.2923209622
 40
4.7990381057
100
AcDbArc
 50
187.1822026405
 51
226.828815981
  0
ARC
  5
4FB
100
AcDbEntity
  8
7_ALL_FEATURES
100
AcDbCircle
 62
7
  6
CONTINUOUS
 10
221.0893628475
 20
554.2923209622
 40
4.7990381057
100
AcDbArc
 50
313.171184019
 51
352.8177973595
  0
ARC
  5
4FC
100
AcDbEntity
  8
6_ALL_SURFS
100
AcDbCircle
 62
7
  6
CONTINUOUS
 10
221.0893628475
 20
624.3923209622
 40
4.7990381057
100
AcDbArc
 50
7.1822026405
 51
46.828815981
  0
CIRCLE
  5
4FD
100
AcDbEntity
  8
6_ALL_SURFS
100
AcDbCircle
 62
7
  6
CONTINUOUS
 10
100.0893628475
 20
484.8923209622
 40
3.5
  0
CIRCLE
  5
4FE
100
AcDbEntity
  8
6_ALL_SURFS
100
AcDbCircle
 62
7
  6
CONTINUOUS
 10
170.1893628475
 20
484.8923209622
 40
3.5
  0
CIRCLE
  5
4FF
100
AcDbEntity
  8
6_ALL_SURFS
100
AcDbCircle
 62
7
  6
CONTINUOUS
 10
221.0893628475
 20
624.3923209622
 40
3.5
  0
CIRCLE
  5
500
100
AcDbEntity
  8
6_ALL_SURFS
100
AcDbCircle
 62
7
  6
CONTINUOUS
 10
221.0893628475
 20
554.2923209622
 40
3.5
  0
ARC
  5
501
100
AcDbEntity
  8
6_ALL_SURFS
100
AcDbCircle
 62
7
  6
CONTINUOUS
 10
421.0893628475
 20
624.3923209622
 40
4.7990381057
100
AcDbArc
 50
133.171184019
 51
172.8177973595
  0
ARC
  5
502
100
AcDbEntity
  8
6_ALL_SURFS
100
AcDbCircle
 62
7
  6
CONTINUOUS
 10
621.0893628475
 20
624.3923209622
 40
4.7990381057
100
AcDbArc
 50
329.9933694481
 51
360.0
  0
ARC
  5
503
100
AcDbEntity
  8
6_ALL_SURFS
100
AcDbCircle
 62
7
  6
CONTINUOUS
 10
421.0893628475
 20
624.3923209622
 40
4.7990381057
100
AcDbArc
 50
329.9933694481
 51
360.0
  0
ARC
  5
504
100
AcDbEntity
  8
6_ALL_SURFS
100
AcDbCircle
 62
7
  6
CONTINUOUS
 10
621.0893628475
 20
624.3923209622
 40
4.7990381057
100
AcDbArc
 50
180.0
 51
210.0066305519
  0
ARC
  5
505
100
AcDbEntity
  8
6_ALL_SURFS
100
AcDbCircle
 62
7
  6
CONTINUOUS
 10
421.0893628475
 20
624.3923209622
 40
4.7990381057
100
AcDbArc
 50
180.0
 51
210.0066305519
  0
ARC
  5
506
100
AcDbEntity
  8
6_ALL_SURFS
100
AcDbCircle
 62
7
  6
CONTINUOUS
 10
421.0893628475
 20
624.3923209622
 40
4.7990381057
100
AcDbArc
 50
218.6913826582
 51
321.3086173418
  0
ARC
  5
507
100
AcDbEntity
  8
6_ALL_SURFS
100
AcDbCircle
 62
7
  6
CONTINUOUS
 10
621.0893628475
 20
624.3923209622
 40
4.7990381057
100
AcDbArc
 50
218.6913826582
 51
321.3086173418
  0
ARC
  5
508
100
AcDbEntity
  8
7_ALL_FEATURES
100
AcDbCircle
 62
7
  6
CONTINUOUS
 10
421.0893628475
 20
554.2923209622
 40
4.7990381057
100
AcDbArc
 50
38.6913826582
 51
141.3086173418
  0
ARC
  5
509
100
AcDbEntity
  8
7_ALL_FEATURES
100
AcDbCircle
 62
7
  6
CONTINUOUS
 10
621.0893628475
 20
554.2923209622
 40
4.7990381057
100
AcDbArc
 50
38.6913826582
 51
141.3086173418
  0
ARC
  5
50A
100
AcDbEntity
  8
7_ALL_FEATURES
100
AcDbCircle
 62
7
  6
CONTINUOUS
 10
421.0893628475
 20
554.2923209622
 40
4.7990381057
100
AcDbArc
 50
149.9933694481
 51
180.0
  0
ARC
  5
50B
100
AcDbEntity
  8
7_ALL_FEATURES
100
AcDbCircle
 62
7
  6
CONTINUOUS
 10
621.0893628475
 20
554.2923209622
 40
4.7990381057
100
AcDbArc
 50
149.9933694481
 51
180.0
  0
ARC
  5
50C
100
AcDbEntity
  8
7_ALL_FEATURES
100
AcDbCircle
 62
7
  6
CONTINUOUS
 10
421.0893628475
 20
554.2923209622
 40
4.7990381057
100
AcDbArc
 50
0.0
 51
30.0066305519
  0
ARC
  5
50D
100
AcDbEntity
  8
7_ALL_FEATURES
100
AcDbCircle
 62
7
  6
CONTINUOUS
 10
621.0893628475
 20
554.2923209622
 40
4.7990381057
100
AcDbArc
 50
0.0
 51
30.0066305519
  0
ARC
  5
50E
100
AcDbEntity
  8
7_ALL_FEATURES
100
AcDbCircle
 62
7
  6
CONTINUOUS
 10
421.0893628475
 20
554.2923209622
 40
4.7990381057
100
AcDbArc
 50
187.1822026405
 51
226.828815981
  0
ARC
  5
50F
100
AcDbEntity
  8
7_ALL_FEATURES
100
AcDbCircle
 62
7
  6
CONTINUOUS
 10
621.0893628475
 20
554.2923209622
 40
4.7990381057
100
AcDbArc
 50
187.1822026405
 51
226.828815981
  0
ARC
  5
510
100
AcDbEntity
  8
7_ALL_FEATURES
100
AcDbCircle
 62
7
  6
CONTINUOUS
 10
421.0893628475
 20
554.2923209622
 40
4.7990381057
100
AcDbArc
 50
313.171184019
 51
352.8177973595
  0
ARC
  5
511
100
AcDbEntity
  8
7_ALL_FEATURES
100
AcDbCircle
 62
7
  6
CONTINUOUS
 10
621.0893628475
 20
554.2923209622
 40
4.7990381057
100
AcDbArc
 50
313.171184019
 51
352.8177973595
  0
ARC
  5
512
100
AcDbEntity
  8
6_ALL_SURFS
100
AcDbCircle
 62
7
  6
CONTINUOUS
 10
621.0893628475
 20
624.3923209622
 40
4.7990381057
100
AcDbArc
 50
7.1822026405
 51
46.828815981
  0
ARC
  5
513
100
AcDbEntity
  8
6_ALL_SURFS
100
AcDbCircle
 62
7
  6
CONTINUOUS
 10
421.0893628475
 20
624.3923209622
 40
4.7990381057
100
AcDbArc
 50
7.1822026405
 51
46.828815981
  0
ARC
  5
514
100
AcDbEntity
  8
6_ALL_SURFS
100
AcDbCircle
 62
7
  6
CONTINUOUS
 10
621.0893628475
 20
624.3923209622
 40
4.7990381057
100
AcDbArc
 50
133.171184019
 51
172.8177973595
  0
CIRCLE
  5
515
100
AcDbEntity
  8
6_ALL_SURFS
100
AcDbCircle
 62
7
  6
CONTINUOUS
 10
621.0893628475
 20
624.3923209622
 40
3.5
  0
CIRCLE
  5
516
100
AcDbEntity
  8
6_ALL_SURFS
100
AcDbCircle
 62
7
  6
CONTINUOUS
 10
421.0893628475
 20
624.3923209622
 40
3.5
  0
CIRCLE
  5
517
100
AcDbEntity
  8
6_ALL_SURFS
100
AcDbCircle
 62
7
  6
CONTINUOUS
 10
621.0893628475
 20
554.2923209622
 40
3.5
  0
CIRCLE
  5
518
100
AcDbEntity
  8
6_ALL_SURFS
100
AcDbCircle
 62
7
  6
CONTINUOUS
 10
421.0893628475
 20
554.2923209622
 40
3.5
  0
ARC
  5
519
100
AcDbEntity
  8
7_ALL_FEATURES
100
AcDbCircle
 62
7
  6
CONTINUOUS
 10
135.1393628475
 20
703.2297683109
 40
8.0
100
AcDbArc
 50
60.0
 51
75.5224878141
  0
ARC
  5
51A
100
AcDbEntity
  8
7_ALL_FEATURES
100
AcDbCircle
 62
7
  6
CONTINUOUS
 10
135.1393628475
 20
703.2297683109
 40
8.0
100
AcDbArc
 50
104.4775121859
 51
120.0
  0
ARC
  5
51B
100
AcDbEntity
  8
7_ALL_FEATURES
100
AcDbCircle
 62
7
  6
CONTINUOUS
 10
135.1393628475
 20
703.2297683109
 40
7.9843597113
100
AcDbArc
 50
75.4935070353
 51
86.4096498625
  0
ARC
  5
51C
100
AcDbEntity
  8
7_ALL_FEATURES
100
AcDbCircle
 62
7
  6
CONTINUOUS
 10
135.1393628475
 20
703.2297683109
 40
7.9843597113
100
AcDbArc
 50
93.5903501375
 51
104.5064929647
  0
ARC
  5
51D
100
AcDbEntity
  8
7_ALL_FEATURES
100
AcDbCircle
 62
7
  6
CONTINUOUS
 10
135.1393628475
 20
703.2297683109
 40
7.7459666924
100
AcDbArc
 50
86.2990001561
 51
93.7009998439
  0
ARC
  5
51E
100
AcDbEntity
  8
6_ALL_SURFS
100
AcDbCircle
 62
7
  6
CONTINUOUS
 10
122.1393628475
 20
721.0342543816
 40
5.0
100
AcDbArc
 50
180.0
 51
192.5
  0
ARC
  5
51F
100
AcDbEntity
  8
6_ALL_SURFS
100
AcDbCircle
 62
7
  6
CONTINUOUS
 10
123.1393628475
 20
703.3797683109
 40
2.8
100
AcDbArc
 50
0.0
 51
30.0
  0
ARC
  5
520
100
AcDbEntity
  8
6_ALL_SURFS
100
AcDbCircle
 62
7
  6
CONTINUOUS
 10
123.1393628475
 20
703.3797683109
 40
2.8
100
AcDbArc
 50
141.021239674
 51
206.847213326
  0
ARC
  5
521
100
AcDbEntity
  8
7_ALL_FEATURES
100
AcDbCircle
 62
7
  6
CONTINUOUS
 10
136.9393628475
 20
701.9797683109
 40
1.8
100
AcDbArc
 50
270.0
 51
360.0
  0
ARC
  5
522
100
AcDbEntity
  8
6_ALL_SURFS
100
AcDbCircle
 62
7
  6
CONTINUOUS
 10
133.3393628475
 20
701.9797683109
 40
1.8
100
AcDbArc
 50
180.0
 51
270.0
  0
ARC
  5
523
100
AcDbEntity
  8
6_ALL_SURFS
100
AcDbCircle
 62
7
  6
CONTINUOUS
 10
123.1393628475
 20
703.3797683109
 40
1.3
100
AcDbArc
 50
310.8069228749
 51
229.1930771251
  0
ARC
  5
524
100
AcDbEntity
  8
6_ALL_SURFS
100
AcDbCircle
 62
7
  6
CONTINUOUS
 10
121.2608131659
 20
706.51623064
 40
1.0
100
AcDbArc
 50
192.5
 51
245.876038405
  0
ARC
  5
525
100
AcDbEntity
  8
6_ALL_SURFS
100
AcDbCircle
 62
7
  6
CONTINUOUS
 10
122.5419476992
 20
708.1297683109
 40
1.0
100
AcDbArc
 50
192.5
 51
270.0
  0
ARC
  5
526
100
AcDbEntity
  8
6_ALL_SURFS
100
AcDbCircle
 62
7
  6
CONTINUOUS
 10
119.7393628475
 20
722.5119595123
 40
1.0
100
AcDbArc
 50
180.0
 51
200.0
  0
ARC
  5
527
100
AcDbEntity
  8
6_ALL_SURFS
100
AcDbCircle
 62
7
  6
CONTINUOUS
 10
119.6393628475
 20
701.1797683109
 40
0.5
100
AcDbArc
 50
90.0
 51
180.0
  0
ARC
  5
528
100
AcDbEntity
  8
6_ALL_SURFS
100
AcDbCircle
 62
7
  6
CONTINUOUS
 10
125.99724668
 20
705.0297683109
 40
0.5
100
AcDbArc
 50
90.0
 51
210.0
  0
ARC
  5
529
100
AcDbEntity
  8
7_ALL_FEATURES
100
AcDbCircle
 62
7
  6
CONTINUOUS
 10
137.1393628475
 20
706.8297683109
 40
0.3
100
AcDbArc
 50
90.0
 51
180.0
  0
ARC
  5
52A
100
AcDbEntity
  8
6_ALL_SURFS
100
AcDbCircle
 62
7
  6
CONTINUOUS
 10
125.6393628475
 20
700.4797683109
 40
0.3
100
AcDbArc
 50
270.0
 51
360.0
  0
ARC
  5
52B
100
AcDbEntity
  8
6_ALL_SURFS
100
AcDbCircle
 62
7
  6
CONTINUOUS
 10
125.1600887897
 20
700.4797683109
 40
0.3
100
AcDbArc
 50
210.0
 51
270.0
  0
ARC
  5
52C
100
AcDbEntity
  8
6_ALL_SURFS
100
AcDbCircle
 62
7
  6
CONTINUOUS
 10
124.1849821509
 20
702.168702552
 40
0.3
100
AcDbArc
 50
130.8069228749
 51
210.0
  0
ARC
  5
52D
100
AcDbEntity
  8
6_ALL_SURFS
100
AcDbCircle
 62
7
  6
CONTINUOUS
 10
122.0937435441
 20
702.168702552
 40
0.3
100
AcDbArc
 50
330.0
 51
49.1930771252
  0
ARC
  5
52E
100
AcDbEntity
  8
6_ALL_SURFS
100
AcDbCircle
 62
7
  6
CONTINUOUS
 10
121.1186369054
 20
700.4797683109
 40
0.3
100
AcDbArc
 50
270.0
 51
330.0
  0
ARC
  5
52F
100
AcDbEntity
  8
6_ALL_SURFS
100
AcDbCircle
 62
7
  6
CONTINUOUS
 10
119.4393628475
 20
700.4797683109
 40
0.3
100
AcDbArc
 50
180.0
 51
270.0
  0
ARC
  5
530
100
AcDbEntity
  8
6_ALL_SURFS
100
AcDbCircle
 62
7
  6
CONTINUOUS
 10
118.8728186472
 20
721.0918244154
 40
0.3
100
AcDbArc
 50
300.9637565321
 51
20.0
  0
ARC
  5
531
100
AcDbEntity
  8
6_ALL_SURFS
100
AcDbCircle
 62
7
  6
CONTINUOUS
 10
133.1393628475
 20
706.8297683109
 40
0.3
100
AcDbArc
 50
0.0
 51
90.0
  0
ARC
  5
532
100
AcDbEntity
  8
6_ALL_SURFS
100
AcDbCircle
 62
7
  6
CONTINUOUS
 10
133.7393628475
 20
702.0797683109
 40
0.3
100
AcDbArc
 50
180.0
 51
270.0
  0
ARC
  5
533
100
AcDbEntity
  8
6_ALL_SURFS
100
AcDbCircle
 62
7
  6
CONTINUOUS
 10
131.2393628475
 20
705.2297683109
 40
0.3
100
AcDbArc
 50
0.0
 51
90.0
  0
ARC
  5
534
100
AcDbEntity
  8
6_ALL_SURFS
100
AcDbCircle
 62
7
  6
CONTINUOUS
 10
120.7294873321
 20
705.3297683109
 40
0.3
100
AcDbArc
 50
321.021239674
 51
65.8760384051
  0
ARC
  5
535
100
AcDbEntity
  8
6_ALL_SURFS
100
AcDbCircle
 62
7
  6
CONTINUOUS
 10
120.3734995103
 20
701.9797683109
 40
0.3
100
AcDbArc
 50
270.0
 51
26.847213326
  0
ARC
  5
536
100
AcDbEntity
  8
6_ALL_SURFS
100
AcDbCircle
 62
7
  6
CONTINUOUS
 10
119.0790271049
 20
720.5158352626
 40
0.3
100
AcDbArc
 50
120.9637565321
 51
192.5
  0
ARC
  5
537
100
AcDbEntity
  8
7_ALL_FEATURES
100
AcDbCircle
 62
7
  6
CONTINUOUS
 10
136.5393628475
 20
702.0797683109
 40
0.3
100
AcDbArc
 50
270.0
 51
360.0
  0
ARC
  5
538
100
AcDbEntity
  8
6_ALL_SURFS
100
AcDbCircle
 62
7
  6
CONTINUOUS
 10
99.7893628475
 20
778.8797683109
 40
0.5
100
AcDbArc
 50
233.1301023542
 51
306.8698976458
  0
ARC
  5
539
100
AcDbEntity
  8
6_ALL_SURFS
100
AcDbCircle
 62
7
  6
CONTINUOUS
 10
102.7893628475
 20
778.8797683109
 40
0.5
100
AcDbArc
 50
233.1301023542
 51
306.8698976458
  0
ARC
  5
53A
100
AcDbEntity
  8
6_ALL_SURFS
100
AcDbCircle
 62
7
  6
CONTINUOUS
 10
105.7893628475
 20
778.8797683109
 40
0.5
100
AcDbArc
 50
233.1301023542
 51
306.8698976458
  0
ARC
  5
53B
100
AcDbEntity
  8
6_ALL_SURFS
100
AcDbCircle
 62
7
  6
CONTINUOUS
 10
94.4830662054
 20
777.8734716688
 40
0.3937033579
100
AcDbArc
 50
95.7105931375
 51
270.0
  0
ARC
  5
53C
100
AcDbEntity
  8
6_ALL_SURFS
100
AcDbCircle
 62
7
  6
CONTINUOUS
 10
115.9393628475
 20
768.0797683109
 40
2.0
100
AcDbArc
 50
180.0
 51
270.0
  0
ARC
  5
53D
100
AcDbEntity
  8
6_ALL_SURFS
100
AcDbCircle
 62
7
  6
CONTINUOUS
 10
115.9393628475
 20
769.8797683109
 40
2.0
100
AcDbArc
 50
90.0
 51
180.0
  0
ARC
  5
53E
100
AcDbEntity
  8
6_ALL_SURFS
100
AcDbCircle
 62
7
  6
CONTINUOUS
 10
116.8393628475
 20
768.9797683109
 40
1.3
100
AcDbArc
 50
40.8069228749
 51
319.1930771252
  0
ARC
  5
53F
100
AcDbEntity
  8
6_ALL_SURFS
100
AcDbCircle
 62
7
  6
CONTINUOUS
 10
116.4893628475
 20
772.3695786497
 40
0.5
100
AcDbArc
 50
0.0
 51
43.0
  0
ARC
  5
540
100
AcDbEntity
  8
6_ALL_SURFS
100
AcDbCircle
 62
7
  6
CONTINUOUS
 10
118.4393628475
 20
770.2499389031
 40
0.3
100
AcDbArc
 50
300.0
 51
360.0
  0
ARC
  5
541
100
AcDbEntity
  8
6_ALL_SURFS
100
AcDbCircle
 62
7
  6
CONTINUOUS
 10
118.0504286064
 20
770.0253876143
 40
0.3
100
AcDbArc
 50
220.8069228749
 51
300.0
  0
ARC
  5
542
100
AcDbEntity
  8
6_ALL_SURFS
100
AcDbCircle
 62
7
  6
CONTINUOUS
 10
118.0504286064
 20
767.9341490075
 40
0.3
100
AcDbArc
 50
60.0
 51
139.1930771251
  0
ARC
  5
543
100
AcDbEntity
  8
6_ALL_SURFS
100
AcDbCircle
 62
7
  6
CONTINUOUS
 10
118.4393628475
 20
767.7095977187
 40
0.3
100
AcDbArc
 50
0.0
 51
60.0
  0
ARC
  5
544
100
AcDbEntity
  8
6_ALL_SURFS
100
AcDbCircle
 62
7
  6
CONTINUOUS
 10
116.8393628475
 20
765.7797683109
 40
0.3
100
AcDbArc
 50
0.0
 51
90.0
  0
ARC
  5
545
100
AcDbEntity
  8
6_ALL_SURFS
100
AcDbCircle
 62
7
  6
CONTINUOUS
 10
116.6893628475
 20
772.1797683109
 40
0.3
100
AcDbArc
 50
270.0
 51
360.0
  0
ARC
  5
546
100
AcDbEntity
  8
7_ALL_FEATURES
100
AcDbCircle
 62
7
  6
CONTINUOUS
 10
116.0393628475
 20
778.1597683109
 40
1.8
100
AcDbArc
 50
302.8598803788
 51
360.0
  0
ARC
  5
547
100
AcDbEntity
  8
6_ALL_SURFS
100
AcDbCircle
 62
7
  6
CONTINUOUS
 10
115.5893628475
 20
776.26726886
 40
1.5
100
AcDbArc
 50
180.0
 51
223.0
  0
ARC
  5
548
100
AcDbEntity
  8
7_ALL_FEATURES
100
AcDbCircle
 62
7
  6
CONTINUOUS
 10
117.1245356448
 20
776.4797683109
 40
1.0
100
AcDbArc
 50
122.859880379
 51
223.0
  0
ARC
  5
549
100
AcDbEntity
  8
7_ALL_FEATURES
100
AcDbCircle
 62
7
  6
CONTINUOUS
 10
116.0393628475
 20
778.1597683109
 40
1.0
100
AcDbArc
 50
302.8598803787
 51
360.0
  0
ARC
  5
54A
100
AcDbEntity
  8
6_ALL_SURFS
100
AcDbCircle
 62
7
  6
CONTINUOUS
 10
108.7893628475
 20
778.8797683109
 40
0.5
100
AcDbArc
 50
233.1301023542
 51
306.8698976458
  0
ARC
  5
54B
100
AcDbEntity
  8
6_ALL_SURFS
100
AcDbCircle
 62
7
  6
CONTINUOUS
 10
111.7893628475
 20
778.8797683109
 40
0.5
100
AcDbArc
 50
233.1301023542
 51
306.8698976458
  0
ARC
  5
54C
100
AcDbEntity
  8
7_ALL_FEATURES
100
AcDbCircle
 62
7
  6
CONTINUOUS
 10
117.0501512371
 20
775.6797683109
 40
0.4
100
AcDbArc
 50
223.0000000029
 51
43.0
  0
ARC
  5
54D
100
AcDbEntity
  8
6_ALL_SURFS
100
AcDbCircle
 62
7
  6
CONTINUOUS
 10
114.6393628475
 20
779.6797683109
 40
0.3
100
AcDbArc
 50
90.0
 51
180.0
  0
ARC
  5
54E
100
AcDbEntity
  8
6_ALL_SURFS
100
AcDbCircle
 62
7
  6
CONTINUOUS
 10
115.2893628475
 20
779.6797683109
 40
0.3
100
AcDbArc
 50
0.0
 51
90.0
  0
ARC
  5
54F
100
AcDbEntity
  8
6_ALL_SURFS
100
AcDbCircle
 62
7
  6
CONTINUOUS
 10
116.5393628475
 20
778.6797683109
 40
0.3
100
AcDbArc
 50
0.0
 51
90.0
  0
ARC
  5
550
100
AcDbEntity
  8
6_ALL_SURFS
100
AcDbCircle
 62
7
  6
CONTINUOUS
 10
116.5393628475
 20
777.8045667118
 40
0.3
100
AcDbArc
 50
332.0
 51
360.0
  0
ARC
  5
551
100
AcDbEntity
  8
6_ALL_SURFS
100
AcDbCircle
 62
7
  6
CONTINUOUS
 10
116.5261773039
 20
777.7797683109
 40
0.3
100
AcDbArc
 50
270.0
 51
332.0
  0
ARC
  5
552
100
AcDbEntity
  8
6_ALL_SURFS
100
AcDbCircle
 62
7
  6
CONTINUOUS
 10
118.4393628475
 20
773.9297683109
 40
0.3
100
AcDbArc
 50
0.0
 51
90.0
  0
ARC
  5
553
100
AcDbEntity
  8
6_ALL_SURFS
100
AcDbCircle
 62
7
  6
CONTINUOUS
 10
113.7893628475
 20
777.1797683109
 40
0.3
100
AcDbArc
 50
0.0
 51
90.0
  0
ARC
  5
554
100
AcDbEntity
  8
6_ALL_SURFS
100
AcDbCircle
 62
7
  6
CONTINUOUS
 10
114.0393628475
 20
778.7797683109
 40
0.3
100
AcDbArc
 50
270.0
 51
360.0
  0
ARC
  5
555
100
AcDbEntity
  8
6_ALL_SURFS
100
AcDbCircle
 62
7
  6
CONTINUOUS
 10
117.61980656
 20
774.5297683109
 40
0.3
100
AcDbArc
 50
223.0
 51
270.0
  0
ARC
  5
556
100
AcDbEntity
  8
6_ALL_SURFS
100
AcDbCircle
 62
7
  6
CONTINUOUS
 10
115.8893628475
 20
776.3854420027
 40
0.3
100
AcDbArc
 50
180.0
 51
223.0
  0
ARC
  5
557
100
AcDbEntity
  8
6_ALL_SURFS
100
AcDbCircle
 62
7
  6
CONTINUOUS
 10
115.8893628475
 20
777.1797683109
 40
0.3
100
AcDbArc
 50
90.0
 51
180.0
  0
ARC
  5
558
100
AcDbEntity
  8
6_ALL_SURFS
100
AcDbCircle
 62
7
  6
CONTINUOUS
 10
115.8893628475
 20
779.2797683109
 40
0.3
100
AcDbArc
 50
180.0
 51
270.0
  0
ARC
  5
559
100
AcDbEntity
  8
7_ALL_FEATURES
100
AcDbCircle
 62
7
  6
CONTINUOUS
 10
118.0393628475
 20
778.6797683109
 40
0.2
100
AcDbArc
 50
90.0
 51
180.0
  0
ARC
  5
55A
100
AcDbEntity
  8
7_ALL_FEATURES
100
AcDbCircle
 62
7
  6
CONTINUOUS
 10
117.1245356448
 20
776.4797683109
 40
0.2
100
AcDbArc
 50
122.8598803795
 51
223.0000000114
  0
ARC
  5
55B
100
AcDbEntity
  8
7_ALL_FEATURES
100
AcDbCircle
 62
7
  6
CONTINUOUS
 10
116.8393628475
 20
778.7797683109
 40
0.2
100
AcDbArc
 50
0.0
 51
90.0
  0
ARC
  5
55C
100
AcDbEntity
  8
7_ALL_FEATURES
100
AcDbCircle
 62
7
  6
CONTINUOUS
 10
115.9893628475
 20
779.1797683109
 40
0.2
100
AcDbArc
 50
180.0
 51
270.0
  0
ARC
  5
55D
100
AcDbEntity
  8
7_ALL_FEATURES
100
AcDbCircle
 62
7
  6
CONTINUOUS
 10
115.9893628475
 20
779.7797683109
 40
0.2
100
AcDbArc
 50
90.0
 51
180.0
  0
ARC
  5
55E
100
AcDbEntity
  8
7_ALL_FEATURES
100
AcDbCircle
 62
7
  6
CONTINUOUS
 10
148.1393628475
 20
721.0342543816
 40
5.0
100
AcDbArc
 50
347.5
 51
360.0
  0
CIRCLE
  5
55F
100
AcDbEntity
  8
3_ALL_AXES
100
AcDbCircle
 62
7
  6
CONTINUOUS
 10
170.6393628475
 20
730.1797683109
 40
4.35
  0
ARC
  5
560
100
AcDbEntity
  8
7_ALL_FEATURES
100
AcDbCircle
 62
7
  6
CONTINUOUS
 10
147.1393628475
 20
703.3797683109
 40
2.8
100
AcDbArc
 50
333.152786674
 51
38.978760326
  0
ARC
  5
561
100
AcDbEntity
  8
7_ALL_FEATURES
100
AcDbCircle
 62
7
  6
CONTINUOUS
 10
147.1393628475
 20
703.3797683109
 40
2.8
100
AcDbArc
 50
150.0
 51
180.0
  0
ARC
  5
562
100
AcDbEntity
  8
0
100
AcDbCircle
 62
2
  6
CONTINUOUS
 10
170.6393628475
 20
730.1797683109
 40
2.5
100
AcDbArc
 50
255.0
 51
360.0
  0
ARC
  5
563
100
AcDbEntity
  8
0
100
AcDbCircle
 62
2
  6
CONTINUOUS
 10
170.6393628475
 20
730.1797683109
 40
2.5
100
AcDbArc
 50
180.0
 51
195.0
  0
ARC
  5
564
100
AcDbEntity
  8
7_ALL_FEATURES
100
AcDbCircle
 62
7
  6
CONTINUOUS
 10
171.1393628475
 20
730.1797683109
 40
2.5
100
AcDbArc
 50
180.0
 51
213.0692338485
  0
CIRCLE
  5
565
100
AcDbEntity
  8
3_ALL_AXES
100
AcDbCircle
 62
7
  6
CONTINUOUS
 10
183.1393628475
 20
730.1797683109
 40
2.5
  0
ARC
  5
566
100
AcDbEntity
  8
7_ALL_FEATURES
100
AcDbCircle
 62
7
  6
CONTINUOUS
 10
170.6393628475
 20
730.1797683109
 40
2.1
100
AcDbArc
 50
180.0
 51
360.0
  0
CIRCLE
  5
567
100
AcDbEntity
  8
7_ALL_FEATURES
100
AcDbCircle
 62
7
  6
CONTINUOUS
 10
171.1393628475
 20
730.1797683109
 40
2.0
  0
ARC
  5
568
100
AcDbEntity
  8
7_ALL_FEATURES
100
AcDbCircle
 62
7
  6
CONTINUOUS
 10
147.1393628475
 20
703.3797683109
 40
1.3
100
AcDbArc
 50
310.8069228749
 51
229.1930771251
  0
ARC
  5
569
100
AcDbEntity
  8
7_ALL_FEATURES
100
AcDbCircle
 62
7
  6
CONTINUOUS
 10
149.0179125291
 20
706.51623064
 40
1.0
100
AcDbArc
 50
294.123961595
 51
347.5
  0
ARC
  5
56A
100
AcDbEntity
  8
7_ALL_FEATURES
100
AcDbCircle
 62
7
  6
CONTINUOUS
 10
147.7367779959
 20
708.1297683109
 40
1.0
100
AcDbArc
 50
270.0
 51
347.5
  0
ARC
  5
56B
100
AcDbEntity
  8
7_ALL_FEATURES
100
AcDbCircle
 62
7
  6
CONTINUOUS
 10
150.5393628475
 20
722.5119595123
 40
1.0
100
AcDbArc
 50
340.0
 51
360.0
  0
ARC
  5
56C
100
AcDbEntity
  8
7_ALL_FEATURES
100
AcDbCircle
 62
7
  6
CONTINUOUS
 10
150.6393628475
 20
701.1797683109
 40
0.5
100
AcDbArc
 50
0.0
 51
90.0
  0
ARC
  5
56D
100
AcDbEntity
  8
7_ALL_FEATURES
100
AcDbCircle
 62
7
  6
CONTINUOUS
 10
144.281479015
 20
705.0297683109
 40
0.5
100
AcDbArc
 50
330.0
 51
90.0
  0
ARC
  5
56E
100
AcDbEntity
  8
7_ALL_FEATURES
100
AcDbCircle
 62
7
  6
CONTINUOUS
 10
151.4059070478
 20
721.0918244154
 40
0.3
100
AcDbArc
 50
160.0
 51
239.0362434679
  0
ARC
  5
56F
100
AcDbEntity
  8
7_ALL_FEATURES
100
AcDbCircle
 62
7
  6
CONTINUOUS
 10
150.8393628475
 20
700.4797683109
 40
0.3
100
AcDbArc
 50
270.0
 51
360.0
  0
ARC
  5
570
100
AcDbEntity
  8
7_ALL_FEATURES
100
AcDbCircle
 62
7
  6
CONTINUOUS
 10
149.1600887897
 20
700.4797683109
 40
0.3
100
AcDbArc
 50
210.0
 51
270.0
  0
ARC
  5
571
100
AcDbEntity
  8
7_ALL_FEATURES
100
AcDbCircle
 62
7
  6
CONTINUOUS
 10
148.1849821509
 20
702.168702552
 40
0.3
100
AcDbArc
 50
130.8069228748
 51
210.0
  0
ARC
  5
572
100
AcDbEntity
  8
7_ALL_FEATURES
100
AcDbCircle
 62
7
  6
CONTINUOUS
 10
146.0937435441
 20
702.168702552
 40
0.3
100
AcDbArc
 50
330.0
 51
49.1930771251
  0
ARC
  5
573
100
AcDbEntity
  8
7_ALL_FEATURES
100
AcDbCircle
 62
7
  6
CONTINUOUS
 10
145.1186369054
 20
700.4797683109
 40
0.3
100
AcDbArc
 50
270.0
 51
330.0
  0
ARC
  5
574
100
AcDbEntity
  8
7_ALL_FEATURES
100
AcDbCircle
 62
7
  6
CONTINUOUS
 10
144.6393628475
 20
700.4797683109
 40
0.3
100
AcDbArc
 50
180.0
 51
270.0
  0
ARC
  5
575
100
AcDbEntity
  8
7_ALL_FEATURES
100
AcDbCircle
 62
7
  6
CONTINUOUS
 10
139.0393628475
 20
705.2297683109
 40
0.3
100
AcDbArc
 50
90.0
 51
180.0
  0
ARC
  5
576
100
AcDbEntity
  8
7_ALL_FEATURES
100
AcDbCircle
 62
7
  6
CONTINUOUS
 10
149.549238363
 20
705.3297683109
 40
0.3
100
AcDbArc
 50
114.1239615949
 51
218.978760326
  0
ARC
  5
577
100
AcDbEntity
  8
7_ALL_FEATURES
100
AcDbCircle
 62
7
  6
CONTINUOUS
 10
149.9052261847
 20
701.9797683109
 40
0.3
100
AcDbArc
 50
153.152786674
 51
270.0
  0
ARC
  5
578
100
AcDbEntity
  8
7_ALL_FEATURES
100
AcDbCircle
 62
7
  6
CONTINUOUS
 10
151.1996985902
 20
720.5158352626
 40
0.3
100
AcDbArc
 50
347.5
 51
59.0362434679
  0
ARC
  5
579
100
AcDbEntity
  8
7_ALL_FEATURES
100
AcDbCircle
 62
7
  6
CONTINUOUS
 10
154.3393628475
 20
769.8797683109
 40
2.0
100
AcDbArc
 50
0.0
 51
90.0
  0
ARC
  5
57A
100
AcDbEntity
  8
7_ALL_FEATURES
100
AcDbCircle
 62
7
  6
CONTINUOUS
 10
154.3393628475
 20
768.0797683109
 40
2.0
100
AcDbArc
 50
270.0
 51
360.0
  0
ARC
  5
57B
100
AcDbEntity
  8
7_ALL_FEATURES
100
AcDbCircle
 62
7
  6
CONTINUOUS
 10
153.4393628475
 20
768.9797683109
 40
1.3
100
AcDbArc
 50
220.8069228749
 51
139.1930771251
  0
ARC
  5
57C
100
AcDbEntity
  8
7_ALL_FEATURES
100
AcDbCircle
 62
7
  6
CONTINUOUS
 10
153.7893628475
 20
772.3695786497
 40
0.5
100
AcDbArc
 50
137.0
 51
180.0
  0
ARC
  5
57D
100
AcDbEntity
  8
7_ALL_FEATURES
100
AcDbCircle
 62
7
  6
CONTINUOUS
 10
151.8393628475
 20
767.7095977187
 40
0.3
100
AcDbArc
 50
120.0
 51
180.0
  0
ARC
  5
57E
100
AcDbEntity
  8
7_ALL_FEATURES
100
AcDbCircle
 62
7
  6
CONTINUOUS
 10
152.2282970886
 20
767.9341490075
 40
0.3
100
AcDbArc
 50
40.8069228749
 51
120.0
  0
ARC
  5
57F
100
AcDbEntity
  8
7_ALL_FEATURES
100
AcDbCircle
 62
7
  6
CONTINUOUS
 10
152.2282970886
 20
770.0253876143
 40
0.3
100
AcDbArc
 50
240.0
 51
319.1930771251
  0
ARC
  5
580
100
AcDbEntity
  8
7_ALL_FEATURES
100
AcDbCircle
 62
7
  6
CONTINUOUS
 10
151.8393628475
 20
770.2499389031
 40
0.3
100
AcDbArc
 50
180.0
 51
240.0
  0
ARC
  5
581
100
AcDbEntity
  8
7_ALL_FEATURES
100
AcDbCircle
 62
7
  6
CONTINUOUS
 10
153.4393628475
 20
765.7797683109
 40
0.3
100
AcDbArc
 50
90.0
 51
180.0
  0
ARC
  5
582
100
AcDbEntity
  8
7_ALL_FEATURES
100
AcDbCircle
 62
7
  6
CONTINUOUS
 10
153.5893628475
 20
772.1797683109
 40
0.3
100
AcDbArc
 50
180.0
 51
270.0
  0
ARC
  5
583
100
AcDbEntity
  8
7_ALL_FEATURES
100
AcDbCircle
 62
7
  6
CONTINUOUS
 10
154.2393628475
 20
778.1597683109
 40
1.8
100
AcDbArc
 50
180.0
 51
237.1401196212
  0
ARC
  5
584
100
AcDbEntity
  8
7_ALL_FEATURES
100
AcDbCircle
 62
7
  6
CONTINUOUS
 10
154.6893628475
 20
776.26726886
 40
1.5
100
AcDbArc
 50
317.0
 51
360.0
  0
ARC
  5
585
100
AcDbEntity
  8
7_ALL_FEATURES
100
AcDbCircle
 62
7
  6
CONTINUOUS
 10
154.2393628475
 20
778.1597683109
 40
1.0
100
AcDbArc
 50
180.0
 51
237.1401196211
  0
ARC
  5
586
100
AcDbEntity
  8
7_ALL_FEATURES
100
AcDbCircle
 62
7
  6
CONTINUOUS
 10
153.1541900502
 20
776.4797683109
 40
1.0
100
AcDbArc
 50
317.0
 51
57.1401196211
  0
ARC
  5
587
100
AcDbEntity
  8
3_ALL_AXES
100
AcDbCircle
 62
7
  6
CONTINUOUS
 10
158.4893628475
 20
778.8797683109
 40
0.5
100
AcDbArc
 50
233.1301023542
 51
306.8698976458
  0
ARC
  5
588
100
AcDbEntity
  8
3_ALL_AXES
100
AcDbCircle
 62
7
  6
CONTINUOUS
 10
161.4893628475
 20
778.8797683109
 40
0.5
100
AcDbArc
 50
233.1301023542
 51
306.8698976458
  0
ARC
  5
589
100
AcDbEntity
  8
7_ALL_FEATURES
100
AcDbCircle
 62
7
  6
CONTINUOUS
 10
153.228574458
 20
775.6797683109
 40
0.4
100
AcDbArc
 50
136.9999999999
 51
317.0000000002
  0
ARC
  5
58A
100
AcDbEntity
  8
7_ALL_FEATURES
100
AcDbCircle
 62
7
  6
CONTINUOUS
 10
151.8393628475
 20
773.9297683109
 40
0.3
100
AcDbArc
 50
90.0
 51
180.0
  0
ARC
  5
58B
100
AcDbEntity
  8
7_ALL_FEATURES
100
AcDbCircle
 62
7
  6
CONTINUOUS
 10
153.7525483912
 20
777.7797683109
 40
0.3
100
AcDbArc
 50
208.0
 51
270.0
  0
ARC
  5
58C
100
AcDbEntity
  8
7_ALL_FEATURES
100
AcDbCircle
 62
7
  6
CONTINUOUS
 10
153.7393628475
 20
777.8045667118
 40
0.3
100
AcDbArc
 50
180.0
 51
208.0
  0
ARC
  5
58D
100
AcDbEntity
  8
7_ALL_FEATURES
100
AcDbCircle
 62
7
  6
CONTINUOUS
 10
153.7393628475
 20
778.6797683109
 40
0.3
100
AcDbArc
 50
90.0
 51
180.0
  0
ARC
  5
58E
100
AcDbEntity
  8
7_ALL_FEATURES
100
AcDbCircle
 62
7
  6
CONTINUOUS
 10
154.9893628475
 20
779.6797683109
 40
0.3
100
AcDbArc
 50
90.0
 51
180.0
  0
ARC
  5
58F
100
AcDbEntity
  8
7_ALL_FEATURES
100
AcDbCircle
 62
7
  6
CONTINUOUS
 10
155.6393628475
 20
779.6797683109
 40
0.3
100
AcDbArc
 50
0.0
 51
90.0
  0
ARC
  5
590
100
AcDbEntity
  8
7_ALL_FEATURES
100
AcDbCircle
 62
7
  6
CONTINUOUS
 10
156.4893628475
 20
777.1797683109
 40
0.3
100
AcDbArc
 50
90.0
 51
180.0
  0
ARC
  5
591
100
AcDbEntity
  8
7_ALL_FEATURES
100
AcDbCircle
 62
7
  6
CONTINUOUS
 10
156.2393628475
 20
778.7797683109
 40
0.3
100
AcDbArc
 50
180.0
 51
270.0
  0
ARC
  5
592
100
AcDbEntity
  8
7_ALL_FEATURES
100
AcDbCircle
 62
7
  6
CONTINUOUS
 10
152.658919135
 20
774.5297683109
 40
0.3
100
AcDbArc
 50
270.0
 51
317.0
  0
ARC
  5
593
100
AcDbEntity
  8
7_ALL_FEATURES
100
AcDbCircle
 62
7
  6
CONTINUOUS
 10
154.3893628475
 20
776.3854420027
 40
0.3
100
AcDbArc
 50
317.0
 51
360.0
  0
ARC
  5
594
100
AcDbEntity
  8
7_ALL_FEATURES
100
AcDbCircle
 62
7
  6
CONTINUOUS
 10
154.3893628475
 20
777.1797683109
 40
0.3
100
AcDbArc
 50
0.0
 51
90.0
  0
ARC
  5
595
100
AcDbEntity
  8
7_ALL_FEATURES
100
AcDbCircle
 62
7
  6
CONTINUOUS
 10
154.3893628475
 20
779.2797683109
 40
0.3
100
AcDbArc
 50
270.0
 51
360.0
  0
ARC
  5
596
100
AcDbEntity
  8
7_ALL_FEATURES
100
AcDbCircle
 62
7
  6
CONTINUOUS
 10
154.2893628475
 20
779.7797683109
 40
0.2
100
AcDbArc
 50
0.0
 51
90.0
  0
ARC
  5
597
100
AcDbEntity
  8
7_ALL_FEATURES
100
AcDbCircle
 62
7
  6
CONTINUOUS
 10
154.2893628475
 20
779.1797683109
 40
0.2
100
AcDbArc
 50
270.0
 51
360.0
  0
ARC
  5
598
100
AcDbEntity
  8
7_ALL_FEATURES
100
AcDbCircle
 62
7
  6
CONTINUOUS
 10
153.4393628475
 20
778.7797683109
 40
0.2
100
AcDbArc
 50
90.0
 51
180.0
  0
ARC
  5
599
100
AcDbEntity
  8
7_ALL_FEATURES
100
AcDbCircle
 62
7
  6
CONTINUOUS
 10
153.1541900502
 20
776.4797683109
 40
0.2
100
AcDbArc
 50
316.9999999886
 51
57.1401196205
  0
ARC
  5
59A
100
AcDbEntity
  8
7_ALL_FEATURES
100
AcDbCircle
 62
7
  6
CONTINUOUS
 10
152.2393628475
 20
778.6797683109
 40
0.2
100
AcDbArc
 50
0.0
 51
90.0
  0
ARC
  5
59B
100
AcDbEntity
  8
3_ALL_AXES
100
AcDbCircle
 62
7
  6
CONTINUOUS
 10
164.4893628475
 20
778.8797683109
 40
0.5
100
AcDbArc
 50
233.1301023542
 51
306.8698976458
  0
ARC
  5
59C
100
AcDbEntity
  8
3_ALL_AXES
100
AcDbCircle
 62
7
  6
CONTINUOUS
 10
167.4893628475
 20
778.8797683109
 40
0.5
100
AcDbArc
 50
233.1301023542
 51
306.8698976458
  0
ARC
  5
59D
100
AcDbEntity
  8
3_ALL_AXES
100
AcDbCircle
 62
7
  6
CONTINUOUS
 10
170.4893628475
 20
778.8797683109
 40
0.5
100
AcDbArc
 50
233.1301023542
 51
306.8698976458
  0
ARC
  5
59E
100
AcDbEntity
  8
7_ALL_FEATURES
100
AcDbCircle
 62
7
  6
CONTINUOUS
 10
175.7956594896
 20
777.8734716688
 40
0.3937033579
100
AcDbArc
 50
270.0
 51
84.2894068625
  0
CIRCLE
  5
59F
100
AcDbEntity
  8
3_ALL_AXES
100
AcDbCircle
 62
7
  6
CONTINUOUS
 10
816.6990176569
 20
540.9423209622
 40
4.5
  0
ARC
  5
5A0
100
AcDbEntity
  8
7_ALL_FEATURES
100
AcDbCircle
 62
7
  6
CONTINUOUS
 10
807.5535037277
 20
602.3423209622
 40
5.0
100
AcDbArc
 50
90.0
 51
102.5
  0
ARC
  5
5A1
100
AcDbEntity
  8
7_ALL_FEATURES
100
AcDbCircle
 62
7
  6
CONTINUOUS
 10
789.8990176569
 20
601.3423209622
 40
2.8
100
AcDbArc
 50
51.021239674
 51
116.847213326
  0
ARC
  5
5A2
100
AcDbEntity
  8
7_ALL_FEATURES
100
AcDbCircle
 62
7
  6
CONTINUOUS
 10
793.035479986
 20
603.2208706438
 40
1.0
100
AcDbArc
 50
102.5
 51
155.876038405
  0
ARC
  5
5A3
100
AcDbEntity
  8
7_ALL_FEATURES
100
AcDbCircle
 62
7
  6
CONTINUOUS
 10
787.6990176569
 20
604.8423209622
 40
0.5
100
AcDbArc
 50
0.0
 51
90.0
  0
ARC
  5
5A4
100
AcDbEntity
  8
7_ALL_FEATURES
100
AcDbCircle
 62
7
  6
CONTINUOUS
 10
786.9990176569
 20
605.0423209622
 40
0.3
100
AcDbArc
 50
90.0
 51
167.7601139024
  0
ARC
  5
5A5
100
AcDbEntity
  8
7_ALL_FEATURES
100
AcDbCircle
 62
7
  6
CONTINUOUS
 10
791.8490176569
 20
603.7521964777
 40
0.3
100
AcDbArc
 50
231.021239674
 51
335.876038405
  0
ARC
  5
5A6
100
AcDbEntity
  8
7_ALL_FEATURES
100
AcDbCircle
 62
7
  6
CONTINUOUS
 10
788.4990176569
 20
604.1081842994
 40
0.3
100
AcDbArc
 50
193.0258517411
 51
296.847213326
  0
ARC
  5
5A7
100
AcDbEntity
  8
7_ALL_FEATURES
100
AcDbCircle
 62
7
  6
CONTINUOUS
 10
854.5990176569
 20
608.5423209622
 40
2.0
100
AcDbArc
 50
90.0
 51
180.0
  0
ARC
  5
5A8
100
AcDbEntity
  8
7_ALL_FEATURES
100
AcDbCircle
 62
7
  6
CONTINUOUS
 10
856.3990176569
 20
608.5423209622
 40
2.0
100
AcDbArc
 50
0.0
 51
90.0
  0
ARC
  5
5A9
100
AcDbEntity
  8
7_ALL_FEATURES
100
AcDbCircle
 62
7
  6
CONTINUOUS
 10
862.786518206
 20
608.8923209622
 40
1.5
100
AcDbArc
 50
90.0
 51
133.0
  0
ARC
  5
5AA
100
AcDbEntity
  8
7_ALL_FEATURES
100
AcDbCircle
 62
7
  6
CONTINUOUS
 10
858.8888279957
 20
607.9923209622
 40
0.5
100
AcDbArc
 50
270.0
 51
313.0
  0
ARC
  5
5AB
100
AcDbEntity
  8
7_ALL_FEATURES
100
AcDbCircle
 62
7
  6
CONTINUOUS
 10
864.3927210149
 20
629.9986176043
 40
0.3937033579
100
AcDbArc
 50
5.7105931375
 51
180.0
  0
ARC
  5
5AC
100
AcDbEntity
  8
7_ALL_FEATURES
100
AcDbCircle
 62
7
  6
CONTINUOUS
 10
866.1990176569
 20
609.8423209622
 40
0.3
100
AcDbArc
 50
0.0
 51
90.0
  0
ARC
  5
5AD
100
AcDbEntity
  8
7_ALL_FEATURES
100
AcDbCircle
 62
7
  6
CONTINUOUS
 10
852.2990176569
 20
607.6423209622
 40
0.3
100
AcDbArc
 50
269.9999999999
 51
347.7601139023
  0
ARC
  5
5AE
100
AcDbEntity
  8
7_ALL_FEATURES
100
AcDbCircle
 62
7
  6
CONTINUOUS
 10
858.6990176569
 20
607.7923209622
 40
0.3
100
AcDbArc
 50
192.2398860976
 51
270.0
  0
ARC
  5
5AF
100
AcDbEntity
  8
7_ALL_FEATURES
100
AcDbCircle
 62
7
  6
CONTINUOUS
 10
863.6990176569
 20
610.6923209622
 40
0.3
100
AcDbArc
 50
270.0
 51
300.0478764312
  0
ARC
  5
5B0
100
AcDbEntity
  8
7_ALL_FEATURES
100
AcDbCircle
 62
7
  6
CONTINUOUS
 10
865.2990176569
 20
610.4423209622
 40
0.3
100
AcDbArc
 50
192.2398860976
 51
270.0
  0
SPLINE
  5
5B1
100
AcDbEntity
  8
6_ALL_SURFS
100
AcDbSpline
 62
7
  6
CONTINUOUS
 70
0
 71
3
 72
11
 73
7
 74
0
 42
0.0000001
 43
0.0000001
 44
0.0000000001
 40
0.0
 40
0.0
 40
0.0
 40
0.0
 40
0.2446328716
 40
0.5012418941
 40
0.7575078937
 40
1.0
 40
1.0
 40
1.0
 40
1.0
 10
100.0893628475
 20
489.6913590679
 30
0.0
 10
100.0544366993
 20
489.6459886704
 30
0.0
 10
99.9708705797
 20
489.5610936645
 30
0.0
 10
99.7990281165
 20
489.4901163955
 30
0.0
 10
99.6158400086
 20
489.5306463225
 30
0.0
 10
99.5259968694
 20
489.6103548686
 30
0.0
 10
99.4893628475
 20
489.6537038222
 30
0.0
  0
SPLINE
  5
5B2
100
AcDbEntity
  8
6_ALL_SURFS
100
AcDbSpline
 62
7
  6
CONTINUOUS
 70
0
 71
3
 72
11
 73
7
 74
0
 42
0.0000001
 43
0.0000001
 44
0.0000000001
 40
0.0
 40
0.0
 40
0.0
 40
0.0
 40
0.2446328716
 40
0.5012418941
 40
0.7575078937
 40
1.0
 40
1.0
 40
1.0
 40
1.0
 10
100.0893628475
 20
289.6913590679
 30
0.0
 10
100.0544366993
 20
289.6459886704
 30
0.0
 10
99.9708705797
 20
289.5610936645
 30
0.0
 10
99.7990281165
 20
289.4901163955
 30
0.0
 10
99.6158400086
 20
289.5306463225
 30
0.0
 10
99.5259968694
 20
289.6103548686
 30
0.0
 10
99.4893628475
 20
289.6537038222
 30
0.0
  0
SPLINE
  5
5B3
100
AcDbEntity
  8
6_ALL_SURFS
100
AcDbSpline
 62
7
  6
CONTINUOUS
 70
0
 71
3
 72
11
 73
7
 74
0
 42
0.0000001
 43
0.0000001
 44
0.0000000001
 40
0.0
 40
0.0
 40
0.0
 40
0.0
 40
0.2424934169
 40
0.49876283
 40
0.7553720838
 40
1.0
 40
1.0
 40
1.0
 40
1.0
 10
99.4893628475
 20
480.1309381022
 30
0.0
 10
99.5259970705
 20
480.1742872938
 30
0.0
 10
99.6158411613
 20
480.253996519
 30
0.0
 10
99.7990310541
 20
480.2945257908
 30
0.0
 10
99.9708723714
 20
480.2235466033
 30
0.0
 10
100.0544374038
 20
480.1386523388
 30
0.0
 10
100.0893628475
 20
480.0932828565
 30
0.0
  0
SPLINE
  5
5B4
100
AcDbEntity
  8
6_ALL_SURFS
100
AcDbSpline
 62
7
  6
CONTINUOUS
 70
0
 71
3
 72
11
 73
7
 74
0
 42
0.0000001
 43
0.0000001
 44
0.0000000001
 40
0.0
 40
0.0
 40
0.0
 40
0.0
 40
0.2446328716
 40
0.5012418941
 40
0.7575078937
 40
1.0
 40
1.0
 40
1.0
 40
1.0
 10
100.0893628475
 20
89.6913590679
 30
0.0
 10
100.0544366993
 20
89.6459886704
 30
0.0
 10
99.9708705797
 20
89.5610936645
 30
0.0
 10
99.7990281165
 20
89.4901163955
 30
0.0
 10
99.6158400086
 20
89.5306463225
 30
0.0
 10
99.5259968694
 20
89.6103548686
 30
0.0
 10
99.4893628475
 20
89.6537038222
 30
0.0
  0
SPLINE
  5
5B5
100
AcDbEntity
  8
6_ALL_SURFS
100
AcDbSpline
 62
7
  6
CONTINUOUS
 70
0
 71
3
 72
11
 73
7
 74
0
 42
0.0000001
 43
0.0000001
 44
0.0000000001
 40
0.0
 40
0.0
 40
0.0
 40
0.0
 40
0.2424934169
 40
0.49876283
 40
0.7553720838
 40
1.0
 40
1.0
 40
1.0
 40
1.0
 10
99.4893628475
 20
280.1309381022
 30
0.0
 10
99.5259970705
 20
280.1742872938
 30
0.0
 10
99.6158411613
 20
280.253996519
 30
0.0
 10
99.7990310541
 20
280.2945257908
 30
0.0
 10
99.9708723714
 20
280.2235466033
 30
0.0
 10
100.0544374038
 20
280.1386523388
 30
0.0
 10
100.0893628475
 20
280.0932828565
 30
0.0
  0
SPLINE
  5
5B6
100
AcDbEntity
  8
6_ALL_SURFS
100
AcDbSpline
 62
7
  6
CONTINUOUS
 70
0
 71
3
 72
11
 73
7
 74
0
 42
0.0000001
 43
0.0000001
 44
0.0000000001
 40
0.0
 40
0.0
 40
0.0
 40
0.0
 40
0.2424934169
 40
0.49876283
 40
0.7553720838
 40
1.0
 40
1.0
 40
1.0
 40
1.0
 10
99.4893628475
 20
80.1309381022
 30
0.0
 10
99.5259970705
 20
80.1742872938
 30
0.0
 10
99.6158411613
 20
80.253996519
 30
0.0
 10
99.7990310541
 20
80.2945257908
 30
0.0
 10
99.9708723714
 20
80.2235466033
 30
0.0
 10
100.0544374038
 20
80.1386523388
 30
0.0
 10
100.0893628475
 20
80.0932828565
 30
0.0
  0
SPLINE
  5
5B7
100
AcDbEntity
  8
6_ALL_SURFS
100
AcDbSpline
 62
7
  6
CONTINUOUS
 70
0
 71
3
 72
13
 73
9
 74
0
 42
0.0000001
 43
0.0000001
 44
0.0000000001
 40
0.0
 40
0.0
 40
0.0
 40
0.0
 40
0.1142394967
 40
0.2356661376
 40
0.3641458939
 40
0.4940010091
 40
0.7498487469
 40
1.0
 40
1.0
 40
1.0
 40
1.0
 10
103.0893628475
 20
488.6380874712
 30
0.0
 10
103.0654744178
 20
488.617461955
 30
0.0
 10
103.0068700832
 20
488.5829874445
 30
0.0
 10
102.9015694973
 20
488.5849224314
 30
0.0
 10
102.8057125941
 20
488.6321174749
 30
0.0
 10
102.6960237446
 20
488.7233535606
 30
0.0
 10
102.5873050505
 20
488.8633978425
 30
0.0
 10
102.5193351828
 20
488.9858614953
 30
0.0
 10
102.4893628475
 20
489.0481321634
 30
0.0
  0
SPLINE
  5
5B8
100
AcDbEntity
  8
6_ALL_SURFS
100
AcDbSpline
 62
7
  6
CONTINUOUS
 70
0
 71
3
 72
13
 73
9
 74
0
 42
0.0000001
 43
0.0000001
 44
0.0000000001
 40
0.0
 40
0.0
 40
0.0
 40
0.0
 40
0.1142394967
 40
0.2356661376
 40
0.3641458939
 40
0.4940010091
 40
0.7498487469
 40
1.0
 40
1.0
 40
1.0
 40
1.0
 10
103.0893628475
 20
288.6380874712
 30
0.0
 10
103.0654744178
 20
288.617461955
 30
0.0
 10
103.0068700832
 20
288.5829874445
 30
0.0
 10
102.9015694973
 20
288.5849224314
 30
0.0
 10
102.8057125941
 20
288.6321174749
 30
0.0
 10
102.6960237446
 20
288.7233535606
 30
0.0
 10
102.5873050505
 20
288.8633978425
 30
0.0
 10
102.5193351828
 20
288.9858614953
 30
0.0
 10
102.4893628475
 20
289.0481321634
 30
0.0
  0
SPLINE
  5
5B9
100
AcDbEntity
  8
6_ALL_SURFS
100
AcDbSpline
 62
7
  6
CONTINUOUS
 70
0
 71
3
 72
13
 73
9
 74
0
 42
0.0000001
 43
0.0000001
 44
0.0000000001
 40
0.0
 40
0.0
 40
0.0
 40
0.0
 40
0.2501510471
 40
0.5059979357
 40
0.6358515428
 40
0.7643297578
 40
0.8857586987
 40
1.0
 40
1.0
 40
1.0
 40
1.0
 10
102.4893628475
 20
480.7365097611
 30
0.0
 10
102.5193351535
 20
480.7987803684
 30
0.0
 10
102.58730488
 20
480.9212437465
 30
0.0
 10
102.6960230208
 20
481.0612874783
 30
0.0
 10
102.8057108365
 20
481.1525231098
 30
0.0
 10
102.9015670602
 20
481.199718597
 30
0.0
 10
103.0068684526
 20
481.2016552559
 30
0.0
 10
103.0654740441
 20
481.1671802921
 30
0.0
 10
103.0893628475
 20
481.1465544533
 30
0.0
  0
SPLINE
  5
5BA
100
AcDbEntity
  8
6_ALL_SURFS
100
AcDbSpline
 62
7
  6
CONTINUOUS
 70
0
 71
3
 72
13
 73
9
 74
0
 42
0.0000001
 43
0.0000001
 44
0.0000000001
 40
0.0
 40
0.0
 40
0.0
 40
0.0
 40
0.1142394967
 40
0.2356661376
 40
0.3641458939
 40
0.4940010091
 40
0.7498487469
 40
1.0
 40
1.0
 40
1.0
 40
1.0
 10
103.0893628475
 20
88.6380874712
 30
0.0
 10
103.0654744178
 20
88.617461955
 30
0.0
 10
103.0068700832
 20
88.5829874445
 30
0.0
 10
102.9015694973
 20
88.5849224314
 30
0.0
 10
102.8057125941
 20
88.6321174749
 30
0.0
 10
102.6960237446
 20
88.7233535606
 30
0.0
 10
102.5873050505
 20
88.8633978425
 30
0.0
 10
102.5193351828
 20
88.9858614953
 30
0.0
 10
102.4893628475
 20
89.0481321634
 30
0.0
  0
SPLINE
  5
5BB
100
AcDbEntity
  8
6_ALL_SURFS
100
AcDbSpline
 62
7
  6
CONTINUOUS
 70
0
 71
3
 72
13
 73
9
 74
0
 42
0.0000001
 43
0.0000001
 44
0.0000000001
 40
0.0
 40
0.0
 40
0.0
 40
0.0
 40
0.2501510471
 40
0.5059979357
 40
0.6358515428
 40
0.7643297578
 40
0.8857586987
 40
1.0
 40
1.0
 40
1.0
 40
1.0
 10
102.4893628475
 20
280.7365097611
 30
0.0
 10
102.5193351535
 20
280.7987803684
 30
0.0
 10
102.58730488
 20
280.9212437465
 30
0.0
 10
102.6960230208
 20
281.0612874783
 30
0.0
 10
102.8057108365
 20
281.1525231098
 30
0.0
 10
102.9015670602
 20
281.199718597
 30
0.0
 10
103.0068684526
 20
281.2016552559
 30
0.0
 10
103.0654740441
 20
281.1671802921
 30
0.0
 10
103.0893628475
 20
281.1465544533
 30
0.0
  0
SPLINE
  5
5BC
100
AcDbEntity
  8
6_ALL_SURFS
100
AcDbSpline
 62
7
  6
CONTINUOUS
 70
0
 71
3
 72
13
 73
9
 74
0
 42
0.0000001
 43
0.0000001
 44
0.0000000001
 40
0.0
 40
0.0
 40
0.0
 40
0.0
 40
0.2501510471
 40
0.5059979357
 40
0.6358515428
 40
0.7643297578
 40
0.8857586987
 40
1.0
 40
1.0
 40
1.0
 40
1.0
 10
102.4893628475
 20
80.7365097611
 30
0.0
 10
102.5193351535
 20
80.7987803684
 30
0.0
 10
102.58730488
 20
80.9212437465
 30
0.0
 10
102.6960230208
 20
81.0612874783
 30
0.0
 10
102.8057108365
 20
81.1525231098
 30
0.0
 10
102.9015670602
 20
81.199718597
 30
0.0
 10
103.0068684526
 20
81.2016552559
 30
0.0
 10
103.0654740441
 20
81.1671802921
 30
0.0
 10
103.0893628475
 20
81.1465544533
 30
0.0
  0
SPLINE
  5
5BD
100
AcDbEntity
  8
7_ALL_FEATURES
100
AcDbSpline
 62
7
  6
CONTINUOUS
 70
0
 71
3
 72
13
 73
9
 74
0
 42
0.0000001
 43
0.0000001
 44
0.0000000001
 40
0.0
 40
0.0
 40
0.0
 40
0.0
 40
0.2501510471
 40
0.5059979357
 40
0.6358515428
 40
0.7643297578
 40
0.8857586987
 40
1.0
 40
1.0
 40
1.0
 40
1.0
 10
167.7893628475
 20
80.7365097611
 30
0.0
 10
167.7593905415
 20
80.7987803684
 30
0.0
 10
167.691420815
 20
80.9212437465
 30
0.0
 10
167.5827026742
 20
81.0612874783
 30
0.0
 10
167.4730148585
 20
81.1525231098
 30
0.0
 10
167.3771586348
 20
81.199718597
 30
0.0
 10
167.2718572425
 20
81.2016552559
 30
0.0
 10
167.213251651
 20
81.1671802921
 30
0.0
 10
167.1893628475
 20
81.1465544533
 30
0.0
  0
SPLINE
  5
5BE
100
AcDbEntity
  8
7_ALL_FEATURES
100
AcDbSpline
 62
7
  6
CONTINUOUS
 70
0
 71
3
 72
13
 73
9
 74
0
 42
0.0000001
 43
0.0000001
 44
0.0000000001
 40
0.0
 40
0.0
 40
0.0
 40
0.0
 40
0.2501510471
 40
0.5059979357
 40
0.6358515428
 40
0.7643297578
 40
0.8857586987
 40
1.0
 40
1.0
 40
1.0
 40
1.0
 10
167.7893628475
 20
280.7365097611
 30
0.0
 10
167.7593905415
 20
280.7987803684
 30
0.0
 10
167.691420815
 20
280.9212437465
 30
0.0
 10
167.5827026742
 20
281.0612874783
 30
0.0
 10
167.4730148585
 20
281.1525231098
 30
0.0
 10
167.3771586348
 20
281.199718597
 30
0.0
 10
167.2718572425
 20
281.2016552559
 30
0.0
 10
167.213251651
 20
281.1671802921
 30
0.0
 10
167.1893628475
 20
281.1465544533
 30
0.0
  0
SPLINE
  5
5BF
100
AcDbEntity
  8
7_ALL_FEATURES
100
AcDbSpline
 62
7
  6
CONTINUOUS
 70
0
 71
3
 72
13
 73
9
 74
0
 42
0.0000001
 43
0.0000001
 44
0.0000000001
 40
0.0
 40
0.0
 40
0.0
 40
0.0
 40
0.1142394967
 40
0.2356661376
 40
0.3641458939
 40
0.4940010091
 40
0.7498487469
 40
1.0
 40
1.0
 40
1.0
 40
1.0
 10
167.1893628475
 20
88.6380874712
 30
0.0
 10
167.2132512773
 20
88.617461955
 30
0.0
 10
167.2718556119
 20
88.5829874445
 30
0.0
 10
167.3771561977
 20
88.5849224314
 30
0.0
 10
167.473013101
 20
88.6321174749
 30
0.0
 10
167.5827019504
 20
88.7233535606
 30
0.0
 10
167.6914206446
 20
88.8633978425
 30
0.0
 10
167.7593905123
 20
88.9858614953
 30
0.0
 10
167.7893628475
 20
89.0481321634
 30
0.0
  0
SPLINE
  5
5C0
100
AcDbEntity
  8
7_ALL_FEATURES
100
AcDbSpline
 62
7
  6
CONTINUOUS
 70
0
 71
3
 72
13
 73
9
 74
0
 42
0.0000001
 43
0.0000001
 44
0.0000000001
 40
0.0
 40
0.0
 40
0.0
 40
0.0
 40
0.2501510471
 40
0.5059979357
 40
0.6358515428
 40
0.7643297578
 40
0.8857586987
 40
1.0
 40
1.0
 40
1.0
 40
1.0
 10
167.7893628475
 20
480.7365097611
 30
0.0
 10
167.7593905415
 20
480.7987803684
 30
0.0
 10
167.691420815
 20
480.9212437465
 30
0.0
 10
167.5827026742
 20
481.0612874783
 30
0.0
 10
167.4730148585
 20
481.1525231098
 30
0.0
 10
167.3771586348
 20
481.199718597
 30
0.0
 10
167.2718572425
 20
481.2016552559
 30
0.0
 10
167.213251651
 20
481.1671802921
 30
0.0
 10
167.1893628475
 20
481.1465544533
 30
0.0
  0
SPLINE
  5
5C1
100
AcDbEntity
  8
7_ALL_FEATURES
100
AcDbSpline
 62
7
  6
CONTINUOUS
 70
0
 71
3
 72
13
 73
9
 74
0
 42
0.0000001
 43
0.0000001
 44
0.0000000001
 40
0.0
 40
0.0
 40
0.0
 40
0.0
 40
0.1142394967
 40
0.2356661376
 40
0.3641458939
 40
0.4940010091
 40
0.7498487469
 40
1.0
 40
1.0
 40
1.0
 40
1.0
 10
167.1893628475
 20
288.6380874712
 30
0.0
 10
167.2132512773
 20
288.617461955
 30
0.0
 10
167.2718556119
 20
288.5829874445
 30
0.0
 10
167.3771561977
 20
288.5849224314
 30
0.0
 10
167.473013101
 20
288.6321174749
 30
0.0
 10
167.5827019504
 20
288.7233535606
 30
0.0
 10
167.6914206446
 20
288.8633978425
 30
0.0
 10
167.7593905123
 20
288.9858614953
 30
0.0
 10
167.7893628475
 20
289.0481321634
 30
0.0
  0
SPLINE
  5
5C2
100
AcDbEntity
  8
7_ALL_FEATURES
100
AcDbSpline
 62
7
  6
CONTINUOUS
 70
0
 71
3
 72
13
 73
9
 74
0
 42
0.0000001
 43
0.0000001
 44
0.0000000001
 40
0.0
 40
0.0
 40
0.0
 40
0.0
 40
0.1142394967
 40
0.2356661376
 40
0.3641458939
 40
0.4940010091
 40
0.7498487469
 40
1.0
 40
1.0
 40
1.0
 40
1.0
 10
167.1893628475
 20
488.6380874712
 30
0.0
 10
167.2132512773
 20
488.617461955
 30
0.0
 10
167.2718556119
 20
488.5829874445
 30
0.0
 10
167.3771561977
 20
488.5849224314
 30
0.0
 10
167.473013101
 20
488.6321174749
 30
0.0
 10
167.5827019504
 20
488.7233535606
 30
0.0
 10
167.6914206446
 20
488.8633978425
 30
0.0
 10
167.7593905123
 20
488.9858614953
 30
0.0
 10
167.7893628475
 20
489.0481321634
 30
0.0
  0
SPLINE
  5
5C3
100
AcDbEntity
  8
7_ALL_FEATURES
100
AcDbSpline
 62
7
  6
CONTINUOUS
 70
0
 71
3
 72
11
 73
7
 74
0
 42
0.0000001
 43
0.0000001
 44
0.0000000001
 40
0.0
 40
0.0
 40
0.0
 40
0.0
 40
0.2424934169
 40
0.49876283
 40
0.7553720838
 40
1.0
 40
1.0
 40
1.0
 40
1.0
 10
170.7893628475
 20
80.1309381022
 30
0.0
 10
170.7527286246
 20
80.1742872938
 30
0.0
 10
170.6628845338
 20
80.253996519
 30
0.0
 10
170.479694641
 20
80.2945257908
 30
0.0
 10
170.3078533236
 20
80.2235466033
 30
0.0
 10
170.2242882913
 20
80.1386523388
 30
0.0
 10
170.1893628475
 20
80.0932828565
 30
0.0
  0
SPLINE
  5
5C4
100
AcDbEntity
  8
7_ALL_FEATURES
100
AcDbSpline
 62
7
  6
CONTINUOUS
 70
0
 71
3
 72
11
 73
7
 74
0
 42
0.0000001
 43
0.0000001
 44
0.0000000001
 40
0.0
 40
0.0
 40
0.0
 40
0.0
 40
0.2424934169
 40
0.49876283
 40
0.7553720838
 40
1.0
 40
1.0
 40
1.0
 40
1.0
 10
170.7893628475
 20
280.1309381022
 30
0.0
 10
170.7527286246
 20
280.1742872938
 30
0.0
 10
170.6628845338
 20
280.253996519
 30
0.0
 10
170.479694641
 20
280.2945257908
 30
0.0
 10
170.3078533236
 20
280.2235466033
 30
0.0
 10
170.2242882913
 20
280.1386523388
 30
0.0
 10
170.1893628475
 20
280.0932828565
 30
0.0
  0
SPLINE
  5
5C5
100
AcDbEntity
  8
7_ALL_FEATURES
100
AcDbSpline
 62
7
  6
CONTINUOUS
 70
0
 71
3
 72
11
 73
7
 74
0
 42
0.0000001
 43
0.0000001
 44
0.0000000001
 40
0.0
 40
0.0
 40
0.0
 40
0.0
 40
0.2446328716
 40
0.5012418941
 40
0.7575078937
 40
1.0
 40
1.0
 40
1.0
 40
1.0
 10
170.1893628475
 20
89.6913590679
 30
0.0
 10
170.2242889958
 20
89.6459886704
 30
0.0
 10
170.3078551154
 20
89.5610936645
 30
0.0
 10
170.4796975786
 20
89.4901163955
 30
0.0
 10
170.6628856865
 20
89.5306463225
 30
0.0
 10
170.7527288257
 20
89.6103548686
 30
0.0
 10
170.7893628475
 20
89.6537038222
 30
0.0
  0
SPLINE
  5
5C6
100
AcDbEntity
  8
7_ALL_FEATURES
100
AcDbSpline
 62
7
  6
CONTINUOUS
 70
0
 71
3
 72
11
 73
7
 74
0
 42
0.0000001
 43
0.0000001
 44
0.0000000001
 40
0.0
 40
0.0
 40
0.0
 40
0.0
 40
0.2424934169
 40
0.49876283
 40
0.7553720838
 40
1.0
 40
1.0
 40
1.0
 40
1.0
 10
170.7893628475
 20
480.1309381022
 30
0.0
 10
170.7527286246
 20
480.1742872938
 30
0.0
 10
170.6628845338
 20
480.253996519
 30
0.0
 10
170.479694641
 20
480.2945257908
 30
0.0
 10
170.3078533236
 20
480.2235466033
 30
0.0
 10
170.2242882913
 20
480.1386523388
 30
0.0
 10
170.1893628475
 20
480.0932828565
 30
0.0
  0
SPLINE
  5
5C7
100
AcDbEntity
  8
7_ALL_FEATURES
100
AcDbSpline
 62
7
  6
CONTINUOUS
 70
0
 71
3
 72
11
 73
7
 74
0
 42
0.0000001
 43
0.0000001
 44
0.0000000001
 40
0.0
 40
0.0
 40
0.0
 40
0.0
 40
0.2446328716
 40
0.5012418941
 40
0.7575078937
 40
1.0
 40
1.0
 40
1.0
 40
1.0
 10
170.1893628475
 20
289.6913590679
 30
0.0
 10
170.2242889958
 20
289.6459886704
 30
0.0
 10
170.3078551154
 20
289.5610936645
 30
0.0
 10
170.4796975786
 20
289.4901163955
 30
0.0
 10
170.6628856865
 20
289.5306463225
 30
0.0
 10
170.7527288257
 20
289.6103548686
 30
0.0
 10
170.7893628475
 20
289.6537038222
 30
0.0
  0
SPLINE
  5
5C8
100
AcDbEntity
  8
7_ALL_FEATURES
100
AcDbSpline
 62
7
  6
CONTINUOUS
 70
0
 71
3
 72
11
 73
7
 74
0
 42
0.0000001
 43
0.0000001
 44
0.0000000001
 40
0.0
 40
0.0
 40
0.0
 40
0.0
 40
0.2446328716
 40
0.5012418941
 40
0.7575078937
 40
1.0
 40
1.0
 40
1.0
 40
1.0
 10
170.1893628475
 20
489.6913590679
 30
0.0
 10
170.2242889958
 20
489.6459886704
 30
0.0
 10
170.3078551154
 20
489.5610936645
 30
0.0
 10
170.4796975786
 20
489.4901163955
 30
0.0
 10
170.6628856865
 20
489.5306463225
 30
0.0
 10
170.7527288257
 20
489.6103548686
 30
0.0
 10
170.7893628475
 20
489.6537038222
 30
0.0
  0
SPLINE
  5
5C9
100
AcDbEntity
  8
6_ALL_SURFS
100
AcDbSpline
 62
7
  6
CONTINUOUS
 70
0
 71
3
 72
11
 73
7
 74
0
 42
0.0000001
 43
0.0000001
 44
0.0000000001
 40
0.0
 40
0.0
 40
0.0
 40
0.0
 40
0.2446243619
 40
0.5012344991
 40
0.7575064798
 40
1.0
 40
1.0
 40
1.0
 40
1.0
 10
625.8884009532
 20
624.3923209622
 30
0.0
 10
625.8430321276
 20
624.4272459005
 30
0.0
 10
625.7581382481
 20
624.5108102467
 30
0.0
 10
625.6871577437
 20
624.682651054
 30
0.0
 10
625.727686863
 20
624.8658421551
 30
0.0
 10
625.807396495
 20
624.9556867216
 30
0.0
 10
625.8507457076
 20
624.9923209622
 30
0.0
  0
SPLINE
  5
5CA
100
AcDbEntity
  8
6_ALL_SURFS
100
AcDbSpline
 62
7
  6
CONTINUOUS
 70
0
 71
3
 72
11
 73
7
 74
0
 42
0.0000001
 43
0.0000001
 44
0.0000000001
 40
0.0
 40
0.0
 40
0.0
 40
0.0
 40
0.2446243619
 40
0.5012344991
 40
0.7575064798
 40
1.0
 40
1.0
 40
1.0
 40
1.0
 10
425.8884009532
 20
624.3923209622
 30
0.0
 10
425.8430321276
 20
624.4272459005
 30
0.0
 10
425.7581382481
 20
624.5108102467
 30
0.0
 10
425.6871577437
 20
624.682651054
 30
0.0
 10
425.727686863
 20
624.8658421551
 30
0.0
 10
425.807396495
 20
624.9556867216
 30
0.0
 10
425.8507457076
 20
624.9923209622
 30
0.0
  0
SPLINE
  5
5CB
100
AcDbEntity
  8
6_ALL_SURFS
100
AcDbSpline
 62
7
  6
CONTINUOUS
 70
0
 71
3
 72
11
 73
7
 74
0
 42
0.0000001
 43
0.0000001
 44
0.0000000001
 40
0.0
 40
0.0
 40
0.0
 40
0.0
 40
0.2424935202
 40
0.4987655009
 40
0.7553756381
 40
1.0
 40
1.0
 40
1.0
 40
1.0
 10
616.3279799875
 20
624.9923209622
 30
0.0
 10
616.3713292001
 20
624.9556867216
 30
0.0
 10
616.451038832
 20
624.8658421551
 30
0.0
 10
616.4915679514
 20
624.682651054
 30
0.0
 10
616.4205874469
 20
624.5108102467
 30
0.0
 10
616.3356935675
 20
624.4272459005
 30
0.0
 10
616.2903247418
 20
624.3923209622
 30
0.0
  0
SPLINE
  5
5CC
100
AcDbEntity
  8
6_ALL_SURFS
100
AcDbSpline
 62
7
  6
CONTINUOUS
 70
0
 71
3
 72
11
 73
7
 74
0
 42
0.0000001
 43
0.0000001
 44
0.0000000001
 40
0.0
 40
0.0
 40
0.0
 40
0.0
 40
0.2446243619
 40
0.5012344991
 40
0.7575064798
 40
1.0
 40
1.0
 40
1.0
 40
1.0
 10
225.8884009532
 20
624.3923209622
 30
0.0
 10
225.8430321276
 20
624.4272459005
 30
0.0
 10
225.7581382481
 20
624.5108102467
 30
0.0
 10
225.6871577437
 20
624.682651054
 30
0.0
 10
225.727686863
 20
624.8658421551
 30
0.0
 10
225.807396495
 20
624.9556867216
 30
0.0
 10
225.8507457076
 20
624.9923209622
 30
0.0
  0
SPLINE
  5
5CD
100
AcDbEntity
  8
6_ALL_SURFS
100
AcDbSpline
 62
7
  6
CONTINUOUS
 70
0
 71
3
 72
11
 73
7
 74
0
 42
0.0000001
 43
0.0000001
 44
0.0000000001
 40
0.0
 40
0.0
 40
0.0
 40
0.0
 40
0.2424935202
 40
0.4987655009
 40
0.7553756381
 40
1.0
 40
1.0
 40
1.0
 40
1.0
 10
416.3279799875
 20
624.9923209622
 30
0.0
 10
416.3713292001
 20
624.9556867216
 30
0.0
 10
416.451038832
 20
624.8658421551
 30
0.0
 10
416.4915679514
 20
624.682651054
 30
0.0
 10
416.4205874469
 20
624.5108102467
 30
0.0
 10
416.3356935675
 20
624.4272459005
 30
0.0
 10
416.2903247418
 20
624.3923209622
 30
0.0
  0
SPLINE
  5
5CE
100
AcDbEntity
  8
6_ALL_SURFS
100
AcDbSpline
 62
7
  6
CONTINUOUS
 70
0
 71
3
 72
11
 73
7
 74
0
 42
0.0000001
 43
0.0000001
 44
0.0000000001
 40
0.0
 40
0.0
 40
0.0
 40
0.0
 40
0.2424935202
 40
0.4987655009
 40
0.7553756381
 40
1.0
 40
1.0
 40
1.0
 40
1.0
 10
216.3279799875
 20
624.9923209622
 30
0.0
 10
216.3713292001
 20
624.9556867216
 30
0.0
 10
216.451038832
 20
624.8658421551
 30
0.0
 10
216.4915679514
 20
624.682651054
 30
0.0
 10
216.4205874469
 20
624.5108102467
 30
0.0
 10
216.3356935675
 20
624.4272459005
 30
0.0
 10
216.2903247419
 20
624.3923209622
 30
0.0
  0
SPLINE
  5
5CF
100
AcDbEntity
  8
6_ALL_SURFS
100
AcDbSpline
 62
7
  6
CONTINUOUS
 70
0
 71
3
 72
13
 73
9
 74
0
 42
0.0000001
 43
0.0000001
 44
0.0000000001
 40
0.0
 40
0.0
 40
0.0
 40
0.0
 40
0.1142402651
 40
0.235668321
 40
0.3641484279
 40
0.4940029282
 40
0.749849614
 40
1.0
 40
1.0
 40
1.0
 40
1.0
 10
624.8351293565
 20
621.3923209622
 30
0.0
 10
624.8145037034
 20
621.4162095505
 30
0.0
 10
624.7800288959
 20
621.4748145192
 30
0.0
 10
624.7819648451
 20
621.5801158976
 30
0.0
 10
624.8291604977
 20
621.6759727493
 30
0.0
 10
624.9203965065
 20
621.7856611744
 30
0.0
 10
625.0604404398
 20
621.8943791274
 30
0.0
 10
625.182903602
 20
621.9623487335
 30
0.0
 10
625.2451740487
 20
621.9923209622
 30
0.0
  0
SPLINE
  5
5D0
100
AcDbEntity
  8
6_ALL_SURFS
100
AcDbSpline
 62
7
  6
CONTINUOUS
 70
0
 71
3
 72
13
 73
9
 74
0
 42
0.0000001
 43
0.0000001
 44
0.0000000001
 40
0.0
 40
0.0
 40
0.0
 40
0.0
 40
0.1142402651
 40
0.235668321
 40
0.3641484279
 40
0.4940029282
 40
0.749849614
 40
1.0
 40
1.0
 40
1.0
 40
1.0
 10
424.8351293565
 20
621.3923209622
 30
0.0
 10
424.8145037034
 20
621.4162095505
 30
0.0
 10
424.7800288959
 20
621.4748145192
 30
0.0
 10
424.7819648451
 20
621.5801158976
 30
0.0
 10
424.8291604977
 20
621.6759727493
 30
0.0
 10
424.9203965065
 20
621.7856611744
 30
0.0
 10
425.0604404398
 20
621.8943791274
 30
0.0
 10
425.182903602
 20
621.9623487335
 30
0.0
 10
425.2451740487
 20
621.9923209622
 30
0.0
  0
SPLINE
  5
5D1
100
AcDbEntity
  8
6_ALL_SURFS
100
AcDbSpline
 62
7
  6
CONTINUOUS
 70
0
 71
3
 72
13
 73
9
 74
0
 42
0.0000001
 43
0.0000001
 44
0.0000000001
 40
0.0
 40
0.0
 40
0.0
 40
0.0
 40
0.2501526405
 40
0.5060013929
 40
0.6358570541
 40
0.7643380865
 40
0.8857625779
 40
1.0
 40
1.0
 40
1.0
 40
1.0
 10
616.9335516464
 20
621.9923209622
 30
0.0
 10
616.9958226691
 20
621.9623484563
 30
0.0
 10
617.1182869253
 20
621.8943782358
 30
0.0
 10
617.2583316
 20
621.78565863
 30
0.0
 10
617.3495679856
 20
621.6759690257
 30
0.0
 10
617.3967624187
 20
621.5801116655
 30
0.0
 10
617.398695494
 20
621.474811991
 30
0.0
 10
617.3642214833
 20
621.4162089617
 30
0.0
 10
617.3435963386
 20
621.3923209622
 30
0.0
  0
SPLINE
  5
5D2
100
AcDbEntity
  8
6_ALL_SURFS
100
AcDbSpline
 62
7
  6
CONTINUOUS
 70
0
 71
3
 72
13
 73
9
 74
0
 42
0.0000001
 43
0.0000001
 44
0.0000000001
 40
0.0
 40
0.0
 40
0.0
 40
0.0
 40
0.1142402651
 40
0.235668321
 40
0.3641484279
 40
0.4940029282
 40
0.749849614
 40
1.0
 40
1.0
 40
1.0
 40
1.0
 10
224.8351293565
 20
621.3923209622
 30
0.0
 10
224.8145037034
 20
621.4162095505
 30
0.0
 10
224.7800288959
 20
621.4748145192
 30
0.0
 10
224.7819648451
 20
621.5801158976
 30
0.0
 10
224.8291604977
 20
621.6759727493
 30
0.0
 10
224.9203965065
 20
621.7856611744
 30
0.0
 10
225.0604404398
 20
621.8943791274
 30
0.0
 10
225.182903602
 20
621.9623487335
 30
0.0
 10
225.2451740487
 20
621.9923209622
 30
0.0
  0
SPLINE
  5
5D3
100
AcDbEntity
  8
6_ALL_SURFS
100
AcDbSpline
 62
7
  6
CONTINUOUS
 70
0
 71
3
 72
13
 73
9
 74
0
 42
0.0000001
 43
0.0000001
 44
0.0000000001
 40
0.0
 40
0.0
 40
0.0
 40
0.0
 40
0.2501526405
 40
0.5060013929
 40
0.6358570541
 40
0.7643380865
 40
0.8857625779
 40
1.0
 40
1.0
 40
1.0
 40
1.0
 10
416.9335516464
 20
621.9923209622
 30
0.0
 10
416.9958226691
 20
621.9623484563
 30
0.0
 10
417.1182869253
 20
621.8943782358
 30
0.0
 10
417.2583316
 20
621.78565863
 30
0.0
 10
417.3495679856
 20
621.6759690257
 30
0.0
 10
417.3967624187
 20
621.5801116655
 30
0.0
 10
417.398695494
 20
621.474811991
 30
0.0
 10
417.3642214833
 20
621.4162089617
 30
0.0
 10
417.3435963386
 20
621.3923209622
 30
0.0
  0
SPLINE
  5
5D4
100
AcDbEntity
  8
6_ALL_SURFS
100
AcDbSpline
 62
7
  6
CONTINUOUS
 70
0
 71
3
 72
13
 73
9
 74
0
 42
0.0000001
 43
0.0000001
 44
0.0000000001
 40
0.0
 40
0.0
 40
0.0
 40
0.0
 40
0.2501526405
 40
0.5060013929
 40
0.6358570541
 40
0.7643380865
 40
0.8857625779
 40
1.0
 40
1.0
 40
1.0
 40
1.0
 10
216.9335516464
 20
621.9923209622
 30
0.0
 10
216.9958226691
 20
621.9623484563
 30
0.0
 10
217.1182869253
 20
621.8943782358
 30
0.0
 10
217.2583316
 20
621.78565863
 30
0.0
 10
217.3495679856
 20
621.6759690257
 30
0.0
 10
217.3967624187
 20
621.5801116655
 30
0.0
 10
217.398695494
 20
621.474811991
 30
0.0
 10
217.3642214833
 20
621.4162089617
 30
0.0
 10
217.3435963386
 20
621.3923209622
 30
0.0
  0
SPLINE
  5
5D5
100
AcDbEntity
  8
7_ALL_FEATURES
100
AcDbSpline
 62
7
  6
CONTINUOUS
 70
0
 71
3
 72
13
 73
9
 74
0
 42
0.0000001
 43
0.0000001
 44
0.0000000001
 40
0.0
 40
0.0
 40
0.0
 40
0.0
 40
0.2501526405
 40
0.5060013929
 40
0.6358570541
 40
0.7643380865
 40
0.8857625779
 40
1.0
 40
1.0
 40
1.0
 40
1.0
 10
216.9335516464
 20
556.6923209622
 30
0.0
 10
216.9958226691
 20
556.7222934682
 30
0.0
 10
217.1182869253
 20
556.7902636886
 30
0.0
 10
217.2583316
 20
556.8989832944
 30
0.0
 10
217.3495679856
 20
557.0086728988
 30
0.0
 10
217.3967624187
 20
557.104530259
 30
0.0
 10
217.398695494
 20
557.2098299334
 30
0.0
 10
217.3642214833
 20
557.2684329627
 30
0.0
 10
217.3435963386
 20
557.2923209622
 30
0.0
  0
SPLINE
  5
5D6
100
AcDbEntity
  8
7_ALL_FEATURES
100
AcDbSpline
 62
7
  6
CONTINUOUS
 70
0
 71
3
 72
13
 73
9
 74
0
 42
0.0000001
 43
0.0000001
 44
0.0000000001
 40
0.0
 40
0.0
 40
0.0
 40
0.0
 40
0.2501526405
 40
0.5060013929
 40
0.6358570541
 40
0.7643380865
 40
0.8857625779
 40
1.0
 40
1.0
 40
1.0
 40
1.0
 10
416.9335516464
 20
556.6923209622
 30
0.0
 10
416.9958226691
 20
556.7222934682
 30
0.0
 10
417.1182869253
 20
556.7902636886
 30
0.0
 10
417.2583316
 20
556.8989832944
 30
0.0
 10
417.3495679856
 20
557.0086728988
 30
0.0
 10
417.3967624187
 20
557.104530259
 30
0.0
 10
417.398695494
 20
557.2098299334
 30
0.0
 10
417.3642214833
 20
557.2684329627
 30
0.0
 10
417.3435963386
 20
557.2923209622
 30
0.0
  0
SPLINE
  5
5D7
100
AcDbEntity
  8
7_ALL_FEATURES
100
AcDbSpline
 62
7
  6
CONTINUOUS
 70
0
 71
3
 72
13
 73
9
 74
0
 42
0.0000001
 43
0.0000001
 44
0.0000000001
 40
0.0
 40
0.0
 40
0.0
 40
0.0
 40
0.1142402651
 40
0.235668321
 40
0.3641484279
 40
0.4940029282
 40
0.749849614
 40
1.0
 40
1.0
 40
1.0
 40
1.0
 10
224.8351293565
 20
557.2923209622
 30
0.0
 10
224.8145037034
 20
557.2684323739
 30
0.0
 10
224.7800288959
 20
557.2098274052
 30
0.0
 10
224.7819648451
 20
557.1045260269
 30
0.0
 10
224.8291604977
 20
557.0086691751
 30
0.0
 10
224.9203965065
 20
556.89898075
 30
0.0
 10
225.0604404398
 20
556.7902627971
 30
0.0
 10
225.182903602
 20
556.7222931909
 30
0.0
 10
225.2451740487
 20
556.6923209622
 30
0.0
  0
SPLINE
  5
5D8
100
AcDbEntity
  8
7_ALL_FEATURES
100
AcDbSpline
 62
7
  6
CONTINUOUS
 70
0
 71
3
 72
13
 73
9
 74
0
 42
0.0000001
 43
0.0000001
 44
0.0000000001
 40
0.0
 40
0.0
 40
0.0
 40
0.0
 40
0.2501526405
 40
0.5060013929
 40
0.6358570541
 40
0.7643380865
 40
0.8857625779
 40
1.0
 40
1.0
 40
1.0
 40
1.0
 10
616.9335516464
 20
556.6923209622
 30
0.0
 10
616.9958226691
 20
556.7222934682
 30
0.0
 10
617.1182869253
 20
556.7902636886
 30
0.0
 10
617.2583316
 20
556.8989832944
 30
0.0
 10
617.3495679856
 20
557.0086728988
 30
0.0
 10
617.3967624187
 20
557.104530259
 30
0.0
 10
617.398695494
 20
557.2098299334
 30
0.0
 10
617.3642214833
 20
557.2684329627
 30
0.0
 10
617.3435963386
 20
557.2923209622
 30
0.0
  0
SPLINE
  5
5D9
100
AcDbEntity
  8
7_ALL_FEATURES
100
AcDbSpline
 62
7
  6
CONTINUOUS
 70
0
 71
3
 72
13
 73
9
 74
0
 42
0.0000001
 43
0.0000001
 44
0.0000000001
 40
0.0
 40
0.0
 40
0.0
 40
0.0
 40
0.1142402651
 40
0.235668321
 40
0.3641484279
 40
0.4940029282
 40
0.749849614
 40
1.0
 40
1.0
 40
1.0
 40
1.0
 10
424.8351293565
 20
557.2923209622
 30
0.0
 10
424.8145037034
 20
557.2684323739
 30
0.0
 10
424.7800288959
 20
557.2098274052
 30
0.0
 10
424.7819648451
 20
557.1045260269
 30
0.0
 10
424.8291604977
 20
557.0086691751
 30
0.0
 10
424.9203965065
 20
556.89898075
 30
0.0
 10
425.0604404398
 20
556.7902627971
 30
0.0
 10
425.182903602
 20
556.7222931909
 30
0.0
 10
425.2451740487
 20
556.6923209622
 30
0.0
  0
SPLINE
  5
5DA
100
AcDbEntity
  8
7_ALL_FEATURES
100
AcDbSpline
 62
7
  6
CONTINUOUS
 70
0
 71
3
 72
13
 73
9
 74
0
 42
0.0000001
 43
0.0000001
 44
0.0000000001
 40
0.0
 40
0.0
 40
0.0
 40
0.0
 40
0.1142402651
 40
0.235668321
 40
0.3641484279
 40
0.4940029282
 40
0.749849614
 40
1.0
 40
1.0
 40
1.0
 40
1.0
 10
624.8351293565
 20
557.2923209622
 30
0.0
 10
624.8145037034
 20
557.2684323739
 30
0.0
 10
624.7800288959
 20
557.2098274052
 30
0.0
 10
624.7819648451
 20
557.1045260269
 30
0.0
 10
624.8291604977
 20
557.0086691751
 30
0.0
 10
624.9203965065
 20
556.89898075
 30
0.0
 10
625.0604404398
 20
556.7902627971
 30
0.0
 10
625.182903602
 20
556.7222931909
 30
0.0
 10
625.2451740487
 20
556.6923209622
 30
0.0
  0
SPLINE
  5
5DB
100
AcDbEntity
  8
7_ALL_FEATURES
100
AcDbSpline
 62
7
  6
CONTINUOUS
 70
0
 71
3
 72
11
 73
7
 74
0
 42
0.0000001
 43
0.0000001
 44
0.0000000001
 40
0.0
 40
0.0
 40
0.0
 40
0.0
 40
0.2424935202
 40
0.4987655009
 40
0.7553756381
 40
1.0
 40
1.0
 40
1.0
 40
1.0
 10
216.3279799875
 20
553.6923209622
 30
0.0
 10
216.3713292001
 20
553.7289552029
 30
0.0
 10
216.451038832
 20
553.8187997694
 30
0.0
 10
216.4915679514
 20
554.0019908704
 30
0.0
 10
216.4205874469
 20
554.1738316778
 30
0.0
 10
216.3356935675
 20
554.257396024
 30
0.0
 10
216.2903247419
 20
554.2923209622
 30
0.0
  0
SPLINE
  5
5DC
100
AcDbEntity
  8
7_ALL_FEATURES
100
AcDbSpline
 62
7
  6
CONTINUOUS
 70
0
 71
3
 72
11
 73
7
 74
0
 42
0.0000001
 43
0.0000001
 44
0.0000000001
 40
0.0
 40
0.0
 40
0.0
 40
0.0
 40
0.2424935202
 40
0.4987655009
 40
0.7553756381
 40
1.0
 40
1.0
 40
1.0
 40
1.0
 10
416.3279799875
 20
553.6923209622
 30
0.0
 10
416.3713292001
 20
553.7289552029
 30
0.0
 10
416.451038832
 20
553.8187997694
 30
0.0
 10
416.4915679514
 20
554.0019908704
 30
0.0
 10
416.4205874469
 20
554.1738316778
 30
0.0
 10
416.3356935675
 20
554.257396024
 30
0.0
 10
416.2903247418
 20
554.2923209622
 30
0.0
  0
SPLINE
  5
5DD
100
AcDbEntity
  8
7_ALL_FEATURES
100
AcDbSpline
 62
7
  6
CONTINUOUS
 70
0
 71
3
 72
11
 73
7
 74
0
 42
0.0000001
 43
0.0000001
 44
0.0000000001
 40
0.0
 40
0.0
 40
0.0
 40
0.0
 40
0.2446243619
 40
0.5012344991
 40
0.7575064798
 40
1.0
 40
1.0
 40
1.0
 40
1.0
 10
225.8884009532
 20
554.2923209622
 30
0.0
 10
225.8430321276
 20
554.257396024
 30
0.0
 10
225.7581382481
 20
554.1738316778
 30
0.0
 10
225.6871577437
 20
554.0019908704
 30
0.0
 10
225.727686863
 20
553.8187997694
 30
0.0
 10
225.807396495
 20
553.7289552029
 30
0.0
 10
225.8507457076
 20
553.6923209622
 30
0.0
  0
SPLINE
  5
5DE
100
AcDbEntity
  8
7_ALL_FEATURES
100
AcDbSpline
 62
7
  6
CONTINUOUS
 70
0
 71
3
 72
11
 73
7
 74
0
 42
0.0000001
 43
0.0000001
 44
0.0000000001
 40
0.0
 40
0.0
 40
0.0
 40
0.0
 40
0.2424935202
 40
0.4987655009
 40
0.7553756381
 40
1.0
 40
1.0
 40
1.0
 40
1.0
 10
616.3279799875
 20
553.6923209622
 30
0.0
 10
616.3713292001
 20
553.7289552029
 30
0.0
 10
616.451038832
 20
553.8187997694
 30
0.0
 10
616.4915679514
 20
554.0019908704
 30
0.0
 10
616.4205874469
 20
554.1738316778
 30
0.0
 10
616.3356935675
 20
554.257396024
 30
0.0
 10
616.2903247418
 20
554.2923209622
 30
0.0
  0
SPLINE
  5
5DF
100
AcDbEntity
  8
7_ALL_FEATURES
100
AcDbSpline
 62
7
  6
CONTINUOUS
 70
0
 71
3
 72
11
 73
7
 74
0
 42
0.0000001
 43
0.0000001
 44
0.0000000001
 40
0.0
 40
0.0
 40
0.0
 40
0.0
 40
0.2446243619
 40
0.5012344991
 40
0.7575064798
 40
1.0
 40
1.0
 40
1.0
 40
1.0
 10
425.8884009532
 20
554.2923209622
 30
0.0
 10
425.8430321276
 20
554.257396024
 30
0.0
 10
425.7581382481
 20
554.1738316778
 30
0.0
 10
425.6871577437
 20
554.0019908704
 30
0.0
 10
425.727686863
 20
553.8187997694
 30
0.0
 10
425.807396495
 20
553.7289552029
 30
0.0
 10
425.8507457076
 20
553.6923209622
 30
0.0
  0
SPLINE
  5
5E0
100
AcDbEntity
  8
7_ALL_FEATURES
100
AcDbSpline
 62
7
  6
CONTINUOUS
 70
0
 71
3
 72
11
 73
7
 74
0
 42
0.0000001
 43
0.0000001
 44
0.0000000001
 40
0.0
 40
0.0
 40
0.0
 40
0.0
 40
0.2446243619
 40
0.5012344991
 40
0.7575064798
 40
1.0
 40
1.0
 40
1.0
 40
1.0
 10
625.8884009532
 20
554.2923209622
 30
0.0
 10
625.8430321276
 20
554.257396024
 30
0.0
 10
625.7581382481
 20
554.1738316778
 30
0.0
 10
625.6871577437
 20
554.0019908704
 30
0.0
 10
625.727686863
 20
553.8187997694
 30
0.0
 10
625.807396495
 20
553.7289552029
 30
0.0
 10
625.8507457076
 20
553.6923209622
 30
0.0
  0
ELLIPSE
  5
5E1
100
AcDbEntity
  8
6_ALL_SURFS
100
AcDbEllipse
 62
7
  6
CONTINUOUS
 10
101.0545358193
 20
84.8923209622
 30
0.0
 11
5.5724287509
 21
0.0
 31
0.0
 40
0.9848857802
 41
2.5002570966
 42
3.7829282106
  0
ELLIPSE
  5
5E2
100
AcDbEntity
  8
6_ALL_SURFS
100
AcDbEllipse
 62
7
  6
CONTINUOUS
 10
101.0545358193
 20
284.8923209622
 30
0.0
 11
5.5724287509
 21
0.0
 31
0.0
 40
0.9848857802
 41
2.5002570966
 42
3.7829282106
  0
ELLIPSE
  5
5E3
100
AcDbEntity
  8
6_ALL_SURFS
100
AcDbEllipse
 62
7
  6
CONTINUOUS
 10
101.0545358193
 20
484.8923209622
 30
0.0
 11
5.5724287509
 21
0.0
 31
0.0
 40
0.9848857802
 41
8.7834424038
 42
10.0661135178
  0
ELLIPSE
  5
5E4
100
AcDbEntity
  8
7_ALL_FEATURES
100
AcDbEllipse
 62
7
  6
CONTINUOUS
 10
169.2241898757
 20
484.8923209622
 30
0.0
 11
5.5724287509
 21
0.0
 31
0.0
 40
0.9848857802
 41
5.6418497502
 42
6.9245208642
  0
ELLIPSE
  5
5E5
100
AcDbEntity
  8
7_ALL_FEATURES
100
AcDbEllipse
 62
7
  6
CONTINUOUS
 10
169.2241898757
 20
84.8923209622
 30
0.0
 11
5.5724287509
 21
-0.0
 31
0.0
 40
0.9848857802
 41
5.6418497502
 42
6.9245208642
  0
ELLIPSE
  5
5E6
100
AcDbEntity
  8
7_ALL_FEATURES
100
AcDbEllipse
 62
7
  6
CONTINUOUS
 10
169.2241898757
 20
284.8923209622
 30
0.0
 11
5.5724287509
 21
0.0
 31
0.0
 40
0.9848857802
 41
5.6418497502
 42
6.9245208642
  0
ELLIPSE
  5
5E7
100
AcDbEntity
  8
6_ALL_SURFS
100
AcDbEllipse
 62
7
  6
CONTINUOUS
 10
221.0893628475
 20
623.4271479904
 30
0.0
 11
0.0
 21
5.5724287509
 31
0.0
 40
0.9848857802
 41
-0.641335557
 42
0.641335557
  0
ELLIPSE
  5
5E8
100
AcDbEntity
  8
6_ALL_SURFS
100
AcDbEllipse
 62
7
  6
CONTINUOUS
 10
421.0893628475
 20
623.4271479904
 30
0.0
 11
0.0
 21
5.5724287509
 31
0.0
 40
0.9848857802
 41
-0.641335557
 42
0.641335557
  0
ELLIPSE
  5
5E9
100
AcDbEntity
  8
6_ALL_SURFS
100
AcDbEllipse
 62
7
  6
CONTINUOUS
 10
621.0893628475
 20
623.4271479904
 30
0.0
 11
-0.0
 21
5.5724287509
 31
0.0
 40
0.9848857802
 41
5.6418497502
 42
6.9245208642
  0
ELLIPSE
  5
5EA
100
AcDbEntity
  8
7_ALL_FEATURES
100
AcDbEllipse
 62
7
  6
CONTINUOUS
 10
621.0893628475
 20
555.257493934
 30
0.0
 11
0.0
 21
5.5724287509
 31
0.0
 40
0.9848857802
 41
2.5002570966
 42
3.7829282106
  0
ELLIPSE
  5
5EB
100
AcDbEntity
  8
7_ALL_FEATURES
100
AcDbEllipse
 62
7
  6
CONTINUOUS
 10
221.0893628475
 20
555.257493934
 30
0.0
 11
0.0
 21
5.5724287509
 31
0.0
 40
0.9848857802
 41
2.5002570966
 42
3.7829282106
  0
ELLIPSE
  5
5EC
100
AcDbEntity
  8
7_ALL_FEATURES
100
AcDbEllipse
 62
7
  6
CONTINUOUS
 10
421.0893628475
 20
555.257493934
 30
0.0
 11
0.0
 21
5.5724287509
 31
0.0
 40
0.9848857802
 41
2.5002570966
 42
3.7829282106
  0
ELLIPSE
  5
5ED
100
AcDbEntity
  8
7_ALL_FEATURES
100
AcDbEllipse
 62
7
  6
CONTINUOUS
 10
117.4001512371
 20
775.6797683109
 30
0.0
 11
0.4
 21
-0.0
 31
0.0
 40
1.0
 41
-2.024069789
 42
-1.5707963436
  0
ELLIPSE
  5
5EE
100
AcDbEntity
  8
7_ALL_FEATURES
100
AcDbEllipse
 62
7
  6
CONTINUOUS
 10
153.578574458
 20
775.6797683109
 30
0.0
 11
0.0
 21
0.4
 31
0.0
 40
1.0
 41
-3.5921912059
 42
-3.540955957
  0
ELLIPSE
  5
5EF
100
AcDbEntity
  8
7_ALL_FEATURES
100
AcDbEllipse
 62
7
  6
CONTINUOUS
 10
153.578574458
 20
775.6797683109
 30
0.0
 11
0.4
 21
-0.0
 31
0.0
 40
1.0
 41
4.3130256769
 42
5.5326937288
  0
ELLIPSE
  5
5F0
100
AcDbEntity
  8
7_ALL_FEATURES
100
AcDbEllipse
 62
7
  6
CONTINUOUS
 10
154.6393628475
 20
779.7797683109
 30
0.0
 11
-0.0
 21
0.2
 31
0.0
 40
1.0
 41
-0.8865519395
 42
-0.0
  0
ELLIPSE
  5
5F1
100
AcDbEntity
  8
7_ALL_FEATURES
100
AcDbEllipse
 62
7
  6
CONTINUOUS
 10
154.5893628475
 20
778.1597683109
 30
0.0
 11
0.0
 21
1.0
 31
0.0
 40
1.0
 41
-3.9621588773
 42
-3.715105758
  0
ELLIPSE
  5
5F2
100
AcDbEntity
  8
7_ALL_FEATURES
100
AcDbEllipse
 62
7
  6
CONTINUOUS
 10
118.3893628475
 20
778.6797683109
 30
0.0
 11
-0.0
 21
0.2
 31
0.0
 40
1.0
 41
0.0
 42
1.5707963268
  0
ELLIPSE
  5
5F3
100
AcDbEntity
  8
7_ALL_FEATURES
100
AcDbEllipse
 62
7
  6
CONTINUOUS
 10
116.3893628475
 20
778.1597683109
 30
0.0
 11
1.8
 21
-0.0
 31
0.0
 40
1.0
 41
-0.9972832224
 42
0.0
  0
ELLIPSE
  5
5F4
100
AcDbEntity
  8
7_ALL_FEATURES
100
AcDbEllipse
 62
7
  6
CONTINUOUS
 10
117.4745356448
 20
776.4797683109
 30
0.0
 11
0.0
 21
0.2
 31
0.0
 40
1.0
 41
0.5735131044
 42
2.3212879052
  0
ELLIPSE
  5
5F5
100
AcDbEntity
  8
7_ALL_FEATURES
100
AcDbEllipse
 62
7
  6
CONTINUOUS
 10
117.4001512371
 20
775.6797683109
 30
0.0
 11
0.0
 21
0.4
 31
0.0
 40
1.0
 41
-3.1415926704
 42
-0.8203047484
  0
ELLIPSE
  5
5F6
100
AcDbEntity
  8
7_ALL_FEATURES
100
AcDbEllipse
 62
7
  6
CONTINUOUS
 10
153.5041900502
 20
776.4797683109
 30
0.0
 11
1.0
 21
0.0
 31
0.0
 40
1.0
 41
-0.7504915784
 42
0.9972832224
  0
ELLIPSE
  5
5F7
100
AcDbEntity
  8
7_ALL_FEATURES
100
AcDbEllipse
 62
7
  6
CONTINUOUS
 10
621.0893628475
 20
778.9262856081
 30
0.0
 11
5.4882058378
 21
0.0
 31
0.0
 40
0.1015346165
 41
4.0710534234
 42
5.3537245374
  0
ELLIPSE
  5
5F8
100
AcDbEntity
  8
7_ALL_FEATURES
100
AcDbEllipse
 62
7
  6
CONTINUOUS
 10
221.0893628475
 20
778.9262856081
 30
0.0
 11
5.4882058378
 21
0.0
 31
0.0
 40
0.1015346165
 41
4.0710534234
 42
5.3537245374
  0
ELLIPSE
  5
5F9
100
AcDbEntity
  8
7_ALL_FEATURES
100
AcDbEllipse
 62
7
  6
CONTINUOUS
 10
421.0893628475
 20
778.9262856081
 30
0.0
 11
5.4882058378
 21
0.0
 31
0.0
 40
0.1015346165
 41
4.0710534234
 42
5.3537245374
  0
ELLIPSE
  5
5FA
100
AcDbEntity
  8
7_ALL_FEATURES
100
AcDbEllipse
 62
7
  6
CONTINUOUS
 10
421.0893628475
 20
775.6797683109
 30
0.0
 11
3.5
 21
-0.0
 31
0.0
 40
0.5
 41
7.5142890578
 42
8.1936742101
  0
ELLIPSE
  5
5FB
100
AcDbEntity
  8
7_ALL_FEATURES
100
AcDbEllipse
 62
7
  6
CONTINUOUS
 10
221.0893628475
 20
775.6797683109
 30
0.0
 11
3.5
 21
0.0
 31
0.0
 40
0.5
 41
7.5142890578
 42
8.1936742101
  0
ELLIPSE
  5
5FC
100
AcDbEntity
  8
7_ALL_FEATURES
100
AcDbEllipse
 62
7
  6
CONTINUOUS
 10
621.0893628475
 20
775.6797683109
 30
0.0
 11
3.5
 21
-0.0
 31
0.0
 40
0.5
 41
1.2311037506
 42
1.910488903
  0
ELLIPSE
  5
5FD
100
AcDbEntity
  8
7_ALL_FEATURES
100
AcDbEllipse
 62
7
  6
CONTINUOUS
 10
791.8490176569
 20
603.7521964777
 30
0.0
 11
-0.0
 21
0.3
 31
0.0
 40
1.0
 41
-3.8219003596
 42
-1.9918388853
  0
ELLIPSE
  5
5FE
100
AcDbEntity
  8
7_ALL_FEATURES
100
AcDbEllipse
 62
7
  6
CONTINUOUS
 10
788.4990176569
 20
604.1081842994
 30
0.0
 11
-0.0
 21
0.3
 31
0.0
 40
1.0
 41
-2.8361554327
 42
-2.6730203861
  0
ELLIPSE
  5
5FF
100
AcDbEntity
  8
7_ALL_FEATURES
100
AcDbEllipse
 62
7
  6
CONTINUOUS
 10
788.4990176569
 20
604.1081842994
 30
0.0
 11
0.3
 21
0.0
 31
0.0
 40
1.0
 41
3.1415926536
 42
5.0178262013
  0
ELLIPSE
  5
600
100
AcDbEntity
  8
7_ALL_FEATURES
100
AcDbEllipse
 62
7
  6
CONTINUOUS
 10
852.2990176569
 20
607.6423209622
 30
0.0
 11
0.3
 21
-0.0
 31
0.0
 40
1.0
 41
-0.2136177983
 42
0.0
  0
ELLIPSE
  5
601
100
AcDbEntity
  8
7_ALL_FEATURES
100
AcDbEllipse
 62
7
  6
CONTINUOUS
 10
852.2990176569
 20
607.6423209622
 30
0.0
 11
0.0
 21
0.3
 31
0.0
 40
1.0
 41
-2.9973616997
 42
-1.784414125
  0
ELLIPSE
  5
602
100
AcDbEntity
  8
7_ALL_FEATURES
100
AcDbEllipse
 62
7
  6
CONTINUOUS
 10
852.2990176569
 20
607.6423209622
 30
0.0
 11
0.3
 21
0.0
 31
0.0
 40
1.0
 41
-1.5707963268
 42
-1.4265653729
  0
ELLIPSE
  5
603
100
AcDbEntity
  8
7_ALL_FEATURES
100
AcDbEllipse
 62
7
  6
CONTINUOUS
 10
858.6990176569
 20
607.7923209622
 30
0.0
 11
0.0
 21
0.3
 31
0.0
 40
1.0
 41
1.5707963268
 42
3.1415926536
  0
ELLIPSE
  5
604
100
AcDbEntity
  8
7_ALL_FEATURES
100
AcDbEllipse
 62
7
  6
CONTINUOUS
 10
858.8888279957
 20
607.9923209622
 30
0.0
 11
-0.0
 21
0.5
 31
0.0
 40
1.0
 41
-2.6913579095
 42
-2.3911010752
  0
ELLIPSE
  5
605
100
AcDbEntity
  8
7_ALL_FEATURES
100
AcDbEllipse
 62
7
  6
CONTINUOUS
 10
858.8888279957
 20
607.9923209622
 30
0.0
 11
0.5
 21
0.0
 31
0.0
 40
1.0
 41
-1.1724003028
 42
-1.1205615827
  0
ELLIPSE
  5
606
100
AcDbEntity
  8
7_ALL_FEATURES
100
AcDbEllipse
 62
7
  6
CONTINUOUS
 10
858.8888279957
 20
607.9923209622
 30
0.0
 11
-0.0
 21
0.5
 31
0.0
 40
1.0
 41
-2.8317117505
 42
-2.7431966296
  0
ELLIPSE
  5
607
100
AcDbEntity
  8
7_ALL_FEATURES
100
AcDbEllipse
 62
7
  6
CONTINUOUS
 10
858.8888279957
 20
607.9923209622
 30
0.0
 11
0.5
 21
-0.0
 31
0.0
 40
1.0
 41
-1.4418872401
 42
-1.2609154237
  0
ELLIPSE
  5
608
100
AcDbEntity
  8
7_ALL_FEATURES
100
AcDbEllipse
 62
7
  6
CONTINUOUS
 10
858.8888279957
 20
607.9923209622
 30
0.0
 11
0.0
 21
0.5
 31
0.0
 40
1.0
 41
-3.1415926536
 42
-3.0126835669
  0
ELLIPSE
  5
609
100
AcDbEntity
  8
7_ALL_FEATURES
100
AcDbEllipse
 62
7
  6
CONTINUOUS
 10
863.6990176569
 20
610.6923209622
 30
0.0
 11
0.3
 21
-0.0
 31
0.0
 40
1.0
 41
-1.5707963268
 42
-1.0442236769
  0
ELLIPSE
  5
60A
100
AcDbEntity
  8
7_ALL_FEATURES
100
AcDbEllipse
 62
7
  6
CONTINUOUS
 10
865.2990176569
 20
610.4423209622
 30
0.0
 11
0.0
 21
0.3
 31
0.0
 40
1.0
 41
1.5707963268
 42
3.1415926536
  0
ELLIPSE
  5
60B
100
AcDbEntity
  8
6_ALL_SURFS
100
AcDbEllipse
 62
7
  6
CONTINUOUS
 10
862.1990176569
 20
284.8923209622
 30
0.0
 11
0.0
 21
3.5
 31
0.0
 40
0.5
 41
-1.910488903
 42
-1.2311037506
  0
ELLIPSE
  5
60C
100
AcDbEntity
  8
6_ALL_SURFS
100
AcDbEllipse
 62
7
  6
CONTINUOUS
 10
862.1990176569
 20
84.8923209622
 30
0.0
 11
0.0
 21
3.5
 31
0.0
 40
0.5
 41
-1.910488903
 42
-1.2311037506
  0
ELLIPSE
  5
60D
100
AcDbEntity
  8
6_ALL_SURFS
100
AcDbEllipse
 62
7
  6
CONTINUOUS
 10
862.1990176569
 20
484.8923209622
 30
0.0
 11
0.0
 21
3.5
 31
0.0
 40
0.5
 41
-1.910488903
 42
-1.2311037506
  0
ELLIPSE
  5
60E
100
AcDbEntity
  8
6_ALL_SURFS
100
AcDbEllipse
 62
7
  6
CONTINUOUS
 10
865.4455349541
 20
84.8923209622
 30
0.0
 11
0.0
 21
5.4882058378
 31
0.0
 40
0.1015346165
 41
0.9294607698
 42
2.2121318838
  0
ELLIPSE
  5
60F
100
AcDbEntity
  8
6_ALL_SURFS
100
AcDbEllipse
 62
7
  6
CONTINUOUS
 10
865.4455349541
 20
284.8923209622
 30
0.0
 11
0.0
 21
5.4882058378
 31
0.0
 40
0.1015346165
 41
0.9294607698
 42
2.2121318838
  0
ELLIPSE
  5
610
100
AcDbEntity
  8
7_ALL_FEATURES
100
AcDbEllipse
 62
7
  6
CONTINUOUS
 10
866.1990176569
 20
609.8423209622
 30
0.0
 11
0.0
 21
0.3
 31
0.0
 40
1.0
 41
4.7123889804
 42
6.2831853072
  0
ELLIPSE
  5
611
100
AcDbEntity
  8
6_ALL_SURFS
100
AcDbEllipse
 62
7
  6
CONTINUOUS
 10
865.4455349541
 20
484.8923209622
 30
0.0
 11
0.0
 21
5.4882058378
 31
0.0
 40
0.1015346165
 41
0.9294607698
 42
2.2121318838
  0
ELLIPSE
  5
612
100
AcDbEntity
  8
7_ALL_FEATURES
100
AcDbEllipse
 62
7
  6
CONTINUOUS
 10
864.3927210149
 20
629.9986176043
 30
0.0
 11
0.3937033579
 21
0.0
 31
0.0
 40
1.0
 41
0.0996686525
 42
0.3137979585
  0
ELLIPSE
  5
613
100
AcDbEntity
  8
7_ALL_FEATURES
100
AcDbEllipse
 62
7
  6
CONTINUOUS
 10
864.3927210149
 20
629.9986176043
 30
0.0
 11
0.0
 21
0.3937033579
 31
0.0
 40
1.0
 41
5.0261869389
 42
7.853981634
  0
ELLIPSE
  5
614
100
AcDbEntity
  8
7_ALL_FEATURES
100
AcDbEllipse
 62
7
  6
CONTINUOUS
 10
862.786518206
 20
608.8923209622
 30
0.0
 11
-0.0
 21
1.5
 31
0.0
 40
1.0
 41
0.0
 42
0.7504915784
  0
ELLIPSE
  5
615
100
AcDbEntity
  8
7_ALL_FEATURES
100
AcDbEllipse
 62
7
  6
CONTINUOUS
 10
856.3990176569
 20
608.5423209622
 30
0.0
 11
0.0
 21
2.0
 31
0.0
 40
1.0
 41
-1.5707963268
 42
-1.4276390304
  0
ELLIPSE
  5
616
100
AcDbEntity
  8
7_ALL_FEATURES
100
AcDbEllipse
 62
7
  6
CONTINUOUS
 10
856.3990176569
 20
608.5423209622
 30
0.0
 11
2.0
 21
0.0
 31
0.0
 40
1.0
 41
6.4263426036
 42
7.853981634
  0
ELLIPSE
  5
617
100
AcDbEntity
  8
7_ALL_FEATURES
100
AcDbEllipse
 62
7
  6
CONTINUOUS
 10
854.5990176569
 20
608.5423209622
 30
0.0
 11
2.0
 21
0.0
 31
0.0
 40
1.0
 41
7.853981634
 42
9.2816206644
  0
ELLIPSE
  5
618
100
AcDbEntity
  8
7_ALL_FEATURES
100
AcDbEllipse
 62
7
  6
CONTINUOUS
 10
854.5990176569
 20
608.5423209622
 30
0.0
 11
-0.0
 21
2.0
 31
0.0
 40
1.0
 41
1.4276390304
 42
1.5707963268
  0
ELLIPSE
  5
619
100
AcDbEntity
  8
7_ALL_FEATURES
100
AcDbEllipse
 62
7
  6
CONTINUOUS
 10
807.5535037277
 20
602.3423209622
 30
0.0
 11
5.0
 21
0.0
 31
0.0
 40
1.0
 41
1.5707963268
 42
1.7889624833
  0
ELLIPSE
  5
61A
100
AcDbEntity
  8
7_ALL_FEATURES
100
AcDbEllipse
 62
7
  6
CONTINUOUS
 10
793.035479986
 20
603.2208706438
 30
0.0
 11
1.0
 21
-0.0
 31
0.0
 40
1.0
 41
1.7889624833
 42
2.7205500951
  0
ELLIPSE
  5
61B
100
AcDbEntity
  8
7_ALL_FEATURES
100
AcDbEllipse
 62
7
  6
CONTINUOUS
 10
789.8990176569
 20
601.3423209622
 30
0.0
 11
0.0
 21
2.8
 31
0.0
 40
1.0
 41
5.6028776011
 42
6.7517575747
  0
ELLIPSE
  5
61C
100
AcDbEntity
  8
7_ALL_FEATURES
100
AcDbEllipse
 62
7
  6
CONTINUOUS
 10
787.6990176569
 20
604.8423209622
 30
0.0
 11
0.5
 21
0.0
 31
0.0
 40
1.0
 41
0.0
 42
1.5707963268
  0
ELLIPSE
  5
61D
100
AcDbEntity
  8
7_ALL_FEATURES
100
AcDbEllipse
 62
7
  6
CONTINUOUS
 10
786.9990176569
 20
605.0423209622
 30
0.0
 11
-0.0
 21
0.3
 31
0.0
 40
1.0
 41
0.0
 42
0.1442309539
  0
ELLIPSE
  5
61E
100
AcDbEntity
  8
7_ALL_FEATURES
100
AcDbEllipse
 62
7
  6
CONTINUOUS
 10
786.9990176569
 20
605.0423209622
 30
0.0
 11
0.3
 21
-0.0
 31
0.0
 40
1.0
 41
1.7150272807
 42
2.9279748553
  0
ENDSEC
  0
SECTION
  2
OBJECTS
  0
DICTIONARY
  5
61F
100
AcDbDictionary
  3
ACAD_GROUP
350
620
  3
ACAD_MLINESTYLE
350
621
  0
DICTIONARY
  5
620
102
{ACAD_REACTORS
330
61F
102
}
100
AcDbDictionary
  0
DICTIONARY
  5
621
102
{ACAD_REACTORS
330
61F
102
}
100
AcDbDictionary
  3
STANDARD
350
622
  0
MLINESTYLE
  5
622
102
{ACAD_REACTORS
330
621
102
}
100
AcDbMlineStyle
  2
STANDARD
 70
0
  3

 62
256
 51
90.0
 52
90.0
 71
2
 49
0.5
 62
256
  6
BYLAYER
 49
-0.5
 62
256
  6
BYLAYER
  0
ENDSEC
  0
EOF
