  0
SECTION
  2
HEADER
  9
$ACADVER
  1
AC1027
  9
$ACADMAINTVER
 70
   105
  9
$DWGCODEPAGE
  3
ANSI_1252
  9
$REQUIREDVERSIONS
160
                 0
  9
$LASTSAVEDBY
  1
andrea.zolin
  9
$INSBASE
 10
0.0
 20
0.0
 30
0.0
  9
$EXTMIN
 10
0.0
 20
0.0
 30
0.0
  9
$EXTMAX
 10
2500.0
 20
500.0
 30
0.0
  9
$LIMMIN
 10
0.0
 20
0.0
  9
$LIMMAX
 10
2500.0
 20
500.0
  9
$ORTHOMODE
 70
     0
  9
$REGENMODE
 70
     1
  9
$FILLMODE
 70
     1
  9
$QTEXTMODE
 70
     0
  9
$MIRRTEXT
 70
     1
  9
$LTSCALE
 40
137.5
  9
$ATTMODE
 70
     1
  9
$TEXTSIZE
 40
0.2
  9
$TRACEWID
 40
0.05
  9
$TEXTSTYLE
  7
STANDARD
  9
$CLAYER
  8
0
  9
$CELTYPE
  6
BYLAYER
  9
$CECOLOR
 62
   256
  9
$CELTSCALE
 40
1.0
  9
$DISPSILH
 70
     0
  9
$DIMSCALE
 40
1.0
  9
$DIMASZ
 40
2.5
  9
$DIMEXO
 40
0.75
  9
$DIMDLI
 40
95.0
  9
$DIMRND
 40
0.0
  9
$DIMDLE
 40
0.0
  9
$DIMEXE
 40
0.75
  9
$DIMTP
 40
0.01
  9
$DIMTM
 40
0.01
  9
$DIMTXT
 40
3.0
  9
$DIMCEN
 40
22.5
  9
$DIMTSZ
 40
0.0
  9
$DIMTOL
 70
     1
  9
$DIMLIM
 70
     0
  9
$DIMTIH
 70
     1
  9
$DIMTOH
 70
     1
  9
$DIMSE1
 70
     0
  9
$DIMSE2
 70
     0
  9
$DIMTAD
 70
     0
  9
$DIMZIN
 70
     0
  9
$DIMBLK
  1
CLOSED
  9
$DIMASO
 70
     1
  9
$DIMSHO
 70
     1
  9
$DIMPOST
  1

  9
$DIMAPOST
  1

  9
$DIMALT
 70
     0
  9
$DIMALTD
 70
     2
  9
$DIMALTF
 40
25.4
  9
$DIMLFAC
 40
1.0
  9
$DIMTOFL
 70
     0
  9
$DIMTVP
 40
0.0
  9
$DIMTIX
 70
     0
  9
$DIMSOXD
 70
     0
  9
$DIMSAH
 70
     0
  9
$DIMBLK1
  1

  9
$DIMBLK2
  1

  9
$DIMSTYLE
  2
STANDARD
  9
$DIMCLRD
 70
     0
  9
$DIMCLRE
 70
     0
  9
$DIMCLRT
 70
     0
  9
$DIMTFAC
 40
1.0
  9
$DIMGAP
 40
0.625
  9
$DIMJUST
 70
     0
  9
$DIMSD1
 70
     0
  9
$DIMSD2
 70
     0
  9
$DIMTOLJ
 70
     1
  9
$DIMTZIN
 70
     0
  9
$DIMALTZ
 70
     0
  9
$DIMALTTZ
 70
     0
  9
$DIMUPT
 70
     0
  9
$DIMDEC
 70
     4
  9
$DIMTDEC
 70
     4
  9
$DIMALTU
 70
     2
  9
$DIMALTTD
 70
     2
  9
$DIMTXSTY
  7
STANDARD
  9
$DIMAUNIT
 70
     0
  9
$DIMADEC
 70
     0
  9
$DIMALTRND
 40
0.0
  9
$DIMAZIN
 70
     0
  9
$DIMDSEP
 70
    46
  9
$DIMATFIT
 70
     3
  9
$DIMFRAC
 70
     0
  9
$DIMLDRBLK
  1

  9
$DIMLUNIT
 70
     2
  9
$DIMLWD
 70
    -2
  9
$DIMLWE
 70
    -2
  9
$DIMTMOVE
 70
     2
  9
$DIMFXL
 40
1.0
  9
$DIMFXLON
 70
     0
  9
$DIMJOGANG
 40
0.7853981633974483
  9
$DIMTFILL
 70
     0
  9
$DIMTFILLCLR
 70
     0
  9
$DIMARCSYM
 70
     0
  9
$DIMLTYPE
  6

  9
$DIMLTEX1
  6

  9
$DIMLTEX2
  6

  9
$DIMTXTDIRECTION
 70
     0
  9
$LUNITS
 70
     2
  9
$LUPREC
 70
     4
  9
$SKETCHINC
 40
0.1
  9
$FILLETRAD
 40
0.5
  9
$AUNITS
 70
     0
  9
$AUPREC
 70
     0
  9
$MENU
  1
.
  9
$ELEVATION
 40
0.0
  9
$PELEVATION
 40
0.0
  9
$THICKNESS
 40
0.0
  9
$LIMCHECK
 70
     0
  9
$CHAMFERA
 40
0.0
  9
$CHAMFERB
 40
0.0
  9
$CHAMFERC
 40
0.0
  9
$CHAMFERD
 40
0.0
  9
$SKPOLY
 70
     0
  9
$TDCREATE
 40
2447893.041666667
  9
$TDUCREATE
 40
0.0
  9
$TDUPDATE
 40
2458466.63789669
  9
$TDUUPDATE
 40
2458466.596230023
  9
$TDINDWG
 40
0.0002107523
  9
$TDUSRTIMER
 40
0.0002107523
  9
$USRTIMER
 70
     1
  9
$ANGBASE
 50
0.0
  9
$ANGDIR
 70
     0
  9
$PDMODE
 70
     3
  9
$PDSIZE
 40
0.3125
  9
$PLINEWID
 40
0.0
  9
$SPLFRAME
 70
     0
  9
$SPLINETYPE
 70
     6
  9
$SPLINESEGS
 70
     8
  9
$HANDSEED
  5
5E0
  9
$SURFTAB1
 70
     6
  9
$SURFTAB2
 70
     6
  9
$SURFTYPE
 70
     6
  9
$SURFU
 70
     6
  9
$SURFV
 70
     6
  9
$UCSBASE
  2

  9
$UCSNAME
  2

  9
$UCSORG
 10
0.0
 20
0.0
 30
0.0
  9
$UCSXDIR
 10
1.0
 20
0.0
 30
0.0
  9
$UCSYDIR
 10
0.0
 20
1.0
 30
0.0
  9
$UCSORTHOREF
  2

  9
$UCSORTHOVIEW
 70
     0
  9
$UCSORGTOP
 10
0.0
 20
0.0
 30
0.0
  9
$UCSORGBOTTOM
 10
0.0
 20
0.0
 30
0.0
  9
$UCSORGLEFT
 10
0.0
 20
0.0
 30
0.0
  9
$UCSORGRIGHT
 10
0.0
 20
0.0
 30
0.0
  9
$UCSORGFRONT
 10
0.0
 20
0.0
 30
0.0
  9
$UCSORGBACK
 10
0.0
 20
0.0
 30
0.0
  9
$PUCSBASE
  2

  9
$PUCSNAME
  2

  9
$PUCSORG
 10
0.0
 20
0.0
 30
0.0
  9
$PUCSXDIR
 10
1.0
 20
0.0
 30
0.0
  9
$PUCSYDIR
 10
0.0
 20
1.0
 30
0.0
  9
$PUCSORTHOREF
  2

  9
$PUCSORTHOVIEW
 70
     0
  9
$PUCSORGTOP
 10
0.0
 20
0.0
 30
0.0
  9
$PUCSORGBOTTOM
 10
0.0
 20
0.0
 30
0.0
  9
$PUCSORGLEFT
 10
0.0
 20
0.0
 30
0.0
  9
$PUCSORGRIGHT
 10
0.0
 20
0.0
 30
0.0
  9
$PUCSORGFRONT
 10
0.0
 20
0.0
 30
0.0
  9
$PUCSORGBACK
 10
0.0
 20
0.0
 30
0.0
  9
$USERI1
 70
     0
  9
$USERI2
 70
     0
  9
$USERI3
 70
     0
  9
$USERI4
 70
     0
  9
$USERI5
 70
     0
  9
$USERR1
 40
0.0
  9
$USERR2
 40
0.0
  9
$USERR3
 40
0.0
  9
$USERR4
 40
0.0
  9
$USERR5
 40
0.0
  9
$WORLDVIEW
 70
     1
  9
$SHADEDGE
 70
     3
  9
$SHADEDIF
 70
    70
  9
$TILEMODE
 70
     0
  9
$MAXACTVP
 70
    64
  9
$PINSBASE
 10
0.0
 20
0.0
 30
0.0
  9
$PLIMCHECK
 70
     0
  9
$PEXTMIN
 10
0.0
 20
0.0
 30
0.0
  9
$PEXTMAX
 10
2500.5091802171
 20
500.0
 30
0.0
  9
$PLIMMIN
 10
-46.30572555957593
 20
-123.4819348255358
  9
$PLIMMAX
 10
2546.814905776676
 20
1710.224797333671
  9
$UNITMODE
 70
     0
  9
$VISRETAIN
 70
     1
  9
$PLINEGEN
 70
     0
  9
$PSLTSCALE
 70
     1
  9
$TREEDEPTH
 70
  3020
  9
$CMLSTYLE
  2
STANDARD
  9
$CMLJUST
 70
     0
  9
$CMLSCALE
 40
1.0
  9
$PROXYGRAPHICS
 70
     1
  9
$MEASUREMENT
 70
     1
  9
$CELWEIGHT
370
    -1
  9
$ENDCAPS
280
     0
  9
$JOINSTYLE
280
     0
  9
$LWDISPLAY
290
     0
  9
$INSUNITS
 70
     0
  9
$HYPERLINKBASE
  1

  9
$STYLESHEET
  1

  9
$XEDIT
290
     1
  9
$CEPSNTYPE
380
     0
  9
$PSTYLEMODE
290
     1
  9
$FINGERPRINTGUID
  2
{AFA5AD5D-69FA-4489-87B5-EAADE22A8FFB}
  9
$VERSIONGUID
  2
{FAEB1C32-E019-11D5-929B-00C0DF256EC4}
  9
$EXTNAMES
290
     1
  9
$PSVPSCALE
 40
0.0
  9
$OLESTARTUP
290
     0
  9
$SORTENTS
280
   127
  9
$INDEXCTL
280
     0
  9
$HIDETEXT
280
     1
  9
$XCLIPFRAME
280
     2
  9
$HALOGAP
280
     0
  9
$OBSCOLOR
 70
   257
  9
$OBSLTYPE
280
     0
  9
$INTERSECTIONDISPLAY
280
     0
  9
$INTERSECTIONCOLOR
 70
   257
  9
$DIMASSOC
280
     2
  9
$PROJECTNAME
  1

  9
$CAMERADISPLAY
290
     0
  9
$LENSLENGTH
 40
50.0
  9
$CAMERAHEIGHT
 40
0.0
  9
$STEPSPERSEC
 40
2.0
  9
$STEPSIZE
 40
6.0
  9
$3DDWFPREC
 40
2.0
  9
$PSOLWIDTH
 40
0.25
  9
$PSOLHEIGHT
 40
4.0
  9
$LOFTANG1
 40
1.570796326794897
  9
$LOFTANG2
 40
1.570796326794897
  9
$LOFTMAG1
 40
0.0
  9
$LOFTMAG2
 40
0.0
  9
$LOFTPARAM
 70
     7
  9
$LOFTNORMALS
280
     1
  9
$LATITUDE
 40
37.795
  9
$LONGITUDE
 40
-122.394
  9
$NORTHDIRECTION
 40
0.0
  9
$TIMEZONE
 70
 -8000
  9
$LIGHTGLYPHDISPLAY
280
     1
  9
$TILEMODELIGHTSYNCH
280
     1
  9
$SOLIDHIST
280
     0
  9
$SHOWHIST
280
     1
  9
$DWFFRAME
280
     2
  9
$DGNFRAME
280
     2
  9
$REALWORLDSCALE
290
     1
  9
$INTERFERECOLOR
 62
   256
  9
$CSHADOW
280
     0
  9
$SHADOWPLANELOCATION
 40
0.0
  0
ENDSEC
  0
SECTION
  2
CLASSES
  0
CLASS
  1
ACDBDICTIONARYWDFLT
  2
AcDbDictionaryWithDefault
  3
ObjectDBX Classes
 90
        0
 91
        4
280
     0
281
     0
  0
CLASS
  1
SCALE
  2
AcDbScale
  3
ObjectDBX Classes
 90
     1153
 91
        4
280
     0
281
     0
  0
CLASS
  1
VISUALSTYLE
  2
AcDbVisualStyle
  3
ObjectDBX Classes
 90
     4095
 91
        4
280
     0
281
     0
  0
CLASS
  1
MATERIAL
  2
AcDbMaterial
  3
ObjectDBX Classes
 90
     1153
 91
        4
280
     0
281
     0
  0
CLASS
  1
TABLESTYLE
  2
AcDbTableStyle
  3
ObjectDBX Classes
 90
     4095
 91
        4
280
     0
281
     0
  0
CLASS
  1
MLEADERSTYLE
  2
AcDbMLeaderStyle
  3
ACDB_MLEADERSTYLE_CLASS
 90
     4095
 91
        4
280
     0
281
     0
  0
CLASS
  1
DICTIONARYVAR
  2
AcDbDictionaryVar
  3
ObjectDBX Classes
 90
        0
 91
        4
280
     0
281
     0
  0
CLASS
  1
CELLSTYLEMAP
  2
AcDbCellStyleMap
  3
ObjectDBX Classes
 90
     1152
 91
        4
280
     0
281
     0
  0
ENDSEC
  0
SECTION
  2
TABLES
  0
TABLE
  2
VPORT
  5
8
330
0
100
AcDbSymbolTable
 70
     1
  0
VPORT
  5
1F4
330
8
100
AcDbSymbolTableRecord
100
AcDbViewportTableRecord
  2
*ACTIVE
 70
     0
 10
0.0
 20
0.0
 11
1.0
 21
1.0
 12
1250.0
 22
250.0
 13
0.0
 23
0.0
 14
1.0
 24
1.0
 15
0.0
 25
0.0
 16
0.0
 26
0.0
 36
1.0
 17
0.0
 27
0.0
 37
0.0
 40
500.0
 41
5.0
 42
50.0
 43
0.0
 44
0.0
 50
0.0
 51
0.0
 71
     0
 72
   100
 73
     1
 74
     1
 75
     0
 76
     0
 77
     0
 78
     0
281
     0
 65
     1
110
0.0
120
0.0
130
0.0
111
1.0
121
0.0
131
0.0
112
0.0
122
1.0
132
0.0
 79
     0
146
0.0
348
5B9
 60
     3
 61
     5
292
     1
282
     1
141
0.0
142
0.0
 63
   256
  0
ENDTAB
  0
TABLE
  2
LTYPE
  5
5
330
0
100
AcDbSymbolTable
 70
     6
  0
LTYPE
  5
14
330
5
100
AcDbSymbolTableRecord
100
AcDbLinetypeTableRecord
  2
BYBLOCK
 70
     0
  3

 72
    65
 73
     0
 40
0.0
  0
LTYPE
  5
15
330
5
100
AcDbSymbolTableRecord
100
AcDbLinetypeTableRecord
  2
BYLAYER
 70
     0
  3

 72
    65
 73
     0
 40
0.0
  0
LTYPE
  5
16
330
5
100
AcDbSymbolTableRecord
100
AcDbLinetypeTableRecord
  2
CONTINUOUS
 70
     0
  3
Solid line
 72
    65
 73
     0
 40
0.0
  0
LTYPE
  5
1F5
330
5
100
AcDbSymbolTableRecord
100
AcDbLinetypeTableRecord
  2
CENTER
 70
     0
  3
____ _ ____ _ ____ _ ____ _ ____ _ ____ _ ____
 72
    65
 73
     4
 40
0.6
 49
0.375
 74
     0
 49
-0.075
 74
     0
 49
0.075
 74
     0
 49
-0.075
 74
     0
  0
LTYPE
  5
1F6
330
5
100
AcDbSymbolTableRecord
100
AcDbLinetypeTableRecord
  2
HIDDEN
 70
     0
  3
- - - - - - - - - - - - - - - - - - - -
 72
    65
 73
     2
 40
0.2
 49
0.1
 74
     0
 49
-0.1
 74
     0
  0
LTYPE
  5
1F7
330
5
100
AcDbSymbolTableRecord
100
AcDbLinetypeTableRecord
  2
PHANTOM
 70
     0
  3
_____ _ _ _____ _ _ _____ _ _ _____
 72
    65
 73
     6
 40
0.8
 49
0.45
 74
     0
 49
-0.05
 74
     0
 49
0.1
 74
     0
 49
-0.05
 74
     0
 49
0.1
 74
     0
 49
-0.05
 74
     0
  0
LTYPE
  5
1F8
330
5
100
AcDbSymbolTableRecord
100
AcDbLinetypeTableRecord
  2
DOT
 70
     0
  3
. . . . . . . . . . . . . . . . . . . .
 72
    65
 73
     2
 40
0.2
 49
0.1
 74
     0
 49
-0.1
 74
     0
  0
LTYPE
  5
1F9
330
5
100
AcDbSymbolTableRecord
100
AcDbLinetypeTableRecord
  2
DASHED
 70
     0
  3
- - - - - - - - - - - - - - - - - - - -
 72
    65
 73
     2
 40
0.2
 49
0.1
 74
     0
 49
-0.1
 74
     0
  0
ENDTAB
  0
TABLE
  2
LAYER
  5
2
330
0
100
AcDbSymbolTable
 70
    41
  0
LAYER
  5
10
330
2
100
AcDbSymbolTableRecord
100
AcDbLayerTableRecord
  2
0
 70
     0
 62
     7
  6
CONTINUOUS
370
    -3
390
58E
347
5D0
348
0
  0
LAYER
  5
1FA
330
2
100
AcDbSymbolTableRecord
100
AcDbLayerTableRecord
  2
DEFAULT_1
 70
     0
 62
     7
  6
CENTER
370
    -3
390
58E
347
5D0
348
0
  0
LAYER
  5
1FB
330
2
100
AcDbSymbolTableRecord
100
AcDbLayerTableRecord
  2
DEFAULT_2
 70
     0
 62
     8
  6
HIDDEN
370
    -3
390
58E
347
5D0
348
0
  0
LAYER
  5
1FC
330
2
100
AcDbSymbolTableRecord
100
AcDbLayerTableRecord
  2
DEFAULT_3
 70
     0
 62
     7
  6
PHANTOM
370
    -3
390
58E
347
5D0
348
0
  0
LAYER
  5
1FD
330
2
100
AcDbSymbolTableRecord
100
AcDbLayerTableRecord
  2
01_ALL_DTM_PLN
 70
     0
 62
     7
  6
CONTINUOUS
370
    -3
390
58E
347
5D0
348
0
  0
LAYER
  5
1FE
330
2
100
AcDbSymbolTableRecord
100
AcDbLayerTableRecord
  2
01__ASM_ALL_DTM_PLN
 70
     0
 62
     7
  6
CONTINUOUS
370
    -3
390
58E
347
5D0
348
0
  0
LAYER
  5
1FF
330
2
100
AcDbSymbolTableRecord
100
AcDbLayerTableRecord
  2
01__ASM_DEF_DTM_PLN
 70
     0
 62
     7
  6
CONTINUOUS
370
    -3
390
58E
347
5D0
348
0
  0
LAYER
  5
200
330
2
100
AcDbSymbolTableRecord
100
AcDbLayerTableRecord
  2
01___PRT_ALL_DTM_PLN
 70
     0
 62
     7
  6
CONTINUOUS
370
    -3
390
58E
347
5D0
348
0
  0
LAYER
  5
201
330
2
100
AcDbSymbolTableRecord
100
AcDbLayerTableRecord
  2
01___PRT_DEF_DTM_PLN
 70
     0
 62
     7
  6
CONTINUOUS
370
    -3
390
58E
347
5D0
348
0
  0
LAYER
  5
202
330
2
100
AcDbSymbolTableRecord
100
AcDbLayerTableRecord
  2
02_ALL_AXES
 70
     0
 62
     7
  6
CONTINUOUS
370
    -3
390
58E
347
5D0
348
0
  0
LAYER
  5
203
330
2
100
AcDbSymbolTableRecord
100
AcDbLayerTableRecord
  2
02__ASM_ALL_AXES
 70
     0
 62
     7
  6
CONTINUOUS
370
    -3
390
58E
347
5D0
348
0
  0
LAYER
  5
204
330
2
100
AcDbSymbolTableRecord
100
AcDbLayerTableRecord
  2
02___PRT_ALL_AXES
 70
     0
 62
     7
  6
CONTINUOUS
370
    -3
390
58E
347
5D0
348
0
  0
LAYER
  5
205
330
2
100
AcDbSymbolTableRecord
100
AcDbLayerTableRecord
  2
03_ALL_CURVES
 70
     0
 62
     7
  6
CONTINUOUS
370
    -3
390
58E
347
5D0
348
0
  0
LAYER
  5
206
330
2
100
AcDbSymbolTableRecord
100
AcDbLayerTableRecord
  2
03__ASM_ALL_CURVES
 70
     0
 62
     7
  6
CONTINUOUS
370
    -3
390
58E
347
5D0
348
0
  0
LAYER
  5
207
330
2
100
AcDbSymbolTableRecord
100
AcDbLayerTableRecord
  2
03___PRT_ALL_CURVES
 70
     0
 62
     7
  6
CONTINUOUS
370
    -3
390
58E
347
5D0
348
0
  0
LAYER
  5
208
330
2
100
AcDbSymbolTableRecord
100
AcDbLayerTableRecord
  2
04_ALL_DTM_PNT
 70
     0
 62
     7
  6
CONTINUOUS
370
    -3
390
58E
347
5D0
348
0
  0
LAYER
  5
209
330
2
100
AcDbSymbolTableRecord
100
AcDbLayerTableRecord
  2
04__ASM_ALL_DTM_PNT
 70
     0
 62
     7
  6
CONTINUOUS
370
    -3
390
58E
347
5D0
348
0
  0
LAYER
  5
20A
330
2
100
AcDbSymbolTableRecord
100
AcDbLayerTableRecord
  2
04___PRT_ALL_DTM_PNT
 70
     0
 62
     7
  6
CONTINUOUS
370
    -3
390
58E
347
5D0
348
0
  0
LAYER
  5
20B
330
2
100
AcDbSymbolTableRecord
100
AcDbLayerTableRecord
  2
05_ALL_DTM_CSYS
 70
     0
 62
     7
  6
CONTINUOUS
370
    -3
390
58E
347
5D0
348
0
  0
LAYER
  5
20C
330
2
100
AcDbSymbolTableRecord
100
AcDbLayerTableRecord
  2
05__ASM_ALL_DTM_CSYS
 70
     0
 62
     7
  6
CONTINUOUS
370
    -3
390
58E
347
5D0
348
0
  0
LAYER
  5
20D
330
2
100
AcDbSymbolTableRecord
100
AcDbLayerTableRecord
  2
05__ASM_DEF_DTM_CSYS
 70
     0
 62
     7
  6
CONTINUOUS
370
    -3
390
58E
347
5D0
348
0
  0
LAYER
  5
20E
330
2
100
AcDbSymbolTableRecord
100
AcDbLayerTableRecord
  2
05___PRT_ALL_DTM_CSYS
 70
     0
 62
     7
  6
CONTINUOUS
370
    -3
390
58E
347
5D0
348
0
  0
LAYER
  5
20F
330
2
100
AcDbSymbolTableRecord
100
AcDbLayerTableRecord
  2
05___PRT_DEF_DTM_CSYS
 70
     0
 62
     7
  6
CONTINUOUS
370
    -3
390
58E
347
5D0
348
0
  0
LAYER
  5
210
330
2
100
AcDbSymbolTableRecord
100
AcDbLayerTableRecord
  2
06_ALL_SURFS
 70
     0
 62
     7
  6
CONTINUOUS
370
    -3
390
58E
347
5D0
348
0
  0
LAYER
  5
211
330
2
100
AcDbSymbolTableRecord
100
AcDbLayerTableRecord
  2
06__ASM_ALL_SURFS
 70
     0
 62
     7
  6
CONTINUOUS
370
    -3
390
58E
347
5D0
348
0
  0
LAYER
  5
212
330
2
100
AcDbSymbolTableRecord
100
AcDbLayerTableRecord
  2
06___PRT_ALL_SURFS
 70
     0
 62
     7
  6
CONTINUOUS
370
    -3
390
58E
347
5D0
348
0
  0
LAYER
  5
213
330
2
100
AcDbSymbolTableRecord
100
AcDbLayerTableRecord
  2
07__ASM_ALL_SKELETONS
 70
     0
 62
     7
  6
CONTINUOUS
370
    -3
390
58E
347
5D0
348
0
  0
LAYER
  5
214
330
2
100
AcDbSymbolTableRecord
100
AcDbLayerTableRecord
  2
1_ALL_PLANES
 70
     0
 62
     7
  6
CONTINUOUS
370
    -3
390
58E
347
5D0
348
0
  0
LAYER
  5
215
330
2
100
AcDbSymbolTableRecord
100
AcDbLayerTableRecord
  2
2_ALL_CSYS
 70
     0
 62
     7
  6
CONTINUOUS
370
    -3
390
58E
347
5D0
348
0
  0
LAYER
  5
216
330
2
100
AcDbSymbolTableRecord
100
AcDbLayerTableRecord
  2
3_ALL_AXES
 70
     0
 62
     7
  6
CONTINUOUS
370
    -3
390
58E
347
5D0
348
0
  0
LAYER
  5
217
330
2
100
AcDbSymbolTableRecord
100
AcDbLayerTableRecord
  2
4_ALL_POINTS
 70
     0
 62
     7
  6
CONTINUOUS
370
    -3
390
58E
347
5D0
348
0
  0
LAYER
  5
218
330
2
100
AcDbSymbolTableRecord
100
AcDbLayerTableRecord
  2
5_ALL_CURVES
 70
     0
 62
     7
  6
CONTINUOUS
370
    -3
390
58E
347
5D0
348
0
  0
LAYER
  5
219
330
2
100
AcDbSymbolTableRecord
100
AcDbLayerTableRecord
  2
5__COSTRUZIONE
 70
     0
 62
     7
  6
CONTINUOUS
370
    -3
390
58E
347
5D0
348
0
  0
LAYER
  5
21A
330
2
100
AcDbSymbolTableRecord
100
AcDbLayerTableRecord
  2
6_ALL_SURFS
 70
     0
 62
     7
  6
CONTINUOUS
370
    -3
390
58E
347
5D0
348
0
  0
LAYER
  5
21B
330
2
100
AcDbSymbolTableRecord
100
AcDbLayerTableRecord
  2
7_ALL_FEATURES
 70
     0
 62
     7
  6
CONTINUOUS
370
    -3
390
58E
347
5D0
348
0
  0
LAYER
  5
21C
330
2
100
AcDbSymbolTableRecord
100
AcDbLayerTableRecord
  2
8_ALL_NOTES_BALLOONS_SYMBOLS_GT
 70
     0
 62
     7
  6
CONTINUOUS
370
    -3
390
58E
347
5D0
348
0
  0
LAYER
  5
21D
330
2
100
AcDbSymbolTableRecord
100
AcDbLayerTableRecord
  2
9_SOLID
 70
     0
 62
     7
  6
CONTINUOUS
370
    -3
390
58E
347
5D0
348
0
  0
LAYER
  5
21E
330
2
100
AcDbSymbolTableRecord
100
AcDbLayerTableRecord
  2
INTFCLR_2
 70
     0
 62
     7
  6
CONTINUOUS
370
    -3
390
58E
347
5D0
348
0
  0
LAYER
  5
21F
330
2
100
AcDbSymbolTableRecord
100
AcDbLayerTableRecord
  2
INTFCLR_4
 70
     0
 62
     7
  6
CONTINUOUS
370
    -3
390
58E
347
5D0
348
0
  0
LAYER
  5
220
330
2
100
AcDbSymbolTableRecord
100
AcDbLayerTableRecord
  2
INTF_RED
 70
     0
 62
     7
  6
CONTINUOUS
370
    -3
390
58E
347
5D0
348
0
  0
LAYER
  5
221
330
2
100
AcDbSymbolTableRecord
100
AcDbLayerTableRecord
  2
XXX_SOLIDO
 70
     0
 62
     7
  6
CONTINUOUS
370
    -3
390
58E
347
5D0
348
0
  0
ENDTAB
  0
TABLE
  2
STYLE
  5
3
330
0
100
AcDbSymbolTable
 70
     3
  0
STYLE
  5
11
330
3
100
AcDbSymbolTableRecord
100
AcDbTextStyleTableRecord
  2
STANDARD
 70
     0
 40
0.0
 41
0.85
 50
0.0
 71
     0
 42
0.2
  3
txt
  4

  0
STYLE
  5
222
330
3
100
AcDbSymbolTableRecord
100
AcDbTextStyleTableRecord
  2
TEXTSTYLE_1
 70
     0
 40
0.0
 41
0.8
 50
0.0
 71
     0
 42
0.2
  3
gdt
  4

  0
STYLE
  5
223
330
3
100
AcDbSymbolTableRecord
100
AcDbTextStyleTableRecord
  2
TEXTSTYLE_2
 70
     0
 40
0.0
 41
2.0
 50
0.0
 71
     0
 42
0.2
  3
txt
  4

  0
ENDTAB
  0
TABLE
  2
VIEW
  5
6
330
0
100
AcDbSymbolTable
 70
     0
  0
ENDTAB
  0
TABLE
  2
UCS
  5
7
330
0
100
AcDbSymbolTable
 70
     0
  0
ENDTAB
  0
TABLE
  2
APPID
  5
9
330
0
100
AcDbSymbolTable
 70
     1
  0
APPID
  5
224
330
9
100
AcDbSymbolTableRecord
100
AcDbRegAppTableRecord
  2
ACAD
 70
     0
  0
ENDTAB
  0
TABLE
  2
DIMSTYLE
  5
A
330
0
100
AcDbSymbolTable
 70
     4
100
AcDbDimStyleTable
  0
DIMSTYLE
105
22C
330
A
100
AcDbSymbolTableRecord
100
AcDbDimStyleTableRecord
  2
STANDARD
 70
     0
 41
2.5
 42
0.75
 44
0.75
 47
0.01
 48
0.01
 71
     1
 73
     0
 74
     0
 77
     1
 78
     8
 79
     2
140
3.0
147
0.625
171
     1
178
     0
179
     2
271
     2
272
     2
284
     8
340
11
341
225
342
225
343
225
344
225
  0
DIMSTYLE
105
22D
330
A
100
AcDbSymbolTableRecord
100
AcDbDimStyleTableRecord
  2
DIMSTYLE_1
 70
     0
 41
2.5
 42
0.75
 44
0.75
 47
2.0
 48
2.0
 73
     0
 74
     0
 77
     1
 78
     8
 79
     2
140
3.0
147
0.75
171
     1
178
     0
271
     0
272
     0
284
     8
340
11
341
225
342
225
343
225
344
225
  0
DIMSTYLE
105
22E
330
A
100
AcDbSymbolTableRecord
100
AcDbDimStyleTableRecord
  2
DIMSTYLE_2
 70
     0
 41
2.5
 42
0.75
 44
0.75
 47
0.3
 48
0.3
 73
     0
 74
     0
 77
     1
 78
     8
 79
     2
140
3.0
147
0.75
171
     1
178
     0
271
     0
272
     0
284
     8
340
11
341
225
342
225
343
225
344
225
  0
DIMSTYLE
105
22F
330
A
100
AcDbSymbolTableRecord
100
AcDbDimStyleTableRecord
  2
DIMSTYLE_3
 70
     0
 41
2.5
 42
0.75
 44
0.75
 47
0.3
 48
0.3
 73
     0
 74
     0
 77
     1
 78
     8
 79
     2
140
3.0
147
0.75
171
     1
178
     0
179
     2
271
     2
272
     2
284
     8
340
11
341
225
342
225
343
225
344
225
  0
ENDTAB
  0
TABLE
  2
BLOCK_RECORD
  5
1
330
0
100
AcDbSymbolTable
 70
     7
  0
BLOCK_RECORD
  5
1F
330
1
100
AcDbSymbolTableRecord
100
AcDbBlockTableRecord
  2
*MODEL_SPACE
340
5B2
 70
     0
280
     1
281
     0
  0
BLOCK_RECORD
  5
1B
330
1
100
AcDbSymbolTableRecord
100
AcDbBlockTableRecord
  2
*PAPER_SPACE
340
5B3
 70
     0
280
     1
281
     0
  0
BLOCK_RECORD
  5
225
330
1
100
AcDbSymbolTableRecord
100
AcDbBlockTableRecord
  2
_CLOSED
340
0
102
{BLKREFS
331
282
331
283
331
28B
331
28C
331
294
331
295
331
29D
331
29E
102
}
 70
     0
280
     1
281
     0
  0
BLOCK_RECORD
  5
226
330
1
100
AcDbSymbolTableRecord
100
AcDbBlockTableRecord
  2
*D1
340
0
 70
     0
280
     1
281
     0
  0
BLOCK_RECORD
  5
227
330
1
100
AcDbSymbolTableRecord
100
AcDbBlockTableRecord
  2
*D2
340
0
 70
     0
280
     1
281
     0
  0
BLOCK_RECORD
  5
228
330
1
100
AcDbSymbolTableRecord
100
AcDbBlockTableRecord
  2
*D3
340
0
 70
     0
280
     1
281
     0
  0
BLOCK_RECORD
  5
229
330
1
100
AcDbSymbolTableRecord
100
AcDbBlockTableRecord
  2
*D4
340
0
 70
     0
280
     1
281
     0
  0
BLOCK_RECORD
  5
22A
330
1
100
AcDbSymbolTableRecord
100
AcDbBlockTableRecord
  2
LOGO2_BL1
340
0
102
{BLKREFS
331
576
102
}
 70
     0
280
     1
281
     0
  0
BLOCK_RECORD
  5
22B
330
1
100
AcDbSymbolTableRecord
100
AcDbBlockTableRecord
  2
PROIEZIONE_EU_BL0
340
0
102
{BLKREFS
331
573
102
}
 70
     0
280
     1
281
     0
  0
ENDTAB
  0
ENDSEC
  0
SECTION
  2
BLOCKS
  0
BLOCK
  5
20
330
1F
100
AcDbEntity
  8
0
100
AcDbBlockBegin
  2
*MODEL_SPACE
 70
     0
 10
0.0
 20
0.0
 30
0.0
  3
*MODEL_SPACE
  1

  0
ENDBLK
  5
21
330
1F
100
AcDbEntity
  8
0
100
AcDbBlockEnd
  0
BLOCK
  5
1C
330
1B
100
AcDbEntity
 67
     1
  8
0
100
AcDbBlockBegin
  2
*PAPER_SPACE
 70
     0
 10
0.0
 20
0.0
 30
0.0
  3
*PAPER_SPACE
  1

  0
ENDBLK
  5
1D
330
1B
100
AcDbEntity
 67
     1
  8
0
100
AcDbBlockEnd
  0
BLOCK
  5
276
330
225
100
AcDbEntity
  8
0
100
AcDbBlockBegin
  2
_CLOSED
 70
     0
 10
0.0
 20
0.0
 30
0.0
  3
_CLOSED
  1

  0
LINE
  5
277
330
225
100
AcDbEntity
  8
0
  6
ByBlock
 62
     0
100
AcDbLine
 10
0.0
 20
0.0
 30
0.0
 11
-1.0
 21
0.2
 31
0.0
  0
LINE
  5
278
330
225
100
AcDbEntity
  8
0
  6
ByBlock
 62
     0
100
AcDbLine
 10
-1.0
 20
0.2
 30
0.0
 11
-1.0
 21
-0.2
 31
0.0
  0
LINE
  5
279
330
225
100
AcDbEntity
  8
0
  6
ByBlock
 62
     0
100
AcDbLine
 10
-1.0
 20
-0.2
 30
0.0
 11
0.0
 21
0.0
 31
0.0
  0
LINE
  5
27A
330
225
100
AcDbEntity
  8
0
  6
ByBlock
 62
     0
100
AcDbLine
 10
-1.0
 20
0.0
 30
0.0
 11
0.0
 21
0.0
 31
0.0
  0
ENDBLK
  5
27B
330
225
100
AcDbEntity
  8
0
  6
ByBlock
 62
     0
100
AcDbBlockEnd
  0
BLOCK
  5
27C
330
226
100
AcDbEntity
  8
0
100
AcDbBlockBegin
  2
*D1
 70
     1
 10
0.0
 20
0.0
 30
0.0
  3
*D1
  1

  0
MTEXT
  5
27D
330
226
100
AcDbEntity
  8
0
  6
Continuous
 62
     2
100
AcDbMText
 10
1279.1278721513
 20
356.0537030746
 30
0.0
 40
3.0
 41
12.8571428571
 46
0.0
 71
     2
 72
     1
  1
2015
 73
     1
 44
1.0
  0
LINE
  5
27E
330
226
100
AcDbEntity
  8
0
  6
Continuous
 62
     2
100
AcDbLine
 10
2286.3778721513
 20
351.5537030746
 30
0.0
 11
2286.3778721513
 21
354.6234729366
 31
0.0
  0
LINE
  5
27F
330
226
100
AcDbEntity
  8
0
  6
Continuous
 62
     2
100
AcDbLine
 10
271.8778721513
 20
351.5537030746
 30
0.0
 11
271.8778721513
 21
354.9323069791
 31
0.0
  0
LINE
  5
280
330
226
100
AcDbEntity
  8
0
  6
Continuous
 62
     2
100
AcDbLine
 10
2286.3778721513
 20
352.3037030746
 30
0.0
 11
1279.1278721513
 21
352.3037030746
 31
0.0
  0
LINE
  5
281
330
226
100
AcDbEntity
  8
0
  6
Continuous
 62
     2
100
AcDbLine
 10
271.8778721513
 20
352.3037030746
 30
0.0
 11
1279.1278721513
 21
352.3037030746
 31
0.0
  0
INSERT
  5
282
330
226
100
AcDbEntity
  8
0
  6
Continuous
 62
     2
100
AcDbBlockReference
  2
_CLOSED
 10
2286.3778721513
 20
352.3037030746
 30
0.0
 41
2.5
 42
2.5
 43
2.5
  0
INSERT
  5
283
330
226
100
AcDbEntity
  8
0
  6
Continuous
 62
     2
100
AcDbBlockReference
  2
_CLOSED
 10
271.8778721513
 20
352.3037030746
 30
0.0
 41
2.5
 42
2.5
 43
2.5
 50
180.0
  0
ENDBLK
  5
284
330
226
100
AcDbEntity
  8
0
  6
ByBlock
 62
     0
100
AcDbBlockEnd
  0
BLOCK
  5
285
330
227
100
AcDbEntity
  8
0
100
AcDbBlockBegin
  2
*D2
 70
     1
 10
0.0
 20
0.0
 30
0.0
  3
*D2
  1

  0
MTEXT
  5
286
330
227
100
AcDbEntity
  8
0
  6
Continuous
 62
     2
100
AcDbMText
 10
2302.5175465531
 20
120.7821430902
 30
0.0
 40
3.0
 41
7.0714285714
 46
0.0
 71
     2
 72
     1
  1
42
 11
0.0
 21
1.0
 31
0.0
 73
     1
 44
1.0
  0
LINE
  5
287
330
227
100
AcDbEntity
  8
0
  6
Continuous
 62
     2
100
AcDbLine
 10
2298.3195233264
 20
99.5821430902
 30
0.0
 11
2307.0175465531
 21
99.5821430902
 31
0.0
  0
LINE
  5
288
330
227
100
AcDbEntity
  8
0
  6
Continuous
 62
     2
100
AcDbLine
 10
2298.3195233264
 20
141.9821430902
 30
0.0
 11
2307.0175465531
 21
141.9821430902
 31
0.0
  0
LINE
  5
289
330
227
100
AcDbEntity
  8
0
  6
Continuous
 62
     2
100
AcDbLine
 10
2306.2675465531
 20
99.5821430902
 30
0.0
 11
2306.2675465531
 21
120.7821430902
 31
0.0
  0
LINE
  5
28A
330
227
100
AcDbEntity
  8
0
  6
Continuous
 62
     2
100
AcDbLine
 10
2306.2675465531
 20
141.9821430902
 30
0.0
 11
2306.2675465531
 21
120.7821430902
 31
0.0
  0
INSERT
  5
28B
330
227
100
AcDbEntity
  8
0
  6
Continuous
 62
     2
100
AcDbBlockReference
  2
_CLOSED
 10
2306.2675465531
 20
99.5821430902
 30
0.0
 41
2.5
 42
2.5
 43
2.5
 50
270.0
  0
INSERT
  5
28C
330
227
100
AcDbEntity
  8
0
  6
Continuous
 62
     2
100
AcDbBlockReference
  2
_CLOSED
 10
2306.2675465531
 20
141.9821430902
 30
0.0
 41
2.5
 42
2.5
 43
2.5
 50
90.0
  0
ENDBLK
  5
28D
330
227
100
AcDbEntity
  8
0
  6
ByBlock
 62
     0
100
AcDbBlockEnd
  0
BLOCK
  5
28E
330
228
100
AcDbEntity
  8
0
100
AcDbBlockBegin
  2
*D3
 70
     1
 10
0.0
 20
0.0
 30
0.0
  3
*D3
  1

  0
MTEXT
  5
28F
330
228
100
AcDbEntity
  8
0
  6
Continuous
 62
     2
100
AcDbMText
 10
2453.8047089102
 20
295.2455357925
 30
0.0
 40
3.0
 41
7.0714285714
 46
0.0
 71
     2
 72
     1
  1
84
 11
0.0
 21
1.0
 31
0.0
 73
     1
 44
1.0
  0
LINE
  5
290
330
228
100
AcDbEntity
  8
0
  6
Continuous
 62
     2
100
AcDbLine
 10
2453.2645435154
 20
336.9955357925
 30
0.0
 11
2458.3047089102
 21
336.9955357925
 31
0.0
  0
LINE
  5
291
330
228
100
AcDbEntity
  8
0
  6
Continuous
 62
     2
100
AcDbLine
 10
2453.3910419392
 20
253.4955357925
 30
0.0
 11
2458.3047089102
 21
253.4955357925
 31
0.0
  0
LINE
  5
292
330
228
100
AcDbEntity
  8
0
  6
Continuous
 62
     2
100
AcDbLine
 10
2457.5547089102
 20
336.9955357925
 30
0.0
 11
2457.5547089102
 21
295.2455357925
 31
0.0
  0
LINE
  5
293
330
228
100
AcDbEntity
  8
0
  6
Continuous
 62
     2
100
AcDbLine
 10
2457.5547089102
 20
253.4955357925
 30
0.0
 11
2457.5547089102
 21
295.2455357925
 31
0.0
  0
INSERT
  5
294
330
228
100
AcDbEntity
  8
0
  6
Continuous
 62
     2
100
AcDbBlockReference
  2
_CLOSED
 10
2457.5547089102
 20
336.9955357925
 30
0.0
 41
2.5
 42
2.5
 43
2.5
 50
90.0
  0
INSERT
  5
295
330
228
100
AcDbEntity
  8
0
  6
Continuous
 62
     2
100
AcDbBlockReference
  2
_CLOSED
 10
2457.5547089102
 20
253.4955357925
 30
0.0
 41
2.5
 42
2.5
 43
2.5
 50
270.0
  0
ENDBLK
  5
296
330
228
100
AcDbEntity
  8
0
  6
ByBlock
 62
     0
100
AcDbBlockEnd
  0
BLOCK
  5
297
330
229
100
AcDbEntity
  8
0
100
AcDbBlockBegin
  2
*D4
 70
     1
 10
0.0
 20
0.0
 30
0.0
  3
*D4
  1

  0
MTEXT
  5
298
330
229
100
AcDbEntity
  8
0
  6
Continuous
 62
     2
100
AcDbMText
 10
2312.1110584615
 20
120.7821430902
 30
0.0
 40
3.0
 41
11.8928571429
 46
0.0
 71
     2
 72
     1
  1
93,1
 11
0.0
 21
1.0
 31
0.0
 73
     1
 44
1.0
  0
LINE
  5
299
330
229
100
AcDbEntity
  8
0
  6
Continuous
 62
     2
100
AcDbLine
 10
2298.3195233264
 20
74.2321430902
 30
0.0
 11
2316.6110584615
 21
74.2321430902
 31
0.0
  0
LINE
  5
29A
330
229
100
AcDbEntity
  8
0
  6
Continuous
 62
     2
100
AcDbLine
 10
2298.8485207999
 20
167.3321430902
 30
0.0
 11
2316.6110584615
 21
167.3321430902
 31
0.0
  0
LINE
  5
29B
330
229
100
AcDbEntity
  8
0
  6
Continuous
 62
     2
100
AcDbLine
 10
2315.8610584615
 20
74.2321430902
 30
0.0
 11
2315.8610584615
 21
120.7821430902
 31
0.0
  0
LINE
  5
29C
330
229
100
AcDbEntity
  8
0
  6
Continuous
 62
     2
100
AcDbLine
 10
2315.8610584615
 20
167.3321430902
 30
0.0
 11
2315.8610584615
 21
120.7821430902
 31
0.0
  0
INSERT
  5
29D
330
229
100
AcDbEntity
  8
0
  6
Continuous
 62
     2
100
AcDbBlockReference
  2
_CLOSED
 10
2315.8610584615
 20
74.2321430902
 30
0.0
 41
2.5
 42
2.5
 43
2.5
 50
270.0
  0
INSERT
  5
29E
330
229
100
AcDbEntity
  8
0
  6
Continuous
 62
     2
100
AcDbBlockReference
  2
_CLOSED
 10
2315.8610584615
 20
167.3321430902
 30
0.0
 41
2.5
 42
2.5
 43
2.5
 50
90.0
  0
ENDBLK
  5
29F
330
229
100
AcDbEntity
  8
0
  6
ByBlock
 62
     0
100
AcDbBlockEnd
  0
BLOCK
  5
230
330
22A
100
AcDbEntity
  8
0
100
AcDbBlockBegin
  2
LOGO2_BL1
 70
     0
 10
2376.5852272619
 20
35.8328299227
 30
0.0
  3
LOGO2_BL1
  1

  0
LINE
  5
231
330
22A
100
AcDbEntity
  8
0
  6
Continuous
 62
     7
100
AcDbLine
 10
2368.3281524901
 20
39.0283212615
 30
0.0
 11
2367.0238115607
 21
39.0283212615
 31
0.0
  0
LINE
  5
232
330
22A
100
AcDbEntity
  8
0
  6
Continuous
 62
     7
100
AcDbLine
 10
2367.0238115607
 20
39.0283212615
 30
0.0
 11
2367.0238115607
 21
28.5692552017
 31
0.0
  0
LINE
  5
233
330
22A
100
AcDbEntity
  8
0
  6
Continuous
 62
     7
100
AcDbLine
 10
2367.0238115607
 20
28.5692552017
 30
0.0
 11
2371.504866449
 21
28.5692552017
 31
0.0
  0
LINE
  5
234
330
22A
100
AcDbEntity
  8
0
  6
Continuous
 62
     7
100
AcDbLine
 10
2371.504866449
 20
28.5692552017
 30
0.0
 11
2371.504866449
 21
29.7621095267
 31
0.0
  0
LINE
  5
235
330
22A
100
AcDbEntity
  8
0
  6
Continuous
 62
     7
100
AcDbLine
 10
2371.504866449
 20
29.7621095267
 30
0.0
 11
2368.3281524901
 21
29.7621095267
 31
0.0
  0
LINE
  5
236
330
22A
100
AcDbEntity
  8
0
  6
Continuous
 62
     7
100
AcDbLine
 10
2368.3281524901
 20
29.7621095267
 30
0.0
 11
2368.3281524901
 21
39.0283212615
 31
0.0
  0
LINE
  5
237
330
22A
100
AcDbEntity
  8
0
  6
Continuous
 62
     7
100
AcDbLine
 10
2383.2644787064
 20
39.0283212615
 30
0.0
 11
2381.9606611883
 21
39.0283212615
 31
0.0
  0
LINE
  5
238
330
22A
100
AcDbEntity
  8
0
  6
Continuous
 62
     7
100
AcDbLine
 10
2381.9606611883
 20
39.0283212615
 30
0.0
 11
2381.9606611883
 21
28.5692552017
 31
0.0
  0
LINE
  5
239
330
22A
100
AcDbEntity
  8
0
  6
Continuous
 62
     7
100
AcDbLine
 10
2381.9606611883
 20
28.5692552017
 30
0.0
 11
2386.4418469294
 21
28.5692552017
 31
0.0
  0
LINE
  5
23A
330
22A
100
AcDbEntity
  8
0
  6
Continuous
 62
     7
100
AcDbLine
 10
2386.4418469294
 20
28.5692552017
 30
0.0
 11
2386.4418469294
 21
29.7621095267
 31
0.0
  0
LINE
  5
23B
330
22A
100
AcDbEntity
  8
0
  6
Continuous
 62
     7
100
AcDbLine
 10
2386.4418469294
 20
29.7621095267
 30
0.0
 11
2383.2644787064
 21
29.7621095267
 31
0.0
  0
LINE
  5
23C
330
22A
100
AcDbEntity
  8
0
  6
Continuous
 62
     7
100
AcDbLine
 10
2383.2644787064
 20
29.7621095267
 30
0.0
 11
2383.2644787064
 21
39.0283212615
 31
0.0
  0
LWPOLYLINE
  5
23D
330
22A
100
AcDbEntity
  8
0
  6
Continuous
 62
     7
100
AcDbPolyline
 90
        2
 70
     0
 43
0.2
 10
2365.3782064717
 20
25.2257038947
 10
2365.3782064717
 20
23.3686406454
  0
LWPOLYLINE
  5
23E
330
22A
100
AcDbEntity
  8
0
  6
Continuous
 62
     7
100
AcDbPolyline
 90
        2
 70
     0
 43
0.2
 10
2365.3782064717
 20
23.3686406454
 10
2366.173922482
 20
23.3686406454
  0
LWPOLYLINE
  5
23F
330
22A
100
AcDbEntity
  8
0
  6
Continuous
 62
     7
100
AcDbPolyline
 90
        2
 70
     0
 43
0.2
 10
2366.173922482
 20
23.3686406454
 10
2366.173922482
 20
23.580622217
  0
LWPOLYLINE
  5
240
330
22A
100
AcDbEntity
  8
0
  6
Continuous
 62
     7
100
AcDbPolyline
 90
        2
 70
     0
 43
0.2
 10
2366.173922482
 20
23.580622217
 10
2365.6098159665
 20
23.580622217
  0
LWPOLYLINE
  5
241
330
22A
100
AcDbEntity
  8
0
  6
Continuous
 62
     7
100
AcDbPolyline
 90
        2
 70
     0
 43
0.2
 10
2365.6098159665
 20
23.580622217
 10
2365.6098159665
 20
25.2257038947
  0
LWPOLYLINE
  5
242
330
22A
100
AcDbEntity
  8
0
  6
Continuous
 62
     7
100
AcDbPolyline
 90
        2
 70
     0
 43
0.2
 10
2365.6098159665
 20
25.2257038947
 10
2365.3782064717
 20
25.2257038947
  0
SPLINE
  5
243
330
22A
100
AcDbEntity
  8
0
  6
Continuous
 62
     7
100
AcDbSpline
 70
     3
 71
     3
 72
    35
 73
    31
 74
     0
 42
0.000000001
 43
0.0000001
 40
0.0
 40
0.0
 40
0.0
 40
0.0
 40
1.0
 40
1.0
 40
1.0
 40
2.0
 40
2.0
 40
2.0
 40
3.0
 40
3.0
 40
3.0
 40
4.0
 40
4.0
 40
4.0
 40
5.0
 40
5.0
 40
5.0
 40
6.0
 40
6.0
 40
6.0
 40
7.0
 40
7.0
 40
7.0
 40
8.0
 40
8.0
 40
8.0
 40
9.0
 40
9.0
 40
9.0
 40
10.0
 40
10.0
 40
10.0
 40
10.0
 10
2367.5722157376
 20
24.5211923013
 30
0.0
 10
2367.5722157376
 20
24.5211923013
 30
0.0
 10
2367.5722157376
 20
23.8590770221
 30
0.0
 10
2367.5722157376
 20
23.8590770221
 30
0.0
 10
2367.5722157376
 20
23.5439834268
 30
0.0
 10
2367.7200794264
 20
23.3293847988
 30
0.0
 10
2368.0601659107
 20
23.3293847988
 30
0.0
 10
2368.3997289837
 20
23.3293847988
 30
0.0
 10
2368.5478543782
 20
23.5439834268
 30
0.0
 10
2368.5478543782
 20
23.8590770221
 30
0.0
 10
2368.5478543782
 20
23.8590770221
 30
0.0
 10
2368.5478543782
 20
24.5211923013
 30
0.0
 10
2368.5478543782
 20
24.5211923013
 30
0.0
 10
2368.5478543782
 20
24.5211923013
 30
0.0
 10
2368.3257971393
 20
24.5211923013
 30
0.0
 10
2368.3257971393
 20
24.5211923013
 30
0.0
 10
2368.3257971393
 20
24.5211923013
 30
0.0
 10
2368.3257971393
 20
23.8842007639
 30
0.0
 10
2368.3257971393
 20
23.8842007639
 30
0.0
 10
2368.3257971393
 20
23.6983897567
 30
0.0
 10
2368.2790826819
 20
23.5356088462
 30
0.0
 10
2368.0601659107
 20
23.5356088462
 30
0.0
 10
2367.8407257283
 20
23.5356088462
 30
0.0
 10
2367.7940112708
 20
23.6983897567
 30
0.0
 10
2367.7940112708
 20
23.8842007639
 30
0.0
 10
2367.7940112708
 20
23.8842007639
 30
0.0
 10
2367.7940112708
 20
24.5211923013
 30
0.0
 10
2367.7940112708
 20
24.5211923013
 30
0.0
 10
2367.7940112708
 20
24.5211923013
 30
0.0
 10
2367.5722157376
 20
24.5211923013
 30
0.0
 10
2367.5722157376
 20
24.5211923013
 30
0.0
  0
SPLINE
  5
244
330
22A
100
AcDbEntity
  8
0
  6
Continuous
 62
     7
100
AcDbSpline
 70
     3
 71
     3
 72
    35
 73
    31
 74
     0
 42
0.000000001
 43
0.0000001
 40
0.0
 40
0.0
 40
0.0
 40
0.0
 40
1.0
 40
1.0
 40
1.0
 40
2.0
 40
2.0
 40
2.0
 40
3.0
 40
3.0
 40
3.0
 40
4.0
 40
4.0
 40
4.0
 40
5.0
 40
5.0
 40
5.0
 40
6.0
 40
6.0
 40
6.0
 40
7.0
 40
7.0
 40
7.0
 40
8.0
 40
8.0
 40
8.0
 40
9.0
 40
9.0
 40
9.0
 40
10.0
 40
10.0
 40
10.0
 40
10.0
 10
2370.9709869354
 20
24.4798428095
 30
0.0
 10
2370.8825304277
 20
24.5311371157
 30
0.0
 10
2370.7690810311
 20
24.5562608576
 30
0.0
 10
2370.6654455961
 20
24.5562608576
 30
0.0
 10
2370.3105727429
 20
24.5562608576
 30
0.0
 10
2370.0351275527
 20
24.2924615685
 30
0.0
 10
2370.0351275527
 20
23.9349716589
 30
0.0
 10
2370.0351275527
 20
23.5900436202
 30
0.0
 10
2370.3135823578
 20
23.3299082101
 30
0.0
 10
2370.6531454308
 20
23.3299082101
 30
0.0
 10
2370.7690810311
 20
23.3299082101
 30
0.0
 10
2370.869837704
 20
23.3518914842
 30
0.0
 10
2370.9709869354
 20
23.4058028468
 30
0.0
 10
2370.9709869354
 20
23.4058028468
 30
0.0
 10
2370.9709869354
 20
23.6884449423
 30
0.0
 10
2370.9709869354
 20
23.6884449423
 30
0.0
 10
2370.8871102765
 20
23.595277733
 30
0.0
 10
2370.7836056943
 20
23.5361322575
 30
0.0
 10
2370.6555007816
 20
23.5361322575
 30
0.0
 10
2370.4217976416
 20
23.5361322575
 30
0.0
 10
2370.2565305274
 20
23.7083345712
 30
0.0
 10
2370.2565305274
 20
23.9449164733
 30
0.0
 10
2370.2565305274
 20
24.1568980449
 30
0.0
 10
2370.4242838452
 20
24.3489899876
 30
0.0
 10
2370.6411069712
 20
24.3489899876
 30
0.0
 10
2370.7739225855
 20
24.3489899876
 30
0.0
 10
2370.8825304277
 20
24.2950786249
 30
0.0
 10
2370.9709869354
 20
24.1940602464
 30
0.0
 10
2370.9709869354
 20
24.1940602464
 30
0.0
 10
2370.9709869354
 20
24.4798428095
 30
0.0
 10
2370.9709869354
 20
24.4798428095
 30
0.0
  0
SPLINE
  5
245
330
22A
100
AcDbEntity
  8
0
  6
Continuous
 62
     7
100
AcDbSpline
 70
     3
 71
     3
 72
    32
 73
    28
 74
     0
 42
0.000000001
 43
0.0000001
 40
0.0
 40
0.0
 40
0.0
 40
0.0
 40
1.0
 40
1.0
 40
1.0
 40
2.0
 40
2.0
 40
2.0
 40
3.0
 40
3.0
 40
3.0
 40
4.0
 40
4.0
 40
4.0
 40
5.0
 40
5.0
 40
5.0
 40
6.0
 40
6.0
 40
6.0
 40
7.0
 40
7.0
 40
7.0
 40
8.0
 40
8.0
 40
8.0
 40
9.0
 40
9.0
 40
9.0
 40
9.0
 10
2373.5028581876
 20
23.9082776832
 30
0.0
 10
2373.5028581876
 20
23.9082776832
 30
0.0
 10
2373.5028581876
 20
23.9422994169
 30
0.0
 10
2373.5028581876
 20
23.9422994169
 30
0.0
 10
2373.5028581876
 20
24.2846103992
 30
0.0
 10
2373.3300016098
 20
24.5562608576
 30
0.0
 10
2372.9633520026
 20
24.5562608576
 30
0.0
 10
2372.5917299883
 20
24.5562608576
 30
0.0
 10
2372.4019933964
 20
24.289844512
 30
0.0
 10
2372.4019933964
 20
23.9349716589
 30
0.0
 10
2372.4019933964
 20
23.595277733
 30
0.0
 10
2372.6160686131
 20
23.3293847988
 30
0.0
 10
2372.9681935571
 20
23.3293847988
 30
0.0
 10
2373.1922135883
 20
23.3293847988
 30
0.0
 10
2373.3943811982
 20
23.4450586934
 30
0.0
 10
2373.5028581876
 20
23.6444783941
 30
0.0
 10
2373.5028581876
 20
23.6444783941
 30
0.0
 10
2373.3152152409
 20
23.7512542968
 30
0.0
 10
2373.3152152409
 20
23.7512542968
 30
0.0
 10
2373.2317311405
 20
23.6125503055
 30
0.0
 10
2373.1405267236
 20
23.5267108543
 30
0.0
 10
2372.9709414663
 20
23.5267108543
 30
0.0
 10
2372.7589598947
 20
23.5267108543
 30
0.0
 10
2372.6260134276
 20
23.7114750389
 30
0.0
 10
2372.6236580768
 20
23.9082776832
 30
0.0
 10
2372.6236580768
 20
23.9082776832
 30
0.0
 10
2373.5028581876
 20
23.9082776832
 30
0.0
 10
2373.5028581876
 20
23.9082776832
 30
0.0
  0
SPLINE
  5
246
330
22A
100
AcDbEntity
  8
0
  6
Continuous
 62
     7
100
AcDbSpline
 70
     3
 71
     3
 72
    14
 73
    10
 74
     0
 42
0.000000001
 43
0.0000001
 40
0.0
 40
0.0
 40
0.0
 40
0.0
 40
1.0
 40
1.0
 40
1.0
 40
2.0
 40
2.0
 40
2.0
 40
3.0
 40
3.0
 40
3.0
 40
3.0
 10
2372.6356965364
 20
24.0757692953
 30
0.0
 10
2372.6633064819
 20
24.240643851
 30
0.0
 10
2372.7911496889
 20
24.3636455036
 30
0.0
 10
2372.9633520026
 20
24.3636455036
 30
0.0
 10
2373.1405267236
 20
24.3636455036
 30
0.0
 10
2373.2539761202
 20
24.247971609
 30
0.0
 10
2373.2811935072
 20
24.0757692953
 30
0.0
 10
2373.2811935072
 20
24.0757692953
 30
0.0
 10
2372.6356965364
 20
24.0757692953
 30
0.0
 10
2372.6356965364
 20
24.0757692953
 30
0.0
  0
SPLINE
  5
247
330
22A
100
AcDbEntity
  8
0
  6
Continuous
 62
     7
100
AcDbSpline
 70
     3
 71
     3
 72
    20
 73
    16
 74
     0
 42
0.000000001
 43
0.0000001
 40
0.0
 40
0.0
 40
0.0
 40
0.0
 40
1.0
 40
1.0
 40
1.0
 40
2.0
 40
2.0
 40
2.0
 40
3.0
 40
3.0
 40
3.0
 40
4.0
 40
4.0
 40
4.0
 40
5.0
 40
5.0
 40
5.0
 40
5.0
 10
2375.5268896378
 20
24.2851338104
 30
0.0
 10
2375.5268896378
 20
24.2851338104
 30
0.0
 10
2375.9380292044
 20
23.7826589741
 30
0.0
 10
2375.9380292044
 20
23.7826589741
 30
0.0
 10
2375.8219627513
 20
23.6669850795
 30
0.0
 10
2375.6841747298
 20
23.5366556688
 30
0.0
 10
2375.5122341218
 20
23.5366556688
 30
0.0
 10
2375.3347976952
 20
23.5366556688
 30
0.0
 10
2375.167306083
 20
23.7010068132
 30
0.0
 10
2375.167306083
 20
23.8779198285
 30
0.0
 10
2375.167306083
 20
24.0558796664
 30
0.0
 10
2375.3770631567
 20
24.1820217867
 30
0.0
 10
2375.5046446581
 20
24.2699548831
 30
0.0
 10
2375.5046446581
 20
24.2699548831
 30
0.0
 10
2375.5268896378
 20
24.2851338104
 30
0.0
 10
2375.5268896378
 20
24.2851338104
 30
0.0
  0
SPLINE
  5
248
330
22A
100
AcDbEntity
  8
0
  6
Continuous
 62
     7
100
AcDbSpline
 70
     3
 71
     3
 72
    23
 73
    19
 74
     0
 42
0.000000001
 43
0.0000001
 40
0.0
 40
0.0
 40
0.0
 40
0.0
 40
1.0
 40
1.0
 40
1.0
 40
2.0
 40
2.0
 40
2.0
 40
3.0
 40
3.0
 40
3.0
 40
4.0
 40
4.0
 40
4.0
 40
5.0
 40
5.0
 40
5.0
 40
6.0
 40
6.0
 40
6.0
 40
6.0
 10
2375.5762211517
 20
24.5761504865
 30
0.0
 10
2375.5762211517
 20
24.5761504865
 30
0.0
 10
2375.5145894725
 20
24.6546621797
 30
0.0
 10
2375.5145894725
 20
24.6546621797
 30
0.0
 10
2375.4606781099
 20
24.7232290584
 30
0.0
 10
2375.4038879852
 20
24.7923193484
 30
0.0
 10
2375.4038879852
 20
24.8860099689
 30
0.0
 10
2375.4038879852
 20
25.0048243313
 30
0.0
 10
2375.4998031037
 20
25.0822892019
 30
0.0
 10
2375.6107662967
 20
25.0822892019
 30
0.0
 10
2375.734029655
 20
25.0822892019
 30
0.0
 10
2375.827327717
 20
25.0111052667
 30
0.0
 10
2375.827327717
 20
24.880775856
 30
0.0
 10
2375.827327717
 20
24.7457357438
 30
0.0
 10
2375.6992228043
 20
24.6693176957
 30
0.0
 10
2375.6056630366
 20
24.5955167042
 30
0.0
 10
2375.6056630366
 20
24.5955167042
 30
0.0
 10
2375.5762211517
 20
24.5761504865
 30
0.0
 10
2375.5762211517
 20
24.5761504865
 30
0.0
  0
SPLINE
  5
249
330
22A
100
AcDbEntity
  8
0
  6
Continuous
 62
     7
100
AcDbSpline
 70
     3
 71
     3
 72
    50
 73
    46
 74
     0
 42
0.000000001
 43
0.0000001
 40
0.0
 40
0.0
 40
0.0
 40
0.0
 40
1.0
 40
1.0
 40
1.0
 40
2.0
 40
2.0
 40
2.0
 40
3.0
 40
3.0
 40
3.0
 40
4.0
 40
4.0
 40
4.0
 40
5.0
 40
5.0
 40
5.0
 40
6.0
 40
6.0
 40
6.0
 40
7.0
 40
7.0
 40
7.0
 40
8.0
 40
8.0
 40
8.0
 40
9.0
 40
9.0
 40
9.0
 40
10.0
 40
10.0
 40
10.0
 40
11.0
 40
11.0
 40
11.0
 40
12.0
 40
12.0
 40
12.0
 40
13.0
 40
13.0
 40
13.0
 40
14.0
 40
14.0
 40
14.0
 40
15.0
 40
15.0
 40
15.0
 40
15.0
 10
2376.2783773944
 20
23.3691640567
 30
0.0
 10
2376.2783773944
 20
23.3691640567
 30
0.0
 10
2376.5637673991
 20
23.3691640567
 30
0.0
 10
2376.5637673991
 20
23.3691640567
 30
0.0
 10
2376.5637673991
 20
23.3691640567
 30
0.0
 10
2376.2314012313
 20
23.7800419177
 30
0.0
 10
2376.2314012313
 20
23.7800419177
 30
0.0
 10
2376.2314012313
 20
23.7800419177
 30
0.0
 10
2376.4579074661
 20
24.0459348519
 30
0.0
 10
2376.4579074661
 20
24.0459348519
 30
0.0
 10
2376.4579074661
 20
24.0459348519
 30
0.0
 10
2376.3096512188
 20
24.1987709479
 30
0.0
 10
2376.3096512188
 20
24.1987709479
 30
0.0
 10
2376.3096512188
 20
24.1987709479
 30
0.0
 10
2376.0937440626
 20
23.9475335298
 30
0.0
 10
2376.0937440626
 20
23.9475335298
 30
0.0
 10
2376.0937440626
 20
23.9475335298
 30
0.0
 10
2375.7066814152
 20
24.4154632211
 30
0.0
 10
2375.7066814152
 20
24.4154632211
 30
0.0
 10
2375.8621345677
 20
24.5295668819
 30
0.0
 10
2376.0444125487
 20
24.6693176957
 30
0.0
 10
2376.0444125487
 20
24.8786822109
 30
0.0
 10
2376.0444125487
 20
25.122591871
 30
0.0
 10
2375.8423757916
 20
25.2660065639
 30
0.0
 10
2375.6158695567
 20
25.2660065639
 30
0.0
 10
2375.371698191
 20
25.2660065639
 30
0.0
 10
2375.1873265648
 20
25.115264113
 30
0.0
 10
2375.1873265648
 20
24.858792582
 30
0.0
 10
2375.1873265648
 20
24.7012457843
 30
0.0
 10
2375.2859895926
 20
24.5635886156
 30
0.0
 10
2375.3913261143
 20
24.4526254226
 30
0.0
 10
2375.3913261143
 20
24.4526254226
 30
0.0
 10
2375.2757830725
 20
24.3688796165
 30
0.0
 10
2375.2757830725
 20
24.3688796165
 30
0.0
 10
2375.0980849402
 20
24.240643851
 30
0.0
 10
2374.9507446627
 20
24.1129314967
 30
0.0
 10
2374.9507446627
 20
23.8758261833
 30
0.0
 10
2374.9507446627
 20
23.5554984752
 30
0.0
 10
2375.2093098389
 20
23.3293847988
 30
0.0
 10
2375.5196927326
 20
23.3293847988
 30
0.0
 10
2375.7386095038
 20
23.3293847988
 30
0.0
 10
2375.9358047065
 20
23.4544800966
 30
0.0
 10
2376.0760789316
 20
23.6204014749
 30
0.0
 10
2376.0760789316
 20
23.6204014749
 30
0.0
 10
2376.2783773944
 20
23.3691640567
 30
0.0
 10
2376.2783773944
 20
23.3691640567
 30
0.0
  0
LWPOLYLINE
  5
24A
330
22A
100
AcDbEntity
  8
0
  6
Continuous
 62
     7
100
AcDbPolyline
 90
        2
 70
     0
 43
0.2
 10
2378.2138214841
 20
25.2257038947
 10
2377.9824736949
 20
25.2257038947
  0
LWPOLYLINE
  5
24B
330
22A
100
AcDbEntity
  8
0
  6
Continuous
 62
     7
100
AcDbPolyline
 90
        2
 70
     0
 43
0.2
 10
2377.9824736949
 20
25.2257038947
 10
2377.9824736949
 20
23.3686406454
  0
LWPOLYLINE
  5
24C
330
22A
100
AcDbEntity
  8
0
  6
Continuous
 62
     7
100
AcDbPolyline
 90
        2
 70
     0
 43
0.2
 10
2377.9824736949
 20
23.3686406454
 10
2378.7777971468
 20
23.3686406454
  0
LWPOLYLINE
  5
24D
330
22A
100
AcDbEntity
  8
0
  6
Continuous
 62
     7
100
AcDbPolyline
 90
        2
 70
     0
 43
0.2
 10
2378.7777971468
 20
23.3686406454
 10
2378.7777971468
 20
23.580622217
  0
LWPOLYLINE
  5
24E
330
22A
100
AcDbEntity
  8
0
  6
Continuous
 62
     7
100
AcDbPolyline
 90
        2
 70
     0
 43
0.2
 10
2378.7777971468
 20
23.580622217
 10
2378.2138214841
 20
23.580622217
  0
LWPOLYLINE
  5
24F
330
22A
100
AcDbEntity
  8
0
  6
Continuous
 62
     7
100
AcDbPolyline
 90
        2
 70
     0
 43
0.2
 10
2378.2138214841
 20
23.580622217
 10
2378.2138214841
 20
25.2257038947
  0
LWPOLYLINE
  5
250
330
22A
100
AcDbEntity
  8
0
  6
Continuous
 62
     7
100
AcDbPolyline
 90
        2
 70
     0
 43
0.2
 10
2380.4569005583
 20
24.5211923013
 10
2380.2357592891
 20
24.5211923013
  0
LWPOLYLINE
  5
251
330
22A
100
AcDbEntity
  8
0
  6
Continuous
 62
     7
100
AcDbPolyline
 90
        2
 70
     0
 43
0.2
 10
2380.2357592891
 20
24.5211923013
 10
2380.2357592891
 20
23.3691640567
  0
LWPOLYLINE
  5
252
330
22A
100
AcDbEntity
  8
0
  6
Continuous
 62
     7
100
AcDbPolyline
 90
        2
 70
     0
 43
0.2
 10
2380.2357592891
 20
23.3691640567
 10
2380.4569005583
 20
23.3691640567
  0
LWPOLYLINE
  5
253
330
22A
100
AcDbEntity
  8
0
  6
Continuous
 62
     7
100
AcDbPolyline
 90
        2
 70
     0
 43
0.2
 10
2380.4569005583
 20
23.3691640567
 10
2380.4569005583
 20
24.5211923013
  0
LWPOLYLINE
  5
254
330
22A
100
AcDbEntity
  8
0
  6
Continuous
 62
     7
100
AcDbPolyline
 90
        2
 70
     1
 43
0.2
 10
2380.1938772811
 20
25.0511462302
 42
1.0
 10
2380.499044272
 20
25.0511462302
 42
1.0
  0
SPLINE
  5
255
330
22A
100
AcDbEntity
  8
0
  6
Continuous
 62
     7
100
AcDbSpline
 70
     3
 71
     3
 72
    17
 73
    13
 74
     0
 42
0.000000001
 43
0.0000001
 40
0.0
 40
0.0
 40
0.0
 40
0.0
 40
1.0
 40
1.0
 40
1.0
 40
2.0
 40
2.0
 40
2.0
 40
3.0
 40
3.0
 40
3.0
 40
4.0
 40
4.0
 40
4.0
 40
4.0
 10
2382.5871844999
 20
23.5267108543
 30
0.0
 10
2382.3532196542
 20
23.5267108543
 30
0.0
 10
2382.2228902435
 20
23.7287476114
 30
0.0
 10
2382.2228902435
 20
23.9449164733
 30
0.0
 10
2382.2228902435
 20
24.1595151014
 30
0.0
 10
2382.3587154727
 20
24.3584113907
 30
0.0
 10
2382.5871844999
 20
24.3584113907
 30
0.0
 10
2382.8266451641
 20
24.3584113907
 30
0.0
 10
2382.9622086877
 20
24.1694599158
 30
0.0
 10
2382.9622086877
 20
23.9449164733
 30
0.0
 10
2382.9622086877
 20
23.718802797
 30
0.0
 10
2382.8290005149
 20
23.5267108543
 30
0.0
 10
2382.5871844999
 20
23.5267108543
 30
0.0
  0
SPLINE
  5
256
330
22A
100
AcDbEntity
  8
0
  6
Continuous
 62
     7
100
AcDbSpline
 70
     3
 71
     3
 72
    50
 73
    46
 74
     0
 42
0.000000001
 43
0.0000001
 40
0.0
 40
0.0
 40
0.0
 40
0.0
 40
1.0
 40
1.0
 40
1.0
 40
2.0
 40
2.0
 40
2.0
 40
3.0
 40
3.0
 40
3.0
 40
4.0
 40
4.0
 40
4.0
 40
5.0
 40
5.0
 40
5.0
 40
6.0
 40
6.0
 40
6.0
 40
7.0
 40
7.0
 40
7.0
 40
8.0
 40
8.0
 40
8.0
 40
9.0
 40
9.0
 40
9.0
 40
10.0
 40
10.0
 40
10.0
 40
11.0
 40
11.0
 40
11.0
 40
12.0
 40
12.0
 40
12.0
 40
13.0
 40
13.0
 40
13.0
 40
14.0
 40
14.0
 40
14.0
 40
15.0
 40
15.0
 40
15.0
 40
15.0
 10
2383.1713114972
 20
24.5217157126
 30
0.0
 10
2383.1713114972
 20
24.5217157126
 30
0.0
 10
2382.9496468167
 20
24.5217157126
 30
0.0
 10
2382.9496468167
 20
24.5217157126
 30
0.0
 10
2382.9496468167
 20
24.5217157126
 30
0.0
 10
2382.9496468167
 20
24.324389657
 30
0.0
 10
2382.9496468167
 20
24.324389657
 30
0.0
 10
2382.9496468167
 20
24.324389657
 30
0.0
 10
2382.9449361152
 20
24.324389657
 30
0.0
 10
2382.9449361152
 20
24.324389657
 30
0.0
 10
2382.8536008454
 20
24.4672809386
 30
0.0
 10
2382.7156819711
 20
24.5557374463
 30
0.0
 10
2382.5429562461
 20
24.5557374463
 30
0.0
 10
2382.2105900783
 20
24.5557374463
 30
0.0
 10
2382.0014872688
 20
24.2678612379
 30
0.0
 10
2382.0014872688
 20
23.9522442314
 30
0.0
 10
2382.0014872688
 20
23.62249512
 30
0.0
 10
2382.1985516186
 20
23.3293847988
 30
0.0
 10
2382.5534244718
 20
23.3293847988
 30
0.0
 10
2382.7156819711
 20
23.3293847988
 30
0.0
 10
2382.8556944906
 20
23.4178413064
 30
0.0
 10
2382.9449361152
 20
23.5486941284
 30
0.0
 10
2382.9449361152
 20
23.5486941284
 30
0.0
 10
2382.9496468167
 20
23.5486941284
 30
0.0
 10
2382.9496468167
 20
23.5486941284
 30
0.0
 10
2382.9496468167
 20
23.5486941284
 30
0.0
 10
2382.9496468167
 20
23.3293847988
 30
0.0
 10
2382.9496468167
 20
23.3293847988
 30
0.0
 10
2382.9496468167
 20
23.0928028967
 30
0.0
 10
2382.8931183977
 20
22.9059450669
 30
0.0
 10
2382.6198977054
 20
22.9059450669
 30
0.0
 10
2382.4175992426
 20
22.9059450669
 30
0.0
 10
2382.2749696667
 20
23.024236018
 30
0.0
 10
2382.2749696667
 20
23.2304600654
 30
0.0
 10
2382.2749696667
 20
23.2304600654
 30
0.0
 10
2382.0533049863
 20
23.2304600654
 30
0.0
 10
2382.0533049863
 20
23.2304600654
 30
0.0
 10
2382.0582773935
 20
22.9059450669
 30
0.0
 10
2382.2893634771
 20
22.7091424227
 30
0.0
 10
2382.6096911853
 20
22.7091424227
 30
0.0
 10
2383.0577312477
 20
22.7091424227
 30
0.0
 10
2383.1713114972
 20
22.9944015746
 30
0.0
 10
2383.1713114972
 20
23.3911473308
 30
0.0
 10
2383.1713114972
 20
23.3911473308
 30
0.0
 10
2383.1713114972
 20
24.5217157126
 30
0.0
 10
2383.1713114972
 20
24.5217157126
 30
0.0
  0
SPLINE
  5
257
330
22A
100
AcDbEntity
  8
0
  6
Continuous
 62
     7
100
AcDbSpline
 70
     3
 71
     3
 72
    44
 73
    40
 74
     0
 42
0.000000001
 43
0.0000001
 40
0.0
 40
0.0
 40
0.0
 40
0.0
 40
1.0
 40
1.0
 40
1.0
 40
2.0
 40
2.0
 40
2.0
 40
3.0
 40
3.0
 40
3.0
 40
4.0
 40
4.0
 40
4.0
 40
5.0
 40
5.0
 40
5.0
 40
6.0
 40
6.0
 40
6.0
 40
7.0
 40
7.0
 40
7.0
 40
8.0
 40
8.0
 40
8.0
 40
9.0
 40
9.0
 40
9.0
 40
10.0
 40
10.0
 40
10.0
 40
11.0
 40
11.0
 40
11.0
 40
12.0
 40
12.0
 40
12.0
 40
13.0
 40
13.0
 40
13.0
 40
13.0
 10
2384.7402368325
 20
25.5067757563
 30
0.0
 10
2384.7402368325
 20
25.5067757563
 30
0.0
 10
2384.7402368325
 20
23.3686406454
 30
0.0
 10
2384.7402368325
 20
23.3686406454
 30
0.0
 10
2384.7402368325
 20
23.3686406454
 30
0.0
 10
2384.9616398073
 20
23.3686406454
 30
0.0
 10
2384.9616398073
 20
23.3686406454
 30
0.0
 10
2384.9616398073
 20
23.3686406454
 30
0.0
 10
2384.9616398073
 20
23.8983328687
 30
0.0
 10
2384.9616398073
 20
23.8983328687
 30
0.0
 10
2384.9616398073
 20
24.1082207951
 30
0.0
 10
2384.9616398073
 20
24.358934802
 30
0.0
 10
2385.2468989592
 20
24.358934802
 30
0.0
 10
2385.4737977525
 20
24.358934802
 30
0.0
 10
2385.5007534338
 20
24.2259883349
 30
0.0
 10
2385.5007534338
 20
24.029709102
 30
0.0
 10
2385.5007534338
 20
24.029709102
 30
0.0
 10
2385.5007534338
 20
23.3686406454
 30
0.0
 10
2385.5007534338
 20
23.3686406454
 30
0.0
 10
2385.5007534338
 20
23.3686406454
 30
0.0
 10
2385.7226798199
 20
23.3686406454
 30
0.0
 10
2385.7226798199
 20
23.3686406454
 30
0.0
 10
2385.7226798199
 20
23.3686406454
 30
0.0
 10
2385.7226798199
 20
24.0558796664
 30
0.0
 10
2385.7226798199
 20
24.0558796664
 30
0.0
 10
2385.7226798199
 20
24.3364281167
 30
0.0
 10
2385.6386723082
 20
24.5562608576
 30
0.0
 10
2385.3136338984
 20
24.5562608576
 30
0.0
 10
2385.1738830845
 20
24.5562608576
 30
0.0
 10
2385.0357025045
 20
24.489787624
 30
0.0
 10
2384.9663505089
 20
24.3667859714
 30
0.0
 10
2384.9663505089
 20
24.3667859714
 30
0.0
 10
2384.9616398073
 20
24.3667859714
 30
0.0
 10
2384.9616398073
 20
24.3667859714
 30
0.0
 10
2384.9616398073
 20
24.3667859714
 30
0.0
 10
2384.9616398073
 20
25.5067757563
 30
0.0
 10
2384.9616398073
 20
25.5067757563
 30
0.0
 10
2384.9616398073
 20
25.5067757563
 30
0.0
 10
2384.7402368325
 20
25.5067757563
 30
0.0
 10
2384.7402368325
 20
25.5067757563
 30
0.0
  0
LWPOLYLINE
  5
258
330
22A
100
AcDbEntity
  8
0
  6
Continuous
 62
     7
100
AcDbPolyline
 90
        2
 70
     0
 43
0.2
 10
2387.5624704967
 20
24.3144448426
 10
2387.7789010643
 20
24.3144448426
  0
LWPOLYLINE
  5
259
330
22A
100
AcDbEntity
  8
0
  6
Continuous
 62
     7
100
AcDbPolyline
 90
        2
 70
     0
 43
0.2
 10
2387.7789010643
 20
24.3144448426
 10
2387.7789010643
 20
24.5211923013
  0
LWPOLYLINE
  5
25A
330
22A
100
AcDbEntity
  8
0
  6
Continuous
 62
     7
100
AcDbPolyline
 90
        2
 70
     0
 43
0.2
 10
2387.7789010643
 20
24.5211923013
 10
2387.5624704967
 20
24.5211923013
  0
LWPOLYLINE
  5
25B
330
22A
100
AcDbEntity
  8
0
  6
Continuous
 62
     7
100
AcDbPolyline
 90
        2
 70
     0
 43
0.2
 10
2387.5624704967
 20
24.5211923013
 10
2387.5624704967
 20
24.9619046057
  0
LWPOLYLINE
  5
25C
330
22A
100
AcDbEntity
  8
0
  6
Continuous
 62
     7
100
AcDbPolyline
 90
        2
 70
     0
 43
0.2
 10
2387.5624704967
 20
24.9619046057
 10
2387.3408058163
 20
24.9619046057
  0
LWPOLYLINE
  5
25D
330
22A
100
AcDbEntity
  8
0
  6
Continuous
 62
     7
100
AcDbPolyline
 90
        2
 70
     0
 43
0.2
 10
2387.3408058163
 20
24.9619046057
 10
2387.3408058163
 20
24.5211923013
  0
LWPOLYLINE
  5
25E
330
22A
100
AcDbEntity
  8
0
  6
Continuous
 62
     7
100
AcDbPolyline
 90
        2
 70
     0
 43
0.2
 10
2387.3408058163
 20
24.5211923013
 10
2387.2201595145
 20
24.5211923013
  0
LWPOLYLINE
  5
25F
330
22A
100
AcDbEntity
  8
0
  6
Continuous
 62
     7
100
AcDbPolyline
 90
        2
 70
     0
 43
0.2
 10
2387.2201595145
 20
24.5211923013
 10
2387.2201595145
 20
24.3144448426
  0
LWPOLYLINE
  5
260
330
22A
100
AcDbEntity
  8
0
  6
Continuous
 62
     7
100
AcDbPolyline
 90
        2
 70
     0
 43
0.2
 10
2387.2201595145
 20
24.3144448426
 10
2387.3408058163
 20
24.3144448426
  0
LWPOLYLINE
  5
261
330
22A
100
AcDbEntity
  8
0
  6
Continuous
 62
     7
100
AcDbPolyline
 90
        2
 70
     0
 43
0.2
 10
2387.3408058163
 20
24.3144448426
 10
2387.3408058163
 20
23.3686406454
  0
LWPOLYLINE
  5
262
330
22A
100
AcDbEntity
  8
0
  6
Continuous
 62
     7
100
AcDbPolyline
 90
        2
 70
     0
 43
0.2
 10
2387.3408058163
 20
23.3686406454
 10
2387.5624704967
 20
23.3686406454
  0
LWPOLYLINE
  5
263
330
22A
100
AcDbEntity
  8
0
  6
Continuous
 62
     7
100
AcDbPolyline
 90
        2
 70
     0
 43
0.2
 10
2387.5624704967
 20
23.3686406454
 10
2387.5624704967
 20
24.3144448426
  0
SPLINE
  5
264
330
22A
100
AcDbEntity
  8
0
  6
Continuous
 62
     7
100
AcDbSpline
 70
     3
 71
     3
 72
    20
 73
    16
 74
     0
 42
0.000000001
 43
0.0000001
 40
0.0
 40
0.0
 40
0.0
 40
0.0
 40
1.0
 40
1.0
 40
1.0
 40
2.0
 40
2.0
 40
2.0
 40
3.0
 40
3.0
 40
3.0
 40
4.0
 40
4.0
 40
4.0
 40
5.0
 40
5.0
 40
5.0
 40
5.0
 10
2375.344480804
 20
33.7295670888
 30
0.0
 10
2375.344480804
 20
33.7295670888
 30
0.0
 10
2377.6608374585
 20
30.9000056665
 30
0.0
 10
2377.6608374585
 20
30.9000056665
 30
0.0
 10
2377.0091904051
 20
30.2478352019
 30
0.0
 10
2376.232317201
 20
29.5119189311
 30
0.0
 10
2375.2611275564
 20
29.5119189311
 30
0.0
 10
2374.262589672
 20
29.5119189311
 30
0.0
 10
2373.3192716784
 20
30.4414973784
 30
0.0
 10
2373.3192716784
 20
31.4406895269
 30
0.0
 10
2373.3192716784
 20
32.4398816755
 30
0.0
 10
2374.4981247515
 20
33.1464869141
 30
0.0
 10
2375.2196472118
 20
33.646344694
 30
0.0
 10
2375.2196472118
 20
33.646344694
 30
0.0
 10
2375.344480804
 20
33.7295670888
 30
0.0
 10
2375.344480804
 20
33.7295670888
 30
0.0
  0
SPLINE
  5
265
330
22A
100
AcDbEntity
  8
0
  6
Continuous
 62
     7
100
AcDbSpline
 70
     3
 71
     3
 72
    23
 73
    19
 74
     0
 42
0.000000001
 43
0.0000001
 40
0.0
 40
0.0
 40
0.0
 40
0.0
 40
1.0
 40
1.0
 40
1.0
 40
2.0
 40
2.0
 40
2.0
 40
3.0
 40
3.0
 40
3.0
 40
4.0
 40
4.0
 40
4.0
 40
5.0
 40
5.0
 40
5.0
 40
6.0
 40
6.0
 40
6.0
 40
6.0
 10
2375.6218887866
 20
35.3673210085
 30
0.0
 10
2375.6218887866
 20
35.3673210085
 30
0.0
 10
2375.275390514
 20
35.8106503693
 30
0.0
 10
2375.275390514
 20
35.8106503693
 30
0.0
 10
2374.9695874691
 20
36.1987598393
 30
0.0
 10
2374.6506991419
 20
36.5872618677
 30
0.0
 10
2374.6506991419
 20
37.1142061818
 30
0.0
 10
2374.6506991419
 20
37.7803778984
 30
0.0
 10
2375.1920372664
 20
38.2240998177
 30
0.0
 10
2375.8159435215
 20
38.2240998177
 30
0.0
 10
2376.5097251836
 20
38.2240998177
 30
0.0
 10
2377.0369312033
 20
37.821858243
 30
0.0
 10
2377.0369312033
 20
37.086857942
 30
0.0
 10
2377.0369312033
 20
36.3235934315
 30
0.0
 10
2376.3156704486
 20
35.8934802057
 30
0.0
 10
2375.7885952817
 20
35.4777607903
 30
0.0
 10
2375.7885952817
 20
35.4777607903
 30
0.0
 10
2375.6218887866
 20
35.3673210085
 30
0.0
 10
2375.6218887866
 20
35.3673210085
 30
0.0
  0
SPLINE
  5
266
330
22A
100
AcDbEntity
  8
0
  6
Continuous
 62
     7
100
AcDbSpline
 70
     3
 71
     3
 72
    50
 73
    46
 74
     0
 42
0.000000001
 43
0.0000001
 40
0.0
 40
0.0
 40
0.0
 40
0.0
 40
1.0
 40
1.0
 40
1.0
 40
2.0
 40
2.0
 40
2.0
 40
3.0
 40
3.0
 40
3.0
 40
4.0
 40
4.0
 40
4.0
 40
5.0
 40
5.0
 40
5.0
 40
6.0
 40
6.0
 40
6.0
 40
7.0
 40
7.0
 40
7.0
 40
8.0
 40
8.0
 40
8.0
 40
9.0
 40
9.0
 40
9.0
 40
10.0
 40
10.0
 40
10.0
 40
11.0
 40
11.0
 40
11.0
 40
12.0
 40
12.0
 40
12.0
 40
13.0
 40
13.0
 40
13.0
 40
14.0
 40
14.0
 40
14.0
 40
15.0
 40
15.0
 40
15.0
 40
15.0
 10
2379.5754759495
 20
28.5687317904
 30
0.0
 10
2379.5754759495
 20
28.5687317904
 30
0.0
 10
2381.184703954
 20
28.5687317904
 30
0.0
 10
2381.184703954
 20
28.5687317904
 30
0.0
 10
2381.184703954
 20
28.5687317904
 30
0.0
 10
2379.3116766604
 20
30.8858735618
 30
0.0
 10
2379.3116766604
 20
30.8858735618
 30
0.0
 10
2379.3116766604
 20
30.8858735618
 30
0.0
 10
2380.5880150859
 20
32.3833532564
 30
0.0
 10
2380.5880150859
 20
32.3833532564
 30
0.0
 10
2380.5880150859
 20
32.3833532564
 30
0.0
 10
2379.7557911382
 20
33.2443648249
 30
0.0
 10
2379.7557911382
 20
33.2443648249
 30
0.0
 10
2379.7557911382
 20
33.2443648249
 30
0.0
 10
2378.5351960148
 20
31.8290607025
 30
0.0
 10
2378.5351960148
 20
31.8290607025
 30
0.0
 10
2378.5351960148
 20
31.8290607025
 30
0.0
 10
2376.357281646
 20
34.4644365369
 30
0.0
 10
2376.357281646
 20
34.4644365369
 30
0.0
 10
2377.2308550855
 20
35.1024748969
 30
0.0
 10
2378.2575263266
 20
35.8934802057
 30
0.0
 10
2378.2575263266
 20
37.0723332788
 30
0.0
 10
2378.2575263266
 20
38.4460262038
 30
0.0
 10
2377.1196301868
 20
39.2505093532
 30
0.0
 10
2375.8443385839
 20
39.2505093532
 30
0.0
 10
2374.4709073645
 20
39.2505093532
 30
0.0
 10
2373.4299731658
 20
38.4042841536
 30
0.0
 10
2373.4299731658
 20
36.9616317914
 30
0.0
 10
2373.4299731658
 20
36.0740571
 30
0.0
 10
2373.9853125422
 20
35.2971838959
 30
0.0
 10
2374.5814779991
 20
34.6727542295
 30
0.0
 10
2374.5814779991
 20
34.6727542295
 30
0.0
 10
2373.9295692401
 20
34.2011606591
 30
0.0
 10
2373.9295692401
 20
34.2011606591
 30
0.0
 10
2372.9310313556
 20
33.4798999045
 30
0.0
 10
2372.0981531438
 20
32.7586391498
 30
0.0
 10
2372.0981531438
 20
31.4270808334
 30
0.0
 10
2372.0981531438
 20
29.6234055354
 30
0.0
 10
2373.5551993164
 20
28.3468054043
 30
0.0
 10
2375.3027387538
 20
28.3468054043
 30
0.0
 10
2376.5375968347
 20
28.3468054043
 30
0.0
 10
2377.6469670593
 20
29.0549808768
 30
0.0
 10
2378.4378415153
 20
29.9835125015
 30
0.0
 10
2378.4378415153
 20
29.9835125015
 30
0.0
 10
2379.5754759495
 20
28.5687317904
 30
0.0
 10
2379.5754759495
 20
28.5687317904
 30
0.0
  0
LINE
  5
267
330
22A
100
AcDbEntity
  8
0
  6
Continuous
 62
     7
100
AcDbLine
 10
2365.3783373245
 20
26.542606695
 30
0.0
 11
2387.7922480521
 21
26.542606695
 31
0.0
  0
LINE
  5
268
330
22A
100
AcDbEntity
  8
0
  6
Continuous
 62
     7
100
AcDbLine
 10
2387.7922480521
 20
26.542606695
 30
0.0
 11
2387.7922480521
 21
48.9565174227
 31
0.0
  0
LINE
  5
269
330
22A
100
AcDbEntity
  8
0
  6
Continuous
 62
     7
100
AcDbLine
 10
2387.7922480521
 20
48.9565174227
 30
0.0
 11
2365.3783373245
 21
48.9565174227
 31
0.0
  0
LINE
  5
26A
330
22A
100
AcDbEntity
  8
0
  6
Continuous
 62
     7
100
AcDbLine
 10
2365.3783373245
 20
48.9565174227
 30
0.0
 11
2365.3783373245
 21
26.542606695
 31
0.0
  0
ENDBLK
  5
26B
330
22A
100
AcDbEntity
  8
0
  6
ByBlock
 62
     0
100
AcDbBlockEnd
  0
BLOCK
  5
26C
330
22B
100
AcDbEntity
  8
0
100
AcDbBlockBegin
  2
PROIEZIONE_EU_BL0
 70
     0
 10
2377.7591802171
 20
61.4578299227
 30
0.0
  3
PROIEZIONE_EU_BL0
  1

  0
LWPOLYLINE
  5
26D
330
22B
100
AcDbEntity
  8
DEFAULT_1
  6
CENTER
 62
     7
100
AcDbPolyline
 90
        2
 70
     0
 43
0.25
 10
2383.8858008788
 20
66.4575240546
 10
2383.8858418611
 20
56.4581357908
  0
LWPOLYLINE
  5
26E
330
22B
100
AcDbEntity
  8
DEFAULT_1
  6
CENTER
 62
     7
100
AcDbPolyline
 90
        2
 70
     0
 43
0.25
 10
2389.8858307038
 20
61.4581010578
 10
2365.6325297304
 20
61.4578303974
  0
LWPOLYLINE
  5
26F
330
22B
100
AcDbEntity
  8
0
  6
Continuous
 62
     7
100
AcDbPolyline
 90
        2
 70
     1
 43
0.25
 10
2380.338690703
 20
61.4392821685
 42
1.0
 10
2387.4450198016
 20
61.4392821685
 42
1.0
  0
LWPOLYLINE
  5
270
330
22B
100
AcDbEntity
  8
0
  6
Continuous
 62
     7
100
AcDbPolyline
 90
        2
 70
     1
 43
0.25
 10
2381.8884345314
 20
61.4571802131
 42
1.0
 10
2385.9001862814
 20
61.4571802131
 42
1.0
  0
LWPOLYLINE
  5
271
330
22B
100
AcDbEntity
  8
0
  6
Continuous
 62
     7
100
AcDbPolyline
 90
        2
 70
     0
 43
0.25
 10
2377.8858284978
 20
65.0330334179
 10
2377.8858281432
 20
57.9328305096
  0
LWPOLYLINE
  5
272
330
22B
100
AcDbEntity
  8
0
  6
Continuous
 62
     7
100
AcDbPolyline
 90
        2
 70
     0
 43
0.25
 10
2377.8858565796
 20
57.9328020732
 10
2367.8912993085
 20
59.4528954861
  0
LWPOLYLINE
  5
273
330
22B
100
AcDbEntity
  8
0
  6
Continuous
 62
     7
100
AcDbPolyline
 90
        2
 70
     0
 43
0.25
 10
2367.8889893229
 20
59.4522179445
 10
2367.8863224188
 20
63.4578565559
  0
LWPOLYLINE
  5
274
330
22B
100
AcDbEntity
  8
0
  6
Continuous
 62
     7
100
AcDbPolyline
 90
        2
 70
     0
 43
0.25
 10
2367.8863141427
 20
63.4578482799
 10
2377.88605738
 20
65.0330055
  0
ENDBLK
  5
275
330
22B
100
AcDbEntity
  8
0
  6
ByBlock
 62
     0
100
AcDbBlockEnd
  0
ENDSEC
  0
SECTION
  2
ENTITIES
  0
LINE
  5
2A0
330
1B
100
AcDbEntity
 67
     1
  8
0
  6
Continuous
 62
     7
100
AcDbLine
 10
0.0
 20
0.0
 30
0.0
 11
2500.0
 21
0.0
 31
0.0
  0
LINE
  5
2A1
330
1B
100
AcDbEntity
 67
     1
  8
0
  6
Continuous
 62
     7
100
AcDbLine
 10
2500.0
 20
0.0
 30
0.0
 11
2500.0
 21
500.0
 31
0.0
  0
LINE
  5
2A2
330
1B
100
AcDbEntity
 67
     1
  8
0
  6
Continuous
 62
     7
100
AcDbLine
 10
0.0
 20
500.0
 30
0.0
 11
2500.0
 21
500.0
 31
0.0
  0
LINE
  5
2A3
330
1B
100
AcDbEntity
 67
     1
  8
0
  6
Continuous
 62
     7
100
AcDbLine
 10
0.0
 20
0.0
 30
0.0
 11
0.0
 21
500.0
 31
0.0
  0
VIEWPORT
  5
2A4
330
1B
100
AcDbEntity
 67
     1
  8
0
100
AcDbViewport
 10
0.0
 20
0.0
 30
0.0
 40
2644.983043962977
 41
1870.380866802391
 68
     1
 69
     1
 12
1250.25459010855
 22
793.3714312540677
 13
0.0
 23
0.0
 14
1.0
 24
1.0
 15
0.0
 25
0.0
 16
0.0
 26
0.0
 36
1.0
 17
0.0
 27
0.0
 37
0.0
 42
50.0
 43
0.0
 44
0.0
 45
1870.380866802391
 50
0.0
 51
0.0
 72
   100
 90
   557216
  1

281
     0
 71
     1
 74
     0
110
0.0
120
0.0
130
0.0
111
1.0
121
0.0
131
0.0
112
0.0
122
1.0
132
0.0
 79
     0
146
0.0
170
     0
 61
     5
348
5B9
292
     1
282
     1
141
0.0
142
0.0
 63
   256
  0
LINE
  5
2A5
330
1B
100
AcDbEntity
 67
     1
  8
3_ALL_AXES
  6
Continuous
 62
     7
100
AcDbLine
 10
2286.8778721513
 20
256.4955357925
 30
0.0
 11
2286.8778721513
 21
253.7455838587
 31
0.0
  0
LINE
  5
2A6
330
1B
100
AcDbEntity
 67
     1
  8
3_ALL_AXES
  6
Continuous
 62
     7
100
AcDbLine
 10
2286.8778721513
 20
256.4955357925
 30
0.0
 11
2286.8778721513
 21
259.2454877264
 31
0.0
  0
LINE
  5
2A7
330
1B
100
AcDbEntity
 67
     1
  8
3_ALL_AXES
  6
Continuous
 62
     7
100
AcDbLine
 10
2286.7271518217
 20
253.7455357925
 30
0.0
 11
2286.8778721513
 21
253.7455357925
 31
0.0
  0
LINE
  5
2A8
330
1B
100
AcDbEntity
 67
     1
  8
3_ALL_AXES
  6
Continuous
 62
     7
100
AcDbLine
 10
2286.3778721513
 20
254.0386162351
 30
0.0
 11
2286.7271518217
 21
253.7455357925
 31
0.0
  0
LINE
  5
2A9
330
1B
100
AcDbEntity
 67
     1
  8
3_ALL_AXES
  6
Continuous
 62
     7
100
AcDbLine
 10
2286.7271518217
 20
259.2455357925
 30
0.0
 11
2286.8778721513
 21
259.2455357925
 31
0.0
  0
LINE
  5
2AA
330
1B
100
AcDbEntity
 67
     1
  8
3_ALL_AXES
  6
Continuous
 62
     7
100
AcDbLine
 10
2286.3778721513
 20
258.9524553499
 30
0.0
 11
2286.7271518217
 21
259.2455357925
 31
0.0
  0
LINE
  5
2AB
330
1B
100
AcDbEntity
 67
     1
  8
3_ALL_AXES
  6
Continuous
 62
     7
100
AcDbLine
 10
2286.7271518217
 20
256.4955357925
 30
0.0
 11
2286.7271518217
 21
253.7455357925
 31
0.0
  0
LINE
  5
2AC
330
1B
100
AcDbEntity
 67
     1
  8
3_ALL_AXES
  6
Continuous
 62
     7
100
AcDbLine
 10
2286.7271518217
 20
256.4955357925
 30
0.0
 11
2286.7271518217
 21
259.2455357925
 31
0.0
  0
LINE
  5
2AD
330
1B
100
AcDbEntity
 67
     1
  8
3_ALL_AXES
  6
Continuous
 62
     7
100
AcDbLine
 10
2286.8778721513
 20
305.2455357925
 30
0.0
 11
2286.8778721513
 21
302.4955838587
 31
0.0
  0
LINE
  5
2AE
330
1B
100
AcDbEntity
 67
     1
  8
3_ALL_AXES
  6
Continuous
 62
     7
100
AcDbLine
 10
2286.8778721513
 20
305.2455357925
 30
0.0
 11
2286.8778721513
 21
307.9954877264
 31
0.0
  0
LINE
  5
2AF
330
1B
100
AcDbEntity
 67
     1
  8
3_ALL_AXES
  6
Continuous
 62
     7
100
AcDbLine
 10
2286.7271518217
 20
302.4955357925
 30
0.0
 11
2286.8778721513
 21
302.4955357925
 31
0.0
  0
LINE
  5
2B0
330
1B
100
AcDbEntity
 67
     1
  8
3_ALL_AXES
  6
Continuous
 62
     7
100
AcDbLine
 10
2286.3778721513
 20
302.7886162351
 30
0.0
 11
2286.7271518217
 21
302.4955357925
 31
0.0
  0
LINE
  5
2B1
330
1B
100
AcDbEntity
 67
     1
  8
3_ALL_AXES
  6
Continuous
 62
     7
100
AcDbLine
 10
2286.7271518217
 20
307.9955357925
 30
0.0
 11
2286.8778721513
 21
307.9955357925
 31
0.0
  0
LINE
  5
2B2
330
1B
100
AcDbEntity
 67
     1
  8
3_ALL_AXES
  6
Continuous
 62
     7
100
AcDbLine
 10
2286.3778721513
 20
307.7024553499
 30
0.0
 11
2286.7271518217
 21
307.9955357925
 31
0.0
  0
LINE
  5
2B3
330
1B
100
AcDbEntity
 67
     1
  8
3_ALL_AXES
  6
Continuous
 62
     7
100
AcDbLine
 10
2286.7271518217
 20
305.2455357925
 30
0.0
 11
2286.7271518217
 21
302.4955357925
 31
0.0
  0
LINE
  5
2B4
330
1B
100
AcDbEntity
 67
     1
  8
3_ALL_AXES
  6
Continuous
 62
     7
100
AcDbLine
 10
2286.7271518217
 20
305.2455357925
 30
0.0
 11
2286.7271518217
 21
307.9955357925
 31
0.0
  0
LINE
  5
2B5
330
1B
100
AcDbEntity
 67
     1
  8
3_ALL_AXES
  6
Continuous
 62
     7
100
AcDbLine
 10
271.5285924809
 20
302.4955357925
 30
0.0
 11
271.3778721513
 21
302.4955357925
 31
0.0
  0
LINE
  5
2B6
330
1B
100
AcDbEntity
 67
     1
  8
3_ALL_AXES
  6
Continuous
 62
     7
100
AcDbLine
 10
271.3778721513
 20
302.4955838587
 30
0.0
 11
271.3778721513
 21
305.2455357925
 31
0.0
  0
LINE
  5
2B7
330
1B
100
AcDbEntity
 67
     1
  8
3_ALL_AXES
  6
Continuous
 62
     7
100
AcDbLine
 10
271.8778721513
 20
302.7886162351
 30
0.0
 11
271.5285924809
 21
302.4955357925
 31
0.0
  0
LINE
  5
2B8
330
1B
100
AcDbEntity
 67
     1
  8
3_ALL_AXES
  6
Continuous
 62
     7
100
AcDbLine
 10
271.5285924809
 20
307.9955357925
 30
0.0
 11
271.3778721513
 21
307.9955357925
 31
0.0
  0
LINE
  5
2B9
330
1B
100
AcDbEntity
 67
     1
  8
3_ALL_AXES
  6
Continuous
 62
     7
100
AcDbLine
 10
271.3778721513
 20
307.9954877264
 30
0.0
 11
271.3778721513
 21
305.2455357925
 31
0.0
  0
LINE
  5
2BA
330
1B
100
AcDbEntity
 67
     1
  8
3_ALL_AXES
  6
Continuous
 62
     7
100
AcDbLine
 10
271.8778721513
 20
307.7024553499
 30
0.0
 11
271.5285924809
 21
307.9955357925
 31
0.0
  0
LINE
  5
2BB
330
1B
100
AcDbEntity
 67
     1
  8
3_ALL_AXES
  6
Continuous
 62
     7
100
AcDbLine
 10
271.5285924809
 20
307.9955357925
 30
0.0
 11
271.5285924809
 21
305.2455357925
 31
0.0
  0
LINE
  5
2BC
330
1B
100
AcDbEntity
 67
     1
  8
3_ALL_AXES
  6
Continuous
 62
     7
100
AcDbLine
 10
271.5285924809
 20
302.4955357925
 30
0.0
 11
271.5285924809
 21
305.2455357925
 31
0.0
  0
LINE
  5
2BD
330
1B
100
AcDbEntity
 67
     1
  8
3_ALL_AXES
  6
Continuous
 62
     7
100
AcDbLine
 10
271.5285924809
 20
253.7455357925
 30
0.0
 11
271.3778721513
 21
253.7455357925
 31
0.0
  0
LINE
  5
2BE
330
1B
100
AcDbEntity
 67
     1
  8
3_ALL_AXES
  6
Continuous
 62
     7
100
AcDbLine
 10
271.3778721513
 20
253.7455838587
 30
0.0
 11
271.3778721513
 21
256.4955357925
 31
0.0
  0
LINE
  5
2BF
330
1B
100
AcDbEntity
 67
     1
  8
3_ALL_AXES
  6
Continuous
 62
     7
100
AcDbLine
 10
271.8778721513
 20
254.0386162351
 30
0.0
 11
271.5285924809
 21
253.7455357925
 31
0.0
  0
LINE
  5
2C0
330
1B
100
AcDbEntity
 67
     1
  8
3_ALL_AXES
  6
Continuous
 62
     7
100
AcDbLine
 10
271.5285924809
 20
259.2455357925
 30
0.0
 11
271.3778721513
 21
259.2455357925
 31
0.0
  0
LINE
  5
2C1
330
1B
100
AcDbEntity
 67
     1
  8
3_ALL_AXES
  6
Continuous
 62
     7
100
AcDbLine
 10
271.3778721513
 20
259.2454877264
 30
0.0
 11
271.3778721513
 21
256.4955357925
 31
0.0
  0
LINE
  5
2C2
330
1B
100
AcDbEntity
 67
     1
  8
3_ALL_AXES
  6
Continuous
 62
     7
100
AcDbLine
 10
271.8778721513
 20
258.9524553499
 30
0.0
 11
271.5285924809
 21
259.2455357925
 31
0.0
  0
LINE
  5
2C3
330
1B
100
AcDbEntity
 67
     1
  8
3_ALL_AXES
  6
Continuous
 62
     7
100
AcDbLine
 10
271.5285924809
 20
259.2455357925
 30
0.0
 11
271.5285924809
 21
256.4955357925
 31
0.0
  0
LINE
  5
2C4
330
1B
100
AcDbEntity
 67
     1
  8
3_ALL_AXES
  6
Continuous
 62
     7
100
AcDbLine
 10
271.5285924809
 20
253.7455357925
 30
0.0
 11
271.5285924809
 21
256.4955357925
 31
0.0
  0
LINE
  5
2C5
330
1B
100
AcDbEntity
 67
     1
  8
7_ALL_FEATURES
  6
Continuous
 62
     7
100
AcDbLine
 10
271.8778721513
 20
336.9955357925
 30
0.0
 11
273.3778721513
 21
336.9955357925
 31
0.0
  0
LINE
  5
2C6
330
1B
100
AcDbEntity
 67
     1
  8
7_ALL_FEATURES
  6
Continuous
 62
     7
100
AcDbLine
 10
271.8778721513
 20
253.4955357925
 30
0.0
 11
271.8778721513
 21
254.4955357925
 31
0.0
  0
LINE
  5
2C7
330
1B
100
AcDbEntity
 67
     1
  8
7_ALL_FEATURES
  6
Continuous
 62
     7
100
AcDbLine
 10
271.8778721513
 20
264.9955357925
 30
0.0
 11
271.8778721513
 21
254.4955357925
 31
0.0
  0
LINE
  5
2C8
330
1B
100
AcDbEntity
 67
     1
  8
7_ALL_FEATURES
  6
Continuous
 62
     7
100
AcDbLine
 10
271.8778721513
 20
264.9955357925
 30
0.0
 11
271.8778721513
 21
265.7955357925
 31
0.0
  0
LINE
  5
2C9
330
1B
100
AcDbEntity
 67
     1
  8
7_ALL_FEATURES
  6
Continuous
 62
     7
100
AcDbLine
 10
271.8778721513
 20
265.7955357925
 30
0.0
 11
271.8778721513
 21
268.1955357925
 31
0.0
  0
LINE
  5
2CA
330
1B
100
AcDbEntity
 67
     1
  8
7_ALL_FEATURES
  6
Continuous
 62
     7
100
AcDbLine
 10
271.8778721513
 20
268.1955357925
 30
0.0
 11
271.8778721513
 21
268.9955357925
 31
0.0
  0
LINE
  5
2CB
330
1B
100
AcDbEntity
 67
     1
  8
7_ALL_FEATURES
  6
Continuous
 62
     7
100
AcDbLine
 10
271.8778721513
 20
253.4955357925
 30
0.0
 11
273.3778721513
 21
253.4955357925
 31
0.0
  0
LINE
  5
2CC
330
1B
100
AcDbEntity
 67
     1
  8
7_ALL_FEATURES
  6
Continuous
 62
     7
100
AcDbLine
 10
271.8778721513
 20
335.9955357925
 30
0.0
 11
271.8778721513
 21
268.9955357925
 31
0.0
  0
LINE
  5
2CD
330
1B
100
AcDbEntity
 67
     1
  8
7_ALL_FEATURES
  6
Continuous
 62
     7
100
AcDbLine
 10
271.8778721513
 20
336.9955357925
 30
0.0
 11
273.3778721513
 21
336.9955357925
 31
0.0
  0
LINE
  5
2CE
330
1B
100
AcDbEntity
 67
     1
  8
7_ALL_FEATURES
  6
Continuous
 62
     7
100
AcDbLine
 10
271.8778721513
 20
335.9955357925
 30
0.0
 11
271.8778721513
 21
336.9955357925
 31
0.0
  0
LINE
  5
2CF
330
1B
100
AcDbEntity
 67
     1
  8
7_ALL_FEATURES
  6
Continuous
 62
     9
100
AcDbLine
 10
271.8778721513
 20
268.9955357925
 30
0.0
 11
273.3778721513
 21
268.9955357925
 31
0.0
  0
LINE
  5
2D0
330
1B
100
AcDbEntity
 67
     1
  8
7_ALL_FEATURES
  6
Continuous
 62
     9
100
AcDbLine
 10
271.8778721513
 20
265.7955357925
 30
0.0
 11
273.3778721513
 21
265.7955357925
 31
0.0
  0
LINE
  5
2D1
330
1B
100
AcDbEntity
 67
     1
  8
7_ALL_FEATURES
  6
Continuous
 62
     9
100
AcDbLine
 10
271.8778721513
 20
268.1955357925
 30
0.0
 11
273.3778721513
 21
268.1955357925
 31
0.0
  0
LINE
  5
2D2
330
1B
100
AcDbEntity
 67
     1
  8
7_ALL_FEATURES
  6
Continuous
 62
     9
100
AcDbLine
 10
271.8778721513
 20
254.4955357925
 30
0.0
 11
273.3778721513
 21
254.4955357925
 31
0.0
  0
LINE
  5
2D3
330
1B
100
AcDbEntity
 67
     1
  8
7_ALL_FEATURES
  6
Continuous
 62
     9
100
AcDbLine
 10
271.8778721513
 20
264.9955357925
 30
0.0
 11
273.3778721513
 21
264.9955357925
 31
0.0
  0
LINE
  5
2D4
330
1B
100
AcDbEntity
 67
     1
  8
7_ALL_FEATURES
  6
Continuous
 62
     9
100
AcDbLine
 10
271.8778721513
 20
335.9955357925
 30
0.0
 11
273.3778721513
 21
335.9955357925
 31
0.0
  0
LINE
  5
2D5
330
1B
100
AcDbEntity
 67
     1
  8
7_ALL_FEATURES
  6
Continuous
 62
     7
100
AcDbLine
 10
2286.3778721513
 20
253.4955357925
 30
0.0
 11
2284.8778721513
 21
253.4955357925
 31
0.0
  0
LINE
  5
2D6
330
1B
100
AcDbEntity
 67
     1
  8
7_ALL_FEATURES
  6
Continuous
 62
     7
100
AcDbLine
 10
2286.3778721513
 20
328.1955357925
 30
0.0
 11
2286.3778721513
 21
325.7955357925
 31
0.0
  0
LINE
  5
2D7
330
1B
100
AcDbEntity
 67
     1
  8
7_ALL_FEATURES
  6
Continuous
 62
     7
100
AcDbLine
 10
2286.3778721513
 20
325.7955357925
 30
0.0
 11
2286.3778721513
 21
324.9955357925
 31
0.0
  0
LINE
  5
2D8
330
1B
100
AcDbEntity
 67
     1
  8
7_ALL_FEATURES
  6
Continuous
 62
     7
100
AcDbLine
 10
2286.3778721513
 20
254.4955357925
 30
0.0
 11
2286.3778721513
 21
324.9955357925
 31
0.0
  0
LINE
  5
2D9
330
1B
100
AcDbEntity
 67
     1
  8
7_ALL_FEATURES
  6
Continuous
 62
     7
100
AcDbLine
 10
2286.3778721513
 20
254.4955357925
 30
0.0
 11
2286.3778721513
 21
253.4955357925
 31
0.0
  0
LINE
  5
2DA
330
1B
100
AcDbEntity
 67
     1
  8
7_ALL_FEATURES
  6
Continuous
 62
     7
100
AcDbLine
 10
2286.3778721513
 20
336.9955357925
 30
0.0
 11
2286.3778721513
 21
335.9955357925
 31
0.0
  0
LINE
  5
2DB
330
1B
100
AcDbEntity
 67
     1
  8
7_ALL_FEATURES
  6
Continuous
 62
     7
100
AcDbLine
 10
2286.3778721513
 20
253.4955357925
 30
0.0
 11
2284.8778721513
 21
253.4955357925
 31
0.0
  0
LINE
  5
2DC
330
1B
100
AcDbEntity
 67
     1
  8
7_ALL_FEATURES
  6
Continuous
 62
     7
100
AcDbLine
 10
2286.3778721513
 20
336.9955357925
 30
0.0
 11
2284.8778721513
 21
336.9955357925
 31
0.0
  0
LINE
  5
2DD
330
1B
100
AcDbEntity
 67
     1
  8
7_ALL_FEATURES
  6
Continuous
 62
     7
100
AcDbLine
 10
2286.3778721513
 20
328.9955357925
 30
0.0
 11
2286.3778721513
 21
335.9955357925
 31
0.0
  0
LINE
  5
2DE
330
1B
100
AcDbEntity
 67
     1
  8
7_ALL_FEATURES
  6
Continuous
 62
     7
100
AcDbLine
 10
2286.3778721513
 20
328.9955357925
 30
0.0
 11
2286.3778721513
 21
328.1955357925
 31
0.0
  0
LINE
  5
2DF
330
1B
100
AcDbEntity
 67
     1
  8
7_ALL_FEATURES
  6
Continuous
 62
     9
100
AcDbLine
 10
2286.3778721513
 20
328.9955357925
 30
0.0
 11
2284.8778721513
 21
328.9955357925
 31
0.0
  0
LINE
  5
2E0
330
1B
100
AcDbEntity
 67
     1
  8
7_ALL_FEATURES
  6
Continuous
 62
     9
100
AcDbLine
 10
2286.3778721513
 20
325.7955357925
 30
0.0
 11
2284.8778721513
 21
325.7955357925
 31
0.0
  0
LINE
  5
2E1
330
1B
100
AcDbEntity
 67
     1
  8
7_ALL_FEATURES
  6
Continuous
 62
     9
100
AcDbLine
 10
2286.3778721513
 20
328.1955357925
 30
0.0
 11
2284.8778721513
 21
328.1955357925
 31
0.0
  0
LINE
  5
2E2
330
1B
100
AcDbEntity
 67
     1
  8
7_ALL_FEATURES
  6
Continuous
 62
     9
100
AcDbLine
 10
2286.3778721513
 20
254.4955357925
 30
0.0
 11
2284.8778721513
 21
254.4955357925
 31
0.0
  0
LINE
  5
2E3
330
1B
100
AcDbEntity
 67
     1
  8
7_ALL_FEATURES
  6
Continuous
 62
     9
100
AcDbLine
 10
2286.3778721513
 20
324.9955357925
 30
0.0
 11
2284.8778721513
 21
324.9955357925
 31
0.0
  0
LINE
  5
2E4
330
1B
100
AcDbEntity
 67
     1
  8
7_ALL_FEATURES
  6
Continuous
 62
     9
100
AcDbLine
 10
2286.3778721513
 20
335.9955357925
 30
0.0
 11
2284.8778721513
 21
335.9955357925
 31
0.0
  0
LINE
  5
2E5
330
1B
100
AcDbEntity
 67
     1
  8
7_ALL_FEATURES
  6
Continuous
 62
     7
100
AcDbLine
 10
422.3778721513
 20
323.4955357925
 30
0.0
 11
434.3778721513
 21
323.4955357925
 31
0.0
  0
LINE
  5
2E6
330
1B
100
AcDbEntity
 67
     1
  8
7_ALL_FEATURES
  6
Continuous
 62
     7
100
AcDbLine
 10
321.3778721513
 20
323.4955357925
 30
0.0
 11
422.3778721513
 21
323.4955357925
 31
0.0
  0
LINE
  5
2E7
330
1B
100
AcDbEntity
 67
     1
  8
7_ALL_FEATURES
  6
Continuous
 62
     7
100
AcDbLine
 10
309.3778721513
 20
323.4955357925
 30
0.0
 11
321.3778721513
 21
323.4955357925
 31
0.0
  0
LINE
  5
2E8
330
1B
100
AcDbEntity
 67
     1
  8
7_ALL_FEATURES
  6
Continuous
 62
     7
100
AcDbLine
 10
309.3778721513
 20
322.8955357925
 30
0.0
 11
309.3778721513
 21
323.4955357925
 31
0.0
  0
LINE
  5
2E9
330
1B
100
AcDbEntity
 67
     1
  8
7_ALL_FEATURES
  6
Continuous
 62
     7
100
AcDbLine
 10
434.3778721513
 20
322.8955357925
 30
0.0
 11
434.3778721513
 21
323.4955357925
 31
0.0
  0
LINE
  5
2EA
330
1B
100
AcDbEntity
 67
     1
  8
7_ALL_FEATURES
  6
Continuous
 62
     7
100
AcDbLine
 10
422.3778721513
 20
322.8955357925
 30
0.0
 11
422.3778721513
 21
323.4955357925
 31
0.0
  0
LINE
  5
2EB
330
1B
100
AcDbEntity
 67
     1
  8
7_ALL_FEATURES
  6
Continuous
 62
     7
100
AcDbLine
 10
321.3778721513
 20
322.8955357925
 30
0.0
 11
321.3778721513
 21
323.4955357925
 31
0.0
  0
LINE
  5
2EC
330
1B
100
AcDbEntity
 67
     1
  8
7_ALL_FEATURES
  6
Continuous
 62
     7
100
AcDbLine
 10
1322.3778721513
 20
323.4955357925
 30
0.0
 11
1334.3778721513
 21
323.4955357925
 31
0.0
  0
LINE
  5
2ED
330
1B
100
AcDbEntity
 67
     1
  8
7_ALL_FEATURES
  6
Continuous
 62
     7
100
AcDbLine
 10
1221.3778721513
 20
323.4955357925
 30
0.0
 11
1322.3778721513
 21
323.4955357925
 31
0.0
  0
LINE
  5
2EE
330
1B
100
AcDbEntity
 67
     1
  8
7_ALL_FEATURES
  6
Continuous
 62
     7
100
AcDbLine
 10
1209.3778721513
 20
323.4955357925
 30
0.0
 11
1221.3778721513
 21
323.4955357925
 31
0.0
  0
LINE
  5
2EF
330
1B
100
AcDbEntity
 67
     1
  8
7_ALL_FEATURES
  6
Continuous
 62
     7
100
AcDbLine
 10
1209.3778721513
 20
322.8955357925
 30
0.0
 11
1209.3778721513
 21
323.4955357925
 31
0.0
  0
LINE
  5
2F0
330
1B
100
AcDbEntity
 67
     1
  8
7_ALL_FEATURES
  6
Continuous
 62
     7
100
AcDbLine
 10
1334.3778721513
 20
322.8955357925
 30
0.0
 11
1334.3778721513
 21
323.4955357925
 31
0.0
  0
LINE
  5
2F1
330
1B
100
AcDbEntity
 67
     1
  8
7_ALL_FEATURES
  6
Continuous
 62
     7
100
AcDbLine
 10
1322.3778721513
 20
322.8955357925
 30
0.0
 11
1322.3778721513
 21
323.4955357925
 31
0.0
  0
LINE
  5
2F2
330
1B
100
AcDbEntity
 67
     1
  8
7_ALL_FEATURES
  6
Continuous
 62
     7
100
AcDbLine
 10
1221.3778721513
 20
322.8955357925
 30
0.0
 11
1221.3778721513
 21
323.4955357925
 31
0.0
  0
LINE
  5
2F3
330
1B
100
AcDbEntity
 67
     1
  8
7_ALL_FEATURES
  6
Continuous
 62
     7
100
AcDbLine
 10
2222.3778721513
 20
323.4955357925
 30
0.0
 11
2234.3778721513
 21
323.4955357925
 31
0.0
  0
LINE
  5
2F4
330
1B
100
AcDbEntity
 67
     1
  8
7_ALL_FEATURES
  6
Continuous
 62
     7
100
AcDbLine
 10
2121.3778721513
 20
323.4955357925
 30
0.0
 11
2222.3778721513
 21
323.4955357925
 31
0.0
  0
LINE
  5
2F5
330
1B
100
AcDbEntity
 67
     1
  8
7_ALL_FEATURES
  6
Continuous
 62
     7
100
AcDbLine
 10
2109.3778721513
 20
323.4955357925
 30
0.0
 11
2121.3778721513
 21
323.4955357925
 31
0.0
  0
LINE
  5
2F6
330
1B
100
AcDbEntity
 67
     1
  8
7_ALL_FEATURES
  6
Continuous
 62
     7
100
AcDbLine
 10
2109.3778721513
 20
322.8955357925
 30
0.0
 11
2109.3778721513
 21
323.4955357925
 31
0.0
  0
LINE
  5
2F7
330
1B
100
AcDbEntity
 67
     1
  8
7_ALL_FEATURES
  6
Continuous
 62
     7
100
AcDbLine
 10
2234.3778721513
 20
322.8955357925
 30
0.0
 11
2234.3778721513
 21
323.4955357925
 31
0.0
  0
LINE
  5
2F8
330
1B
100
AcDbEntity
 67
     1
  8
7_ALL_FEATURES
  6
Continuous
 62
     7
100
AcDbLine
 10
2222.3778721513
 20
322.8955357925
 30
0.0
 11
2222.3778721513
 21
323.4955357925
 31
0.0
  0
LINE
  5
2F9
330
1B
100
AcDbEntity
 67
     1
  8
7_ALL_FEATURES
  6
Continuous
 62
     7
100
AcDbLine
 10
2121.3778721513
 20
322.8955357925
 30
0.0
 11
2121.3778721513
 21
323.4955357925
 31
0.0
  0
LINE
  5
2FA
330
1B
100
AcDbEntity
 67
     1
  8
7_ALL_FEATURES
  6
Continuous
 62
     7
100
AcDbLine
 10
2210.3025074381
 20
282.9955357925
 30
0.0
 11
2210.5377805343
 21
282.9955357925
 31
0.0
  0
LINE
  5
2FB
330
1B
100
AcDbEntity
 67
     1
  8
7_ALL_FEATURES
  6
Continuous
 62
     7
100
AcDbLine
 10
2234.3778721513
 20
282.9955357925
 30
0.0
 11
2284.8778721513
 21
282.9955357925
 31
0.0
  0
LINE
  5
2FC
330
1B
100
AcDbEntity
 67
     1
  8
7_ALL_FEATURES
  6
Continuous
 62
     7
100
AcDbLine
 10
2139.4877559502
 20
278.4955357925
 30
0.0
 11
2138.7657277091
 21
278.4955357925
 31
0.0
  0
LINE
  5
2FD
330
1B
100
AcDbEntity
 67
     1
  8
7_ALL_FEATURES
  6
Continuous
 62
     7
100
AcDbLine
 10
2109.3778721513
 20
278.4955357925
 30
0.0
 11
1334.3778721513
 21
278.4955357925
 31
0.0
  0
LINE
  5
2FE
330
1B
100
AcDbEntity
 67
     1
  8
7_ALL_FEATURES
  6
Continuous
 62
     7
100
AcDbLine
 10
1304.9900165935
 20
278.4955357925
 30
0.0
 11
1304.2679883524
 21
278.4955357925
 31
0.0
  0
LINE
  5
2FF
330
1B
100
AcDbEntity
 67
     1
  8
7_ALL_FEATURES
  6
Continuous
 62
     7
100
AcDbLine
 10
1239.4877559502
 20
278.4955357925
 30
0.0
 11
1238.7657277091
 21
278.4955357925
 31
0.0
  0
LINE
  5
300
330
1B
100
AcDbEntity
 67
     1
  8
7_ALL_FEATURES
  6
Continuous
 62
     7
100
AcDbLine
 10
1209.3778721513
 20
278.4955357925
 30
0.0
 11
434.3778721513
 21
278.4955357925
 31
0.0
  0
LINE
  5
301
330
1B
100
AcDbEntity
 67
     1
  8
7_ALL_FEATURES
  6
Continuous
 62
     7
100
AcDbLine
 10
404.9900165935
 20
278.4955357925
 30
0.0
 11
404.2679883524
 21
278.4955357925
 31
0.0
  0
LINE
  5
302
330
1B
100
AcDbEntity
 67
     1
  8
7_ALL_FEATURES
  6
Continuous
 62
     7
100
AcDbLine
 10
339.4877559502
 20
278.4955357925
 30
0.0
 11
338.7657277091
 21
278.4955357925
 31
0.0
  0
LINE
  5
303
330
1B
100
AcDbEntity
 67
     1
  8
7_ALL_FEATURES
  6
Continuous
 62
     7
100
AcDbLine
 10
309.3778721513
 20
278.4955357925
 30
0.0
 11
273.3778721513
 21
278.4955357925
 31
0.0
  0
LINE
  5
304
330
1B
100
AcDbEntity
 67
     1
  8
7_ALL_FEATURES
  6
Continuous
 62
     7
100
AcDbLine
 10
273.3778721513
 20
336.9165749577
 30
0.0
 11
273.3778721513
 21
336.9955357925
 31
0.0
  0
LINE
  5
305
330
1B
100
AcDbEntity
 67
     1
  8
7_ALL_FEATURES
  6
Continuous
 62
     7
100
AcDbLine
 10
273.3778721513
 20
332.8178710305
 30
0.0
 11
273.3778721513
 21
331.7860906785
 31
0.0
  0
LINE
  5
306
330
1B
100
AcDbEntity
 67
     1
  8
7_ALL_FEATURES
  6
Continuous
 62
     7
100
AcDbLine
 10
273.3778721513
 20
330.8071442369
 30
0.0
 11
273.3778721513
 21
331.7860906785
 31
0.0
  0
LINE
  5
307
330
1B
100
AcDbEntity
 67
     1
  8
7_ALL_FEATURES
  6
Continuous
 62
     7
100
AcDbLine
 10
273.3778721513
 20
330.8071442369
 30
0.0
 11
273.3778721513
 21
301.1955357925
 31
0.0
  0
LINE
  5
308
330
1B
100
AcDbEntity
 67
     1
  8
7_ALL_FEATURES
  6
Continuous
 62
     7
100
AcDbLine
 10
273.3778721513
 20
296.2955357925
 30
0.0
 11
273.3778721513
 21
296.4955357925
 31
0.0
  0
LINE
  5
309
330
1B
100
AcDbEntity
 67
     1
  8
7_ALL_FEATURES
  6
Continuous
 62
     7
100
AcDbLine
 10
273.3778721513
 20
296.2955357925
 30
0.0
 11
273.3778721513
 21
283.2955357925
 31
0.0
  0
LINE
  5
30A
330
1B
100
AcDbEntity
 67
     1
  8
7_ALL_FEATURES
  6
Continuous
 62
     7
100
AcDbLine
 10
273.3778721513
 20
282.9955357925
 30
0.0
 11
273.3778721513
 21
283.0128279846
 31
0.0
  0
LINE
  5
30B
330
1B
100
AcDbEntity
 67
     1
  8
7_ALL_FEATURES
  6
Continuous
 62
     7
100
AcDbLine
 10
273.3778721513
 20
283.0128279846
 30
0.0
 11
273.3778721513
 21
283.2955357925
 31
0.0
  0
LINE
  5
30C
330
1B
100
AcDbEntity
 67
     1
  8
7_ALL_FEATURES
  6
Continuous
 62
     7
100
AcDbLine
 10
273.3778721513
 20
278.1955357925
 30
0.0
 11
273.3778721513
 21
278.4782436005
 31
0.0
  0
LINE
  5
30D
330
1B
100
AcDbEntity
 67
     1
  8
7_ALL_FEATURES
  6
Continuous
 62
     7
100
AcDbLine
 10
273.3778721513
 20
278.4782436005
 30
0.0
 11
273.3778721513
 21
278.4955357925
 31
0.0
  0
LINE
  5
30E
330
1B
100
AcDbEntity
 67
     1
  8
7_ALL_FEATURES
  6
Continuous
 62
     7
100
AcDbLine
 10
273.3778721513
 20
278.1955357925
 30
0.0
 11
273.3778721513
 21
254.4955357925
 31
0.0
  0
LINE
  5
30F
330
1B
100
AcDbEntity
 67
     1
  8
7_ALL_FEATURES
  6
Continuous
 62
     7
100
AcDbLine
 10
273.3778721513
 20
300.9955357925
 30
0.0
 11
273.3778721513
 21
301.1955357925
 31
0.0
  0
LINE
  5
310
330
1B
100
AcDbEntity
 67
     1
  8
7_ALL_FEATURES
  6
Continuous
 62
     7
100
AcDbLine
 10
2284.8778721513
 20
300.9955357925
 30
0.0
 11
2234.3778721513
 21
300.9955357925
 31
0.0
  0
LINE
  5
311
330
1B
100
AcDbEntity
 67
     1
  8
7_ALL_FEATURES
  6
Continuous
 62
     7
100
AcDbLine
 10
2211.8778721513
 20
300.9955357925
 30
0.0
 11
2211.6778721513
 21
300.9955357925
 31
0.0
  0
LINE
  5
312
330
1B
100
AcDbEntity
 67
     1
  8
7_ALL_FEATURES
  6
Continuous
 62
     7
100
AcDbLine
 10
2132.0778721513
 20
300.9955357925
 30
0.0
 11
2131.8778721513
 21
300.9955357925
 31
0.0
  0
LINE
  5
313
330
1B
100
AcDbEntity
 67
     1
  8
7_ALL_FEATURES
  6
Continuous
 62
     7
100
AcDbLine
 10
2109.3778721513
 20
300.9955357925
 30
0.0
 11
1334.3778721513
 21
300.9955357925
 31
0.0
  0
LINE
  5
314
330
1B
100
AcDbEntity
 67
     1
  8
7_ALL_FEATURES
  6
Continuous
 62
     7
100
AcDbLine
 10
1311.8778721513
 20
300.9955357925
 30
0.0
 11
1311.6778721513
 21
300.9955357925
 31
0.0
  0
LINE
  5
315
330
1B
100
AcDbEntity
 67
     1
  8
7_ALL_FEATURES
  6
Continuous
 62
     7
100
AcDbLine
 10
1232.0778721513
 20
300.9955357925
 30
0.0
 11
1231.8778721513
 21
300.9955357925
 31
0.0
  0
LINE
  5
316
330
1B
100
AcDbEntity
 67
     1
  8
7_ALL_FEATURES
  6
Continuous
 62
     7
100
AcDbLine
 10
1209.3778721513
 20
300.9955357925
 30
0.0
 11
434.3778721513
 21
300.9955357925
 31
0.0
  0
LINE
  5
317
330
1B
100
AcDbEntity
 67
     1
  8
7_ALL_FEATURES
  6
Continuous
 62
     7
100
AcDbLine
 10
411.8778721513
 20
300.9955357925
 30
0.0
 11
411.6778721513
 21
300.9955357925
 31
0.0
  0
LINE
  5
318
330
1B
100
AcDbEntity
 67
     1
  8
7_ALL_FEATURES
  6
Continuous
 62
     7
100
AcDbLine
 10
332.0778721513
 20
300.9955357925
 30
0.0
 11
331.8778721513
 21
300.9955357925
 31
0.0
  0
LINE
  5
319
330
1B
100
AcDbEntity
 67
     1
  8
7_ALL_FEATURES
  6
Continuous
 62
     7
100
AcDbLine
 10
309.3778721513
 20
300.9955357925
 30
0.0
 11
273.3778721513
 21
300.9955357925
 31
0.0
  0
LINE
  5
31A
330
1B
100
AcDbEntity
 67
     1
  8
7_ALL_FEATURES
  6
Continuous
 62
     7
100
AcDbLine
 10
273.3778721513
 20
253.4955357925
 30
0.0
 11
273.3778721513
 21
254.4955357925
 31
0.0
  0
LINE
  5
31B
330
1B
100
AcDbEntity
 67
     1
  8
7_ALL_FEATURES
  6
Continuous
 62
     7
100
AcDbLine
 10
2284.8778721513
 20
253.4955357925
 30
0.0
 11
2234.3778721513
 21
253.4955357925
 31
0.0
  0
LINE
  5
31C
330
1B
100
AcDbEntity
 67
     1
  8
7_ALL_FEATURES
  6
Continuous
 62
     7
100
AcDbLine
 10
2109.3778721513
 20
253.4955357925
 30
0.0
 11
1334.3778721513
 21
253.4955357925
 31
0.0
  0
LINE
  5
31D
330
1B
100
AcDbEntity
 67
     1
  8
7_ALL_FEATURES
  6
Continuous
 62
     7
100
AcDbLine
 10
1209.3778721513
 20
253.4955357925
 30
0.0
 11
434.3778721513
 21
253.4955357925
 31
0.0
  0
LINE
  5
31E
330
1B
100
AcDbEntity
 67
     1
  8
7_ALL_FEATURES
  6
Continuous
 62
     7
100
AcDbLine
 10
309.3778721513
 20
253.4955357925
 30
0.0
 11
273.3778721513
 21
253.4955357925
 31
0.0
  0
LINE
  5
31F
330
1B
100
AcDbEntity
 67
     1
  8
7_ALL_FEATURES
  6
Continuous
 62
     7
100
AcDbLine
 10
2284.8778721513
 20
336.9955357925
 30
0.0
 11
2284.8778721513
 21
336.9165749577
 31
0.0
  0
LINE
  5
320
330
1B
100
AcDbEntity
 67
     1
  8
7_ALL_FEATURES
  6
Continuous
 62
     7
100
AcDbLine
 10
2284.8778721513
 20
336.9955357925
 30
0.0
 11
273.3778721513
 21
336.9955357925
 31
0.0
  0
LINE
  5
321
330
1B
100
AcDbEntity
 67
     1
  8
7_ALL_FEATURES
  6
Continuous
 62
     7
100
AcDbLine
 10
2284.8778721513
 20
254.4955357925
 30
0.0
 11
2284.8778721513
 21
253.4955357925
 31
0.0
  0
LINE
  5
322
330
1B
100
AcDbEntity
 67
     1
  8
7_ALL_FEATURES
  6
Continuous
 62
     7
100
AcDbLine
 10
2284.8778721513
 20
278.1955357925
 30
0.0
 11
2284.8778721513
 21
254.4955357925
 31
0.0
  0
LINE
  5
323
330
1B
100
AcDbEntity
 67
     1
  8
7_ALL_FEATURES
  6
Continuous
 62
     7
100
AcDbLine
 10
2284.8778721513
 20
278.4955357925
 30
0.0
 11
2284.8778721513
 21
278.4782436005
 31
0.0
  0
LINE
  5
324
330
1B
100
AcDbEntity
 67
     1
  8
7_ALL_FEATURES
  6
Continuous
 62
     7
100
AcDbLine
 10
2284.8778721513
 20
278.4782436005
 30
0.0
 11
2284.8778721513
 21
278.1955357925
 31
0.0
  0
LINE
  5
325
330
1B
100
AcDbEntity
 67
     1
  8
7_ALL_FEATURES
  6
Continuous
 62
     7
100
AcDbLine
 10
2284.8778721513
 20
283.2955357925
 30
0.0
 11
2284.8778721513
 21
283.0128279846
 31
0.0
  0
LINE
  5
326
330
1B
100
AcDbEntity
 67
     1
  8
7_ALL_FEATURES
  6
Continuous
 62
     7
100
AcDbLine
 10
2284.8778721513
 20
283.0128279846
 30
0.0
 11
2284.8778721513
 21
282.9955357925
 31
0.0
  0
LINE
  5
327
330
1B
100
AcDbEntity
 67
     1
  8
7_ALL_FEATURES
  6
Continuous
 62
     7
100
AcDbLine
 10
2284.8778721513
 20
296.2955357925
 30
0.0
 11
2284.8778721513
 21
283.2955357925
 31
0.0
  0
LINE
  5
328
330
1B
100
AcDbEntity
 67
     1
  8
7_ALL_FEATURES
  6
Continuous
 62
     7
100
AcDbLine
 10
2284.8778721513
 20
296.4955357925
 30
0.0
 11
2284.8778721513
 21
296.2955357925
 31
0.0
  0
LINE
  5
329
330
1B
100
AcDbEntity
 67
     1
  8
7_ALL_FEATURES
  6
Continuous
 62
     7
100
AcDbLine
 10
2284.8778721513
 20
301.1955357925
 30
0.0
 11
2284.8778721513
 21
300.9955357925
 31
0.0
  0
LINE
  5
32A
330
1B
100
AcDbEntity
 67
     1
  8
7_ALL_FEATURES
  6
Continuous
 62
     7
100
AcDbLine
 10
2284.8778721513
 20
330.8071442369
 30
0.0
 11
2284.8778721513
 21
301.1955357925
 31
0.0
  0
LINE
  5
32B
330
1B
100
AcDbEntity
 67
     1
  8
7_ALL_FEATURES
  6
Continuous
 62
     7
100
AcDbLine
 10
2284.8778721513
 20
331.7860906785
 30
0.0
 11
2284.8778721513
 21
330.8071442369
 31
0.0
  0
LINE
  5
32C
330
1B
100
AcDbEntity
 67
     1
  8
7_ALL_FEATURES
  6
Continuous
 62
     7
100
AcDbLine
 10
2284.8778721513
 20
332.8178710305
 30
0.0
 11
2284.8778721513
 21
331.7860906785
 31
0.0
  0
LINE
  5
32D
330
1B
100
AcDbEntity
 67
     1
  8
02___PRT_ALL_AXES
  6
Continuous
 62
     7
100
AcDbLine
 10
2139.4877559502
 20
278.4955357925
 30
0.0
 11
2138.7657277091
 21
278.4955357925
 31
0.0
  0
LINE
  5
32E
330
1B
100
AcDbEntity
 67
     1
  8
02___PRT_ALL_AXES
  6
Continuous
 62
     7
100
AcDbLine
 10
2109.3778721513
 20
278.4955357925
 30
0.0
 11
1334.3778721513
 21
278.4955357925
 31
0.0
  0
LINE
  5
32F
330
1B
100
AcDbEntity
 67
     1
  8
02___PRT_ALL_AXES
  6
Continuous
 62
     7
100
AcDbLine
 10
1304.9900165935
 20
278.4955357925
 30
0.0
 11
1304.2679883524
 21
278.4955357925
 31
0.0
  0
LINE
  5
330
330
1B
100
AcDbEntity
 67
     1
  8
02___PRT_ALL_AXES
  6
Continuous
 62
     7
100
AcDbLine
 10
1239.4877559502
 20
278.4955357925
 30
0.0
 11
1238.7657277091
 21
278.4955357925
 31
0.0
  0
LINE
  5
331
330
1B
100
AcDbEntity
 67
     1
  8
02___PRT_ALL_AXES
  6
Continuous
 62
     7
100
AcDbLine
 10
1209.3778721513
 20
278.4955357925
 30
0.0
 11
434.3778721513
 21
278.4955357925
 31
0.0
  0
LINE
  5
332
330
1B
100
AcDbEntity
 67
     1
  8
02___PRT_ALL_AXES
  6
Continuous
 62
     7
100
AcDbLine
 10
404.9900165935
 20
278.4955357925
 30
0.0
 11
404.2679883524
 21
278.4955357925
 31
0.0
  0
LINE
  5
333
330
1B
100
AcDbEntity
 67
     1
  8
02___PRT_ALL_AXES
  6
Continuous
 62
     7
100
AcDbLine
 10
339.4877559502
 20
278.4955357925
 30
0.0
 11
338.7657277091
 21
278.4955357925
 31
0.0
  0
LINE
  5
334
330
1B
100
AcDbEntity
 67
     1
  8
02___PRT_ALL_AXES
  6
Continuous
 62
     7
100
AcDbLine
 10
309.3778721513
 20
278.4955357925
 30
0.0
 11
273.3778721513
 21
278.4955357925
 31
0.0
  0
LINE
  5
335
330
1B
100
AcDbEntity
 67
     1
  8
02___PRT_ALL_AXES
  6
Continuous
 62
     7
100
AcDbLine
 10
2284.8778721513
 20
278.4955357925
 30
0.0
 11
2234.3778721513
 21
278.4955357925
 31
0.0
  0
LINE
  5
336
330
1B
100
AcDbEntity
 67
     1
  8
02___PRT_ALL_AXES
  6
Continuous
 62
     7
100
AcDbLine
 10
2204.9900165935
 20
278.4955357925
 30
0.0
 11
2204.2679883524
 21
278.4955357925
 31
0.0
  0
LINE
  5
337
330
1B
100
AcDbEntity
 67
     1
  8
02___PRT_ALL_AXES
  6
Continuous
 62
     7
100
AcDbLine
 10
273.3778721513
 20
282.9955357925
 30
0.0
 11
309.3778721513
 21
282.9955357925
 31
0.0
  0
LINE
  5
338
330
1B
100
AcDbEntity
 67
     1
  8
02___PRT_ALL_AXES
  6
Continuous
 62
     7
100
AcDbLine
 10
333.2179637683
 20
282.9955357925
 30
0.0
 11
333.4532368645
 21
282.9955357925
 31
0.0
  0
LINE
  5
339
330
1B
100
AcDbEntity
 67
     1
  8
02___PRT_ALL_AXES
  6
Continuous
 62
     7
100
AcDbLine
 10
410.3025074381
 20
282.9955357925
 30
0.0
 11
410.5377805343
 21
282.9955357925
 31
0.0
  0
LINE
  5
33A
330
1B
100
AcDbEntity
 67
     1
  8
02___PRT_ALL_AXES
  6
Continuous
 62
     7
100
AcDbLine
 10
434.3778721513
 20
282.9955357925
 30
0.0
 11
1209.3778721513
 21
282.9955357925
 31
0.0
  0
LINE
  5
33B
330
1B
100
AcDbEntity
 67
     1
  8
02___PRT_ALL_AXES
  6
Continuous
 62
     7
100
AcDbLine
 10
1233.2179637683
 20
282.9955357925
 30
0.0
 11
1233.4532368645
 21
282.9955357925
 31
0.0
  0
LINE
  5
33C
330
1B
100
AcDbEntity
 67
     1
  8
02___PRT_ALL_AXES
  6
Continuous
 62
     7
100
AcDbLine
 10
1310.3025074381
 20
282.9955357925
 30
0.0
 11
1310.5377805343
 21
282.9955357925
 31
0.0
  0
LINE
  5
33D
330
1B
100
AcDbEntity
 67
     1
  8
02___PRT_ALL_AXES
  6
Continuous
 62
     7
100
AcDbLine
 10
1334.3778721513
 20
282.9955357925
 30
0.0
 11
2109.3778721513
 21
282.9955357925
 31
0.0
  0
LINE
  5
33E
330
1B
100
AcDbEntity
 67
     1
  8
02___PRT_ALL_AXES
  6
Continuous
 62
     7
100
AcDbLine
 10
2133.2179637683
 20
282.9955357925
 30
0.0
 11
2133.4532368645
 21
282.9955357925
 31
0.0
  0
LINE
  5
33F
330
1B
100
AcDbEntity
 67
     1
  8
02___PRT_ALL_AXES
  6
Continuous
 62
     7
100
AcDbLine
 10
2210.3025074381
 20
282.9955357925
 30
0.0
 11
2210.5377805343
 21
282.9955357925
 31
0.0
  0
LINE
  5
340
330
1B
100
AcDbEntity
 67
     1
  8
02___PRT_ALL_AXES
  6
Continuous
 62
     7
100
AcDbLine
 10
2234.3778721513
 20
282.9955357925
 30
0.0
 11
2284.8778721513
 21
282.9955357925
 31
0.0
  0
LINE
  5
341
330
1B
100
AcDbEntity
 67
     1
  8
7_ALL_FEATURES
  6
Continuous
 62
     7
100
AcDbLine
 10
2284.8778721513
 20
253.4955357925
 30
0.0
 11
2234.3778721513
 21
253.4955357925
 31
0.0
  0
LINE
  5
342
330
1B
100
AcDbEntity
 67
     1
  8
7_ALL_FEATURES
  6
Continuous
 62
     7
100
AcDbLine
 10
2109.3778721513
 20
253.4955357925
 30
0.0
 11
1334.3778721513
 21
253.4955357925
 31
0.0
  0
LINE
  5
343
330
1B
100
AcDbEntity
 67
     1
  8
7_ALL_FEATURES
  6
Continuous
 62
     7
100
AcDbLine
 10
1209.3778721513
 20
253.4955357925
 30
0.0
 11
434.3778721513
 21
253.4955357925
 31
0.0
  0
LINE
  5
344
330
1B
100
AcDbEntity
 67
     1
  8
7_ALL_FEATURES
  6
Continuous
 62
     7
100
AcDbLine
 10
309.3778721513
 20
253.4955357925
 30
0.0
 11
273.3778721513
 21
253.4955357925
 31
0.0
  0
ARC
  5
345
330
1B
100
AcDbEntity
 67
     1
  8
02___PRT_ALL_AXES
  6
Continuous
 62
     7
100
AcDbCircle
 10
2184.8778721513
 20
270.9955357925
 30
0.0
 40
13.0
100
AcDbArc
 50
146.3687225521
 51
147.4167526718
  0
ARC
  5
346
330
1B
100
AcDbEntity
 67
     1
  8
02___PRT_ALL_AXES
  6
Continuous
 62
     7
100
AcDbCircle
 10
2184.8778721513
 20
270.9955357925
 30
0.0
 40
13.0
100
AcDbArc
 50
32.5832473282
 51
33.6312774479
  0
LINE
  5
347
330
1B
100
AcDbEntity
 67
     1
  8
7_ALL_FEATURES
  6
Continuous
 62
     7
100
AcDbLine
 10
2284.8778721513
 20
296.4955357925
 30
0.0
 11
2234.3778721513
 21
296.4955357925
 31
0.0
  0
LINE
  5
348
330
1B
100
AcDbEntity
 67
     1
  8
7_ALL_FEATURES
  6
Continuous
 62
     7
100
AcDbLine
 10
2211.8778721513
 20
296.4955357925
 30
0.0
 11
2211.6778721513
 21
296.4955357925
 31
0.0
  0
LINE
  5
349
330
1B
100
AcDbEntity
 67
     1
  8
7_ALL_FEATURES
  6
Continuous
 62
     7
100
AcDbLine
 10
2132.0778721513
 20
296.4955357925
 30
0.0
 11
2131.8778721513
 21
296.4955357925
 31
0.0
  0
LINE
  5
34A
330
1B
100
AcDbEntity
 67
     1
  8
7_ALL_FEATURES
  6
Continuous
 62
     7
100
AcDbLine
 10
2109.3778721513
 20
296.4955357925
 30
0.0
 11
1334.3778721513
 21
296.4955357925
 31
0.0
  0
LINE
  5
34B
330
1B
100
AcDbEntity
 67
     1
  8
7_ALL_FEATURES
  6
Continuous
 62
     7
100
AcDbLine
 10
1311.8778721513
 20
296.4955357925
 30
0.0
 11
1311.6778721513
 21
296.4955357925
 31
0.0
  0
LINE
  5
34C
330
1B
100
AcDbEntity
 67
     1
  8
7_ALL_FEATURES
  6
Continuous
 62
     7
100
AcDbLine
 10
1232.0778721513
 20
296.4955357925
 30
0.0
 11
1231.8778721513
 21
296.4955357925
 31
0.0
  0
LINE
  5
34D
330
1B
100
AcDbEntity
 67
     1
  8
7_ALL_FEATURES
  6
Continuous
 62
     7
100
AcDbLine
 10
1209.3778721513
 20
296.4955357925
 30
0.0
 11
434.3778721513
 21
296.4955357925
 31
0.0
  0
LINE
  5
34E
330
1B
100
AcDbEntity
 67
     1
  8
7_ALL_FEATURES
  6
Continuous
 62
     7
100
AcDbLine
 10
411.8778721513
 20
296.4955357925
 30
0.0
 11
411.6778721513
 21
296.4955357925
 31
0.0
  0
LINE
  5
34F
330
1B
100
AcDbEntity
 67
     1
  8
7_ALL_FEATURES
  6
Continuous
 62
     7
100
AcDbLine
 10
332.0778721513
 20
296.4955357925
 30
0.0
 11
331.8778721513
 21
296.4955357925
 31
0.0
  0
LINE
  5
350
330
1B
100
AcDbEntity
 67
     1
  8
7_ALL_FEATURES
  6
Continuous
 62
     7
100
AcDbLine
 10
309.3778721513
 20
296.4955357925
 30
0.0
 11
273.3778721513
 21
296.4955357925
 31
0.0
  0
LINE
  5
351
330
1B
100
AcDbEntity
 67
     1
  8
7_ALL_FEATURES
  6
Continuous
 62
     7
100
AcDbLine
 10
2284.8778721513
 20
300.9955357925
 30
0.0
 11
2234.3778721513
 21
300.9955357925
 31
0.0
  0
LINE
  5
352
330
1B
100
AcDbEntity
 67
     1
  8
7_ALL_FEATURES
  6
Continuous
 62
     7
100
AcDbLine
 10
2211.8778721513
 20
300.9955357925
 30
0.0
 11
2211.6778721513
 21
300.9955357925
 31
0.0
  0
LINE
  5
353
330
1B
100
AcDbEntity
 67
     1
  8
7_ALL_FEATURES
  6
Continuous
 62
     7
100
AcDbLine
 10
2132.0778721513
 20
300.9955357925
 30
0.0
 11
2131.8778721513
 21
300.9955357925
 31
0.0
  0
LINE
  5
354
330
1B
100
AcDbEntity
 67
     1
  8
7_ALL_FEATURES
  6
Continuous
 62
     7
100
AcDbLine
 10
2109.3778721513
 20
300.9955357925
 30
0.0
 11
1334.3778721513
 21
300.9955357925
 31
0.0
  0
LINE
  5
355
330
1B
100
AcDbEntity
 67
     1
  8
7_ALL_FEATURES
  6
Continuous
 62
     7
100
AcDbLine
 10
1311.8778721513
 20
300.9955357925
 30
0.0
 11
1311.6778721513
 21
300.9955357925
 31
0.0
  0
LINE
  5
356
330
1B
100
AcDbEntity
 67
     1
  8
7_ALL_FEATURES
  6
Continuous
 62
     7
100
AcDbLine
 10
1232.0778721513
 20
300.9955357925
 30
0.0
 11
1231.8778721513
 21
300.9955357925
 31
0.0
  0
LINE
  5
357
330
1B
100
AcDbEntity
 67
     1
  8
7_ALL_FEATURES
  6
Continuous
 62
     7
100
AcDbLine
 10
1209.3778721513
 20
300.9955357925
 30
0.0
 11
434.3778721513
 21
300.9955357925
 31
0.0
  0
LINE
  5
358
330
1B
100
AcDbEntity
 67
     1
  8
7_ALL_FEATURES
  6
Continuous
 62
     7
100
AcDbLine
 10
411.8778721513
 20
300.9955357925
 30
0.0
 11
411.6778721513
 21
300.9955357925
 31
0.0
  0
LINE
  5
359
330
1B
100
AcDbEntity
 67
     1
  8
7_ALL_FEATURES
  6
Continuous
 62
     7
100
AcDbLine
 10
332.0778721513
 20
300.9955357925
 30
0.0
 11
331.8778721513
 21
300.9955357925
 31
0.0
  0
LINE
  5
35A
330
1B
100
AcDbEntity
 67
     1
  8
7_ALL_FEATURES
  6
Continuous
 62
     7
100
AcDbLine
 10
309.3778721513
 20
300.9955357925
 30
0.0
 11
273.3778721513
 21
300.9955357925
 31
0.0
  0
LINE
  5
35B
330
1B
100
AcDbEntity
 67
     1
  8
7_ALL_FEATURES
  6
Continuous
 62
     7
100
AcDbLine
 10
2284.8778721513
 20
336.9955357925
 30
0.0
 11
273.3778721513
 21
336.9955357925
 31
0.0
  0
LINE
  5
35C
330
1B
100
AcDbEntity
 67
     1
  8
02___PRT_ALL_AXES
  6
Continuous
 62
     9
100
AcDbLine
 10
2210.4714845939
 20
283.2955357925
 30
0.0
 11
2210.6981338751
 21
283.2955357925
 31
0.0
  0
LINE
  5
35D
330
1B
100
AcDbEntity
 67
     1
  8
02___PRT_ALL_AXES
  6
Continuous
 62
     9
100
AcDbLine
 10
2234.3778721513
 20
283.2955357925
 30
0.0
 11
2284.8778721513
 21
283.2955357925
 31
0.0
  0
LINE
  5
35E
330
1B
100
AcDbEntity
 67
     1
  8
7_ALL_FEATURES
  6
Continuous
 62
     9
100
AcDbLine
 10
2284.8778721513
 20
296.2955357925
 30
0.0
 11
2234.3778721513
 21
296.2955357925
 31
0.0
  0
LINE
  5
35F
330
1B
100
AcDbEntity
 67
     1
  8
7_ALL_FEATURES
  6
Continuous
 62
     9
100
AcDbLine
 10
2211.8778721513
 20
296.2955357925
 30
0.0
 11
2211.6778721513
 21
296.2955357925
 31
0.0
  0
LINE
  5
360
330
1B
100
AcDbEntity
 67
     1
  8
7_ALL_FEATURES
  6
Continuous
 62
     9
100
AcDbLine
 10
2132.0778721513
 20
296.2955357925
 30
0.0
 11
2131.8778721513
 21
296.2955357925
 31
0.0
  0
LINE
  5
361
330
1B
100
AcDbEntity
 67
     1
  8
7_ALL_FEATURES
  6
Continuous
 62
     9
100
AcDbLine
 10
2109.3778721513
 20
296.2955357925
 30
0.0
 11
1334.3778721513
 21
296.2955357925
 31
0.0
  0
LINE
  5
362
330
1B
100
AcDbEntity
 67
     1
  8
7_ALL_FEATURES
  6
Continuous
 62
     9
100
AcDbLine
 10
1311.8778721513
 20
296.2955357925
 30
0.0
 11
1311.6778721513
 21
296.2955357925
 31
0.0
  0
LINE
  5
363
330
1B
100
AcDbEntity
 67
     1
  8
7_ALL_FEATURES
  6
Continuous
 62
     9
100
AcDbLine
 10
1232.0778721513
 20
296.2955357925
 30
0.0
 11
1231.8778721513
 21
296.2955357925
 31
0.0
  0
LINE
  5
364
330
1B
100
AcDbEntity
 67
     1
  8
7_ALL_FEATURES
  6
Continuous
 62
     9
100
AcDbLine
 10
1209.3778721513
 20
296.2955357925
 30
0.0
 11
434.3778721513
 21
296.2955357925
 31
0.0
  0
LINE
  5
365
330
1B
100
AcDbEntity
 67
     1
  8
7_ALL_FEATURES
  6
Continuous
 62
     9
100
AcDbLine
 10
411.8778721513
 20
296.2955357925
 30
0.0
 11
411.6778721513
 21
296.2955357925
 31
0.0
  0
LINE
  5
366
330
1B
100
AcDbEntity
 67
     1
  8
7_ALL_FEATURES
  6
Continuous
 62
     9
100
AcDbLine
 10
332.0778721513
 20
296.2955357925
 30
0.0
 11
331.8778721513
 21
296.2955357925
 31
0.0
  0
LINE
  5
367
330
1B
100
AcDbEntity
 67
     1
  8
7_ALL_FEATURES
  6
Continuous
 62
     9
100
AcDbLine
 10
309.3778721513
 20
296.2955357925
 30
0.0
 11
273.3778721513
 21
296.2955357925
 31
0.0
  0
LINE
  5
368
330
1B
100
AcDbEntity
 67
     1
  8
02___PRT_ALL_AXES
  6
Continuous
 62
     9
100
AcDbLine
 10
273.3778721513
 20
283.2955357925
 30
0.0
 11
309.3778721513
 21
283.2955357925
 31
0.0
  0
LINE
  5
369
330
1B
100
AcDbEntity
 67
     1
  8
02___PRT_ALL_AXES
  6
Continuous
 62
     9
100
AcDbLine
 10
333.0576104275
 20
283.2955357925
 30
0.0
 11
333.2842597087
 21
283.2955357925
 31
0.0
  0
LINE
  5
36A
330
1B
100
AcDbEntity
 67
     1
  8
02___PRT_ALL_AXES
  6
Continuous
 62
     9
100
AcDbLine
 10
410.4714845939
 20
283.2955357925
 30
0.0
 11
410.6981338751
 21
283.2955357925
 31
0.0
  0
LINE
  5
36B
330
1B
100
AcDbEntity
 67
     1
  8
02___PRT_ALL_AXES
  6
Continuous
 62
     9
100
AcDbLine
 10
434.3778721513
 20
283.2955357925
 30
0.0
 11
1209.3778721513
 21
283.2955357925
 31
0.0
  0
LINE
  5
36C
330
1B
100
AcDbEntity
 67
     1
  8
02___PRT_ALL_AXES
  6
Continuous
 62
     9
100
AcDbLine
 10
1233.0576104275
 20
283.2955357925
 30
0.0
 11
1233.2842597087
 21
283.2955357925
 31
0.0
  0
LINE
  5
36D
330
1B
100
AcDbEntity
 67
     1
  8
02___PRT_ALL_AXES
  6
Continuous
 62
     9
100
AcDbLine
 10
1310.4714845939
 20
283.2955357925
 30
0.0
 11
1310.6981338751
 21
283.2955357925
 31
0.0
  0
LINE
  5
36E
330
1B
100
AcDbEntity
 67
     1
  8
02___PRT_ALL_AXES
  6
Continuous
 62
     9
100
AcDbLine
 10
1334.3778721513
 20
283.2955357925
 30
0.0
 11
2109.3778721513
 21
283.2955357925
 31
0.0
  0
LINE
  5
36F
330
1B
100
AcDbEntity
 67
     1
  8
02___PRT_ALL_AXES
  6
Continuous
 62
     9
100
AcDbLine
 10
2133.0576104275
 20
283.2955357925
 30
0.0
 11
2133.2842597087
 21
283.2955357925
 31
0.0
  0
LINE
  5
370
330
1B
100
AcDbEntity
 67
     1
  8
02___PRT_ALL_AXES
  6
Continuous
 62
     9
100
AcDbLine
 10
2141.8778721513
 20
278.1955357925
 30
0.0
 11
2139.8933467499
 21
278.1955357925
 31
0.0
  0
LINE
  5
371
330
1B
100
AcDbEntity
 67
     1
  8
02___PRT_ALL_AXES
  6
Continuous
 62
     9
100
AcDbLine
 10
2109.3778721513
 20
278.1955357925
 30
0.0
 11
1334.3778721513
 21
278.1955357925
 31
0.0
  0
LINE
  5
372
330
1B
100
AcDbEntity
 67
     1
  8
02___PRT_ALL_AXES
  6
Continuous
 62
     9
100
AcDbLine
 10
1303.8623975527
 20
278.1955357925
 30
0.0
 11
1301.8778721513
 21
278.1955357925
 31
0.0
  0
LINE
  5
373
330
1B
100
AcDbEntity
 67
     1
  8
02___PRT_ALL_AXES
  6
Continuous
 62
     9
100
AcDbLine
 10
1241.8778721513
 20
278.1955357925
 30
0.0
 11
1239.8933467499
 21
278.1955357925
 31
0.0
  0
LINE
  5
374
330
1B
100
AcDbEntity
 67
     1
  8
02___PRT_ALL_AXES
  6
Continuous
 62
     9
100
AcDbLine
 10
1209.3778721513
 20
278.1955357925
 30
0.0
 11
434.3778721513
 21
278.1955357925
 31
0.0
  0
LINE
  5
375
330
1B
100
AcDbEntity
 67
     1
  8
02___PRT_ALL_AXES
  6
Continuous
 62
     9
100
AcDbLine
 10
403.8623975527
 20
278.1955357925
 30
0.0
 11
401.8778721513
 21
278.1955357925
 31
0.0
  0
LINE
  5
376
330
1B
100
AcDbEntity
 67
     1
  8
02___PRT_ALL_AXES
  6
Continuous
 62
     9
100
AcDbLine
 10
341.8778721513
 20
278.1955357925
 30
0.0
 11
339.8933467499
 21
278.1955357925
 31
0.0
  0
LINE
  5
377
330
1B
100
AcDbEntity
 67
     1
  8
02___PRT_ALL_AXES
  6
Continuous
 62
     9
100
AcDbLine
 10
309.3778721513
 20
278.1955357925
 30
0.0
 11
273.3778721513
 21
278.1955357925
 31
0.0
  0
LINE
  5
378
330
1B
100
AcDbEntity
 67
     1
  8
7_ALL_FEATURES
  6
Continuous
 62
     9
100
AcDbLine
 10
2284.8778721513
 20
254.4955357925
 30
0.0
 11
2234.3778721513
 21
254.4955357925
 31
0.0
  0
LINE
  5
379
330
1B
100
AcDbEntity
 67
     1
  8
7_ALL_FEATURES
  6
Continuous
 62
     9
100
AcDbLine
 10
2109.3778721513
 20
254.4955357925
 30
0.0
 11
1334.3778721513
 21
254.4955357925
 31
0.0
  0
LINE
  5
37A
330
1B
100
AcDbEntity
 67
     1
  8
7_ALL_FEATURES
  6
Continuous
 62
     9
100
AcDbLine
 10
1209.3778721513
 20
254.4955357925
 30
0.0
 11
434.3778721513
 21
254.4955357925
 31
0.0
  0
LINE
  5
37B
330
1B
100
AcDbEntity
 67
     1
  8
7_ALL_FEATURES
  6
Continuous
 62
     9
100
AcDbLine
 10
309.3778721513
 20
254.4955357925
 30
0.0
 11
273.3778721513
 21
254.4955357925
 31
0.0
  0
LINE
  5
37C
330
1B
100
AcDbEntity
 67
     1
  8
02___PRT_ALL_AXES
  6
Continuous
 62
     9
100
AcDbLine
 10
2284.8778721513
 20
278.1955357925
 30
0.0
 11
2234.3778721513
 21
278.1955357925
 31
0.0
  0
LINE
  5
37D
330
1B
100
AcDbEntity
 67
     1
  8
02___PRT_ALL_AXES
  6
Continuous
 62
     9
100
AcDbLine
 10
2203.8623975527
 20
278.1955357925
 30
0.0
 11
2201.8778721513
 21
278.1955357925
 31
0.0
  0
LINE
  5
37E
330
1B
100
AcDbEntity
 67
     1
  8
7_ALL_FEATURES
  6
Continuous
 62
     9
100
AcDbLine
 10
2284.8778721513
 20
330.8071442369
 30
0.0
 11
273.3778721513
 21
330.8071442369
 31
0.0
  0
LINE
  5
37F
330
1B
100
AcDbEntity
 67
     1
  8
7_ALL_FEATURES
  6
Continuous
 62
     9
100
AcDbLine
 10
2284.8778721513
 20
301.1955357925
 30
0.0
 11
2234.3778721513
 21
301.1955357925
 31
0.0
  0
LINE
  5
380
330
1B
100
AcDbEntity
 67
     1
  8
7_ALL_FEATURES
  6
Continuous
 62
     9
100
AcDbLine
 10
2211.8778721513
 20
301.1955357925
 30
0.0
 11
2211.6778721513
 21
301.1955357925
 31
0.0
  0
LINE
  5
381
330
1B
100
AcDbEntity
 67
     1
  8
7_ALL_FEATURES
  6
Continuous
 62
     9
100
AcDbLine
 10
2132.0778721513
 20
301.1955357925
 30
0.0
 11
2131.8778721513
 21
301.1955357925
 31
0.0
  0
LINE
  5
382
330
1B
100
AcDbEntity
 67
     1
  8
7_ALL_FEATURES
  6
Continuous
 62
     9
100
AcDbLine
 10
2109.3778721513
 20
301.1955357925
 30
0.0
 11
1334.3778721513
 21
301.1955357925
 31
0.0
  0
LINE
  5
383
330
1B
100
AcDbEntity
 67
     1
  8
7_ALL_FEATURES
  6
Continuous
 62
     9
100
AcDbLine
 10
1311.8778721513
 20
301.1955357925
 30
0.0
 11
1311.6778721513
 21
301.1955357925
 31
0.0
  0
LINE
  5
384
330
1B
100
AcDbEntity
 67
     1
  8
7_ALL_FEATURES
  6
Continuous
 62
     9
100
AcDbLine
 10
1232.0778721513
 20
301.1955357925
 30
0.0
 11
1231.8778721513
 21
301.1955357925
 31
0.0
  0
LINE
  5
385
330
1B
100
AcDbEntity
 67
     1
  8
7_ALL_FEATURES
  6
Continuous
 62
     9
100
AcDbLine
 10
1209.3778721513
 20
301.1955357925
 30
0.0
 11
434.3778721513
 21
301.1955357925
 31
0.0
  0
LINE
  5
386
330
1B
100
AcDbEntity
 67
     1
  8
7_ALL_FEATURES
  6
Continuous
 62
     9
100
AcDbLine
 10
411.8778721513
 20
301.1955357925
 30
0.0
 11
411.6778721513
 21
301.1955357925
 31
0.0
  0
LINE
  5
387
330
1B
100
AcDbEntity
 67
     1
  8
7_ALL_FEATURES
  6
Continuous
 62
     9
100
AcDbLine
 10
332.0778721513
 20
301.1955357925
 30
0.0
 11
331.8778721513
 21
301.1955357925
 31
0.0
  0
LINE
  5
388
330
1B
100
AcDbEntity
 67
     1
  8
7_ALL_FEATURES
  6
Continuous
 62
     9
100
AcDbLine
 10
309.3778721513
 20
301.1955357925
 30
0.0
 11
273.3778721513
 21
301.1955357925
 31
0.0
  0
LINE
  5
389
330
1B
100
AcDbEntity
 67
     1
  8
7_ALL_FEATURES
  6
Continuous
 62
     9
100
AcDbLine
 10
2284.8778721513
 20
331.7860906785
 30
0.0
 11
273.3778721513
 21
331.7860906785
 31
0.0
  0
LINE
  5
38A
330
1B
100
AcDbEntity
 67
     1
  8
7_ALL_FEATURES
  6
Continuous
 62
     9
100
AcDbLine
 10
2284.8778721513
 20
336.7346936502
 30
0.0
 11
273.3778721513
 21
336.7346936502
 31
0.0
  0
LINE
  5
38B
330
1B
100
AcDbEntity
 67
     1
  8
7_ALL_FEATURES
  6
Continuous
 62
     3
100
AcDbLine
 10
273.3778721513
 20
336.9165749577
 30
0.0
 11
273.3778721513
 21
336.547891896
 31
0.0
  0
LINE
  5
38C
330
1B
100
AcDbEntity
 67
     1
  8
7_ALL_FEATURES
  6
Continuous
 62
     3
100
AcDbLine
 10
273.3778721513
 20
336.547891896
 30
0.0
 11
273.3778721513
 21
335.9955357925
 31
0.0
  0
LINE
  5
38D
330
1B
100
AcDbEntity
 67
     1
  8
7_ALL_FEATURES
  6
Continuous
 62
     3
100
AcDbLine
 10
273.3778721513
 20
335.9955357925
 30
0.0
 11
273.3778721513
 21
332.8178710305
 31
0.0
  0
LINE
  5
38E
330
1B
100
AcDbEntity
 67
     1
  8
7_ALL_FEATURES
  6
Continuous
 62
     3
100
AcDbLine
 10
273.3778721513
 20
300.9955357925
 30
0.0
 11
273.3778721513
 21
296.4955357925
 31
0.0
  0
LINE
  5
38F
330
1B
100
AcDbEntity
 67
     1
  8
7_ALL_FEATURES
  6
Continuous
 62
     3
100
AcDbLine
 10
273.3778721513
 20
283.0128279846
 30
0.0
 11
273.3778721513
 21
282.9955357925
 31
0.0
  0
LINE
  5
390
330
1B
100
AcDbEntity
 67
     1
  8
7_ALL_FEATURES
  6
Continuous
 62
     3
100
AcDbLine
 10
273.3778721513
 20
282.9955357925
 30
0.0
 11
273.3778721513
 21
278.4955357925
 31
0.0
  0
LINE
  5
391
330
1B
100
AcDbEntity
 67
     1
  8
7_ALL_FEATURES
  6
Continuous
 62
     3
100
AcDbLine
 10
273.3778721513
 20
278.4955357925
 30
0.0
 11
273.3778721513
 21
278.4782436005
 31
0.0
  0
LINE
  5
392
330
1B
100
AcDbEntity
 67
     1
  8
7_ALL_FEATURES
  6
Continuous
 62
     3
100
AcDbLine
 10
2284.8778721513
 20
278.4782436005
 30
0.0
 11
2284.8778721513
 21
278.4955357925
 31
0.0
  0
LINE
  5
393
330
1B
100
AcDbEntity
 67
     1
  8
7_ALL_FEATURES
  6
Continuous
 62
     3
100
AcDbLine
 10
2284.8778721513
 20
278.4955357925
 30
0.0
 11
2284.8778721513
 21
282.9955357925
 31
0.0
  0
LINE
  5
394
330
1B
100
AcDbEntity
 67
     1
  8
7_ALL_FEATURES
  6
Continuous
 62
     3
100
AcDbLine
 10
2284.8778721513
 20
282.9955357925
 30
0.0
 11
2284.8778721513
 21
283.0128279846
 31
0.0
  0
LINE
  5
395
330
1B
100
AcDbEntity
 67
     1
  8
7_ALL_FEATURES
  6
Continuous
 62
     3
100
AcDbLine
 10
2284.8778721513
 20
296.4955357925
 30
0.0
 11
2284.8778721513
 21
300.9955357925
 31
0.0
  0
LINE
  5
396
330
1B
100
AcDbEntity
 67
     1
  8
7_ALL_FEATURES
  6
Continuous
 62
     3
100
AcDbLine
 10
2284.8778721513
 20
335.9955357925
 30
0.0
 11
2284.8778721513
 21
336.547891896
 31
0.0
  0
LINE
  5
397
330
1B
100
AcDbEntity
 67
     1
  8
7_ALL_FEATURES
  6
Continuous
 62
     3
100
AcDbLine
 10
2284.8778721513
 20
336.547891896
 30
0.0
 11
2284.8778721513
 21
336.9165749577
 31
0.0
  0
LINE
  5
398
330
1B
100
AcDbEntity
 67
     1
  8
7_ALL_FEATURES
  6
Continuous
 62
     3
100
AcDbLine
 10
2284.8778721513
 20
332.8178710305
 30
0.0
 11
2284.8778721513
 21
335.9955357925
 31
0.0
  0
LINE
  5
399
330
1B
100
AcDbEntity
 67
     1
  8
7_ALL_FEATURES
  6
Continuous
 62
     3
100
AcDbLine
 10
434.3778721513
 20
254.0955357925
 30
0.0
 11
434.3778721513
 21
322.2955357925
 31
0.0
  0
LINE
  5
39A
330
1B
100
AcDbEntity
 67
     1
  8
7_ALL_FEATURES
  6
Continuous
 62
     3
100
AcDbLine
 10
309.3778721513
 20
322.2955357925
 30
0.0
 11
309.3778721513
 21
254.0955357925
 31
0.0
  0
LINE
  5
39B
330
1B
100
AcDbEntity
 67
     1
  8
02___PRT_ALL_AXES
  6
Continuous
 62
     3
100
AcDbLine
 10
331.8778721513
 20
307.9955357925
 30
0.0
 11
331.8778721513
 21
287.9955357925
 31
0.0
  0
ARC
  5
39C
330
1B
100
AcDbEntity
 67
     1
  8
02___PRT_ALL_AXES
  6
Continuous
 62
     3
100
AcDbCircle
 10
341.8778721513
 20
287.9955357925
 30
0.0
 40
10.0
100
AcDbArc
 50
180.0
 51
270.0
  0
LINE
  5
39D
330
1B
100
AcDbEntity
 67
     1
  8
02___PRT_ALL_AXES
  6
Continuous
 62
     3
100
AcDbLine
 10
341.8778721513
 20
277.9955357925
 30
0.0
 11
401.8778721513
 21
277.9955357925
 31
0.0
  0
ARC
  5
39E
330
1B
100
AcDbEntity
 67
     1
  8
02___PRT_ALL_AXES
  6
Continuous
 62
     3
100
AcDbCircle
 10
401.8778721513
 20
287.9955357925
 30
0.0
 40
10.0
100
AcDbArc
 50
270.0
 51
360.0
  0
LINE
  5
39F
330
1B
100
AcDbEntity
 67
     1
  8
02___PRT_ALL_AXES
  6
Continuous
 62
     3
100
AcDbLine
 10
411.8778721513
 20
287.9955357925
 30
0.0
 11
411.8778721513
 21
307.9955357925
 31
0.0
  0
LINE
  5
3A0
330
1B
100
AcDbEntity
 67
     1
  8
02___PRT_ALL_AXES
  6
Continuous
 62
     3
100
AcDbLine
 10
411.8778721513
 20
307.9955357925
 30
0.0
 11
411.6778721513
 21
307.9955357925
 31
0.0
  0
LINE
  5
3A1
330
1B
100
AcDbEntity
 67
     1
  8
02___PRT_ALL_AXES
  6
Continuous
 62
     3
100
AcDbLine
 10
411.6778721513
 20
307.9955357925
 30
0.0
 11
411.6778721513
 21
287.9955357925
 31
0.0
  0
ARC
  5
3A2
330
1B
100
AcDbEntity
 67
     1
  8
02___PRT_ALL_AXES
  6
Continuous
 62
     3
100
AcDbCircle
 10
401.8778721513
 20
287.9955357925
 30
0.0
 40
9.8
100
AcDbArc
 50
270.0
 51
360.0
  0
LINE
  5
3A3
330
1B
100
AcDbEntity
 67
     1
  8
02___PRT_ALL_AXES
  6
Continuous
 62
     3
100
AcDbLine
 10
401.8778721513
 20
278.1955357925
 30
0.0
 11
341.8778721513
 21
278.1955357925
 31
0.0
  0
ARC
  5
3A4
330
1B
100
AcDbEntity
 67
     1
  8
02___PRT_ALL_AXES
  6
Continuous
 62
     3
100
AcDbCircle
 10
341.8778721513
 20
287.9955357925
 30
0.0
 40
9.8
100
AcDbArc
 50
180.0
 51
270.0
  0
LINE
  5
3A5
330
1B
100
AcDbEntity
 67
     1
  8
02___PRT_ALL_AXES
  6
Continuous
 62
     3
100
AcDbLine
 10
332.0778721513
 20
287.9955357925
 30
0.0
 11
332.0778721513
 21
307.9955357925
 31
0.0
  0
LINE
  5
3A6
330
1B
100
AcDbEntity
 67
     1
  8
02___PRT_ALL_AXES
  6
Continuous
 62
     3
100
AcDbLine
 10
332.0778721513
 20
307.9955357925
 30
0.0
 11
331.8778721513
 21
307.9955357925
 31
0.0
  0
LINE
  5
3A7
330
1B
100
AcDbEntity
 67
     1
  8
02___PRT_ALL_AXES
  6
Continuous
 62
     3
100
AcDbLine
 10
333.6778721513
 20
308.0955357925
 30
0.0
 11
333.6778721513
 21
307.8955357925
 31
0.0
  0
LINE
  5
3A8
330
1B
100
AcDbEntity
 67
     1
  8
02___PRT_ALL_AXES
  6
Continuous
 62
     3
100
AcDbLine
 10
333.6778721513
 20
307.8955357925
 30
0.0
 11
371.0778721513
 21
307.8955357925
 31
0.0
  0
LINE
  5
3A9
330
1B
100
AcDbEntity
 67
     1
  8
02___PRT_ALL_AXES
  6
Continuous
 62
     3
100
AcDbLine
 10
371.0778721513
 20
307.8955357925
 30
0.0
 11
371.0778721513
 21
308.0955357925
 31
0.0
  0
LINE
  5
3AA
330
1B
100
AcDbEntity
 67
     1
  8
02___PRT_ALL_AXES
  6
Continuous
 62
     3
100
AcDbLine
 10
371.0778721513
 20
308.0955357925
 30
0.0
 11
333.6778721513
 21
308.0955357925
 31
0.0
  0
LINE
  5
3AB
330
1B
100
AcDbEntity
 67
     1
  8
02___PRT_ALL_AXES
  6
Continuous
 62
     3
100
AcDbLine
 10
410.0778721513
 20
308.0955357925
 30
0.0
 11
372.6778721513
 21
308.0955357925
 31
0.0
  0
LINE
  5
3AC
330
1B
100
AcDbEntity
 67
     1
  8
02___PRT_ALL_AXES
  6
Continuous
 62
     3
100
AcDbLine
 10
372.6778721513
 20
308.0955357925
 30
0.0
 11
372.6778721513
 21
307.8955357925
 31
0.0
  0
LINE
  5
3AD
330
1B
100
AcDbEntity
 67
     1
  8
02___PRT_ALL_AXES
  6
Continuous
 62
     3
100
AcDbLine
 10
372.6778721513
 20
307.8955357925
 30
0.0
 11
410.0778721513
 21
307.8955357925
 31
0.0
  0
LINE
  5
3AE
330
1B
100
AcDbEntity
 67
     1
  8
02___PRT_ALL_AXES
  6
Continuous
 62
     3
100
AcDbLine
 10
410.0778721513
 20
307.8955357925
 30
0.0
 11
410.0778721513
 21
308.0955357925
 31
0.0
  0
LINE
  5
3AF
330
1B
100
AcDbEntity
 67
     1
  8
7_ALL_FEATURES
  6
Continuous
 62
     3
100
AcDbLine
 10
434.3778721513
 20
254.0955357925
 30
0.0
 11
434.3778721513
 21
253.3901934898
 31
0.0
  0
LINE
  5
3B0
330
1B
100
AcDbEntity
 67
     1
  8
7_ALL_FEATURES
  6
Continuous
 62
     3
100
AcDbLine
 10
434.3778721513
 20
253.3901934898
 30
0.0
 11
434.3778721513
 21
252.8955357925
 31
0.0
  0
LINE
  5
3B1
330
1B
100
AcDbEntity
 67
     1
  8
7_ALL_FEATURES
  6
Continuous
 62
     3
100
AcDbLine
 10
309.3778721513
 20
252.8955357925
 30
0.0
 11
434.3778721513
 21
252.8955357925
 31
0.0
  0
LINE
  5
3B2
330
1B
100
AcDbEntity
 67
     1
  8
7_ALL_FEATURES
  6
Continuous
 62
     3
100
AcDbLine
 10
309.3778721513
 20
254.0955357925
 30
0.0
 11
309.3778721513
 21
253.3901934898
 31
0.0
  0
LINE
  5
3B3
330
1B
100
AcDbEntity
 67
     1
  8
7_ALL_FEATURES
  6
Continuous
 62
     3
100
AcDbLine
 10
309.3778721513
 20
253.3901934898
 30
0.0
 11
309.3778721513
 21
252.8955357925
 31
0.0
  0
LINE
  5
3B4
330
1B
100
AcDbEntity
 67
     1
  8
7_ALL_FEATURES
  6
Continuous
 62
     3
100
AcDbLine
 10
434.3778721513
 20
322.8955357925
 30
0.0
 11
422.3778721513
 21
322.8955357925
 31
0.0
  0
LINE
  5
3B5
330
1B
100
AcDbEntity
 67
     1
  8
7_ALL_FEATURES
  6
Continuous
 62
     3
100
AcDbLine
 10
321.3778721513
 20
322.8955357925
 30
0.0
 11
309.3778721513
 21
322.8955357925
 31
0.0
  0
LINE
  5
3B6
330
1B
100
AcDbEntity
 67
     1
  8
7_ALL_FEATURES
  6
Continuous
 62
     3
100
AcDbLine
 10
321.3778721513
 20
322.8955357925
 30
0.0
 11
422.3778721513
 21
322.8955357925
 31
0.0
  0
LINE
  5
3B7
330
1B
100
AcDbEntity
 67
     1
  8
7_ALL_FEATURES
  6
Continuous
 62
     3
100
AcDbLine
 10
434.3778721513
 20
322.8955357925
 30
0.0
 11
434.3778721513
 21
322.2955357925
 31
0.0
  0
LINE
  5
3B8
330
1B
100
AcDbEntity
 67
     1
  8
7_ALL_FEATURES
  6
Continuous
 62
     3
100
AcDbLine
 10
309.3778721513
 20
322.8955357925
 30
0.0
 11
309.3778721513
 21
322.2955357925
 31
0.0
  0
LINE
  5
3B9
330
1B
100
AcDbEntity
 67
     1
  8
7_ALL_FEATURES
  6
Continuous
 62
     9
100
AcDbLine
 10
309.3778721513
 20
254.0955357925
 30
0.0
 11
434.3778721513
 21
254.0955357925
 31
0.0
  0
LINE
  5
3BA
330
1B
100
AcDbEntity
 67
     1
  8
7_ALL_FEATURES
  6
Continuous
 62
     9
100
AcDbLine
 10
434.3778721513
 20
322.2955357925
 30
0.0
 11
309.3778721513
 21
322.2955357925
 31
0.0
  0
LINE
  5
3BB
330
1B
100
AcDbEntity
 67
     1
  8
7_ALL_FEATURES
  6
Continuous
 62
     3
100
AcDbLine
 10
1334.3778721513
 20
254.0955357925
 30
0.0
 11
1334.3778721513
 21
322.2955357925
 31
0.0
  0
LINE
  5
3BC
330
1B
100
AcDbEntity
 67
     1
  8
7_ALL_FEATURES
  6
Continuous
 62
     3
100
AcDbLine
 10
1209.3778721513
 20
322.2955357925
 30
0.0
 11
1209.3778721513
 21
254.0955357925
 31
0.0
  0
LINE
  5
3BD
330
1B
100
AcDbEntity
 67
     1
  8
02___PRT_ALL_AXES
  6
Continuous
 62
     3
100
AcDbLine
 10
1231.8778721513
 20
307.9955357925
 30
0.0
 11
1231.8778721513
 21
287.9955357925
 31
0.0
  0
ARC
  5
3BE
330
1B
100
AcDbEntity
 67
     1
  8
02___PRT_ALL_AXES
  6
Continuous
 62
     3
100
AcDbCircle
 10
1241.8778721513
 20
287.9955357925
 30
0.0
 40
10.0
100
AcDbArc
 50
180.0
 51
270.0
  0
LINE
  5
3BF
330
1B
100
AcDbEntity
 67
     1
  8
02___PRT_ALL_AXES
  6
Continuous
 62
     3
100
AcDbLine
 10
1241.8778721513
 20
277.9955357925
 30
0.0
 11
1301.8778721513
 21
277.9955357925
 31
0.0
  0
ARC
  5
3C0
330
1B
100
AcDbEntity
 67
     1
  8
02___PRT_ALL_AXES
  6
Continuous
 62
     3
100
AcDbCircle
 10
1301.8778721513
 20
287.9955357925
 30
0.0
 40
10.0
100
AcDbArc
 50
270.0
 51
360.0
  0
LINE
  5
3C1
330
1B
100
AcDbEntity
 67
     1
  8
02___PRT_ALL_AXES
  6
Continuous
 62
     3
100
AcDbLine
 10
1311.8778721513
 20
287.9955357925
 30
0.0
 11
1311.8778721513
 21
307.9955357925
 31
0.0
  0
LINE
  5
3C2
330
1B
100
AcDbEntity
 67
     1
  8
02___PRT_ALL_AXES
  6
Continuous
 62
     3
100
AcDbLine
 10
1311.8778721513
 20
307.9955357925
 30
0.0
 11
1311.6778721513
 21
307.9955357925
 31
0.0
  0
LINE
  5
3C3
330
1B
100
AcDbEntity
 67
     1
  8
02___PRT_ALL_AXES
  6
Continuous
 62
     3
100
AcDbLine
 10
1311.6778721513
 20
307.9955357925
 30
0.0
 11
1311.6778721513
 21
287.9955357925
 31
0.0
  0
ARC
  5
3C4
330
1B
100
AcDbEntity
 67
     1
  8
02___PRT_ALL_AXES
  6
Continuous
 62
     3
100
AcDbCircle
 10
1301.8778721513
 20
287.9955357925
 30
0.0
 40
9.8
100
AcDbArc
 50
270.0
 51
360.0
  0
LINE
  5
3C5
330
1B
100
AcDbEntity
 67
     1
  8
02___PRT_ALL_AXES
  6
Continuous
 62
     3
100
AcDbLine
 10
1301.8778721513
 20
278.1955357925
 30
0.0
 11
1241.8778721513
 21
278.1955357925
 31
0.0
  0
ARC
  5
3C6
330
1B
100
AcDbEntity
 67
     1
  8
02___PRT_ALL_AXES
  6
Continuous
 62
     3
100
AcDbCircle
 10
1241.8778721513
 20
287.9955357925
 30
0.0
 40
9.8
100
AcDbArc
 50
180.0
 51
270.0
  0
LINE
  5
3C7
330
1B
100
AcDbEntity
 67
     1
  8
02___PRT_ALL_AXES
  6
Continuous
 62
     3
100
AcDbLine
 10
1232.0778721513
 20
287.9955357925
 30
0.0
 11
1232.0778721513
 21
307.9955357925
 31
0.0
  0
LINE
  5
3C8
330
1B
100
AcDbEntity
 67
     1
  8
02___PRT_ALL_AXES
  6
Continuous
 62
     3
100
AcDbLine
 10
1232.0778721513
 20
307.9955357925
 30
0.0
 11
1231.8778721513
 21
307.9955357925
 31
0.0
  0
LINE
  5
3C9
330
1B
100
AcDbEntity
 67
     1
  8
02___PRT_ALL_AXES
  6
Continuous
 62
     3
100
AcDbLine
 10
1233.6778721513
 20
308.0955357925
 30
0.0
 11
1233.6778721513
 21
307.8955357925
 31
0.0
  0
LINE
  5
3CA
330
1B
100
AcDbEntity
 67
     1
  8
02___PRT_ALL_AXES
  6
Continuous
 62
     3
100
AcDbLine
 10
1233.6778721513
 20
307.8955357925
 30
0.0
 11
1271.0778721513
 21
307.8955357925
 31
0.0
  0
LINE
  5
3CB
330
1B
100
AcDbEntity
 67
     1
  8
02___PRT_ALL_AXES
  6
Continuous
 62
     3
100
AcDbLine
 10
1271.0778721513
 20
307.8955357925
 30
0.0
 11
1271.0778721513
 21
308.0955357925
 31
0.0
  0
LINE
  5
3CC
330
1B
100
AcDbEntity
 67
     1
  8
02___PRT_ALL_AXES
  6
Continuous
 62
     3
100
AcDbLine
 10
1271.0778721513
 20
308.0955357925
 30
0.0
 11
1233.6778721513
 21
308.0955357925
 31
0.0
  0
LINE
  5
3CD
330
1B
100
AcDbEntity
 67
     1
  8
02___PRT_ALL_AXES
  6
Continuous
 62
     3
100
AcDbLine
 10
1310.0778721513
 20
308.0955357925
 30
0.0
 11
1272.6778721513
 21
308.0955357925
 31
0.0
  0
LINE
  5
3CE
330
1B
100
AcDbEntity
 67
     1
  8
02___PRT_ALL_AXES
  6
Continuous
 62
     3
100
AcDbLine
 10
1272.6778721513
 20
308.0955357925
 30
0.0
 11
1272.6778721513
 21
307.8955357925
 31
0.0
  0
LINE
  5
3CF
330
1B
100
AcDbEntity
 67
     1
  8
02___PRT_ALL_AXES
  6
Continuous
 62
     3
100
AcDbLine
 10
1272.6778721513
 20
307.8955357925
 30
0.0
 11
1310.0778721513
 21
307.8955357925
 31
0.0
  0
LINE
  5
3D0
330
1B
100
AcDbEntity
 67
     1
  8
02___PRT_ALL_AXES
  6
Continuous
 62
     3
100
AcDbLine
 10
1310.0778721513
 20
307.8955357925
 30
0.0
 11
1310.0778721513
 21
308.0955357925
 31
0.0
  0
LINE
  5
3D1
330
1B
100
AcDbEntity
 67
     1
  8
7_ALL_FEATURES
  6
Continuous
 62
     3
100
AcDbLine
 10
1334.3778721513
 20
254.0955357925
 30
0.0
 11
1334.3778721513
 21
253.3901934898
 31
0.0
  0
LINE
  5
3D2
330
1B
100
AcDbEntity
 67
     1
  8
7_ALL_FEATURES
  6
Continuous
 62
     3
100
AcDbLine
 10
1334.3778721513
 20
253.3901934898
 30
0.0
 11
1334.3778721513
 21
252.8955357925
 31
0.0
  0
LINE
  5
3D3
330
1B
100
AcDbEntity
 67
     1
  8
7_ALL_FEATURES
  6
Continuous
 62
     3
100
AcDbLine
 10
1209.3778721513
 20
252.8955357925
 30
0.0
 11
1334.3778721513
 21
252.8955357925
 31
0.0
  0
LINE
  5
3D4
330
1B
100
AcDbEntity
 67
     1
  8
7_ALL_FEATURES
  6
Continuous
 62
     3
100
AcDbLine
 10
1209.3778721513
 20
254.0955357925
 30
0.0
 11
1209.3778721513
 21
253.3901934898
 31
0.0
  0
LINE
  5
3D5
330
1B
100
AcDbEntity
 67
     1
  8
7_ALL_FEATURES
  6
Continuous
 62
     3
100
AcDbLine
 10
1209.3778721513
 20
253.3901934898
 30
0.0
 11
1209.3778721513
 21
252.8955357925
 31
0.0
  0
LINE
  5
3D6
330
1B
100
AcDbEntity
 67
     1
  8
7_ALL_FEATURES
  6
Continuous
 62
     3
100
AcDbLine
 10
1334.3778721513
 20
322.8955357925
 30
0.0
 11
1322.3778721513
 21
322.8955357925
 31
0.0
  0
LINE
  5
3D7
330
1B
100
AcDbEntity
 67
     1
  8
7_ALL_FEATURES
  6
Continuous
 62
     3
100
AcDbLine
 10
1221.3778721513
 20
322.8955357925
 30
0.0
 11
1209.3778721513
 21
322.8955357925
 31
0.0
  0
LINE
  5
3D8
330
1B
100
AcDbEntity
 67
     1
  8
7_ALL_FEATURES
  6
Continuous
 62
     3
100
AcDbLine
 10
1221.3778721513
 20
322.8955357925
 30
0.0
 11
1322.3778721513
 21
322.8955357925
 31
0.0
  0
LINE
  5
3D9
330
1B
100
AcDbEntity
 67
     1
  8
7_ALL_FEATURES
  6
Continuous
 62
     3
100
AcDbLine
 10
1334.3778721513
 20
322.8955357925
 30
0.0
 11
1334.3778721513
 21
322.2955357925
 31
0.0
  0
LINE
  5
3DA
330
1B
100
AcDbEntity
 67
     1
  8
7_ALL_FEATURES
  6
Continuous
 62
     3
100
AcDbLine
 10
1209.3778721513
 20
322.8955357925
 30
0.0
 11
1209.3778721513
 21
322.2955357925
 31
0.0
  0
LINE
  5
3DB
330
1B
100
AcDbEntity
 67
     1
  8
7_ALL_FEATURES
  6
Continuous
 62
     9
100
AcDbLine
 10
1209.3778721513
 20
254.0955357925
 30
0.0
 11
1334.3778721513
 21
254.0955357925
 31
0.0
  0
LINE
  5
3DC
330
1B
100
AcDbEntity
 67
     1
  8
7_ALL_FEATURES
  6
Continuous
 62
     9
100
AcDbLine
 10
1334.3778721513
 20
322.2955357925
 30
0.0
 11
1209.3778721513
 21
322.2955357925
 31
0.0
  0
LINE
  5
3DD
330
1B
100
AcDbEntity
 67
     1
  8
7_ALL_FEATURES
  6
Continuous
 62
     3
100
AcDbLine
 10
2234.3778721513
 20
254.0955357925
 30
0.0
 11
2234.3778721513
 21
322.2955357925
 31
0.0
  0
LINE
  5
3DE
330
1B
100
AcDbEntity
 67
     1
  8
7_ALL_FEATURES
  6
Continuous
 62
     3
100
AcDbLine
 10
2109.3778721513
 20
322.2955357925
 30
0.0
 11
2109.3778721513
 21
254.0955357925
 31
0.0
  0
LINE
  5
3DF
330
1B
100
AcDbEntity
 67
     1
  8
02___PRT_ALL_AXES
  6
Continuous
 62
     3
100
AcDbLine
 10
2131.8778721513
 20
307.9955357925
 30
0.0
 11
2131.8778721513
 21
287.9955357925
 31
0.0
  0
ARC
  5
3E0
330
1B
100
AcDbEntity
 67
     1
  8
02___PRT_ALL_AXES
  6
Continuous
 62
     3
100
AcDbCircle
 10
2141.8778721513
 20
287.9955357925
 30
0.0
 40
10.0
100
AcDbArc
 50
180.0
 51
270.0
  0
LINE
  5
3E1
330
1B
100
AcDbEntity
 67
     1
  8
02___PRT_ALL_AXES
  6
Continuous
 62
     3
100
AcDbLine
 10
2141.8778721513
 20
277.9955357925
 30
0.0
 11
2201.8778721513
 21
277.9955357925
 31
0.0
  0
ARC
  5
3E2
330
1B
100
AcDbEntity
 67
     1
  8
02___PRT_ALL_AXES
  6
Continuous
 62
     3
100
AcDbCircle
 10
2201.8778721513
 20
287.9955357925
 30
0.0
 40
10.0
100
AcDbArc
 50
270.0
 51
360.0
  0
LINE
  5
3E3
330
1B
100
AcDbEntity
 67
     1
  8
02___PRT_ALL_AXES
  6
Continuous
 62
     3
100
AcDbLine
 10
2211.8778721513
 20
287.9955357925
 30
0.0
 11
2211.8778721513
 21
307.9955357925
 31
0.0
  0
LINE
  5
3E4
330
1B
100
AcDbEntity
 67
     1
  8
02___PRT_ALL_AXES
  6
Continuous
 62
     3
100
AcDbLine
 10
2211.8778721513
 20
307.9955357925
 30
0.0
 11
2211.6778721513
 21
307.9955357925
 31
0.0
  0
LINE
  5
3E5
330
1B
100
AcDbEntity
 67
     1
  8
02___PRT_ALL_AXES
  6
Continuous
 62
     3
100
AcDbLine
 10
2211.6778721513
 20
307.9955357925
 30
0.0
 11
2211.6778721513
 21
287.9955357925
 31
0.0
  0
ARC
  5
3E6
330
1B
100
AcDbEntity
 67
     1
  8
02___PRT_ALL_AXES
  6
Continuous
 62
     3
100
AcDbCircle
 10
2201.8778721513
 20
287.9955357925
 30
0.0
 40
9.8
100
AcDbArc
 50
270.0
 51
360.0
  0
LINE
  5
3E7
330
1B
100
AcDbEntity
 67
     1
  8
02___PRT_ALL_AXES
  6
Continuous
 62
     3
100
AcDbLine
 10
2201.8778721513
 20
278.1955357925
 30
0.0
 11
2141.8778721513
 21
278.1955357925
 31
0.0
  0
ARC
  5
3E8
330
1B
100
AcDbEntity
 67
     1
  8
02___PRT_ALL_AXES
  6
Continuous
 62
     3
100
AcDbCircle
 10
2141.8778721513
 20
287.9955357925
 30
0.0
 40
9.8
100
AcDbArc
 50
180.0
 51
270.0
  0
LINE
  5
3E9
330
1B
100
AcDbEntity
 67
     1
  8
02___PRT_ALL_AXES
  6
Continuous
 62
     3
100
AcDbLine
 10
2132.0778721513
 20
287.9955357925
 30
0.0
 11
2132.0778721513
 21
307.9955357925
 31
0.0
  0
LINE
  5
3EA
330
1B
100
AcDbEntity
 67
     1
  8
02___PRT_ALL_AXES
  6
Continuous
 62
     3
100
AcDbLine
 10
2132.0778721513
 20
307.9955357925
 30
0.0
 11
2131.8778721513
 21
307.9955357925
 31
0.0
  0
LINE
  5
3EB
330
1B
100
AcDbEntity
 67
     1
  8
02___PRT_ALL_AXES
  6
Continuous
 62
     3
100
AcDbLine
 10
2133.6778721513
 20
308.0955357925
 30
0.0
 11
2133.6778721513
 21
307.8955357925
 31
0.0
  0
LINE
  5
3EC
330
1B
100
AcDbEntity
 67
     1
  8
02___PRT_ALL_AXES
  6
Continuous
 62
     3
100
AcDbLine
 10
2133.6778721513
 20
307.8955357925
 30
0.0
 11
2171.0778721513
 21
307.8955357925
 31
0.0
  0
LINE
  5
3ED
330
1B
100
AcDbEntity
 67
     1
  8
02___PRT_ALL_AXES
  6
Continuous
 62
     3
100
AcDbLine
 10
2171.0778721513
 20
307.8955357925
 30
0.0
 11
2171.0778721513
 21
308.0955357925
 31
0.0
  0
LINE
  5
3EE
330
1B
100
AcDbEntity
 67
     1
  8
02___PRT_ALL_AXES
  6
Continuous
 62
     3
100
AcDbLine
 10
2171.0778721513
 20
308.0955357925
 30
0.0
 11
2133.6778721513
 21
308.0955357925
 31
0.0
  0
LINE
  5
3EF
330
1B
100
AcDbEntity
 67
     1
  8
02___PRT_ALL_AXES
  6
Continuous
 62
     3
100
AcDbLine
 10
2210.0778721513
 20
308.0955357925
 30
0.0
 11
2172.6778721513
 21
308.0955357925
 31
0.0
  0
LINE
  5
3F0
330
1B
100
AcDbEntity
 67
     1
  8
02___PRT_ALL_AXES
  6
Continuous
 62
     3
100
AcDbLine
 10
2172.6778721513
 20
308.0955357925
 30
0.0
 11
2172.6778721513
 21
307.8955357925
 31
0.0
  0
LINE
  5
3F1
330
1B
100
AcDbEntity
 67
     1
  8
02___PRT_ALL_AXES
  6
Continuous
 62
     3
100
AcDbLine
 10
2172.6778721513
 20
307.8955357925
 30
0.0
 11
2210.0778721513
 21
307.8955357925
 31
0.0
  0
LINE
  5
3F2
330
1B
100
AcDbEntity
 67
     1
  8
02___PRT_ALL_AXES
  6
Continuous
 62
     3
100
AcDbLine
 10
2210.0778721513
 20
307.8955357925
 30
0.0
 11
2210.0778721513
 21
308.0955357925
 31
0.0
  0
LINE
  5
3F3
330
1B
100
AcDbEntity
 67
     1
  8
7_ALL_FEATURES
  6
Continuous
 62
     3
100
AcDbLine
 10
2234.3778721513
 20
254.0955357925
 30
0.0
 11
2234.3778721513
 21
253.3901934898
 31
0.0
  0
LINE
  5
3F4
330
1B
100
AcDbEntity
 67
     1
  8
7_ALL_FEATURES
  6
Continuous
 62
     3
100
AcDbLine
 10
2234.3778721513
 20
253.3901934898
 30
0.0
 11
2234.3778721513
 21
252.8955357925
 31
0.0
  0
LINE
  5
3F5
330
1B
100
AcDbEntity
 67
     1
  8
7_ALL_FEATURES
  6
Continuous
 62
     3
100
AcDbLine
 10
2109.3778721513
 20
252.8955357925
 30
0.0
 11
2234.3778721513
 21
252.8955357925
 31
0.0
  0
LINE
  5
3F6
330
1B
100
AcDbEntity
 67
     1
  8
7_ALL_FEATURES
  6
Continuous
 62
     3
100
AcDbLine
 10
2109.3778721513
 20
254.0955357925
 30
0.0
 11
2109.3778721513
 21
253.3901934898
 31
0.0
  0
LINE
  5
3F7
330
1B
100
AcDbEntity
 67
     1
  8
7_ALL_FEATURES
  6
Continuous
 62
     3
100
AcDbLine
 10
2109.3778721513
 20
253.3901934898
 30
0.0
 11
2109.3778721513
 21
252.8955357925
 31
0.0
  0
LINE
  5
3F8
330
1B
100
AcDbEntity
 67
     1
  8
7_ALL_FEATURES
  6
Continuous
 62
     3
100
AcDbLine
 10
2234.3778721513
 20
322.8955357925
 30
0.0
 11
2222.3778721513
 21
322.8955357925
 31
0.0
  0
LINE
  5
3F9
330
1B
100
AcDbEntity
 67
     1
  8
7_ALL_FEATURES
  6
Continuous
 62
     3
100
AcDbLine
 10
2121.3778721513
 20
322.8955357925
 30
0.0
 11
2109.3778721513
 21
322.8955357925
 31
0.0
  0
LINE
  5
3FA
330
1B
100
AcDbEntity
 67
     1
  8
7_ALL_FEATURES
  6
Continuous
 62
     3
100
AcDbLine
 10
2121.3778721513
 20
322.8955357925
 30
0.0
 11
2222.3778721513
 21
322.8955357925
 31
0.0
  0
LINE
  5
3FB
330
1B
100
AcDbEntity
 67
     1
  8
7_ALL_FEATURES
  6
Continuous
 62
     3
100
AcDbLine
 10
2234.3778721513
 20
322.8955357925
 30
0.0
 11
2234.3778721513
 21
322.2955357925
 31
0.0
  0
LINE
  5
3FC
330
1B
100
AcDbEntity
 67
     1
  8
7_ALL_FEATURES
  6
Continuous
 62
     3
100
AcDbLine
 10
2109.3778721513
 20
322.8955357925
 30
0.0
 11
2109.3778721513
 21
322.2955357925
 31
0.0
  0
LINE
  5
3FD
330
1B
100
AcDbEntity
 67
     1
  8
7_ALL_FEATURES
  6
Continuous
 62
     9
100
AcDbLine
 10
2109.3778721513
 20
254.0955357925
 30
0.0
 11
2234.3778721513
 21
254.0955357925
 31
0.0
  0
LINE
  5
3FE
330
1B
100
AcDbEntity
 67
     1
  8
7_ALL_FEATURES
  6
Continuous
 62
     9
100
AcDbLine
 10
2234.3778721513
 20
322.2955357925
 30
0.0
 11
2109.3778721513
 21
322.2955357925
 31
0.0
  0
LINE
  5
3FF
330
1B
100
AcDbEntity
 67
     1
  8
3_ALL_AXES
  6
Continuous
 62
     7
100
AcDbLine
 10
2286.8778721513
 20
136.2321430902
 30
0.0
 11
2286.7271518217
 21
136.2321430902
 31
0.0
  0
LINE
  5
400
330
1B
100
AcDbEntity
 67
     1
  8
3_ALL_AXES
  6
Continuous
 62
     7
100
AcDbLine
 10
2286.8778721513
 20
141.7321430902
 30
0.0
 11
2286.7271518217
 21
141.7321430902
 31
0.0
  0
LINE
  5
401
330
1B
100
AcDbEntity
 67
     1
  8
3_ALL_AXES
  6
Continuous
 62
     7
100
AcDbLine
 10
2286.8778721513
 20
136.2321430902
 30
0.0
 11
2286.8778721513
 21
141.7321430902
 31
0.0
  0
LINE
  5
402
330
1B
100
AcDbEntity
 67
     1
  8
3_ALL_AXES
  6
Continuous
 62
     7
100
AcDbLine
 10
2286.7271518217
 20
136.2321430902
 30
0.0
 11
2286.3778721513
 21
136.5252235328
 31
0.0
  0
LINE
  5
403
330
1B
100
AcDbEntity
 67
     1
  8
3_ALL_AXES
  6
Continuous
 62
     7
100
AcDbLine
 10
2286.7271518217
 20
141.7321430902
 30
0.0
 11
2286.3778721513
 21
141.4390626476
 31
0.0
  0
LINE
  5
404
330
1B
100
AcDbEntity
 67
     1
  8
3_ALL_AXES
  6
Continuous
 62
     7
100
AcDbLine
 10
2286.7271518217
 20
136.2321430902
 30
0.0
 11
2286.8778721513
 21
136.2321430902
 31
0.0
  0
LINE
  5
405
330
1B
100
AcDbEntity
 67
     1
  8
3_ALL_AXES
  6
Continuous
 62
     7
100
AcDbLine
 10
2286.3778721513
 20
136.5252235328
 30
0.0
 11
2286.7271518217
 21
136.2321430902
 31
0.0
  0
LINE
  5
406
330
1B
100
AcDbEntity
 67
     1
  8
3_ALL_AXES
  6
Continuous
 62
     7
100
AcDbLine
 10
2286.7271518217
 20
141.7321430902
 30
0.0
 11
2286.8778721513
 21
141.7321430902
 31
0.0
  0
LINE
  5
407
330
1B
100
AcDbEntity
 67
     1
  8
3_ALL_AXES
  6
Continuous
 62
     7
100
AcDbLine
 10
2286.3778721513
 20
141.4390626476
 30
0.0
 11
2286.7271518217
 21
141.7321430902
 31
0.0
  0
LINE
  5
408
330
1B
100
AcDbEntity
 67
     1
  8
3_ALL_AXES
  6
Continuous
 62
     7
100
AcDbLine
 10
2286.7271518217
 20
136.2321430902
 30
0.0
 11
2286.7271518217
 21
141.7321430902
 31
0.0
  0
LINE
  5
409
330
1B
100
AcDbEntity
 67
     1
  8
3_ALL_AXES
  6
Continuous
 62
     7
100
AcDbLine
 10
2286.8778721513
 20
99.8321430902
 30
0.0
 11
2286.7271518217
 21
99.8321430902
 31
0.0
  0
LINE
  5
40A
330
1B
100
AcDbEntity
 67
     1
  8
3_ALL_AXES
  6
Continuous
 62
     7
100
AcDbLine
 10
2286.8778721513
 20
105.3321430902
 30
0.0
 11
2286.7271518217
 21
105.3321430902
 31
0.0
  0
LINE
  5
40B
330
1B
100
AcDbEntity
 67
     1
  8
3_ALL_AXES
  6
Continuous
 62
     7
100
AcDbLine
 10
2286.8778721513
 20
99.8321430902
 30
0.0
 11
2286.8778721513
 21
105.3321430902
 31
0.0
  0
LINE
  5
40C
330
1B
100
AcDbEntity
 67
     1
  8
3_ALL_AXES
  6
Continuous
 62
     7
100
AcDbLine
 10
2286.7271518217
 20
99.8321430902
 30
0.0
 11
2286.3778721513
 21
100.1252235328
 31
0.0
  0
LINE
  5
40D
330
1B
100
AcDbEntity
 67
     1
  8
3_ALL_AXES
  6
Continuous
 62
     7
100
AcDbLine
 10
2286.7271518217
 20
105.3321430902
 30
0.0
 11
2286.3778721513
 21
105.0390626476
 31
0.0
  0
LINE
  5
40E
330
1B
100
AcDbEntity
 67
     1
  8
3_ALL_AXES
  6
Continuous
 62
     7
100
AcDbLine
 10
2286.7271518217
 20
99.8321430902
 30
0.0
 11
2286.8778721513
 21
99.8321430902
 31
0.0
  0
LINE
  5
40F
330
1B
100
AcDbEntity
 67
     1
  8
3_ALL_AXES
  6
Continuous
 62
     7
100
AcDbLine
 10
2286.3778721513
 20
100.1252235328
 30
0.0
 11
2286.7271518217
 21
99.8321430902
 31
0.0
  0
LINE
  5
410
330
1B
100
AcDbEntity
 67
     1
  8
3_ALL_AXES
  6
Continuous
 62
     7
100
AcDbLine
 10
2286.7271518217
 20
105.3321430902
 30
0.0
 11
2286.8778721513
 21
105.3321430902
 31
0.0
  0
LINE
  5
411
330
1B
100
AcDbEntity
 67
     1
  8
3_ALL_AXES
  6
Continuous
 62
     7
100
AcDbLine
 10
2286.3778721513
 20
105.0390626476
 30
0.0
 11
2286.7271518217
 21
105.3321430902
 31
0.0
  0
LINE
  5
412
330
1B
100
AcDbEntity
 67
     1
  8
3_ALL_AXES
  6
Continuous
 62
     7
100
AcDbLine
 10
2286.7271518217
 20
99.8321430902
 30
0.0
 11
2286.7271518217
 21
105.3321430902
 31
0.0
  0
LINE
  5
413
330
1B
100
AcDbEntity
 67
     1
  8
3_ALL_AXES
  6
Continuous
 62
     7
100
AcDbLine
 10
271.3778721513
 20
141.7321430902
 30
0.0
 11
271.5285924809
 21
141.7321430902
 31
0.0
  0
LINE
  5
414
330
1B
100
AcDbEntity
 67
     1
  8
3_ALL_AXES
  6
Continuous
 62
     7
100
AcDbLine
 10
271.3778721513
 20
136.2321430902
 30
0.0
 11
271.5285924809
 21
136.2321430902
 31
0.0
  0
LINE
  5
415
330
1B
100
AcDbEntity
 67
     1
  8
3_ALL_AXES
  6
Continuous
 62
     7
100
AcDbLine
 10
271.3778721513
 20
141.7321430902
 30
0.0
 11
271.3778721513
 21
136.2321430902
 31
0.0
  0
LINE
  5
416
330
1B
100
AcDbEntity
 67
     1
  8
3_ALL_AXES
  6
Continuous
 62
     7
100
AcDbLine
 10
271.5285924809
 20
141.7321430902
 30
0.0
 11
271.8778721513
 21
141.4390626476
 31
0.0
  0
LINE
  5
417
330
1B
100
AcDbEntity
 67
     1
  8
3_ALL_AXES
  6
Continuous
 62
     7
100
AcDbLine
 10
271.5285924809
 20
136.2321430902
 30
0.0
 11
271.8778721513
 21
136.5252235328
 31
0.0
  0
LINE
  5
418
330
1B
100
AcDbEntity
 67
     1
  8
3_ALL_AXES
  6
Continuous
 62
     7
100
AcDbLine
 10
271.5285924809
 20
141.7321430902
 30
0.0
 11
271.3778721513
 21
141.7321430902
 31
0.0
  0
LINE
  5
419
330
1B
100
AcDbEntity
 67
     1
  8
3_ALL_AXES
  6
Continuous
 62
     7
100
AcDbLine
 10
271.8778721513
 20
141.4390626476
 30
0.0
 11
271.5285924809
 21
141.7321430902
 31
0.0
  0
LINE
  5
41A
330
1B
100
AcDbEntity
 67
     1
  8
3_ALL_AXES
  6
Continuous
 62
     7
100
AcDbLine
 10
271.5285924809
 20
136.2321430902
 30
0.0
 11
271.3778721513
 21
136.2321430902
 31
0.0
  0
LINE
  5
41B
330
1B
100
AcDbEntity
 67
     1
  8
3_ALL_AXES
  6
Continuous
 62
     7
100
AcDbLine
 10
271.8778721513
 20
136.5252235328
 30
0.0
 11
271.5285924809
 21
136.2321430902
 31
0.0
  0
LINE
  5
41C
330
1B
100
AcDbEntity
 67
     1
  8
3_ALL_AXES
  6
Continuous
 62
     7
100
AcDbLine
 10
271.5285924809
 20
141.7321430902
 30
0.0
 11
271.5285924809
 21
136.2321430902
 31
0.0
  0
LINE
  5
41D
330
1B
100
AcDbEntity
 67
     1
  8
3_ALL_AXES
  6
Continuous
 62
     7
100
AcDbLine
 10
271.3778721513
 20
105.3321430902
 30
0.0
 11
271.5285924809
 21
105.3321430902
 31
0.0
  0
LINE
  5
41E
330
1B
100
AcDbEntity
 67
     1
  8
3_ALL_AXES
  6
Continuous
 62
     7
100
AcDbLine
 10
271.3778721513
 20
99.8321430902
 30
0.0
 11
271.5285924809
 21
99.8321430902
 31
0.0
  0
LINE
  5
41F
330
1B
100
AcDbEntity
 67
     1
  8
3_ALL_AXES
  6
Continuous
 62
     7
100
AcDbLine
 10
271.3778721513
 20
105.3321430902
 30
0.0
 11
271.3778721513
 21
99.8321430902
 31
0.0
  0
LINE
  5
420
330
1B
100
AcDbEntity
 67
     1
  8
3_ALL_AXES
  6
Continuous
 62
     7
100
AcDbLine
 10
271.5285924809
 20
105.3321430902
 30
0.0
 11
271.8778721513
 21
105.0390626476
 31
0.0
  0
LINE
  5
421
330
1B
100
AcDbEntity
 67
     1
  8
3_ALL_AXES
  6
Continuous
 62
     7
100
AcDbLine
 10
271.5285924809
 20
99.8321430902
 30
0.0
 11
271.8778721513
 21
100.1252235328
 31
0.0
  0
LINE
  5
422
330
1B
100
AcDbEntity
 67
     1
  8
3_ALL_AXES
  6
Continuous
 62
     7
100
AcDbLine
 10
271.5285924809
 20
105.3321430902
 30
0.0
 11
271.3778721513
 21
105.3321430902
 31
0.0
  0
LINE
  5
423
330
1B
100
AcDbEntity
 67
     1
  8
3_ALL_AXES
  6
Continuous
 62
     7
100
AcDbLine
 10
271.8778721513
 20
105.0390626476
 30
0.0
 11
271.5285924809
 21
105.3321430902
 31
0.0
  0
LINE
  5
424
330
1B
100
AcDbEntity
 67
     1
  8
3_ALL_AXES
  6
Continuous
 62
     7
100
AcDbLine
 10
271.5285924809
 20
99.8321430902
 30
0.0
 11
271.3778721513
 21
99.8321430902
 31
0.0
  0
LINE
  5
425
330
1B
100
AcDbEntity
 67
     1
  8
3_ALL_AXES
  6
Continuous
 62
     7
100
AcDbLine
 10
271.8778721513
 20
100.1252235328
 30
0.0
 11
271.5285924809
 21
99.8321430902
 31
0.0
  0
LINE
  5
426
330
1B
100
AcDbEntity
 67
     1
  8
3_ALL_AXES
  6
Continuous
 62
     7
100
AcDbLine
 10
271.5285924809
 20
105.3321430902
 30
0.0
 11
271.5285924809
 21
99.8321430902
 31
0.0
  0
LINE
  5
427
330
1B
100
AcDbEntity
 67
     1
  8
7_ALL_FEATURES
  6
Continuous
 62
     7
100
AcDbLine
 10
271.8778721513
 20
140.7821430902
 30
0.0
 11
271.8778721513
 21
141.7821430902
 31
0.0
  0
LINE
  5
428
330
1B
100
AcDbEntity
 67
     1
  8
7_ALL_FEATURES
  6
Continuous
 62
     7
100
AcDbLine
 10
271.8778721513
 20
140.7821430902
 30
0.0
 11
271.8778721513
 21
100.7821430902
 31
0.0
  0
LINE
  5
429
330
1B
100
AcDbEntity
 67
     1
  8
7_ALL_FEATURES
  6
Continuous
 62
     7
100
AcDbLine
 10
271.8778721513
 20
99.7821430902
 30
0.0
 11
271.8778721513
 21
100.7821430902
 31
0.0
  0
LINE
  5
42A
330
1B
100
AcDbEntity
 67
     1
  8
7_ALL_FEATURES
  6
Continuous
 62
     7
100
AcDbLine
 10
271.8778721513
 20
141.7821430902
 30
0.0
 11
273.3778721513
 21
141.7821430902
 31
0.0
  0
LINE
  5
42B
330
1B
100
AcDbEntity
 67
     1
  8
7_ALL_FEATURES
  6
Continuous
 62
     7
100
AcDbLine
 10
271.8778721513
 20
99.7821430902
 30
0.0
 11
273.3778721513
 21
99.7821430902
 31
0.0
  0
LINE
  5
42C
330
1B
100
AcDbEntity
 67
     1
  8
7_ALL_FEATURES
  6
Continuous
 62
     7
100
AcDbLine
 10
271.8778721513
 20
141.7821430902
 30
0.0
 11
273.3778721513
 21
141.7821430902
 31
0.0
  0
LINE
  5
42D
330
1B
100
AcDbEntity
 67
     1
  8
7_ALL_FEATURES
  6
Continuous
 62
     9
100
AcDbLine
 10
271.8778721513
 20
100.7821430902
 30
0.0
 11
273.3778721513
 21
100.7821430902
 31
0.0
  0
LINE
  5
42E
330
1B
100
AcDbEntity
 67
     1
  8
7_ALL_FEATURES
  6
Continuous
 62
     9
100
AcDbLine
 10
271.8778721513
 20
140.7821430902
 30
0.0
 11
273.3778721513
 21
140.7821430902
 31
0.0
  0
LINE
  5
42F
330
1B
100
AcDbEntity
 67
     1
  8
7_ALL_FEATURES
  6
Continuous
 62
     7
100
AcDbLine
 10
2286.3778721513
 20
100.7821430902
 30
0.0
 11
2286.3778721513
 21
99.7821430902
 31
0.0
  0
LINE
  5
430
330
1B
100
AcDbEntity
 67
     1
  8
7_ALL_FEATURES
  6
Continuous
 62
     7
100
AcDbLine
 10
2286.3778721513
 20
100.7821430902
 30
0.0
 11
2286.3778721513
 21
140.7821430902
 31
0.0
  0
LINE
  5
431
330
1B
100
AcDbEntity
 67
     1
  8
7_ALL_FEATURES
  6
Continuous
 62
     7
100
AcDbLine
 10
2286.3778721513
 20
141.7821430902
 30
0.0
 11
2286.3778721513
 21
140.7821430902
 31
0.0
  0
LINE
  5
432
330
1B
100
AcDbEntity
 67
     1
  8
7_ALL_FEATURES
  6
Continuous
 62
     7
100
AcDbLine
 10
2286.3778721513
 20
99.7821430902
 30
0.0
 11
2284.8778721513
 21
99.7821430902
 31
0.0
  0
LINE
  5
433
330
1B
100
AcDbEntity
 67
     1
  8
7_ALL_FEATURES
  6
Continuous
 62
     7
100
AcDbLine
 10
2286.3778721513
 20
141.7821430902
 30
0.0
 11
2284.8778721513
 21
141.7821430902
 31
0.0
  0
LINE
  5
434
330
1B
100
AcDbEntity
 67
     1
  8
7_ALL_FEATURES
  6
Continuous
 62
     7
100
AcDbLine
 10
2286.3778721513
 20
99.7821430902
 30
0.0
 11
2284.8778721513
 21
99.7821430902
 31
0.0
  0
LINE
  5
435
330
1B
100
AcDbEntity
 67
     1
  8
7_ALL_FEATURES
  6
Continuous
 62
     9
100
AcDbLine
 10
2286.3778721513
 20
140.7821430902
 30
0.0
 11
2284.8778721513
 21
140.7821430902
 31
0.0
  0
LINE
  5
436
330
1B
100
AcDbEntity
 67
     1
  8
7_ALL_FEATURES
  6
Continuous
 62
     9
100
AcDbLine
 10
2286.3778721513
 20
100.7821430902
 30
0.0
 11
2284.8778721513
 21
100.7821430902
 31
0.0
  0
LINE
  5
437
330
1B
100
AcDbEntity
 67
     1
  8
7_ALL_FEATURES
  6
Continuous
 62
     7
100
AcDbLine
 10
309.3778721513
 20
99.2321430902
 30
0.0
 11
309.3778721513
 21
99.5821430902
 31
0.0
  0
LINE
  5
438
330
1B
100
AcDbEntity
 67
     1
  8
7_ALL_FEATURES
  6
Continuous
 62
     7
100
AcDbLine
 10
434.3778721513
 20
99.2321430902
 30
0.0
 11
434.3778721513
 21
99.5821430902
 31
0.0
  0
LINE
  5
439
330
1B
100
AcDbEntity
 67
     1
  8
7_ALL_FEATURES
  6
Continuous
 62
     7
100
AcDbLine
 10
422.3778721513
 20
74.2321430902
 30
0.0
 11
434.3778721513
 21
97.2321430902
 31
0.0
  0
LINE
  5
43A
330
1B
100
AcDbEntity
 67
     1
  8
7_ALL_FEATURES
  6
Continuous
 62
     7
100
AcDbLine
 10
321.3778721513
 20
74.2321430902
 30
0.0
 11
422.3778721513
 21
74.2321430902
 31
0.0
  0
LINE
  5
43B
330
1B
100
AcDbEntity
 67
     1
  8
7_ALL_FEATURES
  6
Continuous
 62
     7
100
AcDbLine
 10
309.3778721513
 20
97.2321430902
 30
0.0
 11
321.3778721513
 21
74.2321430902
 31
0.0
  0
LINE
  5
43C
330
1B
100
AcDbEntity
 67
     1
  8
7_ALL_FEATURES
  6
Continuous
 62
     7
100
AcDbLine
 10
309.3778721513
 20
98.0321430902
 30
0.0
 11
309.3778721513
 21
97.2321430902
 31
0.0
  0
LINE
  5
43D
330
1B
100
AcDbEntity
 67
     1
  8
7_ALL_FEATURES
  6
Continuous
 62
     7
100
AcDbLine
 10
434.3778721513
 20
97.2321430902
 30
0.0
 11
434.3778721513
 21
98.0321430902
 31
0.0
  0
LINE
  5
43E
330
1B
100
AcDbEntity
 67
     1
  8
7_ALL_FEATURES
  6
Continuous
 62
     7
100
AcDbLine
 10
309.3778721513
 20
98.0321430902
 30
0.0
 11
309.3778721513
 21
98.737485393
 31
0.0
  0
LINE
  5
43F
330
1B
100
AcDbEntity
 67
     1
  8
7_ALL_FEATURES
  6
Continuous
 62
     7
100
AcDbLine
 10
309.3778721513
 20
98.737485393
 30
0.0
 11
309.3778721513
 21
99.2321430902
 31
0.0
  0
LINE
  5
440
330
1B
100
AcDbEntity
 67
     1
  8
7_ALL_FEATURES
  6
Continuous
 62
     7
100
AcDbLine
 10
434.3778721513
 20
99.2321430902
 30
0.0
 11
309.3778721513
 21
99.2321430902
 31
0.0
  0
LINE
  5
441
330
1B
100
AcDbEntity
 67
     1
  8
7_ALL_FEATURES
  6
Continuous
 62
     7
100
AcDbLine
 10
434.3778721513
 20
98.0321430902
 30
0.0
 11
434.3778721513
 21
98.737485393
 31
0.0
  0
LINE
  5
442
330
1B
100
AcDbEntity
 67
     1
  8
7_ALL_FEATURES
  6
Continuous
 62
     7
100
AcDbLine
 10
434.3778721513
 20
98.737485393
 30
0.0
 11
434.3778721513
 21
99.2321430902
 31
0.0
  0
LINE
  5
443
330
1B
100
AcDbEntity
 67
     1
  8
7_ALL_FEATURES
  6
Continuous
 62
     7
100
AcDbLine
 10
434.3778721513
 20
142.3321430902
 30
0.0
 11
434.3778721513
 21
141.9821430902
 31
0.0
  0
LINE
  5
444
330
1B
100
AcDbEntity
 67
     1
  8
7_ALL_FEATURES
  6
Continuous
 62
     7
100
AcDbLine
 10
309.3778721513
 20
142.3321430902
 30
0.0
 11
309.3778721513
 21
141.9821430902
 31
0.0
  0
LINE
  5
445
330
1B
100
AcDbEntity
 67
     1
  8
7_ALL_FEATURES
  6
Continuous
 62
     7
100
AcDbLine
 10
434.3778721513
 20
144.3321430902
 30
0.0
 11
422.3778721513
 21
167.3321430902
 31
0.0
  0
LINE
  5
446
330
1B
100
AcDbEntity
 67
     1
  8
7_ALL_FEATURES
  6
Continuous
 62
     7
100
AcDbLine
 10
434.3778721513
 20
143.5321430902
 30
0.0
 11
434.3778721513
 21
144.3321430902
 31
0.0
  0
LINE
  5
447
330
1B
100
AcDbEntity
 67
     1
  8
7_ALL_FEATURES
  6
Continuous
 62
     7
100
AcDbLine
 10
309.3778721513
 20
144.3321430902
 30
0.0
 11
309.3778721513
 21
143.5321430902
 31
0.0
  0
LINE
  5
448
330
1B
100
AcDbEntity
 67
     1
  8
7_ALL_FEATURES
  6
Continuous
 62
     7
100
AcDbLine
 10
321.3778721513
 20
167.3321430902
 30
0.0
 11
309.3778721513
 21
144.3321430902
 31
0.0
  0
LINE
  5
449
330
1B
100
AcDbEntity
 67
     1
  8
7_ALL_FEATURES
  6
Continuous
 62
     7
100
AcDbLine
 10
422.3778721513
 20
167.3321430902
 30
0.0
 11
321.3778721513
 21
167.3321430902
 31
0.0
  0
LINE
  5
44A
330
1B
100
AcDbEntity
 67
     1
  8
7_ALL_FEATURES
  6
Continuous
 62
     7
100
AcDbLine
 10
434.3778721513
 20
143.5321430902
 30
0.0
 11
434.3778721513
 21
142.8268007875
 31
0.0
  0
LINE
  5
44B
330
1B
100
AcDbEntity
 67
     1
  8
7_ALL_FEATURES
  6
Continuous
 62
     7
100
AcDbLine
 10
434.3778721513
 20
142.8268007875
 30
0.0
 11
434.3778721513
 21
142.3321430902
 31
0.0
  0
LINE
  5
44C
330
1B
100
AcDbEntity
 67
     1
  8
7_ALL_FEATURES
  6
Continuous
 62
     7
100
AcDbLine
 10
309.3778721513
 20
142.3321430902
 30
0.0
 11
434.3778721513
 21
142.3321430902
 31
0.0
  0
LINE
  5
44D
330
1B
100
AcDbEntity
 67
     1
  8
7_ALL_FEATURES
  6
Continuous
 62
     7
100
AcDbLine
 10
309.3778721513
 20
143.5321430902
 30
0.0
 11
309.3778721513
 21
142.8268007875
 31
0.0
  0
LINE
  5
44E
330
1B
100
AcDbEntity
 67
     1
  8
7_ALL_FEATURES
  6
Continuous
 62
     7
100
AcDbLine
 10
309.3778721513
 20
142.8268007875
 30
0.0
 11
309.3778721513
 21
142.3321430902
 31
0.0
  0
LINE
  5
44F
330
1B
100
AcDbEntity
 67
     1
  8
7_ALL_FEATURES
  6
Continuous
 62
     9
100
AcDbLine
 10
434.3778721513
 20
98.0321430902
 30
0.0
 11
309.3778721513
 21
98.0321430902
 31
0.0
  0
LINE
  5
450
330
1B
100
AcDbEntity
 67
     1
  8
7_ALL_FEATURES
  6
Continuous
 62
     9
100
AcDbLine
 10
309.3778721513
 20
143.5321430902
 30
0.0
 11
434.3778721513
 21
143.5321430902
 31
0.0
  0
LINE
  5
451
330
1B
100
AcDbEntity
 67
     1
  8
7_ALL_FEATURES
  6
Continuous
 62
     7
100
AcDbLine
 10
1209.3778721513
 20
99.2321430902
 30
0.0
 11
1209.3778721513
 21
99.5821430902
 31
0.0
  0
LINE
  5
452
330
1B
100
AcDbEntity
 67
     1
  8
7_ALL_FEATURES
  6
Continuous
 62
     7
100
AcDbLine
 10
1334.3778721513
 20
99.2321430902
 30
0.0
 11
1334.3778721513
 21
99.5821430902
 31
0.0
  0
LINE
  5
453
330
1B
100
AcDbEntity
 67
     1
  8
7_ALL_FEATURES
  6
Continuous
 62
     7
100
AcDbLine
 10
1322.3778721513
 20
74.2321430902
 30
0.0
 11
1334.3778721513
 21
97.2321430902
 31
0.0
  0
LINE
  5
454
330
1B
100
AcDbEntity
 67
     1
  8
7_ALL_FEATURES
  6
Continuous
 62
     7
100
AcDbLine
 10
1221.3778721513
 20
74.2321430902
 30
0.0
 11
1322.3778721513
 21
74.2321430902
 31
0.0
  0
LINE
  5
455
330
1B
100
AcDbEntity
 67
     1
  8
7_ALL_FEATURES
  6
Continuous
 62
     7
100
AcDbLine
 10
1209.3778721513
 20
97.2321430902
 30
0.0
 11
1221.3778721513
 21
74.2321430902
 31
0.0
  0
LINE
  5
456
330
1B
100
AcDbEntity
 67
     1
  8
7_ALL_FEATURES
  6
Continuous
 62
     7
100
AcDbLine
 10
1209.3778721513
 20
98.0321430902
 30
0.0
 11
1209.3778721513
 21
97.2321430902
 31
0.0
  0
LINE
  5
457
330
1B
100
AcDbEntity
 67
     1
  8
7_ALL_FEATURES
  6
Continuous
 62
     7
100
AcDbLine
 10
1334.3778721513
 20
97.2321430902
 30
0.0
 11
1334.3778721513
 21
98.0321430902
 31
0.0
  0
LINE
  5
458
330
1B
100
AcDbEntity
 67
     1
  8
7_ALL_FEATURES
  6
Continuous
 62
     7
100
AcDbLine
 10
1209.3778721513
 20
98.0321430902
 30
0.0
 11
1209.3778721513
 21
98.737485393
 31
0.0
  0
LINE
  5
459
330
1B
100
AcDbEntity
 67
     1
  8
7_ALL_FEATURES
  6
Continuous
 62
     7
100
AcDbLine
 10
1209.3778721513
 20
98.737485393
 30
0.0
 11
1209.3778721513
 21
99.2321430902
 31
0.0
  0
LINE
  5
45A
330
1B
100
AcDbEntity
 67
     1
  8
7_ALL_FEATURES
  6
Continuous
 62
     7
100
AcDbLine
 10
1334.3778721513
 20
99.2321430902
 30
0.0
 11
1209.3778721513
 21
99.2321430902
 31
0.0
  0
LINE
  5
45B
330
1B
100
AcDbEntity
 67
     1
  8
7_ALL_FEATURES
  6
Continuous
 62
     7
100
AcDbLine
 10
1334.3778721513
 20
98.0321430902
 30
0.0
 11
1334.3778721513
 21
98.737485393
 31
0.0
  0
LINE
  5
45C
330
1B
100
AcDbEntity
 67
     1
  8
7_ALL_FEATURES
  6
Continuous
 62
     7
100
AcDbLine
 10
1334.3778721513
 20
98.737485393
 30
0.0
 11
1334.3778721513
 21
99.2321430902
 31
0.0
  0
LINE
  5
45D
330
1B
100
AcDbEntity
 67
     1
  8
7_ALL_FEATURES
  6
Continuous
 62
     7
100
AcDbLine
 10
1334.3778721513
 20
142.3321430902
 30
0.0
 11
1334.3778721513
 21
141.9821430902
 31
0.0
  0
LINE
  5
45E
330
1B
100
AcDbEntity
 67
     1
  8
7_ALL_FEATURES
  6
Continuous
 62
     7
100
AcDbLine
 10
1209.3778721513
 20
142.3321430902
 30
0.0
 11
1209.3778721513
 21
141.9821430902
 31
0.0
  0
LINE
  5
45F
330
1B
100
AcDbEntity
 67
     1
  8
7_ALL_FEATURES
  6
Continuous
 62
     7
100
AcDbLine
 10
1334.3778721513
 20
144.3321430902
 30
0.0
 11
1322.3778721513
 21
167.3321430902
 31
0.0
  0
LINE
  5
460
330
1B
100
AcDbEntity
 67
     1
  8
7_ALL_FEATURES
  6
Continuous
 62
     7
100
AcDbLine
 10
1334.3778721513
 20
143.5321430902
 30
0.0
 11
1334.3778721513
 21
144.3321430902
 31
0.0
  0
LINE
  5
461
330
1B
100
AcDbEntity
 67
     1
  8
7_ALL_FEATURES
  6
Continuous
 62
     7
100
AcDbLine
 10
1209.3778721513
 20
144.3321430902
 30
0.0
 11
1209.3778721513
 21
143.5321430902
 31
0.0
  0
LINE
  5
462
330
1B
100
AcDbEntity
 67
     1
  8
7_ALL_FEATURES
  6
Continuous
 62
     7
100
AcDbLine
 10
1221.3778721513
 20
167.3321430902
 30
0.0
 11
1209.3778721513
 21
144.3321430902
 31
0.0
  0
LINE
  5
463
330
1B
100
AcDbEntity
 67
     1
  8
7_ALL_FEATURES
  6
Continuous
 62
     7
100
AcDbLine
 10
1322.3778721513
 20
167.3321430902
 30
0.0
 11
1221.3778721513
 21
167.3321430902
 31
0.0
  0
LINE
  5
464
330
1B
100
AcDbEntity
 67
     1
  8
7_ALL_FEATURES
  6
Continuous
 62
     7
100
AcDbLine
 10
1334.3778721513
 20
143.5321430902
 30
0.0
 11
1334.3778721513
 21
142.8268007875
 31
0.0
  0
LINE
  5
465
330
1B
100
AcDbEntity
 67
     1
  8
7_ALL_FEATURES
  6
Continuous
 62
     7
100
AcDbLine
 10
1334.3778721513
 20
142.8268007875
 30
0.0
 11
1334.3778721513
 21
142.3321430902
 31
0.0
  0
LINE
  5
466
330
1B
100
AcDbEntity
 67
     1
  8
7_ALL_FEATURES
  6
Continuous
 62
     7
100
AcDbLine
 10
1209.3778721513
 20
142.3321430902
 30
0.0
 11
1334.3778721513
 21
142.3321430902
 31
0.0
  0
LINE
  5
467
330
1B
100
AcDbEntity
 67
     1
  8
7_ALL_FEATURES
  6
Continuous
 62
     7
100
AcDbLine
 10
1209.3778721513
 20
143.5321430902
 30
0.0
 11
1209.3778721513
 21
142.8268007875
 31
0.0
  0
LINE
  5
468
330
1B
100
AcDbEntity
 67
     1
  8
7_ALL_FEATURES
  6
Continuous
 62
     7
100
AcDbLine
 10
1209.3778721513
 20
142.8268007875
 30
0.0
 11
1209.3778721513
 21
142.3321430902
 31
0.0
  0
LINE
  5
469
330
1B
100
AcDbEntity
 67
     1
  8
7_ALL_FEATURES
  6
Continuous
 62
     9
100
AcDbLine
 10
1334.3778721513
 20
98.0321430902
 30
0.0
 11
1209.3778721513
 21
98.0321430902
 31
0.0
  0
LINE
  5
46A
330
1B
100
AcDbEntity
 67
     1
  8
7_ALL_FEATURES
  6
Continuous
 62
     9
100
AcDbLine
 10
1209.3778721513
 20
143.5321430902
 30
0.0
 11
1334.3778721513
 21
143.5321430902
 31
0.0
  0
LINE
  5
46B
330
1B
100
AcDbEntity
 67
     1
  8
7_ALL_FEATURES
  6
Continuous
 62
     7
100
AcDbLine
 10
2109.3778721513
 20
99.2321430902
 30
0.0
 11
2109.3778721513
 21
99.5821430902
 31
0.0
  0
LINE
  5
46C
330
1B
100
AcDbEntity
 67
     1
  8
7_ALL_FEATURES
  6
Continuous
 62
     7
100
AcDbLine
 10
2234.3778721513
 20
99.2321430902
 30
0.0
 11
2234.3778721513
 21
99.5821430902
 31
0.0
  0
LINE
  5
46D
330
1B
100
AcDbEntity
 67
     1
  8
7_ALL_FEATURES
  6
Continuous
 62
     7
100
AcDbLine
 10
2222.3778721513
 20
74.2321430902
 30
0.0
 11
2234.3778721513
 21
97.2321430902
 31
0.0
  0
LINE
  5
46E
330
1B
100
AcDbEntity
 67
     1
  8
7_ALL_FEATURES
  6
Continuous
 62
     7
100
AcDbLine
 10
2121.3778721513
 20
74.2321430902
 30
0.0
 11
2222.3778721513
 21
74.2321430902
 31
0.0
  0
LINE
  5
46F
330
1B
100
AcDbEntity
 67
     1
  8
7_ALL_FEATURES
  6
Continuous
 62
     7
100
AcDbLine
 10
2109.3778721513
 20
97.2321430902
 30
0.0
 11
2121.3778721513
 21
74.2321430902
 31
0.0
  0
LINE
  5
470
330
1B
100
AcDbEntity
 67
     1
  8
7_ALL_FEATURES
  6
Continuous
 62
     7
100
AcDbLine
 10
2109.3778721513
 20
98.0321430902
 30
0.0
 11
2109.3778721513
 21
97.2321430902
 31
0.0
  0
LINE
  5
471
330
1B
100
AcDbEntity
 67
     1
  8
7_ALL_FEATURES
  6
Continuous
 62
     7
100
AcDbLine
 10
2234.3778721513
 20
97.2321430902
 30
0.0
 11
2234.3778721513
 21
98.0321430902
 31
0.0
  0
LINE
  5
472
330
1B
100
AcDbEntity
 67
     1
  8
7_ALL_FEATURES
  6
Continuous
 62
     7
100
AcDbLine
 10
2109.3778721513
 20
98.0321430902
 30
0.0
 11
2109.3778721513
 21
98.737485393
 31
0.0
  0
LINE
  5
473
330
1B
100
AcDbEntity
 67
     1
  8
7_ALL_FEATURES
  6
Continuous
 62
     7
100
AcDbLine
 10
2109.3778721513
 20
98.737485393
 30
0.0
 11
2109.3778721513
 21
99.2321430902
 31
0.0
  0
LINE
  5
474
330
1B
100
AcDbEntity
 67
     1
  8
7_ALL_FEATURES
  6
Continuous
 62
     7
100
AcDbLine
 10
2234.3778721513
 20
99.2321430902
 30
0.0
 11
2109.3778721513
 21
99.2321430902
 31
0.0
  0
LINE
  5
475
330
1B
100
AcDbEntity
 67
     1
  8
7_ALL_FEATURES
  6
Continuous
 62
     7
100
AcDbLine
 10
2234.3778721513
 20
98.0321430902
 30
0.0
 11
2234.3778721513
 21
98.737485393
 31
0.0
  0
LINE
  5
476
330
1B
100
AcDbEntity
 67
     1
  8
7_ALL_FEATURES
  6
Continuous
 62
     7
100
AcDbLine
 10
2234.3778721513
 20
98.737485393
 30
0.0
 11
2234.3778721513
 21
99.2321430902
 31
0.0
  0
LINE
  5
477
330
1B
100
AcDbEntity
 67
     1
  8
7_ALL_FEATURES
  6
Continuous
 62
     7
100
AcDbLine
 10
2234.3778721513
 20
142.3321430902
 30
0.0
 11
2234.3778721513
 21
141.9821430902
 31
0.0
  0
LINE
  5
478
330
1B
100
AcDbEntity
 67
     1
  8
7_ALL_FEATURES
  6
Continuous
 62
     7
100
AcDbLine
 10
2109.3778721513
 20
142.3321430902
 30
0.0
 11
2109.3778721513
 21
141.9821430902
 31
0.0
  0
LINE
  5
479
330
1B
100
AcDbEntity
 67
     1
  8
7_ALL_FEATURES
  6
Continuous
 62
     7
100
AcDbLine
 10
2234.3778721513
 20
144.3321430902
 30
0.0
 11
2222.3778721513
 21
167.3321430902
 31
0.0
  0
LINE
  5
47A
330
1B
100
AcDbEntity
 67
     1
  8
7_ALL_FEATURES
  6
Continuous
 62
     7
100
AcDbLine
 10
2234.3778721513
 20
143.5321430902
 30
0.0
 11
2234.3778721513
 21
144.3321430902
 31
0.0
  0
LINE
  5
47B
330
1B
100
AcDbEntity
 67
     1
  8
7_ALL_FEATURES
  6
Continuous
 62
     7
100
AcDbLine
 10
2109.3778721513
 20
144.3321430902
 30
0.0
 11
2109.3778721513
 21
143.5321430902
 31
0.0
  0
LINE
  5
47C
330
1B
100
AcDbEntity
 67
     1
  8
7_ALL_FEATURES
  6
Continuous
 62
     7
100
AcDbLine
 10
2121.3778721513
 20
167.3321430902
 30
0.0
 11
2109.3778721513
 21
144.3321430902
 31
0.0
  0
LINE
  5
47D
330
1B
100
AcDbEntity
 67
     1
  8
7_ALL_FEATURES
  6
Continuous
 62
     7
100
AcDbLine
 10
2222.3778721513
 20
167.3321430902
 30
0.0
 11
2121.3778721513
 21
167.3321430902
 31
0.0
  0
LINE
  5
47E
330
1B
100
AcDbEntity
 67
     1
  8
7_ALL_FEATURES
  6
Continuous
 62
     7
100
AcDbLine
 10
2234.3778721513
 20
143.5321430902
 30
0.0
 11
2234.3778721513
 21
142.8268007875
 31
0.0
  0
LINE
  5
47F
330
1B
100
AcDbEntity
 67
     1
  8
7_ALL_FEATURES
  6
Continuous
 62
     7
100
AcDbLine
 10
2234.3778721513
 20
142.8268007875
 30
0.0
 11
2234.3778721513
 21
142.3321430902
 31
0.0
  0
LINE
  5
480
330
1B
100
AcDbEntity
 67
     1
  8
7_ALL_FEATURES
  6
Continuous
 62
     7
100
AcDbLine
 10
2109.3778721513
 20
142.3321430902
 30
0.0
 11
2234.3778721513
 21
142.3321430902
 31
0.0
  0
LINE
  5
481
330
1B
100
AcDbEntity
 67
     1
  8
7_ALL_FEATURES
  6
Continuous
 62
     7
100
AcDbLine
 10
2109.3778721513
 20
143.5321430902
 30
0.0
 11
2109.3778721513
 21
142.8268007875
 31
0.0
  0
LINE
  5
482
330
1B
100
AcDbEntity
 67
     1
  8
7_ALL_FEATURES
  6
Continuous
 62
     7
100
AcDbLine
 10
2109.3778721513
 20
142.8268007875
 30
0.0
 11
2109.3778721513
 21
142.3321430902
 31
0.0
  0
LINE
  5
483
330
1B
100
AcDbEntity
 67
     1
  8
7_ALL_FEATURES
  6
Continuous
 62
     9
100
AcDbLine
 10
2234.3778721513
 20
98.0321430902
 30
0.0
 11
2109.3778721513
 21
98.0321430902
 31
0.0
  0
LINE
  5
484
330
1B
100
AcDbEntity
 67
     1
  8
7_ALL_FEATURES
  6
Continuous
 62
     9
100
AcDbLine
 10
2109.3778721513
 20
143.5321430902
 30
0.0
 11
2234.3778721513
 21
143.5321430902
 31
0.0
  0
LINE
  5
485
330
1B
100
AcDbEntity
 67
     1
  8
7_ALL_FEATURES
  6
Continuous
 62
     7
100
AcDbLine
 10
273.3778721513
 20
101.4821430902
 30
0.0
 11
273.3778721513
 21
101.7821430902
 31
0.0
  0
LINE
  5
486
330
1B
100
AcDbEntity
 67
     1
  8
7_ALL_FEATURES
  6
Continuous
 62
     7
100
AcDbLine
 10
273.3778721513
 20
101.4821430902
 30
0.0
 11
273.3778721513
 21
100.7821430902
 31
0.0
  0
LINE
  5
487
330
1B
100
AcDbEntity
 67
     1
  8
7_ALL_FEATURES
  6
Continuous
 62
     7
100
AcDbLine
 10
273.3778721513
 20
100.7821430902
 30
0.0
 11
273.3778721513
 21
100.5952360291
 31
0.0
  0
LINE
  5
488
330
1B
100
AcDbEntity
 67
     1
  8
7_ALL_FEATURES
  6
Continuous
 62
     7
100
AcDbLine
 10
273.3778721513
 20
100.3926901855
 30
0.0
 11
273.3778721513
 21
100.5952360291
 31
0.0
  0
LINE
  5
489
330
1B
100
AcDbEntity
 67
     1
  8
7_ALL_FEATURES
  6
Continuous
 62
     7
100
AcDbLine
 10
273.3778721513
 20
99.7821430902
 30
0.0
 11
273.3778721513
 21
99.6463066299
 31
0.0
  0
LINE
  5
48A
330
1B
100
AcDbEntity
 67
     1
  8
7_ALL_FEATURES
  6
Continuous
 62
     7
100
AcDbLine
 10
273.3778721513
 20
99.5821430902
 30
0.0
 11
273.3778721513
 21
99.6463066299
 31
0.0
  0
LINE
  5
48B
330
1B
100
AcDbEntity
 67
     1
  8
7_ALL_FEATURES
  6
Continuous
 62
     7
100
AcDbLine
 10
2284.8778721513
 20
139.7821430902
 30
0.0
 11
273.3778721513
 21
139.7821430902
 31
0.0
  0
LINE
  5
48C
330
1B
100
AcDbEntity
 67
     1
  8
7_ALL_FEATURES
  6
Continuous
 62
     7
100
AcDbLine
 10
2284.8778721513
 20
101.7821430902
 30
0.0
 11
273.3778721513
 21
101.7821430902
 31
0.0
  0
LINE
  5
48D
330
1B
100
AcDbEntity
 67
     1
  8
7_ALL_FEATURES
  6
Continuous
 62
     7
100
AcDbLine
 10
273.3778721513
 20
141.9179795505
 30
0.0
 11
273.3778721513
 21
141.9821430902
 31
0.0
  0
LINE
  5
48E
330
1B
100
AcDbEntity
 67
     1
  8
7_ALL_FEATURES
  6
Continuous
 62
     7
100
AcDbLine
 10
273.3778721513
 20
141.9179795505
 30
0.0
 11
273.3778721513
 21
141.7821430902
 31
0.0
  0
LINE
  5
48F
330
1B
100
AcDbEntity
 67
     1
  8
7_ALL_FEATURES
  6
Continuous
 62
     7
100
AcDbLine
 10
273.3778721513
 20
140.9690501513
 30
0.0
 11
273.3778721513
 21
141.1715959949
 31
0.0
  0
LINE
  5
490
330
1B
100
AcDbEntity
 67
     1
  8
7_ALL_FEATURES
  6
Continuous
 62
     7
100
AcDbLine
 10
273.3778721513
 20
141.1715959949
 30
0.0
 11
273.3778721513
 21
141.2664836097
 31
0.0
  0
LINE
  5
491
330
1B
100
AcDbEntity
 67
     1
  8
7_ALL_FEATURES
  6
Continuous
 62
     7
100
AcDbLine
 10
273.3778721513
 20
140.9690501513
 30
0.0
 11
273.3778721513
 21
140.7821430902
 31
0.0
  0
LINE
  5
492
330
1B
100
AcDbEntity
 67
     1
  8
7_ALL_FEATURES
  6
Continuous
 62
     7
100
AcDbLine
 10
273.3778721513
 20
140.7821430902
 30
0.0
 11
273.3778721513
 21
140.0821430902
 31
0.0
  0
ARC
  5
493
330
1B
100
AcDbEntity
 67
     1
  8
02___PRT_ALL_AXES
  6
Continuous
 62
     7
100
AcDbCircle
 10
2274.8778721513
 20
120.7821430902
 30
0.0
 40
5.0
100
AcDbArc
 50
90.0
 51
270.0
  0
ARC
  5
494
330
1B
100
AcDbEntity
 67
     1
  8
02___PRT_ALL_AXES
  6
Continuous
 62
     7
100
AcDbCircle
 10
2274.8778721513
 20
120.7821430902
 30
0.0
 40
5.0
100
AcDbArc
 50
270.0
 51
90.0
  0
LINE
  5
495
330
1B
100
AcDbEntity
 67
     1
  8
7_ALL_FEATURES
  6
Continuous
 62
     7
100
AcDbLine
 10
2284.8778721513
 20
140.0821430902
 30
0.0
 11
2284.8778721513
 21
139.7821430902
 31
0.0
  0
LINE
  5
496
330
1B
100
AcDbEntity
 67
     1
  8
7_ALL_FEATURES
  6
Continuous
 62
     7
100
AcDbLine
 10
2284.8778721513
 20
140.9690501513
 30
0.0
 11
2284.8778721513
 21
140.7821430902
 31
0.0
  0
LINE
  5
497
330
1B
100
AcDbEntity
 67
     1
  8
7_ALL_FEATURES
  6
Continuous
 62
     7
100
AcDbLine
 10
2284.8778721513
 20
140.7821430902
 30
0.0
 11
2284.8778721513
 21
140.0821430902
 31
0.0
  0
LINE
  5
498
330
1B
100
AcDbEntity
 67
     1
  8
7_ALL_FEATURES
  6
Continuous
 62
     7
100
AcDbLine
 10
2284.8778721513
 20
141.1715959949
 30
0.0
 11
2284.8778721513
 21
140.9690501513
 31
0.0
  0
LINE
  5
499
330
1B
100
AcDbEntity
 67
     1
  8
7_ALL_FEATURES
  6
Continuous
 62
     7
100
AcDbLine
 10
2284.8778721513
 20
141.9179795505
 30
0.0
 11
2284.8778721513
 21
141.7821430902
 31
0.0
  0
LINE
  5
49A
330
1B
100
AcDbEntity
 67
     1
  8
7_ALL_FEATURES
  6
Continuous
 62
     7
100
AcDbLine
 10
2284.8778721513
 20
141.9821430902
 30
0.0
 11
2284.8778721513
 21
141.9179795505
 31
0.0
  0
LINE
  5
49B
330
1B
100
AcDbEntity
 67
     1
  8
7_ALL_FEATURES
  6
Continuous
 62
     7
100
AcDbLine
 10
2284.8778721513
 20
99.6463066299
 30
0.0
 11
2284.8778721513
 21
99.5821430902
 31
0.0
  0
LINE
  5
49C
330
1B
100
AcDbEntity
 67
     1
  8
7_ALL_FEATURES
  6
Continuous
 62
     7
100
AcDbLine
 10
2284.8778721513
 20
99.7821430902
 30
0.0
 11
2284.8778721513
 21
99.6463066299
 31
0.0
  0
LINE
  5
49D
330
1B
100
AcDbEntity
 67
     1
  8
7_ALL_FEATURES
  6
Continuous
 62
     7
100
AcDbLine
 10
2284.8778721513
 20
100.5952360291
 30
0.0
 11
2284.8778721513
 21
100.3926901855
 31
0.0
  0
LINE
  5
49E
330
1B
100
AcDbEntity
 67
     1
  8
7_ALL_FEATURES
  6
Continuous
 62
     7
100
AcDbLine
 10
2284.8778721513
 20
100.3926901855
 30
0.0
 11
2284.8778721513
 21
100.2978025707
 31
0.0
  0
LINE
  5
49F
330
1B
100
AcDbEntity
 67
     1
  8
7_ALL_FEATURES
  6
Continuous
 62
     7
100
AcDbLine
 10
2284.8778721513
 20
101.4821430902
 30
0.0
 11
2284.8778721513
 21
100.7821430902
 31
0.0
  0
LINE
  5
4A0
330
1B
100
AcDbEntity
 67
     1
  8
7_ALL_FEATURES
  6
Continuous
 62
     7
100
AcDbLine
 10
2284.8778721513
 20
100.7821430902
 30
0.0
 11
2284.8778721513
 21
100.5952360291
 31
0.0
  0
LINE
  5
4A1
330
1B
100
AcDbEntity
 67
     1
  8
7_ALL_FEATURES
  6
Continuous
 62
     7
100
AcDbLine
 10
2284.8778721513
 20
139.7821430902
 30
0.0
 11
273.3778721513
 21
139.7821430902
 31
0.0
  0
LINE
  5
4A2
330
1B
100
AcDbEntity
 67
     1
  8
7_ALL_FEATURES
  6
Continuous
 62
     7
100
AcDbLine
 10
2284.8778721513
 20
141.9821430902
 30
0.0
 11
273.3778721513
 21
141.9821430902
 31
0.0
  0
LINE
  5
4A3
330
1B
100
AcDbEntity
 67
     1
  8
7_ALL_FEATURES
  6
Continuous
 62
     7
100
AcDbLine
 10
2284.8778721513
 20
99.5821430902
 30
0.0
 11
273.3778721513
 21
99.5821430902
 31
0.0
  0
LINE
  5
4A4
330
1B
100
AcDbEntity
 67
     1
  8
7_ALL_FEATURES
  6
Continuous
 62
     7
100
AcDbLine
 10
2284.8778721513
 20
101.7821430902
 30
0.0
 11
273.3778721513
 21
101.7821430902
 31
0.0
  0
LINE
  5
4A5
330
1B
100
AcDbEntity
 67
     1
  8
7_ALL_FEATURES
  6
Continuous
 62
     9
100
AcDbLine
 10
273.3778721513
 20
102.398168494
 30
0.0
 11
2284.8778721513
 21
102.398168494
 31
0.0
  0
LINE
  5
4A6
330
1B
100
AcDbEntity
 67
     1
  8
7_ALL_FEATURES
  6
Continuous
 62
     9
100
AcDbLine
 10
2284.8778721513
 20
140.9690501513
 30
0.0
 11
273.3778721513
 21
140.9690501513
 31
0.0
  0
LINE
  5
4A7
330
1B
100
AcDbEntity
 67
     1
  8
7_ALL_FEATURES
  6
Continuous
 62
     9
100
AcDbLine
 10
2284.8778721513
 20
140.0821430902
 30
0.0
 11
273.3778721513
 21
140.0821430902
 31
0.0
  0
LINE
  5
4A8
330
1B
100
AcDbEntity
 67
     1
  8
7_ALL_FEATURES
  6
Continuous
 62
     9
100
AcDbLine
 10
2284.8778721513
 20
141.9179795505
 30
0.0
 11
273.3778721513
 21
141.9179795505
 31
0.0
  0
LINE
  5
4A9
330
1B
100
AcDbEntity
 67
     1
  8
7_ALL_FEATURES
  6
Continuous
 62
     9
100
AcDbLine
 10
2284.8778721513
 20
141.2664836097
 30
0.0
 11
273.3778721513
 21
141.2664836097
 31
0.0
  0
LINE
  5
4AA
330
1B
100
AcDbEntity
 67
     1
  8
7_ALL_FEATURES
  6
Continuous
 62
     9
100
AcDbLine
 10
2284.8778721513
 20
103.5517583325
 30
0.0
 11
273.3778721513
 21
103.5517583325
 31
0.0
  0
LINE
  5
4AB
330
1B
100
AcDbEntity
 67
     1
  8
7_ALL_FEATURES
  6
Continuous
 62
     9
100
AcDbLine
 10
2270.3072634791
 20
122.8063713382
 30
0.0
 11
2279.4484808235
 21
122.8063713382
 31
0.0
  0
LINE
  5
4AC
330
1B
100
AcDbEntity
 67
     1
  8
7_ALL_FEATURES
  6
Continuous
 62
     9
100
AcDbLine
 10
2270.1150405472
 20
122.3003142762
 30
0.0
 11
2279.6407037554
 21
122.3003142762
 31
0.0
  0
LINE
  5
4AD
330
1B
100
AcDbEntity
 67
     1
  8
7_ALL_FEATURES
  6
Continuous
 62
     9
100
AcDbLine
 10
2270.1150405472
 20
119.2639719042
 30
0.0
 11
2279.6407037554
 21
119.2639719042
 31
0.0
  0
LINE
  5
4AE
330
1B
100
AcDbEntity
 67
     1
  8
7_ALL_FEATURES
  6
Continuous
 62
     9
100
AcDbLine
 10
2270.3072634791
 20
118.7579148422
 30
0.0
 11
2279.4484808235
 21
118.7579148422
 31
0.0
  0
LINE
  5
4AF
330
1B
100
AcDbEntity
 67
     1
  8
7_ALL_FEATURES
  6
Continuous
 62
     9
100
AcDbLine
 10
273.3778721513
 20
102.148168494
 30
0.0
 11
2284.8778721513
 21
102.148168494
 31
0.0
  0
LINE
  5
4B0
330
1B
100
AcDbEntity
 67
     1
  8
7_ALL_FEATURES
  6
Continuous
 62
     9
100
AcDbLine
 10
2284.8778721513
 20
137.762527848
 30
0.0
 11
273.3778721513
 21
137.762527848
 31
0.0
  0
LINE
  5
4B1
330
1B
100
AcDbEntity
 67
     1
  8
7_ALL_FEATURES
  6
Continuous
 62
     9
100
AcDbLine
 10
2284.8778721513
 20
103.8017583325
 30
0.0
 11
273.3778721513
 21
103.8017583325
 31
0.0
  0
LINE
  5
4B2
330
1B
100
AcDbEntity
 67
     1
  8
7_ALL_FEATURES
  6
Continuous
 62
     9
100
AcDbLine
 10
273.3778721513
 20
139.1661176864
 30
0.0
 11
2284.8778721513
 21
139.1661176864
 31
0.0
  0
LINE
  5
4B3
330
1B
100
AcDbEntity
 67
     1
  8
7_ALL_FEATURES
  6
Continuous
 62
     9
100
AcDbLine
 10
2284.8778721513
 20
138.012527848
 30
0.0
 11
273.3778721513
 21
138.012527848
 31
0.0
  0
LINE
  5
4B4
330
1B
100
AcDbEntity
 67
     1
  8
7_ALL_FEATURES
  6
Continuous
 62
     9
100
AcDbLine
 10
273.3778721513
 20
139.4161176864
 30
0.0
 11
2284.8778721513
 21
139.4161176864
 31
0.0
  0
LINE
  5
4B5
330
1B
100
AcDbEntity
 67
     1
  8
7_ALL_FEATURES
  6
Continuous
 62
     9
100
AcDbLine
 10
2284.8778721513
 20
101.4821430902
 30
0.0
 11
273.3778721513
 21
101.4821430902
 31
0.0
  0
LINE
  5
4B6
330
1B
100
AcDbEntity
 67
     1
  8
7_ALL_FEATURES
  6
Continuous
 62
     9
100
AcDbLine
 10
2284.8778721513
 20
100.5952360291
 30
0.0
 11
273.3778721513
 21
100.5952360291
 31
0.0
  0
LINE
  5
4B7
330
1B
100
AcDbEntity
 67
     1
  8
7_ALL_FEATURES
  6
Continuous
 62
     9
100
AcDbLine
 10
2284.8778721513
 20
100.2978025707
 30
0.0
 11
273.3778721513
 21
100.2978025707
 31
0.0
  0
LINE
  5
4B8
330
1B
100
AcDbEntity
 67
     1
  8
7_ALL_FEATURES
  6
Continuous
 62
     9
100
AcDbLine
 10
2284.8778721513
 20
99.6463066299
 30
0.0
 11
273.3778721513
 21
99.6463066299
 31
0.0
  0
LINE
  5
4B9
330
1B
100
AcDbEntity
 67
     1
  8
7_ALL_FEATURES
  6
Continuous
 62
     3
100
AcDbLine
 10
273.3778721513
 20
100.392366718
 30
0.0
 11
273.3778721513
 21
100.1084474466
 31
0.0
  0
LINE
  5
4BA
330
1B
100
AcDbEntity
 67
     1
  8
7_ALL_FEATURES
  6
Continuous
 62
     3
100
AcDbLine
 10
273.3778721513
 20
100.1084474466
 30
0.0
 11
273.3778721513
 21
99.7821430902
 31
0.0
  0
LINE
  5
4BB
330
1B
100
AcDbEntity
 67
     1
  8
7_ALL_FEATURES
  6
Continuous
 62
     3
100
AcDbLine
 10
273.3778721513
 20
140.7821430902
 30
0.0
 11
273.3778721513
 21
140.0821430902
 31
0.0
  0
LINE
  5
4BC
330
1B
100
AcDbEntity
 67
     1
  8
7_ALL_FEATURES
  6
Continuous
 62
     3
100
AcDbLine
 10
273.3778721513
 20
140.0821430902
 30
0.0
 11
273.3778721513
 21
139.7821430902
 31
0.0
  0
LINE
  5
4BD
330
1B
100
AcDbEntity
 67
     1
  8
7_ALL_FEATURES
  6
Continuous
 62
     3
100
AcDbLine
 10
273.3778721513
 20
139.7821430902
 30
0.0
 11
273.3778721513
 21
101.7821430902
 31
0.0
  0
LINE
  5
4BE
330
1B
100
AcDbEntity
 67
     1
  8
7_ALL_FEATURES
  6
Continuous
 62
     3
100
AcDbLine
 10
273.3778721513
 20
101.7821430902
 30
0.0
 11
273.3778721513
 21
101.4821430902
 31
0.0
  0
LINE
  5
4BF
330
1B
100
AcDbEntity
 67
     1
  8
7_ALL_FEATURES
  6
Continuous
 62
     3
100
AcDbLine
 10
273.3778721513
 20
101.4821430902
 30
0.0
 11
273.3778721513
 21
100.7821430902
 31
0.0
  0
LINE
  5
4C0
330
1B
100
AcDbEntity
 67
     1
  8
7_ALL_FEATURES
  6
Continuous
 62
     3
100
AcDbLine
 10
273.3778721513
 20
141.7821430902
 30
0.0
 11
273.3778721513
 21
141.4558387339
 31
0.0
  0
LINE
  5
4C1
330
1B
100
AcDbEntity
 67
     1
  8
7_ALL_FEATURES
  6
Continuous
 62
     3
100
AcDbLine
 10
273.3778721513
 20
141.4558387339
 30
0.0
 11
273.3778721513
 21
141.1719194624
 31
0.0
  0
LINE
  5
4C2
330
1B
100
AcDbEntity
 67
     1
  8
7_ALL_FEATURES
  6
Continuous
 62
     3
100
AcDbLine
 10
273.3778721513
 20
140.8129866768
 30
0.0
 11
273.3778721513
 21
140.7821430902
 31
0.0
  0
LINE
  5
4C3
330
1B
100
AcDbEntity
 67
     1
  8
7_ALL_FEATURES
  6
Continuous
 62
     3
100
AcDbLine
 10
2284.8778721513
 20
141.1719194624
 30
0.0
 11
2284.8778721513
 21
141.4558387339
 31
0.0
  0
LINE
  5
4C4
330
1B
100
AcDbEntity
 67
     1
  8
7_ALL_FEATURES
  6
Continuous
 62
     3
100
AcDbLine
 10
2284.8778721513
 20
141.4558387339
 30
0.0
 11
2284.8778721513
 21
141.7821430902
 31
0.0
  0
LINE
  5
4C5
330
1B
100
AcDbEntity
 67
     1
  8
7_ALL_FEATURES
  6
Continuous
 62
     3
100
AcDbLine
 10
2284.8778721513
 20
100.7821430902
 30
0.0
 11
2284.8778721513
 21
101.4821430902
 31
0.0
  0
LINE
  5
4C6
330
1B
100
AcDbEntity
 67
     1
  8
7_ALL_FEATURES
  6
Continuous
 62
     3
100
AcDbLine
 10
2284.8778721513
 20
101.4821430902
 30
0.0
 11
2284.8778721513
 21
101.7821430902
 31
0.0
  0
LINE
  5
4C7
330
1B
100
AcDbEntity
 67
     1
  8
7_ALL_FEATURES
  6
Continuous
 62
     3
100
AcDbLine
 10
2284.8778721513
 20
101.7821430902
 30
0.0
 11
2284.8778721513
 21
139.7821430902
 31
0.0
  0
LINE
  5
4C8
330
1B
100
AcDbEntity
 67
     1
  8
7_ALL_FEATURES
  6
Continuous
 62
     3
100
AcDbLine
 10
2284.8778721513
 20
139.7821430902
 30
0.0
 11
2284.8778721513
 21
140.0821430902
 31
0.0
  0
LINE
  5
4C9
330
1B
100
AcDbEntity
 67
     1
  8
7_ALL_FEATURES
  6
Continuous
 62
     3
100
AcDbLine
 10
2284.8778721513
 20
140.0821430902
 30
0.0
 11
2284.8778721513
 21
140.7821430902
 31
0.0
  0
LINE
  5
4CA
330
1B
100
AcDbEntity
 67
     1
  8
7_ALL_FEATURES
  6
Continuous
 62
     3
100
AcDbLine
 10
2284.8778721513
 20
99.7821430902
 30
0.0
 11
2284.8778721513
 21
100.1084474466
 31
0.0
  0
LINE
  5
4CB
330
1B
100
AcDbEntity
 67
     1
  8
7_ALL_FEATURES
  6
Continuous
 62
     3
100
AcDbLine
 10
2284.8778721513
 20
100.1084474466
 30
0.0
 11
2284.8778721513
 21
100.392366718
 31
0.0
  0
LINE
  5
4CC
330
1B
100
AcDbEntity
 67
     1
  8
7_ALL_FEATURES
  6
Continuous
 62
     3
100
AcDbLine
 10
2284.8778721513
 20
100.7512995036
 30
0.0
 11
2284.8778721513
 21
100.7821430902
 31
0.0
  0
LINE
  5
4CD
330
1B
100
AcDbEntity
 67
     1
  8
7_ALL_FEATURES
  6
Continuous
 62
     7
100
AcDbLine
 10
2385.6419504875
 20
306.4955357925
 30
0.0
 11
2385.6419504875
 21
305.6205357925
 31
0.0
  0
LINE
  5
4CE
330
1B
100
AcDbEntity
 67
     1
  8
7_ALL_FEATURES
  6
Continuous
 62
     7
100
AcDbLine
 10
2385.6419504875
 20
305.6205357925
 30
0.0
 11
2384.7669504875
 21
305.6205357925
 31
0.0
  0
LINE
  5
4CF
330
1B
100
AcDbEntity
 67
     1
  8
7_ALL_FEATURES
  6
Continuous
 62
     7
100
AcDbLine
 10
2384.7669504875
 20
304.8705357925
 30
0.0
 11
2385.6419504875
 21
304.8705357925
 31
0.0
  0
LINE
  5
4D0
330
1B
100
AcDbEntity
 67
     1
  8
7_ALL_FEATURES
  6
Continuous
 62
     7
100
AcDbLine
 10
2385.6419504875
 20
304.8705357925
 30
0.0
 11
2385.6419504875
 21
303.9955357925
 31
0.0
  0
LINE
  5
4D1
330
1B
100
AcDbEntity
 67
     1
  8
7_ALL_FEATURES
  6
Continuous
 62
     7
100
AcDbLine
 10
2386.3919504875
 20
303.9955357925
 30
0.0
 11
2386.3919504875
 21
304.8705357925
 31
0.0
  0
LINE
  5
4D2
330
1B
100
AcDbEntity
 67
     1
  8
7_ALL_FEATURES
  6
Continuous
 62
     7
100
AcDbLine
 10
2386.3919504875
 20
304.8705357925
 30
0.0
 11
2387.2669504875
 21
304.8705357925
 31
0.0
  0
LINE
  5
4D3
330
1B
100
AcDbEntity
 67
     1
  8
7_ALL_FEATURES
  6
Continuous
 62
     7
100
AcDbLine
 10
2387.2669504875
 20
305.6205357925
 30
0.0
 11
2386.3919504875
 21
305.6205357925
 31
0.0
  0
LINE
  5
4D4
330
1B
100
AcDbEntity
 67
     1
  8
7_ALL_FEATURES
  6
Continuous
 62
     7
100
AcDbLine
 10
2386.3919504875
 20
305.6205357925
 30
0.0
 11
2386.3919504875
 21
306.4955357925
 31
0.0
  0
ARC
  5
4D5
330
1B
100
AcDbEntity
 67
     1
  8
3_ALL_AXES
  6
Continuous
 62
     7
100
AcDbCircle
 10
2386.0169504875
 20
305.2455357925
 30
0.0
 40
2.75
100
AcDbArc
 50
180.0
 51
360.0
  0
ARC
  5
4D6
330
1B
100
AcDbEntity
 67
     1
  8
3_ALL_AXES
  6
Continuous
 62
     7
100
AcDbCircle
 10
2386.0169504875
 20
305.2455357925
 30
0.0
 40
2.75
100
AcDbArc
 50
0.0
 51
180.0
  0
LINE
  5
4D7
330
1B
100
AcDbEntity
 67
     1
  8
7_ALL_FEATURES
  6
Continuous
 62
     7
100
AcDbLine
 10
2387.2669504875
 20
305.6205357925
 30
0.0
 11
2387.2669504875
 21
304.8705357925
 31
0.0
  0
LINE
  5
4D8
330
1B
100
AcDbEntity
 67
     1
  8
7_ALL_FEATURES
  6
Continuous
 62
     7
100
AcDbLine
 10
2385.6419504875
 20
306.4955357925
 30
0.0
 11
2386.3919504875
 21
306.4955357925
 31
0.0
  0
LINE
  5
4D9
330
1B
100
AcDbEntity
 67
     1
  8
7_ALL_FEATURES
  6
Continuous
 62
     7
100
AcDbLine
 10
2384.7669504875
 20
304.8705357925
 30
0.0
 11
2384.7669504875
 21
305.6205357925
 31
0.0
  0
LINE
  5
4DA
330
1B
100
AcDbEntity
 67
     1
  8
7_ALL_FEATURES
  6
Continuous
 62
     7
100
AcDbLine
 10
2386.3919504875
 20
303.9955357925
 30
0.0
 11
2385.6419504875
 21
303.9955357925
 31
0.0
  0
LINE
  5
4DB
330
1B
100
AcDbEntity
 67
     1
  8
7_ALL_FEATURES
  6
Continuous
 62
     7
100
AcDbLine
 10
2422.0419504875
 20
306.4955357925
 30
0.0
 11
2422.0419504875
 21
305.6205357925
 31
0.0
  0
LINE
  5
4DC
330
1B
100
AcDbEntity
 67
     1
  8
7_ALL_FEATURES
  6
Continuous
 62
     7
100
AcDbLine
 10
2422.0419504875
 20
305.6205357925
 30
0.0
 11
2421.1669504875
 21
305.6205357925
 31
0.0
  0
LINE
  5
4DD
330
1B
100
AcDbEntity
 67
     1
  8
7_ALL_FEATURES
  6
Continuous
 62
     7
100
AcDbLine
 10
2421.1669504875
 20
304.8705357925
 30
0.0
 11
2422.0419504875
 21
304.8705357925
 31
0.0
  0
LINE
  5
4DE
330
1B
100
AcDbEntity
 67
     1
  8
7_ALL_FEATURES
  6
Continuous
 62
     7
100
AcDbLine
 10
2422.0419504875
 20
304.8705357925
 30
0.0
 11
2422.0419504875
 21
303.9955357925
 31
0.0
  0
LINE
  5
4DF
330
1B
100
AcDbEntity
 67
     1
  8
7_ALL_FEATURES
  6
Continuous
 62
     7
100
AcDbLine
 10
2422.7919504874
 20
303.9955357925
 30
0.0
 11
2422.7919504874
 21
304.8705357925
 31
0.0
  0
LINE
  5
4E0
330
1B
100
AcDbEntity
 67
     1
  8
7_ALL_FEATURES
  6
Continuous
 62
     7
100
AcDbLine
 10
2422.7919504874
 20
304.8705357925
 30
0.0
 11
2423.6669504875
 21
304.8705357925
 31
0.0
  0
LINE
  5
4E1
330
1B
100
AcDbEntity
 67
     1
  8
7_ALL_FEATURES
  6
Continuous
 62
     7
100
AcDbLine
 10
2423.6669504875
 20
305.6205357925
 30
0.0
 11
2422.7919504874
 21
305.6205357925
 31
0.0
  0
LINE
  5
4E2
330
1B
100
AcDbEntity
 67
     1
  8
7_ALL_FEATURES
  6
Continuous
 62
     7
100
AcDbLine
 10
2422.7919504874
 20
305.6205357925
 30
0.0
 11
2422.7919504874
 21
306.4955357925
 31
0.0
  0
ARC
  5
4E3
330
1B
100
AcDbEntity
 67
     1
  8
3_ALL_AXES
  6
Continuous
 62
     7
100
AcDbCircle
 10
2422.4169504875
 20
305.2455357925
 30
0.0
 40
2.75
100
AcDbArc
 50
180.0
 51
360.0
  0
ARC
  5
4E4
330
1B
100
AcDbEntity
 67
     1
  8
3_ALL_AXES
  6
Continuous
 62
     7
100
AcDbCircle
 10
2422.4169504875
 20
305.2455357925
 30
0.0
 40
2.75
100
AcDbArc
 50
0.0
 51
180.0
  0
LINE
  5
4E5
330
1B
100
AcDbEntity
 67
     1
  8
7_ALL_FEATURES
  6
Continuous
 62
     7
100
AcDbLine
 10
2423.6669504875
 20
305.6205357925
 30
0.0
 11
2423.6669504875
 21
304.8705357925
 31
0.0
  0
LINE
  5
4E6
330
1B
100
AcDbEntity
 67
     1
  8
7_ALL_FEATURES
  6
Continuous
 62
     7
100
AcDbLine
 10
2422.0419504875
 20
306.4955357925
 30
0.0
 11
2422.7919504874
 21
306.4955357925
 31
0.0
  0
LINE
  5
4E7
330
1B
100
AcDbEntity
 67
     1
  8
7_ALL_FEATURES
  6
Continuous
 62
     7
100
AcDbLine
 10
2421.1669504875
 20
304.8705357925
 30
0.0
 11
2421.1669504875
 21
305.6205357925
 31
0.0
  0
LINE
  5
4E8
330
1B
100
AcDbEntity
 67
     1
  8
7_ALL_FEATURES
  6
Continuous
 62
     7
100
AcDbLine
 10
2422.7919504874
 20
303.9955357925
 30
0.0
 11
2422.0419504875
 21
303.9955357925
 31
0.0
  0
LINE
  5
4E9
330
1B
100
AcDbEntity
 67
     1
  8
7_ALL_FEATURES
  6
Continuous
 62
     7
100
AcDbLine
 10
2422.0419504875
 20
257.7455357925
 30
0.0
 11
2422.0419504875
 21
256.8705357925
 31
0.0
  0
LINE
  5
4EA
330
1B
100
AcDbEntity
 67
     1
  8
7_ALL_FEATURES
  6
Continuous
 62
     7
100
AcDbLine
 10
2422.0419504875
 20
256.8705357925
 30
0.0
 11
2421.1669504875
 21
256.8705357925
 31
0.0
  0
LINE
  5
4EB
330
1B
100
AcDbEntity
 67
     1
  8
7_ALL_FEATURES
  6
Continuous
 62
     7
100
AcDbLine
 10
2421.1669504875
 20
256.1205357925
 30
0.0
 11
2422.0419504875
 21
256.1205357925
 31
0.0
  0
LINE
  5
4EC
330
1B
100
AcDbEntity
 67
     1
  8
7_ALL_FEATURES
  6
Continuous
 62
     7
100
AcDbLine
 10
2422.0419504875
 20
256.1205357925
 30
0.0
 11
2422.0419504875
 21
255.2455357925
 31
0.0
  0
LINE
  5
4ED
330
1B
100
AcDbEntity
 67
     1
  8
7_ALL_FEATURES
  6
Continuous
 62
     7
100
AcDbLine
 10
2422.7919504874
 20
255.2455357925
 30
0.0
 11
2422.7919504874
 21
256.1205357925
 31
0.0
  0
LINE
  5
4EE
330
1B
100
AcDbEntity
 67
     1
  8
7_ALL_FEATURES
  6
Continuous
 62
     7
100
AcDbLine
 10
2422.7919504874
 20
256.1205357925
 30
0.0
 11
2423.6669504875
 21
256.1205357925
 31
0.0
  0
LINE
  5
4EF
330
1B
100
AcDbEntity
 67
     1
  8
7_ALL_FEATURES
  6
Continuous
 62
     7
100
AcDbLine
 10
2423.6669504875
 20
256.8705357925
 30
0.0
 11
2422.7919504874
 21
256.8705357925
 31
0.0
  0
LINE
  5
4F0
330
1B
100
AcDbEntity
 67
     1
  8
7_ALL_FEATURES
  6
Continuous
 62
     7
100
AcDbLine
 10
2422.7919504874
 20
256.8705357925
 30
0.0
 11
2422.7919504874
 21
257.7455357925
 31
0.0
  0
ARC
  5
4F1
330
1B
100
AcDbEntity
 67
     1
  8
3_ALL_AXES
  6
Continuous
 62
     7
100
AcDbCircle
 10
2422.4169504875
 20
256.4955357925
 30
0.0
 40
2.75
100
AcDbArc
 50
180.0
 51
360.0
  0
ARC
  5
4F2
330
1B
100
AcDbEntity
 67
     1
  8
3_ALL_AXES
  6
Continuous
 62
     7
100
AcDbCircle
 10
2422.4169504875
 20
256.4955357925
 30
0.0
 40
2.75
100
AcDbArc
 50
0.0
 51
180.0
  0
LINE
  5
4F3
330
1B
100
AcDbEntity
 67
     1
  8
7_ALL_FEATURES
  6
Continuous
 62
     7
100
AcDbLine
 10
2423.6669504875
 20
256.8705357925
 30
0.0
 11
2423.6669504875
 21
256.1205357925
 31
0.0
  0
LINE
  5
4F4
330
1B
100
AcDbEntity
 67
     1
  8
7_ALL_FEATURES
  6
Continuous
 62
     7
100
AcDbLine
 10
2422.0419504875
 20
257.7455357925
 30
0.0
 11
2422.7919504874
 21
257.7455357925
 31
0.0
  0
LINE
  5
4F5
330
1B
100
AcDbEntity
 67
     1
  8
7_ALL_FEATURES
  6
Continuous
 62
     7
100
AcDbLine
 10
2421.1669504875
 20
256.1205357925
 30
0.0
 11
2421.1669504875
 21
256.8705357925
 31
0.0
  0
LINE
  5
4F6
330
1B
100
AcDbEntity
 67
     1
  8
7_ALL_FEATURES
  6
Continuous
 62
     7
100
AcDbLine
 10
2422.7919504874
 20
255.2455357925
 30
0.0
 11
2422.0419504875
 21
255.2455357925
 31
0.0
  0
LINE
  5
4F7
330
1B
100
AcDbEntity
 67
     1
  8
7_ALL_FEATURES
  6
Continuous
 62
     7
100
AcDbLine
 10
2385.6419504875
 20
257.7455357925
 30
0.0
 11
2385.6419504875
 21
256.8705357925
 31
0.0
  0
LINE
  5
4F8
330
1B
100
AcDbEntity
 67
     1
  8
7_ALL_FEATURES
  6
Continuous
 62
     7
100
AcDbLine
 10
2385.6419504875
 20
256.8705357925
 30
0.0
 11
2384.7669504875
 21
256.8705357925
 31
0.0
  0
LINE
  5
4F9
330
1B
100
AcDbEntity
 67
     1
  8
7_ALL_FEATURES
  6
Continuous
 62
     7
100
AcDbLine
 10
2384.7669504875
 20
256.1205357925
 30
0.0
 11
2385.6419504875
 21
256.1205357925
 31
0.0
  0
LINE
  5
4FA
330
1B
100
AcDbEntity
 67
     1
  8
7_ALL_FEATURES
  6
Continuous
 62
     7
100
AcDbLine
 10
2385.6419504875
 20
256.1205357925
 30
0.0
 11
2385.6419504875
 21
255.2455357925
 31
0.0
  0
LINE
  5
4FB
330
1B
100
AcDbEntity
 67
     1
  8
7_ALL_FEATURES
  6
Continuous
 62
     7
100
AcDbLine
 10
2386.3919504874
 20
255.2455357925
 30
0.0
 11
2386.3919504874
 21
256.1205357925
 31
0.0
  0
LINE
  5
4FC
330
1B
100
AcDbEntity
 67
     1
  8
7_ALL_FEATURES
  6
Continuous
 62
     7
100
AcDbLine
 10
2386.3919504874
 20
256.1205357925
 30
0.0
 11
2387.2669504875
 21
256.1205357925
 31
0.0
  0
LINE
  5
4FD
330
1B
100
AcDbEntity
 67
     1
  8
7_ALL_FEATURES
  6
Continuous
 62
     7
100
AcDbLine
 10
2387.2669504875
 20
256.8705357925
 30
0.0
 11
2386.3919504874
 21
256.8705357925
 31
0.0
  0
LINE
  5
4FE
330
1B
100
AcDbEntity
 67
     1
  8
7_ALL_FEATURES
  6
Continuous
 62
     7
100
AcDbLine
 10
2386.3919504874
 20
256.8705357925
 30
0.0
 11
2386.3919504874
 21
257.7455357925
 31
0.0
  0
ARC
  5
4FF
330
1B
100
AcDbEntity
 67
     1
  8
3_ALL_AXES
  6
Continuous
 62
     7
100
AcDbCircle
 10
2386.0169504875
 20
256.4955357925
 30
0.0
 40
2.75
100
AcDbArc
 50
180.0
 51
360.0
  0
ARC
  5
500
330
1B
100
AcDbEntity
 67
     1
  8
3_ALL_AXES
  6
Continuous
 62
     7
100
AcDbCircle
 10
2386.0169504875
 20
256.4955357925
 30
0.0
 40
2.75
100
AcDbArc
 50
0.0
 51
180.0
  0
LINE
  5
501
330
1B
100
AcDbEntity
 67
     1
  8
7_ALL_FEATURES
  6
Continuous
 62
     7
100
AcDbLine
 10
2387.2669504875
 20
256.8705357925
 30
0.0
 11
2387.2669504875
 21
256.1205357925
 31
0.0
  0
LINE
  5
502
330
1B
100
AcDbEntity
 67
     1
  8
7_ALL_FEATURES
  6
Continuous
 62
     7
100
AcDbLine
 10
2385.6419504875
 20
257.7455357925
 30
0.0
 11
2386.3919504874
 21
257.7455357925
 31
0.0
  0
LINE
  5
503
330
1B
100
AcDbEntity
 67
     1
  8
7_ALL_FEATURES
  6
Continuous
 62
     7
100
AcDbLine
 10
2384.7669504875
 20
256.1205357925
 30
0.0
 11
2384.7669504875
 21
256.8705357925
 31
0.0
  0
LINE
  5
504
330
1B
100
AcDbEntity
 67
     1
  8
7_ALL_FEATURES
  6
Continuous
 62
     7
100
AcDbLine
 10
2386.3919504874
 20
255.2455357925
 30
0.0
 11
2385.6419504875
 21
255.2455357925
 31
0.0
  0
ARC
  5
505
330
1B
100
AcDbEntity
 67
     1
  8
7_ALL_FEATURES
  6
Continuous
 62
     7
100
AcDbCircle
 10
2382.7169504875
 20
326.9955357925
 30
0.0
 40
1.5
100
AcDbArc
 50
306.8698976459
 51
53.1301023541
  0
ARC
  5
506
330
1B
100
AcDbEntity
 67
     1
  8
7_ALL_FEATURES
  6
Continuous
 62
     7
100
AcDbCircle
 10
2384.2169504875
 20
324.9955357925
 30
0.0
 40
1.0
100
AcDbArc
 50
126.8698976458
 51
180.0
  0
LINE
  5
507
330
1B
100
AcDbEntity
 67
     1
  8
7_ALL_FEATURES
  6
Continuous
 62
     7
100
AcDbLine
 10
2383.2169504875
 20
254.4955357925
 30
0.0
 11
2383.2169504875
 21
324.9955357925
 31
0.0
  0
ARC
  5
508
330
1B
100
AcDbEntity
 67
     1
  8
7_ALL_FEATURES
  6
Continuous
 62
     7
100
AcDbCircle
 10
2384.2169504875
 20
254.4955357925
 30
0.0
 40
1.0
100
AcDbArc
 50
180.0
 51
270.0
  0
LINE
  5
509
330
1B
100
AcDbEntity
 67
     1
  8
7_ALL_FEATURES
  6
Continuous
 62
     7
100
AcDbLine
 10
2424.2169504875
 20
253.4955357925
 30
0.0
 11
2384.2169504875
 21
253.4955357925
 31
0.0
  0
ARC
  5
50A
330
1B
100
AcDbEntity
 67
     1
  8
7_ALL_FEATURES
  6
Continuous
 62
     7
100
AcDbCircle
 10
2424.2169504875
 20
254.4955357925
 30
0.0
 40
1.0
100
AcDbArc
 50
270.0
 51
360.0
  0
LINE
  5
50B
330
1B
100
AcDbEntity
 67
     1
  8
7_ALL_FEATURES
  6
Continuous
 62
     7
100
AcDbLine
 10
2425.2169504875
 20
264.9955357925
 30
0.0
 11
2425.2169504875
 21
254.4955357925
 31
0.0
  0
ARC
  5
50C
330
1B
100
AcDbEntity
 67
     1
  8
7_ALL_FEATURES
  6
Continuous
 62
     7
100
AcDbCircle
 10
2424.2169504875
 20
264.9955357925
 30
0.0
 40
1.0
100
AcDbArc
 50
0.0
 51
53.1301023542
  0
ARC
  5
50D
330
1B
100
AcDbEntity
 67
     1
  8
7_ALL_FEATURES
  6
Continuous
 62
     7
100
AcDbCircle
 10
2425.7169504875
 20
266.9955357925
 30
0.0
 40
1.5
100
AcDbArc
 50
126.8698976458
 51
233.1301023542
  0
ARC
  5
50E
330
1B
100
AcDbEntity
 67
     1
  8
7_ALL_FEATURES
  6
Continuous
 62
     7
100
AcDbCircle
 10
2424.2169504875
 20
268.9955357925
 30
0.0
 40
1.0
100
AcDbArc
 50
306.8698976458
 51
360.0
  0
LINE
  5
50F
330
1B
100
AcDbEntity
 67
     1
  8
7_ALL_FEATURES
  6
Continuous
 62
     7
100
AcDbLine
 10
2425.2169504875
 20
335.9955357925
 30
0.0
 11
2425.2169504875
 21
268.9955357925
 31
0.0
  0
ARC
  5
510
330
1B
100
AcDbEntity
 67
     1
  8
7_ALL_FEATURES
  6
Continuous
 62
     7
100
AcDbCircle
 10
2424.2169504875
 20
335.9955357925
 30
0.0
 40
1.0
100
AcDbArc
 50
0.0
 51
90.0
  0
LINE
  5
511
330
1B
100
AcDbEntity
 67
     1
  8
7_ALL_FEATURES
  6
Continuous
 62
     7
100
AcDbLine
 10
2384.2169504875
 20
336.9955357925
 30
0.0
 11
2424.2169504875
 21
336.9955357925
 31
0.0
  0
ARC
  5
512
330
1B
100
AcDbEntity
 67
     1
  8
7_ALL_FEATURES
  6
Continuous
 62
     7
100
AcDbCircle
 10
2384.2169504875
 20
335.9955357925
 30
0.0
 40
1.0
100
AcDbArc
 50
90.0
 51
180.0
  0
LINE
  5
513
330
1B
100
AcDbEntity
 67
     1
  8
7_ALL_FEATURES
  6
Continuous
 62
     7
100
AcDbLine
 10
2383.2169504875
 20
328.9955357925
 30
0.0
 11
2383.2169504875
 21
335.9955357925
 31
0.0
  0
ARC
  5
514
330
1B
100
AcDbEntity
 67
     1
  8
7_ALL_FEATURES
  6
Continuous
 62
     7
100
AcDbCircle
 10
2384.2169504875
 20
328.9955357925
 30
0.0
 40
1.0
100
AcDbArc
 50
180.0
 51
233.1301023542
  0
ARC
  5
515
330
1B
100
AcDbEntity
 67
     1
  8
02___PRT_ALL_AXES
  6
Continuous
 62
     7
100
AcDbCircle
 10
2404.2169504875
 20
276.6639905739
 30
0.0
 40
9.5
100
AcDbArc
 50
182.0
 51
358.0
  0
LINE
  5
516
330
1B
100
AcDbEntity
 67
     1
  8
02___PRT_ALL_AXES
  6
Continuous
 62
     7
100
AcDbLine
 10
2414.2108587576
 20
276.3149956068
 30
0.0
 11
2413.7111633441
 21
276.3324453552
 31
0.0
  0
ARC
  5
517
330
1B
100
AcDbEntity
 67
     1
  8
02___PRT_ALL_AXES
  6
Continuous
 62
     7
100
AcDbCircle
 10
2404.2169504875
 20
276.6639905739
 30
0.0
 40
10.0
100
AcDbArc
 50
182.0
 51
358.0
  0
LINE
  5
518
330
1B
100
AcDbEntity
 67
     1
  8
02___PRT_ALL_AXES
  6
Continuous
 62
     7
100
AcDbLine
 10
2394.7227376308
 20
276.3324453552
 30
0.0
 11
2394.2230422173
 21
276.3149956068
 31
0.0
  0
LINE
  5
519
330
1B
100
AcDbEntity
 67
     1
  8
02___PRT_ALL_AXES
  6
Continuous
 62
     7
100
AcDbLine
 10
2394.2230422173
 20
277.0129855409
 30
0.0
 11
2394.7227376308
 21
276.9955357925
 31
0.0
  0
ARC
  5
51A
330
1B
100
AcDbEntity
 67
     1
  8
02___PRT_ALL_AXES
  6
Continuous
 62
     7
100
AcDbCircle
 10
2404.2169504875
 20
276.6639905739
 30
0.0
 40
10.0
100
AcDbArc
 50
2.0
 51
178.0
  0
LINE
  5
51B
330
1B
100
AcDbEntity
 67
     1
  8
02___PRT_ALL_AXES
  6
Continuous
 62
     7
100
AcDbLine
 10
2413.7111633441
 20
276.9955357925
 30
0.0
 11
2414.2108587576
 21
277.0129855409
 31
0.0
  0
ARC
  5
51C
330
1B
100
AcDbEntity
 67
     1
  8
02___PRT_ALL_AXES
  6
Continuous
 62
     7
100
AcDbCircle
 10
2404.2169504875
 20
276.6639905739
 30
0.0
 40
9.5
100
AcDbArc
 50
2.0
 51
178.0
  0
LINE
  5
51D
330
1B
100
AcDbEntity
 67
     1
  8
7_ALL_FEATURES
  6
Continuous
 62
     7
100
AcDbLine
 10
2424.2169504875
 20
336.9955357925
 30
0.0
 11
2424.4038575486
 21
336.9955357925
 31
0.0
  0
ARC
  5
51E
330
1B
100
AcDbEntity
 67
     1
  8
7_ALL_FEATURES
  6
Continuous
 62
     7
100
AcDbCircle
 10
2424.4038575486
 20
336.6955357925
 30
0.0
 40
0.3
100
AcDbArc
 50
47.50565299360001
 51
90.0
  0
LINE
  5
51F
330
1B
100
AcDbEntity
 67
     1
  8
7_ALL_FEATURES
  6
Continuous
 62
     7
100
AcDbLine
 10
2425.2169504875
 20
332.8178710305
 30
0.0
 11
2425.3527869478
 21
331.7860906785
 31
0.0
  0
ARC
  5
520
330
1B
100
AcDbEntity
 67
     1
  8
7_ALL_FEATURES
  6
Continuous
 62
     7
100
AcDbCircle
 10
2417.9169504875
 20
330.8071442369
 30
0.0
 40
7.5
100
AcDbArc
 50
0.0
 51
7.5
  0
LINE
  5
521
330
1B
100
AcDbEntity
 67
     1
  8
7_ALL_FEATURES
  6
Continuous
 62
     7
100
AcDbLine
 10
2425.4169504875
 20
330.8071442369
 30
0.0
 11
2425.4169504875
 21
301.1955357925
 31
0.0
  0
ARC
  5
522
330
1B
100
AcDbEntity
 67
     1
  8
7_ALL_FEATURES
  6
Continuous
 62
     7
100
AcDbCircle
 10
2425.2169504875
 20
301.1955357925
 30
0.0
 40
0.2
100
AcDbArc
 50
270.0
 51
360.0
  0
ARC
  5
523
330
1B
100
AcDbEntity
 67
     1
  8
7_ALL_FEATURES
  6
Continuous
 62
     7
100
AcDbCircle
 10
2425.2169504875
 20
296.2955357925
 30
0.0
 40
0.2
100
AcDbArc
 50
0.0
 51
90.0
  0
LINE
  5
524
330
1B
100
AcDbEntity
 67
     1
  8
7_ALL_FEATURES
  6
Continuous
 62
     7
100
AcDbLine
 10
2425.4169504875
 20
296.2955357925
 30
0.0
 11
2425.4169504875
 21
283.2955357925
 31
0.0
  0
ARC
  5
525
330
1B
100
AcDbEntity
 67
     1
  8
7_ALL_FEATURES
  6
Continuous
 62
     7
100
AcDbCircle
 10
2425.1169504875
 20
283.2955357925
 30
0.0
 40
0.3
100
AcDbArc
 50
289.4763631233
 51
360.0
  0
ARC
  5
526
330
1B
100
AcDbEntity
 67
     1
  8
7_ALL_FEATURES
  6
Continuous
 62
     7
100
AcDbCircle
 10
2425.1169504875
 20
278.1955357925
 30
0.0
 40
0.3
100
AcDbArc
 50
0.0
 51
70.52363687670001
  0
LINE
  5
527
330
1B
100
AcDbEntity
 67
     1
  8
7_ALL_FEATURES
  6
Continuous
 62
     7
100
AcDbLine
 10
2425.4169504875
 20
278.1955357925
 30
0.0
 11
2425.4169504875
 21
254.4955357925
 31
0.0
  0
ARC
  5
528
330
1B
100
AcDbEntity
 67
     1
  8
7_ALL_FEATURES
  6
Continuous
 62
     7
100
AcDbCircle
 10
2424.4169504874
 20
254.4955357925
 30
0.0
 40
1.0
100
AcDbArc
 50
270.0
 51
360.0
  0
LINE
  5
529
330
1B
100
AcDbEntity
 67
     1
  8
7_ALL_FEATURES
  6
Continuous
 62
     7
100
AcDbLine
 10
2424.4169504874
 20
253.4955357925
 30
0.0
 11
2424.2169504875
 21
253.4955357925
 31
0.0
  0
LINE
  5
52A
330
1B
100
AcDbEntity
 67
     1
  8
7_ALL_FEATURES
  6
Continuous
 62
     7
100
AcDbLine
 10
2384.2169504875
 20
253.4955357925
 30
0.0
 11
2384.0169504875
 21
253.4955357925
 31
0.0
  0
ARC
  5
52B
330
1B
100
AcDbEntity
 67
     1
  8
7_ALL_FEATURES
  6
Continuous
 62
     7
100
AcDbCircle
 10
2384.0169504875
 20
254.4955357925
 30
0.0
 40
1.0
100
AcDbArc
 50
180.0
 51
270.0
  0
LINE
  5
52C
330
1B
100
AcDbEntity
 67
     1
  8
7_ALL_FEATURES
  6
Continuous
 62
     7
100
AcDbLine
 10
2383.0169504875
 20
254.4955357925
 30
0.0
 11
2383.0169504875
 21
278.1955357925
 31
0.0
  0
ARC
  5
52D
330
1B
100
AcDbEntity
 67
     1
  8
7_ALL_FEATURES
  6
Continuous
 62
     7
100
AcDbCircle
 10
2383.3169504875
 20
278.1955357925
 30
0.0
 40
0.3
100
AcDbArc
 50
109.4763631233
 51
180.0
  0
ARC
  5
52E
330
1B
100
AcDbEntity
 67
     1
  8
7_ALL_FEATURES
  6
Continuous
 62
     7
100
AcDbCircle
 10
2383.3169504875
 20
283.2955357925
 30
0.0
 40
0.3
100
AcDbArc
 50
180.0
 51
250.5236368767
  0
LINE
  5
52F
330
1B
100
AcDbEntity
 67
     1
  8
7_ALL_FEATURES
  6
Continuous
 62
     7
100
AcDbLine
 10
2383.0169504875
 20
283.2955357925
 30
0.0
 11
2383.0169504875
 21
296.2955357925
 31
0.0
  0
ARC
  5
530
330
1B
100
AcDbEntity
 67
     1
  8
7_ALL_FEATURES
  6
Continuous
 62
     7
100
AcDbCircle
 10
2383.2169504875
 20
296.2955357925
 30
0.0
 40
0.2
100
AcDbArc
 50
90.0
 51
180.0
  0
ARC
  5
531
330
1B
100
AcDbEntity
 67
     1
  8
7_ALL_FEATURES
  6
Continuous
 62
     7
100
AcDbCircle
 10
2383.2169504875
 20
301.1955357925
 30
0.0
 40
0.2
100
AcDbArc
 50
180.0
 51
270.0
  0
LINE
  5
532
330
1B
100
AcDbEntity
 67
     1
  8
7_ALL_FEATURES
  6
Continuous
 62
     7
100
AcDbLine
 10
2383.0169504875
 20
301.1955357925
 30
0.0
 11
2383.0169504875
 21
330.8071442369
 31
0.0
  0
ARC
  5
533
330
1B
100
AcDbEntity
 67
     1
  8
7_ALL_FEATURES
  6
Continuous
 62
     7
100
AcDbCircle
 10
2390.5169504875
 20
330.8071442369
 30
0.0
 40
7.5
100
AcDbArc
 50
172.5
 51
180.0
  0
LINE
  5
534
330
1B
100
AcDbEntity
 67
     1
  8
7_ALL_FEATURES
  6
Continuous
 62
     7
100
AcDbLine
 10
2383.0811140271
 20
331.7860906785
 30
0.0
 11
2383.2169504875
 21
332.8178710305
 31
0.0
  0
ARC
  5
535
330
1B
100
AcDbEntity
 67
     1
  8
7_ALL_FEATURES
  6
Continuous
 62
     7
100
AcDbCircle
 10
2384.0300434263
 20
336.6955357925
 30
0.0
 40
0.3
100
AcDbArc
 50
90.0
 51
132.4943470064
  0
LINE
  5
536
330
1B
100
AcDbEntity
 67
     1
  8
7_ALL_FEATURES
  6
Continuous
 62
     7
100
AcDbLine
 10
2384.0300434263
 20
336.9955357925
 30
0.0
 11
2384.2169504875
 21
336.9955357925
 31
0.0
  0
ARC
  5
537
330
1B
100
AcDbEntity
 67
     1
  8
7_ALL_FEATURES
  6
Continuous
 62
     7
100
AcDbCircle
 10
2425.1669504875
 20
254.0955357925
 30
0.0
 40
0.6
100
AcDbArc
 50
270.0
 51
360.0
  0
LINE
  5
538
330
1B
100
AcDbEntity
 67
     1
  8
7_ALL_FEATURES
  6
Continuous
 62
     7
100
AcDbLine
 10
2382.6669504875
 20
254.0955357925
 30
0.0
 11
2382.6669504875
 21
322.2955357925
 31
0.0
  0
LINE
  5
539
330
1B
100
AcDbEntity
 67
     1
  8
7_ALL_FEATURES
  6
Continuous
 62
     7
100
AcDbLine
 10
2427.7669504875
 20
323.4955357925
 30
0.0
 11
2450.7669504875
 21
323.4955357925
 31
0.0
  0
LINE
  5
53A
330
1B
100
AcDbEntity
 67
     1
  8
7_ALL_FEATURES
  6
Continuous
 62
     7
100
AcDbLine
 10
2426.9669504875
 20
323.4955357925
 30
0.0
 11
2427.7669504875
 21
323.4955357925
 31
0.0
  0
ARC
  5
53B
330
1B
100
AcDbEntity
 67
     1
  8
7_ALL_FEATURES
  6
Continuous
 62
     7
100
AcDbCircle
 10
2426.9669504875
 20
322.2955357925
 30
0.0
 40
1.2
100
AcDbArc
 50
90.0
 51
180.0
  0
LINE
  5
53C
330
1B
100
AcDbEntity
 67
     1
  8
7_ALL_FEATURES
  6
Continuous
 62
     7
100
AcDbLine
 10
2425.7669504875
 20
322.2955357925
 30
0.0
 11
2425.7669504875
 21
254.0955357925
 31
0.0
  0
LINE
  5
53D
330
1B
100
AcDbEntity
 67
     1
  8
7_ALL_FEATURES
  6
Continuous
 62
     7
100
AcDbLine
 10
2450.7669504875
 20
322.8955357925
 30
0.0
 11
2450.7669504875
 21
323.4955357925
 31
0.0
  0
LINE
  5
53E
330
1B
100
AcDbEntity
 67
     1
  8
7_ALL_FEATURES
  6
Continuous
 62
     7
100
AcDbLine
 10
2357.6669504875
 20
322.8955357925
 30
0.0
 11
2357.6669504875
 21
323.4955357925
 31
0.0
  0
ARC
  5
53F
330
1B
100
AcDbEntity
 67
     1
  8
7_ALL_FEATURES
  6
Continuous
 62
     7
100
AcDbCircle
 10
2381.4669504875
 20
322.2955357925
 30
0.0
 40
1.2
100
AcDbArc
 50
0.0
 51
90.0
  0
LINE
  5
540
330
1B
100
AcDbEntity
 67
     1
  8
7_ALL_FEATURES
  6
Continuous
 62
     7
100
AcDbLine
 10
2357.6669504875
 20
323.4955357925
 30
0.0
 11
2380.6669504875
 21
323.4955357925
 31
0.0
  0
LINE
  5
541
330
1B
100
AcDbEntity
 67
     1
  8
7_ALL_FEATURES
  6
Continuous
 62
     7
100
AcDbLine
 10
2380.6669504875
 20
323.4955357925
 30
0.0
 11
2381.4669504875
 21
323.4955357925
 31
0.0
  0
LINE
  5
542
330
1B
100
AcDbEntity
 67
     1
  8
7_ALL_FEATURES
  6
Continuous
 62
     7
100
AcDbLine
 10
2383.2669504875
 20
253.4955357925
 30
0.0
 11
2384.0169504875
 21
253.4955357925
 31
0.0
  0
LINE
  5
543
330
1B
100
AcDbEntity
 67
     1
  8
7_ALL_FEATURES
  6
Continuous
 62
     7
100
AcDbLine
 10
2424.4169504874
 20
253.4955357925
 30
0.0
 11
2425.1669504875
 21
253.4955357925
 31
0.0
  0
ARC
  5
544
330
1B
100
AcDbEntity
 67
     1
  8
7_ALL_FEATURES
  6
Continuous
 62
     7
100
AcDbCircle
 10
2383.2669504875
 20
254.0955357925
 30
0.0
 40
0.6
100
AcDbArc
 50
180.0
 51
270.0
  0
LINE
  5
545
330
1B
100
AcDbEntity
 67
     1
  8
7_ALL_FEATURES
  6
Continuous
 62
     9
100
AcDbLine
 10
2426.9669504875
 20
323.4955357925
 30
0.0
 11
2426.9669504875
 21
322.8955357925
 31
0.0
  0
LINE
  5
546
330
1B
100
AcDbEntity
 67
     1
  8
7_ALL_FEATURES
  6
Continuous
 62
     9
100
AcDbLine
 10
2383.2669504875
 20
252.8955357925
 30
0.0
 11
2383.2669504875
 21
253.4955357925
 31
0.0
  0
LINE
  5
547
330
1B
100
AcDbEntity
 67
     1
  8
7_ALL_FEATURES
  6
Continuous
 62
     7
100
AcDbLine
 10
2427.7669504875
 20
322.8955357925
 30
0.0
 11
2427.7669504875
 21
323.4955357925
 31
0.0
  0
LINE
  5
548
330
1B
100
AcDbEntity
 67
     1
  8
7_ALL_FEATURES
  6
Continuous
 62
     9
100
AcDbLine
 10
2382.0669504875
 20
254.0955357925
 30
0.0
 11
2382.6669504875
 21
254.0955357925
 31
0.0
  0
LINE
  5
549
330
1B
100
AcDbEntity
 67
     1
  8
7_ALL_FEATURES
  6
Continuous
 62
     9
100
AcDbLine
 10
2382.6669504875
 20
322.2955357925
 30
0.0
 11
2382.0669504875
 21
322.2955357925
 31
0.0
  0
LINE
  5
54A
330
1B
100
AcDbEntity
 67
     1
  8
7_ALL_FEATURES
  6
Continuous
 62
     9
100
AcDbLine
 10
2425.7669504875
 20
322.2955357925
 30
0.0
 11
2426.3669504875
 21
322.2955357925
 31
0.0
  0
LINE
  5
54B
330
1B
100
AcDbEntity
 67
     1
  8
7_ALL_FEATURES
  6
Continuous
 62
     9
100
AcDbLine
 10
2381.4669504875
 20
323.4955357925
 30
0.0
 11
2381.4669504875
 21
322.8955357925
 31
0.0
  0
LINE
  5
54C
330
1B
100
AcDbEntity
 67
     1
  8
7_ALL_FEATURES
  6
Continuous
 62
     7
100
AcDbLine
 10
2380.6669504875
 20
322.8955357925
 30
0.0
 11
2380.6669504875
 21
323.4955357925
 31
0.0
  0
LINE
  5
54D
330
1B
100
AcDbEntity
 67
     1
  8
7_ALL_FEATURES
  6
Continuous
 62
     9
100
AcDbLine
 10
2426.3669504875
 20
254.0955357925
 30
0.0
 11
2425.7669504875
 21
254.0955357925
 31
0.0
  0
LINE
  5
54E
330
1B
100
AcDbEntity
 67
     1
  8
7_ALL_FEATURES
  6
Continuous
 62
     9
100
AcDbLine
 10
2425.1669504875
 20
252.8955357925
 30
0.0
 11
2425.1669504875
 21
253.4955357925
 31
0.0
  0
LINE
  5
54F
330
1B
100
AcDbEntity
 67
     1
  8
7_ALL_FEATURES
  6
Continuous
 62
     3
100
AcDbLine
 10
2426.3669504875
 20
322.2955357925
 30
0.0
 11
2426.3669504875
 21
254.0955357925
 31
0.0
  0
ARC
  5
550
330
1B
100
AcDbEntity
 67
     1
  8
7_ALL_FEATURES
  6
Continuous
 62
     3
100
AcDbCircle
 10
2425.1669504875
 20
254.0955357925
 30
0.0
 40
1.2
100
AcDbArc
 50
270.0
 51
360.0
  0
ARC
  5
551
330
1B
100
AcDbEntity
 67
     1
  8
7_ALL_FEATURES
  6
Continuous
 62
     3
100
AcDbCircle
 10
2381.4669504875
 20
322.2955357925
 30
0.0
 40
0.6
100
AcDbArc
 50
0.0
 51
90.0
  0
LINE
  5
552
330
1B
100
AcDbEntity
 67
     1
  8
7_ALL_FEATURES
  6
Continuous
 62
     3
100
AcDbLine
 10
2380.6669504875
 20
322.8955357925
 30
0.0
 11
2381.4669504875
 21
322.8955357925
 31
0.0
  0
LINE
  5
553
330
1B
100
AcDbEntity
 67
     1
  8
7_ALL_FEATURES
  6
Continuous
 62
     3
100
AcDbLine
 10
2380.6669504875
 20
322.8955357925
 30
0.0
 11
2357.6669504875
 21
322.8955357925
 31
0.0
  0
LINE
  5
554
330
1B
100
AcDbEntity
 67
     1
  8
7_ALL_FEATURES
  6
Continuous
 62
     3
100
AcDbLine
 10
2426.9669504875
 20
322.8955357925
 30
0.0
 11
2427.7669504875
 21
322.8955357925
 31
0.0
  0
LINE
  5
555
330
1B
100
AcDbEntity
 67
     1
  8
7_ALL_FEATURES
  6
Continuous
 62
     3
100
AcDbLine
 10
2450.7669504875
 20
322.8955357925
 30
0.0
 11
2427.7669504875
 21
322.8955357925
 31
0.0
  0
ARC
  5
556
330
1B
100
AcDbEntity
 67
     1
  8
7_ALL_FEATURES
  6
Continuous
 62
     3
100
AcDbCircle
 10
2426.9669504875
 20
322.2955357925
 30
0.0
 40
0.6
100
AcDbArc
 50
90.0
 51
180.0
  0
LINE
  5
557
330
1B
100
AcDbEntity
 67
     1
  8
7_ALL_FEATURES
  6
Continuous
 62
     3
100
AcDbLine
 10
2383.2669504875
 20
252.8955357925
 30
0.0
 11
2425.1669504875
 21
252.8955357925
 31
0.0
  0
LINE
  5
558
330
1B
100
AcDbEntity
 67
     1
  8
7_ALL_FEATURES
  6
Continuous
 62
     3
100
AcDbLine
 10
2382.0669504875
 20
254.0955357925
 30
0.0
 11
2382.0669504875
 21
322.2955357925
 31
0.0
  0
ARC
  5
559
330
1B
100
AcDbEntity
 67
     1
  8
7_ALL_FEATURES
  6
Continuous
 62
     3
100
AcDbCircle
 10
2383.2669504875
 20
254.0955357925
 30
0.0
 40
1.2
100
AcDbArc
 50
180.0
 51
270.0
  0
DIMENSION
  5
55A
330
1B
100
AcDbEntity
 67
     1
  8
0
  6
Continuous
 62
     2
100
AcDbDimension
280
     0
  2
*D1
 10
271.8778721513
 20
352.3037030746
 30
0.0
 11
1278.6993026733
 21
352.3037030746
 31
0.0
 70
   160
 71
     5
 42
-1.0
 73
     0
 74
     0
 75
     0
  3
DIMSTYLE_1
100
AcDbAlignedDimension
 13
2286.3778721513
 23
355.3734729366
 33
0.0
 14
271.8778721513
 24
355.6823069791
 34
0.0
 50
180.0
100
AcDbRotatedDimension
  0
DIMENSION
  5
55B
330
1B
100
AcDbEntity
 67
     1
  8
0
  6
Continuous
 62
     2
100
AcDbDimension
280
     0
  2
*D2
 10
2306.2675465531
 20
141.9821430902
 30
0.0
 11
2306.2675465531
 21
120.3535901546
 31
0.0
 70
   160
 71
     5
 42
-1.0
 73
     0
 74
     0
 75
     0
  3
DIMSTYLE_2
100
AcDbAlignedDimension
 13
2297.5695233264
 23
99.5821430902
 33
0.0
 14
2297.5695233264
 24
141.9821430902
 34
0.0
 50
90.0
100
AcDbRotatedDimension
  0
DIMENSION
  5
55C
330
1B
100
AcDbEntity
 67
     1
  8
0
  6
Continuous
 62
     2
100
AcDbDimension
280
     0
  2
*D3
 10
2457.5547089102
 20
253.4955357925
 30
0.0
 11
2457.5547089102
 21
294.8169756512
 31
0.0
 70
   160
 71
     5
 42
-1.0
 73
     0
 74
     0
 75
     0
  3
DIMSTYLE_2
100
AcDbAlignedDimension
 13
2452.5145435154
 23
336.9955357925
 33
0.0
 14
2452.6410419392
 24
253.4955357925
 34
0.0
 50
270.0
100
AcDbRotatedDimension
  0
DIMENSION
  5
55D
330
1B
100
AcDbEntity
 67
     1
  8
0
  6
Continuous
 62
     2
100
AcDbDimension
280
     0
  2
*D4
 10
2315.8610584615
 20
167.3321430902
 30
0.0
 11
2315.8610584615
 21
120.3535732064
 31
0.0
 70
   160
 71
     5
 42
-1.0
 73
     0
 74
     0
 75
     0
  3
DIMSTYLE_3
100
AcDbAlignedDimension
 13
2297.5695233264
 23
74.2321430902
 33
0.0
 14
2298.0985207999
 24
167.3321430902
 34
0.0
 50
90.0
100
AcDbRotatedDimension
  0
LINE
  5
55E
330
1B
100
AcDbEntity
 67
     1
  8
0
  6
Continuous
 62
     2
100
AcDbLine
 10
2362.7591802171
 20
69.8328299227
 30
0.0
 11
2492.7591802171
 21
69.8328299227
 31
0.0
  0
LINE
  5
55F
330
1B
100
AcDbEntity
 67
     1
  8
0
  6
Continuous
 62
     2
100
AcDbLine
 10
2362.7591802171
 20
69.8328299227
 30
0.0
 11
2362.7591802171
 21
3.8328299227
 31
0.0
  0
LINE
  5
560
330
1B
100
AcDbEntity
 67
     1
  8
0
  6
Continuous
 62
     2
100
AcDbLine
 10
2392.7591802171
 20
61.8328299227
 30
0.0
 11
2492.7591802171
 21
61.8328299227
 31
0.0
  0
LINE
  5
561
330
1B
100
AcDbEntity
 67
     1
  8
0
  6
Continuous
 62
     2
100
AcDbLine
 10
2362.7591802171
 20
53.8328299227
 30
0.0
 11
2492.7591802171
 21
53.8328299227
 31
0.0
  0
LINE
  5
562
330
1B
100
AcDbEntity
 67
     1
  8
0
  6
Continuous
 62
     2
100
AcDbLine
 10
2392.7591802171
 20
47.8328299227
 30
0.0
 11
2492.7591802171
 21
47.8328299227
 31
0.0
  0
LINE
  5
563
330
1B
100
AcDbEntity
 67
     1
  8
0
  6
Continuous
 62
     2
100
AcDbLine
 10
2392.7591802171
 20
41.8328299227
 30
0.0
 11
2492.7591802171
 21
41.8328299227
 31
0.0
  0
LINE
  5
564
330
1B
100
AcDbEntity
 67
     1
  8
0
  6
Continuous
 62
     2
100
AcDbLine
 10
2392.7591802171
 20
35.8328299227
 30
0.0
 11
2492.7591802171
 21
35.8328299227
 31
0.0
  0
LINE
  5
565
330
1B
100
AcDbEntity
 67
     1
  8
0
  6
Continuous
 62
     2
100
AcDbLine
 10
2392.7591802171
 20
29.8328299227
 30
0.0
 11
2492.7591802171
 21
29.8328299227
 31
0.0
  0
LINE
  5
566
330
1B
100
AcDbEntity
 67
     1
  8
0
  6
Continuous
 62
     2
100
AcDbLine
 10
2392.7591802171
 20
23.8328299227
 30
0.0
 11
2492.7591802171
 21
23.8328299227
 31
0.0
  0
LINE
  5
567
330
1B
100
AcDbEntity
 67
     1
  8
0
  6
Continuous
 62
     2
100
AcDbLine
 10
2362.7591802171
 20
17.8328299227
 30
0.0
 11
2492.7591802171
 21
17.8328299227
 31
0.0
  0
LINE
  5
568
330
1B
100
AcDbEntity
 67
     1
  8
0
  6
Continuous
 62
     2
100
AcDbLine
 10
2362.7591802171
 20
11.8328299227
 30
0.0
 11
2492.7591802171
 21
11.8328299227
 31
0.0
  0
LINE
  5
569
330
1B
100
AcDbEntity
 67
     1
  8
0
  6
Continuous
 62
     2
100
AcDbLine
 10
2362.7591802171
 20
7.8328299227
 30
0.0
 11
2492.7591802171
 21
7.8328299227
 31
0.0
  0
LINE
  5
56A
330
1B
100
AcDbEntity
 67
     1
  8
0
  6
Continuous
 62
     2
100
AcDbLine
 10
2362.7591802171
 20
3.8328299227
 30
0.0
 11
2492.7591802171
 21
3.8328299227
 31
0.0
  0
LINE
  5
56B
330
1B
100
AcDbEntity
 67
     1
  8
0
  6
Continuous
 62
     2
100
AcDbLine
 10
2392.7591802171
 20
69.8328299227
 30
0.0
 11
2392.7591802171
 21
11.8328299227
 31
0.0
  0
LINE
  5
56C
330
1B
100
AcDbEntity
 67
     1
  8
0
  6
Continuous
 62
     2
100
AcDbLine
 10
2412.7591802171
 20
53.8328299227
 30
0.0
 11
2412.7591802171
 21
47.8328299227
 31
0.0
  0
LINE
  5
56D
330
1B
100
AcDbEntity
 67
     1
  8
0
  6
Continuous
 62
     2
100
AcDbLine
 10
2442.7591802171
 20
23.8328299227
 30
0.0
 11
2442.7591802171
 21
11.8328299227
 31
0.0
  0
LINE
  5
56E
330
1B
100
AcDbEntity
 67
     1
  8
0
  6
Continuous
 62
     2
100
AcDbLine
 10
2452.7591802171
 20
53.8328299227
 30
0.0
 11
2452.7591802171
 21
47.8328299227
 31
0.0
  0
LINE
  5
56F
330
1B
100
AcDbEntity
 67
     1
  8
0
  6
Continuous
 62
     2
100
AcDbLine
 10
2452.7591802171
 20
41.8328299227
 30
0.0
 11
2452.7591802171
 21
35.8328299227
 31
0.0
  0
LINE
  5
570
330
1B
100
AcDbEntity
 67
     1
  8
0
  6
Continuous
 62
     2
100
AcDbLine
 10
2472.7591802171
 20
53.8328299227
 30
0.0
 11
2472.7591802171
 21
47.8328299227
 31
0.0
  0
LINE
  5
571
330
1B
100
AcDbEntity
 67
     1
  8
0
  6
Continuous
 62
     2
100
AcDbLine
 10
2482.7591802171
 20
41.8328299227
 30
0.0
 11
2482.7591802171
 21
35.8328299227
 31
0.0
  0
LINE
  5
572
330
1B
100
AcDbEntity
 67
     1
  8
0
  6
Continuous
 62
     2
100
AcDbLine
 10
2492.7591802171
 20
69.8328299227
 30
0.0
 11
2492.7591802171
 21
3.8328299227
 31
0.0
  0
INSERT
  5
573
330
1B
100
AcDbEntity
 67
     1
  8
0
  6
Continuous
 62
     2
100
AcDbBlockReference
  2
PROIEZIONE_EU_BL0
 10
2377.7591802171
 20
61.4578299227
 30
0.0
  0
MTEXT
  5
574
330
1B
100
AcDbEntity
 67
     1
  8
9_SOLID
  6
Continuous
 62
     2
100
AcDbMText
 10
2394.2466802171
 20
68.2078299227
 30
0.0
 40
1.9
 41
142.3642857143
 46
0.0
 71
     1
 72
     1
  1
EN: Chamfer/radii unlisted 0.3x45°. Remove sharp edges.\PGen. tol.: hole H11, shaft h11, lenght Js12. UNI EN 22768 Medium Grande.
 73
     1
 44
1.0
  0
MTEXT
  5
575
330
1B
100
AcDbEntity
 67
     1
  8
9_SOLID
  6
Continuous
 62
     2
100
AcDbMText
 10
2394.2466802171
 20
60.2078299227
 30
0.0
 40
1.9
 41
148.2678571429
 46
0.0
 71
     1
 72
     1
  1
IT: Sm./rac. non quotati 0.3x45°. Eliminare spigoli taglienti.\PToll. gen.: foro H11, albero h11, lunghezza Js12. UNI EN 22768 Grado Medio.
 73
     1
 44
1.0
  0
INSERT
  5
576
330
1B
100
AcDbEntity
 67
     1
  8
0
  6
Continuous
 62
     2
100
AcDbBlockReference
  2
LOGO2_BL1
 10
2376.5852272619
 20
35.8328299227
 30
0.0
  0
MTEXT
  5
577
330
1B
100
AcDbEntity
 67
     1
  8
9_SOLID
  6
Continuous
 62
     2
100
AcDbMText
 10
2394.2466802171
 20
52.0828299227
 30
0.0
 40
3.0
 41
21.1071428571
 46
0.0
 71
     1
 72
     1
  1
Pj: 571
 73
     1
 44
1.0
  0
MTEXT
  5
578
330
1B
100
AcDbEntity
 67
     1
  8
0
  6
Continuous
 62
     2
100
AcDbMText
 10
2414.2466802171
 20
52.0828299227
 30
0.0
 40
3.0
 41
41.5714285714
 46
0.0
 71
     1
 72
     1
  1
% Check:  %
 73
     1
 44
1.0
  0
MTEXT
  5
579
330
1B
100
AcDbEntity
 67
     1
  8
9_SOLID
  6
Continuous
 62
     2
100
AcDbMText
 10
2454.2466802171
 20
52.0828299227
 30
0.0
 40
3.0
 41
19.5
 46
0.0
 71
     1
 72
     1
  1
Rev:00
 73
     1
 44
1.0
  0
MTEXT
  5
57A
330
1B
100
AcDbEntity
 67
     1
  8
9_SOLID
  6
Continuous
 62
     2
100
AcDbMText
 10
2474.2466802171
 20
52.3328299227
 30
0.0
 40
3.0
 41
19.7142857143
 46
0.0
 71
     1
 72
     1
  1
Ver: A
 73
     1
 44
1.0
  0
MTEXT
  5
57B
330
1B
100
AcDbEntity
 67
     1
  8
9_SOLID
  6
Continuous
 62
     2
100
AcDbMText
 10
2394.2466802171
 20
46.0828299227
 30
0.0
 40
3.0
 41
73.0714285714
 46
0.0
 71
     1
 72
     1
  1
Neutral code: 571_C_363
 73
     1
 44
1.0
  0
MTEXT
  5
57C
330
1B
100
AcDbEntity
 67
     1
  8
0
  6
Continuous
 62
     2
100
AcDbMText
 10
2394.2466802171
 20
40.0828299227
 30
0.0
 40
3.0
 41
22.9285714286
 46
0.0
 71
     1
 72
     1
  1
Code:  
 73
     1
 44
1.0
  0
MTEXT
  5
57D
330
1B
100
AcDbEntity
 67
     1
  8
9_SOLID
  6
Continuous
 62
     2
100
AcDbMText
 10
2454.2466802171
 20
40.3328299227
 30
0.0
 40
3.0
 41
27.8571428571
 46
0.0
 71
     1
 72
     1
  1
Scale: 1:1
 73
     1
 44
1.0
  0
MTEXT
  5
57E
330
1B
100
AcDbEntity
 67
     1
  8
9_SOLID
  6
Continuous
 62
     2
100
AcDbMText
 10
2487.7591802171
 20
40.3328299227
 30
0.0
 40
3.0
 41
38.0357142857
 46
0.0
 71
     2
 72
     1
  1
2500 by 500
 73
     1
 44
1.0
  0
MTEXT
  5
57F
330
1B
100
AcDbEntity
 67
     1
  8
9_SOLID
  6
Continuous
 62
     2
100
AcDbMText
 10
2394.2466802171
 20
33.9578299227
 30
0.0
 40
2.25
 41
125.8392857143
 46
0.0
 71
     1
 72
     1
  1
It descr.: CASSAFORMA RIO2.4 mm.2014,5 ALL PER CAR
 73
     1
 44
1.0
  0
MTEXT
  5
580
330
1B
100
AcDbEntity
 67
     1
  8
0
  6
Continuous
 62
     2
100
AcDbMText
 10
2394.2466802171
 20
28.3328299227
 30
0.0
 40
3.0
 41
37.5
 46
0.0
 71
     1
 72
     1
  1
En descr.:  
 73
     1
 44
1.0
  0
MTEXT
  5
581
330
1B
100
AcDbEntity
 67
     1
  8
9_SOLID
  6
Continuous
 62
     2
100
AcDbMText
 10
2394.2466802171
 20
22.3328299227
 30
0.0
 40
3.0
 41
31.2857142857
 46
0.0
 71
     1
 72
     1
  1
Des.: A.F.
 73
     1
 44
1.0
  0
MTEXT
  5
582
330
1B
100
AcDbEntity
 67
     1
  8
9_SOLID
  6
Continuous
 62
     2
100
AcDbMText
 10
2444.2466802171
 20
22.3328299227
 30
0.0
 40
3.0
 41
22.2857142857
 46
0.0
 71
     1
 72
     1
  1
Check: 
 73
     1
 44
1.0
  0
MTEXT
  5
583
330
1B
100
AcDbEntity
 67
     1
  8
9_SOLID
  6
Continuous
 62
     2
100
AcDbMText
 10
2364.2466802171
 20
16.3328299227
 30
0.0
 40
3.0
 41
42.5357142857
 46
0.0
 71
     1
 72
     1
  1
Date: 12.12.18
 73
     1
 44
1.0
  0
MTEXT
  5
584
330
1B
100
AcDbEntity
 67
     1
  8
0
  6
Continuous
 62
     2
100
AcDbMText
 10
2394.2466802171
 20
16.3328299227
 30
0.0
 40
3.0
 41
21.75
 46
0.0
 71
     1
 72
     1
  1
Mat.:  
 73
     1
 44
1.0
  0
MTEXT
  5
585
330
1B
100
AcDbEntity
 67
     1
  8
9_SOLID
  6
Continuous
 62
     2
100
AcDbMText
 10
2444.2466802171
 20
15.8328299227
 30
0.0
 40
2.0
 41
42.3571428571
 46
0.0
 71
     1
 72
     1
  1
Disegno per catalogo
 73
     1
 44
1.0
  0
MTEXT
  5
586
330
1B
100
AcDbEntity
 67
     1
  8
9_SOLID
  6
Continuous
 62
     2
100
AcDbMText
 10
2364.2466802171
 20
10.7328299227
 30
0.0
 40
1.8
 41
176.2071428571
 46
0.0
 71
     1
 72
     1
  1
It: A norma di legge si diffida da qualsiasi riproduzione senza nostra autorizzazione esplicita.
 73
     1
 44
1.0
  0
MTEXT
  5
587
330
1B
100
AcDbEntity
 67
     1
  8
9_SOLID
  6
Continuous
 62
     2
100
AcDbMText
 10
2364.2466802171
 20
6.7328299227
 30
0.0
 40
1.8
 41
158.1428571429
 46
0.0
 71
     1
 72
     1
  1
En: According to the law, beware of any reproduction made without our authorization.
 73
     1
 44
1.0
  0
ENDSEC
  0
SECTION
  2
OBJECTS
  0
DICTIONARY
  5
588
330
0
100
AcDbDictionary
281
     1
  3
ACAD_DETAILVIEWSTYLE
350
5DE
  3
ACAD_GROUP
350
589
  3
ACAD_LAYOUT
350
5B1
  3
ACAD_MATERIAL
350
5CD
  3
ACAD_MLEADERSTYLE
350
5D3
  3
ACAD_MLINESTYLE
350
58A
  3
ACAD_PLOTSETTINGS
350
58C
  3
ACAD_PLOTSTYLENAME
350
58D
  3
ACAD_SCALELIST
350
58F
  3
ACAD_SECTIONVIEWSTYLE
350
5DF
  3
ACAD_TABLESTYLE
350
5D1
  3
ACAD_VISUALSTYLE
350
5B4
  3
ACDB_RECOMPOSE_DATA
350
5DA
  3
AcDbVariableDictionary
350
5D6
  3
APPDATA
350
5D5
  0
DICTIONARY
  5
5DE
102
{ACAD_REACTORS
330
588
102
}
330
588
100
AcDbDictionary
281
     1
  0
DICTIONARY
  5
589
102
{ACAD_REACTORS
330
588
102
}
330
588
100
AcDbDictionary
281
     1
  0
DICTIONARY
  5
5B1
102
{ACAD_REACTORS
330
588
102
}
330
588
100
AcDbDictionary
281
     1
  3
Foglio 1
350
5B3
  3
Model
350
5B2
  0
DICTIONARY
  5
5CD
102
{ACAD_REACTORS
330
588
102
}
330
588
100
AcDbDictionary
281
     1
  3
ByBlock
350
5CF
  3
ByLayer
350
5CE
  3
Global
350
5D0
  0
DICTIONARY
  5
5D3
102
{ACAD_REACTORS
330
588
102
}
330
588
100
AcDbDictionary
281
     1
  3
Standard
350
5D4
  0
DICTIONARY
  5
58A
102
{ACAD_REACTORS
330
588
102
}
330
588
100
AcDbDictionary
281
     1
  3
STANDARD
350
58B
  0
DICTIONARY
  5
58C
102
{ACAD_REACTORS
330
588
102
}
330
588
100
AcDbDictionary
281
     1
  0
ACDBDICTIONARYWDFLT
  5
58D
102
{ACAD_REACTORS
330
588
102
}
330
588
100
AcDbDictionary
281
     1
  3
Normal
350
58E
100
AcDbDictionaryWithDefault
340
58E
  0
DICTIONARY
  5
58F
102
{ACAD_REACTORS
330
588
102
}
330
588
100
AcDbDictionary
281
     1
  3
A0
350
590
  3
A1
350
591
  3
A2
350
592
  3
A3
350
593
  3
A4
350
594
  3
A5
350
595
  3
A6
350
596
  3
A7
350
597
  3
A8
350
598
  3
A9
350
599
  3
B0
350
59A
  3
B1
350
59B
  3
B2
350
59C
  3
B3
350
59D
  3
B4
350
59E
  3
B5
350
59F
  3
B6
350
5A0
  3
B7
350
5A1
  3
B8
350
5A2
  3
B9
350
5A3
  3
C0
350
5A4
  3
C1
350
5A5
  3
C2
350
5A6
  3
C3
350
5A7
  3
C4
350
5A8
  3
C5
350
5A9
  3
C6
350
5AA
  3
C7
350
5AB
  3
C8
350
5AC
  3
C9
350
5AD
  3
D0
350
5AE
  3
D1
350
5AF
  3
D2
350
5B0
  0
DICTIONARY
  5
5DF
102
{ACAD_REACTORS
330
588
102
}
330
588
100
AcDbDictionary
281
     1
  0
DICTIONARY
  5
5D1
102
{ACAD_REACTORS
330
588
102
}
330
588
100
AcDbDictionary
281
     1
  3
Standard
350
5D2
  0
DICTIONARY
  5
5B4
102
{ACAD_REACTORS
330
588
102
}
330
588
100
AcDbDictionary
281
     1
  3
2dWireframe
350
5B9
  3
Basic
350
5BC
  3
Brighten
350
5C0
  3
ColorChange
350
5C4
  3
Conceptual
350
5BE
  3
Dim
350
5BF
  3
EdgeColorOff
350
5C7
  3
Facepattern
350
5C3
  3
Flat
350
5B5
  3
FlatWithEdges
350
5B6
  3
Gouraud
350
5B7
  3
GouraudWithEdges
350
5B8
  3
Hidden
350
5BB
  3
JitterOff
350
5C5
  3
Linepattern
350
5C2
  3
OverhangOff
350
5C6
  3
Realistic
350
5BD
  3
Shaded
350
5CC
  3
Shaded with edges
350
5CB
  3
Shades of Gray
350
5C8
  3
Sketchy
350
5C9
  3
Thicken
350
5C1
  3
Wireframe
350
5BA
  3
X-Ray
350
5CA
  0
XRECORD
  5
5DA
102
{ACAD_REACTORS
330
588
102
}
330
588
100
AcDbXrecord
280
     1
 90
        1
330
5D2
  0
DICTIONARY
  5
5D6
102
{ACAD_REACTORS
330
588
102
}
330
588
100
AcDbDictionary
281
     1
  3
CANNOSCALE
350
5D7
  3
CMLEADERSTYLE
350
5DC
  3
CTABLESTYLE
350
5DB
  3
MSLTSCALE
350
5DD
  0
DICTIONARY
  5
5D5
102
{ACAD_REACTORS
330
588
102
}
330
588
100
AcDbDictionary
281
     1
  0
LAYOUT
  5
5B3
102
{ACAD_REACTORS
330
5B1
102
}
330
5B1
100
AcDbPlotSettings
  1

  2
none_device
  4
ISO_A3_(420.00_x_297.00_MM)
  6

 40
7.5
 41
20.0
 42
7.5
 43
20.0
 44
420.0
 45
297.0
 46
0.0
 47
0.0
 48
0.0
 49
0.0
140
0.0
141
0.0
142
1.0
143
6.174096741276791
 70
   688
 72
     1
 73
     0
 74
     1
  7

 75
     0
 76
     0
 77
     2
 78
   300
147
0.1619670118406991
148
0.0
149
0.0
100
AcDbLayout
  1
Foglio 1
 70
     1
 71
     1
 10
0.0
 20
0.0
 11
412.5
 21
277.0
 12
0.0
 22
0.0
 32
0.0
 14
0.0
 24
0.0
 34
0.0
 15
2500.5091802171
 25
500.0
 35
0.0
146
0.0
 13
0.0
 23
0.0
 33
0.0
 16
1.0
 26
0.0
 36
0.0
 17
0.0
 27
1.0
 37
0.0
 76
     0
330
1B
331
2A4
  0
LAYOUT
  5
5B2
102
{ACAD_REACTORS
330
5B1
102
}
330
5B1
100
AcDbPlotSettings
  1

  2
none_device
  4
Letter_(8.50_x_11.00_Inches)
  6

 40
6.35
 41
6.35
 42
6.35
 43
6.35
 44
215.9
 45
279.4
 46
0.0
 47
0.0
 48
0.0
 49
0.0
140
0.0
141
0.0
142
1.0
143
312.5
 70
  1712
 72
     0
 73
     0
 74
     0
  7

 75
     0
 76
     0
 77
     2
 78
   300
147
0.0032
148
0.0
149
0.0
100
AcDbLayout
  1
Model
 70
     1
 71
     0
 10
0.0
 20
0.0
 11
2500.0
 21
500.0
 12
0.0
 22
0.0
 32
0.0
 14
0.0
 24
0.0
 34
0.0
 15
2500.0
 25
500.0
 35
0.0
146
0.0
 13
0.0
 23
0.0
 33
0.0
 16
1.0
 26
0.0
 36
0.0
 17
0.0
 27
1.0
 37
0.0
 76
     0
330
1F
331
1F4
  0
MATERIAL
  5
5CF
102
{ACAD_REACTORS
330
5CD
102
}
330
5CD
100
AcDbMaterial
  1
ByBlock
 72
     1
 94
      127
  0
MATERIAL
  5
5CE
102
{ACAD_REACTORS
330
5CD
102
}
330
5CD
100
AcDbMaterial
  1
ByLayer
 72
     1
 94
      127
  0
MATERIAL
  5
5D0
102
{ACAD_REACTORS
330
5CD
102
}
330
5CD
100
AcDbMaterial
  1
Global
 72
     1
 94
      127
  0
MLEADERSTYLE
  5
5D4
102
{ACAD_REACTORS
330
5D3
102
}
330
5D3
100
AcDbMLeaderStyle
179
     2
170
     2
171
     1
172
     0
 90
        2
 40
0.0
 41
0.0
173
     1
 91
-1056964608
340
14
 92
       -2
290
     1
 42
2.0
291
     1
 43
8.0
  3
Standard
341
0
 44
4.0
300

342
11
174
     1
178
     1
175
     1
176
     0
 93
-1056964608
 45
4.0
292
     0
297
     0
 46
4.0
343
0
 94
-1056964608
 47
1.0
 49
1.0
140
1.0
293
     1
141
0.0
294
     1
177
     0
142
1.0
295
     0
296
     0
143
3.75
271
     0
272
     9
273
     9
298
     0
  0
MLINESTYLE
  5
58B
102
{ACAD_REACTORS
330
58A
102
}
330
58A
100
AcDbMlineStyle
  2
STANDARD
 70
     0
  3

 62
   256
 51
90.0
 52
90.0
 71
     2
 49
0.5
 62
   256
  6
BYLAYER
 49
-0.5
 62
   256
  6
BYLAYER
  0
ACDBPLACEHOLDER
  5
58E
102
{ACAD_REACTORS
330
58D
102
}
330
58D
  0
SCALE
  5
590
102
{ACAD_REACTORS
330
58F
102
}
330
58F
100
AcDbScale
 70
     0
300
1:1
140
1.0
141
1.0
290
     1
  0
SCALE
  5
591
102
{ACAD_REACTORS
330
58F
102
}
330
58F
100
AcDbScale
 70
     0
300
1:2
140
1.0
141
2.0
290
     0
  0
SCALE
  5
592
102
{ACAD_REACTORS
330
58F
102
}
330
58F
100
AcDbScale
 70
     0
300
1:4
140
1.0
141
4.0
290
     0
  0
SCALE
  5
593
102
{ACAD_REACTORS
330
58F
102
}
330
58F
100
AcDbScale
 70
     0
300
1:5
140
1.0
141
5.0
290
     0
  0
SCALE
  5
594
102
{ACAD_REACTORS
330
58F
102
}
330
58F
100
AcDbScale
 70
     0
300
1:8
140
1.0
141
8.0
290
     0
  0
SCALE
  5
595
102
{ACAD_REACTORS
330
58F
102
}
330
58F
100
AcDbScale
 70
     0
300
1:10
140
1.0
141
10.0
290
     0
  0
SCALE
  5
596
102
{ACAD_REACTORS
330
58F
102
}
330
58F
100
AcDbScale
 70
     0
300
1:16
140
1.0
141
16.0
290
     0
  0
SCALE
  5
597
102
{ACAD_REACTORS
330
58F
102
}
330
58F
100
AcDbScale
 70
     0
300
1:20
140
1.0
141
20.0
290
     0
  0
SCALE
  5
598
102
{ACAD_REACTORS
330
58F
102
}
330
58F
100
AcDbScale
 70
     0
300
1:30
140
1.0
141
30.0
290
     0
  0
SCALE
  5
599
102
{ACAD_REACTORS
330
58F
102
}
330
58F
100
AcDbScale
 70
     0
300
1:40
140
1.0
141
40.0
290
     0
  0
SCALE
  5
59A
102
{ACAD_REACTORS
330
58F
102
}
330
58F
100
AcDbScale
 70
     0
300
1:50
140
1.0
141
50.0
290
     0
  0
SCALE
  5
59B
102
{ACAD_REACTORS
330
58F
102
}
330
58F
100
AcDbScale
 70
     0
300
1:100
140
1.0
141
100.0
290
     0
  0
SCALE
  5
59C
102
{ACAD_REACTORS
330
58F
102
}
330
58F
100
AcDbScale
 70
     0
300
2:1
140
2.0
141
1.0
290
     0
  0
SCALE
  5
59D
102
{ACAD_REACTORS
330
58F
102
}
330
58F
100
AcDbScale
 70
     0
300
4:1
140
4.0
141
1.0
290
     0
  0
SCALE
  5
59E
102
{ACAD_REACTORS
330
58F
102
}
330
58F
100
AcDbScale
 70
     0
300
8:1
140
8.0
141
1.0
290
     0
  0
SCALE
  5
59F
102
{ACAD_REACTORS
330
58F
102
}
330
58F
100
AcDbScale
 70
     0
300
10:1
140
10.0
141
1.0
290
     0
  0
SCALE
  5
5A0
102
{ACAD_REACTORS
330
58F
102
}
330
58F
100
AcDbScale
 70
     0
300
100:1
140
100.0
141
1.0
290
     0
  0
SCALE
  5
5A1
102
{ACAD_REACTORS
330
58F
102
}
330
58F
100
AcDbScale
 70
     0
300
1/128" = 1'-0"
140
0.0078125
141
12.0
290
     0
  0
SCALE
  5
5A2
102
{ACAD_REACTORS
330
58F
102
}
330
58F
100
AcDbScale
 70
     0
300
1/64" = 1'-0"
140
0.015625
141
12.0
290
     0
  0
SCALE
  5
5A3
102
{ACAD_REACTORS
330
58F
102
}
330
58F
100
AcDbScale
 70
     0
300
1/32" = 1'-0"
140
0.03125
141
12.0
290
     0
  0
SCALE
  5
5A4
102
{ACAD_REACTORS
330
58F
102
}
330
58F
100
AcDbScale
 70
     0
300
1/16" = 1'-0"
140
0.0625
141
12.0
290
     0
  0
SCALE
  5
5A5
102
{ACAD_REACTORS
330
58F
102
}
330
58F
100
AcDbScale
 70
     0
300
3/32" = 1'-0"
140
0.09375
141
12.0
290
     0
  0
SCALE
  5
5A6
102
{ACAD_REACTORS
330
58F
102
}
330
58F
100
AcDbScale
 70
     0
300
1/8" = 1'-0"
140
0.125
141
12.0
290
     0
  0
SCALE
  5
5A7
102
{ACAD_REACTORS
330
58F
102
}
330
58F
100
AcDbScale
 70
     0
300
3/16" = 1'-0"
140
0.1875
141
12.0
290
     0
  0
SCALE
  5
5A8
102
{ACAD_REACTORS
330
58F
102
}
330
58F
100
AcDbScale
 70
     0
300
1/4" = 1'-0"
140
0.25
141
12.0
290
     0
  0
SCALE
  5
5A9
102
{ACAD_REACTORS
330
58F
102
}
330
58F
100
AcDbScale
 70
     0
300
3/8" = 1'-0"
140
0.375
141
12.0
290
     0
  0
SCALE
  5
5AA
102
{ACAD_REACTORS
330
58F
102
}
330
58F
100
AcDbScale
 70
     0
300
1/2" = 1'-0"
140
0.5
141
12.0
290
     0
  0
SCALE
  5
5AB
102
{ACAD_REACTORS
330
58F
102
}
330
58F
100
AcDbScale
 70
     0
300
3/4" = 1'-0"
140
0.75
141
12.0
290
     0
  0
SCALE
  5
5AC
102
{ACAD_REACTORS
330
58F
102
}
330
58F
100
AcDbScale
 70
     0
300
1" = 1'-0"
140
1.0
141
12.0
290
     0
  0
SCALE
  5
5AD
102
{ACAD_REACTORS
330
58F
102
}
330
58F
100
AcDbScale
 70
     0
300
1-1/2" = 1'-0"
140
1.5
141
12.0
290
     0
  0
SCALE
  5
5AE
102
{ACAD_REACTORS
330
58F
102
}
330
58F
100
AcDbScale
 70
     0
300
3" = 1'-0"
140
3.0
141
12.0
290
     0
  0
SCALE
  5
5AF
102
{ACAD_REACTORS
330
58F
102
}
330
58F
100
AcDbScale
 70
     0
300
6" = 1'-0"
140
6.0
141
12.0
290
     0
  0
SCALE
  5
5B0
102
{ACAD_REACTORS
330
58F
102
}
330
58F
100
AcDbScale
 70
     0
300
1'-0" = 1'-0"
140
12.0
141
12.0
290
     0
  0
TABLESTYLE
  5
5D2
102
{ACAD_REACTORS
330
5D1
102
}
102
{ACAD_XDICTIONARY
360
5D8
102
}
330
5D1
100
AcDbTableStyle
  3
Standard
 70
     0
 71
     0
 40
0.06
 41
0.06
280
     0
281
     0
  7
STANDARD
140
4.5
170
     2
 62
     0
 63
   257
283
     0
 90
        4
 91
        0
  1

274
    -2
284
     1
 64
     0
275
    -2
285
     1
 65
     0
276
    -2
286
     1
 66
     0
277
    -2
287
     1
 67
     0
278
    -2
288
     1
 68
     0
279
    -2
289
     1
 69
     0
  7
STANDARD
140
6.0
170
     5
 62
     0
 63
   257
283
     0
 90
        4
 91
        0
  1

274
    -2
284
     1
 64
     0
275
    -2
285
     1
 65
     0
276
    -2
286
     1
 66
     0
277
    -2
287
     1
 67
     0
278
    -2
288
     1
 68
     0
279
    -2
289
     1
 69
     0
  7
STANDARD
140
4.5
170
     5
 62
     0
 63
   257
283
     0
 90
        4
 91
        0
  1

274
    -2
284
     1
 64
     0
275
    -2
285
     1
 65
     0
276
    -2
286
     1
 66
     0
277
    -2
287
     1
 67
     0
278
    -2
288
     1
 68
     0
279
    -2
289
     1
 69
     0
  0
VISUALSTYLE
  5
5B9
102
{ACAD_REACTORS
330
5B4
102
}
330
5B4
100
AcDbVisualStyle
  2
2dWireframe
 70
     4
177
     3
291
     0
 70
    58
 90
        0
176
     1
 90
        2
176
     1
 90
        0
176
     1
 90
        0
176
     1
 40
0.6
176
     1
 40
30.0
176
     1
 62
     7
420
 16777215
176
     1
 90
        1
176
     1
 90
        4
176
     1
 62
     7
176
     1
 62
   257
176
     1
 90
        1
176
     1
 90
        1
176
     1
 40
1.0
176
     1
 90
        0
176
     1
 62
   257
176
     1
 40
1.0
176
     1
 90
        1
176
     1
 90
        6
176
     1
 90
        2
176
     1
 62
     7
176
     1
 90
        5
176
     1
 90
        0
176
     1
 90
        0
176
     1
290
     0
176
     1
 90
        1
176
     1
 40
0.0
176
     1
 90
        0
176
     1
290
     1
176
     1
290
     1
176
     1
290
     0
176
     1
290
     0
176
     1
290
     0
176
     1
290
     0
176
     1
290
     0
176
     1
290
     0
176
     1
290
     0
176
     1
 90
       50
176
     1
 40
0.0
176
     1
 40
1.0
176
     1
 90
        0
176
     1
 62
    18
420
        0
176
     1
 90
       50
176
     1
 90
        3
176
     1
 62
     5
420
      255
176
     1
290
     0
176
     1
 90
       50
176
     1
 90
       50
176
     1
 90
       50
176
     1
290
     0
176
     1
 90
       50
176
     1
 62
   256
176
     0
 40
1.0
176
     0
 90
        2
176
     1
  1
strokes_ogs.tif
176
     1
290
     0
176
     1
 40
1.0
176
     1
 40
1.0
176
     1
  0
VISUALSTYLE
  5
5BC
102
{ACAD_REACTORS
330
5B4
102
}
330
5B4
100
AcDbVisualStyle
  2
Basic
 70
     7
177
     3
291
     1
 70
    58
 90
        1
176
     1
 90
        0
176
     1
 90
        1
176
     1
 90
        0
176
     1
 40
0.6
176
     1
 40
30.0
176
     1
 62
     7
420
 16777215
176
     1
 90
        0
176
     1
 90
        4
176
     1
 62
     7
176
     1
 62
   257
176
     1
 90
        1
176
     1
 90
        1
176
     1
 40
1.0
176
     1
 90
        8
176
     1
 62
     7
176
     1
 40
1.0
176
     1
 90
        1
176
     1
 90
        6
176
     1
 90
        2
176
     1
 62
     7
176
     1
 90
        5
176
     1
 90
        0
176
     1
 90
        0
176
     1
290
     0
176
     1
 90
        1
176
     1
 40
0.0
176
     1
 90
        0
176
     1
290
     0
176
     1
290
     1
176
     1
290
     1
176
     1
290
     0
176
     1
290
     0
176
     1
290
     0
176
     1
290
     0
176
     1
290
     0
176
     1
290
     0
176
     1
 90
       50
176
     1
 40
0.0
176
     1
 40
1.0
176
     1
 90
        0
176
     1
 62
    18
420
        0
176
     1
 90
       50
176
     1
 90
        3
176
     1
 62
     5
420
      255
176
     1
290
     0
176
     1
 90
       50
176
     1
 90
       50
176
     1
 90
       50
176
     1
290
     0
176
     1
 90
       50
176
     1
 62
   256
176
     0
 40
1.0
176
     0
 90
        2
176
     1
  1
strokes_ogs.tif
176
     1
290
     0
176
     1
 40
1.0
176
     1
 40
1.0
176
     1
  0
VISUALSTYLE
  5
5C0
102
{ACAD_REACTORS
330
5B4
102
}
330
5B4
100
AcDbVisualStyle
  2
Brighten
 70
    12
177
     3
291
     1
 70
    58
 90
        2
176
     1
 90
        2
176
     1
 90
        0
176
     1
 90
        0
176
     1
 40
0.6
176
     1
 40
30.0
176
     1
 62
     7
420
 16777215
176
     1
 90
        1
176
     1
 90
        4
176
     1
 62
     7
176
     1
 62
   257
176
     1
 90
        1
176
     1
 90
        1
176
     1
 40
1.0
176
     1
 90
        8
176
     1
 62
     7
176
     1
 40
1.0
176
     1
 90
        1
176
     1
 90
        6
176
     1
 90
        2
176
     1
 62
     7
176
     1
 90
        5
176
     1
 90
        0
176
     1
 90
        0
176
     1
290
     0
176
     1
 90
        1
176
     1
 40
50.0
176
     1
 90
        0
176
     1
290
     0
176
     1
290
     1
176
     1
290
     1
176
     1
290
     0
176
     1
290
     0
176
     1
290
     0
176
     1
290
     0
176
     1
290
     0
176
     1
290
     0
176
     1
 90
       50
176
     1
 40
0.0
176
     1
 40
1.0
176
     1
 90
        0
176
     1
 62
    18
420
        0
176
     1
 90
       50
176
     1
 90
        3
176
     1
 62
     5
420
      255
176
     1
290
     0
176
     1
 90
       50
176
     1
 90
       50
176
     1
 90
       50
176
     1
290
     0
176
     1
 90
       50
176
     1
 62
   256
176
     0
 40
1.0
176
     0
 90
        2
176
     1
  1
strokes_ogs.tif
176
     1
290
     0
176
     1
 40
1.0
176
     1
 40
1.0
176
     1
  0
VISUALSTYLE
  5
5C4
102
{ACAD_REACTORS
330
5B4
102
}
330
5B4
100
AcDbVisualStyle
  2
ColorChange
 70
    16
177
     3
291
     1
 70
    58
 90
        2
176
     1
 90
        2
176
     1
 90
        3
176
     1
 90
        0
176
     1
 40
0.6
176
     1
 40
30.0
176
     1
 62
     8
420
  8421504
176
     1
 90
        1
176
     1
 90
        4
176
     1
 62
     7
176
     1
 62
   257
176
     1
 90
        1
176
     1
 90
        1
176
     1
 40
1.0
176
     1
 90
        8
176
     1
 62
     8
420
  8421504
176
     1
 40
1.0
176
     1
 90
        1
176
     1
 90
        6
176
     1
 90
        2
176
     1
 62
     7
176
     1
 90
        5
176
     1
 90
        0
176
     1
 90
        0
176
     1
290
     0
176
     1
 90
        1
176
     1
 40
0.0
176
     1
 90
        0
176
     1
290
     0
176
     1
290
     1
176
     1
290
     1
176
     1
290
     0
176
     1
290
     0
176
     1
290
     0
176
     1
290
     0
176
     1
290
     0
176
     1
290
     0
176
     1
 90
       50
176
     1
 40
0.0
176
     1
 40
1.0
176
     1
 90
        0
176
     1
 62
    18
420
        0
176
     1
 90
       50
176
     1
 90
        3
176
     1
 62
     5
420
      255
176
     1
290
     0
176
     1
 90
       50
176
     1
 90
       50
176
     1
 90
       50
176
     1
290
     0
176
     1
 90
       50
176
     1
 62
   256
176
     0
 40
1.0
176
     0
 90
        2
176
     1
  1
strokes_ogs.tif
176
     1
290
     0
176
     1
 40
1.0
176
     1
 40
1.0
176
     1
  0
VISUALSTYLE
  5
5BE
102
{ACAD_REACTORS
330
5B4
102
}
330
5B4
100
AcDbVisualStyle
  2
Conceptual
 70
     9
177
     3
291
     0
 70
    58
 90
        3
176
     1
 90
        2
176
     1
 90
        0
176
     1
 90
        0
176
     1
 40
0.6
176
     1
 40
30.0
176
     1
 62
     7
420
 16777215
176
     1
 90
        2
176
     1
 90
        2
176
     1
 62
     7
176
     1
 62
   257
176
     1
 90
        1
176
     1
 90
        1
176
     1
 40
179.0
176
     1
 90
        8
176
     1
 62
     7
176
     1
 40
1.0
176
     1
 90
        1
176
     1
 90
        6
176
     1
 90
        2
176
     1
 62
     7
176
     1
 90
        3
176
     1
 90
        0
176
     1
 90
        0
176
     1
290
     0
176
     1
 90
        1
176
     1
 40
0.0
176
     1
 90
        0
176
     1
290
     0
176
     1
290
     1
176
     1
290
     1
176
     1
290
     0
176
     1
290
     0
176
     1
290
     0
176
     1
290
     0
176
     1
290
     0
176
     1
290
     0
176
     1
 90
       50
176
     1
 40
0.0
176
     1
 40
1.0
176
     1
 90
        0
176
     1
 62
    18
420
        0
176
     1
 90
       50
176
     1
 90
        3
176
     1
 62
     5
420
      255
176
     1
290
     0
176
     1
 90
       50
176
     1
 90
       50
176
     1
 90
       50
176
     1
290
     0
176
     1
 90
       50
176
     1
 62
   256
176
     0
 40
1.0
176
     0
 90
        2
176
     1
  1
strokes_ogs.tif
176
     1
290
     0
176
     1
 40
1.0
176
     1
 40
1.0
176
     1
  0
VISUALSTYLE
  5
5BF
102
{ACAD_REACTORS
330
5B4
102
}
330
5B4
100
AcDbVisualStyle
  2
Dim
 70
    11
177
     3
291
     1
 70
    58
 90
        2
176
     1
 90
        2
176
     1
 90
        0
176
     1
 90
        0
176
     1
 40
0.6
176
     1
 40
30.0
176
     1
 62
     7
420
 16777215
176
     1
 90
        1
176
     1
 90
        4
176
     1
 62
     7
176
     1
 62
   257
176
     1
 90
        1
176
     1
 90
        1
176
     1
 40
1.0
176
     1
 90
        8
176
     1
 62
     7
176
     1
 40
1.0
176
     1
 90
        1
176
     1
 90
        6
176
     1
 90
        2
176
     1
 62
     7
176
     1
 90
        5
176
     1
 90
        0
176
     1
 90
        0
176
     1
290
     0
176
     1
 90
        1
176
     1
 40
-50.0
176
     1
 90
        0
176
     1
290
     0
176
     1
290
     1
176
     1
290
     1
176
     1
290
     0
176
     1
290
     0
176
     1
290
     0
176
     1
290
     0
176
     1
290
     0
176
     1
290
     0
176
     1
 90
       50
176
     1
 40
0.0
176
     1
 40
1.0
176
     1
 90
        0
176
     1
 62
    18
420
        0
176
     1
 90
       50
176
     1
 90
        3
176
     1
 62
     5
420
      255
176
     1
290
     0
176
     1
 90
       50
176
     1
 90
       50
176
     1
 90
       50
176
     1
290
     0
176
     1
 90
       50
176
     1
 62
   256
176
     0
 40
1.0
176
     0
 90
        2
176
     1
  1
strokes_ogs.tif
176
     1
290
     0
176
     1
 40
1.0
176
     1
 40
1.0
176
     1
  0
VISUALSTYLE
  5
5C7
102
{ACAD_REACTORS
330
5B4
102
}
330
5B4
100
AcDbVisualStyle
  2
EdgeColorOff
 70
    22
177
     3
291
     1
 70
    58
 90
        2
176
     0
 90
        2
176
     0
 90
        0
176
     0
 90
        0
176
     0
 40
0.6
176
     0
 40
30.0
176
     0
 62
     7
420
 16777215
176
     0
 90
        1
176
     0
 90
        4
176
     0
 62
     7
176
     0
 62
   257
176
     0
 90
        1
176
     0
 90
        1
176
     0
 40
1.0
176
     0
 90
        8
176
     2
 62
     7
176
     0
 40
1.0
176
     0
 90
        1
176
     0
 90
        6
176
     0
 90
        2
176
     0
 62
     7
176
     0
 90
        5
176
     0
 90
        0
176
     0
 90
        0
176
     0
290
     0
176
     0
 90
        1
176
     0
 40
0.0
176
     0
 90
        0
176
     0
290
     0
176
     0
290
     1
176
     0
290
     1
176
     0
290
     0
176
     0
290
     0
176
     0
290
     0
176
     0
290
     0
176
     0
290
     0
176
     0
290
     0
176
     0
 90
       50
176
     0
 40
0.0
176
     0
 40
1.0
176
     0
 90
        0
176
     0
 62
    18
420
        0
176
     0
 90
       50
176
     0
 90
        3
176
     0
 62
     5
420
      255
176
     0
290
     0
176
     0
 90
       50
176
     0
 90
       50
176
     0
 90
       50
176
     0
290
     0
176
     0
 90
       50
176
     0
 62
   256
176
     0
 40
1.0
176
     0
 90
        2
176
     0
  1
strokes_ogs.tif
176
     0
290
     0
176
     0
 40
1.0
176
     0
 40
1.0
176
     0
  0
VISUALSTYLE
  5
5C3
102
{ACAD_REACTORS
330
5B4
102
}
330
5B4
100
AcDbVisualStyle
  2
Facepattern
 70
    15
177
     3
291
     1
 70
    58
 90
        2
176
     1
 90
        2
176
     1
 90
        0
176
     1
 90
        0
176
     1
 40
0.6
176
     1
 40
30.0
176
     1
 62
     7
420
 16777215
176
     1
 90
        1
176
     1
 90
        4
176
     1
 62
     7
176
     1
 62
   257
176
     1
 90
        1
176
     1
 90
        1
176
     1
 40
1.0
176
     1
 90
        8
176
     1
 62
     7
176
     1
 40
1.0
176
     1
 90
        1
176
     1
 90
        6
176
     1
 90
        2
176
     1
 62
     7
176
     1
 90
        5
176
     1
 90
        0
176
     1
 90
        0
176
     1
290
     0
176
     1
 90
        1
176
     1
 40
0.0
176
     1
 90
        0
176
     1
290
     0
176
     1
290
     1
176
     1
290
     1
176
     1
290
     0
176
     1
290
     0
176
     1
290
     0
176
     1
290
     0
176
     1
290
     0
176
     1
290
     0
176
     1
 90
       50
176
     1
 40
0.0
176
     1
 40
1.0
176
     1
 90
        0
176
     1
 62
    18
420
        0
176
     1
 90
       50
176
     1
 90
        3
176
     1
 62
     5
420
      255
176
     1
290
     0
176
     1
 90
       50
176
     1
 90
       50
176
     1
 90
       50
176
     1
290
     0
176
     1
 90
       50
176
     1
 62
   256
176
     0
 40
1.0
176
     0
 90
        2
176
     1
  1
strokes_ogs.tif
176
     1
290
     0
176
     1
 40
1.0
176
     1
 40
1.0
176
     1
  0
VISUALSTYLE
  5
5B5
102
{ACAD_REACTORS
330
5B4
102
}
330
5B4
100
AcDbVisualStyle
  2
Flat
 70
     0
177
     3
291
     1
 70
    58
 90
        2
176
     1
 90
        1
176
     1
 90
        1
176
     1
 90
        2
176
     1
 40
0.6
176
     1
 40
30.0
176
     1
 62
     7
420
 16777215
176
     1
 90
        0
176
     1
 90
        0
176
     1
 62
     7
176
     1
 62
   257
176
     1
 90
        1
176
     1
 90
        1
176
     1
 40
1.0
176
     1
 90
        8
176
     1
 62
     7
176
     1
 40
1.0
176
     1
 90
        1
176
     1
 90
        6
176
     1
 90
        2
176
     1
 62
     7
176
     1
 90
        5
176
     1
 90
        0
176
     1
 90
        0
176
     1
290
     0
176
     1
 90
       13
176
     1
 40
0.0
176
     1
 90
        0
176
     1
290
     0
176
     1
290
     1
176
     1
290
     1
176
     1
290
     0
176
     1
290
     0
176
     1
290
     0
176
     1
290
     0
176
     1
290
     0
176
     1
290
     0
176
     1
 90
       50
176
     1
 40
0.0
176
     1
 40
1.0
176
     1
 90
        0
176
     1
 62
    18
420
        0
176
     1
 90
       50
176
     1
 90
        3
176
     1
 62
     5
420
      255
176
     1
290
     0
176
     1
 90
       50
176
     1
 90
       50
176
     1
 90
       50
176
     1
290
     0
176
     1
 90
       50
176
     1
 62
   256
176
     0
 40
1.0
176
     0
 90
        2
176
     1
  1
strokes_ogs.tif
176
     1
290
     0
176
     1
 40
1.0
176
     1
 40
1.0
176
     1
  0
VISUALSTYLE
  5
5B6
102
{ACAD_REACTORS
330
5B4
102
}
330
5B4
100
AcDbVisualStyle
  2
FlatWithEdges
 70
     1
177
     3
291
     1
 70
    58
 90
        2
176
     1
 90
        1
176
     1
 90
        1
176
     1
 90
        2
176
     1
 40
0.6
176
     1
 40
30.0
176
     1
 62
     7
420
 16777215
176
     1
 90
        1
176
     1
 90
        0
176
     1
 62
     7
176
     1
 62
   257
176
     1
 90
        1
176
     1
 90
        1
176
     1
 40
1.0
176
     1
 90
        0
176
     1
 62
   257
176
     1
 40
1.0
176
     1
 90
        1
176
     1
 90
        6
176
     1
 90
        2
176
     1
 62
     7
176
     1
 90
        5
176
     1
 90
        0
176
     1
 90
        0
176
     1
290
     0
176
     1
 90
       13
176
     1
 40
0.0
176
     1
 90
        0
176
     1
290
     0
176
     1
290
     1
176
     1
290
     1
176
     1
290
     0
176
     1
290
     0
176
     1
290
     0
176
     1
290
     0
176
     1
290
     0
176
     1
290
     0
176
     1
 90
       50
176
     1
 40
0.0
176
     1
 40
1.0
176
     1
 90
        0
176
     1
 62
    18
420
        0
176
     1
 90
       50
176
     1
 90
        3
176
     1
 62
     5
420
      255
176
     1
290
     0
176
     1
 90
       50
176
     1
 90
       50
176
     1
 90
       50
176
     1
290
     0
176
     1
 90
       50
176
     1
 62
   256
176
     0
 40
1.0
176
     0
 90
        2
176
     1
  1
strokes_ogs.tif
176
     1
290
     0
176
     1
 40
1.0
176
     1
 40
1.0
176
     1
  0
VISUALSTYLE
  5
5B7
102
{ACAD_REACTORS
330
5B4
102
}
330
5B4
100
AcDbVisualStyle
  2
Gouraud
 70
     2
177
     3
291
     1
 70
    58
 90
        2
176
     1
 90
        2
176
     1
 90
        1
176
     1
 90
        2
176
     1
 40
0.6
176
     1
 40
30.0
176
     1
 62
     7
420
 16777215
176
     1
 90
        0
176
     1
 90
        0
176
     1
 62
     7
176
     1
 62
   257
176
     1
 90
        1
176
     1
 90
        1
176
     1
 40
1.0
176
     1
 90
        0
176
     1
 62
     7
176
     1
 40
1.0
176
     1
 90
        1
176
     1
 90
        6
176
     1
 90
        2
176
     1
 62
     7
176
     1
 90
        5
176
     1
 90
        0
176
     1
 90
        0
176
     1
290
     0
176
     1
 90
       13
176
     1
 40
0.0
176
     1
 90
        0
176
     1
290
     0
176
     1
290
     1
176
     1
290
     1
176
     1
290
     0
176
     1
290
     0
176
     1
290
     0
176
     1
290
     0
176
     1
290
     0
176
     1
290
     0
176
     1
 90
       50
176
     1
 40
0.0
176
     1
 40
1.0
176
     1
 90
        0
176
     1
 62
    18
420
        0
176
     1
 90
       50
176
     1
 90
        3
176
     1
 62
     5
420
      255
176
     1
290
     0
176
     1
 90
       50
176
     1
 90
       50
176
     1
 90
       50
176
     1
290
     0
176
     1
 90
       50
176
     1
 62
   256
176
     0
 40
1.0
176
     0
 90
        2
176
     1
  1
strokes_ogs.tif
176
     1
290
     0
176
     1
 40
1.0
176
     1
 40
1.0
176
     1
  0
VISUALSTYLE
  5
5B8
102
{ACAD_REACTORS
330
5B4
102
}
330
5B4
100
AcDbVisualStyle
  2
GouraudWithEdges
 70
     3
177
     3
291
     1
 70
    58
 90
        2
176
     1
 90
        2
176
     1
 90
        1
176
     1
 90
        2
176
     1
 40
0.6
176
     1
 40
30.0
176
     1
 62
     7
420
 16777215
176
     1
 90
        1
176
     1
 90
        0
176
     1
 62
     7
176
     1
 62
   257
176
     1
 90
        1
176
     1
 90
        1
176
     1
 40
1.0
176
     1
 90
        0
176
     1
 62
   257
176
     1
 40
1.0
176
     1
 90
        1
176
     1
 90
        6
176
     1
 90
        2
176
     1
 62
     7
176
     1
 90
        5
176
     1
 90
        0
176
     1
 90
        0
176
     1
290
     0
176
     1
 90
       13
176
     1
 40
0.0
176
     1
 90
        0
176
     1
290
     0
176
     1
290
     1
176
     1
290
     1
176
     1
290
     0
176
     1
290
     0
176
     1
290
     0
176
     1
290
     0
176
     1
290
     0
176
     1
290
     0
176
     1
 90
       50
176
     1
 40
0.0
176
     1
 40
1.0
176
     1
 90
        0
176
     1
 62
    18
420
        0
176
     1
 90
       50
176
     1
 90
        3
176
     1
 62
     5
420
      255
176
     1
290
     0
176
     1
 90
       50
176
     1
 90
       50
176
     1
 90
       50
176
     1
290
     0
176
     1
 90
       50
176
     1
 62
   256
176
     0
 40
1.0
176
     0
 90
        2
176
     1
  1
strokes_ogs.tif
176
     1
290
     0
176
     1
 40
1.0
176
     1
 40
1.0
176
     1
  0
VISUALSTYLE
  5
5BB
102
{ACAD_REACTORS
330
5B4
102
}
330
5B4
100
AcDbVisualStyle
  2
Hidden
 70
     6
177
     3
291
     0
 70
    58
 90
        1
176
     1
 90
        2
176
     1
 90
        2
176
     1
 90
        0
176
     1
 40
0.6
176
     1
 40
30.0
176
     1
 62
     7
420
 16777215
176
     1
 90
        2
176
     1
 90
        2
176
     1
 62
     7
176
     1
 62
   257
176
     1
 90
        2
176
     1
 90
        1
176
     1
 40
40.0
176
     1
 90
        0
176
     1
 62
   257
176
     1
 40
1.0
176
     1
 90
        1
176
     1
 90
        6
176
     1
 90
        2
176
     1
 62
     7
176
     1
 90
        3
176
     1
 90
        0
176
     1
 90
        0
176
     1
290
     0
176
     1
 90
        1
176
     1
 40
0.0
176
     1
 90
        0
176
     1
290
     0
176
     1
290
     1
176
     1
290
     1
176
     1
290
     0
176
     1
290
     0
176
     1
290
     0
176
     1
290
     0
176
     1
290
     0
176
     1
290
     0
176
     1
 90
       50
176
     1
 40
0.0
176
     1
 40
1.0
176
     1
 90
        0
176
     1
 62
    18
420
        0
176
     1
 90
       50
176
     1
 90
        3
176
     1
 62
     5
420
      255
176
     1
290
     0
176
     1
 90
       50
176
     1
 90
       50
176
     1
 90
       50
176
     1
290
     0
176
     1
 90
       50
176
     1
 62
   256
176
     0
 40
1.0
176
     0
 90
        2
176
     1
  1
strokes_ogs.tif
176
     1
290
     0
176
     1
 40
1.0
176
     1
 40
1.0
176
     1
  0
VISUALSTYLE
  5
5C5
102
{ACAD_REACTORS
330
5B4
102
}
330
5B4
100
AcDbVisualStyle
  2
JitterOff
 70
    20
177
     3
291
     1
 70
    58
 90
        2
176
     0
 90
        2
176
     0
 90
        0
176
     0
 90
        0
176
     0
 40
0.6
176
     0
 40
30.0
176
     0
 62
     7
420
 16777215
176
     0
 90
        1
176
     0
 90
        4
176
     0
 62
     7
176
     0
 62
   257
176
     0
 90
        1
176
     0
 90
        1
176
     0
 40
1.0
176
     0
 90
       10
176
     2
 62
     7
176
     0
 40
1.0
176
     0
 90
        1
176
     0
 90
        6
176
     0
 90
        2
176
     0
 62
     7
176
     0
 90
        5
176
     0
 90
        0
176
     0
 90
        0
176
     0
290
     0
176
     0
 90
        1
176
     0
 40
0.0
176
     0
 90
        0
176
     0
290
     0
176
     0
290
     1
176
     0
290
     1
176
     0
290
     0
176
     0
290
     0
176
     0
290
     0
176
     0
290
     0
176
     0
290
     0
176
     0
290
     0
176
     0
 90
       50
176
     0
 40
0.0
176
     0
 40
1.0
176
     0
 90
        0
176
     0
 62
    18
420
        0
176
     0
 90
       50
176
     0
 90
        3
176
     0
 62
     5
420
      255
176
     0
290
     0
176
     0
 90
       50
176
     0
 90
       50
176
     0
 90
       50
176
     0
290
     0
176
     0
 90
       50
176
     0
 62
   256
176
     0
 40
1.0
176
     0
 90
        2
176
     0
  1
strokes_ogs.tif
176
     0
290
     0
176
     0
 40
1.0
176
     0
 40
1.0
176
     0
  0
VISUALSTYLE
  5
5C2
102
{ACAD_REACTORS
330
5B4
102
}
330
5B4
100
AcDbVisualStyle
  2
Linepattern
 70
    14
177
     3
291
     1
 70
    58
 90
        2
176
     1
 90
        2
176
     1
 90
        0
176
     1
 90
        0
176
     1
 40
0.6
176
     1
 40
30.0
176
     1
 62
     7
420
 16777215
176
     1
 90
        1
176
     1
 90
        4
176
     1
 62
     7
176
     1
 62
   257
176
     1
 90
        7
176
     1
 90
        7
176
     1
 40
1.0
176
     1
 90
        8
176
     1
 62
     7
176
     1
 40
1.0
176
     1
 90
        1
176
     1
 90
        6
176
     1
 90
        2
176
     1
 62
     7
176
     1
 90
        5
176
     1
 90
        0
176
     1
 90
        0
176
     1
290
     0
176
     1
 90
        1
176
     1
 40
0.0
176
     1
 90
        0
176
     1
290
     0
176
     1
290
     1
176
     1
290
     1
176
     1
290
     0
176
     1
290
     0
176
     1
290
     0
176
     1
290
     0
176
     1
290
     0
176
     1
290
     0
176
     1
 90
       50
176
     1
 40
0.0
176
     1
 40
1.0
176
     1
 90
        0
176
     1
 62
    18
420
        0
176
     1
 90
       50
176
     1
 90
        3
176
     1
 62
     5
420
      255
176
     1
290
     0
176
     1
 90
       50
176
     1
 90
       50
176
     1
 90
       50
176
     1
290
     0
176
     1
 90
       50
176
     1
 62
   256
176
     0
 40
1.0
176
     0
 90
        2
176
     1
  1
strokes_ogs.tif
176
     1
290
     0
176
     1
 40
1.0
176
     1
 40
1.0
176
     1
  0
VISUALSTYLE
  5
5C6
102
{ACAD_REACTORS
330
5B4
102
}
330
5B4
100
AcDbVisualStyle
  2
OverhangOff
 70
    21
177
     3
291
     1
 70
    58
 90
        2
176
     0
 90
        2
176
     0
 90
        0
176
     0
 90
        0
176
     0
 40
0.6
176
     0
 40
30.0
176
     0
 62
     7
420
 16777215
176
     0
 90
        1
176
     0
 90
        4
176
     0
 62
     7
176
     0
 62
   257
176
     0
 90
        1
176
     0
 90
        1
176
     0
 40
1.0
176
     0
 90
        9
176
     2
 62
     7
176
     0
 40
1.0
176
     0
 90
        1
176
     0
 90
        6
176
     0
 90
        2
176
     0
 62
     7
176
     0
 90
        5
176
     0
 90
        0
176
     0
 90
        0
176
     0
290
     0
176
     0
 90
        1
176
     0
 40
0.0
176
     0
 90
        0
176
     0
290
     0
176
     0
290
     1
176
     0
290
     1
176
     0
290
     0
176
     0
290
     0
176
     0
290
     0
176
     0
290
     0
176
     0
290
     0
176
     0
290
     0
176
     0
 90
       50
176
     0
 40
0.0
176
     0
 40
1.0
176
     0
 90
        0
176
     0
 62
    18
420
        0
176
     0
 90
       50
176
     0
 90
        3
176
     0
 62
     5
420
      255
176
     0
290
     0
176
     0
 90
       50
176
     0
 90
       50
176
     0
 90
       50
176
     0
290
     0
176
     0
 90
       50
176
     0
 62
   256
176
     0
 40
1.0
176
     0
 90
        2
176
     0
  1
strokes_ogs.tif
176
     0
290
     0
176
     0
 40
1.0
176
     0
 40
1.0
176
     0
  0
VISUALSTYLE
  5
5BD
102
{ACAD_REACTORS
330
5B4
102
}
330
5B4
100
AcDbVisualStyle
  2
Realistic
 70
     8
177
     3
291
     0
 70
    58
 90
        2
176
     1
 90
        3
176
     1
 90
        0
176
     1
 90
        2
176
     1
 40
0.6
176
     1
 40
30.0
176
     1
 62
     7
420
 16777215
176
     1
 90
        0
176
     1
 90
        0
176
     1
 62
     7
176
     1
 62
   257
176
     1
 90
        1
176
     1
 90
        1
176
     1
 40
1.0
176
     1
 90
        8
176
     1
 62
   257
176
     1
 40
1.0
176
     1
 90
        1
176
     1
 90
        6
176
     1
 90
        2
176
     1
 62
     7
176
     1
 90
        3
176
     1
 90
        0
176
     1
 90
        0
176
     1
290
     0
176
     1
 90
       13
176
     1
 40
0.0
176
     1
 90
        0
176
     1
290
     0
176
     1
290
     1
176
     1
290
     1
176
     1
290
     0
176
     1
290
     0
176
     1
290
     0
176
     1
290
     0
176
     1
290
     0
176
     1
290
     0
176
     1
 90
       50
176
     1
 40
0.0
176
     1
 40
1.0
176
     1
 90
        0
176
     1
 62
    18
420
        0
176
     1
 90
       50
176
     1
 90
        3
176
     1
 62
     5
420
      255
176
     1
290
     0
176
     1
 90
       50
176
     1
 90
       50
176
     1
 90
       50
176
     1
290
     0
176
     1
 90
       50
176
     1
 62
   256
176
     0
 40
1.0
176
     0
 90
        2
176
     1
  1
strokes_ogs.tif
176
     1
290
     0
176
     1
 40
1.0
176
     1
 40
1.0
176
     1
  0
VISUALSTYLE
  5
5CC
102
{ACAD_REACTORS
330
5B4
102
}
330
5B4
100
AcDbVisualStyle
  2
Shaded
 70
    27
177
     3
291
     0
 70
    58
 90
        2
176
     1
 90
        2
176
     1
 90
        1
176
     1
 90
        2
176
     1
 40
0.6
176
     1
 40
30.0
176
     1
 62
     7
420
 16777215
176
     1
 90
        0
176
     1
 90
        4
176
     1
 62
     7
176
     1
 62
   257
176
     1
 90
        1
176
     1
 90
        1
176
     1
 40
1.0
176
     1
 90
        8
176
     1
 62
   257
176
     1
 40
1.0
176
     1
 90
        1
176
     1
 90
        6
176
     1
 90
        2
176
     1
 62
     8
420
  7895160
176
     1
 90
        3
176
     1
 90
        0
176
     1
 90
        0
176
     1
290
     0
176
     1
 90
        5
176
     1
 40
0.0
176
     1
 90
        0
176
     1
290
     0
176
     1
290
     1
176
     1
290
     1
176
     1
290
     0
176
     1
290
     0
176
     1
290
     0
176
     1
290
     0
176
     1
290
     0
176
     1
290
     0
176
     1
 90
       50
176
     1
 40
0.0
176
     1
 40
1.0
176
     1
 90
        0
176
     1
 62
    18
420
        0
176
     1
 90
       50
176
     1
 90
        3
176
     1
 62
     5
420
      255
176
     1
290
     0
176
     1
 90
       50
176
     1
 90
       50
176
     1
 90
       50
176
     1
290
     0
176
     1
 90
       50
176
     1
 62
   256
176
     0
 40
1.0
176
     0
 90
        2
176
     1
  1
strokes_ogs.tif
176
     1
290
     0
176
     1
 40
1.0
176
     1
 40
1.0
176
     1
  0
VISUALSTYLE
  5
5CB
102
{ACAD_REACTORS
330
5B4
102
}
330
5B4
100
AcDbVisualStyle
  2
Shaded with edges
 70
    26
177
     3
291
     0
 70
    58
 90
        2
176
     1
 90
        2
176
     1
 90
        1
176
     1
 90
        2
176
     1
 40
0.6
176
     1
 40
30.0
176
     1
 62
     7
420
 16777215
176
     1
 90
        1
176
     1
 90
       10
176
     1
 62
     7
176
     1
 62
   257
176
     1
 90
        2
176
     1
 90
        1
176
     1
 40
1.0
176
     1
 90
        8
176
     1
 62
   257
176
     1
 40
1.0
176
     1
 90
        1
176
     1
 90
        6
176
     1
 90
        2
176
     1
 62
     7
176
     1
 90
        3
176
     1
 90
        0
176
     1
 90
        0
176
     1
290
     0
176
     1
 90
        5
176
     1
 40
0.0
176
     1
 90
        0
176
     1
290
     0
176
     1
290
     1
176
     1
290
     1
176
     1
290
     0
176
     1
290
     0
176
     1
290
     0
176
     1
290
     0
176
     1
290
     0
176
     1
290
     0
176
     1
 90
       50
176
     1
 40
0.0
176
     1
 40
1.0
176
     1
 90
        0
176
     1
 62
    18
420
        0
176
     1
 90
       50
176
     1
 90
        3
176
     1
 62
     5
420
      255
176
     1
290
     0
176
     1
 90
       50
176
     1
 90
       50
176
     1
 90
       50
176
     1
290
     0
176
     1
 90
       50
176
     1
 62
   256
176
     0
 40
1.0
176
     0
 90
        2
176
     1
  1
strokes_ogs.tif
176
     1
290
     0
176
     1
 40
1.0
176
     1
 40
1.0
176
     1
  0
VISUALSTYLE
  5
5C8
102
{ACAD_REACTORS
330
5B4
102
}
330
5B4
100
AcDbVisualStyle
  2
Shades of Gray
 70
    23
177
     3
291
     0
 70
    58
 90
        2
176
     1
 90
        2
176
     1
 90
        3
176
     1
 90
        0
176
     1
 40
0.6
176
     1
 40
30.0
176
     1
 62
     7
420
 16777215
176
     1
 90
        2
176
     1
 90
        2
176
     1
 62
     7
176
     1
 62
     7
176
     1
 90
        1
176
     1
 90
        1
176
     1
 40
40.0
176
     1
 90
        8
176
     1
 62
     7
176
     1
 40
1.0
176
     1
 90
        1
176
     1
 90
        6
176
     1
 90
        2
176
     1
 62
     7
176
     1
 90
        3
176
     1
 90
        0
176
     1
 90
        0
176
     1
290
     0
176
     1
 90
        1
176
     1
 40
0.0
176
     1
 90
        0
176
     1
290
     0
176
     1
290
     1
176
     1
290
     1
176
     1
290
     0
176
     1
290
     0
176
     1
290
     0
176
     1
290
     0
176
     1
290
     0
176
     1
290
     0
176
     1
 90
       50
176
     1
 40
0.0
176
     1
 40
1.0
176
     1
 90
        0
176
     1
 62
    18
420
        0
176
     1
 90
       50
176
     1
 90
        3
176
     1
 62
     5
420
      255
176
     1
290
     0
176
     1
 90
       50
176
     1
 90
       50
176
     1
 90
       50
176
     1
290
     0
176
     1
 90
       50
176
     1
 62
   256
176
     0
 40
1.0
176
     0
 90
        2
176
     1
  1
strokes_ogs.tif
176
     1
290
     0
176
     1
 40
1.0
176
     1
 40
1.0
176
     1
  0
VISUALSTYLE
  5
5C9
102
{ACAD_REACTORS
330
5B4
102
}
330
5B4
100
AcDbVisualStyle
  2
Sketchy
 70
    24
177
     3
291
     0
 70
    58
 90
        1
176
     1
 90
        2
176
     1
 90
        2
176
     1
 90
        0
176
     1
 40
0.6
176
     1
 40
30.0
176
     1
 62
     7
420
 16777215
176
     1
 90
        2
176
     1
 90
        2
176
     1
 62
     7
176
     1
 62
     7
176
     1
 90
        1
176
     1
 90
        1
176
     1
 40
40.0
176
     1
 90
       11
176
     1
 62
     7
176
     1
 40
1.0
176
     1
 90
        1
176
     1
 90
        6
176
     1
 90
        2
176
     1
 62
     7
176
     1
 90
        6
176
     1
 90
        0
176
     1
 90
        0
176
     1
290
     0
176
     1
 90
        1
176
     1
 40
0.0
176
     1
 90
        0
176
     1
290
     0
176
     1
290
     1
176
     1
290
     1
176
     1
290
     0
176
     1
290
     0
176
     1
290
     0
176
     1
290
     0
176
     1
290
     0
176
     1
290
     0
176
     1
 90
       50
176
     1
 40
0.0
176
     1
 40
1.0
176
     1
 90
        0
176
     1
 62
    18
420
        0
176
     1
 90
       50
176
     1
 90
        3
176
     1
 62
     5
420
      255
176
     1
290
     0
176
     1
 90
       50
176
     1
 90
       50
176
     1
 90
       50
176
     1
290
     0
176
     1
 90
       50
176
     1
 62
   256
176
     0
 40
1.0
176
     0
 90
        2
176
     1
  1
strokes_ogs.tif
176
     1
290
     0
176
     1
 40
1.0
176
     1
 40
1.0
176
     1
  0
VISUALSTYLE
  5
5C1
102
{ACAD_REACTORS
330
5B4
102
}
330
5B4
100
AcDbVisualStyle
  2
Thicken
 70
    13
177
     3
291
     1
 70
    58
 90
        2
176
     1
 90
        2
176
     1
 90
        0
176
     1
 90
        0
176
     1
 40
0.6
176
     1
 40
30.0
176
     1
 62
     7
420
 16777215
176
     1
 90
        1
176
     1
 90
        4
176
     1
 62
     7
176
     1
 62
   257
176
     1
 90
        1
176
     1
 90
        1
176
     1
 40
1.0
176
     1
 90
       12
176
     1
 62
     7
176
     1
 40
1.0
176
     1
 90
        1
176
     1
 90
        6
176
     1
 90
        2
176
     1
 62
     7
176
     1
 90
        5
176
     1
 90
        0
176
     1
 90
        0
176
     1
290
     0
176
     1
 90
        1
176
     1
 40
0.0
176
     1
 90
        0
176
     1
290
     0
176
     1
290
     1
176
     1
290
     1
176
     1
290
     0
176
     1
290
     0
176
     1
290
     0
176
     1
290
     0
176
     1
290
     0
176
     1
290
     0
176
     1
 90
       50
176
     1
 40
0.0
176
     1
 40
1.0
176
     1
 90
        0
176
     1
 62
    18
420
        0
176
     1
 90
       50
176
     1
 90
        3
176
     1
 62
     5
420
      255
176
     1
290
     0
176
     1
 90
       50
176
     1
 90
       50
176
     1
 90
       50
176
     1
290
     0
176
     1
 90
       50
176
     1
 62
   256
176
     0
 40
1.0
176
     0
 90
        2
176
     1
  1
strokes_ogs.tif
176
     1
290
     0
176
     1
 40
1.0
176
     1
 40
1.0
176
     1
  0
VISUALSTYLE
  5
5BA
102
{ACAD_REACTORS
330
5B4
102
}
330
5B4
100
AcDbVisualStyle
  2
Wireframe
 70
     5
177
     3
291
     0
 70
    58
 90
        0
176
     1
 90
        2
176
     1
 90
        0
176
     1
 90
        0
176
     1
 40
0.6
176
     1
 40
30.0
176
     1
 62
     7
420
 16777215
176
     1
 90
        1
176
     1
 90
        4
176
     1
 62
     7
176
     1
 62
   257
176
     1
 90
        1
176
     1
 90
        1
176
     1
 40
1.0
176
     1
 90
        0
176
     1
 62
   257
176
     1
 40
1.0
176
     1
 90
        1
176
     1
 90
        6
176
     1
 90
        2
176
     1
 62
     7
176
     1
 90
        3
176
     1
 90
        0
176
     1
 90
        0
176
     1
290
     0
176
     1
 90
        1
176
     1
 40
0.0
176
     1
 90
        0
176
     1
290
     0
176
     1
290
     1
176
     1
290
     1
176
     1
290
     0
176
     1
290
     0
176
     1
290
     0
176
     1
290
     0
176
     1
290
     0
176
     1
290
     0
176
     1
 90
       50
176
     1
 40
0.0
176
     1
 40
1.0
176
     1
 90
        0
176
     1
 62
    18
420
        0
176
     1
 90
       50
176
     1
 90
        3
176
     1
 62
     5
420
      255
176
     1
290
     0
176
     1
 90
       50
176
     1
 90
       50
176
     1
 90
       50
176
     1
290
     0
176
     1
 90
       50
176
     1
 62
   256
176
     0
 40
1.0
176
     0
 90
        2
176
     1
  1
strokes_ogs.tif
176
     1
290
     0
176
     1
 40
1.0
176
     1
 40
1.0
176
     1
  0
VISUALSTYLE
  5
5CA
102
{ACAD_REACTORS
330
5B4
102
}
330
5B4
100
AcDbVisualStyle
  2
X-Ray
 70
    25
177
     3
291
     0
 70
    58
 90
        2
176
     1
 90
        2
176
     1
 90
        1
176
     1
 90
        1
176
     1
 40
0.5
176
     1
 40
30.0
176
     1
 62
     7
420
 16777215
176
     1
 90
        1
176
     1
 90
        0
176
     1
 62
     7
176
     1
 62
   257
176
     1
 90
        1
176
     1
 90
        1
176
     1
 40
1.0
176
     1
 90
        8
176
     1
 62
     7
176
     1
 40
1.0
176
     1
 90
        1
176
     1
 90
        6
176
     1
 90
        2
176
     1
 62
     7
176
     1
 90
        3
176
     1
 90
        0
176
     1
 90
        0
176
     1
290
     0
176
     1
 90
       13
176
     1
 40
0.0
176
     1
 90
        0
176
     1
290
     0
176
     1
290
     1
176
     1
290
     1
176
     1
290
     0
176
     1
290
     0
176
     1
290
     0
176
     1
290
     0
176
     1
290
     0
176
     1
290
     0
176
     1
 90
       50
176
     1
 40
0.0
176
     1
 40
1.0
176
     1
 90
        0
176
     1
 62
    18
420
        0
176
     1
 90
       50
176
     1
 90
        3
176
     1
 62
     5
420
      255
176
     1
290
     0
176
     1
 90
       50
176
     1
 90
       50
176
     1
 90
       50
176
     1
290
     0
176
     1
 90
       50
176
     1
 62
   256
176
     0
 40
1.0
176
     0
 90
        2
176
     1
  1
strokes_ogs.tif
176
     1
290
     0
176
     1
 40
1.0
176
     1
 40
1.0
176
     1
  0
DICTIONARYVAR
  5
5D7
102
{ACAD_REACTORS
330
5D6
102
}
330
5D6
100
DictionaryVariables
280
     0
  1
1:1
  0
DICTIONARYVAR
  5
5DC
102
{ACAD_REACTORS
330
5D6
102
}
330
5D6
100
DictionaryVariables
280
     0
  1
Standard
  0
DICTIONARYVAR
  5
5DB
102
{ACAD_REACTORS
330
5D6
102
}
330
5D6
100
DictionaryVariables
280
     0
  1
Standard
  0
DICTIONARYVAR
  5
5DD
102
{ACAD_REACTORS
330
5D6
102
}
330
5D6
100
DictionaryVariables
280
     0
  1
0
  0
DICTIONARY
  5
5D8
330
5D2
100
AcDbDictionary
280
     1
281
     1
  3
ACAD_ROUNDTRIP_2008_TABLESTYLE_CELLSTYLEMAP
360
5D9
  0
CELLSTYLEMAP
  5
5D9
102
{ACAD_REACTORS
330
5D8
102
}
330
5D8
100
AcDbCellStyleMap
 90
        3
300
CELLSTYLE
  1
TABLEFORMAT_BEGIN
 90
        5
170
     1
 91
        0
 92
    32768
 62
   257
 93
        1
300
CONTENTFORMAT
  1
CONTENTFORMAT_BEGIN
 90
        0
 91
        0
 92
        4
 93
        0
300

 40
0.0
140
1.0
 94
        5
 62
     0
340
11
144
6.0
309
CONTENTFORMAT_END
171
     1
301
MARGIN
  1
CELLMARGIN_BEGIN
 40
1.5
 40
1.5
 40
1.5
 40
1.5
 40
1.5
 40
1.5
309
CELLMARGIN_END
 94
        6
 95
        1
302
GRIDFORMAT
  1
GRIDFORMAT_BEGIN
 90
        0
 91
        1
 62
     0
 92
       -2
340
14
 93
        0
 40
0.045
309
GRIDFORMAT_END
 95
        2
302
GRIDFORMAT
  1
GRIDFORMAT_BEGIN
 90
        0
 91
        1
 62
     0
 92
       -2
340
14
 93
        0
 40
0.045
309
GRIDFORMAT_END
 95
        4
302
GRIDFORMAT
  1
GRIDFORMAT_BEGIN
 90
        0
 91
        1
 62
     0
 92
       -2
340
14
 93
        0
 40
0.045
309
GRIDFORMAT_END
 95
        8
302
GRIDFORMAT
  1
GRIDFORMAT_BEGIN
 90
        0
 91
        1
 62
     0
 92
       -2
340
14
 93
        0
 40
0.045
309
GRIDFORMAT_END
 95
       16
302
GRIDFORMAT
  1
GRIDFORMAT_BEGIN
 90
        0
 91
        1
 62
     0
 92
       -2
340
14
 93
        0
 40
0.045
309
GRIDFORMAT_END
 95
       32
302
GRIDFORMAT
  1
GRIDFORMAT_BEGIN
 90
        0
 91
        1
 62
     0
 92
       -2
340
14
 93
        0
 40
0.045
309
GRIDFORMAT_END
309
TABLEFORMAT_END
  1
CELLSTYLE_BEGIN
 90
        1
 91
        1
300
_TITLE
309
CELLSTYLE_END
300
CELLSTYLE
  1
TABLEFORMAT_BEGIN
 90
        5
170
     1
 91
        0
 92
        0
 62
   257
 93
        1
300
CONTENTFORMAT
  1
CONTENTFORMAT_BEGIN
 90
        0
 91
        0
 92
        4
 93
        0
300

 40
0.0
140
1.0
 94
        5
 62
     0
340
11
144
4.5
309
CONTENTFORMAT_END
171
     1
301
MARGIN
  1
CELLMARGIN_BEGIN
 40
1.5
 40
1.5
 40
1.5
 40
1.5
 40
1.5
 40
1.5
309
CELLMARGIN_END
 94
        6
 95
        1
302
GRIDFORMAT
  1
GRIDFORMAT_BEGIN
 90
        0
 91
        1
 62
     0
 92
       -2
340
14
 93
        0
 40
0.045
309
GRIDFORMAT_END
 95
        2
302
GRIDFORMAT
  1
GRIDFORMAT_BEGIN
 90
        0
 91
        1
 62
     0
 92
       -2
340
14
 93
        0
 40
0.045
309
GRIDFORMAT_END
 95
        4
302
GRIDFORMAT
  1
GRIDFORMAT_BEGIN
 90
        0
 91
        1
 62
     0
 92
       -2
340
14
 93
        0
 40
0.045
309
GRIDFORMAT_END
 95
        8
302
GRIDFORMAT
  1
GRIDFORMAT_BEGIN
 90
        0
 91
        1
 62
     0
 92
       -2
340
14
 93
        0
 40
0.045
309
GRIDFORMAT_END
 95
       16
302
GRIDFORMAT
  1
GRIDFORMAT_BEGIN
 90
        0
 91
        1
 62
     0
 92
       -2
340
14
 93
        0
 40
0.045
309
GRIDFORMAT_END
 95
       32
302
GRIDFORMAT
  1
GRIDFORMAT_BEGIN
 90
        0
 91
        1
 62
     0
 92
       -2
340
14
 93
        0
 40
0.045
309
GRIDFORMAT_END
309
TABLEFORMAT_END
  1
CELLSTYLE_BEGIN
 90
        2
 91
        1
300
_HEADER
309
CELLSTYLE_END
300
CELLSTYLE
  1
TABLEFORMAT_BEGIN
 90
        5
170
     1
 91
        0
 92
        0
 62
   257
 93
        1
300
CONTENTFORMAT
  1
CONTENTFORMAT_BEGIN
 90
        0
 91
        0
 92
        4
 93
        0
300

 40
0.0
140
1.0
 94
        2
 62
     0
340
11
144
4.5
309
CONTENTFORMAT_END
171
     1
301
MARGIN
  1
CELLMARGIN_BEGIN
 40
1.5
 40
1.5
 40
1.5
 40
1.5
 40
1.5
 40
1.5
309
CELLMARGIN_END
 94
        6
 95
        1
302
GRIDFORMAT
  1
GRIDFORMAT_BEGIN
 90
        0
 91
        1
 62
     0
 92
       -2
340
14
 93
        0
 40
0.045
309
GRIDFORMAT_END
 95
        2
302
GRIDFORMAT
  1
GRIDFORMAT_BEGIN
 90
        0
 91
        1
 62
     0
 92
       -2
340
14
 93
        0
 40
0.045
309
GRIDFORMAT_END
 95
        4
302
GRIDFORMAT
  1
GRIDFORMAT_BEGIN
 90
        0
 91
        1
 62
     0
 92
       -2
340
14
 93
        0
 40
0.045
309
GRIDFORMAT_END
 95
        8
302
GRIDFORMAT
  1
GRIDFORMAT_BEGIN
 90
        0
 91
        1
 62
     0
 92
       -2
340
14
 93
        0
 40
0.045
309
GRIDFORMAT_END
 95
       16
302
GRIDFORMAT
  1
GRIDFORMAT_BEGIN
 90
        0
 91
        1
 62
     0
 92
       -2
340
14
 93
        0
 40
0.045
309
GRIDFORMAT_END
 95
       32
302
GRIDFORMAT
  1
GRIDFORMAT_BEGIN
 90
        0
 91
        1
 62
     0
 92
       -2
340
14
 93
        0
 40
0.045
309
GRIDFORMAT_END
309
TABLEFORMAT_END
  1
CELLSTYLE_BEGIN
 90
        3
 91
        2
300
_DATA
309
CELLSTYLE_END
  0
ENDSEC
  0
EOF
