  0
SECTION
  2
HEADER
  9
$ACADVER
  1
AC1027
  9
$ACADMAINTVER
 70
   105
  9
$DWGCODEPAGE
  3
ANSI_1252
  9
$REQUIREDVERSIONS
160
                 0
  9
$LASTSAVEDBY
  1
andrea.zolin
  9
$INSBASE
 10
0.0
 20
0.0
 30
0.0
  9
$EXTMIN
 10
0.0
 20
0.0
 30
0.0
  9
$EXTMAX
 10
5000.0
 20
6400.0
 30
0.0
  9
$LIMMIN
 10
0.0
 20
0.0
  9
$LIMMAX
 10
5000.0
 20
6400.0
  9
$ORTHOMODE
 70
     0
  9
$REGENMODE
 70
     1
  9
$FILLMODE
 70
     1
  9
$QTEXTMODE
 70
     0
  9
$MIRRTEXT
 70
     1
  9
$LTSCALE
 40
417.1851851852
  9
$ATTMODE
 70
     1
  9
$TEXTSIZE
 40
0.2
  9
$TRACEWID
 40
0.05
  9
$TEXTSTYLE
  7
STANDARD
  9
$CLAYER
  8
0
  9
$CELTYPE
  6
BYLAYER
  9
$CECOLOR
 62
   256
  9
$CELTSCALE
 40
1.0
  9
$DISPSILH
 70
     0
  9
$DIMSCALE
 40
1.0
  9
$DIMASZ
 40
5.0
  9
$DIMEXO
 40
0.75
  9
$DIMDLI
 40
288.237037037
  9
$DIMRND
 40
0.0
  9
$DIMDLE
 40
0.0
  9
$DIMEXE
 40
0.75
  9
$DIMTP
 40
0.01
  9
$DIMTM
 40
0.01
  9
$DIMTXT
 40
6.0
  9
$DIMCEN
 40
68.2666666667
  9
$DIMTSZ
 40
0.0
  9
$DIMTOL
 70
     1
  9
$DIMLIM
 70
     0
  9
$DIMTIH
 70
     1
  9
$DIMTOH
 70
     1
  9
$DIMSE1
 70
     0
  9
$DIMSE2
 70
     0
  9
$DIMTAD
 70
     0
  9
$DIMZIN
 70
     0
  9
$DIMBLK
  1
CLOSED
  9
$DIMASO
 70
     1
  9
$DIMSHO
 70
     1
  9
$DIMPOST
  1

  9
$DIMAPOST
  1

  9
$DIMALT
 70
     0
  9
$DIMALTD
 70
     2
  9
$DIMALTF
 40
25.4
  9
$DIMLFAC
 40
1.0
  9
$DIMTOFL
 70
     0
  9
$DIMTVP
 40
0.0
  9
$DIMTIX
 70
     0
  9
$DIMSOXD
 70
     0
  9
$DIMSAH
 70
     0
  9
$DIMBLK1
  1

  9
$DIMBLK2
  1

  9
$DIMSTYLE
  2
STANDARD
  9
$DIMCLRD
 70
     0
  9
$DIMCLRE
 70
     0
  9
$DIMCLRT
 70
     0
  9
$DIMTFAC
 40
1.0
  9
$DIMGAP
 40
0.625
  9
$DIMJUST
 70
     0
  9
$DIMSD1
 70
     0
  9
$DIMSD2
 70
     0
  9
$DIMTOLJ
 70
     1
  9
$DIMTZIN
 70
     0
  9
$DIMALTZ
 70
     0
  9
$DIMALTTZ
 70
     0
  9
$DIMUPT
 70
     0
  9
$DIMDEC
 70
     4
  9
$DIMTDEC
 70
     4
  9
$DIMALTU
 70
     2
  9
$DIMALTTD
 70
     2
  9
$DIMTXSTY
  7
STANDARD
  9
$DIMAUNIT
 70
     0
  9
$DIMADEC
 70
     0
  9
$DIMALTRND
 40
0.0
  9
$DIMAZIN
 70
     0
  9
$DIMDSEP
 70
    46
  9
$DIMATFIT
 70
     3
  9
$DIMFRAC
 70
     0
  9
$DIMLDRBLK
  1

  9
$DIMLUNIT
 70
     2
  9
$DIMLWD
 70
    -2
  9
$DIMLWE
 70
    -2
  9
$DIMTMOVE
 70
     2
  9
$DIMFXL
 40
1.0
  9
$DIMFXLON
 70
     0
  9
$DIMJOGANG
 40
0.7853981633974483
  9
$DIMTFILL
 70
     0
  9
$DIMTFILLCLR
 70
     0
  9
$DIMARCSYM
 70
     0
  9
$DIMLTYPE
  6

  9
$DIMLTEX1
  6

  9
$DIMLTEX2
  6

  9
$DIMTXTDIRECTION
 70
     0
  9
$LUNITS
 70
     2
  9
$LUPREC
 70
     4
  9
$SKETCHINC
 40
0.1
  9
$FILLETRAD
 40
0.5
  9
$AUNITS
 70
     0
  9
$AUPREC
 70
     0
  9
$MENU
  1
.
  9
$ELEVATION
 40
0.0
  9
$PELEVATION
 40
0.0
  9
$THICKNESS
 40
0.0
  9
$LIMCHECK
 70
     0
  9
$CHAMFERA
 40
0.0
  9
$CHAMFERB
 40
0.0
  9
$CHAMFERC
 40
0.0
  9
$CHAMFERD
 40
0.0
  9
$SKPOLY
 70
     0
  9
$TDCREATE
 40
2447893.041666667
  9
$TDUCREATE
 40
0.0
  9
$TDUPDATE
 40
2458466.624964525
  9
$TDUUPDATE
 40
2458466.583297859
  9
$TDINDWG
 40
0.0002415046
  9
$TDUSRTIMER
 40
0.0002415046
  9
$USRTIMER
 70
     1
  9
$ANGBASE
 50
0.0
  9
$ANGDIR
 70
     0
  9
$PDMODE
 70
     3
  9
$PDSIZE
 40
0.3125
  9
$PLINEWID
 40
0.0
  9
$SPLFRAME
 70
     0
  9
$SPLINETYPE
 70
     6
  9
$SPLINESEGS
 70
     8
  9
$HANDSEED
  5
749
  9
$SURFTAB1
 70
     6
  9
$SURFTAB2
 70
     6
  9
$SURFTYPE
 70
     6
  9
$SURFU
 70
     6
  9
$SURFV
 70
     6
  9
$UCSBASE
  2

  9
$UCSNAME
  2

  9
$UCSORG
 10
0.0
 20
0.0
 30
0.0
  9
$UCSXDIR
 10
1.0
 20
0.0
 30
0.0
  9
$UCSYDIR
 10
0.0
 20
1.0
 30
0.0
  9
$UCSORTHOREF
  2

  9
$UCSORTHOVIEW
 70
     0
  9
$UCSORGTOP
 10
0.0
 20
0.0
 30
0.0
  9
$UCSORGBOTTOM
 10
0.0
 20
0.0
 30
0.0
  9
$UCSORGLEFT
 10
0.0
 20
0.0
 30
0.0
  9
$UCSORGRIGHT
 10
0.0
 20
0.0
 30
0.0
  9
$UCSORGFRONT
 10
0.0
 20
0.0
 30
0.0
  9
$UCSORGBACK
 10
0.0
 20
0.0
 30
0.0
  9
$PUCSBASE
  2

  9
$PUCSNAME
  2

  9
$PUCSORG
 10
0.0
 20
0.0
 30
0.0
  9
$PUCSXDIR
 10
1.0
 20
0.0
 30
0.0
  9
$PUCSYDIR
 10
0.0
 20
1.0
 30
0.0
  9
$PUCSORTHOREF
  2

  9
$PUCSORTHOVIEW
 70
     0
  9
$PUCSORGTOP
 10
0.0
 20
0.0
 30
0.0
  9
$PUCSORGBOTTOM
 10
0.0
 20
0.0
 30
0.0
  9
$PUCSORGLEFT
 10
0.0
 20
0.0
 30
0.0
  9
$PUCSORGRIGHT
 10
0.0
 20
0.0
 30
0.0
  9
$PUCSORGFRONT
 10
0.0
 20
0.0
 30
0.0
  9
$PUCSORGBACK
 10
0.0
 20
0.0
 30
0.0
  9
$USERI1
 70
     0
  9
$USERI2
 70
     0
  9
$USERI3
 70
     0
  9
$USERI4
 70
     0
  9
$USERI5
 70
     0
  9
$USERR1
 40
0.0
  9
$USERR2
 40
0.0
  9
$USERR3
 40
0.0
  9
$USERR4
 40
0.0
  9
$USERR5
 40
0.0
  9
$WORLDVIEW
 70
     1
  9
$SHADEDGE
 70
     3
  9
$SHADEDIF
 70
    70
  9
$TILEMODE
 70
     0
  9
$MAXACTVP
 70
    64
  9
$PINSBASE
 10
0.0
 20
0.0
 30
0.0
  9
$PLIMCHECK
 70
     0
  9
$PEXTMIN
 10
0.0
 20
0.0
 30
0.0
  9
$PEXTMAX
 10
5006.2632639488
 20
6400.0
 30
0.0
  9
$PLIMMIN
 10
-186.7704280155642
 20
-498.0544747081713
  9
$PLIMMAX
 10
10272.37354085603
 20
6898.054474708171
  9
$UNITMODE
 70
     0
  9
$VISRETAIN
 70
     1
  9
$PLINEGEN
 70
     0
  9
$PSLTSCALE
 70
     1
  9
$TREEDEPTH
 70
  3020
  9
$CMLSTYLE
  2
STANDARD
  9
$CMLJUST
 70
     0
  9
$CMLSCALE
 40
1.0
  9
$PROXYGRAPHICS
 70
     1
  9
$MEASUREMENT
 70
     1
  9
$CELWEIGHT
370
    -1
  9
$ENDCAPS
280
     0
  9
$JOINSTYLE
280
     0
  9
$LWDISPLAY
290
     0
  9
$INSUNITS
 70
     0
  9
$HYPERLINKBASE
  1

  9
$STYLESHEET
  1

  9
$XEDIT
290
     1
  9
$CEPSNTYPE
380
     0
  9
$PSTYLEMODE
290
     1
  9
$FINGERPRINTGUID
  2
{D4D88FB6-99F2-4DBE-AF59-71D508483018}
  9
$VERSIONGUID
  2
{FAEB1C32-E019-11D5-929B-00C0DF256EC4}
  9
$EXTNAMES
290
     1
  9
$PSVPSCALE
 40
0.0
  9
$OLESTARTUP
290
     0
  9
$SORTENTS
280
   127
  9
$INDEXCTL
280
     0
  9
$HIDETEXT
280
     1
  9
$XCLIPFRAME
280
     2
  9
$HALOGAP
280
     0
  9
$OBSCOLOR
 70
   257
  9
$OBSLTYPE
280
     0
  9
$INTERSECTIONDISPLAY
280
     0
  9
$INTERSECTIONCOLOR
 70
   257
  9
$DIMASSOC
280
     2
  9
$PROJECTNAME
  1

  9
$CAMERADISPLAY
290
     0
  9
$LENSLENGTH
 40
50.0
  9
$CAMERAHEIGHT
 40
0.0
  9
$STEPSPERSEC
 40
2.0
  9
$STEPSIZE
 40
6.0
  9
$3DDWFPREC
 40
2.0
  9
$PSOLWIDTH
 40
0.25
  9
$PSOLHEIGHT
 40
4.0
  9
$LOFTANG1
 40
1.570796326794897
  9
$LOFTANG2
 40
1.570796326794897
  9
$LOFTMAG1
 40
0.0
  9
$LOFTMAG2
 40
0.0
  9
$LOFTPARAM
 70
     7
  9
$LOFTNORMALS
280
     1
  9
$LATITUDE
 40
37.795
  9
$LONGITUDE
 40
-122.394
  9
$NORTHDIRECTION
 40
0.0
  9
$TIMEZONE
 70
 -8000
  9
$LIGHTGLYPHDISPLAY
280
     1
  9
$TILEMODELIGHTSYNCH
280
     1
  9
$SOLIDHIST
280
     0
  9
$SHOWHIST
280
     1
  9
$DWFFRAME
280
     2
  9
$DGNFRAME
280
     2
  9
$REALWORLDSCALE
290
     1
  9
$INTERFERECOLOR
 62
   256
  9
$CSHADOW
280
     0
  9
$SHADOWPLANELOCATION
 40
0.0
  0
ENDSEC
  0
SECTION
  2
CLASSES
  0
CLASS
  1
ACDBDICTIONARYWDFLT
  2
AcDbDictionaryWithDefault
  3
ObjectDBX Classes
 90
        0
 91
        4
280
     0
281
     0
  0
CLASS
  1
SCALE
  2
AcDbScale
  3
ObjectDBX Classes
 90
     1153
 91
        4
280
     0
281
     0
  0
CLASS
  1
VISUALSTYLE
  2
AcDbVisualStyle
  3
ObjectDBX Classes
 90
     4095
 91
        4
280
     0
281
     0
  0
CLASS
  1
MATERIAL
  2
AcDbMaterial
  3
ObjectDBX Classes
 90
     1153
 91
        4
280
     0
281
     0
  0
CLASS
  1
TABLESTYLE
  2
AcDbTableStyle
  3
ObjectDBX Classes
 90
     4095
 91
        4
280
     0
281
     0
  0
CLASS
  1
MLEADERSTYLE
  2
AcDbMLeaderStyle
  3
ACDB_MLEADERSTYLE_CLASS
 90
     4095
 91
        4
280
     0
281
     0
  0
CLASS
  1
DICTIONARYVAR
  2
AcDbDictionaryVar
  3
ObjectDBX Classes
 90
        0
 91
        4
280
     0
281
     0
  0
CLASS
  1
CELLSTYLEMAP
  2
AcDbCellStyleMap
  3
ObjectDBX Classes
 90
     1152
 91
        4
280
     0
281
     0
  0
ENDSEC
  0
SECTION
  2
TABLES
  0
TABLE
  2
VPORT
  5
8
330
0
100
AcDbSymbolTable
 70
     1
  0
VPORT
  5
1F4
330
8
100
AcDbSymbolTableRecord
100
AcDbViewportTableRecord
  2
*ACTIVE
 70
     0
 10
0.0
 20
0.0
 11
1.0
 21
1.0
 12
2500.0
 22
3200.0
 13
0.0
 23
0.0
 14
1.0
 24
1.0
 15
0.0
 25
0.0
 16
0.0
 26
0.0
 36
1.0
 17
0.0
 27
0.0
 37
0.0
 40
6400.0
 41
0.78125
 42
50.0
 43
0.0
 44
0.0
 50
0.0
 51
0.0
 71
     0
 72
   100
 73
     1
 74
     1
 75
     0
 76
     0
 77
     0
 78
     0
281
     0
 65
     1
110
0.0
120
0.0
130
0.0
111
1.0
121
0.0
131
0.0
112
0.0
122
1.0
132
0.0
 79
     0
146
0.0
348
722
 60
     3
 61
     5
292
     1
282
     1
141
0.0
142
0.0
 63
   256
  0
ENDTAB
  0
TABLE
  2
LTYPE
  5
5
330
0
100
AcDbSymbolTable
 70
     6
  0
LTYPE
  5
14
330
5
100
AcDbSymbolTableRecord
100
AcDbLinetypeTableRecord
  2
BYBLOCK
 70
     0
  3

 72
    65
 73
     0
 40
0.0
  0
LTYPE
  5
15
330
5
100
AcDbSymbolTableRecord
100
AcDbLinetypeTableRecord
  2
BYLAYER
 70
     0
  3

 72
    65
 73
     0
 40
0.0
  0
LTYPE
  5
16
330
5
100
AcDbSymbolTableRecord
100
AcDbLinetypeTableRecord
  2
CONTINUOUS
 70
     0
  3
Solid line
 72
    65
 73
     0
 40
0.0
  0
LTYPE
  5
1F5
330
5
100
AcDbSymbolTableRecord
100
AcDbLinetypeTableRecord
  2
CENTER
 70
     0
  3
____ _ ____ _ ____ _ ____ _ ____ _ ____ _ ____
 72
    65
 73
     4
 40
0.6
 49
0.375
 74
     0
 49
-0.075
 74
     0
 49
0.075
 74
     0
 49
-0.075
 74
     0
  0
LTYPE
  5
1F6
330
5
100
AcDbSymbolTableRecord
100
AcDbLinetypeTableRecord
  2
HIDDEN
 70
     0
  3
- - - - - - - - - - - - - - - - - - - -
 72
    65
 73
     2
 40
0.2
 49
0.1
 74
     0
 49
-0.1
 74
     0
  0
LTYPE
  5
1F7
330
5
100
AcDbSymbolTableRecord
100
AcDbLinetypeTableRecord
  2
PHANTOM
 70
     0
  3
_____ _ _ _____ _ _ _____ _ _ _____
 72
    65
 73
     6
 40
0.8
 49
0.45
 74
     0
 49
-0.05
 74
     0
 49
0.1
 74
     0
 49
-0.05
 74
     0
 49
0.1
 74
     0
 49
-0.05
 74
     0
  0
LTYPE
  5
1F8
330
5
100
AcDbSymbolTableRecord
100
AcDbLinetypeTableRecord
  2
DOT
 70
     0
  3
. . . . . . . . . . . . . . . . . . . .
 72
    65
 73
     2
 40
0.2
 49
0.1
 74
     0
 49
-0.1
 74
     0
  0
LTYPE
  5
1F9
330
5
100
AcDbSymbolTableRecord
100
AcDbLinetypeTableRecord
  2
DASHED
 70
     0
  3
- - - - - - - - - - - - - - - - - - - -
 72
    65
 73
     2
 40
0.2
 49
0.1
 74
     0
 49
-0.1
 74
     0
  0
ENDTAB
  0
TABLE
  2
LAYER
  5
2
330
0
100
AcDbSymbolTable
 70
    36
  0
LAYER
  5
10
330
2
100
AcDbSymbolTableRecord
100
AcDbLayerTableRecord
  2
0
 70
     0
 62
     7
  6
CONTINUOUS
370
    -3
390
6F7
347
739
348
0
  0
LAYER
  5
1FA
330
2
100
AcDbSymbolTableRecord
100
AcDbLayerTableRecord
  2
DEFAULT_1
 70
     0
 62
     7
  6
CENTER
370
    -3
390
6F7
347
739
348
0
  0
LAYER
  5
1FB
330
2
100
AcDbSymbolTableRecord
100
AcDbLayerTableRecord
  2
DEFAULT_2
 70
     0
 62
     8
  6
HIDDEN
370
    -3
390
6F7
347
739
348
0
  0
LAYER
  5
1FC
330
2
100
AcDbSymbolTableRecord
100
AcDbLayerTableRecord
  2
DEFAULT_3
 70
     0
 62
     7
  6
PHANTOM
370
    -3
390
6F7
347
739
348
0
  0
LAYER
  5
1FD
330
2
100
AcDbSymbolTableRecord
100
AcDbLayerTableRecord
  2
01_ALL_DTM_PLN
 70
     0
 62
     7
  6
CONTINUOUS
370
    -3
390
6F7
347
739
348
0
  0
LAYER
  5
1FE
330
2
100
AcDbSymbolTableRecord
100
AcDbLayerTableRecord
  2
01__ASM_ALL_DTM_PLN
 70
     0
 62
     7
  6
CONTINUOUS
370
    -3
390
6F7
347
739
348
0
  0
LAYER
  5
1FF
330
2
100
AcDbSymbolTableRecord
100
AcDbLayerTableRecord
  2
01__ASM_DEF_DTM_PLN
 70
     0
 62
     7
  6
CONTINUOUS
370
    -3
390
6F7
347
739
348
0
  0
LAYER
  5
200
330
2
100
AcDbSymbolTableRecord
100
AcDbLayerTableRecord
  2
01___PRT_ALL_DTM_PLN
 70
     0
 62
     7
  6
CONTINUOUS
370
    -3
390
6F7
347
739
348
0
  0
LAYER
  5
201
330
2
100
AcDbSymbolTableRecord
100
AcDbLayerTableRecord
  2
01___PRT_DEF_DTM_PLN
 70
     0
 62
     7
  6
CONTINUOUS
370
    -3
390
6F7
347
739
348
0
  0
LAYER
  5
202
330
2
100
AcDbSymbolTableRecord
100
AcDbLayerTableRecord
  2
02_ALL_AXES
 70
     0
 62
     7
  6
CONTINUOUS
370
    -3
390
6F7
347
739
348
0
  0
LAYER
  5
203
330
2
100
AcDbSymbolTableRecord
100
AcDbLayerTableRecord
  2
02__ASM_ALL_AXES
 70
     0
 62
     7
  6
CONTINUOUS
370
    -3
390
6F7
347
739
348
0
  0
LAYER
  5
204
330
2
100
AcDbSymbolTableRecord
100
AcDbLayerTableRecord
  2
02___PRT_ALL_AXES
 70
     0
 62
     7
  6
CONTINUOUS
370
    -3
390
6F7
347
739
348
0
  0
LAYER
  5
205
330
2
100
AcDbSymbolTableRecord
100
AcDbLayerTableRecord
  2
03_ALL_CURVES
 70
     0
 62
     7
  6
CONTINUOUS
370
    -3
390
6F7
347
739
348
0
  0
LAYER
  5
206
330
2
100
AcDbSymbolTableRecord
100
AcDbLayerTableRecord
  2
03__ASM_ALL_CURVES
 70
     0
 62
     7
  6
CONTINUOUS
370
    -3
390
6F7
347
739
348
0
  0
LAYER
  5
207
330
2
100
AcDbSymbolTableRecord
100
AcDbLayerTableRecord
  2
03___PRT_ALL_CURVES
 70
     0
 62
     7
  6
CONTINUOUS
370
    -3
390
6F7
347
739
348
0
  0
LAYER
  5
208
330
2
100
AcDbSymbolTableRecord
100
AcDbLayerTableRecord
  2
04_ALL_DTM_PNT
 70
     0
 62
     7
  6
CONTINUOUS
370
    -3
390
6F7
347
739
348
0
  0
LAYER
  5
209
330
2
100
AcDbSymbolTableRecord
100
AcDbLayerTableRecord
  2
04__ASM_ALL_DTM_PNT
 70
     0
 62
     7
  6
CONTINUOUS
370
    -3
390
6F7
347
739
348
0
  0
LAYER
  5
20A
330
2
100
AcDbSymbolTableRecord
100
AcDbLayerTableRecord
  2
04___PRT_ALL_DTM_PNT
 70
     0
 62
     7
  6
CONTINUOUS
370
    -3
390
6F7
347
739
348
0
  0
LAYER
  5
20B
330
2
100
AcDbSymbolTableRecord
100
AcDbLayerTableRecord
  2
05_ALL_DTM_CSYS
 70
     0
 62
     7
  6
CONTINUOUS
370
    -3
390
6F7
347
739
348
0
  0
LAYER
  5
20C
330
2
100
AcDbSymbolTableRecord
100
AcDbLayerTableRecord
  2
05__ASM_ALL_DTM_CSYS
 70
     0
 62
     7
  6
CONTINUOUS
370
    -3
390
6F7
347
739
348
0
  0
LAYER
  5
20D
330
2
100
AcDbSymbolTableRecord
100
AcDbLayerTableRecord
  2
05__ASM_DEF_DTM_CSYS
 70
     0
 62
     7
  6
CONTINUOUS
370
    -3
390
6F7
347
739
348
0
  0
LAYER
  5
20E
330
2
100
AcDbSymbolTableRecord
100
AcDbLayerTableRecord
  2
05___PRT_ALL_DTM_CSYS
 70
     0
 62
     7
  6
CONTINUOUS
370
    -3
390
6F7
347
739
348
0
  0
LAYER
  5
20F
330
2
100
AcDbSymbolTableRecord
100
AcDbLayerTableRecord
  2
05___PRT_DEF_DTM_CSYS
 70
     0
 62
     7
  6
CONTINUOUS
370
    -3
390
6F7
347
739
348
0
  0
LAYER
  5
210
330
2
100
AcDbSymbolTableRecord
100
AcDbLayerTableRecord
  2
06_ALL_SURFS
 70
     0
 62
     7
  6
CONTINUOUS
370
    -3
390
6F7
347
739
348
0
  0
LAYER
  5
211
330
2
100
AcDbSymbolTableRecord
100
AcDbLayerTableRecord
  2
06__ASM_ALL_SURFS
 70
     0
 62
     7
  6
CONTINUOUS
370
    -3
390
6F7
347
739
348
0
  0
LAYER
  5
212
330
2
100
AcDbSymbolTableRecord
100
AcDbLayerTableRecord
  2
06___PRT_ALL_SURFS
 70
     0
 62
     7
  6
CONTINUOUS
370
    -3
390
6F7
347
739
348
0
  0
LAYER
  5
213
330
2
100
AcDbSymbolTableRecord
100
AcDbLayerTableRecord
  2
07__ASM_ALL_SKELETONS
 70
     0
 62
     7
  6
CONTINUOUS
370
    -3
390
6F7
347
739
348
0
  0
LAYER
  5
214
330
2
100
AcDbSymbolTableRecord
100
AcDbLayerTableRecord
  2
1_ALL_PLANES
 70
     0
 62
     7
  6
CONTINUOUS
370
    -3
390
6F7
347
739
348
0
  0
LAYER
  5
215
330
2
100
AcDbSymbolTableRecord
100
AcDbLayerTableRecord
  2
2_ALL_CSYS
 70
     0
 62
     7
  6
CONTINUOUS
370
    -3
390
6F7
347
739
348
0
  0
LAYER
  5
216
330
2
100
AcDbSymbolTableRecord
100
AcDbLayerTableRecord
  2
3_ALL_AXES
 70
     0
 62
     7
  6
CONTINUOUS
370
    -3
390
6F7
347
739
348
0
  0
LAYER
  5
217
330
2
100
AcDbSymbolTableRecord
100
AcDbLayerTableRecord
  2
4_ALL_POINTS
 70
     0
 62
     7
  6
CONTINUOUS
370
    -3
390
6F7
347
739
348
0
  0
LAYER
  5
218
330
2
100
AcDbSymbolTableRecord
100
AcDbLayerTableRecord
  2
5_ALL_CURVES
 70
     0
 62
     7
  6
CONTINUOUS
370
    -3
390
6F7
347
739
348
0
  0
LAYER
  5
219
330
2
100
AcDbSymbolTableRecord
100
AcDbLayerTableRecord
  2
6_ALL_SURFS
 70
     0
 62
     7
  6
CONTINUOUS
370
    -3
390
6F7
347
739
348
0
  0
LAYER
  5
21A
330
2
100
AcDbSymbolTableRecord
100
AcDbLayerTableRecord
  2
7_ALL_FEATURES
 70
     0
 62
     7
  6
CONTINUOUS
370
    -3
390
6F7
347
739
348
0
  0
LAYER
  5
21B
330
2
100
AcDbSymbolTableRecord
100
AcDbLayerTableRecord
  2
8_ALL_NOTES_BALLOONS_SYMBOLS_GT
 70
     0
 62
     7
  6
CONTINUOUS
370
    -3
390
6F7
347
739
348
0
  0
LAYER
  5
21C
330
2
100
AcDbSymbolTableRecord
100
AcDbLayerTableRecord
  2
9_SOLID
 70
     0
 62
     7
  6
CONTINUOUS
370
    -3
390
6F7
347
739
348
0
  0
ENDTAB
  0
TABLE
  2
STYLE
  5
3
330
0
100
AcDbSymbolTable
 70
     3
  0
STYLE
  5
11
330
3
100
AcDbSymbolTableRecord
100
AcDbTextStyleTableRecord
  2
STANDARD
 70
     0
 40
0.0
 41
0.85
 50
0.0
 71
     0
 42
0.2
  3
txt
  4

  0
STYLE
  5
21D
330
3
100
AcDbSymbolTableRecord
100
AcDbTextStyleTableRecord
  2
TEXTSTYLE_1
 70
     0
 40
0.0
 41
0.8
 50
0.0
 71
     0
 42
0.2
  3
gdt
  4

  0
STYLE
  5
21E
330
3
100
AcDbSymbolTableRecord
100
AcDbTextStyleTableRecord
  2
TEXTSTYLE_2
 70
     0
 40
0.0
 41
2.0
 50
0.0
 71
     0
 42
0.2
  3
txt
  4

  0
ENDTAB
  0
TABLE
  2
VIEW
  5
6
330
0
100
AcDbSymbolTable
 70
     0
  0
ENDTAB
  0
TABLE
  2
UCS
  5
7
330
0
100
AcDbSymbolTable
 70
     0
  0
ENDTAB
  0
TABLE
  2
APPID
  5
9
330
0
100
AcDbSymbolTable
 70
     1
  0
APPID
  5
21F
330
9
100
AcDbSymbolTableRecord
100
AcDbRegAppTableRecord
  2
ACAD
 70
     0
  0
ENDTAB
  0
TABLE
  2
DIMSTYLE
  5
A
330
0
100
AcDbSymbolTable
 70
     4
100
AcDbDimStyleTable
  0
DIMSTYLE
105
228
330
A
100
AcDbSymbolTableRecord
100
AcDbDimStyleTableRecord
  2
STANDARD
 70
     0
 41
5.0
 42
0.75
 44
0.75
 47
0.01
 48
0.01
 71
     1
 73
     0
 74
     0
 77
     1
 78
     8
 79
     2
140
6.0
147
0.625
171
     1
178
     0
179
     2
271
     2
272
     2
284
     8
340
11
341
220
342
220
343
220
344
220
  0
DIMSTYLE
105
229
330
A
100
AcDbSymbolTableRecord
100
AcDbDimStyleTableRecord
  2
DIMSTYLE_1
 70
     0
 41
5.0
 42
0.75
 44
0.75
 47
0.3
 48
0.3
 73
     0
 74
     0
 77
     1
 78
     8
 79
     2
140
6.0
147
0.75
171
     1
178
     0
271
     0
272
     0
284
     8
340
11
341
220
342
220
343
220
344
220
  0
DIMSTYLE
105
22A
330
A
100
AcDbSymbolTableRecord
100
AcDbDimStyleTableRecord
  2
DIMSTYLE_2
 70
     0
 41
5.0
 42
0.75
 44
0.75
 47
0.3
 48
0.3
 73
     0
 74
     0
 77
     1
 78
     8
 79
     2
140
6.0
147
0.75
171
     1
178
     0
179
     2
271
     2
272
     2
284
     8
340
11
341
220
342
220
343
220
344
220
  0
DIMSTYLE
105
22B
330
A
100
AcDbSymbolTableRecord
100
AcDbDimStyleTableRecord
  2
DIMSTYLE_3
 70
     0
 41
5.0
 42
0.75
 44
0.75
 47
2.0
 48
2.0
 73
     0
 74
     0
 77
     1
 78
     8
 79
     2
140
6.0
147
0.75
171
     1
178
     0
271
     0
272
     0
284
     8
340
11
341
220
342
220
343
220
344
220
  0
ENDTAB
  0
TABLE
  2
BLOCK_RECORD
  5
1
330
0
100
AcDbSymbolTable
 70
     8
  0
BLOCK_RECORD
  5
1F
330
1
100
AcDbSymbolTableRecord
100
AcDbBlockTableRecord
  2
*MODEL_SPACE
340
71B
 70
     0
280
     1
281
     0
  0
BLOCK_RECORD
  5
1B
330
1
100
AcDbSymbolTableRecord
100
AcDbBlockTableRecord
  2
*PAPER_SPACE
340
71C
 70
     0
280
     1
281
     0
  0
BLOCK_RECORD
  5
220
330
1
100
AcDbSymbolTableRecord
100
AcDbBlockTableRecord
  2
_CLOSED
340
0
102
{BLKREFS
331
27E
331
27F
331
287
331
288
331
290
331
291
331
299
331
29A
331
2A2
331
2A3
102
}
 70
     0
280
     1
281
     0
  0
BLOCK_RECORD
  5
221
330
1
100
AcDbSymbolTableRecord
100
AcDbBlockTableRecord
  2
*D1
340
0
 70
     0
280
     1
281
     0
  0
BLOCK_RECORD
  5
222
330
1
100
AcDbSymbolTableRecord
100
AcDbBlockTableRecord
  2
*D2
340
0
 70
     0
280
     1
281
     0
  0
BLOCK_RECORD
  5
223
330
1
100
AcDbSymbolTableRecord
100
AcDbBlockTableRecord
  2
*D3
340
0
 70
     0
280
     1
281
     0
  0
BLOCK_RECORD
  5
224
330
1
100
AcDbSymbolTableRecord
100
AcDbBlockTableRecord
  2
*D4
340
0
 70
     0
280
     1
281
     0
  0
BLOCK_RECORD
  5
225
330
1
100
AcDbSymbolTableRecord
100
AcDbBlockTableRecord
  2
*D5
340
0
 70
     0
280
     1
281
     0
  0
BLOCK_RECORD
  5
226
330
1
100
AcDbSymbolTableRecord
100
AcDbBlockTableRecord
  2
LOGO2_BL1
340
0
102
{BLKREFS
331
6DF
102
}
 70
     0
280
     1
281
     0
  0
BLOCK_RECORD
  5
227
330
1
100
AcDbSymbolTableRecord
100
AcDbBlockTableRecord
  2
PROIEZIONE_EU_BL0
340
0
102
{BLKREFS
331
6DC
102
}
 70
     0
280
     1
281
     0
  0
ENDTAB
  0
ENDSEC
  0
SECTION
  2
BLOCKS
  0
BLOCK
  5
20
330
1F
100
AcDbEntity
  8
0
100
AcDbBlockBegin
  2
*MODEL_SPACE
 70
     0
 10
0.0
 20
0.0
 30
0.0
  3
*MODEL_SPACE
  1

  0
ENDBLK
  5
21
330
1F
100
AcDbEntity
  8
0
100
AcDbBlockEnd
  0
BLOCK
  5
1C
330
1B
100
AcDbEntity
 67
     1
  8
0
100
AcDbBlockBegin
  2
*PAPER_SPACE
 70
     0
 10
0.0
 20
0.0
 30
0.0
  3
*PAPER_SPACE
  1

  0
ENDBLK
  5
1D
330
1B
100
AcDbEntity
 67
     1
  8
0
100
AcDbBlockEnd
  0
BLOCK
  5
272
330
220
100
AcDbEntity
  8
0
100
AcDbBlockBegin
  2
_CLOSED
 70
     0
 10
0.0
 20
0.0
 30
0.0
  3
_CLOSED
  1

  0
LINE
  5
273
330
220
100
AcDbEntity
  8
0
  6
ByBlock
 62
     0
100
AcDbLine
 10
0.0
 20
0.0
 30
0.0
 11
-1.0
 21
0.2
 31
0.0
  0
LINE
  5
274
330
220
100
AcDbEntity
  8
0
  6
ByBlock
 62
     0
100
AcDbLine
 10
-1.0
 20
0.2
 30
0.0
 11
-1.0
 21
-0.2
 31
0.0
  0
LINE
  5
275
330
220
100
AcDbEntity
  8
0
  6
ByBlock
 62
     0
100
AcDbLine
 10
-1.0
 20
-0.2
 30
0.0
 11
0.0
 21
0.0
 31
0.0
  0
LINE
  5
276
330
220
100
AcDbEntity
  8
0
  6
ByBlock
 62
     0
100
AcDbLine
 10
-1.0
 20
0.0
 30
0.0
 11
0.0
 21
0.0
 31
0.0
  0
ENDBLK
  5
277
330
220
100
AcDbEntity
  8
0
  6
ByBlock
 62
     0
100
AcDbBlockEnd
  0
BLOCK
  5
278
330
221
100
AcDbEntity
  8
0
100
AcDbBlockBegin
  2
*D1
 70
     1
 10
0.0
 20
0.0
 30
0.0
  3
*D1
  1

  0
MTEXT
  5
279
330
221
100
AcDbEntity
  8
0
  6
Continuous
 62
     2
100
AcDbMText
 10
4391.1182744762
 20
461.09241239
 30
0.0
 40
6.0
 41
14.1428571429
 46
0.0
 71
     2
 72
     1
  1
90
 11
0.0
 21
1.0
 31
0.0
 73
     1
 44
1.0
  0
LINE
  5
27A
330
221
100
AcDbEntity
  8
0
  6
Continuous
 62
     2
100
AcDbLine
 10
4353.5331139844
 20
506.21741239
 30
0.0
 11
4400.1182744762
 21
506.21741239
 31
0.0
  0
LINE
  5
27B
330
221
100
AcDbEntity
  8
0
  6
Continuous
 62
     2
100
AcDbLine
 10
4309.2831139844
 20
415.96741239
 30
0.0
 11
4400.1182744762
 21
415.96741239
 31
0.0
  0
LINE
  5
27C
330
221
100
AcDbEntity
  8
0
  6
Continuous
 62
     2
100
AcDbLine
 10
4398.6182744762
 20
506.21741239
 30
0.0
 11
4398.6182744762
 21
461.09241239
 31
0.0
  0
LINE
  5
27D
330
221
100
AcDbEntity
  8
0
  6
Continuous
 62
     2
100
AcDbLine
 10
4398.6182744762
 20
415.96741239
 30
0.0
 11
4398.6182744762
 21
461.09241239
 31
0.0
  0
INSERT
  5
27E
330
221
100
AcDbEntity
  8
0
  6
Continuous
 62
     2
100
AcDbBlockReference
  2
_CLOSED
 10
4398.6182744762
 20
506.21741239
 30
0.0
 41
5.0
 42
5.0
 43
5.0
 50
90.0
  0
INSERT
  5
27F
330
221
100
AcDbEntity
  8
0
  6
Continuous
 62
     2
100
AcDbBlockReference
  2
_CLOSED
 10
4398.6182744762
 20
415.96741239
 30
0.0
 41
5.0
 42
5.0
 43
5.0
 50
270.0
  0
ENDBLK
  5
280
330
221
100
AcDbEntity
  8
0
  6
ByBlock
 62
     0
100
AcDbBlockEnd
  0
BLOCK
  5
281
330
222
100
AcDbEntity
  8
0
100
AcDbBlockBegin
  2
*D2
 70
     1
 10
0.0
 20
0.0
 30
0.0
  3
*D2
  1

  0
MTEXT
  5
282
330
222
100
AcDbEntity
  8
0
  6
Continuous
 62
     2
100
AcDbMText
 10
4377.5900377468
 20
159.9710282783
 30
0.0
 40
6.0
 41
14.1428571429
 46
0.0
 71
     2
 72
     1
  1
44
 11
0.0
 21
1.0
 31
0.0
 73
     1
 44
1.0
  0
LINE
  5
283
330
222
100
AcDbEntity
  8
0
  6
Continuous
 62
     2
100
AcDbLine
 10
4351.5331139844
 20
181.8210282783
 30
0.0
 11
4386.5900377468
 21
181.8210282783
 31
0.0
  0
LINE
  5
284
330
222
100
AcDbEntity
  8
0
  6
Continuous
 62
     2
100
AcDbLine
 10
4351.5331139844
 20
138.1210282783
 30
0.0
 11
4386.5900377468
 21
138.1210282783
 31
0.0
  0
LINE
  5
285
330
222
100
AcDbEntity
  8
0
  6
Continuous
 62
     2
100
AcDbLine
 10
4385.0900377468
 20
181.8210282783
 30
0.0
 11
4385.0900377468
 21
159.9710282783
 31
0.0
  0
LINE
  5
286
330
222
100
AcDbEntity
  8
0
  6
Continuous
 62
     2
100
AcDbLine
 10
4385.0900377468
 20
138.1210282783
 30
0.0
 11
4385.0900377468
 21
159.9710282783
 31
0.0
  0
INSERT
  5
287
330
222
100
AcDbEntity
  8
0
  6
Continuous
 62
     2
100
AcDbBlockReference
  2
_CLOSED
 10
4385.0900377468
 20
181.8210282783
 30
0.0
 41
5.0
 42
5.0
 43
5.0
 50
90.0
  0
INSERT
  5
288
330
222
100
AcDbEntity
  8
0
  6
Continuous
 62
     2
100
AcDbBlockReference
  2
_CLOSED
 10
4385.0900377468
 20
138.1210282783
 30
0.0
 41
5.0
 42
5.0
 43
5.0
 50
270.0
  0
ENDBLK
  5
289
330
222
100
AcDbEntity
  8
0
  6
ByBlock
 62
     0
100
AcDbBlockEnd
  0
BLOCK
  5
28A
330
223
100
AcDbEntity
  8
0
100
AcDbBlockBegin
  2
*D3
 70
     1
 10
0.0
 20
0.0
 30
0.0
  3
*D3
  1

  0
MTEXT
  5
28B
330
223
100
AcDbEntity
  8
0
  6
Continuous
 62
     2
100
AcDbMText
 10
4391.1182744762
 20
159.9710282783
 30
0.0
 40
6.0
 41
14.1428571429
 46
0.0
 71
     2
 72
     1
  1
89
 11
0.0
 21
1.0
 31
0.0
 73
     1
 44
1.0
  0
LINE
  5
28C
330
223
100
AcDbEntity
  8
0
  6
Continuous
 62
     2
100
AcDbLine
 10
4306.7831139844
 20
204.4710282783
 30
0.0
 11
4400.1182744762
 21
204.4710282783
 31
0.0
  0
LINE
  5
28D
330
223
100
AcDbEntity
  8
0
  6
Continuous
 62
     2
100
AcDbLine
 10
4306.7831139844
 20
115.4710282783
 30
0.0
 11
4400.1182744762
 21
115.4710282783
 31
0.0
  0
LINE
  5
28E
330
223
100
AcDbEntity
  8
0
  6
Continuous
 62
     2
100
AcDbLine
 10
4398.6182744762
 20
204.4710282783
 30
0.0
 11
4398.6182744762
 21
159.9710282783
 31
0.0
  0
LINE
  5
28F
330
223
100
AcDbEntity
  8
0
  6
Continuous
 62
     2
100
AcDbLine
 10
4398.6182744762
 20
115.4710282783
 30
0.0
 11
4398.6182744762
 21
159.9710282783
 31
0.0
  0
INSERT
  5
290
330
223
100
AcDbEntity
  8
0
  6
Continuous
 62
     2
100
AcDbBlockReference
  2
_CLOSED
 10
4398.6182744762
 20
204.4710282783
 30
0.0
 41
5.0
 42
5.0
 43
5.0
 50
90.0
  0
INSERT
  5
291
330
223
100
AcDbEntity
  8
0
  6
Continuous
 62
     2
100
AcDbBlockReference
  2
_CLOSED
 10
4398.6182744762
 20
115.4710282783
 30
0.0
 41
5.0
 42
5.0
 43
5.0
 50
270.0
  0
ENDBLK
  5
292
330
223
100
AcDbEntity
  8
0
  6
ByBlock
 62
     0
100
AcDbBlockEnd
  0
BLOCK
  5
293
330
224
100
AcDbEntity
  8
0
100
AcDbBlockBegin
  2
*D4
 70
     1
 10
0.0
 20
0.0
 30
0.0
  3
*D4
  1

  0
MTEXT
  5
294
330
224
100
AcDbEntity
  8
0
  6
Continuous
 62
     2
100
AcDbMText
 10
3432.0935501901
 20
97.1856922816
 30
0.0
 40
6.0
 41
26.3571428571
 46
0.0
 71
     2
 72
     1
  1
2014
 73
     1
 44
1.0
  0
LINE
  5
295
330
224
100
AcDbEntity
  8
0
  6
Continuous
 62
     2
100
AcDbLine
 10
2338.5331139844
 20
138.2710282783
 30
0.0
 11
2338.5331139844
 21
88.1856922816
 31
0.0
  0
LINE
  5
296
330
224
100
AcDbEntity
  8
0
  6
Continuous
 62
     2
100
AcDbLine
 10
4352.0331139844
 20
138.2710282783
 30
0.0
 11
4352.0331139844
 21
88.1856922816
 31
0.0
  0
LINE
  5
297
330
224
100
AcDbEntity
  8
0
  6
Continuous
 62
     2
100
AcDbLine
 10
2338.5331139844
 20
89.6856922816
 30
0.0
 11
3345.2831139844
 21
89.6856922816
 31
0.0
  0
LINE
  5
298
330
224
100
AcDbEntity
  8
0
  6
Continuous
 62
     2
100
AcDbLine
 10
4352.0331139844
 20
89.6856922816
 30
0.0
 11
3345.2831139844
 21
89.6856922816
 31
0.0
  0
INSERT
  5
299
330
224
100
AcDbEntity
  8
0
  6
Continuous
 62
     2
100
AcDbBlockReference
  2
_CLOSED
 10
2338.5331139844
 20
89.6856922816
 30
0.0
 41
5.0
 42
5.0
 43
5.0
 50
180.0
  0
INSERT
  5
29A
330
224
100
AcDbEntity
  8
0
  6
Continuous
 62
     2
100
AcDbBlockReference
  2
_CLOSED
 10
4352.0331139844
 20
89.6856922816
 30
0.0
 41
5.0
 42
5.0
 43
5.0
  0
ENDBLK
  5
29B
330
224
100
AcDbEntity
  8
0
  6
ByBlock
 62
     0
100
AcDbBlockEnd
  0
BLOCK
  5
29C
330
225
100
AcDbEntity
  8
0
100
AcDbBlockBegin
  2
*D5
 70
     1
 10
0.0
 20
0.0
 30
0.0
  3
*D5
  1

  0
MTEXT
  5
29D
330
225
100
AcDbEntity
  8
0
  6
Continuous
 62
     2
100
AcDbMText
 10
4553.5914716146
 20
396.2568685391
 30
0.0
 40
6.0
 41
14.1428571429
 46
0.0
 71
     2
 72
     1
  1
89
 73
     1
 44
1.0
  0
LINE
  5
29E
330
225
100
AcDbEntity
  8
0
  6
Continuous
 62
     2
100
AcDbLine
 10
4509.0914716146
 20
402.7692282324
 30
0.0
 11
4509.0914716146
 21
387.2568685391
 31
0.0
  0
LINE
  5
29F
330
225
100
AcDbEntity
  8
0
  6
Continuous
 62
     2
100
AcDbLine
 10
4598.0914716146
 20
402.9273512622
 30
0.0
 11
4598.0914716146
 21
387.2568685391
 31
0.0
  0
LINE
  5
2A0
330
225
100
AcDbEntity
  8
0
  6
Continuous
 62
     2
100
AcDbLine
 10
4509.0914716146
 20
388.7568685391
 30
0.0
 11
4553.5914716146
 21
388.7568685391
 31
0.0
  0
LINE
  5
2A1
330
225
100
AcDbEntity
  8
0
  6
Continuous
 62
     2
100
AcDbLine
 10
4598.0914716146
 20
388.7568685391
 30
0.0
 11
4553.5914716146
 21
388.7568685391
 31
0.0
  0
INSERT
  5
2A2
330
225
100
AcDbEntity
  8
0
  6
Continuous
 62
     2
100
AcDbBlockReference
  2
_CLOSED
 10
4509.0914716146
 20
388.7568685391
 30
0.0
 41
5.0
 42
5.0
 43
5.0
 50
180.0
  0
INSERT
  5
2A3
330
225
100
AcDbEntity
  8
0
  6
Continuous
 62
     2
100
AcDbBlockReference
  2
_CLOSED
 10
4598.0914716146
 20
388.7568685391
 30
0.0
 41
5.0
 42
5.0
 43
5.0
  0
ENDBLK
  5
2A4
330
225
100
AcDbEntity
  8
0
  6
ByBlock
 62
     0
100
AcDbBlockEnd
  0
BLOCK
  5
22C
330
226
100
AcDbEntity
  8
0
100
AcDbBlockBegin
  2
LOGO2_BL1
 70
     0
 10
4755.8653580383
 20
76.5790529754
 30
0.0
  3
LOGO2_BL1
  1

  0
LINE
  5
22D
330
226
100
AcDbEntity
  8
0
  6
Continuous
 62
     7
100
AcDbLine
 10
4739.3512084947
 20
82.9700356532
 30
0.0
 11
4736.742526636
 21
82.9700356532
 31
0.0
  0
LINE
  5
22E
330
226
100
AcDbEntity
  8
0
  6
Continuous
 62
     7
100
AcDbLine
 10
4736.742526636
 20
82.9700356532
 30
0.0
 11
4736.742526636
 21
62.0519035334
 31
0.0
  0
LINE
  5
22F
330
226
100
AcDbEntity
  8
0
  6
Continuous
 62
     7
100
AcDbLine
 10
4736.742526636
 20
62.0519035334
 30
0.0
 11
4745.7046364125
 21
62.0519035334
 31
0.0
  0
LINE
  5
230
330
226
100
AcDbEntity
  8
0
  6
Continuous
 62
     7
100
AcDbLine
 10
4745.7046364125
 20
62.0519035334
 30
0.0
 11
4745.7046364125
 21
64.4376121835
 31
0.0
  0
LINE
  5
231
330
226
100
AcDbEntity
  8
0
  6
Continuous
 62
     7
100
AcDbLine
 10
4745.7046364125
 20
64.4376121835
 30
0.0
 11
4739.3512084947
 21
64.4376121835
 31
0.0
  0
LINE
  5
232
330
226
100
AcDbEntity
  8
0
  6
Continuous
 62
     7
100
AcDbLine
 10
4739.3512084947
 20
64.4376121835
 30
0.0
 11
4739.3512084947
 21
82.9700356532
 31
0.0
  0
LINE
  5
233
330
226
100
AcDbEntity
  8
0
  6
Continuous
 62
     7
100
AcDbLine
 10
4769.2238609273
 20
82.9700356532
 30
0.0
 11
4766.6162258912
 21
82.9700356532
 31
0.0
  0
LINE
  5
234
330
226
100
AcDbEntity
  8
0
  6
Continuous
 62
     7
100
AcDbLine
 10
4766.6162258912
 20
82.9700356532
 30
0.0
 11
4766.6162258912
 21
62.0519035334
 31
0.0
  0
LINE
  5
235
330
226
100
AcDbEntity
  8
0
  6
Continuous
 62
     7
100
AcDbLine
 10
4766.6162258912
 20
62.0519035334
 30
0.0
 11
4775.5785973734
 21
62.0519035334
 31
0.0
  0
LINE
  5
236
330
226
100
AcDbEntity
  8
0
  6
Continuous
 62
     7
100
AcDbLine
 10
4775.5785973734
 20
62.0519035334
 30
0.0
 11
4775.5785973734
 21
64.4376121835
 31
0.0
  0
LINE
  5
237
330
226
100
AcDbEntity
  8
0
  6
Continuous
 62
     7
100
AcDbLine
 10
4775.5785973734
 20
64.4376121835
 30
0.0
 11
4769.2238609273
 21
64.4376121835
 31
0.0
  0
LINE
  5
238
330
226
100
AcDbEntity
  8
0
  6
Continuous
 62
     7
100
AcDbLine
 10
4769.2238609273
 20
64.4376121835
 30
0.0
 11
4769.2238609273
 21
82.9700356532
 31
0.0
  0
LWPOLYLINE
  5
239
330
226
100
AcDbEntity
  8
0
  6
Continuous
 62
     7
100
AcDbPolyline
 90
        2
 70
     0
 43
0.4
 10
4733.4513164579
 20
55.3648009196
 10
4733.4513164579
 20
51.6506744209
  0
LWPOLYLINE
  5
23A
330
226
100
AcDbEntity
  8
0
  6
Continuous
 62
     7
100
AcDbPolyline
 90
        2
 70
     0
 43
0.4
 10
4733.4513164579
 20
51.6506744209
 10
4735.0427484786
 20
51.6506744209
  0
LWPOLYLINE
  5
23B
330
226
100
AcDbEntity
  8
0
  6
Continuous
 62
     7
100
AcDbPolyline
 90
        2
 70
     0
 43
0.4
 10
4735.0427484786
 20
51.6506744209
 10
4735.0427484786
 20
52.074637564
  0
LWPOLYLINE
  5
23C
330
226
100
AcDbEntity
  8
0
  6
Continuous
 62
     7
100
AcDbPolyline
 90
        2
 70
     0
 43
0.4
 10
4735.0427484786
 20
52.074637564
 10
4733.9145354476
 20
52.074637564
  0
LWPOLYLINE
  5
23D
330
226
100
AcDbEntity
  8
0
  6
Continuous
 62
     7
100
AcDbPolyline
 90
        2
 70
     0
 43
0.4
 10
4733.9145354476
 20
52.074637564
 10
4733.9145354476
 20
55.3648009196
  0
LWPOLYLINE
  5
23E
330
226
100
AcDbEntity
  8
0
  6
Continuous
 62
     7
100
AcDbPolyline
 90
        2
 70
     0
 43
0.4
 10
4733.9145354476
 20
55.3648009196
 10
4733.4513164579
 20
55.3648009196
  0
SPLINE
  5
23F
330
226
100
AcDbEntity
  8
0
  6
Continuous
 62
     7
100
AcDbSpline
 70
     3
 71
     3
 72
    35
 73
    31
 74
     0
 42
0.000000001
 43
0.0000001
 40
0.0
 40
0.0
 40
0.0
 40
0.0
 40
1.0
 40
1.0
 40
1.0
 40
2.0
 40
2.0
 40
2.0
 40
3.0
 40
3.0
 40
3.0
 40
4.0
 40
4.0
 40
4.0
 40
5.0
 40
5.0
 40
5.0
 40
6.0
 40
6.0
 40
6.0
 40
7.0
 40
7.0
 40
7.0
 40
8.0
 40
8.0
 40
8.0
 40
9.0
 40
9.0
 40
9.0
 40
10.0
 40
10.0
 40
10.0
 40
10.0
 10
4737.8393349897
 20
53.9557777327
 30
0.0
 10
4737.8393349897
 20
53.9557777327
 30
0.0
 10
4737.8393349897
 20
52.6315471743
 30
0.0
 10
4737.8393349897
 20
52.6315471743
 30
0.0
 10
4737.8393349897
 20
52.0013599837
 30
0.0
 10
4738.1350623674
 20
51.5721627277
 30
0.0
 10
4738.8152353359
 20
51.5721627277
 30
0.0
 10
4739.494361482
 20
51.5721627277
 30
0.0
 10
4739.7906122709
 20
52.0013599837
 30
0.0
 10
4739.7906122709
 20
52.6315471743
 30
0.0
 10
4739.7906122709
 20
52.6315471743
 30
0.0
 10
4739.7906122709
 20
53.9557777327
 30
0.0
 10
4739.7906122709
 20
53.9557777327
 30
0.0
 10
4739.7906122709
 20
53.9557777327
 30
0.0
 10
4739.3464977931
 20
53.9557777327
 30
0.0
 10
4739.3464977931
 20
53.9557777327
 30
0.0
 10
4739.3464977931
 20
53.9557777327
 30
0.0
 10
4739.3464977931
 20
52.681794658
 30
0.0
 10
4739.3464977931
 20
52.681794658
 30
0.0
 10
4739.3464977931
 20
52.3101726436
 30
0.0
 10
4739.2530688782
 20
51.9846108225
 30
0.0
 10
4738.8152353359
 20
51.9846108225
 30
0.0
 10
4738.3763549711
 20
51.9846108225
 30
0.0
 10
4738.2829260562
 20
52.3101726436
 30
0.0
 10
4738.2829260562
 20
52.681794658
 30
0.0
 10
4738.2829260562
 20
52.681794658
 30
0.0
 10
4738.2829260562
 20
53.9557777327
 30
0.0
 10
4738.2829260562
 20
53.9557777327
 30
0.0
 10
4738.2829260562
 20
53.9557777327
 30
0.0
 10
4737.8393349897
 20
53.9557777327
 30
0.0
 10
4737.8393349897
 20
53.9557777327
 30
0.0
  0
SPLINE
  5
240
330
226
100
AcDbEntity
  8
0
  6
Continuous
 62
     7
100
AcDbSpline
 70
     3
 71
     3
 72
    35
 73
    31
 74
     0
 42
0.000000001
 43
0.0000001
 40
0.0
 40
0.0
 40
0.0
 40
0.0
 40
1.0
 40
1.0
 40
1.0
 40
2.0
 40
2.0
 40
2.0
 40
3.0
 40
3.0
 40
3.0
 40
4.0
 40
4.0
 40
4.0
 40
5.0
 40
5.0
 40
5.0
 40
6.0
 40
6.0
 40
6.0
 40
7.0
 40
7.0
 40
7.0
 40
8.0
 40
8.0
 40
8.0
 40
9.0
 40
9.0
 40
9.0
 40
10.0
 40
10.0
 40
10.0
 40
10.0
 10
4744.6368773853
 20
53.8730787492
 30
0.0
 10
4744.45996437
 20
53.9756673616
 30
0.0
 10
4744.2330655767
 20
54.0259148452
 30
0.0
 10
4744.0257947067
 20
54.0259148452
 30
0.0
 10
4743.3160490003
 20
54.0259148452
 30
0.0
 10
4742.7651586199
 20
53.4983162671
 30
0.0
 10
4742.7651586199
 20
52.7833364478
 30
0.0
 10
4742.7651586199
 20
52.0934803704
 30
0.0
 10
4743.3220682302
 20
51.5732095503
 30
0.0
 10
4744.0011943762
 20
51.5732095503
 30
0.0
 10
4744.2330655767
 20
51.5732095503
 30
0.0
 10
4744.4345789225
 20
51.6171760985
 30
0.0
 10
4744.6368773853
 20
51.7249988238
 30
0.0
 10
4744.6368773853
 20
51.7249988238
 30
0.0
 10
4744.6368773853
 20
52.2902830147
 30
0.0
 10
4744.6368773853
 20
52.2902830147
 30
0.0
 10
4744.4691240675
 20
52.1039485962
 30
0.0
 10
4744.2621149032
 20
51.9856576451
 30
0.0
 10
4744.0059050778
 20
51.9856576451
 30
0.0
 10
4743.5384987977
 20
51.9856576451
 30
0.0
 10
4743.2079645694
 20
52.3300622725
 30
0.0
 10
4743.2079645694
 20
52.8032260768
 30
0.0
 10
4743.2079645694
 20
53.2271892199
 30
0.0
 10
4743.5434712049
 20
53.6113731052
 30
0.0
 10
4743.9771174569
 20
53.6113731052
 30
0.0
 10
4744.2427486855
 20
53.6113731052
 30
0.0
 10
4744.45996437
 20
53.5035503799
 30
0.0
 10
4744.6368773853
 20
53.3015136228
 30
0.0
 10
4744.6368773853
 20
53.3015136228
 30
0.0
 10
4744.6368773853
 20
53.8730787492
 30
0.0
 10
4744.6368773853
 20
53.8730787492
 30
0.0
  0
SPLINE
  5
241
330
226
100
AcDbEntity
  8
0
  6
Continuous
 62
     7
100
AcDbSpline
 70
     3
 71
     3
 72
    32
 73
    28
 74
     0
 42
0.000000001
 43
0.0000001
 40
0.0
 40
0.0
 40
0.0
 40
0.0
 40
1.0
 40
1.0
 40
1.0
 40
2.0
 40
2.0
 40
2.0
 40
3.0
 40
3.0
 40
3.0
 40
4.0
 40
4.0
 40
4.0
 40
5.0
 40
5.0
 40
5.0
 40
6.0
 40
6.0
 40
6.0
 40
7.0
 40
7.0
 40
7.0
 40
8.0
 40
8.0
 40
8.0
 40
9.0
 40
9.0
 40
9.0
 40
9.0
 10
4749.7006198898
 20
52.7299484965
 30
0.0
 10
4749.7006198898
 20
52.7299484965
 30
0.0
 10
4749.7006198898
 20
52.7979919639
 30
0.0
 10
4749.7006198898
 20
52.7979919639
 30
0.0
 10
4749.7006198898
 20
53.4826139284
 30
0.0
 10
4749.3549067341
 20
54.0259148452
 30
0.0
 10
4748.6216075198
 20
54.0259148452
 30
0.0
 10
4747.8783634911
 20
54.0259148452
 30
0.0
 10
4747.4988903074
 20
53.4930821542
 30
0.0
 10
4747.4988903074
 20
52.7833364478
 30
0.0
 10
4747.4988903074
 20
52.1039485962
 30
0.0
 10
4747.9270407408
 20
51.5721627277
 30
0.0
 10
4748.6312906287
 20
51.5721627277
 30
0.0
 10
4749.0793306911
 20
51.5721627277
 30
0.0
 10
4749.483665911
 20
51.8035105169
 30
0.0
 10
4749.7006198898
 20
52.2023499183
 30
0.0
 10
4749.7006198898
 20
52.2023499183
 30
0.0
 10
4749.3253339964
 20
52.4159017237
 30
0.0
 10
4749.3253339964
 20
52.4159017237
 30
0.0
 10
4749.1583657955
 20
52.1384937412
 30
0.0
 10
4748.9759569617
 20
51.9668148387
 30
0.0
 10
4748.6367864472
 20
51.9668148387
 30
0.0
 10
4748.212823304
 20
51.9668148387
 30
0.0
 10
4747.9469303698
 20
52.336343208
 30
0.0
 10
4747.9422196682
 20
52.7299484965
 30
0.0
 10
4747.9422196682
 20
52.7299484965
 30
0.0
 10
4749.7006198898
 20
52.7299484965
 30
0.0
 10
4749.7006198898
 20
52.7299484965
 30
0.0
  0
SPLINE
  5
242
330
226
100
AcDbEntity
  8
0
  6
Continuous
 62
     7
100
AcDbSpline
 70
     3
 71
     3
 72
    14
 73
    10
 74
     0
 42
0.000000001
 43
0.0000001
 40
0.0
 40
0.0
 40
0.0
 40
0.0
 40
1.0
 40
1.0
 40
1.0
 40
2.0
 40
2.0
 40
2.0
 40
3.0
 40
3.0
 40
3.0
 40
3.0
 10
4747.9662965874
 20
53.0649317207
 30
0.0
 10
4748.0215164783
 20
53.3946808321
 30
0.0
 10
4748.2772028924
 20
53.6406841374
 30
0.0
 10
4748.6216075198
 20
53.6406841374
 30
0.0
 10
4748.9759569617
 20
53.6406841374
 30
0.0
 10
4749.202855755
 20
53.4093363481
 30
0.0
 10
4749.257290529
 20
53.0649317207
 30
0.0
 10
4749.257290529
 20
53.0649317207
 30
0.0
 10
4747.9662965874
 20
53.0649317207
 30
0.0
 10
4747.9662965874
 20
53.0649317207
 30
0.0
  0
SPLINE
  5
243
330
226
100
AcDbEntity
  8
0
  6
Continuous
 62
     7
100
AcDbSpline
 70
     3
 71
     3
 72
    20
 73
    16
 74
     0
 42
0.000000001
 43
0.0000001
 40
0.0
 40
0.0
 40
0.0
 40
0.0
 40
1.0
 40
1.0
 40
1.0
 40
2.0
 40
2.0
 40
2.0
 40
3.0
 40
3.0
 40
3.0
 40
4.0
 40
4.0
 40
4.0
 40
5.0
 40
5.0
 40
5.0
 40
5.0
 10
4753.7486827902
 20
53.483660751
 30
0.0
 10
4753.7486827902
 20
53.483660751
 30
0.0
 10
4754.5709619234
 20
52.4787110783
 30
0.0
 10
4754.5709619234
 20
52.4787110783
 30
0.0
 10
4754.3388290172
 20
52.247363289
 30
0.0
 10
4754.0632529742
 20
51.9867044677
 30
0.0
 10
4753.719371758
 20
51.9867044677
 30
0.0
 10
4753.3644989049
 20
51.9867044677
 30
0.0
 10
4753.0295156806
 20
52.3154067565
 30
0.0
 10
4753.0295156806
 20
52.6692327871
 30
0.0
 10
4753.0295156806
 20
53.0251524628
 30
0.0
 10
4753.4490298279
 20
53.2774367036
 30
0.0
 10
4753.7041928307
 20
53.4533028963
 30
0.0
 10
4753.7041928307
 20
53.4533028963
 30
0.0
 10
4753.7486827902
 20
53.483660751
 30
0.0
 10
4753.7486827902
 20
53.483660751
 30
0.0
  0
SPLINE
  5
244
330
226
100
AcDbEntity
  8
0
  6
Continuous
 62
     7
100
AcDbSpline
 70
     3
 71
     3
 72
    23
 73
    19
 74
     0
 42
0.000000001
 43
0.0000001
 40
0.0
 40
0.0
 40
0.0
 40
0.0
 40
1.0
 40
1.0
 40
1.0
 40
2.0
 40
2.0
 40
2.0
 40
3.0
 40
3.0
 40
3.0
 40
4.0
 40
4.0
 40
4.0
 40
5.0
 40
5.0
 40
5.0
 40
6.0
 40
6.0
 40
6.0
 40
6.0
 10
4753.8473458179
 20
54.0656941031
 30
0.0
 10
4753.8473458179
 20
54.0656941031
 30
0.0
 10
4753.7240824596
 20
54.2227174895
 30
0.0
 10
4753.7240824596
 20
54.2227174895
 30
0.0
 10
4753.6162597343
 20
54.3598512469
 30
0.0
 10
4753.5026794849
 20
54.4980318269
 30
0.0
 10
4753.5026794849
 20
54.6854130679
 30
0.0
 10
4753.5026794849
 20
54.9230417926
 30
0.0
 10
4753.6945097219
 20
55.0779715338
 30
0.0
 10
4753.9164361079
 20
55.0779715338
 30
0.0
 10
4754.1629628245
 20
55.0779715338
 30
0.0
 10
4754.3495589486
 20
54.9356036635
 30
0.0
 10
4754.3495589486
 20
54.6749448422
 30
0.0
 10
4754.3495589486
 20
54.4048646176
 30
0.0
 10
4754.0933491232
 20
54.2520285216
 30
0.0
 10
4753.9062295878
 20
54.1044265384
 30
0.0
 10
4753.9062295878
 20
54.1044265384
 30
0.0
 10
4753.8473458179
 20
54.0656941031
 30
0.0
 10
4753.8473458179
 20
54.0656941031
 30
0.0
  0
SPLINE
  5
245
330
226
100
AcDbEntity
  8
0
  6
Continuous
 62
     7
100
AcDbSpline
 70
     3
 71
     3
 72
    50
 73
    46
 74
     0
 42
0.000000001
 43
0.0000001
 40
0.0
 40
0.0
 40
0.0
 40
0.0
 40
1.0
 40
1.0
 40
1.0
 40
2.0
 40
2.0
 40
2.0
 40
3.0
 40
3.0
 40
3.0
 40
4.0
 40
4.0
 40
4.0
 40
5.0
 40
5.0
 40
5.0
 40
6.0
 40
6.0
 40
6.0
 40
7.0
 40
7.0
 40
7.0
 40
8.0
 40
8.0
 40
8.0
 40
9.0
 40
9.0
 40
9.0
 40
10.0
 40
10.0
 40
10.0
 40
11.0
 40
11.0
 40
11.0
 40
12.0
 40
12.0
 40
12.0
 40
13.0
 40
13.0
 40
13.0
 40
14.0
 40
14.0
 40
14.0
 40
15.0
 40
15.0
 40
15.0
 40
15.0
 10
4755.2516583033
 20
51.6517212435
 30
0.0
 10
4755.2516583033
 20
51.6517212435
 30
0.0
 10
4755.8224383127
 20
51.6517212435
 30
0.0
 10
4755.8224383127
 20
51.6517212435
 30
0.0
 10
4755.8224383127
 20
51.6517212435
 30
0.0
 10
4755.1577059771
 20
52.4734769654
 30
0.0
 10
4755.1577059771
 20
52.4734769654
 30
0.0
 10
4755.1577059771
 20
52.4734769654
 30
0.0
 10
4755.6107184468
 20
53.0052628339
 30
0.0
 10
4755.6107184468
 20
53.0052628339
 30
0.0
 10
4755.6107184468
 20
53.0052628339
 30
0.0
 10
4755.3142059522
 20
53.310935026
 30
0.0
 10
4755.3142059522
 20
53.310935026
 30
0.0
 10
4755.3142059522
 20
53.310935026
 30
0.0
 10
4754.8823916397
 20
52.8084601896
 30
0.0
 10
4754.8823916397
 20
52.8084601896
 30
0.0
 10
4754.8823916397
 20
52.8084601896
 30
0.0
 10
4754.1082663449
 20
53.7443195724
 30
0.0
 10
4754.1082663449
 20
53.7443195724
 30
0.0
 10
4754.4191726499
 20
53.9725268939
 30
0.0
 10
4754.7837286119
 20
54.2520285216
 30
0.0
 10
4754.7837286119
 20
54.6707575519
 30
0.0
 10
4754.7837286119
 20
55.1585768722
 30
0.0
 10
4754.3796550977
 20
55.4454062579
 30
0.0
 10
4753.926642628
 20
55.4454062579
 30
0.0
 10
4753.4382998965
 20
55.4454062579
 30
0.0
 10
4753.0695566442
 20
55.1439213561
 30
0.0
 10
4753.0695566442
 20
54.630978294
 30
0.0
 10
4753.0695566442
 20
54.3158846987
 30
0.0
 10
4753.2668826997
 20
54.0405703613
 30
0.0
 10
4753.477555743
 20
53.8186439752
 30
0.0
 10
4753.477555743
 20
53.8186439752
 30
0.0
 10
4753.2464696595
 20
53.6511523631
 30
0.0
 10
4753.2464696595
 20
53.6511523631
 30
0.0
 10
4752.891073395
 20
53.3946808321
 30
0.0
 10
4752.5963928399
 20
53.1392561236
 30
0.0
 10
4752.5963928399
 20
52.6650454968
 30
0.0
 10
4752.5963928399
 20
52.0243900804
 30
0.0
 10
4753.1135231923
 20
51.5721627277
 30
0.0
 10
4753.7342889797
 20
51.5721627277
 30
0.0
 10
4754.1721225221
 20
51.5721627277
 30
0.0
 10
4754.5665129275
 20
51.8223533233
 30
0.0
 10
4754.8470613778
 20
52.1541960798
 30
0.0
 10
4754.8470613778
 20
52.1541960798
 30
0.0
 10
4755.2516583033
 20
51.6517212435
 30
0.0
 10
4755.2516583033
 20
51.6517212435
 30
0.0
  0
LWPOLYLINE
  5
246
330
226
100
AcDbEntity
  8
0
  6
Continuous
 62
     7
100
AcDbPolyline
 90
        2
 70
     0
 43
0.4
 10
4759.1225464827
 20
55.3648009196
 10
4758.6598509043
 20
55.3648009196
  0
LWPOLYLINE
  5
247
330
226
100
AcDbEntity
  8
0
  6
Continuous
 62
     7
100
AcDbPolyline
 90
        2
 70
     0
 43
0.4
 10
4758.6598509043
 20
55.3648009196
 10
4758.6598509043
 20
51.6506744209
  0
LWPOLYLINE
  5
248
330
226
100
AcDbEntity
  8
0
  6
Continuous
 62
     7
100
AcDbPolyline
 90
        2
 70
     0
 43
0.4
 10
4758.6598509043
 20
51.6506744209
 10
4760.2504978081
 20
51.6506744209
  0
LWPOLYLINE
  5
249
330
226
100
AcDbEntity
  8
0
  6
Continuous
 62
     7
100
AcDbPolyline
 90
        2
 70
     0
 43
0.4
 10
4760.2504978081
 20
51.6506744209
 10
4760.2504978081
 20
52.074637564
  0
LWPOLYLINE
  5
24A
330
226
100
AcDbEntity
  8
0
  6
Continuous
 62
     7
100
AcDbPolyline
 90
        2
 70
     0
 43
0.4
 10
4760.2504978081
 20
52.074637564
 10
4759.1225464827
 20
52.074637564
  0
LWPOLYLINE
  5
24B
330
226
100
AcDbEntity
  8
0
  6
Continuous
 62
     7
100
AcDbPolyline
 90
        2
 70
     0
 43
0.4
 10
4759.1225464827
 20
52.074637564
 10
4759.1225464827
 20
55.3648009196
  0
LWPOLYLINE
  5
24C
330
226
100
AcDbEntity
  8
0
  6
Continuous
 62
     7
100
AcDbPolyline
 90
        2
 70
     0
 43
0.4
 10
4763.6087046311
 20
53.9557777327
 10
4763.1664220928
 20
53.9557777327
  0
LWPOLYLINE
  5
24D
330
226
100
AcDbEntity
  8
0
  6
Continuous
 62
     7
100
AcDbPolyline
 90
        2
 70
     0
 43
0.4
 10
4763.1664220928
 20
53.9557777327
 10
4763.1664220928
 20
51.6517212435
  0
LWPOLYLINE
  5
24E
330
226
100
AcDbEntity
  8
0
  6
Continuous
 62
     7
100
AcDbPolyline
 90
        2
 70
     0
 43
0.4
 10
4763.1664220928
 20
51.6517212435
 10
4763.6087046311
 20
51.6517212435
  0
LWPOLYLINE
  5
24F
330
226
100
AcDbEntity
  8
0
  6
Continuous
 62
     7
100
AcDbPolyline
 90
        2
 70
     0
 43
0.4
 10
4763.6087046311
 20
51.6517212435
 10
4763.6087046311
 20
53.9557777327
  0
LWPOLYLINE
  5
250
330
226
100
AcDbEntity
  8
0
  6
Continuous
 62
     7
100
AcDbPolyline
 90
        2
 70
     1
 43
0.4
 10
4763.0826580767
 20
55.0156855906
 42
1.0
 10
4763.6929920585
 20
55.0156855906
 42
1.0
  0
SPLINE
  5
251
330
226
100
AcDbEntity
  8
0
  6
Continuous
 62
     7
100
AcDbSpline
 70
     3
 71
     3
 72
    17
 73
    13
 74
     0
 42
0.000000001
 43
0.0000001
 40
0.0
 40
0.0
 40
0.0
 40
0.0
 40
1.0
 40
1.0
 40
1.0
 40
2.0
 40
2.0
 40
2.0
 40
3.0
 40
3.0
 40
3.0
 40
4.0
 40
4.0
 40
4.0
 40
4.0
 10
4767.8692725143
 20
51.9668148387
 30
0.0
 10
4767.401342823
 20
51.9668148387
 30
0.0
 10
4767.1406840016
 20
52.370888353
 30
0.0
 10
4767.1406840016
 20
52.8032260768
 30
0.0
 10
4767.1406840016
 20
53.2324233328
 30
0.0
 10
4767.41233446
 20
53.6302159116
 30
0.0
 10
4767.8692725143
 20
53.6302159116
 30
0.0
 10
4768.3481938427
 20
53.6302159116
 30
0.0
 10
4768.6193208898
 20
53.2523129618
 30
0.0
 10
4768.6193208898
 20
52.8032260768
 30
0.0
 10
4768.6193208898
 20
52.350998724
 30
0.0
 10
4768.3529045443
 20
51.9668148387
 30
0.0
 10
4767.8692725143
 20
51.9668148387
 30
0.0
  0
SPLINE
  5
252
330
226
100
AcDbEntity
  8
0
  6
Continuous
 62
     7
100
AcDbSpline
 70
     3
 71
     3
 72
    50
 73
    46
 74
     0
 42
0.000000001
 43
0.0000001
 40
0.0
 40
0.0
 40
0.0
 40
0.0
 40
1.0
 40
1.0
 40
1.0
 40
2.0
 40
2.0
 40
2.0
 40
3.0
 40
3.0
 40
3.0
 40
4.0
 40
4.0
 40
4.0
 40
5.0
 40
5.0
 40
5.0
 40
6.0
 40
6.0
 40
6.0
 40
7.0
 40
7.0
 40
7.0
 40
8.0
 40
8.0
 40
8.0
 40
9.0
 40
9.0
 40
9.0
 40
10.0
 40
10.0
 40
10.0
 40
11.0
 40
11.0
 40
11.0
 40
12.0
 40
12.0
 40
12.0
 40
13.0
 40
13.0
 40
13.0
 40
14.0
 40
14.0
 40
14.0
 40
15.0
 40
15.0
 40
15.0
 40
15.0
 10
4769.0375265089
 20
53.9568245552
 30
0.0
 10
4769.0375265089
 20
53.9568245552
 30
0.0
 10
4768.594197148
 20
53.9568245552
 30
0.0
 10
4768.594197148
 20
53.9568245552
 30
0.0
 10
4768.594197148
 20
53.9568245552
 30
0.0
 10
4768.594197148
 20
53.5621724442
 30
0.0
 10
4768.594197148
 20
53.5621724442
 30
0.0
 10
4768.594197148
 20
53.5621724442
 30
0.0
 10
4768.5847757448
 20
53.5621724442
 30
0.0
 10
4768.5847757448
 20
53.5621724442
 30
0.0
 10
4768.4021052054
 20
53.8479550074
 30
0.0
 10
4768.1262674567
 20
54.0248680227
 30
0.0
 10
4767.7808160067
 20
54.0248680227
 30
0.0
 10
4767.1160836711
 20
54.0248680227
 30
0.0
 10
4766.6978780521
 20
53.449115606
 30
0.0
 10
4766.6978780521
 20
52.8178815928
 30
0.0
 10
4766.6978780521
 20
52.1583833701
 30
0.0
 10
4767.0920067518
 20
51.5721627277
 30
0.0
 10
4767.8017524582
 20
51.5721627277
 30
0.0
 10
4768.1262674567
 20
51.5721627277
 30
0.0
 10
4768.4062924957
 20
51.749075743
 30
0.0
 10
4768.5847757448
 20
52.0107813869
 30
0.0
 10
4768.5847757448
 20
52.0107813869
 30
0.0
 10
4768.594197148
 20
52.0107813869
 30
0.0
 10
4768.594197148
 20
52.0107813869
 30
0.0
 10
4768.594197148
 20
52.0107813869
 30
0.0
 10
4768.594197148
 20
51.5721627277
 30
0.0
 10
4768.594197148
 20
51.5721627277
 30
0.0
 10
4768.594197148
 20
51.0989989235
 30
0.0
 10
4768.4811403098
 20
50.7252832639
 30
0.0
 10
4767.9346989253
 20
50.7252832639
 30
0.0
 10
4767.5301019998
 20
50.7252832639
 30
0.0
 10
4767.2448428479
 20
50.961865166
 30
0.0
 10
4767.2448428479
 20
51.3743132609
 30
0.0
 10
4767.2448428479
 20
51.3743132609
 30
0.0
 10
4766.8015134871
 20
51.3743132609
 30
0.0
 10
4766.8015134871
 20
51.3743132609
 30
0.0
 10
4766.8114583015
 20
50.7252832639
 30
0.0
 10
4767.2736304687
 20
50.3316779754
 30
0.0
 10
4767.9142858851
 20
50.3316779754
 30
0.0
 10
4768.8103660099
 20
50.3316779754
 30
0.0
 10
4769.0375265089
 20
50.9021962792
 30
0.0
 10
4769.0375265089
 20
51.6956877916
 30
0.0
 10
4769.0375265089
 20
51.6956877916
 30
0.0
 10
4769.0375265089
 20
53.9568245552
 30
0.0
 10
4769.0375265089
 20
53.9568245552
 30
0.0
  0
SPLINE
  5
253
330
226
100
AcDbEntity
  8
0
  6
Continuous
 62
     7
100
AcDbSpline
 70
     3
 71
     3
 72
    44
 73
    40
 74
     0
 42
0.000000001
 43
0.0000001
 40
0.0
 40
0.0
 40
0.0
 40
0.0
 40
1.0
 40
1.0
 40
1.0
 40
2.0
 40
2.0
 40
2.0
 40
3.0
 40
3.0
 40
3.0
 40
4.0
 40
4.0
 40
4.0
 40
5.0
 40
5.0
 40
5.0
 40
6.0
 40
6.0
 40
6.0
 40
7.0
 40
7.0
 40
7.0
 40
8.0
 40
8.0
 40
8.0
 40
9.0
 40
9.0
 40
9.0
 40
10.0
 40
10.0
 40
10.0
 40
11.0
 40
11.0
 40
11.0
 40
12.0
 40
12.0
 40
12.0
 40
13.0
 40
13.0
 40
13.0
 40
13.0
 10
4772.1753771796
 20
55.9269446428
 30
0.0
 10
4772.1753771796
 20
55.9269446428
 30
0.0
 10
4772.1753771796
 20
51.6506744209
 30
0.0
 10
4772.1753771796
 20
51.6506744209
 30
0.0
 10
4772.1753771796
 20
51.6506744209
 30
0.0
 10
4772.6181831292
 20
51.6506744209
 30
0.0
 10
4772.6181831292
 20
51.6506744209
 30
0.0
 10
4772.6181831292
 20
51.6506744209
 30
0.0
 10
4772.6181831292
 20
52.7100588675
 30
0.0
 10
4772.6181831292
 20
52.7100588675
 30
0.0
 10
4772.6181831292
 20
53.1298347204
 30
0.0
 10
4772.6181831292
 20
53.6312627342
 30
0.0
 10
4773.1887014329
 20
53.6312627342
 30
0.0
 10
4773.6424990195
 20
53.6312627342
 30
0.0
 10
4773.6964103822
 20
53.3653697999
 30
0.0
 10
4773.6964103822
 20
52.972811334
 30
0.0
 10
4773.6964103822
 20
52.972811334
 30
0.0
 10
4773.6964103822
 20
51.6506744209
 30
0.0
 10
4773.6964103822
 20
51.6506744209
 30
0.0
 10
4773.6964103822
 20
51.6506744209
 30
0.0
 10
4774.1402631543
 20
51.6506744209
 30
0.0
 10
4774.1402631543
 20
51.6506744209
 30
0.0
 10
4774.1402631543
 20
51.6506744209
 30
0.0
 10
4774.1402631543
 20
53.0251524628
 30
0.0
 10
4774.1402631543
 20
53.0251524628
 30
0.0
 10
4774.1402631543
 20
53.5862493634
 30
0.0
 10
4773.9722481309
 20
54.0259148452
 30
0.0
 10
4773.3221713114
 20
54.0259148452
 30
0.0
 10
4773.0426696836
 20
54.0259148452
 30
0.0
 10
4772.7663085236
 20
53.8929683781
 30
0.0
 10
4772.6276045324
 20
53.6469650728
 30
0.0
 10
4772.6276045324
 20
53.6469650728
 30
0.0
 10
4772.6181831292
 20
53.6469650728
 30
0.0
 10
4772.6181831292
 20
53.6469650728
 30
0.0
 10
4772.6181831292
 20
53.6469650728
 30
0.0
 10
4772.6181831292
 20
55.9269446428
 30
0.0
 10
4772.6181831292
 20
55.9269446428
 30
0.0
 10
4772.6181831292
 20
55.9269446428
 30
0.0
 10
4772.1753771796
 20
55.9269446428
 30
0.0
 10
4772.1753771796
 20
55.9269446428
 30
0.0
  0
LWPOLYLINE
  5
254
330
226
100
AcDbEntity
  8
0
  6
Continuous
 62
     7
100
AcDbPolyline
 90
        2
 70
     0
 43
0.4
 10
4777.819844508
 20
53.5422828152
 10
4778.2527056431
 20
53.5422828152
  0
LWPOLYLINE
  5
255
330
226
100
AcDbEntity
  8
0
  6
Continuous
 62
     7
100
AcDbPolyline
 90
        2
 70
     0
 43
0.4
 10
4778.2527056431
 20
53.5422828152
 10
4778.2527056431
 20
53.9557777327
  0
LWPOLYLINE
  5
256
330
226
100
AcDbEntity
  8
0
  6
Continuous
 62
     7
100
AcDbPolyline
 90
        2
 70
     0
 43
0.4
 10
4778.2527056431
 20
53.9557777327
 10
4777.819844508
 20
53.9557777327
  0
LWPOLYLINE
  5
257
330
226
100
AcDbEntity
  8
0
  6
Continuous
 62
     7
100
AcDbPolyline
 90
        2
 70
     0
 43
0.4
 10
4777.819844508
 20
53.9557777327
 10
4777.819844508
 20
54.8372023414
  0
LWPOLYLINE
  5
258
330
226
100
AcDbEntity
  8
0
  6
Continuous
 62
     7
100
AcDbPolyline
 90
        2
 70
     0
 43
0.4
 10
4777.819844508
 20
54.8372023414
 10
4777.3765151472
 20
54.8372023414
  0
LWPOLYLINE
  5
259
330
226
100
AcDbEntity
  8
0
  6
Continuous
 62
     7
100
AcDbPolyline
 90
        2
 70
     0
 43
0.4
 10
4777.3765151472
 20
54.8372023414
 10
4777.3765151472
 20
53.9557777327
  0
LWPOLYLINE
  5
25A
330
226
100
AcDbEntity
  8
0
  6
Continuous
 62
     7
100
AcDbPolyline
 90
        2
 70
     0
 43
0.4
 10
4777.3765151472
 20
53.9557777327
 10
4777.1352225435
 20
53.9557777327
  0
LWPOLYLINE
  5
25B
330
226
100
AcDbEntity
  8
0
  6
Continuous
 62
     7
100
AcDbPolyline
 90
        2
 70
     0
 43
0.4
 10
4777.1352225435
 20
53.9557777327
 10
4777.1352225435
 20
53.5422828152
  0
LWPOLYLINE
  5
25C
330
226
100
AcDbEntity
  8
0
  6
Continuous
 62
     7
100
AcDbPolyline
 90
        2
 70
     0
 43
0.4
 10
4777.1352225435
 20
53.5422828152
 10
4777.3765151472
 20
53.5422828152
  0
LWPOLYLINE
  5
25D
330
226
100
AcDbEntity
  8
0
  6
Continuous
 62
     7
100
AcDbPolyline
 90
        2
 70
     0
 43
0.4
 10
4777.3765151472
 20
53.5422828152
 10
4777.3765151472
 20
51.6506744209
  0
LWPOLYLINE
  5
25E
330
226
100
AcDbEntity
  8
0
  6
Continuous
 62
     7
100
AcDbPolyline
 90
        2
 70
     0
 43
0.4
 10
4777.3765151472
 20
51.6506744209
 10
4777.819844508
 20
51.6506744209
  0
LWPOLYLINE
  5
25F
330
226
100
AcDbEntity
  8
0
  6
Continuous
 62
     7
100
AcDbPolyline
 90
        2
 70
     0
 43
0.4
 10
4777.819844508
 20
51.6506744209
 10
4777.819844508
 20
53.5422828152
  0
SPLINE
  5
260
330
226
100
AcDbEntity
  8
0
  6
Continuous
 62
     7
100
AcDbSpline
 70
     3
 71
     3
 72
    20
 73
    16
 74
     0
 42
0.000000001
 43
0.0000001
 40
0.0
 40
0.0
 40
0.0
 40
0.0
 40
1.0
 40
1.0
 40
1.0
 40
2.0
 40
2.0
 40
2.0
 40
3.0
 40
3.0
 40
3.0
 40
4.0
 40
4.0
 40
4.0
 40
5.0
 40
5.0
 40
5.0
 40
5.0
 10
4753.3838651225
 20
72.3725273077
 30
0.0
 10
4753.3838651225
 20
72.3725273077
 30
0.0
 10
4758.0165784315
 20
66.7134044632
 30
0.0
 10
4758.0165784315
 20
66.7134044632
 30
0.0
 10
4756.7132843247
 20
65.4090635338
 30
0.0
 10
4755.1595379166
 20
63.9372309923
 30
0.0
 10
4753.2171586273
 20
63.9372309923
 30
0.0
 10
4751.2200828585
 20
63.9372309923
 30
0.0
 10
4749.3334468713
 20
65.7963878869
 30
0.0
 10
4749.3334468713
 20
67.7947721839
 30
0.0
 10
4749.3334468713
 20
69.793156481
 30
0.0
 10
4751.6911530175
 20
71.2063669583
 30
0.0
 10
4753.1341979382
 20
72.2060825181
 30
0.0
 10
4753.1341979382
 20
72.2060825181
 30
0.0
 10
4753.3838651225
 20
72.3725273077
 30
0.0
 10
4753.3838651225
 20
72.3725273077
 30
0.0
  0
SPLINE
  5
261
330
226
100
AcDbEntity
  8
0
  6
Continuous
 62
     7
100
AcDbSpline
 70
     3
 71
     3
 72
    23
 73
    19
 74
     0
 42
0.000000001
 43
0.0000001
 40
0.0
 40
0.0
 40
0.0
 40
0.0
 40
1.0
 40
1.0
 40
1.0
 40
2.0
 40
2.0
 40
2.0
 40
3.0
 40
3.0
 40
3.0
 40
4.0
 40
4.0
 40
4.0
 40
5.0
 40
5.0
 40
5.0
 40
6.0
 40
6.0
 40
6.0
 40
6.0
 10
4753.9386810877
 20
75.6480351471
 30
0.0
 10
4753.9386810877
 20
75.6480351471
 30
0.0
 10
4753.2456845425
 20
76.5346938688
 30
0.0
 10
4753.2456845425
 20
76.5346938688
 30
0.0
 10
4752.6340784526
 20
77.3109128087
 30
0.0
 10
4751.9963017984
 20
78.0879168656
 30
0.0
 10
4751.9963017984
 20
79.1418054937
 30
0.0
 10
4751.9963017984
 20
80.474148927
 30
0.0
 10
4753.0789780473
 20
81.3615927655
 30
0.0
 10
4754.3267905576
 20
81.3615927655
 30
0.0
 10
4755.7143538818
 20
81.3615927655
 30
0.0
 10
4756.7687659212
 20
80.5571096161
 30
0.0
 10
4756.7687659212
 20
79.0871090141
 30
0.0
 10
4756.7687659212
 20
77.560579993
 30
0.0
 10
4755.3262444118
 20
76.7003535414
 30
0.0
 10
4754.272094078
 20
75.8689147106
 30
0.0
 10
4754.272094078
 20
75.8689147106
 30
0.0
 10
4753.9386810877
 20
75.6480351471
 30
0.0
 10
4753.9386810877
 20
75.6480351471
 30
0.0
  0
SPLINE
  5
262
330
226
100
AcDbEntity
  8
0
  6
Continuous
 62
     7
100
AcDbSpline
 70
     3
 71
     3
 72
    50
 73
    46
 74
     0
 42
0.000000001
 43
0.0000001
 40
0.0
 40
0.0
 40
0.0
 40
0.0
 40
1.0
 40
1.0
 40
1.0
 40
2.0
 40
2.0
 40
2.0
 40
3.0
 40
3.0
 40
3.0
 40
4.0
 40
4.0
 40
4.0
 40
5.0
 40
5.0
 40
5.0
 40
6.0
 40
6.0
 40
6.0
 40
7.0
 40
7.0
 40
7.0
 40
8.0
 40
8.0
 40
8.0
 40
9.0
 40
9.0
 40
9.0
 40
10.0
 40
10.0
 40
10.0
 40
11.0
 40
11.0
 40
11.0
 40
12.0
 40
12.0
 40
12.0
 40
13.0
 40
13.0
 40
13.0
 40
14.0
 40
14.0
 40
14.0
 40
15.0
 40
15.0
 40
15.0
 40
15.0
 10
4761.8458554135
 20
62.0508567109
 30
0.0
 10
4761.8458554135
 20
62.0508567109
 30
0.0
 10
4765.0643114226
 20
62.0508567109
 30
0.0
 10
4765.0643114226
 20
62.0508567109
 30
0.0
 10
4765.0643114226
 20
62.0508567109
 30
0.0
 10
4761.3182568353
 20
66.6851402537
 30
0.0
 10
4761.3182568353
 20
66.6851402537
 30
0.0
 10
4761.3182568353
 20
66.6851402537
 30
0.0
 10
4763.8709336863
 20
69.6800996428
 30
0.0
 10
4763.8709336863
 20
69.6800996428
 30
0.0
 10
4763.8709336863
 20
69.6800996428
 30
0.0
 10
4762.2064857909
 20
71.4021227799
 30
0.0
 10
4762.2064857909
 20
71.4021227799
 30
0.0
 10
4762.2064857909
 20
71.4021227799
 30
0.0
 10
4759.7652955442
 20
68.5715145351
 30
0.0
 10
4759.7652955442
 20
68.5715145351
 30
0.0
 10
4759.7652955442
 20
68.5715145351
 30
0.0
 10
4755.4094668066
 20
73.842266204
 30
0.0
 10
4755.4094668066
 20
73.842266204
 30
0.0
 10
4757.1566136855
 20
75.1183429238
 30
0.0
 10
4759.2099561678
 20
76.7003535414
 30
0.0
 10
4759.2099561678
 20
79.0580596876
 30
0.0
 10
4759.2099561678
 20
81.8054455376
 30
0.0
 10
4756.9341638881
 20
83.4144118366
 30
0.0
 10
4754.3835806824
 20
83.4144118366
 30
0.0
 10
4751.6367182436
 20
83.4144118366
 30
0.0
 10
4749.5548498461
 20
81.7219614372
 30
0.0
 10
4749.5548498461
 20
78.8366567128
 30
0.0
 10
4749.5548498461
 20
77.06150733
 30
0.0
 10
4750.665528599
 20
75.507760922
 30
0.0
 10
4751.8578595127
 20
74.2589015891
 30
0.0
 10
4751.8578595127
 20
74.2589015891
 30
0.0
 10
4750.5540419947
 20
73.3157144484
 30
0.0
 10
4750.5540419947
 20
73.3157144484
 30
0.0
 10
4748.5569662258
 20
71.873192939
 30
0.0
 10
4746.8912098021
 20
70.4306714297
 30
0.0
 10
4746.8912098021
 20
67.767554797
 30
0.0
 10
4746.8912098021
 20
64.160204201
 30
0.0
 10
4749.8053021474
 20
61.6070039387
 30
0.0
 10
4753.3003810221
 20
61.6070039387
 30
0.0
 10
4755.7700971839
 20
61.6070039387
 30
0.0
 10
4757.9888376332
 20
63.0233548837
 30
0.0
 10
4759.5705865451
 20
64.8804181331
 30
0.0
 10
4759.5705865451
 20
64.8804181331
 30
0.0
 10
4761.8458554135
 20
62.0508567109
 30
0.0
 10
4761.8458554135
 20
62.0508567109
 30
0.0
  0
LINE
  5
263
330
226
100
AcDbEntity
  8
0
  6
Continuous
 62
     7
100
AcDbLine
 10
4733.4515781635
 20
57.9986065202
 30
0.0
 11
4778.2793996188
 21
57.9986065202
 31
0.0
  0
LINE
  5
264
330
226
100
AcDbEntity
  8
0
  6
Continuous
 62
     7
100
AcDbLine
 10
4778.2793996188
 20
57.9986065202
 30
0.0
 11
4778.2793996188
 21
102.8264279754
 31
0.0
  0
LINE
  5
265
330
226
100
AcDbEntity
  8
0
  6
Continuous
 62
     7
100
AcDbLine
 10
4778.2793996188
 20
102.8264279754
 30
0.0
 11
4733.4515781635
 21
102.8264279754
 31
0.0
  0
LINE
  5
266
330
226
100
AcDbEntity
  8
0
  6
Continuous
 62
     7
100
AcDbLine
 10
4733.4515781635
 20
102.8264279754
 30
0.0
 11
4733.4515781635
 21
57.9986065202
 31
0.0
  0
ENDBLK
  5
267
330
226
100
AcDbEntity
  8
0
  6
ByBlock
 62
     0
100
AcDbBlockEnd
  0
BLOCK
  5
268
330
227
100
AcDbEntity
  8
0
100
AcDbBlockBegin
  2
PROIEZIONE_EU_BL0
 70
     0
 10
4758.2132639488
 20
127.8290529754
 30
0.0
  3
PROIEZIONE_EU_BL0
  1

  0
LWPOLYLINE
  5
269
330
227
100
AcDbEntity
  8
DEFAULT_1
  6
CENTER
 62
     7
100
AcDbPolyline
 90
        2
 70
     0
 43
0.5
 10
4770.4665052721
 20
137.8284412392
 10
4770.4665872368
 20
117.8296647117
  0
LWPOLYLINE
  5
26A
330
227
100
AcDbEntity
  8
DEFAULT_1
  6
CENTER
 62
     7
100
AcDbPolyline
 90
        2
 70
     0
 43
0.5
 10
4782.4665649222
 20
127.8295952457
 10
4733.9599629753
 20
127.8290539249
  0
LWPOLYLINE
  5
26B
330
227
100
AcDbEntity
  8
0
  6
Continuous
 62
     7
100
AcDbPolyline
 90
        2
 70
     1
 43
0.5
 10
4763.3722849205
 20
127.791957467
 42
1.0
 10
4777.5849431177
 20
127.791957467
 42
1.0
  0
LWPOLYLINE
  5
26C
330
227
100
AcDbEntity
  8
0
  6
Continuous
 62
     7
100
AcDbPolyline
 90
        2
 70
     1
 43
0.5
 10
4766.4717725772
 20
127.8277535562
 42
1.0
 10
4774.4952760774
 20
127.8277535562
 42
1.0
  0
LWPOLYLINE
  5
26D
330
227
100
AcDbEntity
  8
0
  6
Continuous
 62
     7
100
AcDbPolyline
 90
        2
 70
     0
 43
0.5
 10
4758.4665605102
 20
134.9794599659
 10
4758.466559801
 20
120.7790541493
  0
LWPOLYLINE
  5
26E
330
227
100
AcDbEntity
  8
0
  6
Continuous
 62
     7
100
AcDbPolyline
 90
        2
 70
     0
 43
0.5
 10
4758.4666166738
 20
120.7789972765
 10
4738.4775021315
 20
123.8191841022
  0
LWPOLYLINE
  5
26F
330
227
100
AcDbEntity
  8
0
  6
Continuous
 62
     7
100
AcDbPolyline
 90
        2
 70
     0
 43
0.5
 10
4738.4728821603
 20
123.8178290191
 10
4738.4675483521
 20
131.829106242
  0
LWPOLYLINE
  5
270
330
227
100
AcDbEntity
  8
0
  6
Continuous
 62
     7
100
AcDbPolyline
 90
        2
 70
     0
 43
0.5
 10
4738.4675317999
 20
131.8290896898
 10
4758.4670182745
 20
134.97940413
  0
ENDBLK
  5
271
330
227
100
AcDbEntity
  8
0
  6
ByBlock
 62
     0
100
AcDbBlockEnd
  0
ENDSEC
  0
SECTION
  2
ENTITIES
  0
LINE
  5
2A5
330
1B
100
AcDbEntity
 67
     1
  8
0
  6
Continuous
 62
     7
100
AcDbLine
 10
0.0
 20
0.0
 30
0.0
 11
5000.0
 21
0.0
 31
0.0
  0
LINE
  5
2A6
330
1B
100
AcDbEntity
 67
     1
  8
0
  6
Continuous
 62
     7
100
AcDbLine
 10
5000.0
 20
0.0
 30
0.0
 11
5000.0
 21
6400.0
 31
0.0
  0
LINE
  5
2A7
330
1B
100
AcDbEntity
 67
     1
  8
0
  6
Continuous
 62
     7
100
AcDbLine
 10
0.0
 20
6400.0
 30
0.0
 11
5000.0
 21
6400.0
 31
0.0
  0
LINE
  5
2A8
330
1B
100
AcDbEntity
 67
     1
  8
0
  6
Continuous
 62
     7
100
AcDbLine
 10
0.0
 20
0.0
 30
0.0
 11
0.0
 21
6400.0
 31
0.0
  0
VIEWPORT
  5
2A9
330
1B
100
AcDbEntity
 67
     1
  8
0
100
AcDbViewport
 10
0.0
 20
0.0
 30
0.0
 40
10668.32684824903
 41
7544.031128404669
 68
     1
 69
     1
 12
5042.801556420233
 22
3200.0
 13
0.0
 23
0.0
 14
1.0
 24
1.0
 15
0.0
 25
0.0
 16
0.0
 26
0.0
 36
1.0
 17
0.0
 27
0.0
 37
0.0
 42
50.0
 43
0.0
 44
0.0
 45
7544.031128404669
 50
0.0
 51
0.0
 72
   100
 90
   557216
  1

281
     0
 71
     1
 74
     0
110
0.0
120
0.0
130
0.0
111
1.0
121
0.0
131
0.0
112
0.0
122
1.0
132
0.0
 79
     0
146
0.0
170
     0
 61
     5
348
722
292
     1
282
     1
141
0.0
142
0.0
 63
   256
  0
LINE
  5
2AA
330
1B
100
AcDbEntity
 67
     1
  8
3_ALL_AXES
  6
Continuous
 62
     7
100
AcDbLine
 10
2414.8831139844
 20
417.21741239
 30
0.0
 11
2414.8831139844
 21
416.5115422195
 31
0.0
  0
LINE
  5
2AB
330
1B
100
AcDbEntity
 67
     1
  8
3_ALL_AXES
  6
Continuous
 62
     7
100
AcDbLine
 10
2420.6831139844
 20
417.21741239
 30
0.0
 11
2420.6831139844
 21
416.5115422195
 31
0.0
  0
ARC
  5
2AC
330
1B
100
AcDbEntity
 67
     1
  8
3_ALL_AXES
  6
Continuous
 62
     7
100
AcDbCircle
 10
2417.7831139844
 20
423.96741239
 30
0.0
 40
8.0
100
AcDbArc
 50
248.7461908146
 51
270.0
  0
ARC
  5
2AD
330
1B
100
AcDbEntity
 67
     1
  8
3_ALL_AXES
  6
Continuous
 62
     7
100
AcDbCircle
 10
2417.7831139844
 20
423.96741239
 30
0.0
 40
8.0
100
AcDbArc
 50
270.0
 51
291.2538091854
  0
LINE
  5
2AE
330
1B
100
AcDbEntity
 67
     1
  8
3_ALL_AXES
  6
Continuous
 62
     7
100
AcDbLine
 10
2414.8831139844
 20
416.5115422195
 30
0.0
 11
2414.8831139844
 21
417.21741239
 31
0.0
  0
LINE
  5
2AF
330
1B
100
AcDbEntity
 67
     1
  8
3_ALL_AXES
  6
Continuous
 62
     7
100
AcDbLine
 10
2420.6831139844
 20
416.5115422195
 30
0.0
 11
2420.6831139844
 21
417.21741239
 31
0.0
  0
LINE
  5
2B0
330
1B
100
AcDbEntity
 67
     1
  8
3_ALL_AXES
  6
Continuous
 62
     7
100
AcDbLine
 10
2414.8831139844
 20
416.5115422195
 30
0.0
 11
2420.6831139844
 21
416.5115422195
 31
0.0
  0
LINE
  5
2B1
330
1B
100
AcDbEntity
 67
     1
  8
3_ALL_AXES
  6
Continuous
 62
     7
100
AcDbLine
 10
3044.8831139844
 20
417.21741239
 30
0.0
 11
3044.8831139844
 21
416.5115422195
 31
0.0
  0
LINE
  5
2B2
330
1B
100
AcDbEntity
 67
     1
  8
3_ALL_AXES
  6
Continuous
 62
     7
100
AcDbLine
 10
3050.6831139844
 20
417.21741239
 30
0.0
 11
3050.6831139844
 21
416.5115422195
 31
0.0
  0
ARC
  5
2B3
330
1B
100
AcDbEntity
 67
     1
  8
3_ALL_AXES
  6
Continuous
 62
     7
100
AcDbCircle
 10
3047.7831139844
 20
423.96741239
 30
0.0
 40
8.0
100
AcDbArc
 50
248.7461908146
 51
270.0
  0
ARC
  5
2B4
330
1B
100
AcDbEntity
 67
     1
  8
3_ALL_AXES
  6
Continuous
 62
     7
100
AcDbCircle
 10
3047.7831139844
 20
423.96741239
 30
0.0
 40
8.0
100
AcDbArc
 50
270.0
 51
291.2538091854
  0
LINE
  5
2B5
330
1B
100
AcDbEntity
 67
     1
  8
3_ALL_AXES
  6
Continuous
 62
     7
100
AcDbLine
 10
3044.8831139844
 20
416.5115422195
 30
0.0
 11
3044.8831139844
 21
417.21741239
 31
0.0
  0
LINE
  5
2B6
330
1B
100
AcDbEntity
 67
     1
  8
3_ALL_AXES
  6
Continuous
 62
     7
100
AcDbLine
 10
3050.6831139844
 20
416.5115422195
 30
0.0
 11
3050.6831139844
 21
417.21741239
 31
0.0
  0
LINE
  5
2B7
330
1B
100
AcDbEntity
 67
     1
  8
3_ALL_AXES
  6
Continuous
 62
     7
100
AcDbLine
 10
3044.8831139844
 20
416.5115422195
 30
0.0
 11
3050.6831139844
 21
416.5115422195
 31
0.0
  0
LINE
  5
2B8
330
1B
100
AcDbEntity
 67
     1
  8
3_ALL_AXES
  6
Continuous
 62
     7
100
AcDbLine
 10
3674.8831139844
 20
417.21741239
 30
0.0
 11
3674.8831139844
 21
416.5115422195
 31
0.0
  0
LINE
  5
2B9
330
1B
100
AcDbEntity
 67
     1
  8
3_ALL_AXES
  6
Continuous
 62
     7
100
AcDbLine
 10
3680.6831139844
 20
417.21741239
 30
0.0
 11
3680.6831139844
 21
416.5115422195
 31
0.0
  0
ARC
  5
2BA
330
1B
100
AcDbEntity
 67
     1
  8
3_ALL_AXES
  6
Continuous
 62
     7
100
AcDbCircle
 10
3677.7831139844
 20
423.96741239
 30
0.0
 40
8.0
100
AcDbArc
 50
248.7461908146
 51
270.0
  0
ARC
  5
2BB
330
1B
100
AcDbEntity
 67
     1
  8
3_ALL_AXES
  6
Continuous
 62
     7
100
AcDbCircle
 10
3677.7831139844
 20
423.96741239
 30
0.0
 40
8.0
100
AcDbArc
 50
270.0
 51
291.2538091854
  0
LINE
  5
2BC
330
1B
100
AcDbEntity
 67
     1
  8
3_ALL_AXES
  6
Continuous
 62
     7
100
AcDbLine
 10
3674.8831139844
 20
416.5115422195
 30
0.0
 11
3674.8831139844
 21
417.21741239
 31
0.0
  0
LINE
  5
2BD
330
1B
100
AcDbEntity
 67
     1
  8
3_ALL_AXES
  6
Continuous
 62
     7
100
AcDbLine
 10
3680.6831139844
 20
416.5115422195
 30
0.0
 11
3680.6831139844
 21
417.21741239
 31
0.0
  0
LINE
  5
2BE
330
1B
100
AcDbEntity
 67
     1
  8
3_ALL_AXES
  6
Continuous
 62
     7
100
AcDbLine
 10
3674.8831139844
 20
416.5115422195
 30
0.0
 11
3680.6831139844
 21
416.5115422195
 31
0.0
  0
LINE
  5
2BF
330
1B
100
AcDbEntity
 67
     1
  8
3_ALL_AXES
  6
Continuous
 62
     7
100
AcDbLine
 10
4304.8831139844
 20
417.21741239
 30
0.0
 11
4304.8831139844
 21
416.5115422195
 31
0.0
  0
LINE
  5
2C0
330
1B
100
AcDbEntity
 67
     1
  8
3_ALL_AXES
  6
Continuous
 62
     7
100
AcDbLine
 10
4310.6831139844
 20
417.21741239
 30
0.0
 11
4310.6831139844
 21
416.5115422195
 31
0.0
  0
ARC
  5
2C1
330
1B
100
AcDbEntity
 67
     1
  8
3_ALL_AXES
  6
Continuous
 62
     7
100
AcDbCircle
 10
4307.7831139844
 20
423.96741239
 30
0.0
 40
8.0
100
AcDbArc
 50
248.7461908146
 51
270.0
  0
ARC
  5
2C2
330
1B
100
AcDbEntity
 67
     1
  8
3_ALL_AXES
  6
Continuous
 62
     7
100
AcDbCircle
 10
4307.7831139844
 20
423.96741239
 30
0.0
 40
8.0
100
AcDbArc
 50
270.0
 51
291.2538091854
  0
LINE
  5
2C3
330
1B
100
AcDbEntity
 67
     1
  8
3_ALL_AXES
  6
Continuous
 62
     7
100
AcDbLine
 10
4304.8831139844
 20
416.5115422195
 30
0.0
 11
4304.8831139844
 21
417.21741239
 31
0.0
  0
LINE
  5
2C4
330
1B
100
AcDbEntity
 67
     1
  8
3_ALL_AXES
  6
Continuous
 62
     7
100
AcDbLine
 10
4310.6831139844
 20
416.5115422195
 30
0.0
 11
4310.6831139844
 21
417.21741239
 31
0.0
  0
LINE
  5
2C5
330
1B
100
AcDbEntity
 67
     1
  8
3_ALL_AXES
  6
Continuous
 62
     7
100
AcDbLine
 10
4304.8831139844
 20
416.5115422195
 30
0.0
 11
4310.6831139844
 21
416.5115422195
 31
0.0
  0
ARC
  5
2C6
330
1B
100
AcDbEntity
 67
     1
  8
3_ALL_AXES
  6
Continuous
 62
     7
100
AcDbCircle
 10
4059.0331139844
 20
461.21741239
 30
0.0
 40
2.9
100
AcDbArc
 50
0.0
 51
180.0
  0
ARC
  5
2C7
330
1B
100
AcDbEntity
 67
     1
  8
3_ALL_AXES
  6
Continuous
 62
     7
100
AcDbCircle
 10
4059.0331139844
 20
461.21741239
 30
0.0
 40
2.9
100
AcDbArc
 50
180.0
 51
360.0
  0
ARC
  5
2C8
330
1B
100
AcDbEntity
 67
     1
  8
3_ALL_AXES
  6
Continuous
 62
     7
100
AcDbCircle
 10
2367.7831139844
 20
461.21741239
 30
0.0
 40
2.9
100
AcDbArc
 50
0.0
 51
180.0
  0
ARC
  5
2C9
330
1B
100
AcDbEntity
 67
     1
  8
3_ALL_AXES
  6
Continuous
 62
     7
100
AcDbCircle
 10
2367.7831139844
 20
461.21741239
 30
0.0
 40
2.9
100
AcDbArc
 50
180.0
 51
360.0
  0
ARC
  5
2CA
330
1B
100
AcDbEntity
 67
     1
  8
3_ALL_AXES
  6
Continuous
 62
     7
100
AcDbCircle
 10
4322.7831139844
 20
461.21741239
 30
0.0
 40
2.9
100
AcDbArc
 50
0.0
 51
180.0
  0
ARC
  5
2CB
330
1B
100
AcDbEntity
 67
     1
  8
3_ALL_AXES
  6
Continuous
 62
     7
100
AcDbCircle
 10
4322.7831139844
 20
461.21741239
 30
0.0
 40
2.9
100
AcDbArc
 50
180.0
 51
360.0
  0
ARC
  5
2CC
330
1B
100
AcDbEntity
 67
     1
  8
3_ALL_AXES
  6
Continuous
 62
     7
100
AcDbCircle
 10
4240.7831139844
 20
461.21741239
 30
0.0
 40
2.9
100
AcDbArc
 50
0.0
 51
180.0
  0
ARC
  5
2CD
330
1B
100
AcDbEntity
 67
     1
  8
3_ALL_AXES
  6
Continuous
 62
     7
100
AcDbCircle
 10
4240.7831139844
 20
461.21741239
 30
0.0
 40
2.9
100
AcDbArc
 50
180.0
 51
360.0
  0
ARC
  5
2CE
330
1B
100
AcDbEntity
 67
     1
  8
3_ALL_AXES
  6
Continuous
 62
     7
100
AcDbCircle
 10
2895.2831139844
 20
461.21741239
 30
0.0
 40
2.9
100
AcDbArc
 50
0.0
 51
180.0
  0
ARC
  5
2CF
330
1B
100
AcDbEntity
 67
     1
  8
3_ALL_AXES
  6
Continuous
 62
     7
100
AcDbCircle
 10
2895.2831139844
 20
461.21741239
 30
0.0
 40
2.9
100
AcDbArc
 50
180.0
 51
360.0
  0
ARC
  5
2D0
330
1B
100
AcDbEntity
 67
     1
  8
3_ALL_AXES
  6
Continuous
 62
     7
100
AcDbCircle
 10
3099.7831139844
 20
461.21741239
 30
0.0
 40
2.9
100
AcDbArc
 50
0.0
 51
180.0
  0
ARC
  5
2D1
330
1B
100
AcDbEntity
 67
     1
  8
3_ALL_AXES
  6
Continuous
 62
     7
100
AcDbCircle
 10
3099.7831139844
 20
461.21741239
 30
0.0
 40
2.9
100
AcDbArc
 50
180.0
 51
360.0
  0
ARC
  5
2D2
330
1B
100
AcDbEntity
 67
     1
  8
3_ALL_AXES
  6
Continuous
 62
     7
100
AcDbCircle
 10
3304.2831139844
 20
461.21741239
 30
0.0
 40
2.9
100
AcDbArc
 50
0.0
 51
180.0
  0
ARC
  5
2D3
330
1B
100
AcDbEntity
 67
     1
  8
3_ALL_AXES
  6
Continuous
 62
     7
100
AcDbCircle
 10
3304.2831139844
 20
461.21741239
 30
0.0
 40
2.9
100
AcDbArc
 50
180.0
 51
360.0
  0
ARC
  5
2D4
330
1B
100
AcDbEntity
 67
     1
  8
3_ALL_AXES
  6
Continuous
 62
     7
100
AcDbCircle
 10
3386.2831139844
 20
461.21741239
 30
0.0
 40
2.9
100
AcDbArc
 50
0.0
 51
180.0
  0
ARC
  5
2D5
330
1B
100
AcDbEntity
 67
     1
  8
3_ALL_AXES
  6
Continuous
 62
     7
100
AcDbCircle
 10
3386.2831139844
 20
461.21741239
 30
0.0
 40
2.9
100
AcDbArc
 50
180.0
 51
360.0
  0
ARC
  5
2D6
330
1B
100
AcDbEntity
 67
     1
  8
3_ALL_AXES
  6
Continuous
 62
     7
100
AcDbCircle
 10
2813.2831139844
 20
461.21741239
 30
0.0
 40
2.9
100
AcDbArc
 50
0.0
 51
180.0
  0
ARC
  5
2D7
330
1B
100
AcDbEntity
 67
     1
  8
3_ALL_AXES
  6
Continuous
 62
     7
100
AcDbCircle
 10
2813.2831139844
 20
461.21741239
 30
0.0
 40
2.9
100
AcDbArc
 50
180.0
 51
360.0
  0
ARC
  5
2D8
330
1B
100
AcDbEntity
 67
     1
  8
3_ALL_AXES
  6
Continuous
 62
     7
100
AcDbCircle
 10
2631.5331139844
 20
461.21741239
 30
0.0
 40
2.9
100
AcDbArc
 50
0.0
 51
180.0
  0
ARC
  5
2D9
330
1B
100
AcDbEntity
 67
     1
  8
3_ALL_AXES
  6
Continuous
 62
     7
100
AcDbCircle
 10
2631.5331139844
 20
461.21741239
 30
0.0
 40
2.9
100
AcDbArc
 50
180.0
 51
360.0
  0
ARC
  5
2DA
330
1B
100
AcDbEntity
 67
     1
  8
3_ALL_AXES
  6
Continuous
 62
     7
100
AcDbCircle
 10
2449.7831139844
 20
461.21741239
 30
0.0
 40
2.9
100
AcDbArc
 50
0.0
 51
180.0
  0
ARC
  5
2DB
330
1B
100
AcDbEntity
 67
     1
  8
3_ALL_AXES
  6
Continuous
 62
     7
100
AcDbCircle
 10
2449.7831139844
 20
461.21741239
 30
0.0
 40
2.9
100
AcDbArc
 50
180.0
 51
360.0
  0
ARC
  5
2DC
330
1B
100
AcDbEntity
 67
     1
  8
3_ALL_AXES
  6
Continuous
 62
     7
100
AcDbCircle
 10
3590.7831139844
 20
461.21741239
 30
0.0
 40
2.9
100
AcDbArc
 50
0.0
 51
180.0
  0
ARC
  5
2DD
330
1B
100
AcDbEntity
 67
     1
  8
3_ALL_AXES
  6
Continuous
 62
     7
100
AcDbCircle
 10
3590.7831139844
 20
461.21741239
 30
0.0
 40
2.9
100
AcDbArc
 50
180.0
 51
360.0
  0
ARC
  5
2DE
330
1B
100
AcDbEntity
 67
     1
  8
3_ALL_AXES
  6
Continuous
 62
     7
100
AcDbCircle
 10
3795.2831139844
 20
461.21741239
 30
0.0
 40
2.9
100
AcDbArc
 50
0.0
 51
180.0
  0
ARC
  5
2DF
330
1B
100
AcDbEntity
 67
     1
  8
3_ALL_AXES
  6
Continuous
 62
     7
100
AcDbCircle
 10
3795.2831139844
 20
461.21741239
 30
0.0
 40
2.9
100
AcDbArc
 50
180.0
 51
360.0
  0
ARC
  5
2E0
330
1B
100
AcDbEntity
 67
     1
  8
3_ALL_AXES
  6
Continuous
 62
     7
100
AcDbCircle
 10
3877.2831139844
 20
461.21741239
 30
0.0
 40
2.9
100
AcDbArc
 50
0.0
 51
180.0
  0
ARC
  5
2E1
330
1B
100
AcDbEntity
 67
     1
  8
3_ALL_AXES
  6
Continuous
 62
     7
100
AcDbCircle
 10
3877.2831139844
 20
461.21741239
 30
0.0
 40
2.9
100
AcDbArc
 50
180.0
 51
360.0
  0
LINE
  5
2E2
330
1B
100
AcDbEntity
 67
     1
  8
3_ALL_AXES
  6
Continuous
 62
     7
100
AcDbLine
 10
2379.8831139844
 20
417.21741239
 30
0.0
 11
2379.8831139844
 21
416.5115422195
 31
0.0
  0
LINE
  5
2E3
330
1B
100
AcDbEntity
 67
     1
  8
3_ALL_AXES
  6
Continuous
 62
     7
100
AcDbLine
 10
2385.6831139844
 20
417.21741239
 30
0.0
 11
2385.6831139844
 21
416.5115422195
 31
0.0
  0
ARC
  5
2E4
330
1B
100
AcDbEntity
 67
     1
  8
3_ALL_AXES
  6
Continuous
 62
     7
100
AcDbCircle
 10
2382.7831139844
 20
423.96741239
 30
0.0
 40
8.0
100
AcDbArc
 50
248.7461908146
 51
270.0
  0
ARC
  5
2E5
330
1B
100
AcDbEntity
 67
     1
  8
3_ALL_AXES
  6
Continuous
 62
     7
100
AcDbCircle
 10
2382.7831139844
 20
423.96741239
 30
0.0
 40
8.0
100
AcDbArc
 50
270.0
 51
291.2538091854
  0
LINE
  5
2E6
330
1B
100
AcDbEntity
 67
     1
  8
3_ALL_AXES
  6
Continuous
 62
     7
100
AcDbLine
 10
2379.8831139844
 20
416.5115422195
 30
0.0
 11
2379.8831139844
 21
417.21741239
 31
0.0
  0
LINE
  5
2E7
330
1B
100
AcDbEntity
 67
     1
  8
3_ALL_AXES
  6
Continuous
 62
     7
100
AcDbLine
 10
2385.6831139844
 20
416.5115422195
 30
0.0
 11
2385.6831139844
 21
417.21741239
 31
0.0
  0
LINE
  5
2E8
330
1B
100
AcDbEntity
 67
     1
  8
3_ALL_AXES
  6
Continuous
 62
     7
100
AcDbLine
 10
2379.8831139844
 20
416.5115422195
 30
0.0
 11
2385.6831139844
 21
416.5115422195
 31
0.0
  0
LINE
  5
2E9
330
1B
100
AcDbEntity
 67
     1
  8
3_ALL_AXES
  6
Continuous
 62
     7
100
AcDbLine
 10
3009.8831139844
 20
417.21741239
 30
0.0
 11
3009.8831139844
 21
416.5115422195
 31
0.0
  0
LINE
  5
2EA
330
1B
100
AcDbEntity
 67
     1
  8
3_ALL_AXES
  6
Continuous
 62
     7
100
AcDbLine
 10
3015.6831139844
 20
417.21741239
 30
0.0
 11
3015.6831139844
 21
416.5115422195
 31
0.0
  0
ARC
  5
2EB
330
1B
100
AcDbEntity
 67
     1
  8
3_ALL_AXES
  6
Continuous
 62
     7
100
AcDbCircle
 10
3012.7831139844
 20
423.96741239
 30
0.0
 40
8.0
100
AcDbArc
 50
248.7461908146
 51
270.0
  0
ARC
  5
2EC
330
1B
100
AcDbEntity
 67
     1
  8
3_ALL_AXES
  6
Continuous
 62
     7
100
AcDbCircle
 10
3012.7831139844
 20
423.96741239
 30
0.0
 40
8.0
100
AcDbArc
 50
270.0
 51
291.2538091854
  0
LINE
  5
2ED
330
1B
100
AcDbEntity
 67
     1
  8
3_ALL_AXES
  6
Continuous
 62
     7
100
AcDbLine
 10
3009.8831139844
 20
416.5115422195
 30
0.0
 11
3009.8831139844
 21
417.21741239
 31
0.0
  0
LINE
  5
2EE
330
1B
100
AcDbEntity
 67
     1
  8
3_ALL_AXES
  6
Continuous
 62
     7
100
AcDbLine
 10
3015.6831139844
 20
416.5115422195
 30
0.0
 11
3015.6831139844
 21
417.21741239
 31
0.0
  0
LINE
  5
2EF
330
1B
100
AcDbEntity
 67
     1
  8
3_ALL_AXES
  6
Continuous
 62
     7
100
AcDbLine
 10
3009.8831139844
 20
416.5115422195
 30
0.0
 11
3015.6831139844
 21
416.5115422195
 31
0.0
  0
LINE
  5
2F0
330
1B
100
AcDbEntity
 67
     1
  8
3_ALL_AXES
  6
Continuous
 62
     7
100
AcDbLine
 10
3639.8831139844
 20
417.21741239
 30
0.0
 11
3639.8831139844
 21
416.5115422195
 31
0.0
  0
LINE
  5
2F1
330
1B
100
AcDbEntity
 67
     1
  8
3_ALL_AXES
  6
Continuous
 62
     7
100
AcDbLine
 10
3645.6831139844
 20
417.21741239
 30
0.0
 11
3645.6831139844
 21
416.5115422195
 31
0.0
  0
ARC
  5
2F2
330
1B
100
AcDbEntity
 67
     1
  8
3_ALL_AXES
  6
Continuous
 62
     7
100
AcDbCircle
 10
3642.7831139844
 20
423.96741239
 30
0.0
 40
8.0
100
AcDbArc
 50
248.7461908146
 51
270.0
  0
ARC
  5
2F3
330
1B
100
AcDbEntity
 67
     1
  8
3_ALL_AXES
  6
Continuous
 62
     7
100
AcDbCircle
 10
3642.7831139844
 20
423.96741239
 30
0.0
 40
8.0
100
AcDbArc
 50
270.0
 51
291.2538091854
  0
LINE
  5
2F4
330
1B
100
AcDbEntity
 67
     1
  8
3_ALL_AXES
  6
Continuous
 62
     7
100
AcDbLine
 10
3639.8831139844
 20
416.5115422195
 30
0.0
 11
3639.8831139844
 21
417.21741239
 31
0.0
  0
LINE
  5
2F5
330
1B
100
AcDbEntity
 67
     1
  8
3_ALL_AXES
  6
Continuous
 62
     7
100
AcDbLine
 10
3645.6831139844
 20
416.5115422195
 30
0.0
 11
3645.6831139844
 21
417.21741239
 31
0.0
  0
LINE
  5
2F6
330
1B
100
AcDbEntity
 67
     1
  8
3_ALL_AXES
  6
Continuous
 62
     7
100
AcDbLine
 10
3639.8831139844
 20
416.5115422195
 30
0.0
 11
3645.6831139844
 21
416.5115422195
 31
0.0
  0
LINE
  5
2F7
330
1B
100
AcDbEntity
 67
     1
  8
3_ALL_AXES
  6
Continuous
 62
     7
100
AcDbLine
 10
4269.8831139844
 20
417.21741239
 30
0.0
 11
4269.8831139844
 21
416.5115422195
 31
0.0
  0
LINE
  5
2F8
330
1B
100
AcDbEntity
 67
     1
  8
3_ALL_AXES
  6
Continuous
 62
     7
100
AcDbLine
 10
4275.6831139844
 20
417.21741239
 30
0.0
 11
4275.6831139844
 21
416.5115422195
 31
0.0
  0
ARC
  5
2F9
330
1B
100
AcDbEntity
 67
     1
  8
3_ALL_AXES
  6
Continuous
 62
     7
100
AcDbCircle
 10
4272.7831139844
 20
423.96741239
 30
0.0
 40
8.0
100
AcDbArc
 50
248.7461908146
 51
270.0
  0
ARC
  5
2FA
330
1B
100
AcDbEntity
 67
     1
  8
3_ALL_AXES
  6
Continuous
 62
     7
100
AcDbCircle
 10
4272.7831139844
 20
423.96741239
 30
0.0
 40
8.0
100
AcDbArc
 50
270.0
 51
291.2538091854
  0
LINE
  5
2FB
330
1B
100
AcDbEntity
 67
     1
  8
3_ALL_AXES
  6
Continuous
 62
     7
100
AcDbLine
 10
4269.8831139844
 20
416.5115422195
 30
0.0
 11
4269.8831139844
 21
417.21741239
 31
0.0
  0
LINE
  5
2FC
330
1B
100
AcDbEntity
 67
     1
  8
3_ALL_AXES
  6
Continuous
 62
     7
100
AcDbLine
 10
4275.6831139844
 20
416.5115422195
 30
0.0
 11
4275.6831139844
 21
417.21741239
 31
0.0
  0
LINE
  5
2FD
330
1B
100
AcDbEntity
 67
     1
  8
3_ALL_AXES
  6
Continuous
 62
     7
100
AcDbLine
 10
4269.8831139844
 20
416.5115422195
 30
0.0
 11
4275.6831139844
 21
416.5115422195
 31
0.0
  0
LINE
  5
2FE
330
1B
100
AcDbEntity
 67
     1
  8
7_ALL_FEATURES
  6
Continuous
 62
     7
100
AcDbLine
 10
4342.5614261479
 20
465.96741239
 30
0.0
 11
4341.8397383114
 21
464.71741239
 31
0.0
  0
LINE
  5
2FF
330
1B
100
AcDbEntity
 67
     1
  8
7_ALL_FEATURES
  6
Continuous
 62
     7
100
AcDbLine
 10
4341.8397383114
 20
464.71741239
 30
0.0
 11
4342.5614261479
 21
463.46741239
 31
0.0
  0
LINE
  5
300
330
1B
100
AcDbEntity
 67
     1
  8
7_ALL_FEATURES
  6
Continuous
 62
     7
100
AcDbLine
 10
4342.5614261479
 20
463.46741239
 30
0.0
 11
4344.0048018209
 21
463.46741239
 31
0.0
  0
LINE
  5
301
330
1B
100
AcDbEntity
 67
     1
  8
7_ALL_FEATURES
  6
Continuous
 62
     7
100
AcDbLine
 10
4344.0048018209
 20
463.46741239
 30
0.0
 11
4344.7264896574
 21
464.71741239
 31
0.0
  0
LINE
  5
302
330
1B
100
AcDbEntity
 67
     1
  8
7_ALL_FEATURES
  6
Continuous
 62
     7
100
AcDbLine
 10
4344.7264896574
 20
464.71741239
 30
0.0
 11
4344.0048018209
 21
465.96741239
 31
0.0
  0
LINE
  5
303
330
1B
100
AcDbEntity
 67
     1
  8
7_ALL_FEATURES
  6
Continuous
 62
     7
100
AcDbLine
 10
4344.0048018209
 20
465.96741239
 30
0.0
 11
4342.5614261479
 21
465.96741239
 31
0.0
  0
ARC
  5
304
330
1B
100
AcDbEntity
 67
     1
  8
3_ALL_AXES
  6
Continuous
 62
     7
100
AcDbCircle
 10
4343.2831139844
 20
464.71741239
 30
0.0
 40
3.8
100
AcDbArc
 50
0.0
 51
180.0
  0
ARC
  5
305
330
1B
100
AcDbEntity
 67
     1
  8
3_ALL_AXES
  6
Continuous
 62
     7
100
AcDbCircle
 10
4343.2831139844
 20
464.71741239
 30
0.0
 40
3.8
100
AcDbArc
 50
180.0
 51
360.0
  0
ARC
  5
306
330
1B
100
AcDbEntity
 67
     1
  8
3_ALL_AXES
  6
Continuous
 62
     7
100
AcDbCircle
 10
4343.2831139844
 20
464.71741239
 30
0.0
 40
1.965
100
AcDbArc
 50
180.0
 51
360.0
  0
ARC
  5
307
330
1B
100
AcDbEntity
 67
     1
  8
3_ALL_AXES
  6
Continuous
 62
     7
100
AcDbCircle
 10
4343.2831139844
 20
464.71741239
 30
0.0
 40
1.965
100
AcDbArc
 50
0.0
 51
180.0
  0
LINE
  5
308
330
1B
100
AcDbEntity
 67
     1
  8
7_ALL_FEATURES
  6
Continuous
 62
     7
100
AcDbLine
 10
4342.5614261479
 20
430.96741239
 30
0.0
 11
4341.8397383114
 21
429.71741239
 31
0.0
  0
LINE
  5
309
330
1B
100
AcDbEntity
 67
     1
  8
7_ALL_FEATURES
  6
Continuous
 62
     7
100
AcDbLine
 10
4341.8397383114
 20
429.71741239
 30
0.0
 11
4342.5614261479
 21
428.46741239
 31
0.0
  0
LINE
  5
30A
330
1B
100
AcDbEntity
 67
     1
  8
7_ALL_FEATURES
  6
Continuous
 62
     7
100
AcDbLine
 10
4342.5614261479
 20
428.46741239
 30
0.0
 11
4344.0048018209
 21
428.46741239
 31
0.0
  0
LINE
  5
30B
330
1B
100
AcDbEntity
 67
     1
  8
7_ALL_FEATURES
  6
Continuous
 62
     7
100
AcDbLine
 10
4344.0048018209
 20
428.46741239
 30
0.0
 11
4344.7264896574
 21
429.71741239
 31
0.0
  0
LINE
  5
30C
330
1B
100
AcDbEntity
 67
     1
  8
7_ALL_FEATURES
  6
Continuous
 62
     7
100
AcDbLine
 10
4344.7264896574
 20
429.71741239
 30
0.0
 11
4344.0048018209
 21
430.96741239
 31
0.0
  0
LINE
  5
30D
330
1B
100
AcDbEntity
 67
     1
  8
7_ALL_FEATURES
  6
Continuous
 62
     7
100
AcDbLine
 10
4344.0048018209
 20
430.96741239
 30
0.0
 11
4342.5614261479
 21
430.96741239
 31
0.0
  0
ARC
  5
30E
330
1B
100
AcDbEntity
 67
     1
  8
3_ALL_AXES
  6
Continuous
 62
     7
100
AcDbCircle
 10
4343.2831139844
 20
429.71741239
 30
0.0
 40
3.8
100
AcDbArc
 50
0.0
 51
180.0
  0
ARC
  5
30F
330
1B
100
AcDbEntity
 67
     1
  8
3_ALL_AXES
  6
Continuous
 62
     7
100
AcDbCircle
 10
4343.2831139844
 20
429.71741239
 30
0.0
 40
3.8
100
AcDbArc
 50
180.0
 51
360.0
  0
ARC
  5
310
330
1B
100
AcDbEntity
 67
     1
  8
3_ALL_AXES
  6
Continuous
 62
     7
100
AcDbCircle
 10
4343.2831139844
 20
429.71741239
 30
0.0
 40
1.965
100
AcDbArc
 50
180.0
 51
360.0
  0
ARC
  5
311
330
1B
100
AcDbEntity
 67
     1
  8
3_ALL_AXES
  6
Continuous
 62
     7
100
AcDbCircle
 10
4343.2831139844
 20
429.71741239
 30
0.0
 40
1.965
100
AcDbArc
 50
0.0
 51
180.0
  0
LINE
  5
312
330
1B
100
AcDbEntity
 67
     1
  8
7_ALL_FEATURES
  6
Continuous
 62
     7
100
AcDbLine
 10
2346.5614261479
 20
465.96741239
 30
0.0
 11
2345.8397383115
 21
464.71741239
 31
0.0
  0
LINE
  5
313
330
1B
100
AcDbEntity
 67
     1
  8
7_ALL_FEATURES
  6
Continuous
 62
     7
100
AcDbLine
 10
2345.8397383115
 20
464.71741239
 30
0.0
 11
2346.5614261479
 21
463.46741239
 31
0.0
  0
LINE
  5
314
330
1B
100
AcDbEntity
 67
     1
  8
7_ALL_FEATURES
  6
Continuous
 62
     7
100
AcDbLine
 10
2346.5614261479
 20
463.46741239
 30
0.0
 11
2348.0048018209
 21
463.46741239
 31
0.0
  0
LINE
  5
315
330
1B
100
AcDbEntity
 67
     1
  8
7_ALL_FEATURES
  6
Continuous
 62
     7
100
AcDbLine
 10
2348.0048018209
 20
463.46741239
 30
0.0
 11
2348.7264896574
 21
464.71741239
 31
0.0
  0
LINE
  5
316
330
1B
100
AcDbEntity
 67
     1
  8
7_ALL_FEATURES
  6
Continuous
 62
     7
100
AcDbLine
 10
2348.7264896574
 20
464.71741239
 30
0.0
 11
2348.0048018209
 21
465.96741239
 31
0.0
  0
LINE
  5
317
330
1B
100
AcDbEntity
 67
     1
  8
7_ALL_FEATURES
  6
Continuous
 62
     7
100
AcDbLine
 10
2348.0048018209
 20
465.96741239
 30
0.0
 11
2346.5614261479
 21
465.96741239
 31
0.0
  0
ARC
  5
318
330
1B
100
AcDbEntity
 67
     1
  8
3_ALL_AXES
  6
Continuous
 62
     7
100
AcDbCircle
 10
2347.2831139844
 20
464.71741239
 30
0.0
 40
3.8
100
AcDbArc
 50
0.0
 51
180.0
  0
ARC
  5
319
330
1B
100
AcDbEntity
 67
     1
  8
3_ALL_AXES
  6
Continuous
 62
     7
100
AcDbCircle
 10
2347.2831139844
 20
464.71741239
 30
0.0
 40
3.8
100
AcDbArc
 50
180.0
 51
360.0
  0
ARC
  5
31A
330
1B
100
AcDbEntity
 67
     1
  8
3_ALL_AXES
  6
Continuous
 62
     7
100
AcDbCircle
 10
2347.2831139844
 20
464.71741239
 30
0.0
 40
1.965
100
AcDbArc
 50
180.0
 51
360.0
  0
ARC
  5
31B
330
1B
100
AcDbEntity
 67
     1
  8
3_ALL_AXES
  6
Continuous
 62
     7
100
AcDbCircle
 10
2347.2831139844
 20
464.71741239
 30
0.0
 40
1.965
100
AcDbArc
 50
0.0
 51
180.0
  0
LINE
  5
31C
330
1B
100
AcDbEntity
 67
     1
  8
7_ALL_FEATURES
  6
Continuous
 62
     7
100
AcDbLine
 10
2346.5614261479
 20
430.96741239
 30
0.0
 11
2345.8397383115
 21
429.71741239
 31
0.0
  0
LINE
  5
31D
330
1B
100
AcDbEntity
 67
     1
  8
7_ALL_FEATURES
  6
Continuous
 62
     7
100
AcDbLine
 10
2345.8397383115
 20
429.71741239
 30
0.0
 11
2346.5614261479
 21
428.46741239
 31
0.0
  0
LINE
  5
31E
330
1B
100
AcDbEntity
 67
     1
  8
7_ALL_FEATURES
  6
Continuous
 62
     7
100
AcDbLine
 10
2346.5614261479
 20
428.46741239
 30
0.0
 11
2348.0048018209
 21
428.46741239
 31
0.0
  0
LINE
  5
31F
330
1B
100
AcDbEntity
 67
     1
  8
7_ALL_FEATURES
  6
Continuous
 62
     7
100
AcDbLine
 10
2348.0048018209
 20
428.46741239
 30
0.0
 11
2348.7264896574
 21
429.71741239
 31
0.0
  0
LINE
  5
320
330
1B
100
AcDbEntity
 67
     1
  8
7_ALL_FEATURES
  6
Continuous
 62
     7
100
AcDbLine
 10
2348.7264896574
 20
429.71741239
 30
0.0
 11
2348.0048018209
 21
430.96741239
 31
0.0
  0
LINE
  5
321
330
1B
100
AcDbEntity
 67
     1
  8
7_ALL_FEATURES
  6
Continuous
 62
     7
100
AcDbLine
 10
2348.0048018209
 20
430.96741239
 30
0.0
 11
2346.5614261479
 21
430.96741239
 31
0.0
  0
ARC
  5
322
330
1B
100
AcDbEntity
 67
     1
  8
3_ALL_AXES
  6
Continuous
 62
     7
100
AcDbCircle
 10
2347.2831139844
 20
429.71741239
 30
0.0
 40
3.8
100
AcDbArc
 50
0.0
 51
180.0
  0
ARC
  5
323
330
1B
100
AcDbEntity
 67
     1
  8
3_ALL_AXES
  6
Continuous
 62
     7
100
AcDbCircle
 10
2347.2831139844
 20
429.71741239
 30
0.0
 40
3.8
100
AcDbArc
 50
180.0
 51
360.0
  0
ARC
  5
324
330
1B
100
AcDbEntity
 67
     1
  8
3_ALL_AXES
  6
Continuous
 62
     7
100
AcDbCircle
 10
2347.2831139844
 20
429.71741239
 30
0.0
 40
1.965
100
AcDbArc
 50
180.0
 51
360.0
  0
ARC
  5
325
330
1B
100
AcDbEntity
 67
     1
  8
3_ALL_AXES
  6
Continuous
 62
     7
100
AcDbCircle
 10
2347.2831139844
 20
429.71741239
 30
0.0
 40
1.965
100
AcDbArc
 50
0.0
 51
180.0
  0
LINE
  5
326
330
1B
100
AcDbEntity
 67
     1
  8
7_ALL_FEATURES
  6
Continuous
 62
     7
100
AcDbLine
 10
4265.2831139844
 20
417.21741239
 30
0.0
 11
4265.2831139844
 21
418.41741239
 31
0.0
  0
LINE
  5
327
330
1B
100
AcDbEntity
 67
     1
  8
7_ALL_FEATURES
  6
Continuous
 62
     7
100
AcDbLine
 10
4315.2831139844
 20
417.21741239
 30
0.0
 11
4315.2831139844
 21
418.41741239
 31
0.0
  0
LINE
  5
328
330
1B
100
AcDbEntity
 67
     1
  8
7_ALL_FEATURES
  6
Continuous
 62
     7
100
AcDbLine
 10
4315.2831139844
 20
417.21741239
 30
0.0
 11
4310.0331139844
 21
417.21741239
 31
0.0
  0
LINE
  5
329
330
1B
100
AcDbEntity
 67
     1
  8
7_ALL_FEATURES
  6
Continuous
 62
     7
100
AcDbLine
 10
4310.0331139844
 20
417.21741239
 30
0.0
 11
4305.2831139844
 21
417.21741239
 31
0.0
  0
LINE
  5
32A
330
1B
100
AcDbEntity
 67
     1
  8
7_ALL_FEATURES
  6
Continuous
 62
     7
100
AcDbLine
 10
4275.2831139844
 20
417.21741239
 30
0.0
 11
4270.5331139844
 21
417.21741239
 31
0.0
  0
LINE
  5
32B
330
1B
100
AcDbEntity
 67
     1
  8
7_ALL_FEATURES
  6
Continuous
 62
     7
100
AcDbLine
 10
4270.5331139844
 20
417.21741239
 30
0.0
 11
4265.2831139844
 21
417.21741239
 31
0.0
  0
LINE
  5
32C
330
1B
100
AcDbEntity
 67
     1
  8
7_ALL_FEATURES
  6
Continuous
 62
     7
100
AcDbLine
 10
4275.2831139844
 20
417.21741239
 30
0.0
 11
4305.2831139844
 21
417.21741239
 31
0.0
  0
LINE
  5
32D
330
1B
100
AcDbEntity
 67
     1
  8
7_ALL_FEATURES
  6
Continuous
 62
     7
100
AcDbLine
 10
4265.2831139844
 20
417.21741239
 30
0.0
 11
4265.2831139844
 21
418.41741239
 31
0.0
  0
LINE
  5
32E
330
1B
100
AcDbEntity
 67
     1
  8
7_ALL_FEATURES
  6
Continuous
 62
     9
100
AcDbLine
 10
4275.2831139844
 20
417.21741239
 30
0.0
 11
4275.2831139844
 21
418.41741239
 31
0.0
  0
LINE
  5
32F
330
1B
100
AcDbEntity
 67
     1
  8
7_ALL_FEATURES
  6
Continuous
 62
     9
100
AcDbLine
 10
4305.2831139844
 20
417.21741239
 30
0.0
 11
4305.2831139844
 21
418.41741239
 31
0.0
  0
LINE
  5
330
330
1B
100
AcDbEntity
 67
     1
  8
7_ALL_FEATURES
  6
Continuous
 62
     7
100
AcDbLine
 10
2375.2831139844
 20
417.21741239
 30
0.0
 11
2375.2831139844
 21
418.41741239
 31
0.0
  0
LINE
  5
331
330
1B
100
AcDbEntity
 67
     1
  8
7_ALL_FEATURES
  6
Continuous
 62
     7
100
AcDbLine
 10
2425.2831139844
 20
417.21741239
 30
0.0
 11
2425.2831139844
 21
418.41741239
 31
0.0
  0
LINE
  5
332
330
1B
100
AcDbEntity
 67
     1
  8
7_ALL_FEATURES
  6
Continuous
 62
     7
100
AcDbLine
 10
2425.2831139844
 20
417.21741239
 30
0.0
 11
2420.0331139844
 21
417.21741239
 31
0.0
  0
LINE
  5
333
330
1B
100
AcDbEntity
 67
     1
  8
7_ALL_FEATURES
  6
Continuous
 62
     7
100
AcDbLine
 10
2420.0331139844
 20
417.21741239
 30
0.0
 11
2415.2831139844
 21
417.21741239
 31
0.0
  0
LINE
  5
334
330
1B
100
AcDbEntity
 67
     1
  8
7_ALL_FEATURES
  6
Continuous
 62
     7
100
AcDbLine
 10
2385.2831139844
 20
417.21741239
 30
0.0
 11
2380.5331139844
 21
417.21741239
 31
0.0
  0
LINE
  5
335
330
1B
100
AcDbEntity
 67
     1
  8
7_ALL_FEATURES
  6
Continuous
 62
     7
100
AcDbLine
 10
2380.5331139844
 20
417.21741239
 30
0.0
 11
2375.2831139844
 21
417.21741239
 31
0.0
  0
LINE
  5
336
330
1B
100
AcDbEntity
 67
     1
  8
7_ALL_FEATURES
  6
Continuous
 62
     7
100
AcDbLine
 10
2385.2831139844
 20
417.21741239
 30
0.0
 11
2415.2831139844
 21
417.21741239
 31
0.0
  0
LINE
  5
337
330
1B
100
AcDbEntity
 67
     1
  8
7_ALL_FEATURES
  6
Continuous
 62
     7
100
AcDbLine
 10
2375.2831139844
 20
417.21741239
 30
0.0
 11
2375.2831139844
 21
418.41741239
 31
0.0
  0
LINE
  5
338
330
1B
100
AcDbEntity
 67
     1
  8
7_ALL_FEATURES
  6
Continuous
 62
     9
100
AcDbLine
 10
2385.2831139844
 20
417.21741239
 30
0.0
 11
2385.2831139844
 21
418.41741239
 31
0.0
  0
LINE
  5
339
330
1B
100
AcDbEntity
 67
     1
  8
7_ALL_FEATURES
  6
Continuous
 62
     9
100
AcDbLine
 10
2415.2831139844
 20
417.21741239
 30
0.0
 11
2415.2831139844
 21
418.41741239
 31
0.0
  0
LINE
  5
33A
330
1B
100
AcDbEntity
 67
     1
  8
7_ALL_FEATURES
  6
Continuous
 62
     7
100
AcDbLine
 10
3005.2831139844
 20
417.21741239
 30
0.0
 11
3005.2831139844
 21
418.41741239
 31
0.0
  0
LINE
  5
33B
330
1B
100
AcDbEntity
 67
     1
  8
7_ALL_FEATURES
  6
Continuous
 62
     7
100
AcDbLine
 10
3055.2831139844
 20
417.21741239
 30
0.0
 11
3055.2831139844
 21
418.41741239
 31
0.0
  0
LINE
  5
33C
330
1B
100
AcDbEntity
 67
     1
  8
7_ALL_FEATURES
  6
Continuous
 62
     7
100
AcDbLine
 10
3055.2831139844
 20
417.21741239
 30
0.0
 11
3050.0331139844
 21
417.21741239
 31
0.0
  0
LINE
  5
33D
330
1B
100
AcDbEntity
 67
     1
  8
7_ALL_FEATURES
  6
Continuous
 62
     7
100
AcDbLine
 10
3050.0331139844
 20
417.21741239
 30
0.0
 11
3045.2831139844
 21
417.21741239
 31
0.0
  0
LINE
  5
33E
330
1B
100
AcDbEntity
 67
     1
  8
7_ALL_FEATURES
  6
Continuous
 62
     7
100
AcDbLine
 10
3015.2831139844
 20
417.21741239
 30
0.0
 11
3010.5331139844
 21
417.21741239
 31
0.0
  0
LINE
  5
33F
330
1B
100
AcDbEntity
 67
     1
  8
7_ALL_FEATURES
  6
Continuous
 62
     7
100
AcDbLine
 10
3010.5331139844
 20
417.21741239
 30
0.0
 11
3005.2831139844
 21
417.21741239
 31
0.0
  0
LINE
  5
340
330
1B
100
AcDbEntity
 67
     1
  8
7_ALL_FEATURES
  6
Continuous
 62
     7
100
AcDbLine
 10
3015.2831139844
 20
417.21741239
 30
0.0
 11
3045.2831139844
 21
417.21741239
 31
0.0
  0
LINE
  5
341
330
1B
100
AcDbEntity
 67
     1
  8
7_ALL_FEATURES
  6
Continuous
 62
     7
100
AcDbLine
 10
3005.2831139844
 20
417.21741239
 30
0.0
 11
3005.2831139844
 21
418.41741239
 31
0.0
  0
LINE
  5
342
330
1B
100
AcDbEntity
 67
     1
  8
7_ALL_FEATURES
  6
Continuous
 62
     9
100
AcDbLine
 10
3015.2831139844
 20
417.21741239
 30
0.0
 11
3015.2831139844
 21
418.41741239
 31
0.0
  0
LINE
  5
343
330
1B
100
AcDbEntity
 67
     1
  8
7_ALL_FEATURES
  6
Continuous
 62
     9
100
AcDbLine
 10
3045.2831139844
 20
417.21741239
 30
0.0
 11
3045.2831139844
 21
418.41741239
 31
0.0
  0
LINE
  5
344
330
1B
100
AcDbEntity
 67
     1
  8
7_ALL_FEATURES
  6
Continuous
 62
     7
100
AcDbLine
 10
3635.2831139844
 20
417.21741239
 30
0.0
 11
3635.2831139844
 21
418.41741239
 31
0.0
  0
LINE
  5
345
330
1B
100
AcDbEntity
 67
     1
  8
7_ALL_FEATURES
  6
Continuous
 62
     7
100
AcDbLine
 10
3685.2831139844
 20
417.21741239
 30
0.0
 11
3685.2831139844
 21
418.41741239
 31
0.0
  0
LINE
  5
346
330
1B
100
AcDbEntity
 67
     1
  8
7_ALL_FEATURES
  6
Continuous
 62
     7
100
AcDbLine
 10
3685.2831139844
 20
417.21741239
 30
0.0
 11
3680.0331139844
 21
417.21741239
 31
0.0
  0
LINE
  5
347
330
1B
100
AcDbEntity
 67
     1
  8
7_ALL_FEATURES
  6
Continuous
 62
     7
100
AcDbLine
 10
3680.0331139844
 20
417.21741239
 30
0.0
 11
3675.2831139844
 21
417.21741239
 31
0.0
  0
LINE
  5
348
330
1B
100
AcDbEntity
 67
     1
  8
7_ALL_FEATURES
  6
Continuous
 62
     7
100
AcDbLine
 10
3645.2831139844
 20
417.21741239
 30
0.0
 11
3640.5331139844
 21
417.21741239
 31
0.0
  0
LINE
  5
349
330
1B
100
AcDbEntity
 67
     1
  8
7_ALL_FEATURES
  6
Continuous
 62
     7
100
AcDbLine
 10
3640.5331139844
 20
417.21741239
 30
0.0
 11
3635.2831139844
 21
417.21741239
 31
0.0
  0
LINE
  5
34A
330
1B
100
AcDbEntity
 67
     1
  8
7_ALL_FEATURES
  6
Continuous
 62
     7
100
AcDbLine
 10
3645.2831139844
 20
417.21741239
 30
0.0
 11
3675.2831139844
 21
417.21741239
 31
0.0
  0
LINE
  5
34B
330
1B
100
AcDbEntity
 67
     1
  8
7_ALL_FEATURES
  6
Continuous
 62
     7
100
AcDbLine
 10
3635.2831139844
 20
417.21741239
 30
0.0
 11
3635.2831139844
 21
418.41741239
 31
0.0
  0
LINE
  5
34C
330
1B
100
AcDbEntity
 67
     1
  8
7_ALL_FEATURES
  6
Continuous
 62
     9
100
AcDbLine
 10
3645.2831139844
 20
417.21741239
 30
0.0
 11
3645.2831139844
 21
418.41741239
 31
0.0
  0
LINE
  5
34D
330
1B
100
AcDbEntity
 67
     1
  8
7_ALL_FEATURES
  6
Continuous
 62
     9
100
AcDbLine
 10
3675.2831139844
 20
417.21741239
 30
0.0
 11
3675.2831139844
 21
418.41741239
 31
0.0
  0
LINE
  5
34E
330
1B
100
AcDbEntity
 67
     1
  8
7_ALL_FEATURES
  6
Continuous
 62
     7
100
AcDbLine
 10
2338.5331139844
 20
506.21741239
 30
0.0
 11
2339.5331139844
 21
506.21741239
 31
0.0
  0
LINE
  5
34F
330
1B
100
AcDbEntity
 67
     1
  8
7_ALL_FEATURES
  6
Continuous
 62
     7
100
AcDbLine
 10
2338.5331139844
 20
417.21741239
 30
0.0
 11
2339.5331139844
 21
417.21741239
 31
0.0
  0
LINE
  5
350
330
1B
100
AcDbEntity
 67
     1
  8
7_ALL_FEATURES
  6
Continuous
 62
     7
100
AcDbLine
 10
2338.5331139844
 20
417.21741239
 30
0.0
 11
2338.5331139844
 21
417.71741239
 31
0.0
  0
LINE
  5
351
330
1B
100
AcDbEntity
 67
     1
  8
7_ALL_FEATURES
  6
Continuous
 62
     7
100
AcDbLine
 10
2338.5331139844
 20
424.51741239
 30
0.0
 11
2338.5331139844
 21
417.71741239
 31
0.0
  0
LINE
  5
352
330
1B
100
AcDbEntity
 67
     1
  8
7_ALL_FEATURES
  6
Continuous
 62
     7
100
AcDbLine
 10
2338.5331139844
 20
425.71741239
 30
0.0
 11
2338.5331139844
 21
424.51741239
 31
0.0
  0
LINE
  5
353
330
1B
100
AcDbEntity
 67
     1
  8
7_ALL_FEATURES
  6
Continuous
 62
     7
100
AcDbLine
 10
2338.5331139844
 20
433.71741239
 30
0.0
 11
2338.5331139844
 21
434.91741239
 31
0.0
  0
LINE
  5
354
330
1B
100
AcDbEntity
 67
     1
  8
7_ALL_FEATURES
  6
Continuous
 62
     7
100
AcDbLine
 10
2338.5331139844
 20
459.51741239
 30
0.0
 11
2338.5331139844
 21
434.91741239
 31
0.0
  0
LINE
  5
355
330
1B
100
AcDbEntity
 67
     1
  8
7_ALL_FEATURES
  6
Continuous
 62
     7
100
AcDbLine
 10
2338.5331139844
 20
460.71741239
 30
0.0
 11
2338.5331139844
 21
459.51741239
 31
0.0
  0
LINE
  5
356
330
1B
100
AcDbEntity
 67
     1
  8
7_ALL_FEATURES
  6
Continuous
 62
     7
100
AcDbLine
 10
2338.5331139844
 20
468.71741239
 30
0.0
 11
2338.5331139844
 21
469.91741239
 31
0.0
  0
LINE
  5
357
330
1B
100
AcDbEntity
 67
     1
  8
7_ALL_FEATURES
  6
Continuous
 62
     7
100
AcDbLine
 10
2338.5331139844
 20
505.71741239
 30
0.0
 11
2338.5331139844
 21
469.91741239
 31
0.0
  0
LINE
  5
358
330
1B
100
AcDbEntity
 67
     1
  8
7_ALL_FEATURES
  6
Continuous
 62
     7
100
AcDbLine
 10
2338.5331139844
 20
505.71741239
 30
0.0
 11
2338.5331139844
 21
506.21741239
 31
0.0
  0
LINE
  5
359
330
1B
100
AcDbEntity
 67
     1
  8
7_ALL_FEATURES
  6
Continuous
 62
     7
100
AcDbLine
 10
2338.5331139844
 20
506.21741239
 30
0.0
 11
2339.5331139844
 21
506.21741239
 31
0.0
  0
LINE
  5
35A
330
1B
100
AcDbEntity
 67
     1
  8
7_ALL_FEATURES
  6
Continuous
 62
     7
100
AcDbLine
 10
2338.5331139844
 20
469.91741239
 30
0.0
 11
2339.5331139844
 21
469.91741239
 31
0.0
  0
LINE
  5
35B
330
1B
100
AcDbEntity
 67
     1
  8
7_ALL_FEATURES
  6
Continuous
 62
     7
100
AcDbLine
 10
2338.5331139844
 20
424.51741239
 30
0.0
 11
2339.5331139844
 21
424.51741239
 31
0.0
  0
LINE
  5
35C
330
1B
100
AcDbEntity
 67
     1
  8
7_ALL_FEATURES
  6
Continuous
 62
     7
100
AcDbLine
 10
2338.5331139844
 20
434.91741239
 30
0.0
 11
2339.5331139844
 21
434.91741239
 31
0.0
  0
LINE
  5
35D
330
1B
100
AcDbEntity
 67
     1
  8
7_ALL_FEATURES
  6
Continuous
 62
     7
100
AcDbLine
 10
2338.5331139844
 20
459.51741239
 30
0.0
 11
2339.5331139844
 21
459.51741239
 31
0.0
  0
LINE
  5
35E
330
1B
100
AcDbEntity
 67
     1
  8
7_ALL_FEATURES
  6
Continuous
 62
     7
100
AcDbLine
 10
2338.5331139844
 20
468.71741239
 30
0.0
 11
2338.5331139844
 21
460.71741239
 31
0.0
  0
LINE
  5
35F
330
1B
100
AcDbEntity
 67
     1
  8
7_ALL_FEATURES
  6
Continuous
 62
     7
100
AcDbLine
 10
2338.5919592736
 20
460.71741239
 30
0.0
 11
2338.5331139844
 21
460.71741239
 31
0.0
  0
LINE
  5
360
330
1B
100
AcDbEntity
 67
     1
  8
7_ALL_FEATURES
  6
Continuous
 62
     7
100
AcDbLine
 10
2340.5331139844
 20
460.71741239
 30
0.0
 11
2338.5919592736
 21
460.71741239
 31
0.0
  0
LINE
  5
361
330
1B
100
AcDbEntity
 67
     1
  8
7_ALL_FEATURES
  6
Continuous
 62
     7
100
AcDbLine
 10
2340.5331139844
 20
468.71741239
 30
0.0
 11
2338.5919592736
 21
468.71741239
 31
0.0
  0
LINE
  5
362
330
1B
100
AcDbEntity
 67
     1
  8
7_ALL_FEATURES
  6
Continuous
 62
     7
100
AcDbLine
 10
2338.5919592736
 20
468.71741239
 30
0.0
 11
2338.5331139844
 21
468.71741239
 31
0.0
  0
LINE
  5
363
330
1B
100
AcDbEntity
 67
     1
  8
7_ALL_FEATURES
  6
Continuous
 62
     7
100
AcDbLine
 10
2350.0331139844
 20
468.71741239
 30
0.0
 11
2340.5331139844
 21
468.71741239
 31
0.0
  0
LINE
  5
364
330
1B
100
AcDbEntity
 67
     1
  8
7_ALL_FEATURES
  6
Continuous
 62
     7
100
AcDbLine
 10
2340.5331139844
 20
460.71741239
 30
0.0
 11
2350.0331139844
 21
460.71741239
 31
0.0
  0
ARC
  5
365
330
1B
100
AcDbEntity
 67
     1
  8
7_ALL_FEATURES
  6
Continuous
 62
     7
100
AcDbCircle
 10
2350.0331139844
 20
461.71741239
 30
0.0
 40
1.0
100
AcDbArc
 50
270.0
 51
360.0
  0
LINE
  5
366
330
1B
100
AcDbEntity
 67
     1
  8
7_ALL_FEATURES
  6
Continuous
 62
     7
100
AcDbLine
 10
2351.0331139844
 20
461.71741239
 30
0.0
 11
2351.0331139844
 21
464.1090962591
 31
0.0
  0
LINE
  5
367
330
1B
100
AcDbEntity
 67
     1
  8
7_ALL_FEATURES
  6
Continuous
 62
     7
100
AcDbLine
 10
2351.0331139844
 20
465.325728521
 30
0.0
 11
2351.0331139844
 21
467.71741239
 31
0.0
  0
ARC
  5
368
330
1B
100
AcDbEntity
 67
     1
  8
7_ALL_FEATURES
  6
Continuous
 62
     7
100
AcDbCircle
 10
2350.0331139844
 20
467.71741239
 30
0.0
 40
1.0
100
AcDbArc
 50
0.0
 51
90.0
  0
LINE
  5
369
330
1B
100
AcDbEntity
 67
     1
  8
02___PRT_ALL_AXES
  6
Continuous
 62
     7
100
AcDbLine
 10
2344.2212084491
 20
462.46741239
 30
0.0
 11
2343.7831139844
 21
462.46741239
 31
0.0
  0
ARC
  5
36A
330
1B
100
AcDbEntity
 67
     1
  8
02___PRT_ALL_AXES
  6
Continuous
 62
     7
100
AcDbCircle
 10
2343.7831139844
 20
464.71741239
 30
0.0
 40
2.25
100
AcDbArc
 50
90.0
 51
270.0
  0
LINE
  5
36B
330
1B
100
AcDbEntity
 67
     1
  8
02___PRT_ALL_AXES
  6
Continuous
 62
     7
100
AcDbLine
 10
2343.7831139844
 20
466.96741239
 30
0.0
 11
2344.2212084491
 21
466.96741239
 31
0.0
  0
LINE
  5
36C
330
1B
100
AcDbEntity
 67
     1
  8
7_ALL_FEATURES
  6
Continuous
 62
     7
100
AcDbLine
 10
2338.5331139844
 20
433.71741239
 30
0.0
 11
2338.5331139844
 21
425.71741239
 31
0.0
  0
LINE
  5
36D
330
1B
100
AcDbEntity
 67
     1
  8
7_ALL_FEATURES
  6
Continuous
 62
     7
100
AcDbLine
 10
2338.5919592736
 20
425.71741239
 30
0.0
 11
2338.5331139844
 21
425.71741239
 31
0.0
  0
LINE
  5
36E
330
1B
100
AcDbEntity
 67
     1
  8
7_ALL_FEATURES
  6
Continuous
 62
     7
100
AcDbLine
 10
2340.5331139844
 20
425.71741239
 30
0.0
 11
2338.5919592736
 21
425.71741239
 31
0.0
  0
LINE
  5
36F
330
1B
100
AcDbEntity
 67
     1
  8
7_ALL_FEATURES
  6
Continuous
 62
     7
100
AcDbLine
 10
2340.5331139844
 20
433.71741239
 30
0.0
 11
2338.5919592736
 21
433.71741239
 31
0.0
  0
LINE
  5
370
330
1B
100
AcDbEntity
 67
     1
  8
7_ALL_FEATURES
  6
Continuous
 62
     7
100
AcDbLine
 10
2338.5919592736
 20
433.71741239
 30
0.0
 11
2338.5331139844
 21
433.71741239
 31
0.0
  0
LINE
  5
371
330
1B
100
AcDbEntity
 67
     1
  8
7_ALL_FEATURES
  6
Continuous
 62
     7
100
AcDbLine
 10
2350.0331139844
 20
433.71741239
 30
0.0
 11
2340.5331139844
 21
433.71741239
 31
0.0
  0
LINE
  5
372
330
1B
100
AcDbEntity
 67
     1
  8
7_ALL_FEATURES
  6
Continuous
 62
     7
100
AcDbLine
 10
2340.5331139844
 20
425.71741239
 30
0.0
 11
2350.0331139844
 21
425.71741239
 31
0.0
  0
ARC
  5
373
330
1B
100
AcDbEntity
 67
     1
  8
7_ALL_FEATURES
  6
Continuous
 62
     7
100
AcDbCircle
 10
2350.0331139844
 20
426.71741239
 30
0.0
 40
1.0
100
AcDbArc
 50
270.0
 51
360.0
  0
LINE
  5
374
330
1B
100
AcDbEntity
 67
     1
  8
7_ALL_FEATURES
  6
Continuous
 62
     7
100
AcDbLine
 10
2351.0331139844
 20
426.71741239
 30
0.0
 11
2351.0331139844
 21
429.1090962591
 31
0.0
  0
LINE
  5
375
330
1B
100
AcDbEntity
 67
     1
  8
7_ALL_FEATURES
  6
Continuous
 62
     7
100
AcDbLine
 10
2351.0331139844
 20
430.325728521
 30
0.0
 11
2351.0331139844
 21
432.71741239
 31
0.0
  0
ARC
  5
376
330
1B
100
AcDbEntity
 67
     1
  8
7_ALL_FEATURES
  6
Continuous
 62
     7
100
AcDbCircle
 10
2350.0331139844
 20
432.71741239
 30
0.0
 40
1.0
100
AcDbArc
 50
0.0
 51
90.0
  0
LINE
  5
377
330
1B
100
AcDbEntity
 67
     1
  8
02___PRT_ALL_AXES
  6
Continuous
 62
     7
100
AcDbLine
 10
2343.7831139844
 20
431.96741239
 30
0.0
 11
2344.2212084491
 21
431.96741239
 31
0.0
  0
LINE
  5
378
330
1B
100
AcDbEntity
 67
     1
  8
02___PRT_ALL_AXES
  6
Continuous
 62
     7
100
AcDbLine
 10
2344.2212084491
 20
427.46741239
 30
0.0
 11
2343.7831139844
 21
427.46741239
 31
0.0
  0
ARC
  5
379
330
1B
100
AcDbEntity
 67
     1
  8
02___PRT_ALL_AXES
  6
Continuous
 62
     7
100
AcDbCircle
 10
2343.7831139844
 20
429.71741239
 30
0.0
 40
2.25
100
AcDbArc
 50
90.0
 51
270.0
  0
LINE
  5
37A
330
1B
100
AcDbEntity
 67
     1
  8
7_ALL_FEATURES
  6
Continuous
 62
     9
100
AcDbLine
 10
2338.5331139844
 20
505.71741239
 30
0.0
 11
2339.5331139844
 21
505.71741239
 31
0.0
  0
LINE
  5
37B
330
1B
100
AcDbEntity
 67
     1
  8
7_ALL_FEATURES
  6
Continuous
 62
     9
100
AcDbLine
 10
2340.5331139844
 20
468.71741239
 30
0.0
 11
2340.5331139844
 21
460.71741239
 31
0.0
  0
LINE
  5
37C
330
1B
100
AcDbEntity
 67
     1
  8
7_ALL_FEATURES
  6
Continuous
 62
     9
100
AcDbLine
 10
2340.5331139844
 20
433.71741239
 30
0.0
 11
2340.5331139844
 21
425.71741239
 31
0.0
  0
LINE
  5
37D
330
1B
100
AcDbEntity
 67
     1
  8
7_ALL_FEATURES
  6
Continuous
 62
     9
100
AcDbLine
 10
2338.5331139844
 20
417.71741239
 30
0.0
 11
2339.5331139844
 21
417.71741239
 31
0.0
  0
LINE
  5
37E
330
1B
100
AcDbEntity
 67
     1
  8
7_ALL_FEATURES
  6
Continuous
 62
     7
100
AcDbLine
 10
4352.0331139844
 20
417.21741239
 30
0.0
 11
4351.0331139844
 21
417.21741239
 31
0.0
  0
LINE
  5
37F
330
1B
100
AcDbEntity
 67
     1
  8
7_ALL_FEATURES
  6
Continuous
 62
     7
100
AcDbLine
 10
4352.0331139844
 20
460.71741239
 30
0.0
 11
4352.0331139844
 21
468.71741239
 31
0.0
  0
LINE
  5
380
330
1B
100
AcDbEntity
 67
     1
  8
7_ALL_FEATURES
  6
Continuous
 62
     7
100
AcDbLine
 10
4352.0331139844
 20
425.71741239
 30
0.0
 11
4352.0331139844
 21
433.71741239
 31
0.0
  0
LINE
  5
381
330
1B
100
AcDbEntity
 67
     1
  8
7_ALL_FEATURES
  6
Continuous
 62
     7
100
AcDbLine
 10
4352.0331139844
 20
417.21741239
 30
0.0
 11
4351.0331139844
 21
417.21741239
 31
0.0
  0
LINE
  5
382
330
1B
100
AcDbEntity
 67
     1
  8
7_ALL_FEATURES
  6
Continuous
 62
     7
100
AcDbLine
 10
4352.0331139844
 20
506.21741239
 30
0.0
 11
4352.0331139844
 21
505.71741239
 31
0.0
  0
LINE
  5
383
330
1B
100
AcDbEntity
 67
     1
  8
7_ALL_FEATURES
  6
Continuous
 62
     7
100
AcDbLine
 10
4352.0331139844
 20
469.71741239
 30
0.0
 11
4352.0331139844
 21
505.71741239
 31
0.0
  0
LINE
  5
384
330
1B
100
AcDbEntity
 67
     1
  8
7_ALL_FEATURES
  6
Continuous
 62
     7
100
AcDbLine
 10
4352.0331139844
 20
468.71741239
 30
0.0
 11
4352.0331139844
 21
469.71741239
 31
0.0
  0
LINE
  5
385
330
1B
100
AcDbEntity
 67
     1
  8
7_ALL_FEATURES
  6
Continuous
 62
     7
100
AcDbLine
 10
4352.0331139844
 20
460.71741239
 30
0.0
 11
4352.0331139844
 21
459.71741239
 31
0.0
  0
LINE
  5
386
330
1B
100
AcDbEntity
 67
     1
  8
7_ALL_FEATURES
  6
Continuous
 62
     7
100
AcDbLine
 10
4352.0331139844
 20
434.91741239
 30
0.0
 11
4352.0331139844
 21
459.71741239
 31
0.0
  0
LINE
  5
387
330
1B
100
AcDbEntity
 67
     1
  8
7_ALL_FEATURES
  6
Continuous
 62
     7
100
AcDbLine
 10
4352.0331139844
 20
433.71741239
 30
0.0
 11
4352.0331139844
 21
434.91741239
 31
0.0
  0
LINE
  5
388
330
1B
100
AcDbEntity
 67
     1
  8
7_ALL_FEATURES
  6
Continuous
 62
     7
100
AcDbLine
 10
4352.0331139844
 20
425.71741239
 30
0.0
 11
4352.0331139844
 21
424.51741239
 31
0.0
  0
LINE
  5
389
330
1B
100
AcDbEntity
 67
     1
  8
7_ALL_FEATURES
  6
Continuous
 62
     7
100
AcDbLine
 10
4352.0331139844
 20
417.71741239
 30
0.0
 11
4352.0331139844
 21
424.51741239
 31
0.0
  0
LINE
  5
38A
330
1B
100
AcDbEntity
 67
     1
  8
7_ALL_FEATURES
  6
Continuous
 62
     7
100
AcDbLine
 10
4352.0331139844
 20
417.71741239
 30
0.0
 11
4352.0331139844
 21
417.21741239
 31
0.0
  0
LINE
  5
38B
330
1B
100
AcDbEntity
 67
     1
  8
7_ALL_FEATURES
  6
Continuous
 62
     7
100
AcDbLine
 10
4352.0331139844
 20
469.71741239
 30
0.0
 11
4351.0331139844
 21
469.71741239
 31
0.0
  0
LINE
  5
38C
330
1B
100
AcDbEntity
 67
     1
  8
7_ALL_FEATURES
  6
Continuous
 62
     7
100
AcDbLine
 10
4352.0331139844
 20
424.51741239
 30
0.0
 11
4351.0331139844
 21
424.51741239
 31
0.0
  0
LINE
  5
38D
330
1B
100
AcDbEntity
 67
     1
  8
7_ALL_FEATURES
  6
Continuous
 62
     7
100
AcDbLine
 10
4352.0331139844
 20
434.91741239
 30
0.0
 11
4351.0331139844
 21
434.91741239
 31
0.0
  0
LINE
  5
38E
330
1B
100
AcDbEntity
 67
     1
  8
7_ALL_FEATURES
  6
Continuous
 62
     7
100
AcDbLine
 10
4352.0331139844
 20
459.71741239
 30
0.0
 11
4351.0331139844
 21
459.71741239
 31
0.0
  0
LINE
  5
38F
330
1B
100
AcDbEntity
 67
     1
  8
7_ALL_FEATURES
  6
Continuous
 62
     7
100
AcDbLine
 10
4352.0331139844
 20
506.21741239
 30
0.0
 11
4351.0331139844
 21
506.21741239
 31
0.0
  0
LINE
  5
390
330
1B
100
AcDbEntity
 67
     1
  8
7_ALL_FEATURES
  6
Continuous
 62
     7
100
AcDbLine
 10
4352.0331139844
 20
460.71741239
 30
0.0
 11
4352.0331139844
 21
468.71741239
 31
0.0
  0
LINE
  5
391
330
1B
100
AcDbEntity
 67
     1
  8
7_ALL_FEATURES
  6
Continuous
 62
     7
100
AcDbLine
 10
4351.9742686953
 20
468.71741239
 30
0.0
 11
4352.0331139844
 21
468.71741239
 31
0.0
  0
LINE
  5
392
330
1B
100
AcDbEntity
 67
     1
  8
7_ALL_FEATURES
  6
Continuous
 62
     7
100
AcDbLine
 10
4350.0331139844
 20
468.71741239
 30
0.0
 11
4351.9742686953
 21
468.71741239
 31
0.0
  0
LINE
  5
393
330
1B
100
AcDbEntity
 67
     1
  8
7_ALL_FEATURES
  6
Continuous
 62
     7
100
AcDbLine
 10
4350.0331139844
 20
460.71741239
 30
0.0
 11
4351.9742686953
 21
460.71741239
 31
0.0
  0
LINE
  5
394
330
1B
100
AcDbEntity
 67
     1
  8
7_ALL_FEATURES
  6
Continuous
 62
     7
100
AcDbLine
 10
4351.9742686953
 20
460.71741239
 30
0.0
 11
4352.0331139844
 21
460.71741239
 31
0.0
  0
LINE
  5
395
330
1B
100
AcDbEntity
 67
     1
  8
7_ALL_FEATURES
  6
Continuous
 62
     7
100
AcDbLine
 10
4339.5331139844
 20
467.71741239
 30
0.0
 11
4339.5331139844
 21
465.325728521
 31
0.0
  0
LINE
  5
396
330
1B
100
AcDbEntity
 67
     1
  8
7_ALL_FEATURES
  6
Continuous
 62
     7
100
AcDbLine
 10
4339.5331139844
 20
464.1090962591
 30
0.0
 11
4339.5331139844
 21
461.71741239
 31
0.0
  0
ARC
  5
397
330
1B
100
AcDbEntity
 67
     1
  8
7_ALL_FEATURES
  6
Continuous
 62
     7
100
AcDbCircle
 10
4340.5331139844
 20
461.71741239
 30
0.0
 40
1.0
100
AcDbArc
 50
180.0
 51
270.0
  0
LINE
  5
398
330
1B
100
AcDbEntity
 67
     1
  8
7_ALL_FEATURES
  6
Continuous
 62
     7
100
AcDbLine
 10
4340.5331139844
 20
460.71741239
 30
0.0
 11
4350.0331139844
 21
460.71741239
 31
0.0
  0
LINE
  5
399
330
1B
100
AcDbEntity
 67
     1
  8
7_ALL_FEATURES
  6
Continuous
 62
     7
100
AcDbLine
 10
4350.0331139844
 20
468.71741239
 30
0.0
 11
4340.5331139844
 21
468.71741239
 31
0.0
  0
ARC
  5
39A
330
1B
100
AcDbEntity
 67
     1
  8
7_ALL_FEATURES
  6
Continuous
 62
     7
100
AcDbCircle
 10
4340.5331139844
 20
467.71741239
 30
0.0
 40
1.0
100
AcDbArc
 50
90.0
 51
180.0
  0
ARC
  5
39B
330
1B
100
AcDbEntity
 67
     1
  8
02___PRT_ALL_AXES
  6
Continuous
 62
     7
100
AcDbCircle
 10
4346.7831139844
 20
464.71741239
 30
0.0
 40
2.25
100
AcDbArc
 50
270.0
 51
90.0
  0
LINE
  5
39C
330
1B
100
AcDbEntity
 67
     1
  8
02___PRT_ALL_AXES
  6
Continuous
 62
     7
100
AcDbLine
 10
4346.3450195198
 20
462.46741239
 30
0.0
 11
4346.7831139844
 21
462.46741239
 31
0.0
  0
LINE
  5
39D
330
1B
100
AcDbEntity
 67
     1
  8
02___PRT_ALL_AXES
  6
Continuous
 62
     7
100
AcDbLine
 10
4346.7831139844
 20
466.96741239
 30
0.0
 11
4346.3450195198
 21
466.96741239
 31
0.0
  0
LINE
  5
39E
330
1B
100
AcDbEntity
 67
     1
  8
7_ALL_FEATURES
  6
Continuous
 62
     7
100
AcDbLine
 10
4352.0331139844
 20
425.71741239
 30
0.0
 11
4352.0331139844
 21
433.71741239
 31
0.0
  0
LINE
  5
39F
330
1B
100
AcDbEntity
 67
     1
  8
7_ALL_FEATURES
  6
Continuous
 62
     7
100
AcDbLine
 10
4351.9742686953
 20
433.71741239
 30
0.0
 11
4352.0331139844
 21
433.71741239
 31
0.0
  0
LINE
  5
3A0
330
1B
100
AcDbEntity
 67
     1
  8
7_ALL_FEATURES
  6
Continuous
 62
     7
100
AcDbLine
 10
4350.0331139844
 20
433.71741239
 30
0.0
 11
4351.9742686953
 21
433.71741239
 31
0.0
  0
LINE
  5
3A1
330
1B
100
AcDbEntity
 67
     1
  8
7_ALL_FEATURES
  6
Continuous
 62
     7
100
AcDbLine
 10
4350.0331139844
 20
425.71741239
 30
0.0
 11
4351.9742686953
 21
425.71741239
 31
0.0
  0
LINE
  5
3A2
330
1B
100
AcDbEntity
 67
     1
  8
7_ALL_FEATURES
  6
Continuous
 62
     7
100
AcDbLine
 10
4351.9742686953
 20
425.71741239
 30
0.0
 11
4352.0331139844
 21
425.71741239
 31
0.0
  0
LINE
  5
3A3
330
1B
100
AcDbEntity
 67
     1
  8
7_ALL_FEATURES
  6
Continuous
 62
     7
100
AcDbLine
 10
4339.5331139844
 20
432.71741239
 30
0.0
 11
4339.5331139844
 21
430.325728521
 31
0.0
  0
LINE
  5
3A4
330
1B
100
AcDbEntity
 67
     1
  8
7_ALL_FEATURES
  6
Continuous
 62
     7
100
AcDbLine
 10
4339.5331139844
 20
429.1090962591
 30
0.0
 11
4339.5331139844
 21
426.71741239
 31
0.0
  0
ARC
  5
3A5
330
1B
100
AcDbEntity
 67
     1
  8
7_ALL_FEATURES
  6
Continuous
 62
     7
100
AcDbCircle
 10
4340.5331139844
 20
426.71741239
 30
0.0
 40
1.0
100
AcDbArc
 50
180.0
 51
270.0
  0
LINE
  5
3A6
330
1B
100
AcDbEntity
 67
     1
  8
7_ALL_FEATURES
  6
Continuous
 62
     7
100
AcDbLine
 10
4340.5331139844
 20
425.71741239
 30
0.0
 11
4350.0331139844
 21
425.71741239
 31
0.0
  0
LINE
  5
3A7
330
1B
100
AcDbEntity
 67
     1
  8
7_ALL_FEATURES
  6
Continuous
 62
     7
100
AcDbLine
 10
4350.0331139844
 20
433.71741239
 30
0.0
 11
4340.5331139844
 21
433.71741239
 31
0.0
  0
ARC
  5
3A8
330
1B
100
AcDbEntity
 67
     1
  8
7_ALL_FEATURES
  6
Continuous
 62
     7
100
AcDbCircle
 10
4340.5331139844
 20
432.71741239
 30
0.0
 40
1.0
100
AcDbArc
 50
90.0
 51
180.0
  0
LINE
  5
3A9
330
1B
100
AcDbEntity
 67
     1
  8
02___PRT_ALL_AXES
  6
Continuous
 62
     7
100
AcDbLine
 10
4346.3450195198
 20
427.46741239
 30
0.0
 11
4346.7831139844
 21
427.46741239
 31
0.0
  0
LINE
  5
3AA
330
1B
100
AcDbEntity
 67
     1
  8
02___PRT_ALL_AXES
  6
Continuous
 62
     7
100
AcDbLine
 10
4346.7831139844
 20
431.96741239
 30
0.0
 11
4346.3450195198
 21
431.96741239
 31
0.0
  0
ARC
  5
3AB
330
1B
100
AcDbEntity
 67
     1
  8
02___PRT_ALL_AXES
  6
Continuous
 62
     7
100
AcDbCircle
 10
4346.7831139844
 20
429.71741239
 30
0.0
 40
2.25
100
AcDbArc
 50
270.0
 51
90.0
  0
LINE
  5
3AC
330
1B
100
AcDbEntity
 67
     1
  8
7_ALL_FEATURES
  6
Continuous
 62
     9
100
AcDbLine
 10
4350.0331139844
 20
460.71741239
 30
0.0
 11
4350.0331139844
 21
468.71741239
 31
0.0
  0
LINE
  5
3AD
330
1B
100
AcDbEntity
 67
     1
  8
7_ALL_FEATURES
  6
Continuous
 62
     9
100
AcDbLine
 10
4350.0331139844
 20
425.71741239
 30
0.0
 11
4350.0331139844
 21
433.71741239
 31
0.0
  0
LINE
  5
3AE
330
1B
100
AcDbEntity
 67
     1
  8
7_ALL_FEATURES
  6
Continuous
 62
     9
100
AcDbLine
 10
4352.0331139844
 20
505.71741239
 30
0.0
 11
4351.0331139844
 21
505.71741239
 31
0.0
  0
LINE
  5
3AF
330
1B
100
AcDbEntity
 67
     1
  8
7_ALL_FEATURES
  6
Continuous
 62
     9
100
AcDbLine
 10
4352.0331139844
 20
417.71741239
 30
0.0
 11
4351.0331139844
 21
417.71741239
 31
0.0
  0
LINE
  5
3B0
330
1B
100
AcDbEntity
 67
     1
  8
7_ALL_FEATURES
  6
Continuous
 62
     7
100
AcDbLine
 10
2339.5331139844
 20
418.41741239
 30
0.0
 11
2375.2831139844
 21
418.41741239
 31
0.0
  0
LINE
  5
3B1
330
1B
100
AcDbEntity
 67
     1
  8
7_ALL_FEATURES
  6
Continuous
 62
     7
100
AcDbLine
 10
2425.2831139844
 20
418.41741239
 30
0.0
 11
3005.2831139844
 21
418.41741239
 31
0.0
  0
LINE
  5
3B2
330
1B
100
AcDbEntity
 67
     1
  8
7_ALL_FEATURES
  6
Continuous
 62
     7
100
AcDbLine
 10
3055.2831139844
 20
418.41741239
 30
0.0
 11
3635.2831139844
 21
418.41741239
 31
0.0
  0
LINE
  5
3B3
330
1B
100
AcDbEntity
 67
     1
  8
7_ALL_FEATURES
  6
Continuous
 62
     7
100
AcDbLine
 10
3685.2831139844
 20
418.41741239
 30
0.0
 11
4265.2831139844
 21
418.41741239
 31
0.0
  0
LINE
  5
3B4
330
1B
100
AcDbEntity
 67
     1
  8
7_ALL_FEATURES
  6
Continuous
 62
     7
100
AcDbLine
 10
4315.2831139844
 20
418.41741239
 30
0.0
 11
4351.0331139844
 21
418.41741239
 31
0.0
  0
LINE
  5
3B5
330
1B
100
AcDbEntity
 67
     1
  8
7_ALL_FEATURES
  6
Continuous
 62
     7
100
AcDbLine
 10
4348.5331139844
 20
459.71741239
 30
0.0
 11
4348.5331139844
 21
460.71741239
 31
0.0
  0
LINE
  5
3B6
330
1B
100
AcDbEntity
 67
     1
  8
7_ALL_FEATURES
  6
Continuous
 62
     7
100
AcDbLine
 10
4348.5331139844
 20
463.3032476283
 30
0.0
 11
4348.5331139844
 21
466.1315771518
 31
0.0
  0
LINE
  5
3B7
330
1B
100
AcDbEntity
 67
     1
  8
7_ALL_FEATURES
  6
Continuous
 62
     7
100
AcDbLine
 10
4348.5331139844
 20
468.71741239
 30
0.0
 11
4348.5331139844
 21
469.71741239
 31
0.0
  0
LINE
  5
3B8
330
1B
100
AcDbEntity
 67
     1
  8
7_ALL_FEATURES
  6
Continuous
 62
     7
100
AcDbLine
 10
4351.0331139844
 20
469.71741239
 30
0.0
 11
4348.5331139844
 21
469.71741239
 31
0.0
  0
LINE
  5
3B9
330
1B
100
AcDbEntity
 67
     1
  8
7_ALL_FEATURES
  6
Continuous
 62
     7
100
AcDbLine
 10
4351.0331139844
 20
469.71741239
 30
0.0
 11
4351.0331139844
 21
505.71741239
 31
0.0
  0
LINE
  5
3BA
330
1B
100
AcDbEntity
 67
     1
  8
7_ALL_FEATURES
  6
Continuous
 62
     7
100
AcDbLine
 10
4351.0331139844
 20
505.71741239
 30
0.0
 11
4351.0331139844
 21
506.21741239
 31
0.0
  0
LINE
  5
3BB
330
1B
100
AcDbEntity
 67
     1
  8
7_ALL_FEATURES
  6
Continuous
 62
     7
100
AcDbLine
 10
4351.0331139844
 20
506.21741239
 30
0.0
 11
2339.5331139844
 21
506.21741239
 31
0.0
  0
LINE
  5
3BC
330
1B
100
AcDbEntity
 67
     1
  8
7_ALL_FEATURES
  6
Continuous
 62
     7
100
AcDbLine
 10
2339.5331139844
 20
506.21741239
 30
0.0
 11
2339.5331139844
 21
505.71741239
 31
0.0
  0
LINE
  5
3BD
330
1B
100
AcDbEntity
 67
     1
  8
7_ALL_FEATURES
  6
Continuous
 62
     7
100
AcDbLine
 10
2339.5331139844
 20
505.71741239
 30
0.0
 11
2339.5331139844
 21
469.91741239
 31
0.0
  0
LINE
  5
3BE
330
1B
100
AcDbEntity
 67
     1
  8
7_ALL_FEATURES
  6
Continuous
 62
     7
100
AcDbLine
 10
2339.5331139844
 20
469.91741239
 30
0.0
 11
2339.5331139844
 21
469.71741239
 31
0.0
  0
LINE
  5
3BF
330
1B
100
AcDbEntity
 67
     1
  8
7_ALL_FEATURES
  6
Continuous
 62
     7
100
AcDbLine
 10
2339.5331139844
 20
469.71741239
 30
0.0
 11
2342.0331139844
 21
469.71741239
 31
0.0
  0
LINE
  5
3C0
330
1B
100
AcDbEntity
 67
     1
  8
7_ALL_FEATURES
  6
Continuous
 62
     7
100
AcDbLine
 10
2342.0331139844
 20
469.71741239
 30
0.0
 11
2342.0331139844
 21
468.71741239
 31
0.0
  0
LINE
  5
3C1
330
1B
100
AcDbEntity
 67
     1
  8
7_ALL_FEATURES
  6
Continuous
 62
     7
100
AcDbLine
 10
2342.0331139844
 20
466.1315771518
 30
0.0
 11
2342.0331139844
 21
463.3032476283
 31
0.0
  0
LINE
  5
3C2
330
1B
100
AcDbEntity
 67
     1
  8
7_ALL_FEATURES
  6
Continuous
 62
     7
100
AcDbLine
 10
2342.0331139844
 20
460.71741239
 30
0.0
 11
2342.0331139844
 21
459.71741239
 31
0.0
  0
LINE
  5
3C3
330
1B
100
AcDbEntity
 67
     1
  8
7_ALL_FEATURES
  6
Continuous
 62
     7
100
AcDbLine
 10
2339.5331139844
 20
459.71741239
 30
0.0
 11
2342.0331139844
 21
459.71741239
 31
0.0
  0
LINE
  5
3C4
330
1B
100
AcDbEntity
 67
     1
  8
7_ALL_FEATURES
  6
Continuous
 62
     7
100
AcDbLine
 10
2339.5331139844
 20
459.71741239
 30
0.0
 11
2339.5331139844
 21
459.51741239
 31
0.0
  0
LINE
  5
3C5
330
1B
100
AcDbEntity
 67
     1
  8
7_ALL_FEATURES
  6
Continuous
 62
     7
100
AcDbLine
 10
2339.5331139844
 20
459.51741239
 30
0.0
 11
2339.5331139844
 21
434.91741239
 31
0.0
  0
LINE
  5
3C6
330
1B
100
AcDbEntity
 67
     1
  8
7_ALL_FEATURES
  6
Continuous
 62
     7
100
AcDbLine
 10
2339.5331139844
 20
434.91741239
 30
0.0
 11
2339.5331139844
 21
434.71741239
 31
0.0
  0
LINE
  5
3C7
330
1B
100
AcDbEntity
 67
     1
  8
7_ALL_FEATURES
  6
Continuous
 62
     7
100
AcDbLine
 10
2339.5331139844
 20
434.71741239
 30
0.0
 11
2342.0331139844
 21
434.71741239
 31
0.0
  0
LINE
  5
3C8
330
1B
100
AcDbEntity
 67
     1
  8
7_ALL_FEATURES
  6
Continuous
 62
     7
100
AcDbLine
 10
2342.0331139844
 20
424.71741239
 30
0.0
 11
2342.0331139844
 21
425.71741239
 31
0.0
  0
LINE
  5
3C9
330
1B
100
AcDbEntity
 67
     1
  8
7_ALL_FEATURES
  6
Continuous
 62
     7
100
AcDbLine
 10
2342.0331139844
 20
428.3032476283
 30
0.0
 11
2342.0331139844
 21
431.1315771518
 31
0.0
  0
LINE
  5
3CA
330
1B
100
AcDbEntity
 67
     1
  8
7_ALL_FEATURES
  6
Continuous
 62
     7
100
AcDbLine
 10
2342.0331139844
 20
433.71741239
 30
0.0
 11
2342.0331139844
 21
434.71741239
 31
0.0
  0
LINE
  5
3CB
330
1B
100
AcDbEntity
 67
     1
  8
7_ALL_FEATURES
  6
Continuous
 62
     7
100
AcDbLine
 10
2339.5331139844
 20
424.71741239
 30
0.0
 11
2342.0331139844
 21
424.71741239
 31
0.0
  0
LINE
  5
3CC
330
1B
100
AcDbEntity
 67
     1
  8
7_ALL_FEATURES
  6
Continuous
 62
     7
100
AcDbLine
 10
2339.5331139844
 20
424.71741239
 30
0.0
 11
2339.5331139844
 21
424.51741239
 31
0.0
  0
LINE
  5
3CD
330
1B
100
AcDbEntity
 67
     1
  8
7_ALL_FEATURES
  6
Continuous
 62
     7
100
AcDbLine
 10
2339.5331139844
 20
424.51741239
 30
0.0
 11
2339.5331139844
 21
420.81741239
 31
0.0
  0
LINE
  5
3CE
330
1B
100
AcDbEntity
 67
     1
  8
7_ALL_FEATURES
  6
Continuous
 62
     7
100
AcDbLine
 10
4351.0331139844
 20
420.81741239
 30
0.0
 11
4351.0331139844
 21
424.51741239
 31
0.0
  0
LINE
  5
3CF
330
1B
100
AcDbEntity
 67
     1
  8
7_ALL_FEATURES
  6
Continuous
 62
     7
100
AcDbLine
 10
4351.0331139844
 20
424.51741239
 30
0.0
 11
4351.0331139844
 21
424.71741239
 31
0.0
  0
LINE
  5
3D0
330
1B
100
AcDbEntity
 67
     1
  8
7_ALL_FEATURES
  6
Continuous
 62
     7
100
AcDbLine
 10
4351.0331139844
 20
424.71741239
 30
0.0
 11
4348.5331139844
 21
424.71741239
 31
0.0
  0
LINE
  5
3D1
330
1B
100
AcDbEntity
 67
     1
  8
7_ALL_FEATURES
  6
Continuous
 62
     7
100
AcDbLine
 10
4348.5331139844
 20
424.71741239
 30
0.0
 11
4348.5331139844
 21
425.71741239
 31
0.0
  0
LINE
  5
3D2
330
1B
100
AcDbEntity
 67
     1
  8
7_ALL_FEATURES
  6
Continuous
 62
     7
100
AcDbLine
 10
4348.5331139844
 20
428.3032476283
 30
0.0
 11
4348.5331139844
 21
431.1315771518
 31
0.0
  0
LINE
  5
3D3
330
1B
100
AcDbEntity
 67
     1
  8
7_ALL_FEATURES
  6
Continuous
 62
     7
100
AcDbLine
 10
4348.5331139844
 20
433.71741239
 30
0.0
 11
4348.5331139844
 21
434.71741239
 31
0.0
  0
LINE
  5
3D4
330
1B
100
AcDbEntity
 67
     1
  8
7_ALL_FEATURES
  6
Continuous
 62
     7
100
AcDbLine
 10
4351.0331139844
 20
434.71741239
 30
0.0
 11
4348.5331139844
 21
434.71741239
 31
0.0
  0
LINE
  5
3D5
330
1B
100
AcDbEntity
 67
     1
  8
7_ALL_FEATURES
  6
Continuous
 62
     7
100
AcDbLine
 10
4351.0331139844
 20
434.71741239
 30
0.0
 11
4351.0331139844
 21
434.91741239
 31
0.0
  0
LINE
  5
3D6
330
1B
100
AcDbEntity
 67
     1
  8
7_ALL_FEATURES
  6
Continuous
 62
     7
100
AcDbLine
 10
4351.0331139844
 20
434.91741239
 30
0.0
 11
4351.0331139844
 21
459.71741239
 31
0.0
  0
LINE
  5
3D7
330
1B
100
AcDbEntity
 67
     1
  8
7_ALL_FEATURES
  6
Continuous
 62
     7
100
AcDbLine
 10
4351.0331139844
 20
459.71741239
 30
0.0
 11
4348.5331139844
 21
459.71741239
 31
0.0
  0
ARC
  5
3D8
330
1B
100
AcDbEntity
 67
     1
  8
02___PRT_ALL_AXES
  6
Continuous
 62
     7
100
AcDbCircle
 10
3045.2831139844
 20
445.8858671714
 30
0.0
 40
10.0
100
AcDbArc
 50
182.0
 51
358.0
  0
LINE
  5
3D9
330
1B
100
AcDbEntity
 67
     1
  8
02___PRT_ALL_AXES
  6
Continuous
 62
     7
100
AcDbLine
 10
3035.2892057142
 20
445.5368722043
 30
0.0
 11
3035.7889011277
 21
445.5543219527
 31
0.0
  0
ARC
  5
3DA
330
1B
100
AcDbEntity
 67
     1
  8
02___PRT_ALL_AXES
  6
Continuous
 62
     7
100
AcDbCircle
 10
3045.2831139844
 20
445.8858671714
 30
0.0
 40
9.5
100
AcDbArc
 50
182.0
 51
358.0
  0
LINE
  5
3DB
330
1B
100
AcDbEntity
 67
     1
  8
02___PRT_ALL_AXES
  6
Continuous
 62
     7
100
AcDbLine
 10
3054.7773268411
 20
445.5543219527
 30
0.0
 11
3055.2770222546
 21
445.5368722043
 31
0.0
  0
LINE
  5
3DC
330
1B
100
AcDbEntity
 67
     1
  8
02___PRT_ALL_AXES
  6
Continuous
 62
     7
100
AcDbLine
 10
3035.7889011277
 20
446.21741239
 30
0.0
 11
3035.2892057142
 21
446.2348621384
 31
0.0
  0
ARC
  5
3DD
330
1B
100
AcDbEntity
 67
     1
  8
02___PRT_ALL_AXES
  6
Continuous
 62
     7
100
AcDbCircle
 10
3045.2831139844
 20
445.8858671714
 30
0.0
 40
10.0
100
AcDbArc
 50
2.0
 51
178.0
  0
LINE
  5
3DE
330
1B
100
AcDbEntity
 67
     1
  8
02___PRT_ALL_AXES
  6
Continuous
 62
     7
100
AcDbLine
 10
3055.2770222546
 20
446.2348621384
 30
0.0
 11
3054.7773268411
 21
446.21741239
 31
0.0
  0
ARC
  5
3DF
330
1B
100
AcDbEntity
 67
     1
  8
02___PRT_ALL_AXES
  6
Continuous
 62
     7
100
AcDbCircle
 10
3045.2831139844
 20
445.8858671714
 30
0.0
 40
9.5
100
AcDbArc
 50
2.0
 51
178.0
  0
LINE
  5
3E0
330
1B
100
AcDbEntity
 67
     1
  8
02___PRT_ALL_AXES
  6
Continuous
 62
     7
100
AcDbLine
 10
3654.7773268411
 20
445.5543219527
 30
0.0
 11
3655.2770222546
 21
445.5368722043
 31
0.0
  0
ARC
  5
3E1
330
1B
100
AcDbEntity
 67
     1
  8
02___PRT_ALL_AXES
  6
Continuous
 62
     7
100
AcDbCircle
 10
3645.2831139844
 20
445.8858671714
 30
0.0
 40
10.0
100
AcDbArc
 50
182.0
 51
358.0
  0
LINE
  5
3E2
330
1B
100
AcDbEntity
 67
     1
  8
02___PRT_ALL_AXES
  6
Continuous
 62
     7
100
AcDbLine
 10
3635.2892057142
 20
445.5368722043
 30
0.0
 11
3635.7889011277
 21
445.5543219527
 31
0.0
  0
ARC
  5
3E3
330
1B
100
AcDbEntity
 67
     1
  8
02___PRT_ALL_AXES
  6
Continuous
 62
     7
100
AcDbCircle
 10
3645.2831139844
 20
445.8858671714
 30
0.0
 40
9.5
100
AcDbArc
 50
182.0
 51
358.0
  0
ARC
  5
3E4
330
1B
100
AcDbEntity
 67
     1
  8
02___PRT_ALL_AXES
  6
Continuous
 62
     7
100
AcDbCircle
 10
3645.2831139844
 20
445.8858671714
 30
0.0
 40
10.0
100
AcDbArc
 50
2.0
 51
178.0
  0
LINE
  5
3E5
330
1B
100
AcDbEntity
 67
     1
  8
02___PRT_ALL_AXES
  6
Continuous
 62
     7
100
AcDbLine
 10
3655.2770222546
 20
446.2348621384
 30
0.0
 11
3654.7773268411
 21
446.21741239
 31
0.0
  0
ARC
  5
3E6
330
1B
100
AcDbEntity
 67
     1
  8
02___PRT_ALL_AXES
  6
Continuous
 62
     7
100
AcDbCircle
 10
3645.2831139844
 20
445.8858671714
 30
0.0
 40
9.5
100
AcDbArc
 50
2.0
 51
178.0
  0
LINE
  5
3E7
330
1B
100
AcDbEntity
 67
     1
  8
02___PRT_ALL_AXES
  6
Continuous
 62
     7
100
AcDbLine
 10
3635.7889011277
 20
446.21741239
 30
0.0
 11
3635.2892057142
 21
446.2348621384
 31
0.0
  0
LINE
  5
3E8
330
1B
100
AcDbEntity
 67
     1
  8
02___PRT_ALL_AXES
  6
Continuous
 62
     7
100
AcDbLine
 10
2579.7773268411
 20
445.5543219527
 30
0.0
 11
2580.2770222546
 21
445.5368722043
 31
0.0
  0
ARC
  5
3E9
330
1B
100
AcDbEntity
 67
     1
  8
02___PRT_ALL_AXES
  6
Continuous
 62
     7
100
AcDbCircle
 10
2570.2831139844
 20
445.8858671714
 30
0.0
 40
10.0
100
AcDbArc
 50
182.0
 51
358.0
  0
LINE
  5
3EA
330
1B
100
AcDbEntity
 67
     1
  8
02___PRT_ALL_AXES
  6
Continuous
 62
     7
100
AcDbLine
 10
2560.2892057142
 20
445.5368722043
 30
0.0
 11
2560.7889011277
 21
445.5543219527
 31
0.0
  0
ARC
  5
3EB
330
1B
100
AcDbEntity
 67
     1
  8
02___PRT_ALL_AXES
  6
Continuous
 62
     7
100
AcDbCircle
 10
2570.2831139844
 20
445.8858671714
 30
0.0
 40
9.5
100
AcDbArc
 50
182.0
 51
358.0
  0
ARC
  5
3EC
330
1B
100
AcDbEntity
 67
     1
  8
02___PRT_ALL_AXES
  6
Continuous
 62
     7
100
AcDbCircle
 10
2570.2831139844
 20
445.8858671714
 30
0.0
 40
10.0
100
AcDbArc
 50
2.0
 51
178.0
  0
LINE
  5
3ED
330
1B
100
AcDbEntity
 67
     1
  8
02___PRT_ALL_AXES
  6
Continuous
 62
     7
100
AcDbLine
 10
2580.2770222546
 20
446.2348621384
 30
0.0
 11
2579.7773268411
 21
446.21741239
 31
0.0
  0
ARC
  5
3EE
330
1B
100
AcDbEntity
 67
     1
  8
02___PRT_ALL_AXES
  6
Continuous
 62
     7
100
AcDbCircle
 10
2570.2831139844
 20
445.8858671714
 30
0.0
 40
9.5
100
AcDbArc
 50
2.0
 51
178.0
  0
LINE
  5
3EF
330
1B
100
AcDbEntity
 67
     1
  8
02___PRT_ALL_AXES
  6
Continuous
 62
     7
100
AcDbLine
 10
2560.7889011277
 20
446.21741239
 30
0.0
 11
2560.2892057142
 21
446.2348621384
 31
0.0
  0
ARC
  5
3F0
330
1B
100
AcDbEntity
 67
     1
  8
02___PRT_ALL_AXES
  6
Continuous
 62
     7
100
AcDbCircle
 10
4120.2831139844
 20
445.8858671714
 30
0.0
 40
10.0
100
AcDbArc
 50
182.0
 51
358.0
  0
LINE
  5
3F1
330
1B
100
AcDbEntity
 67
     1
  8
02___PRT_ALL_AXES
  6
Continuous
 62
     7
100
AcDbLine
 10
4110.2892057142
 20
445.5368722043
 30
0.0
 11
4110.7889011277
 21
445.5543219527
 31
0.0
  0
ARC
  5
3F2
330
1B
100
AcDbEntity
 67
     1
  8
02___PRT_ALL_AXES
  6
Continuous
 62
     7
100
AcDbCircle
 10
4120.2831139844
 20
445.8858671714
 30
0.0
 40
9.5
100
AcDbArc
 50
182.0
 51
358.0
  0
LINE
  5
3F3
330
1B
100
AcDbEntity
 67
     1
  8
02___PRT_ALL_AXES
  6
Continuous
 62
     7
100
AcDbLine
 10
4129.7773268411
 20
445.5543219527
 30
0.0
 11
4130.2770222546
 21
445.5368722043
 31
0.0
  0
LINE
  5
3F4
330
1B
100
AcDbEntity
 67
     1
  8
02___PRT_ALL_AXES
  6
Continuous
 62
     7
100
AcDbLine
 10
4110.7889011277
 20
446.21741239
 30
0.0
 11
4110.2892057142
 21
446.2348621384
 31
0.0
  0
ARC
  5
3F5
330
1B
100
AcDbEntity
 67
     1
  8
02___PRT_ALL_AXES
  6
Continuous
 62
     7
100
AcDbCircle
 10
4120.2831139844
 20
445.8858671714
 30
0.0
 40
10.0
100
AcDbArc
 50
2.0
 51
178.0
  0
LINE
  5
3F6
330
1B
100
AcDbEntity
 67
     1
  8
02___PRT_ALL_AXES
  6
Continuous
 62
     7
100
AcDbLine
 10
4130.2770222546
 20
446.2348621384
 30
0.0
 11
4129.7773268411
 21
446.21741239
 31
0.0
  0
ARC
  5
3F7
330
1B
100
AcDbEntity
 67
     1
  8
02___PRT_ALL_AXES
  6
Continuous
 62
     7
100
AcDbCircle
 10
4120.2831139844
 20
445.8858671714
 30
0.0
 40
9.5
100
AcDbArc
 50
2.0
 51
178.0
  0
LINE
  5
3F8
330
1B
100
AcDbEntity
 67
     1
  8
7_ALL_FEATURES
  6
Continuous
 62
     9
100
AcDbLine
 10
2339.5331139844
 20
420.81741239
 30
0.0
 11
4351.0331139844
 21
420.81741239
 31
0.0
  0
LINE
  5
3F9
330
1B
100
AcDbEntity
 67
     1
  8
7_ALL_FEATURES
  6
Continuous
 62
     3
100
AcDbLine
 10
4305.2831139844
 20
418.41741239
 30
0.0
 11
4310.0331139844
 21
418.41741239
 31
0.0
  0
LINE
  5
3FA
330
1B
100
AcDbEntity
 67
     1
  8
7_ALL_FEATURES
  6
Continuous
 62
     3
100
AcDbLine
 10
4310.0331139844
 20
418.41741239
 30
0.0
 11
4315.2831139844
 21
418.41741239
 31
0.0
  0
LINE
  5
3FB
330
1B
100
AcDbEntity
 67
     1
  8
7_ALL_FEATURES
  6
Continuous
 62
     3
100
AcDbLine
 10
4275.2831139844
 20
418.41741239
 30
0.0
 11
4305.2831139844
 21
418.41741239
 31
0.0
  0
LINE
  5
3FC
330
1B
100
AcDbEntity
 67
     1
  8
7_ALL_FEATURES
  6
Continuous
 62
     3
100
AcDbLine
 10
4265.2831139844
 20
418.41741239
 30
0.0
 11
4270.5331139844
 21
418.41741239
 31
0.0
  0
LINE
  5
3FD
330
1B
100
AcDbEntity
 67
     1
  8
7_ALL_FEATURES
  6
Continuous
 62
     3
100
AcDbLine
 10
4270.5331139844
 20
418.41741239
 30
0.0
 11
4275.2831139844
 21
418.41741239
 31
0.0
  0
LINE
  5
3FE
330
1B
100
AcDbEntity
 67
     1
  8
7_ALL_FEATURES
  6
Continuous
 62
     3
100
AcDbLine
 10
2415.2831139844
 20
418.41741239
 30
0.0
 11
2420.0331139844
 21
418.41741239
 31
0.0
  0
LINE
  5
3FF
330
1B
100
AcDbEntity
 67
     1
  8
7_ALL_FEATURES
  6
Continuous
 62
     3
100
AcDbLine
 10
2420.0331139844
 20
418.41741239
 30
0.0
 11
2425.2831139844
 21
418.41741239
 31
0.0
  0
LINE
  5
400
330
1B
100
AcDbEntity
 67
     1
  8
7_ALL_FEATURES
  6
Continuous
 62
     3
100
AcDbLine
 10
2385.2831139844
 20
418.41741239
 30
0.0
 11
2415.2831139844
 21
418.41741239
 31
0.0
  0
LINE
  5
401
330
1B
100
AcDbEntity
 67
     1
  8
7_ALL_FEATURES
  6
Continuous
 62
     3
100
AcDbLine
 10
2375.2831139844
 20
418.41741239
 30
0.0
 11
2380.5331139844
 21
418.41741239
 31
0.0
  0
LINE
  5
402
330
1B
100
AcDbEntity
 67
     1
  8
7_ALL_FEATURES
  6
Continuous
 62
     3
100
AcDbLine
 10
2380.5331139844
 20
418.41741239
 30
0.0
 11
2385.2831139844
 21
418.41741239
 31
0.0
  0
LINE
  5
403
330
1B
100
AcDbEntity
 67
     1
  8
7_ALL_FEATURES
  6
Continuous
 62
     3
100
AcDbLine
 10
3045.2831139844
 20
418.41741239
 30
0.0
 11
3050.0331139844
 21
418.41741239
 31
0.0
  0
LINE
  5
404
330
1B
100
AcDbEntity
 67
     1
  8
7_ALL_FEATURES
  6
Continuous
 62
     3
100
AcDbLine
 10
3050.0331139844
 20
418.41741239
 30
0.0
 11
3055.2831139844
 21
418.41741239
 31
0.0
  0
LINE
  5
405
330
1B
100
AcDbEntity
 67
     1
  8
7_ALL_FEATURES
  6
Continuous
 62
     3
100
AcDbLine
 10
3015.2831139844
 20
418.41741239
 30
0.0
 11
3045.2831139844
 21
418.41741239
 31
0.0
  0
LINE
  5
406
330
1B
100
AcDbEntity
 67
     1
  8
7_ALL_FEATURES
  6
Continuous
 62
     3
100
AcDbLine
 10
3005.2831139844
 20
418.41741239
 30
0.0
 11
3010.5331139844
 21
418.41741239
 31
0.0
  0
LINE
  5
407
330
1B
100
AcDbEntity
 67
     1
  8
7_ALL_FEATURES
  6
Continuous
 62
     3
100
AcDbLine
 10
3010.5331139844
 20
418.41741239
 30
0.0
 11
3015.2831139844
 21
418.41741239
 31
0.0
  0
LINE
  5
408
330
1B
100
AcDbEntity
 67
     1
  8
7_ALL_FEATURES
  6
Continuous
 62
     3
100
AcDbLine
 10
3675.2831139844
 20
418.41741239
 30
0.0
 11
3680.0331139844
 21
418.41741239
 31
0.0
  0
LINE
  5
409
330
1B
100
AcDbEntity
 67
     1
  8
7_ALL_FEATURES
  6
Continuous
 62
     3
100
AcDbLine
 10
3680.0331139844
 20
418.41741239
 30
0.0
 11
3685.2831139844
 21
418.41741239
 31
0.0
  0
LINE
  5
40A
330
1B
100
AcDbEntity
 67
     1
  8
7_ALL_FEATURES
  6
Continuous
 62
     3
100
AcDbLine
 10
3645.2831139844
 20
418.41741239
 30
0.0
 11
3675.2831139844
 21
418.41741239
 31
0.0
  0
LINE
  5
40B
330
1B
100
AcDbEntity
 67
     1
  8
7_ALL_FEATURES
  6
Continuous
 62
     3
100
AcDbLine
 10
3635.2831139844
 20
418.41741239
 30
0.0
 11
3640.5331139844
 21
418.41741239
 31
0.0
  0
LINE
  5
40C
330
1B
100
AcDbEntity
 67
     1
  8
7_ALL_FEATURES
  6
Continuous
 62
     3
100
AcDbLine
 10
3640.5331139844
 20
418.41741239
 30
0.0
 11
3645.2831139844
 21
418.41741239
 31
0.0
  0
LINE
  5
40D
330
1B
100
AcDbEntity
 67
     1
  8
7_ALL_FEATURES
  6
Continuous
 62
     3
100
AcDbLine
 10
2339.5331139844
 20
417.71741239
 30
0.0
 11
2339.5331139844
 21
417.21741239
 31
0.0
  0
LINE
  5
40E
330
1B
100
AcDbEntity
 67
     1
  8
7_ALL_FEATURES
  6
Continuous
 62
     3
100
AcDbLine
 10
2339.5331139844
 20
424.51741239
 30
0.0
 11
2339.5331139844
 21
420.81741239
 31
0.0
  0
LINE
  5
40F
330
1B
100
AcDbEntity
 67
     1
  8
7_ALL_FEATURES
  6
Continuous
 62
     3
100
AcDbLine
 10
2339.5331139844
 20
420.81741239
 30
0.0
 11
2339.5331139844
 21
418.41741239
 31
0.0
  0
LINE
  5
410
330
1B
100
AcDbEntity
 67
     1
  8
7_ALL_FEATURES
  6
Continuous
 62
     3
100
AcDbLine
 10
2339.5331139844
 20
418.41741239
 30
0.0
 11
2339.5331139844
 21
417.71741239
 31
0.0
  0
LINE
  5
411
330
1B
100
AcDbEntity
 67
     1
  8
7_ALL_FEATURES
  6
Continuous
 62
     3
100
AcDbLine
 10
2339.5331139844
 20
425.71741239
 30
0.0
 11
2339.5331139844
 21
424.71741239
 31
0.0
  0
LINE
  5
412
330
1B
100
AcDbEntity
 67
     1
  8
7_ALL_FEATURES
  6
Continuous
 62
     3
100
AcDbLine
 10
2339.5331139844
 20
433.71741239
 30
0.0
 11
2339.5331139844
 21
434.71741239
 31
0.0
  0
LINE
  5
413
330
1B
100
AcDbEntity
 67
     1
  8
7_ALL_FEATURES
  6
Continuous
 62
     3
100
AcDbLine
 10
2339.5331139844
 20
459.51741239
 30
0.0
 11
2339.5331139844
 21
434.91741239
 31
0.0
  0
LINE
  5
414
330
1B
100
AcDbEntity
 67
     1
  8
7_ALL_FEATURES
  6
Continuous
 62
     3
100
AcDbLine
 10
2339.5331139844
 20
460.71741239
 30
0.0
 11
2339.5331139844
 21
459.71741239
 31
0.0
  0
LINE
  5
415
330
1B
100
AcDbEntity
 67
     1
  8
7_ALL_FEATURES
  6
Continuous
 62
     3
100
AcDbLine
 10
2339.5331139844
 20
468.71741239
 30
0.0
 11
2339.5331139844
 21
469.71741239
 31
0.0
  0
LINE
  5
416
330
1B
100
AcDbEntity
 67
     1
  8
7_ALL_FEATURES
  6
Continuous
 62
     3
100
AcDbLine
 10
2339.5331139844
 20
505.71741239
 30
0.0
 11
2339.5331139844
 21
469.91741239
 31
0.0
  0
LINE
  5
417
330
1B
100
AcDbEntity
 67
     1
  8
7_ALL_FEATURES
  6
Continuous
 62
     3
100
AcDbLine
 10
4351.0331139844
 20
417.21741239
 30
0.0
 11
4351.0331139844
 21
417.71741239
 31
0.0
  0
LINE
  5
418
330
1B
100
AcDbEntity
 67
     1
  8
7_ALL_FEATURES
  6
Continuous
 62
     3
100
AcDbLine
 10
4351.0331139844
 20
469.71741239
 30
0.0
 11
4351.0331139844
 21
505.71741239
 31
0.0
  0
LINE
  5
419
330
1B
100
AcDbEntity
 67
     1
  8
7_ALL_FEATURES
  6
Continuous
 62
     3
100
AcDbLine
 10
4351.0331139844
 20
468.71741239
 30
0.0
 11
4351.0331139844
 21
469.71741239
 31
0.0
  0
LINE
  5
41A
330
1B
100
AcDbEntity
 67
     1
  8
7_ALL_FEATURES
  6
Continuous
 62
     3
100
AcDbLine
 10
4351.0331139844
 20
460.71741239
 30
0.0
 11
4351.0331139844
 21
459.71741239
 31
0.0
  0
LINE
  5
41B
330
1B
100
AcDbEntity
 67
     1
  8
7_ALL_FEATURES
  6
Continuous
 62
     3
100
AcDbLine
 10
4351.0331139844
 20
434.91741239
 30
0.0
 11
4351.0331139844
 21
459.71741239
 31
0.0
  0
LINE
  5
41C
330
1B
100
AcDbEntity
 67
     1
  8
7_ALL_FEATURES
  6
Continuous
 62
     3
100
AcDbLine
 10
4351.0331139844
 20
433.71741239
 30
0.0
 11
4351.0331139844
 21
434.71741239
 31
0.0
  0
LINE
  5
41D
330
1B
100
AcDbEntity
 67
     1
  8
7_ALL_FEATURES
  6
Continuous
 62
     3
100
AcDbLine
 10
4351.0331139844
 20
425.71741239
 30
0.0
 11
4351.0331139844
 21
424.71741239
 31
0.0
  0
LINE
  5
41E
330
1B
100
AcDbEntity
 67
     1
  8
7_ALL_FEATURES
  6
Continuous
 62
     3
100
AcDbLine
 10
4351.0331139844
 20
417.71741239
 30
0.0
 11
4351.0331139844
 21
418.41741239
 31
0.0
  0
LINE
  5
41F
330
1B
100
AcDbEntity
 67
     1
  8
7_ALL_FEATURES
  6
Continuous
 62
     3
100
AcDbLine
 10
4351.0331139844
 20
418.41741239
 30
0.0
 11
4351.0331139844
 21
420.81741239
 31
0.0
  0
LINE
  5
420
330
1B
100
AcDbEntity
 67
     1
  8
7_ALL_FEATURES
  6
Continuous
 62
     3
100
AcDbLine
 10
4351.0331139844
 20
420.81741239
 30
0.0
 11
4351.0331139844
 21
424.51741239
 31
0.0
  0
LINE
  5
421
330
1B
100
AcDbEntity
 67
     1
  8
3_ALL_AXES
  6
Continuous
 62
     7
100
AcDbLine
 10
4061.9331139844
 20
180.1710282783
 30
0.0
 11
4061.9331139844
 21
180.8768984488
 31
0.0
  0
LINE
  5
422
330
1B
100
AcDbEntity
 67
     1
  8
3_ALL_AXES
  6
Continuous
 62
     7
100
AcDbLine
 10
4056.1331139844
 20
180.1710282783
 30
0.0
 11
4056.1331139844
 21
180.8768984488
 31
0.0
  0
ARC
  5
423
330
1B
100
AcDbEntity
 67
     1
  8
3_ALL_AXES
  6
Continuous
 62
     7
100
AcDbCircle
 10
4059.0331139844
 20
173.4210282783
 30
0.0
 40
8.0
100
AcDbArc
 50
68.7461908146
 51
90.0
  0
ARC
  5
424
330
1B
100
AcDbEntity
 67
     1
  8
3_ALL_AXES
  6
Continuous
 62
     7
100
AcDbCircle
 10
4059.0331139844
 20
173.4210282783
 30
0.0
 40
8.0
100
AcDbArc
 50
90.0
 51
111.2538091854
  0
LINE
  5
425
330
1B
100
AcDbEntity
 67
     1
  8
3_ALL_AXES
  6
Continuous
 62
     7
100
AcDbLine
 10
4061.9331139844
 20
180.8768984488
 30
0.0
 11
4061.9331139844
 21
180.1710282783
 31
0.0
  0
LINE
  5
426
330
1B
100
AcDbEntity
 67
     1
  8
3_ALL_AXES
  6
Continuous
 62
     7
100
AcDbLine
 10
4056.1331139844
 20
180.8768984488
 30
0.0
 11
4056.1331139844
 21
180.1710282783
 31
0.0
  0
LINE
  5
427
330
1B
100
AcDbEntity
 67
     1
  8
3_ALL_AXES
  6
Continuous
 62
     7
100
AcDbLine
 10
4061.9331139844
 20
180.8768984488
 30
0.0
 11
4056.1331139844
 21
180.8768984488
 31
0.0
  0
LINE
  5
428
330
1B
100
AcDbEntity
 67
     1
  8
3_ALL_AXES
  6
Continuous
 62
     7
100
AcDbLine
 10
3880.1831139844
 20
180.1710282783
 30
0.0
 11
3880.1831139844
 21
180.8768984488
 31
0.0
  0
LINE
  5
429
330
1B
100
AcDbEntity
 67
     1
  8
3_ALL_AXES
  6
Continuous
 62
     7
100
AcDbLine
 10
3874.3831139844
 20
180.1710282783
 30
0.0
 11
3874.3831139844
 21
180.8768984488
 31
0.0
  0
ARC
  5
42A
330
1B
100
AcDbEntity
 67
     1
  8
3_ALL_AXES
  6
Continuous
 62
     7
100
AcDbCircle
 10
3877.2831139844
 20
173.4210282783
 30
0.0
 40
8.0
100
AcDbArc
 50
68.7461908146
 51
90.0
  0
ARC
  5
42B
330
1B
100
AcDbEntity
 67
     1
  8
3_ALL_AXES
  6
Continuous
 62
     7
100
AcDbCircle
 10
3877.2831139844
 20
173.4210282783
 30
0.0
 40
8.0
100
AcDbArc
 50
90.0
 51
111.2538091854
  0
LINE
  5
42C
330
1B
100
AcDbEntity
 67
     1
  8
3_ALL_AXES
  6
Continuous
 62
     7
100
AcDbLine
 10
3880.1831139844
 20
180.8768984488
 30
0.0
 11
3880.1831139844
 21
180.1710282783
 31
0.0
  0
LINE
  5
42D
330
1B
100
AcDbEntity
 67
     1
  8
3_ALL_AXES
  6
Continuous
 62
     7
100
AcDbLine
 10
3874.3831139844
 20
180.8768984488
 30
0.0
 11
3874.3831139844
 21
180.1710282783
 31
0.0
  0
LINE
  5
42E
330
1B
100
AcDbEntity
 67
     1
  8
3_ALL_AXES
  6
Continuous
 62
     7
100
AcDbLine
 10
3880.1831139844
 20
180.8768984488
 30
0.0
 11
3874.3831139844
 21
180.8768984488
 31
0.0
  0
LINE
  5
42F
330
1B
100
AcDbEntity
 67
     1
  8
3_ALL_AXES
  6
Continuous
 62
     7
100
AcDbLine
 10
3798.1831139844
 20
180.1710282783
 30
0.0
 11
3798.1831139844
 21
180.8768984488
 31
0.0
  0
LINE
  5
430
330
1B
100
AcDbEntity
 67
     1
  8
3_ALL_AXES
  6
Continuous
 62
     7
100
AcDbLine
 10
3792.3831139844
 20
180.1710282783
 30
0.0
 11
3792.3831139844
 21
180.8768984488
 31
0.0
  0
ARC
  5
431
330
1B
100
AcDbEntity
 67
     1
  8
3_ALL_AXES
  6
Continuous
 62
     7
100
AcDbCircle
 10
3795.2831139844
 20
173.4210282783
 30
0.0
 40
8.0
100
AcDbArc
 50
68.7461908146
 51
90.0
  0
ARC
  5
432
330
1B
100
AcDbEntity
 67
     1
  8
3_ALL_AXES
  6
Continuous
 62
     7
100
AcDbCircle
 10
3795.2831139844
 20
173.4210282783
 30
0.0
 40
8.0
100
AcDbArc
 50
90.0
 51
111.2538091854
  0
LINE
  5
433
330
1B
100
AcDbEntity
 67
     1
  8
3_ALL_AXES
  6
Continuous
 62
     7
100
AcDbLine
 10
3798.1831139844
 20
180.8768984488
 30
0.0
 11
3798.1831139844
 21
180.1710282783
 31
0.0
  0
LINE
  5
434
330
1B
100
AcDbEntity
 67
     1
  8
3_ALL_AXES
  6
Continuous
 62
     7
100
AcDbLine
 10
3792.3831139844
 20
180.8768984488
 30
0.0
 11
3792.3831139844
 21
180.1710282783
 31
0.0
  0
LINE
  5
435
330
1B
100
AcDbEntity
 67
     1
  8
3_ALL_AXES
  6
Continuous
 62
     7
100
AcDbLine
 10
3798.1831139844
 20
180.8768984488
 30
0.0
 11
3792.3831139844
 21
180.8768984488
 31
0.0
  0
LINE
  5
436
330
1B
100
AcDbEntity
 67
     1
  8
3_ALL_AXES
  6
Continuous
 62
     7
100
AcDbLine
 10
3593.6831139844
 20
180.1710282783
 30
0.0
 11
3593.6831139844
 21
180.8768984488
 31
0.0
  0
LINE
  5
437
330
1B
100
AcDbEntity
 67
     1
  8
3_ALL_AXES
  6
Continuous
 62
     7
100
AcDbLine
 10
3587.8831139844
 20
180.1710282783
 30
0.0
 11
3587.8831139844
 21
180.8768984488
 31
0.0
  0
ARC
  5
438
330
1B
100
AcDbEntity
 67
     1
  8
3_ALL_AXES
  6
Continuous
 62
     7
100
AcDbCircle
 10
3590.7831139844
 20
173.4210282783
 30
0.0
 40
8.0
100
AcDbArc
 50
68.7461908146
 51
90.0
  0
ARC
  5
439
330
1B
100
AcDbEntity
 67
     1
  8
3_ALL_AXES
  6
Continuous
 62
     7
100
AcDbCircle
 10
3590.7831139844
 20
173.4210282783
 30
0.0
 40
8.0
100
AcDbArc
 50
90.0
 51
111.2538091854
  0
LINE
  5
43A
330
1B
100
AcDbEntity
 67
     1
  8
3_ALL_AXES
  6
Continuous
 62
     7
100
AcDbLine
 10
3593.6831139844
 20
180.8768984488
 30
0.0
 11
3593.6831139844
 21
180.1710282783
 31
0.0
  0
LINE
  5
43B
330
1B
100
AcDbEntity
 67
     1
  8
3_ALL_AXES
  6
Continuous
 62
     7
100
AcDbLine
 10
3587.8831139844
 20
180.8768984488
 30
0.0
 11
3587.8831139844
 21
180.1710282783
 31
0.0
  0
LINE
  5
43C
330
1B
100
AcDbEntity
 67
     1
  8
3_ALL_AXES
  6
Continuous
 62
     7
100
AcDbLine
 10
3593.6831139844
 20
180.8768984488
 30
0.0
 11
3587.8831139844
 21
180.8768984488
 31
0.0
  0
LINE
  5
43D
330
1B
100
AcDbEntity
 67
     1
  8
3_ALL_AXES
  6
Continuous
 62
     7
100
AcDbLine
 10
3389.1831139844
 20
180.1710282783
 30
0.0
 11
3389.1831139844
 21
180.8768984488
 31
0.0
  0
LINE
  5
43E
330
1B
100
AcDbEntity
 67
     1
  8
3_ALL_AXES
  6
Continuous
 62
     7
100
AcDbLine
 10
3383.3831139844
 20
180.1710282783
 30
0.0
 11
3383.3831139844
 21
180.8768984488
 31
0.0
  0
ARC
  5
43F
330
1B
100
AcDbEntity
 67
     1
  8
3_ALL_AXES
  6
Continuous
 62
     7
100
AcDbCircle
 10
3386.2831139844
 20
173.4210282783
 30
0.0
 40
8.0
100
AcDbArc
 50
68.7461908146
 51
90.0
  0
ARC
  5
440
330
1B
100
AcDbEntity
 67
     1
  8
3_ALL_AXES
  6
Continuous
 62
     7
100
AcDbCircle
 10
3386.2831139844
 20
173.4210282783
 30
0.0
 40
8.0
100
AcDbArc
 50
90.0
 51
111.2538091854
  0
LINE
  5
441
330
1B
100
AcDbEntity
 67
     1
  8
3_ALL_AXES
  6
Continuous
 62
     7
100
AcDbLine
 10
3389.1831139844
 20
180.8768984488
 30
0.0
 11
3389.1831139844
 21
180.1710282783
 31
0.0
  0
LINE
  5
442
330
1B
100
AcDbEntity
 67
     1
  8
3_ALL_AXES
  6
Continuous
 62
     7
100
AcDbLine
 10
3383.3831139844
 20
180.8768984488
 30
0.0
 11
3383.3831139844
 21
180.1710282783
 31
0.0
  0
LINE
  5
443
330
1B
100
AcDbEntity
 67
     1
  8
3_ALL_AXES
  6
Continuous
 62
     7
100
AcDbLine
 10
3389.1831139844
 20
180.8768984488
 30
0.0
 11
3383.3831139844
 21
180.8768984488
 31
0.0
  0
LINE
  5
444
330
1B
100
AcDbEntity
 67
     1
  8
3_ALL_AXES
  6
Continuous
 62
     7
100
AcDbLine
 10
3307.1831139844
 20
180.1710282783
 30
0.0
 11
3307.1831139844
 21
180.8768984488
 31
0.0
  0
LINE
  5
445
330
1B
100
AcDbEntity
 67
     1
  8
3_ALL_AXES
  6
Continuous
 62
     7
100
AcDbLine
 10
3301.3831139844
 20
180.1710282783
 30
0.0
 11
3301.3831139844
 21
180.8768984488
 31
0.0
  0
ARC
  5
446
330
1B
100
AcDbEntity
 67
     1
  8
3_ALL_AXES
  6
Continuous
 62
     7
100
AcDbCircle
 10
3304.2831139844
 20
173.4210282783
 30
0.0
 40
8.0
100
AcDbArc
 50
68.7461908146
 51
90.0
  0
ARC
  5
447
330
1B
100
AcDbEntity
 67
     1
  8
3_ALL_AXES
  6
Continuous
 62
     7
100
AcDbCircle
 10
3304.2831139844
 20
173.4210282783
 30
0.0
 40
8.0
100
AcDbArc
 50
90.0
 51
111.2538091854
  0
LINE
  5
448
330
1B
100
AcDbEntity
 67
     1
  8
3_ALL_AXES
  6
Continuous
 62
     7
100
AcDbLine
 10
3307.1831139844
 20
180.8768984488
 30
0.0
 11
3307.1831139844
 21
180.1710282783
 31
0.0
  0
LINE
  5
449
330
1B
100
AcDbEntity
 67
     1
  8
3_ALL_AXES
  6
Continuous
 62
     7
100
AcDbLine
 10
3301.3831139844
 20
180.8768984488
 30
0.0
 11
3301.3831139844
 21
180.1710282783
 31
0.0
  0
LINE
  5
44A
330
1B
100
AcDbEntity
 67
     1
  8
3_ALL_AXES
  6
Continuous
 62
     7
100
AcDbLine
 10
3307.1831139844
 20
180.8768984488
 30
0.0
 11
3301.3831139844
 21
180.8768984488
 31
0.0
  0
LINE
  5
44B
330
1B
100
AcDbEntity
 67
     1
  8
3_ALL_AXES
  6
Continuous
 62
     7
100
AcDbLine
 10
3102.6831139844
 20
180.1710282783
 30
0.0
 11
3102.6831139844
 21
180.8768984488
 31
0.0
  0
LINE
  5
44C
330
1B
100
AcDbEntity
 67
     1
  8
3_ALL_AXES
  6
Continuous
 62
     7
100
AcDbLine
 10
3096.8831139844
 20
180.1710282783
 30
0.0
 11
3096.8831139844
 21
180.8768984488
 31
0.0
  0
ARC
  5
44D
330
1B
100
AcDbEntity
 67
     1
  8
3_ALL_AXES
  6
Continuous
 62
     7
100
AcDbCircle
 10
3099.7831139844
 20
173.4210282783
 30
0.0
 40
8.0
100
AcDbArc
 50
68.7461908146
 51
90.0
  0
ARC
  5
44E
330
1B
100
AcDbEntity
 67
     1
  8
3_ALL_AXES
  6
Continuous
 62
     7
100
AcDbCircle
 10
3099.7831139844
 20
173.4210282783
 30
0.0
 40
8.0
100
AcDbArc
 50
90.0
 51
111.2538091854
  0
LINE
  5
44F
330
1B
100
AcDbEntity
 67
     1
  8
3_ALL_AXES
  6
Continuous
 62
     7
100
AcDbLine
 10
3102.6831139844
 20
180.8768984488
 30
0.0
 11
3102.6831139844
 21
180.1710282783
 31
0.0
  0
LINE
  5
450
330
1B
100
AcDbEntity
 67
     1
  8
3_ALL_AXES
  6
Continuous
 62
     7
100
AcDbLine
 10
3096.8831139844
 20
180.8768984488
 30
0.0
 11
3096.8831139844
 21
180.1710282783
 31
0.0
  0
LINE
  5
451
330
1B
100
AcDbEntity
 67
     1
  8
3_ALL_AXES
  6
Continuous
 62
     7
100
AcDbLine
 10
3102.6831139844
 20
180.8768984488
 30
0.0
 11
3096.8831139844
 21
180.8768984488
 31
0.0
  0
LINE
  5
452
330
1B
100
AcDbEntity
 67
     1
  8
3_ALL_AXES
  6
Continuous
 62
     7
100
AcDbLine
 10
2898.1831139844
 20
180.1710282783
 30
0.0
 11
2898.1831139844
 21
180.8768984488
 31
0.0
  0
LINE
  5
453
330
1B
100
AcDbEntity
 67
     1
  8
3_ALL_AXES
  6
Continuous
 62
     7
100
AcDbLine
 10
2892.3831139844
 20
180.1710282783
 30
0.0
 11
2892.3831139844
 21
180.8768984488
 31
0.0
  0
ARC
  5
454
330
1B
100
AcDbEntity
 67
     1
  8
3_ALL_AXES
  6
Continuous
 62
     7
100
AcDbCircle
 10
2895.2831139844
 20
173.4210282783
 30
0.0
 40
8.0
100
AcDbArc
 50
68.7461908146
 51
90.0
  0
ARC
  5
455
330
1B
100
AcDbEntity
 67
     1
  8
3_ALL_AXES
  6
Continuous
 62
     7
100
AcDbCircle
 10
2895.2831139844
 20
173.4210282783
 30
0.0
 40
8.0
100
AcDbArc
 50
90.0
 51
111.2538091854
  0
LINE
  5
456
330
1B
100
AcDbEntity
 67
     1
  8
3_ALL_AXES
  6
Continuous
 62
     7
100
AcDbLine
 10
2898.1831139844
 20
180.8768984488
 30
0.0
 11
2898.1831139844
 21
180.1710282783
 31
0.0
  0
LINE
  5
457
330
1B
100
AcDbEntity
 67
     1
  8
3_ALL_AXES
  6
Continuous
 62
     7
100
AcDbLine
 10
2892.3831139844
 20
180.8768984488
 30
0.0
 11
2892.3831139844
 21
180.1710282783
 31
0.0
  0
LINE
  5
458
330
1B
100
AcDbEntity
 67
     1
  8
3_ALL_AXES
  6
Continuous
 62
     7
100
AcDbLine
 10
2898.1831139844
 20
180.8768984488
 30
0.0
 11
2892.3831139844
 21
180.8768984488
 31
0.0
  0
LINE
  5
459
330
1B
100
AcDbEntity
 67
     1
  8
3_ALL_AXES
  6
Continuous
 62
     7
100
AcDbLine
 10
2816.1831139844
 20
180.1710282783
 30
0.0
 11
2816.1831139844
 21
180.8768984488
 31
0.0
  0
LINE
  5
45A
330
1B
100
AcDbEntity
 67
     1
  8
3_ALL_AXES
  6
Continuous
 62
     7
100
AcDbLine
 10
2810.3831139844
 20
180.1710282783
 30
0.0
 11
2810.3831139844
 21
180.8768984488
 31
0.0
  0
ARC
  5
45B
330
1B
100
AcDbEntity
 67
     1
  8
3_ALL_AXES
  6
Continuous
 62
     7
100
AcDbCircle
 10
2813.2831139844
 20
173.4210282783
 30
0.0
 40
8.0
100
AcDbArc
 50
68.7461908146
 51
90.0
  0
ARC
  5
45C
330
1B
100
AcDbEntity
 67
     1
  8
3_ALL_AXES
  6
Continuous
 62
     7
100
AcDbCircle
 10
2813.2831139844
 20
173.4210282783
 30
0.0
 40
8.0
100
AcDbArc
 50
90.0
 51
111.2538091854
  0
LINE
  5
45D
330
1B
100
AcDbEntity
 67
     1
  8
3_ALL_AXES
  6
Continuous
 62
     7
100
AcDbLine
 10
2816.1831139844
 20
180.8768984488
 30
0.0
 11
2816.1831139844
 21
180.1710282783
 31
0.0
  0
LINE
  5
45E
330
1B
100
AcDbEntity
 67
     1
  8
3_ALL_AXES
  6
Continuous
 62
     7
100
AcDbLine
 10
2810.3831139844
 20
180.8768984488
 30
0.0
 11
2810.3831139844
 21
180.1710282783
 31
0.0
  0
LINE
  5
45F
330
1B
100
AcDbEntity
 67
     1
  8
3_ALL_AXES
  6
Continuous
 62
     7
100
AcDbLine
 10
2816.1831139844
 20
180.8768984488
 30
0.0
 11
2810.3831139844
 21
180.8768984488
 31
0.0
  0
LINE
  5
460
330
1B
100
AcDbEntity
 67
     1
  8
3_ALL_AXES
  6
Continuous
 62
     7
100
AcDbLine
 10
2634.4331139844
 20
180.1710282783
 30
0.0
 11
2634.4331139844
 21
180.8768984488
 31
0.0
  0
LINE
  5
461
330
1B
100
AcDbEntity
 67
     1
  8
3_ALL_AXES
  6
Continuous
 62
     7
100
AcDbLine
 10
2628.6331139844
 20
180.1710282783
 30
0.0
 11
2628.6331139844
 21
180.8768984488
 31
0.0
  0
ARC
  5
462
330
1B
100
AcDbEntity
 67
     1
  8
3_ALL_AXES
  6
Continuous
 62
     7
100
AcDbCircle
 10
2631.5331139844
 20
173.4210282783
 30
0.0
 40
8.0
100
AcDbArc
 50
68.7461908146
 51
90.0
  0
ARC
  5
463
330
1B
100
AcDbEntity
 67
     1
  8
3_ALL_AXES
  6
Continuous
 62
     7
100
AcDbCircle
 10
2631.5331139844
 20
173.4210282783
 30
0.0
 40
8.0
100
AcDbArc
 50
90.0
 51
111.2538091854
  0
LINE
  5
464
330
1B
100
AcDbEntity
 67
     1
  8
3_ALL_AXES
  6
Continuous
 62
     7
100
AcDbLine
 10
2634.4331139844
 20
180.8768984488
 30
0.0
 11
2634.4331139844
 21
180.1710282783
 31
0.0
  0
LINE
  5
465
330
1B
100
AcDbEntity
 67
     1
  8
3_ALL_AXES
  6
Continuous
 62
     7
100
AcDbLine
 10
2628.6331139844
 20
180.8768984488
 30
0.0
 11
2628.6331139844
 21
180.1710282783
 31
0.0
  0
LINE
  5
466
330
1B
100
AcDbEntity
 67
     1
  8
3_ALL_AXES
  6
Continuous
 62
     7
100
AcDbLine
 10
2634.4331139844
 20
180.8768984488
 30
0.0
 11
2628.6331139844
 21
180.8768984488
 31
0.0
  0
LINE
  5
467
330
1B
100
AcDbEntity
 67
     1
  8
3_ALL_AXES
  6
Continuous
 62
     7
100
AcDbLine
 10
2452.6831139844
 20
180.1710282783
 30
0.0
 11
2452.6831139844
 21
180.8768984488
 31
0.0
  0
LINE
  5
468
330
1B
100
AcDbEntity
 67
     1
  8
3_ALL_AXES
  6
Continuous
 62
     7
100
AcDbLine
 10
2446.8831139844
 20
180.1710282783
 30
0.0
 11
2446.8831139844
 21
180.8768984488
 31
0.0
  0
ARC
  5
469
330
1B
100
AcDbEntity
 67
     1
  8
3_ALL_AXES
  6
Continuous
 62
     7
100
AcDbCircle
 10
2449.7831139844
 20
173.4210282783
 30
0.0
 40
8.0
100
AcDbArc
 50
68.7461908146
 51
90.0
  0
ARC
  5
46A
330
1B
100
AcDbEntity
 67
     1
  8
3_ALL_AXES
  6
Continuous
 62
     7
100
AcDbCircle
 10
2449.7831139844
 20
173.4210282783
 30
0.0
 40
8.0
100
AcDbArc
 50
90.0
 51
111.2538091854
  0
LINE
  5
46B
330
1B
100
AcDbEntity
 67
     1
  8
3_ALL_AXES
  6
Continuous
 62
     7
100
AcDbLine
 10
2452.6831139844
 20
180.8768984488
 30
0.0
 11
2452.6831139844
 21
180.1710282783
 31
0.0
  0
LINE
  5
46C
330
1B
100
AcDbEntity
 67
     1
  8
3_ALL_AXES
  6
Continuous
 62
     7
100
AcDbLine
 10
2446.8831139844
 20
180.8768984488
 30
0.0
 11
2446.8831139844
 21
180.1710282783
 31
0.0
  0
LINE
  5
46D
330
1B
100
AcDbEntity
 67
     1
  8
3_ALL_AXES
  6
Continuous
 62
     7
100
AcDbLine
 10
2452.6831139844
 20
180.8768984488
 30
0.0
 11
2446.8831139844
 21
180.8768984488
 31
0.0
  0
LINE
  5
46E
330
1B
100
AcDbEntity
 67
     1
  8
3_ALL_AXES
  6
Continuous
 62
     7
100
AcDbLine
 10
4243.6831139844
 20
180.1710282783
 30
0.0
 11
4243.6831139844
 21
180.8768984488
 31
0.0
  0
LINE
  5
46F
330
1B
100
AcDbEntity
 67
     1
  8
3_ALL_AXES
  6
Continuous
 62
     7
100
AcDbLine
 10
4237.8831139844
 20
180.1710282783
 30
0.0
 11
4237.8831139844
 21
180.8768984488
 31
0.0
  0
ARC
  5
470
330
1B
100
AcDbEntity
 67
     1
  8
3_ALL_AXES
  6
Continuous
 62
     7
100
AcDbCircle
 10
4240.7831139844
 20
173.4210282783
 30
0.0
 40
8.0
100
AcDbArc
 50
68.7461908146
 51
90.0
  0
ARC
  5
471
330
1B
100
AcDbEntity
 67
     1
  8
3_ALL_AXES
  6
Continuous
 62
     7
100
AcDbCircle
 10
4240.7831139844
 20
173.4210282783
 30
0.0
 40
8.0
100
AcDbArc
 50
90.0
 51
111.2538091854
  0
LINE
  5
472
330
1B
100
AcDbEntity
 67
     1
  8
3_ALL_AXES
  6
Continuous
 62
     7
100
AcDbLine
 10
4243.6831139844
 20
180.8768984488
 30
0.0
 11
4243.6831139844
 21
180.1710282783
 31
0.0
  0
LINE
  5
473
330
1B
100
AcDbEntity
 67
     1
  8
3_ALL_AXES
  6
Continuous
 62
     7
100
AcDbLine
 10
4237.8831139844
 20
180.8768984488
 30
0.0
 11
4237.8831139844
 21
180.1710282783
 31
0.0
  0
LINE
  5
474
330
1B
100
AcDbEntity
 67
     1
  8
3_ALL_AXES
  6
Continuous
 62
     7
100
AcDbLine
 10
4243.6831139844
 20
180.8768984488
 30
0.0
 11
4237.8831139844
 21
180.8768984488
 31
0.0
  0
LINE
  5
475
330
1B
100
AcDbEntity
 67
     1
  8
3_ALL_AXES
  6
Continuous
 62
     7
100
AcDbLine
 10
4237.8831139844
 20
139.7710282783
 30
0.0
 11
4237.8831139844
 21
139.0651581077
 31
0.0
  0
LINE
  5
476
330
1B
100
AcDbEntity
 67
     1
  8
3_ALL_AXES
  6
Continuous
 62
     7
100
AcDbLine
 10
4243.6831139844
 20
139.7710282783
 30
0.0
 11
4243.6831139844
 21
139.0651581077
 31
0.0
  0
ARC
  5
477
330
1B
100
AcDbEntity
 67
     1
  8
3_ALL_AXES
  6
Continuous
 62
     7
100
AcDbCircle
 10
4240.7831139844
 20
146.5210282783
 30
0.0
 40
8.0
100
AcDbArc
 50
248.7461908146
 51
270.0
  0
ARC
  5
478
330
1B
100
AcDbEntity
 67
     1
  8
3_ALL_AXES
  6
Continuous
 62
     7
100
AcDbCircle
 10
4240.7831139844
 20
146.5210282783
 30
0.0
 40
8.0
100
AcDbArc
 50
270.0
 51
291.2538091854
  0
LINE
  5
479
330
1B
100
AcDbEntity
 67
     1
  8
3_ALL_AXES
  6
Continuous
 62
     7
100
AcDbLine
 10
4237.8831139844
 20
139.0651581077
 30
0.0
 11
4237.8831139844
 21
139.7710282783
 31
0.0
  0
LINE
  5
47A
330
1B
100
AcDbEntity
 67
     1
  8
3_ALL_AXES
  6
Continuous
 62
     7
100
AcDbLine
 10
4243.6831139844
 20
139.0651581077
 30
0.0
 11
4243.6831139844
 21
139.7710282783
 31
0.0
  0
LINE
  5
47B
330
1B
100
AcDbEntity
 67
     1
  8
3_ALL_AXES
  6
Continuous
 62
     7
100
AcDbLine
 10
4237.8831139844
 20
139.0651581077
 30
0.0
 11
4243.6831139844
 21
139.0651581077
 31
0.0
  0
LINE
  5
47C
330
1B
100
AcDbEntity
 67
     1
  8
3_ALL_AXES
  6
Continuous
 62
     7
100
AcDbLine
 10
4325.6831139844
 20
180.1710282783
 30
0.0
 11
4325.6831139844
 21
180.8768984488
 31
0.0
  0
LINE
  5
47D
330
1B
100
AcDbEntity
 67
     1
  8
3_ALL_AXES
  6
Continuous
 62
     7
100
AcDbLine
 10
4319.8831139844
 20
180.1710282783
 30
0.0
 11
4319.8831139844
 21
180.8768984488
 31
0.0
  0
ARC
  5
47E
330
1B
100
AcDbEntity
 67
     1
  8
3_ALL_AXES
  6
Continuous
 62
     7
100
AcDbCircle
 10
4322.7831139844
 20
173.4210282783
 30
0.0
 40
8.0
100
AcDbArc
 50
68.7461908146
 51
90.0
  0
ARC
  5
47F
330
1B
100
AcDbEntity
 67
     1
  8
3_ALL_AXES
  6
Continuous
 62
     7
100
AcDbCircle
 10
4322.7831139844
 20
173.4210282783
 30
0.0
 40
8.0
100
AcDbArc
 50
90.0
 51
111.2538091854
  0
LINE
  5
480
330
1B
100
AcDbEntity
 67
     1
  8
3_ALL_AXES
  6
Continuous
 62
     7
100
AcDbLine
 10
4325.6831139844
 20
180.8768984488
 30
0.0
 11
4325.6831139844
 21
180.1710282783
 31
0.0
  0
LINE
  5
481
330
1B
100
AcDbEntity
 67
     1
  8
3_ALL_AXES
  6
Continuous
 62
     7
100
AcDbLine
 10
4319.8831139844
 20
180.8768984488
 30
0.0
 11
4319.8831139844
 21
180.1710282783
 31
0.0
  0
LINE
  5
482
330
1B
100
AcDbEntity
 67
     1
  8
3_ALL_AXES
  6
Continuous
 62
     7
100
AcDbLine
 10
4325.6831139844
 20
180.8768984488
 30
0.0
 11
4319.8831139844
 21
180.8768984488
 31
0.0
  0
LINE
  5
483
330
1B
100
AcDbEntity
 67
     1
  8
3_ALL_AXES
  6
Continuous
 62
     7
100
AcDbLine
 10
2370.6831139844
 20
180.1710282783
 30
0.0
 11
2370.6831139844
 21
180.8768984488
 31
0.0
  0
LINE
  5
484
330
1B
100
AcDbEntity
 67
     1
  8
3_ALL_AXES
  6
Continuous
 62
     7
100
AcDbLine
 10
2364.8831139844
 20
180.1710282783
 30
0.0
 11
2364.8831139844
 21
180.8768984488
 31
0.0
  0
ARC
  5
485
330
1B
100
AcDbEntity
 67
     1
  8
3_ALL_AXES
  6
Continuous
 62
     7
100
AcDbCircle
 10
2367.7831139844
 20
173.4210282783
 30
0.0
 40
8.0
100
AcDbArc
 50
68.7461908146
 51
90.0
  0
ARC
  5
486
330
1B
100
AcDbEntity
 67
     1
  8
3_ALL_AXES
  6
Continuous
 62
     7
100
AcDbCircle
 10
2367.7831139844
 20
173.4210282783
 30
0.0
 40
8.0
100
AcDbArc
 50
90.0
 51
111.2538091854
  0
LINE
  5
487
330
1B
100
AcDbEntity
 67
     1
  8
3_ALL_AXES
  6
Continuous
 62
     7
100
AcDbLine
 10
2370.6831139844
 20
180.8768984488
 30
0.0
 11
2370.6831139844
 21
180.1710282783
 31
0.0
  0
LINE
  5
488
330
1B
100
AcDbEntity
 67
     1
  8
3_ALL_AXES
  6
Continuous
 62
     7
100
AcDbLine
 10
2364.8831139844
 20
180.8768984488
 30
0.0
 11
2364.8831139844
 21
180.1710282783
 31
0.0
  0
LINE
  5
489
330
1B
100
AcDbEntity
 67
     1
  8
3_ALL_AXES
  6
Continuous
 62
     7
100
AcDbLine
 10
2370.6831139844
 20
180.8768984488
 30
0.0
 11
2364.8831139844
 21
180.8768984488
 31
0.0
  0
LINE
  5
48A
330
1B
100
AcDbEntity
 67
     1
  8
3_ALL_AXES
  6
Continuous
 62
     7
100
AcDbLine
 10
4319.8831139844
 20
139.7710282783
 30
0.0
 11
4319.8831139844
 21
139.0651581077
 31
0.0
  0
LINE
  5
48B
330
1B
100
AcDbEntity
 67
     1
  8
3_ALL_AXES
  6
Continuous
 62
     7
100
AcDbLine
 10
4325.6831139844
 20
139.7710282783
 30
0.0
 11
4325.6831139844
 21
139.0651581077
 31
0.0
  0
ARC
  5
48C
330
1B
100
AcDbEntity
 67
     1
  8
3_ALL_AXES
  6
Continuous
 62
     7
100
AcDbCircle
 10
4322.7831139844
 20
146.5210282783
 30
0.0
 40
8.0
100
AcDbArc
 50
248.7461908146
 51
270.0
  0
ARC
  5
48D
330
1B
100
AcDbEntity
 67
     1
  8
3_ALL_AXES
  6
Continuous
 62
     7
100
AcDbCircle
 10
4322.7831139844
 20
146.5210282783
 30
0.0
 40
8.0
100
AcDbArc
 50
270.0
 51
291.2538091854
  0
LINE
  5
48E
330
1B
100
AcDbEntity
 67
     1
  8
3_ALL_AXES
  6
Continuous
 62
     7
100
AcDbLine
 10
4319.8831139844
 20
139.0651581077
 30
0.0
 11
4319.8831139844
 21
139.7710282783
 31
0.0
  0
LINE
  5
48F
330
1B
100
AcDbEntity
 67
     1
  8
3_ALL_AXES
  6
Continuous
 62
     7
100
AcDbLine
 10
4325.6831139844
 20
139.0651581077
 30
0.0
 11
4325.6831139844
 21
139.7710282783
 31
0.0
  0
LINE
  5
490
330
1B
100
AcDbEntity
 67
     1
  8
3_ALL_AXES
  6
Continuous
 62
     7
100
AcDbLine
 10
4319.8831139844
 20
139.0651581077
 30
0.0
 11
4325.6831139844
 21
139.0651581077
 31
0.0
  0
LINE
  5
491
330
1B
100
AcDbEntity
 67
     1
  8
3_ALL_AXES
  6
Continuous
 62
     7
100
AcDbLine
 10
2364.8831139844
 20
139.7710282783
 30
0.0
 11
2364.8831139844
 21
139.0651581077
 31
0.0
  0
LINE
  5
492
330
1B
100
AcDbEntity
 67
     1
  8
3_ALL_AXES
  6
Continuous
 62
     7
100
AcDbLine
 10
2370.6831139844
 20
139.7710282783
 30
0.0
 11
2370.6831139844
 21
139.0651581077
 31
0.0
  0
ARC
  5
493
330
1B
100
AcDbEntity
 67
     1
  8
3_ALL_AXES
  6
Continuous
 62
     7
100
AcDbCircle
 10
2367.7831139844
 20
146.5210282783
 30
0.0
 40
8.0
100
AcDbArc
 50
248.7461908146
 51
270.0
  0
ARC
  5
494
330
1B
100
AcDbEntity
 67
     1
  8
3_ALL_AXES
  6
Continuous
 62
     7
100
AcDbCircle
 10
2367.7831139844
 20
146.5210282783
 30
0.0
 40
8.0
100
AcDbArc
 50
270.0
 51
291.2538091854
  0
LINE
  5
495
330
1B
100
AcDbEntity
 67
     1
  8
3_ALL_AXES
  6
Continuous
 62
     7
100
AcDbLine
 10
2364.8831139844
 20
139.0651581077
 30
0.0
 11
2364.8831139844
 21
139.7710282783
 31
0.0
  0
LINE
  5
496
330
1B
100
AcDbEntity
 67
     1
  8
3_ALL_AXES
  6
Continuous
 62
     7
100
AcDbLine
 10
2370.6831139844
 20
139.0651581077
 30
0.0
 11
2370.6831139844
 21
139.7710282783
 31
0.0
  0
LINE
  5
497
330
1B
100
AcDbEntity
 67
     1
  8
3_ALL_AXES
  6
Continuous
 62
     7
100
AcDbLine
 10
2364.8831139844
 20
139.0651581077
 30
0.0
 11
2370.6831139844
 21
139.0651581077
 31
0.0
  0
LINE
  5
498
330
1B
100
AcDbEntity
 67
     1
  8
3_ALL_AXES
  6
Continuous
 62
     7
100
AcDbLine
 10
4056.1331139844
 20
139.7710282783
 30
0.0
 11
4056.1331139844
 21
139.0651581077
 31
0.0
  0
LINE
  5
499
330
1B
100
AcDbEntity
 67
     1
  8
3_ALL_AXES
  6
Continuous
 62
     7
100
AcDbLine
 10
4061.9331139844
 20
139.7710282783
 30
0.0
 11
4061.9331139844
 21
139.0651581077
 31
0.0
  0
ARC
  5
49A
330
1B
100
AcDbEntity
 67
     1
  8
3_ALL_AXES
  6
Continuous
 62
     7
100
AcDbCircle
 10
4059.0331139844
 20
146.5210282783
 30
0.0
 40
8.0
100
AcDbArc
 50
248.7461908146
 51
270.0
  0
ARC
  5
49B
330
1B
100
AcDbEntity
 67
     1
  8
3_ALL_AXES
  6
Continuous
 62
     7
100
AcDbCircle
 10
4059.0331139844
 20
146.5210282783
 30
0.0
 40
8.0
100
AcDbArc
 50
270.0
 51
291.2538091854
  0
LINE
  5
49C
330
1B
100
AcDbEntity
 67
     1
  8
3_ALL_AXES
  6
Continuous
 62
     7
100
AcDbLine
 10
4056.1331139844
 20
139.0651581077
 30
0.0
 11
4056.1331139844
 21
139.7710282783
 31
0.0
  0
LINE
  5
49D
330
1B
100
AcDbEntity
 67
     1
  8
3_ALL_AXES
  6
Continuous
 62
     7
100
AcDbLine
 10
4061.9331139844
 20
139.0651581077
 30
0.0
 11
4061.9331139844
 21
139.7710282783
 31
0.0
  0
LINE
  5
49E
330
1B
100
AcDbEntity
 67
     1
  8
3_ALL_AXES
  6
Continuous
 62
     7
100
AcDbLine
 10
4056.1331139844
 20
139.0651581077
 30
0.0
 11
4061.9331139844
 21
139.0651581077
 31
0.0
  0
LINE
  5
49F
330
1B
100
AcDbEntity
 67
     1
  8
3_ALL_AXES
  6
Continuous
 62
     7
100
AcDbLine
 10
3874.3831139844
 20
139.7710282783
 30
0.0
 11
3874.3831139844
 21
139.0651581077
 31
0.0
  0
LINE
  5
4A0
330
1B
100
AcDbEntity
 67
     1
  8
3_ALL_AXES
  6
Continuous
 62
     7
100
AcDbLine
 10
3880.1831139844
 20
139.7710282783
 30
0.0
 11
3880.1831139844
 21
139.0651581077
 31
0.0
  0
ARC
  5
4A1
330
1B
100
AcDbEntity
 67
     1
  8
3_ALL_AXES
  6
Continuous
 62
     7
100
AcDbCircle
 10
3877.2831139844
 20
146.5210282783
 30
0.0
 40
8.0
100
AcDbArc
 50
248.7461908146
 51
270.0
  0
ARC
  5
4A2
330
1B
100
AcDbEntity
 67
     1
  8
3_ALL_AXES
  6
Continuous
 62
     7
100
AcDbCircle
 10
3877.2831139844
 20
146.5210282783
 30
0.0
 40
8.0
100
AcDbArc
 50
270.0
 51
291.2538091854
  0
LINE
  5
4A3
330
1B
100
AcDbEntity
 67
     1
  8
3_ALL_AXES
  6
Continuous
 62
     7
100
AcDbLine
 10
3874.3831139844
 20
139.0651581077
 30
0.0
 11
3874.3831139844
 21
139.7710282783
 31
0.0
  0
LINE
  5
4A4
330
1B
100
AcDbEntity
 67
     1
  8
3_ALL_AXES
  6
Continuous
 62
     7
100
AcDbLine
 10
3880.1831139844
 20
139.0651581077
 30
0.0
 11
3880.1831139844
 21
139.7710282783
 31
0.0
  0
LINE
  5
4A5
330
1B
100
AcDbEntity
 67
     1
  8
3_ALL_AXES
  6
Continuous
 62
     7
100
AcDbLine
 10
3874.3831139844
 20
139.0651581077
 30
0.0
 11
3880.1831139844
 21
139.0651581077
 31
0.0
  0
LINE
  5
4A6
330
1B
100
AcDbEntity
 67
     1
  8
3_ALL_AXES
  6
Continuous
 62
     7
100
AcDbLine
 10
3792.3831139844
 20
139.7710282783
 30
0.0
 11
3792.3831139844
 21
139.0651581077
 31
0.0
  0
LINE
  5
4A7
330
1B
100
AcDbEntity
 67
     1
  8
3_ALL_AXES
  6
Continuous
 62
     7
100
AcDbLine
 10
3798.1831139844
 20
139.7710282783
 30
0.0
 11
3798.1831139844
 21
139.0651581077
 31
0.0
  0
ARC
  5
4A8
330
1B
100
AcDbEntity
 67
     1
  8
3_ALL_AXES
  6
Continuous
 62
     7
100
AcDbCircle
 10
3795.2831139844
 20
146.5210282783
 30
0.0
 40
8.0
100
AcDbArc
 50
248.7461908146
 51
270.0
  0
ARC
  5
4A9
330
1B
100
AcDbEntity
 67
     1
  8
3_ALL_AXES
  6
Continuous
 62
     7
100
AcDbCircle
 10
3795.2831139844
 20
146.5210282783
 30
0.0
 40
8.0
100
AcDbArc
 50
270.0
 51
291.2538091854
  0
LINE
  5
4AA
330
1B
100
AcDbEntity
 67
     1
  8
3_ALL_AXES
  6
Continuous
 62
     7
100
AcDbLine
 10
3792.3831139844
 20
139.0651581077
 30
0.0
 11
3792.3831139844
 21
139.7710282783
 31
0.0
  0
LINE
  5
4AB
330
1B
100
AcDbEntity
 67
     1
  8
3_ALL_AXES
  6
Continuous
 62
     7
100
AcDbLine
 10
3798.1831139844
 20
139.0651581077
 30
0.0
 11
3798.1831139844
 21
139.7710282783
 31
0.0
  0
LINE
  5
4AC
330
1B
100
AcDbEntity
 67
     1
  8
3_ALL_AXES
  6
Continuous
 62
     7
100
AcDbLine
 10
3792.3831139844
 20
139.0651581077
 30
0.0
 11
3798.1831139844
 21
139.0651581077
 31
0.0
  0
LINE
  5
4AD
330
1B
100
AcDbEntity
 67
     1
  8
3_ALL_AXES
  6
Continuous
 62
     7
100
AcDbLine
 10
3587.8831139844
 20
139.7710282783
 30
0.0
 11
3587.8831139844
 21
139.0651581077
 31
0.0
  0
LINE
  5
4AE
330
1B
100
AcDbEntity
 67
     1
  8
3_ALL_AXES
  6
Continuous
 62
     7
100
AcDbLine
 10
3593.6831139844
 20
139.7710282783
 30
0.0
 11
3593.6831139844
 21
139.0651581077
 31
0.0
  0
ARC
  5
4AF
330
1B
100
AcDbEntity
 67
     1
  8
3_ALL_AXES
  6
Continuous
 62
     7
100
AcDbCircle
 10
3590.7831139844
 20
146.5210282783
 30
0.0
 40
8.0
100
AcDbArc
 50
248.7461908146
 51
270.0
  0
ARC
  5
4B0
330
1B
100
AcDbEntity
 67
     1
  8
3_ALL_AXES
  6
Continuous
 62
     7
100
AcDbCircle
 10
3590.7831139844
 20
146.5210282783
 30
0.0
 40
8.0
100
AcDbArc
 50
270.0
 51
291.2538091854
  0
LINE
  5
4B1
330
1B
100
AcDbEntity
 67
     1
  8
3_ALL_AXES
  6
Continuous
 62
     7
100
AcDbLine
 10
3587.8831139844
 20
139.0651581077
 30
0.0
 11
3587.8831139844
 21
139.7710282783
 31
0.0
  0
LINE
  5
4B2
330
1B
100
AcDbEntity
 67
     1
  8
3_ALL_AXES
  6
Continuous
 62
     7
100
AcDbLine
 10
3593.6831139844
 20
139.0651581077
 30
0.0
 11
3593.6831139844
 21
139.7710282783
 31
0.0
  0
LINE
  5
4B3
330
1B
100
AcDbEntity
 67
     1
  8
3_ALL_AXES
  6
Continuous
 62
     7
100
AcDbLine
 10
3587.8831139844
 20
139.0651581077
 30
0.0
 11
3593.6831139844
 21
139.0651581077
 31
0.0
  0
LINE
  5
4B4
330
1B
100
AcDbEntity
 67
     1
  8
3_ALL_AXES
  6
Continuous
 62
     7
100
AcDbLine
 10
3383.3831139844
 20
139.7710282783
 30
0.0
 11
3383.3831139844
 21
139.0651581077
 31
0.0
  0
LINE
  5
4B5
330
1B
100
AcDbEntity
 67
     1
  8
3_ALL_AXES
  6
Continuous
 62
     7
100
AcDbLine
 10
3389.1831139844
 20
139.7710282783
 30
0.0
 11
3389.1831139844
 21
139.0651581077
 31
0.0
  0
ARC
  5
4B6
330
1B
100
AcDbEntity
 67
     1
  8
3_ALL_AXES
  6
Continuous
 62
     7
100
AcDbCircle
 10
3386.2831139844
 20
146.5210282783
 30
0.0
 40
8.0
100
AcDbArc
 50
248.7461908146
 51
270.0
  0
ARC
  5
4B7
330
1B
100
AcDbEntity
 67
     1
  8
3_ALL_AXES
  6
Continuous
 62
     7
100
AcDbCircle
 10
3386.2831139844
 20
146.5210282783
 30
0.0
 40
8.0
100
AcDbArc
 50
270.0
 51
291.2538091854
  0
LINE
  5
4B8
330
1B
100
AcDbEntity
 67
     1
  8
3_ALL_AXES
  6
Continuous
 62
     7
100
AcDbLine
 10
3383.3831139844
 20
139.0651581077
 30
0.0
 11
3383.3831139844
 21
139.7710282783
 31
0.0
  0
LINE
  5
4B9
330
1B
100
AcDbEntity
 67
     1
  8
3_ALL_AXES
  6
Continuous
 62
     7
100
AcDbLine
 10
3389.1831139844
 20
139.0651581077
 30
0.0
 11
3389.1831139844
 21
139.7710282783
 31
0.0
  0
LINE
  5
4BA
330
1B
100
AcDbEntity
 67
     1
  8
3_ALL_AXES
  6
Continuous
 62
     7
100
AcDbLine
 10
3383.3831139844
 20
139.0651581077
 30
0.0
 11
3389.1831139844
 21
139.0651581077
 31
0.0
  0
LINE
  5
4BB
330
1B
100
AcDbEntity
 67
     1
  8
3_ALL_AXES
  6
Continuous
 62
     7
100
AcDbLine
 10
3301.3831139844
 20
139.7710282783
 30
0.0
 11
3301.3831139844
 21
139.0651581077
 31
0.0
  0
LINE
  5
4BC
330
1B
100
AcDbEntity
 67
     1
  8
3_ALL_AXES
  6
Continuous
 62
     7
100
AcDbLine
 10
3307.1831139844
 20
139.7710282783
 30
0.0
 11
3307.1831139844
 21
139.0651581077
 31
0.0
  0
ARC
  5
4BD
330
1B
100
AcDbEntity
 67
     1
  8
3_ALL_AXES
  6
Continuous
 62
     7
100
AcDbCircle
 10
3304.2831139844
 20
146.5210282783
 30
0.0
 40
8.0
100
AcDbArc
 50
248.7461908146
 51
270.0
  0
ARC
  5
4BE
330
1B
100
AcDbEntity
 67
     1
  8
3_ALL_AXES
  6
Continuous
 62
     7
100
AcDbCircle
 10
3304.2831139844
 20
146.5210282783
 30
0.0
 40
8.0
100
AcDbArc
 50
270.0
 51
291.2538091854
  0
LINE
  5
4BF
330
1B
100
AcDbEntity
 67
     1
  8
3_ALL_AXES
  6
Continuous
 62
     7
100
AcDbLine
 10
3301.3831139844
 20
139.0651581077
 30
0.0
 11
3301.3831139844
 21
139.7710282783
 31
0.0
  0
LINE
  5
4C0
330
1B
100
AcDbEntity
 67
     1
  8
3_ALL_AXES
  6
Continuous
 62
     7
100
AcDbLine
 10
3307.1831139844
 20
139.0651581077
 30
0.0
 11
3307.1831139844
 21
139.7710282783
 31
0.0
  0
LINE
  5
4C1
330
1B
100
AcDbEntity
 67
     1
  8
3_ALL_AXES
  6
Continuous
 62
     7
100
AcDbLine
 10
3301.3831139844
 20
139.0651581077
 30
0.0
 11
3307.1831139844
 21
139.0651581077
 31
0.0
  0
LINE
  5
4C2
330
1B
100
AcDbEntity
 67
     1
  8
3_ALL_AXES
  6
Continuous
 62
     7
100
AcDbLine
 10
2446.8831139844
 20
139.7710282783
 30
0.0
 11
2446.8831139844
 21
139.0651581077
 31
0.0
  0
LINE
  5
4C3
330
1B
100
AcDbEntity
 67
     1
  8
3_ALL_AXES
  6
Continuous
 62
     7
100
AcDbLine
 10
2452.6831139844
 20
139.7710282783
 30
0.0
 11
2452.6831139844
 21
139.0651581077
 31
0.0
  0
ARC
  5
4C4
330
1B
100
AcDbEntity
 67
     1
  8
3_ALL_AXES
  6
Continuous
 62
     7
100
AcDbCircle
 10
2449.7831139844
 20
146.5210282783
 30
0.0
 40
8.0
100
AcDbArc
 50
248.7461908146
 51
270.0
  0
ARC
  5
4C5
330
1B
100
AcDbEntity
 67
     1
  8
3_ALL_AXES
  6
Continuous
 62
     7
100
AcDbCircle
 10
2449.7831139844
 20
146.5210282783
 30
0.0
 40
8.0
100
AcDbArc
 50
270.0
 51
291.2538091854
  0
LINE
  5
4C6
330
1B
100
AcDbEntity
 67
     1
  8
3_ALL_AXES
  6
Continuous
 62
     7
100
AcDbLine
 10
2446.8831139844
 20
139.0651581077
 30
0.0
 11
2446.8831139844
 21
139.7710282783
 31
0.0
  0
LINE
  5
4C7
330
1B
100
AcDbEntity
 67
     1
  8
3_ALL_AXES
  6
Continuous
 62
     7
100
AcDbLine
 10
2452.6831139844
 20
139.0651581077
 30
0.0
 11
2452.6831139844
 21
139.7710282783
 31
0.0
  0
LINE
  5
4C8
330
1B
100
AcDbEntity
 67
     1
  8
3_ALL_AXES
  6
Continuous
 62
     7
100
AcDbLine
 10
2446.8831139844
 20
139.0651581077
 30
0.0
 11
2452.6831139844
 21
139.0651581077
 31
0.0
  0
LINE
  5
4C9
330
1B
100
AcDbEntity
 67
     1
  8
3_ALL_AXES
  6
Continuous
 62
     7
100
AcDbLine
 10
2628.6331139844
 20
139.7710282783
 30
0.0
 11
2628.6331139844
 21
139.0651581077
 31
0.0
  0
LINE
  5
4CA
330
1B
100
AcDbEntity
 67
     1
  8
3_ALL_AXES
  6
Continuous
 62
     7
100
AcDbLine
 10
2634.4331139844
 20
139.7710282783
 30
0.0
 11
2634.4331139844
 21
139.0651581077
 31
0.0
  0
ARC
  5
4CB
330
1B
100
AcDbEntity
 67
     1
  8
3_ALL_AXES
  6
Continuous
 62
     7
100
AcDbCircle
 10
2631.5331139844
 20
146.5210282783
 30
0.0
 40
8.0
100
AcDbArc
 50
248.7461908146
 51
270.0
  0
ARC
  5
4CC
330
1B
100
AcDbEntity
 67
     1
  8
3_ALL_AXES
  6
Continuous
 62
     7
100
AcDbCircle
 10
2631.5331139844
 20
146.5210282783
 30
0.0
 40
8.0
100
AcDbArc
 50
270.0
 51
291.2538091854
  0
LINE
  5
4CD
330
1B
100
AcDbEntity
 67
     1
  8
3_ALL_AXES
  6
Continuous
 62
     7
100
AcDbLine
 10
2628.6331139844
 20
139.0651581077
 30
0.0
 11
2628.6331139844
 21
139.7710282783
 31
0.0
  0
LINE
  5
4CE
330
1B
100
AcDbEntity
 67
     1
  8
3_ALL_AXES
  6
Continuous
 62
     7
100
AcDbLine
 10
2634.4331139844
 20
139.0651581077
 30
0.0
 11
2634.4331139844
 21
139.7710282783
 31
0.0
  0
LINE
  5
4CF
330
1B
100
AcDbEntity
 67
     1
  8
3_ALL_AXES
  6
Continuous
 62
     7
100
AcDbLine
 10
2628.6331139844
 20
139.0651581077
 30
0.0
 11
2634.4331139844
 21
139.0651581077
 31
0.0
  0
LINE
  5
4D0
330
1B
100
AcDbEntity
 67
     1
  8
3_ALL_AXES
  6
Continuous
 62
     7
100
AcDbLine
 10
2810.3831139844
 20
139.7710282783
 30
0.0
 11
2810.3831139844
 21
139.0651581077
 31
0.0
  0
LINE
  5
4D1
330
1B
100
AcDbEntity
 67
     1
  8
3_ALL_AXES
  6
Continuous
 62
     7
100
AcDbLine
 10
2816.1831139844
 20
139.7710282783
 30
0.0
 11
2816.1831139844
 21
139.0651581077
 31
0.0
  0
ARC
  5
4D2
330
1B
100
AcDbEntity
 67
     1
  8
3_ALL_AXES
  6
Continuous
 62
     7
100
AcDbCircle
 10
2813.2831139844
 20
146.5210282783
 30
0.0
 40
8.0
100
AcDbArc
 50
248.7461908146
 51
270.0
  0
ARC
  5
4D3
330
1B
100
AcDbEntity
 67
     1
  8
3_ALL_AXES
  6
Continuous
 62
     7
100
AcDbCircle
 10
2813.2831139844
 20
146.5210282783
 30
0.0
 40
8.0
100
AcDbArc
 50
270.0
 51
291.2538091854
  0
LINE
  5
4D4
330
1B
100
AcDbEntity
 67
     1
  8
3_ALL_AXES
  6
Continuous
 62
     7
100
AcDbLine
 10
2810.3831139844
 20
139.0651581077
 30
0.0
 11
2810.3831139844
 21
139.7710282783
 31
0.0
  0
LINE
  5
4D5
330
1B
100
AcDbEntity
 67
     1
  8
3_ALL_AXES
  6
Continuous
 62
     7
100
AcDbLine
 10
2816.1831139844
 20
139.0651581077
 30
0.0
 11
2816.1831139844
 21
139.7710282783
 31
0.0
  0
LINE
  5
4D6
330
1B
100
AcDbEntity
 67
     1
  8
3_ALL_AXES
  6
Continuous
 62
     7
100
AcDbLine
 10
2810.3831139844
 20
139.0651581077
 30
0.0
 11
2816.1831139844
 21
139.0651581077
 31
0.0
  0
LINE
  5
4D7
330
1B
100
AcDbEntity
 67
     1
  8
3_ALL_AXES
  6
Continuous
 62
     7
100
AcDbLine
 10
3096.8831139844
 20
139.7710282783
 30
0.0
 11
3096.8831139844
 21
139.0651581077
 31
0.0
  0
LINE
  5
4D8
330
1B
100
AcDbEntity
 67
     1
  8
3_ALL_AXES
  6
Continuous
 62
     7
100
AcDbLine
 10
3102.6831139844
 20
139.7710282783
 30
0.0
 11
3102.6831139844
 21
139.0651581077
 31
0.0
  0
ARC
  5
4D9
330
1B
100
AcDbEntity
 67
     1
  8
3_ALL_AXES
  6
Continuous
 62
     7
100
AcDbCircle
 10
3099.7831139844
 20
146.5210282783
 30
0.0
 40
8.0
100
AcDbArc
 50
248.7461908146
 51
270.0
  0
ARC
  5
4DA
330
1B
100
AcDbEntity
 67
     1
  8
3_ALL_AXES
  6
Continuous
 62
     7
100
AcDbCircle
 10
3099.7831139844
 20
146.5210282783
 30
0.0
 40
8.0
100
AcDbArc
 50
270.0
 51
291.2538091854
  0
LINE
  5
4DB
330
1B
100
AcDbEntity
 67
     1
  8
3_ALL_AXES
  6
Continuous
 62
     7
100
AcDbLine
 10
3096.8831139844
 20
139.0651581077
 30
0.0
 11
3096.8831139844
 21
139.7710282783
 31
0.0
  0
LINE
  5
4DC
330
1B
100
AcDbEntity
 67
     1
  8
3_ALL_AXES
  6
Continuous
 62
     7
100
AcDbLine
 10
3102.6831139844
 20
139.0651581077
 30
0.0
 11
3102.6831139844
 21
139.7710282783
 31
0.0
  0
LINE
  5
4DD
330
1B
100
AcDbEntity
 67
     1
  8
3_ALL_AXES
  6
Continuous
 62
     7
100
AcDbLine
 10
3096.8831139844
 20
139.0651581077
 30
0.0
 11
3102.6831139844
 21
139.0651581077
 31
0.0
  0
LINE
  5
4DE
330
1B
100
AcDbEntity
 67
     1
  8
3_ALL_AXES
  6
Continuous
 62
     7
100
AcDbLine
 10
2892.3831139844
 20
139.7710282783
 30
0.0
 11
2892.3831139844
 21
139.0651581077
 31
0.0
  0
LINE
  5
4DF
330
1B
100
AcDbEntity
 67
     1
  8
3_ALL_AXES
  6
Continuous
 62
     7
100
AcDbLine
 10
2898.1831139844
 20
139.7710282783
 30
0.0
 11
2898.1831139844
 21
139.0651581077
 31
0.0
  0
ARC
  5
4E0
330
1B
100
AcDbEntity
 67
     1
  8
3_ALL_AXES
  6
Continuous
 62
     7
100
AcDbCircle
 10
2895.2831139844
 20
146.5210282783
 30
0.0
 40
8.0
100
AcDbArc
 50
248.7461908146
 51
270.0
  0
ARC
  5
4E1
330
1B
100
AcDbEntity
 67
     1
  8
3_ALL_AXES
  6
Continuous
 62
     7
100
AcDbCircle
 10
2895.2831139844
 20
146.5210282783
 30
0.0
 40
8.0
100
AcDbArc
 50
270.0
 51
291.2538091854
  0
LINE
  5
4E2
330
1B
100
AcDbEntity
 67
     1
  8
3_ALL_AXES
  6
Continuous
 62
     7
100
AcDbLine
 10
2892.3831139844
 20
139.0651581077
 30
0.0
 11
2892.3831139844
 21
139.7710282783
 31
0.0
  0
LINE
  5
4E3
330
1B
100
AcDbEntity
 67
     1
  8
3_ALL_AXES
  6
Continuous
 62
     7
100
AcDbLine
 10
2898.1831139844
 20
139.0651581077
 30
0.0
 11
2898.1831139844
 21
139.7710282783
 31
0.0
  0
LINE
  5
4E4
330
1B
100
AcDbEntity
 67
     1
  8
3_ALL_AXES
  6
Continuous
 62
     7
100
AcDbLine
 10
2892.3831139844
 20
139.0651581077
 30
0.0
 11
2898.1831139844
 21
139.0651581077
 31
0.0
  0
ARC
  5
4E5
330
1B
100
AcDbEntity
 67
     1
  8
3_ALL_AXES
  6
Continuous
 62
     7
100
AcDbCircle
 10
4343.4255567818
 20
139.5936683699
 30
0.0
 40
4.1
100
AcDbArc
 50
296.3930257743
 51
298.8426038474001
  0
ARC
  5
4E6
330
1B
100
AcDbEntity
 67
     1
  8
3_ALL_AXES
  6
Continuous
 62
     7
100
AcDbCircle
 10
4343.4255567818
 20
139.5936683699
 30
0.0
 40
4.1
100
AcDbArc
 50
298.8426038474001
 51
330.6871187969
  0
ARC
  5
4E7
330
1B
100
AcDbEntity
 67
     1
  8
3_ALL_AXES
  6
Continuous
 62
     7
100
AcDbCircle
 10
4343.4255567818
 20
139.5936683699
 30
0.0
 40
4.1
100
AcDbArc
 50
330.6871187969
 51
333.1366968699
  0
ARC
  5
4E8
330
1B
100
AcDbEntity
 67
     1
  8
3_ALL_AXES
  6
Continuous
 62
     7
100
AcDbCircle
 10
4343.1406711871
 20
139.5936683699
 30
0.0
 40
4.1
100
AcDbArc
 50
206.8633031301
 51
243.6069742257
  0
LINE
  5
4E9
330
1B
100
AcDbEntity
 67
     1
  8
3_ALL_AXES
  6
Continuous
 62
     7
100
AcDbLine
 10
4347.0831139844
 20
137.7410282783
 30
0.0
 11
4347.0831139844
 21
138.1210282783
 31
0.0
  0
LINE
  5
4EA
330
1B
100
AcDbEntity
 67
     1
  8
3_ALL_AXES
  6
Continuous
 62
     7
100
AcDbLine
 10
4339.4831139844
 20
137.7410282783
 30
0.0
 11
4339.4831139844
 21
138.1210282783
 31
0.0
  0
LINE
  5
4EB
330
1B
100
AcDbEntity
 67
     1
  8
7_ALL_FEATURES
  6
Continuous
 62
     7
100
AcDbLine
 10
4345.2831139844
 20
139.1210282782
 30
0.0
 11
4345.2831139844
 21
139.7710282783
 31
0.0
  0
LINE
  5
4EC
330
1B
100
AcDbEntity
 67
     1
  8
7_ALL_FEATURES
  6
Continuous
 62
     7
100
AcDbLine
 10
4341.2831139844
 20
139.1210282782
 30
0.0
 11
4341.2831139844
 21
139.7710282783
 31
0.0
  0
ARC
  5
4ED
330
1B
100
AcDbEntity
 67
     1
  8
3_ALL_AXES
  6
Continuous
 62
     7
100
AcDbCircle
 10
4343.4255567818
 20
139.5936683699
 30
0.0
 40
4.1
100
AcDbArc
 50
330.6871187969
 51
333.1366968699
  0
ARC
  5
4EE
330
1B
100
AcDbEntity
 67
     1
  8
3_ALL_AXES
  6
Continuous
 62
     7
100
AcDbCircle
 10
4343.4255567818
 20
139.5936683699
 30
0.0
 40
4.1
100
AcDbArc
 50
298.8426038474001
 51
330.6871187969
  0
ARC
  5
4EF
330
1B
100
AcDbEntity
 67
     1
  8
3_ALL_AXES
  6
Continuous
 62
     7
100
AcDbCircle
 10
4343.4255567818
 20
139.5936683699
 30
0.0
 40
4.1
100
AcDbArc
 50
296.3930257743
 51
298.8426038474001
  0
LINE
  5
4F0
330
1B
100
AcDbEntity
 67
     1
  8
3_ALL_AXES
  6
Continuous
 62
     7
100
AcDbLine
 10
4345.2481139844
 20
135.9210282783
 30
0.0
 11
4344.7264896574
 21
135.9210282783
 31
0.0
  0
LINE
  5
4F1
330
1B
100
AcDbEntity
 67
     1
  8
3_ALL_AXES
  6
Continuous
 62
     7
100
AcDbLine
 10
4344.7264896574
 20
135.9210282783
 30
0.0
 11
4344.0048018209
 21
135.9210282783
 31
0.0
  0
LINE
  5
4F2
330
1B
100
AcDbEntity
 67
     1
  8
3_ALL_AXES
  6
Continuous
 62
     7
100
AcDbLine
 10
4344.0048018209
 20
135.9210282783
 30
0.0
 11
4342.5614261479
 21
135.9210282783
 31
0.0
  0
LINE
  5
4F3
330
1B
100
AcDbEntity
 67
     1
  8
3_ALL_AXES
  6
Continuous
 62
     7
100
AcDbLine
 10
4342.5614261479
 20
135.9210282783
 30
0.0
 11
4341.8397383114
 21
135.9210282783
 31
0.0
  0
LINE
  5
4F4
330
1B
100
AcDbEntity
 67
     1
  8
3_ALL_AXES
  6
Continuous
 62
     7
100
AcDbLine
 10
4341.8397383114
 20
135.9210282783
 30
0.0
 11
4341.3181139844
 21
135.9210282783
 31
0.0
  0
LINE
  5
4F5
330
1B
100
AcDbEntity
 67
     1
  8
3_ALL_AXES
  6
Continuous
 62
     7
100
AcDbLine
 10
4347.0831139844
 20
138.1210282783
 30
0.0
 11
4347.0831139844
 21
137.7410282783
 31
0.0
  0
LINE
  5
4F6
330
1B
100
AcDbEntity
 67
     1
  8
3_ALL_AXES
  6
Continuous
 62
     7
100
AcDbLine
 10
4339.5331139844
 20
138.1210282783
 30
0.0
 11
4339.4831139844
 21
138.1210282783
 31
0.0
  0
LINE
  5
4F7
330
1B
100
AcDbEntity
 67
     1
  8
3_ALL_AXES
  6
Continuous
 62
     7
100
AcDbLine
 10
4345.2831139844
 20
139.7710282783
 30
0.0
 11
4345.2831139844
 21
139.1210282782
 31
0.0
  0
ARC
  5
4F8
330
1B
100
AcDbEntity
 67
     1
  8
3_ALL_AXES
  6
Continuous
 62
     7
100
AcDbCircle
 10
4343.1406711871
 20
139.5936683699
 30
0.0
 40
4.1
100
AcDbArc
 50
206.8633031301
 51
243.6069742257
  0
LINE
  5
4F9
330
1B
100
AcDbEntity
 67
     1
  8
3_ALL_AXES
  6
Continuous
 62
     7
100
AcDbLine
 10
4339.4831139844
 20
138.1210282783
 30
0.0
 11
4339.4831139844
 21
137.7410282783
 31
0.0
  0
LINE
  5
4FA
330
1B
100
AcDbEntity
 67
     1
  8
3_ALL_AXES
  6
Continuous
 62
     7
100
AcDbLine
 10
4341.2831139844
 20
139.7710282783
 30
0.0
 11
4341.2831139844
 21
139.1210282782
 31
0.0
  0
LINE
  5
4FB
330
1B
100
AcDbEntity
 67
     1
  8
3_ALL_AXES
  6
Continuous
 62
     7
100
AcDbLine
 10
4347.0831139844
 20
137.7410282783
 30
0.0
 11
4339.4831139844
 21
137.7410282783
 31
0.0
  0
ARC
  5
4FC
330
1B
100
AcDbEntity
 67
     1
  8
3_ALL_AXES
  6
Continuous
 62
     7
100
AcDbCircle
 10
4343.1406711871
 20
180.3483881866
 30
0.0
 40
4.1
100
AcDbArc
 50
116.3930257743
 51
118.8426038474
  0
ARC
  5
4FD
330
1B
100
AcDbEntity
 67
     1
  8
3_ALL_AXES
  6
Continuous
 62
     7
100
AcDbCircle
 10
4343.1406711871
 20
180.3483881866
 30
0.0
 40
4.1
100
AcDbArc
 50
118.8426038474
 51
150.6871187969
  0
ARC
  5
4FE
330
1B
100
AcDbEntity
 67
     1
  8
3_ALL_AXES
  6
Continuous
 62
     7
100
AcDbCircle
 10
4343.1406711871
 20
180.3483881866
 30
0.0
 40
4.1
100
AcDbArc
 50
150.6871187969
 51
153.1366968699
  0
ARC
  5
4FF
330
1B
100
AcDbEntity
 67
     1
  8
3_ALL_AXES
  6
Continuous
 62
     7
100
AcDbCircle
 10
4343.4255567818
 20
180.3483881866
 30
0.0
 40
4.1
100
AcDbArc
 50
26.8633031301
 51
63.6069742257
  0
LINE
  5
500
330
1B
100
AcDbEntity
 67
     1
  8
3_ALL_AXES
  6
Continuous
 62
     7
100
AcDbLine
 10
4339.4831139844
 20
182.2010282783
 30
0.0
 11
4339.4831139844
 21
181.8210282783
 31
0.0
  0
LINE
  5
501
330
1B
100
AcDbEntity
 67
     1
  8
3_ALL_AXES
  6
Continuous
 62
     7
100
AcDbLine
 10
4347.0831139844
 20
182.2010282783
 30
0.0
 11
4347.0831139844
 21
181.8210282783
 31
0.0
  0
LINE
  5
502
330
1B
100
AcDbEntity
 67
     1
  8
7_ALL_FEATURES
  6
Continuous
 62
     7
100
AcDbLine
 10
4341.2831139844
 20
180.8210282782
 30
0.0
 11
4341.2831139844
 21
180.1710282783
 31
0.0
  0
LINE
  5
503
330
1B
100
AcDbEntity
 67
     1
  8
7_ALL_FEATURES
  6
Continuous
 62
     7
100
AcDbLine
 10
4345.2831139844
 20
180.8210282782
 30
0.0
 11
4345.2831139844
 21
180.1710282783
 31
0.0
  0
ARC
  5
504
330
1B
100
AcDbEntity
 67
     1
  8
3_ALL_AXES
  6
Continuous
 62
     7
100
AcDbCircle
 10
4343.1406711871
 20
180.3483881866
 30
0.0
 40
4.1
100
AcDbArc
 50
150.6871187969
 51
153.1366968699
  0
ARC
  5
505
330
1B
100
AcDbEntity
 67
     1
  8
3_ALL_AXES
  6
Continuous
 62
     7
100
AcDbCircle
 10
4343.1406711871
 20
180.3483881866
 30
0.0
 40
4.1
100
AcDbArc
 50
118.8426038474
 51
150.6871187969
  0
ARC
  5
506
330
1B
100
AcDbEntity
 67
     1
  8
3_ALL_AXES
  6
Continuous
 62
     7
100
AcDbCircle
 10
4343.1406711871
 20
180.3483881866
 30
0.0
 40
4.1
100
AcDbArc
 50
116.3930257743
 51
118.8426038474
  0
LINE
  5
507
330
1B
100
AcDbEntity
 67
     1
  8
3_ALL_AXES
  6
Continuous
 62
     7
100
AcDbLine
 10
4341.3181139844
 20
184.0210282783
 30
0.0
 11
4341.8397383114
 21
184.0210282783
 31
0.0
  0
LINE
  5
508
330
1B
100
AcDbEntity
 67
     1
  8
3_ALL_AXES
  6
Continuous
 62
     7
100
AcDbLine
 10
4341.8397383114
 20
184.0210282783
 30
0.0
 11
4342.5614261479
 21
184.0210282783
 31
0.0
  0
LINE
  5
509
330
1B
100
AcDbEntity
 67
     1
  8
3_ALL_AXES
  6
Continuous
 62
     7
100
AcDbLine
 10
4342.5614261479
 20
184.0210282783
 30
0.0
 11
4344.0048018209
 21
184.0210282783
 31
0.0
  0
LINE
  5
50A
330
1B
100
AcDbEntity
 67
     1
  8
3_ALL_AXES
  6
Continuous
 62
     7
100
AcDbLine
 10
4344.0048018209
 20
184.0210282783
 30
0.0
 11
4344.7264896574
 21
184.0210282783
 31
0.0
  0
LINE
  5
50B
330
1B
100
AcDbEntity
 67
     1
  8
3_ALL_AXES
  6
Continuous
 62
     7
100
AcDbLine
 10
4344.7264896574
 20
184.0210282783
 30
0.0
 11
4345.2481139844
 21
184.0210282783
 31
0.0
  0
LINE
  5
50C
330
1B
100
AcDbEntity
 67
     1
  8
3_ALL_AXES
  6
Continuous
 62
     7
100
AcDbLine
 10
4339.4831139844
 20
181.8210282783
 30
0.0
 11
4339.4831139844
 21
182.2010282783
 31
0.0
  0
LINE
  5
50D
330
1B
100
AcDbEntity
 67
     1
  8
3_ALL_AXES
  6
Continuous
 62
     7
100
AcDbLine
 10
4339.4831139844
 20
181.8210282783
 30
0.0
 11
4339.5331139844
 21
181.8210282783
 31
0.0
  0
LINE
  5
50E
330
1B
100
AcDbEntity
 67
     1
  8
3_ALL_AXES
  6
Continuous
 62
     7
100
AcDbLine
 10
4341.2831139844
 20
180.1710282783
 30
0.0
 11
4341.2831139844
 21
180.8210282782
 31
0.0
  0
ARC
  5
50F
330
1B
100
AcDbEntity
 67
     1
  8
3_ALL_AXES
  6
Continuous
 62
     7
100
AcDbCircle
 10
4343.4255567818
 20
180.3483881866
 30
0.0
 40
4.1
100
AcDbArc
 50
26.8633031301
 51
63.6069742257
  0
LINE
  5
510
330
1B
100
AcDbEntity
 67
     1
  8
3_ALL_AXES
  6
Continuous
 62
     7
100
AcDbLine
 10
4347.0831139844
 20
181.8210282783
 30
0.0
 11
4347.0831139844
 21
182.2010282783
 31
0.0
  0
LINE
  5
511
330
1B
100
AcDbEntity
 67
     1
  8
3_ALL_AXES
  6
Continuous
 62
     7
100
AcDbLine
 10
4345.2831139844
 20
180.1710282783
 30
0.0
 11
4345.2831139844
 21
180.8210282782
 31
0.0
  0
LINE
  5
512
330
1B
100
AcDbEntity
 67
     1
  8
3_ALL_AXES
  6
Continuous
 62
     7
100
AcDbLine
 10
4339.4831139844
 20
182.2010282783
 30
0.0
 11
4347.0831139844
 21
182.2010282783
 31
0.0
  0
ARC
  5
513
330
1B
100
AcDbEntity
 67
     1
  8
3_ALL_AXES
  6
Continuous
 62
     7
100
AcDbCircle
 10
2347.1406711871
 20
180.3483881866
 30
0.0
 40
4.1
100
AcDbArc
 50
116.3930257743
 51
118.8426038474
  0
ARC
  5
514
330
1B
100
AcDbEntity
 67
     1
  8
3_ALL_AXES
  6
Continuous
 62
     7
100
AcDbCircle
 10
2347.1406711871
 20
180.3483881866
 30
0.0
 40
4.1
100
AcDbArc
 50
118.8426038474
 51
150.6871187969
  0
ARC
  5
515
330
1B
100
AcDbEntity
 67
     1
  8
3_ALL_AXES
  6
Continuous
 62
     7
100
AcDbCircle
 10
2347.1406711871
 20
180.3483881866
 30
0.0
 40
4.1
100
AcDbArc
 50
150.6871187969
 51
153.1366968699
  0
ARC
  5
516
330
1B
100
AcDbEntity
 67
     1
  8
3_ALL_AXES
  6
Continuous
 62
     7
100
AcDbCircle
 10
2347.4255567818
 20
180.3483881866
 30
0.0
 40
4.1
100
AcDbArc
 50
26.8633031301
 51
63.6069742257
  0
LINE
  5
517
330
1B
100
AcDbEntity
 67
     1
  8
3_ALL_AXES
  6
Continuous
 62
     7
100
AcDbLine
 10
2343.4831139844
 20
182.2010282783
 30
0.0
 11
2343.4831139844
 21
181.8210282783
 31
0.0
  0
LINE
  5
518
330
1B
100
AcDbEntity
 67
     1
  8
3_ALL_AXES
  6
Continuous
 62
     7
100
AcDbLine
 10
2351.0831139844
 20
182.2010282783
 30
0.0
 11
2351.0831139844
 21
181.8210282783
 31
0.0
  0
LINE
  5
519
330
1B
100
AcDbEntity
 67
     1
  8
7_ALL_FEATURES
  6
Continuous
 62
     7
100
AcDbLine
 10
2345.2831139844
 20
180.8210282783
 30
0.0
 11
2345.2831139844
 21
180.1710282783
 31
0.0
  0
LINE
  5
51A
330
1B
100
AcDbEntity
 67
     1
  8
7_ALL_FEATURES
  6
Continuous
 62
     7
100
AcDbLine
 10
2349.2831139844
 20
180.8210282783
 30
0.0
 11
2349.2831139844
 21
180.1710282783
 31
0.0
  0
ARC
  5
51B
330
1B
100
AcDbEntity
 67
     1
  8
3_ALL_AXES
  6
Continuous
 62
     7
100
AcDbCircle
 10
2347.1406711871
 20
180.3483881866
 30
0.0
 40
4.1
100
AcDbArc
 50
150.6871187969
 51
153.1366968699
  0
ARC
  5
51C
330
1B
100
AcDbEntity
 67
     1
  8
3_ALL_AXES
  6
Continuous
 62
     7
100
AcDbCircle
 10
2347.1406711871
 20
180.3483881866
 30
0.0
 40
4.1
100
AcDbArc
 50
118.8426038474
 51
150.6871187969
  0
ARC
  5
51D
330
1B
100
AcDbEntity
 67
     1
  8
3_ALL_AXES
  6
Continuous
 62
     7
100
AcDbCircle
 10
2347.1406711871
 20
180.3483881866
 30
0.0
 40
4.1
100
AcDbArc
 50
116.3930257743
 51
118.8426038474
  0
LINE
  5
51E
330
1B
100
AcDbEntity
 67
     1
  8
3_ALL_AXES
  6
Continuous
 62
     7
100
AcDbLine
 10
2345.3181139844
 20
184.0210282783
 30
0.0
 11
2345.8397383115
 21
184.0210282783
 31
0.0
  0
LINE
  5
51F
330
1B
100
AcDbEntity
 67
     1
  8
3_ALL_AXES
  6
Continuous
 62
     7
100
AcDbLine
 10
2345.8397383115
 20
184.0210282783
 30
0.0
 11
2346.5614261479
 21
184.0210282783
 31
0.0
  0
LINE
  5
520
330
1B
100
AcDbEntity
 67
     1
  8
3_ALL_AXES
  6
Continuous
 62
     7
100
AcDbLine
 10
2346.5614261479
 20
184.0210282783
 30
0.0
 11
2348.0048018209
 21
184.0210282783
 31
0.0
  0
LINE
  5
521
330
1B
100
AcDbEntity
 67
     1
  8
3_ALL_AXES
  6
Continuous
 62
     7
100
AcDbLine
 10
2348.0048018209
 20
184.0210282783
 30
0.0
 11
2348.7264896574
 21
184.0210282783
 31
0.0
  0
LINE
  5
522
330
1B
100
AcDbEntity
 67
     1
  8
3_ALL_AXES
  6
Continuous
 62
     7
100
AcDbLine
 10
2348.7264896574
 20
184.0210282783
 30
0.0
 11
2349.2481139844
 21
184.0210282783
 31
0.0
  0
LINE
  5
523
330
1B
100
AcDbEntity
 67
     1
  8
3_ALL_AXES
  6
Continuous
 62
     7
100
AcDbLine
 10
2343.4831139844
 20
181.8210282783
 30
0.0
 11
2343.4831139844
 21
182.2010282783
 31
0.0
  0
LINE
  5
524
330
1B
100
AcDbEntity
 67
     1
  8
3_ALL_AXES
  6
Continuous
 62
     7
100
AcDbLine
 10
2351.0331139844
 20
181.8210282783
 30
0.0
 11
2351.0831139844
 21
181.8210282783
 31
0.0
  0
LINE
  5
525
330
1B
100
AcDbEntity
 67
     1
  8
3_ALL_AXES
  6
Continuous
 62
     7
100
AcDbLine
 10
2345.2831139844
 20
180.1710282783
 30
0.0
 11
2345.2831139844
 21
180.8210282783
 31
0.0
  0
ARC
  5
526
330
1B
100
AcDbEntity
 67
     1
  8
3_ALL_AXES
  6
Continuous
 62
     7
100
AcDbCircle
 10
2347.4255567818
 20
180.3483881866
 30
0.0
 40
4.1
100
AcDbArc
 50
26.8633031301
 51
63.6069742257
  0
LINE
  5
527
330
1B
100
AcDbEntity
 67
     1
  8
3_ALL_AXES
  6
Continuous
 62
     7
100
AcDbLine
 10
2351.0831139844
 20
181.8210282783
 30
0.0
 11
2351.0831139844
 21
182.2010282783
 31
0.0
  0
LINE
  5
528
330
1B
100
AcDbEntity
 67
     1
  8
3_ALL_AXES
  6
Continuous
 62
     7
100
AcDbLine
 10
2349.2831139844
 20
180.1710282783
 30
0.0
 11
2349.2831139844
 21
180.8210282783
 31
0.0
  0
LINE
  5
529
330
1B
100
AcDbEntity
 67
     1
  8
3_ALL_AXES
  6
Continuous
 62
     7
100
AcDbLine
 10
2343.4831139844
 20
182.2010282783
 30
0.0
 11
2351.0831139844
 21
182.2010282783
 31
0.0
  0
ARC
  5
52A
330
1B
100
AcDbEntity
 67
     1
  8
3_ALL_AXES
  6
Continuous
 62
     7
100
AcDbCircle
 10
2347.4255567818
 20
139.5936683699
 30
0.0
 40
4.1
100
AcDbArc
 50
296.3930257743
 51
298.8426038474001
  0
ARC
  5
52B
330
1B
100
AcDbEntity
 67
     1
  8
3_ALL_AXES
  6
Continuous
 62
     7
100
AcDbCircle
 10
2347.4255567818
 20
139.5936683699
 30
0.0
 40
4.1
100
AcDbArc
 50
298.8426038474001
 51
330.6871187969
  0
ARC
  5
52C
330
1B
100
AcDbEntity
 67
     1
  8
3_ALL_AXES
  6
Continuous
 62
     7
100
AcDbCircle
 10
2347.4255567818
 20
139.5936683699
 30
0.0
 40
4.1
100
AcDbArc
 50
330.6871187969
 51
333.1366968699
  0
ARC
  5
52D
330
1B
100
AcDbEntity
 67
     1
  8
3_ALL_AXES
  6
Continuous
 62
     7
100
AcDbCircle
 10
2347.1406711871
 20
139.5936683699
 30
0.0
 40
4.1
100
AcDbArc
 50
206.8633031301
 51
243.6069742257
  0
LINE
  5
52E
330
1B
100
AcDbEntity
 67
     1
  8
3_ALL_AXES
  6
Continuous
 62
     7
100
AcDbLine
 10
2351.0831139844
 20
137.7410282783
 30
0.0
 11
2351.0831139844
 21
138.1210282783
 31
0.0
  0
LINE
  5
52F
330
1B
100
AcDbEntity
 67
     1
  8
3_ALL_AXES
  6
Continuous
 62
     7
100
AcDbLine
 10
2343.4831139844
 20
137.7410282783
 30
0.0
 11
2343.4831139844
 21
138.1210282783
 31
0.0
  0
LINE
  5
530
330
1B
100
AcDbEntity
 67
     1
  8
7_ALL_FEATURES
  6
Continuous
 62
     7
100
AcDbLine
 10
2349.2831139844
 20
139.1210282783
 30
0.0
 11
2349.2831139844
 21
139.7710282783
 31
0.0
  0
LINE
  5
531
330
1B
100
AcDbEntity
 67
     1
  8
7_ALL_FEATURES
  6
Continuous
 62
     7
100
AcDbLine
 10
2345.2831139844
 20
139.1210282783
 30
0.0
 11
2345.2831139844
 21
139.7710282783
 31
0.0
  0
ARC
  5
532
330
1B
100
AcDbEntity
 67
     1
  8
3_ALL_AXES
  6
Continuous
 62
     7
100
AcDbCircle
 10
2347.4255567818
 20
139.5936683699
 30
0.0
 40
4.1
100
AcDbArc
 50
330.6871187969
 51
333.1366968699
  0
ARC
  5
533
330
1B
100
AcDbEntity
 67
     1
  8
3_ALL_AXES
  6
Continuous
 62
     7
100
AcDbCircle
 10
2347.4255567818
 20
139.5936683699
 30
0.0
 40
4.1
100
AcDbArc
 50
298.8426038474001
 51
330.6871187969
  0
ARC
  5
534
330
1B
100
AcDbEntity
 67
     1
  8
3_ALL_AXES
  6
Continuous
 62
     7
100
AcDbCircle
 10
2347.4255567818
 20
139.5936683699
 30
0.0
 40
4.1
100
AcDbArc
 50
296.3930257743
 51
298.8426038474001
  0
LINE
  5
535
330
1B
100
AcDbEntity
 67
     1
  8
3_ALL_AXES
  6
Continuous
 62
     7
100
AcDbLine
 10
2349.2481139844
 20
135.9210282783
 30
0.0
 11
2348.7264896574
 21
135.9210282783
 31
0.0
  0
LINE
  5
536
330
1B
100
AcDbEntity
 67
     1
  8
3_ALL_AXES
  6
Continuous
 62
     7
100
AcDbLine
 10
2348.7264896574
 20
135.9210282783
 30
0.0
 11
2348.0048018209
 21
135.9210282783
 31
0.0
  0
LINE
  5
537
330
1B
100
AcDbEntity
 67
     1
  8
3_ALL_AXES
  6
Continuous
 62
     7
100
AcDbLine
 10
2348.0048018209
 20
135.9210282783
 30
0.0
 11
2346.5614261479
 21
135.9210282783
 31
0.0
  0
LINE
  5
538
330
1B
100
AcDbEntity
 67
     1
  8
3_ALL_AXES
  6
Continuous
 62
     7
100
AcDbLine
 10
2346.5614261479
 20
135.9210282783
 30
0.0
 11
2345.8397383115
 21
135.9210282783
 31
0.0
  0
LINE
  5
539
330
1B
100
AcDbEntity
 67
     1
  8
3_ALL_AXES
  6
Continuous
 62
     7
100
AcDbLine
 10
2345.8397383115
 20
135.9210282783
 30
0.0
 11
2345.3181139844
 21
135.9210282783
 31
0.0
  0
LINE
  5
53A
330
1B
100
AcDbEntity
 67
     1
  8
3_ALL_AXES
  6
Continuous
 62
     7
100
AcDbLine
 10
2351.0831139844
 20
138.1210282783
 30
0.0
 11
2351.0831139844
 21
137.7410282783
 31
0.0
  0
LINE
  5
53B
330
1B
100
AcDbEntity
 67
     1
  8
3_ALL_AXES
  6
Continuous
 62
     7
100
AcDbLine
 10
2351.0831139844
 20
138.1210282783
 30
0.0
 11
2351.0331139844
 21
138.1210282783
 31
0.0
  0
LINE
  5
53C
330
1B
100
AcDbEntity
 67
     1
  8
3_ALL_AXES
  6
Continuous
 62
     7
100
AcDbLine
 10
2349.2831139844
 20
139.7710282783
 30
0.0
 11
2349.2831139844
 21
139.1210282783
 31
0.0
  0
ARC
  5
53D
330
1B
100
AcDbEntity
 67
     1
  8
3_ALL_AXES
  6
Continuous
 62
     7
100
AcDbCircle
 10
2347.1406711871
 20
139.5936683699
 30
0.0
 40
4.1
100
AcDbArc
 50
206.8633031301
 51
243.6069742257
  0
LINE
  5
53E
330
1B
100
AcDbEntity
 67
     1
  8
3_ALL_AXES
  6
Continuous
 62
     7
100
AcDbLine
 10
2343.4831139844
 20
138.1210282783
 30
0.0
 11
2343.4831139844
 21
137.7410282783
 31
0.0
  0
LINE
  5
53F
330
1B
100
AcDbEntity
 67
     1
  8
3_ALL_AXES
  6
Continuous
 62
     7
100
AcDbLine
 10
2345.2831139844
 20
139.7710282783
 30
0.0
 11
2345.2831139844
 21
139.1210282783
 31
0.0
  0
LINE
  5
540
330
1B
100
AcDbEntity
 67
     1
  8
3_ALL_AXES
  6
Continuous
 62
     7
100
AcDbLine
 10
2351.0831139844
 20
137.7410282783
 30
0.0
 11
2343.4831139844
 21
137.7410282783
 31
0.0
  0
LINE
  5
541
330
1B
100
AcDbEntity
 67
     1
  8
7_ALL_FEATURES
  6
Continuous
 62
     7
100
AcDbLine
 10
4339.5331139844
 20
180.8210282782
 30
0.0
 11
4339.5331139844
 21
181.8210282782
 31
0.0
  0
LINE
  5
542
330
1B
100
AcDbEntity
 67
     1
  8
7_ALL_FEATURES
  6
Continuous
 62
     7
100
AcDbLine
 10
4339.5331139844
 20
139.1210282782
 30
0.0
 11
4339.5331139844
 21
138.1210282782
 31
0.0
  0
LINE
  5
543
330
1B
100
AcDbEntity
 67
     1
  8
7_ALL_FEATURES
  6
Continuous
 62
     7
100
AcDbLine
 10
4340.5331139844
 20
181.8210282782
 30
0.0
 11
4350.0331139844
 21
181.8210282783
 31
0.0
  0
ARC
  5
544
330
1B
100
AcDbEntity
 67
     1
  8
7_ALL_FEATURES
  6
Continuous
 62
     7
100
AcDbCircle
 10
4350.0331139844
 20
179.8210282783
 30
0.0
 40
2.0
100
AcDbArc
 50
10.0792345963
 51
13.9331436567
  0
ARC
  5
545
330
1B
100
AcDbEntity
 67
     1
  8
7_ALL_FEATURES
  6
Continuous
 62
     7
100
AcDbCircle
 10
4350.0331139844
 20
179.8210282783
 30
0.0
 40
2.0
100
AcDbArc
 50
13.9331436567
 51
90.0
  0
LINE
  5
546
330
1B
100
AcDbEntity
 67
     1
  8
7_ALL_FEATURES
  6
Continuous
 62
     7
100
AcDbLine
 10
4340.5331139844
 20
138.1210282782
 30
0.0
 11
4339.5331139844
 21
138.1210282782
 31
0.0
  0
LINE
  5
547
330
1B
100
AcDbEntity
 67
     1
  8
7_ALL_FEATURES
  6
Continuous
 62
     7
100
AcDbLine
 10
4350.0331139844
 20
138.1210282783
 30
0.0
 11
4340.5331139844
 21
138.1210282782
 31
0.0
  0
ARC
  5
548
330
1B
100
AcDbEntity
 67
     1
  8
7_ALL_FEATURES
  6
Continuous
 62
     7
100
AcDbCircle
 10
4350.0331139844
 20
140.1210282783
 30
0.0
 40
2.0
100
AcDbArc
 50
270.0
 51
346.0668563433
  0
ARC
  5
549
330
1B
100
AcDbEntity
 67
     1
  8
7_ALL_FEATURES
  6
Continuous
 62
     7
100
AcDbCircle
 10
4350.0331139844
 20
140.1210282783
 30
0.0
 40
2.0
100
AcDbArc
 50
346.0668563434
 51
349.9207654037
  0
LINE
  5
54A
330
1B
100
AcDbEntity
 67
     1
  8
7_ALL_FEATURES
  6
Continuous
 62
     7
100
AcDbLine
 10
4352.0331139844
 20
180.1710282783
 30
0.0
 11
4351.0331139844
 21
180.1710282783
 31
0.0
  0
LINE
  5
54B
330
1B
100
AcDbEntity
 67
     1
  8
7_ALL_FEATURES
  6
Continuous
 62
     7
100
AcDbLine
 10
4352.0331139844
 20
139.7710282783
 30
0.0
 11
4351.0331139844
 21
139.7710282783
 31
0.0
  0
LINE
  5
54C
330
1B
100
AcDbEntity
 67
     1
  8
7_ALL_FEATURES
  6
Continuous
 62
     7
100
AcDbLine
 10
4352.0331139844
 20
140.2710282783
 30
0.0
 11
4352.0331139844
 21
139.7710282783
 31
0.0
  0
LINE
  5
54D
330
1B
100
AcDbEntity
 67
     1
  8
7_ALL_FEATURES
  6
Continuous
 62
     7
100
AcDbLine
 10
4352.0331139844
 20
140.2710282783
 30
0.0
 11
4352.0331139844
 21
179.6710282783
 31
0.0
  0
LINE
  5
54E
330
1B
100
AcDbEntity
 67
     1
  8
7_ALL_FEATURES
  6
Continuous
 62
     7
100
AcDbLine
 10
4352.0331139844
 20
180.1710282783
 30
0.0
 11
4352.0331139844
 21
179.6710282783
 31
0.0
  0
LINE
  5
54F
330
1B
100
AcDbEntity
 67
     1
  8
7_ALL_FEATURES
  6
Continuous
 62
     7
100
AcDbLine
 10
4339.5331139844
 20
180.8210282782
 30
0.0
 11
4339.5331139844
 21
181.8210282782
 31
0.0
  0
LINE
  5
550
330
1B
100
AcDbEntity
 67
     1
  8
7_ALL_FEATURES
  6
Continuous
 62
     7
100
AcDbLine
 10
4339.5331139844
 20
181.8210282782
 30
0.0
 11
4340.5331139844
 21
181.8210282782
 31
0.0
  0
LINE
  5
551
330
1B
100
AcDbEntity
 67
     1
  8
7_ALL_FEATURES
  6
Continuous
 62
     7
100
AcDbLine
 10
4352.0331139844
 20
139.7710282783
 30
0.0
 11
4351.0331139844
 21
139.7710282783
 31
0.0
  0
LINE
  5
552
330
1B
100
AcDbEntity
 67
     1
  8
7_ALL_FEATURES
  6
Continuous
 62
     9
100
AcDbLine
 10
4351.9742686953
 20
139.6394492209
 30
0.0
 11
4351.4438982335
 21
139.7710282783
 31
0.0
  0
LINE
  5
553
330
1B
100
AcDbEntity
 67
     1
  8
7_ALL_FEATURES
  6
Continuous
 62
     9
100
AcDbLine
 10
4350.0331139844
 20
138.1210282783
 30
0.0
 11
4350.0331139844
 21
139.1210282783
 31
0.0
  0
LINE
  5
554
330
1B
100
AcDbEntity
 67
     1
  8
7_ALL_FEATURES
  6
Continuous
 62
     9
100
AcDbLine
 10
4352.0331139844
 20
179.6710282783
 30
0.0
 11
4351.0331139844
 21
179.6710282783
 31
0.0
  0
LINE
  5
555
330
1B
100
AcDbEntity
 67
     1
  8
7_ALL_FEATURES
  6
Continuous
 62
     9
100
AcDbLine
 10
4352.0331139844
 20
140.2710282783
 30
0.0
 11
4351.0331139844
 21
140.2710282783
 31
0.0
  0
LINE
  5
556
330
1B
100
AcDbEntity
 67
     1
  8
7_ALL_FEATURES
  6
Continuous
 62
     9
100
AcDbLine
 10
4340.5331139844
 20
180.8210282782
 30
0.0
 11
4340.5331139844
 21
181.8210282782
 31
0.0
  0
LINE
  5
557
330
1B
100
AcDbEntity
 67
     1
  8
7_ALL_FEATURES
  6
Continuous
 62
     9
100
AcDbLine
 10
4350.0331139844
 20
181.8210282783
 30
0.0
 11
4350.0331139844
 21
180.8210282783
 31
0.0
  0
LINE
  5
558
330
1B
100
AcDbEntity
 67
     1
  8
7_ALL_FEATURES
  6
Continuous
 62
     9
100
AcDbLine
 10
4351.9742686953
 20
180.3026073356
 30
0.0
 11
4351.4438982336
 21
180.1710282783
 31
0.0
  0
LINE
  5
559
330
1B
100
AcDbEntity
 67
     1
  8
7_ALL_FEATURES
  6
Continuous
 62
     9
100
AcDbLine
 10
4340.5331139844
 20
139.1210282782
 30
0.0
 11
4340.5331139844
 21
138.1210282782
 31
0.0
  0
LINE
  5
55A
330
1B
100
AcDbEntity
 67
     1
  8
7_ALL_FEATURES
  6
Continuous
 62
     7
100
AcDbLine
 10
2351.0331139844
 20
139.1210282783
 30
0.0
 11
2351.0331139844
 21
138.1210282783
 31
0.0
  0
LINE
  5
55B
330
1B
100
AcDbEntity
 67
     1
  8
7_ALL_FEATURES
  6
Continuous
 62
     7
100
AcDbLine
 10
2351.0331139844
 20
180.8210282783
 30
0.0
 11
2351.0331139844
 21
181.8210282783
 31
0.0
  0
LINE
  5
55C
330
1B
100
AcDbEntity
 67
     1
  8
7_ALL_FEATURES
  6
Continuous
 62
     7
100
AcDbLine
 10
2350.0331139844
 20
138.1210282783
 30
0.0
 11
2340.5331139844
 21
138.1210282783
 31
0.0
  0
ARC
  5
55D
330
1B
100
AcDbEntity
 67
     1
  8
7_ALL_FEATURES
  6
Continuous
 62
     7
100
AcDbCircle
 10
2340.5331139844
 20
140.1210282783
 30
0.0
 40
2.0
100
AcDbArc
 50
190.0792345963
 51
193.9331436567
  0
ARC
  5
55E
330
1B
100
AcDbEntity
 67
     1
  8
7_ALL_FEATURES
  6
Continuous
 62
     7
100
AcDbCircle
 10
2340.5331139844
 20
140.1210282783
 30
0.0
 40
2.0
100
AcDbArc
 50
193.9331436567
 51
270.0
  0
LINE
  5
55F
330
1B
100
AcDbEntity
 67
     1
  8
7_ALL_FEATURES
  6
Continuous
 62
     7
100
AcDbLine
 10
2350.0331139844
 20
181.8210282783
 30
0.0
 11
2351.0331139844
 21
181.8210282783
 31
0.0
  0
LINE
  5
560
330
1B
100
AcDbEntity
 67
     1
  8
7_ALL_FEATURES
  6
Continuous
 62
     7
100
AcDbLine
 10
2340.5331139844
 20
181.8210282783
 30
0.0
 11
2350.0331139844
 21
181.8210282783
 31
0.0
  0
ARC
  5
561
330
1B
100
AcDbEntity
 67
     1
  8
7_ALL_FEATURES
  6
Continuous
 62
     7
100
AcDbCircle
 10
2340.5331139844
 20
179.8210282783
 30
0.0
 40
2.0
100
AcDbArc
 50
90.0
 51
166.0668563433
  0
ARC
  5
562
330
1B
100
AcDbEntity
 67
     1
  8
7_ALL_FEATURES
  6
Continuous
 62
     7
100
AcDbCircle
 10
2340.5331139844
 20
179.8210282783
 30
0.0
 40
2.0
100
AcDbArc
 50
166.0668563434
 51
169.9207654037
  0
LINE
  5
563
330
1B
100
AcDbEntity
 67
     1
  8
7_ALL_FEATURES
  6
Continuous
 62
     7
100
AcDbLine
 10
2338.5331139844
 20
139.7710282783
 30
0.0
 11
2339.5331139844
 21
139.7710282783
 31
0.0
  0
LINE
  5
564
330
1B
100
AcDbEntity
 67
     1
  8
7_ALL_FEATURES
  6
Continuous
 62
     7
100
AcDbLine
 10
2338.5331139844
 20
180.1710282783
 30
0.0
 11
2339.5331139844
 21
180.1710282783
 31
0.0
  0
LINE
  5
565
330
1B
100
AcDbEntity
 67
     1
  8
7_ALL_FEATURES
  6
Continuous
 62
     7
100
AcDbLine
 10
2338.5331139844
 20
179.6710282782
 30
0.0
 11
2338.5331139844
 21
180.1710282782
 31
0.0
  0
LINE
  5
566
330
1B
100
AcDbEntity
 67
     1
  8
7_ALL_FEATURES
  6
Continuous
 62
     7
100
AcDbLine
 10
2338.5331139844
 20
179.6710282783
 30
0.0
 11
2338.5331139844
 21
140.2710282783
 31
0.0
  0
LINE
  5
567
330
1B
100
AcDbEntity
 67
     1
  8
7_ALL_FEATURES
  6
Continuous
 62
     7
100
AcDbLine
 10
2338.5331139844
 20
139.7710282782
 30
0.0
 11
2338.5331139844
 21
140.2710282782
 31
0.0
  0
LINE
  5
568
330
1B
100
AcDbEntity
 67
     1
  8
7_ALL_FEATURES
  6
Continuous
 62
     7
100
AcDbLine
 10
2351.0331139844
 20
139.1210282783
 30
0.0
 11
2351.0331139844
 21
138.1210282783
 31
0.0
  0
LINE
  5
569
330
1B
100
AcDbEntity
 67
     1
  8
7_ALL_FEATURES
  6
Continuous
 62
     7
100
AcDbLine
 10
2351.0331139844
 20
138.1210282783
 30
0.0
 11
2350.0331139844
 21
138.1210282783
 31
0.0
  0
LINE
  5
56A
330
1B
100
AcDbEntity
 67
     1
  8
7_ALL_FEATURES
  6
Continuous
 62
     7
100
AcDbLine
 10
2338.5331139844
 20
180.1710282783
 30
0.0
 11
2339.5331139844
 21
180.1710282783
 31
0.0
  0
LINE
  5
56B
330
1B
100
AcDbEntity
 67
     1
  8
7_ALL_FEATURES
  6
Continuous
 62
     9
100
AcDbLine
 10
2338.5919592736
 20
180.3026073356
 30
0.0
 11
2339.1223297353
 21
180.1710282783
 31
0.0
  0
LINE
  5
56C
330
1B
100
AcDbEntity
 67
     1
  8
7_ALL_FEATURES
  6
Continuous
 62
     9
100
AcDbLine
 10
2340.5331139844
 20
181.8210282783
 30
0.0
 11
2340.5331139844
 21
180.8210282783
 31
0.0
  0
LINE
  5
56D
330
1B
100
AcDbEntity
 67
     1
  8
7_ALL_FEATURES
  6
Continuous
 62
     9
100
AcDbLine
 10
2338.5331139844
 20
140.2710282783
 30
0.0
 11
2339.5331139844
 21
140.2710282783
 31
0.0
  0
LINE
  5
56E
330
1B
100
AcDbEntity
 67
     1
  8
7_ALL_FEATURES
  6
Continuous
 62
     9
100
AcDbLine
 10
2338.5331139844
 20
179.6710282783
 30
0.0
 11
2339.5331139844
 21
179.6710282783
 31
0.0
  0
LINE
  5
56F
330
1B
100
AcDbEntity
 67
     1
  8
7_ALL_FEATURES
  6
Continuous
 62
     9
100
AcDbLine
 10
2350.0331139844
 20
139.1210282783
 30
0.0
 11
2350.0331139844
 21
138.1210282783
 31
0.0
  0
LINE
  5
570
330
1B
100
AcDbEntity
 67
     1
  8
7_ALL_FEATURES
  6
Continuous
 62
     9
100
AcDbLine
 10
2340.5331139844
 20
138.1210282783
 30
0.0
 11
2340.5331139844
 21
139.1210282783
 31
0.0
  0
LINE
  5
571
330
1B
100
AcDbEntity
 67
     1
  8
7_ALL_FEATURES
  6
Continuous
 62
     9
100
AcDbLine
 10
2338.5919592736
 20
139.6394492209
 30
0.0
 11
2339.1223297353
 21
139.7710282783
 31
0.0
  0
LINE
  5
572
330
1B
100
AcDbEntity
 67
     1
  8
7_ALL_FEATURES
  6
Continuous
 62
     9
100
AcDbLine
 10
2350.0331139844
 20
180.8210282783
 30
0.0
 11
2350.0331139844
 21
181.8210282783
 31
0.0
  0
LINE
  5
573
330
1B
100
AcDbEntity
 67
     1
  8
7_ALL_FEATURES
  6
Continuous
 62
     7
100
AcDbLine
 10
4351.0331139844
 20
139.7710282783
 30
0.0
 11
2339.5331139844
 21
139.7710282783
 31
0.0
  0
LINE
  5
574
330
1B
100
AcDbEntity
 67
     1
  8
7_ALL_FEATURES
  6
Continuous
 62
     7
100
AcDbLine
 10
4351.0331139844
 20
180.1710282783
 30
0.0
 11
2339.5331139844
 21
180.1710282783
 31
0.0
  0
LINE
  5
575
330
1B
100
AcDbEntity
 67
     1
  8
7_ALL_FEATURES
  6
Continuous
 62
     7
100
AcDbLine
 10
2339.5331139844
 20
139.7710282783
 30
0.0
 11
2339.5331139844
 21
140.2710282783
 31
0.0
  0
LINE
  5
576
330
1B
100
AcDbEntity
 67
     1
  8
7_ALL_FEATURES
  6
Continuous
 62
     7
100
AcDbLine
 10
2339.5331139844
 20
140.2710282783
 30
0.0
 11
2339.5331139844
 21
140.9710282783
 31
0.0
  0
LINE
  5
577
330
1B
100
AcDbEntity
 67
     1
  8
7_ALL_FEATURES
  6
Continuous
 62
     7
100
AcDbLine
 10
4351.0331139844
 20
139.7710282783
 30
0.0
 11
4351.0331139844
 21
140.2710282783
 31
0.0
  0
LINE
  5
578
330
1B
100
AcDbEntity
 67
     1
  8
7_ALL_FEATURES
  6
Continuous
 62
     7
100
AcDbLine
 10
4351.0331139844
 20
140.2710282783
 30
0.0
 11
4351.0331139844
 21
140.9710282783
 31
0.0
  0
LINE
  5
579
330
1B
100
AcDbEntity
 67
     1
  8
7_ALL_FEATURES
  6
Continuous
 62
     7
100
AcDbLine
 10
4351.0331139844
 20
178.9710282783
 30
0.0
 11
4351.0331139844
 21
179.6710282783
 31
0.0
  0
LINE
  5
57A
330
1B
100
AcDbEntity
 67
     1
  8
7_ALL_FEATURES
  6
Continuous
 62
     7
100
AcDbLine
 10
4351.0331139844
 20
179.6710282783
 30
0.0
 11
4351.0331139844
 21
180.1710282783
 31
0.0
  0
LINE
  5
57B
330
1B
100
AcDbEntity
 67
     1
  8
7_ALL_FEATURES
  6
Continuous
 62
     7
100
AcDbLine
 10
2339.5331139844
 20
178.9710282783
 30
0.0
 11
2339.5331139844
 21
179.6710282783
 31
0.0
  0
LINE
  5
57C
330
1B
100
AcDbEntity
 67
     1
  8
7_ALL_FEATURES
  6
Continuous
 62
     7
100
AcDbLine
 10
2339.5331139844
 20
179.6710282783
 30
0.0
 11
2339.5331139844
 21
180.1710282783
 31
0.0
  0
LINE
  5
57D
330
1B
100
AcDbEntity
 67
     1
  8
7_ALL_FEATURES
  6
Continuous
 62
     3
100
AcDbLine
 10
4351.0331139844
 20
140.2710282783
 30
0.0
 11
4351.0331139844
 21
140.9710282783
 31
0.0
  0
LINE
  5
57E
330
1B
100
AcDbEntity
 67
     1
  8
7_ALL_FEATURES
  6
Continuous
 62
     3
100
AcDbLine
 10
4351.0331139844
 20
140.9710282783
 30
0.0
 11
4351.0331139844
 21
178.9710282783
 31
0.0
  0
LINE
  5
57F
330
1B
100
AcDbEntity
 67
     1
  8
7_ALL_FEATURES
  6
Continuous
 62
     3
100
AcDbLine
 10
4351.0331139844
 20
178.9710282783
 30
0.0
 11
4351.0331139844
 21
179.6710282783
 31
0.0
  0
LINE
  5
580
330
1B
100
AcDbEntity
 67
     1
  8
7_ALL_FEATURES
  6
Continuous
 62
     3
100
AcDbLine
 10
4340.5331139844
 20
180.8210282782
 30
0.0
 11
4339.5331139844
 21
180.8210282782
 31
0.0
  0
LINE
  5
581
330
1B
100
AcDbEntity
 67
     1
  8
7_ALL_FEATURES
  6
Continuous
 62
     3
100
AcDbLine
 10
4340.5331139844
 20
180.8210282782
 30
0.0
 11
4350.0331139844
 21
180.8210282783
 31
0.0
  0
ARC
  5
582
330
1B
100
AcDbEntity
 67
     1
  8
7_ALL_FEATURES
  6
Continuous
 62
     3
100
AcDbCircle
 10
4350.0331139844
 20
179.8210282783
 30
0.0
 40
1.0
100
AcDbArc
 50
20.489042011
 51
90.0
  0
LINE
  5
583
330
1B
100
AcDbEntity
 67
     1
  8
7_ALL_FEATURES
  6
Continuous
 62
     3
100
AcDbLine
 10
4339.5331139844
 20
139.1210282782
 30
0.0
 11
4340.5331139844
 21
139.1210282782
 31
0.0
  0
LINE
  5
584
330
1B
100
AcDbEntity
 67
     1
  8
7_ALL_FEATURES
  6
Continuous
 62
     3
100
AcDbLine
 10
4350.0331139844
 20
139.1210282783
 30
0.0
 11
4340.5331139844
 21
139.1210282782
 31
0.0
  0
ARC
  5
585
330
1B
100
AcDbEntity
 67
     1
  8
7_ALL_FEATURES
  6
Continuous
 62
     3
100
AcDbCircle
 10
4350.0331139844
 20
140.1210282783
 30
0.0
 40
1.0
100
AcDbArc
 50
270.0
 51
339.510957989
  0
LINE
  5
586
330
1B
100
AcDbEntity
 67
     1
  8
7_ALL_FEATURES
  6
Continuous
 62
     3
100
AcDbLine
 10
2339.5331139844
 20
179.6710282783
 30
0.0
 11
2339.5331139844
 21
178.9710282783
 31
0.0
  0
LINE
  5
587
330
1B
100
AcDbEntity
 67
     1
  8
7_ALL_FEATURES
  6
Continuous
 62
     3
100
AcDbLine
 10
2339.5331139844
 20
178.9710282783
 30
0.0
 11
2339.5331139844
 21
140.9710282783
 31
0.0
  0
LINE
  5
588
330
1B
100
AcDbEntity
 67
     1
  8
7_ALL_FEATURES
  6
Continuous
 62
     3
100
AcDbLine
 10
2339.5331139844
 20
140.9710282783
 30
0.0
 11
2339.5331139844
 21
140.2710282783
 31
0.0
  0
LINE
  5
589
330
1B
100
AcDbEntity
 67
     1
  8
7_ALL_FEATURES
  6
Continuous
 62
     3
100
AcDbLine
 10
2350.0331139844
 20
139.1210282783
 30
0.0
 11
2351.0331139844
 21
139.1210282783
 31
0.0
  0
LINE
  5
58A
330
1B
100
AcDbEntity
 67
     1
  8
7_ALL_FEATURES
  6
Continuous
 62
     3
100
AcDbLine
 10
2350.0331139844
 20
139.1210282783
 30
0.0
 11
2340.5331139844
 21
139.1210282783
 31
0.0
  0
ARC
  5
58B
330
1B
100
AcDbEntity
 67
     1
  8
7_ALL_FEATURES
  6
Continuous
 62
     3
100
AcDbCircle
 10
2340.5331139844
 20
140.1210282783
 30
0.0
 40
1.0
100
AcDbArc
 50
200.4890420111
 51
270.0
  0
LINE
  5
58C
330
1B
100
AcDbEntity
 67
     1
  8
7_ALL_FEATURES
  6
Continuous
 62
     3
100
AcDbLine
 10
2351.0331139844
 20
180.8210282783
 30
0.0
 11
2350.0331139844
 21
180.8210282783
 31
0.0
  0
LINE
  5
58D
330
1B
100
AcDbEntity
 67
     1
  8
7_ALL_FEATURES
  6
Continuous
 62
     3
100
AcDbLine
 10
2340.5331139844
 20
180.8210282783
 30
0.0
 11
2350.0331139844
 21
180.8210282783
 31
0.0
  0
ARC
  5
58E
330
1B
100
AcDbEntity
 67
     1
  8
7_ALL_FEATURES
  6
Continuous
 62
     3
100
AcDbCircle
 10
2340.5331139844
 20
179.8210282783
 30
0.0
 40
1.0
100
AcDbArc
 50
90.0
 51
159.510957989
  0
ARC
  5
58F
330
1B
100
AcDbEntity
 67
     1
  8
02___PRT_ALL_AXES
  6
Continuous
 62
     3
100
AcDbCircle
 10
2383.7831139844
 20
124.9710282783
 30
0.0
 40
3.25
100
AcDbArc
 50
180.0
 51
360.0
  0
ARC
  5
590
330
1B
100
AcDbEntity
 67
     1
  8
02___PRT_ALL_AXES
  6
Continuous
 62
     3
100
AcDbCircle
 10
2383.7831139844
 20
124.9710282783
 30
0.0
 40
3.25
100
AcDbArc
 50
0.0
 51
180.0
  0
ARC
  5
591
330
1B
100
AcDbEntity
 67
     1
  8
02___PRT_ALL_AXES
  6
Continuous
 62
     3
100
AcDbCircle
 10
2383.7831139844
 20
194.9710282783
 30
0.0
 40
3.25
100
AcDbArc
 50
180.0
 51
360.0
  0
ARC
  5
592
330
1B
100
AcDbEntity
 67
     1
  8
02___PRT_ALL_AXES
  6
Continuous
 62
     3
100
AcDbCircle
 10
2383.7831139844
 20
194.9710282783
 30
0.0
 40
3.25
100
AcDbArc
 50
0.0
 51
180.0
  0
LINE
  5
593
330
1B
100
AcDbEntity
 67
     1
  8
02___PRT_ALL_AXES
  6
Continuous
 62
     3
100
AcDbLine
 10
2397.0331139844
 20
121.9710282783
 30
0.0
 11
2397.0331139844
 21
127.9710282783
 31
0.0
  0
ARC
  5
594
330
1B
100
AcDbEntity
 67
     1
  8
02___PRT_ALL_AXES
  6
Continuous
 62
     3
100
AcDbCircle
 10
2400.2831139844
 20
121.9710282783
 30
0.0
 40
3.25
100
AcDbArc
 50
180.0
 51
360.0
  0
LINE
  5
595
330
1B
100
AcDbEntity
 67
     1
  8
02___PRT_ALL_AXES
  6
Continuous
 62
     3
100
AcDbLine
 10
2403.5331139844
 20
127.9710282783
 30
0.0
 11
2403.5331139844
 21
121.9710282783
 31
0.0
  0
ARC
  5
596
330
1B
100
AcDbEntity
 67
     1
  8
02___PRT_ALL_AXES
  6
Continuous
 62
     3
100
AcDbCircle
 10
2400.2831139844
 20
127.9710282783
 30
0.0
 40
3.25
100
AcDbArc
 50
0.0
 51
180.0
  0
ARC
  5
597
330
1B
100
AcDbEntity
 67
     1
  8
02___PRT_ALL_AXES
  6
Continuous
 62
     3
100
AcDbCircle
 10
2400.2831139844
 20
197.9710282783
 30
0.0
 40
3.25
100
AcDbArc
 50
0.0
 51
180.0
  0
LINE
  5
598
330
1B
100
AcDbEntity
 67
     1
  8
02___PRT_ALL_AXES
  6
Continuous
 62
     3
100
AcDbLine
 10
2397.0331139844
 20
191.9710282783
 30
0.0
 11
2397.0331139844
 21
197.9710282783
 31
0.0
  0
ARC
  5
599
330
1B
100
AcDbEntity
 67
     1
  8
02___PRT_ALL_AXES
  6
Continuous
 62
     3
100
AcDbCircle
 10
2400.2831139844
 20
191.9710282783
 30
0.0
 40
3.25
100
AcDbArc
 50
180.0
 51
360.0
  0
LINE
  5
59A
330
1B
100
AcDbEntity
 67
     1
  8
02___PRT_ALL_AXES
  6
Continuous
 62
     3
100
AcDbLine
 10
2403.5331139844
 20
197.9710282783
 30
0.0
 11
2403.5331139844
 21
191.9710282783
 31
0.0
  0
ARC
  5
59B
330
1B
100
AcDbEntity
 67
     1
  8
02___PRT_ALL_AXES
  6
Continuous
 62
     3
100
AcDbCircle
 10
2416.7831139844
 20
124.9710282783
 30
0.0
 40
3.25
100
AcDbArc
 50
180.0
 51
360.0
  0
ARC
  5
59C
330
1B
100
AcDbEntity
 67
     1
  8
02___PRT_ALL_AXES
  6
Continuous
 62
     3
100
AcDbCircle
 10
2416.7831139844
 20
124.9710282783
 30
0.0
 40
3.25
100
AcDbArc
 50
0.0
 51
180.0
  0
ARC
  5
59D
330
1B
100
AcDbEntity
 67
     1
  8
02___PRT_ALL_AXES
  6
Continuous
 62
     3
100
AcDbCircle
 10
2416.7831139844
 20
194.9710282783
 30
0.0
 40
3.25
100
AcDbArc
 50
180.0
 51
360.0
  0
ARC
  5
59E
330
1B
100
AcDbEntity
 67
     1
  8
02___PRT_ALL_AXES
  6
Continuous
 62
     3
100
AcDbCircle
 10
2416.7831139844
 20
194.9710282783
 30
0.0
 40
3.25
100
AcDbArc
 50
0.0
 51
180.0
  0
ARC
  5
59F
330
1B
100
AcDbEntity
 67
     1
  8
7_ALL_FEATURES
  6
Continuous
 62
     3
100
AcDbCircle
 10
2415.2831139844
 20
125.4710282783
 30
0.0
 40
10.0
100
AcDbArc
 50
270.0
 51
360.0
  0
LINE
  5
5A0
330
1B
100
AcDbEntity
 67
     1
  8
7_ALL_FEATURES
  6
Continuous
 62
     3
100
AcDbLine
 10
2385.2831139844
 20
115.4710282783
 30
0.0
 11
2415.2831139844
 21
115.4710282783
 31
0.0
  0
ARC
  5
5A1
330
1B
100
AcDbEntity
 67
     1
  8
7_ALL_FEATURES
  6
Continuous
 62
     3
100
AcDbCircle
 10
2385.2831139844
 20
125.4710282783
 30
0.0
 40
10.0
100
AcDbArc
 50
180.0
 51
270.0
  0
LINE
  5
5A2
330
1B
100
AcDbEntity
 67
     1
  8
7_ALL_FEATURES
  6
Continuous
 62
     3
100
AcDbLine
 10
2375.2831139844
 20
194.4710282783
 30
0.0
 11
2375.2831139844
 21
180.1710282783
 31
0.0
  0
LINE
  5
5A3
330
1B
100
AcDbEntity
 67
     1
  8
7_ALL_FEATURES
  6
Continuous
 62
     3
100
AcDbLine
 10
2375.2831139844
 20
139.7710282783
 30
0.0
 11
2375.2831139844
 21
125.4710282783
 31
0.0
  0
ARC
  5
5A4
330
1B
100
AcDbEntity
 67
     1
  8
7_ALL_FEATURES
  6
Continuous
 62
     3
100
AcDbCircle
 10
2385.2831139844
 20
194.4710282783
 30
0.0
 40
10.0
100
AcDbArc
 50
90.0
 51
180.0
  0
LINE
  5
5A5
330
1B
100
AcDbEntity
 67
     1
  8
7_ALL_FEATURES
  6
Continuous
 62
     3
100
AcDbLine
 10
2415.2831139844
 20
204.4710282783
 30
0.0
 11
2385.2831139844
 21
204.4710282783
 31
0.0
  0
ARC
  5
5A6
330
1B
100
AcDbEntity
 67
     1
  8
7_ALL_FEATURES
  6
Continuous
 62
     3
100
AcDbCircle
 10
2415.2831139844
 20
194.4710282783
 30
0.0
 40
10.0
100
AcDbArc
 50
0.0
 51
90.0
  0
LINE
  5
5A7
330
1B
100
AcDbEntity
 67
     1
  8
7_ALL_FEATURES
  6
Continuous
 62
     3
100
AcDbLine
 10
2425.2831139844
 20
125.4710282783
 30
0.0
 11
2425.2831139844
 21
139.7710282783
 31
0.0
  0
LINE
  5
5A8
330
1B
100
AcDbEntity
 67
     1
  8
7_ALL_FEATURES
  6
Continuous
 62
     3
100
AcDbLine
 10
2425.2831139844
 20
180.1710282783
 30
0.0
 11
2425.2831139844
 21
194.4710282783
 31
0.0
  0
ARC
  5
5A9
330
1B
100
AcDbEntity
 67
     1
  8
02___PRT_ALL_AXES
  6
Continuous
 62
     3
100
AcDbCircle
 10
3013.7831139844
 20
124.9710282783
 30
0.0
 40
3.25
100
AcDbArc
 50
180.0
 51
360.0
  0
ARC
  5
5AA
330
1B
100
AcDbEntity
 67
     1
  8
02___PRT_ALL_AXES
  6
Continuous
 62
     3
100
AcDbCircle
 10
3013.7831139844
 20
124.9710282783
 30
0.0
 40
3.25
100
AcDbArc
 50
0.0
 51
180.0
  0
ARC
  5
5AB
330
1B
100
AcDbEntity
 67
     1
  8
02___PRT_ALL_AXES
  6
Continuous
 62
     3
100
AcDbCircle
 10
3013.7831139844
 20
194.9710282783
 30
0.0
 40
3.25
100
AcDbArc
 50
180.0
 51
360.0
  0
ARC
  5
5AC
330
1B
100
AcDbEntity
 67
     1
  8
02___PRT_ALL_AXES
  6
Continuous
 62
     3
100
AcDbCircle
 10
3013.7831139844
 20
194.9710282783
 30
0.0
 40
3.25
100
AcDbArc
 50
0.0
 51
180.0
  0
LINE
  5
5AD
330
1B
100
AcDbEntity
 67
     1
  8
02___PRT_ALL_AXES
  6
Continuous
 62
     3
100
AcDbLine
 10
3027.0331139844
 20
121.9710282783
 30
0.0
 11
3027.0331139844
 21
127.9710282783
 31
0.0
  0
ARC
  5
5AE
330
1B
100
AcDbEntity
 67
     1
  8
02___PRT_ALL_AXES
  6
Continuous
 62
     3
100
AcDbCircle
 10
3030.2831139844
 20
121.9710282783
 30
0.0
 40
3.25
100
AcDbArc
 50
180.0
 51
360.0
  0
LINE
  5
5AF
330
1B
100
AcDbEntity
 67
     1
  8
02___PRT_ALL_AXES
  6
Continuous
 62
     3
100
AcDbLine
 10
3033.5331139844
 20
127.9710282783
 30
0.0
 11
3033.5331139844
 21
121.9710282783
 31
0.0
  0
ARC
  5
5B0
330
1B
100
AcDbEntity
 67
     1
  8
02___PRT_ALL_AXES
  6
Continuous
 62
     3
100
AcDbCircle
 10
3030.2831139844
 20
127.9710282783
 30
0.0
 40
3.25
100
AcDbArc
 50
0.0
 51
180.0
  0
ARC
  5
5B1
330
1B
100
AcDbEntity
 67
     1
  8
02___PRT_ALL_AXES
  6
Continuous
 62
     3
100
AcDbCircle
 10
3030.2831139844
 20
197.9710282783
 30
0.0
 40
3.25
100
AcDbArc
 50
0.0
 51
180.0
  0
LINE
  5
5B2
330
1B
100
AcDbEntity
 67
     1
  8
02___PRT_ALL_AXES
  6
Continuous
 62
     3
100
AcDbLine
 10
3027.0331139844
 20
191.9710282783
 30
0.0
 11
3027.0331139844
 21
197.9710282783
 31
0.0
  0
ARC
  5
5B3
330
1B
100
AcDbEntity
 67
     1
  8
02___PRT_ALL_AXES
  6
Continuous
 62
     3
100
AcDbCircle
 10
3030.2831139844
 20
191.9710282783
 30
0.0
 40
3.25
100
AcDbArc
 50
180.0
 51
360.0
  0
LINE
  5
5B4
330
1B
100
AcDbEntity
 67
     1
  8
02___PRT_ALL_AXES
  6
Continuous
 62
     3
100
AcDbLine
 10
3033.5331139844
 20
197.9710282783
 30
0.0
 11
3033.5331139844
 21
191.9710282783
 31
0.0
  0
ARC
  5
5B5
330
1B
100
AcDbEntity
 67
     1
  8
02___PRT_ALL_AXES
  6
Continuous
 62
     3
100
AcDbCircle
 10
3046.7831139844
 20
124.9710282783
 30
0.0
 40
3.25
100
AcDbArc
 50
180.0
 51
360.0
  0
ARC
  5
5B6
330
1B
100
AcDbEntity
 67
     1
  8
02___PRT_ALL_AXES
  6
Continuous
 62
     3
100
AcDbCircle
 10
3046.7831139844
 20
124.9710282783
 30
0.0
 40
3.25
100
AcDbArc
 50
0.0
 51
180.0
  0
ARC
  5
5B7
330
1B
100
AcDbEntity
 67
     1
  8
02___PRT_ALL_AXES
  6
Continuous
 62
     3
100
AcDbCircle
 10
3046.7831139844
 20
194.9710282783
 30
0.0
 40
3.25
100
AcDbArc
 50
180.0
 51
360.0
  0
ARC
  5
5B8
330
1B
100
AcDbEntity
 67
     1
  8
02___PRT_ALL_AXES
  6
Continuous
 62
     3
100
AcDbCircle
 10
3046.7831139844
 20
194.9710282783
 30
0.0
 40
3.25
100
AcDbArc
 50
0.0
 51
180.0
  0
ARC
  5
5B9
330
1B
100
AcDbEntity
 67
     1
  8
7_ALL_FEATURES
  6
Continuous
 62
     3
100
AcDbCircle
 10
3045.2831139844
 20
125.4710282783
 30
0.0
 40
10.0
100
AcDbArc
 50
270.0
 51
360.0
  0
LINE
  5
5BA
330
1B
100
AcDbEntity
 67
     1
  8
7_ALL_FEATURES
  6
Continuous
 62
     3
100
AcDbLine
 10
3015.2831139844
 20
115.4710282783
 30
0.0
 11
3045.2831139844
 21
115.4710282783
 31
0.0
  0
ARC
  5
5BB
330
1B
100
AcDbEntity
 67
     1
  8
7_ALL_FEATURES
  6
Continuous
 62
     3
100
AcDbCircle
 10
3015.2831139844
 20
125.4710282783
 30
0.0
 40
10.0
100
AcDbArc
 50
180.0
 51
270.0
  0
LINE
  5
5BC
330
1B
100
AcDbEntity
 67
     1
  8
7_ALL_FEATURES
  6
Continuous
 62
     3
100
AcDbLine
 10
3005.2831139844
 20
194.4710282783
 30
0.0
 11
3005.2831139844
 21
180.1710282783
 31
0.0
  0
LINE
  5
5BD
330
1B
100
AcDbEntity
 67
     1
  8
7_ALL_FEATURES
  6
Continuous
 62
     3
100
AcDbLine
 10
3005.2831139844
 20
139.7710282783
 30
0.0
 11
3005.2831139844
 21
125.4710282783
 31
0.0
  0
ARC
  5
5BE
330
1B
100
AcDbEntity
 67
     1
  8
7_ALL_FEATURES
  6
Continuous
 62
     3
100
AcDbCircle
 10
3015.2831139844
 20
194.4710282783
 30
0.0
 40
10.0
100
AcDbArc
 50
90.0
 51
180.0
  0
LINE
  5
5BF
330
1B
100
AcDbEntity
 67
     1
  8
7_ALL_FEATURES
  6
Continuous
 62
     3
100
AcDbLine
 10
3045.2831139844
 20
204.4710282783
 30
0.0
 11
3015.2831139844
 21
204.4710282783
 31
0.0
  0
ARC
  5
5C0
330
1B
100
AcDbEntity
 67
     1
  8
7_ALL_FEATURES
  6
Continuous
 62
     3
100
AcDbCircle
 10
3045.2831139844
 20
194.4710282783
 30
0.0
 40
10.0
100
AcDbArc
 50
0.0
 51
90.0
  0
LINE
  5
5C1
330
1B
100
AcDbEntity
 67
     1
  8
7_ALL_FEATURES
  6
Continuous
 62
     3
100
AcDbLine
 10
3055.2831139844
 20
125.4710282783
 30
0.0
 11
3055.2831139844
 21
139.7710282783
 31
0.0
  0
LINE
  5
5C2
330
1B
100
AcDbEntity
 67
     1
  8
7_ALL_FEATURES
  6
Continuous
 62
     3
100
AcDbLine
 10
3055.2831139844
 20
180.1710282783
 30
0.0
 11
3055.2831139844
 21
194.4710282783
 31
0.0
  0
ARC
  5
5C3
330
1B
100
AcDbEntity
 67
     1
  8
02___PRT_ALL_AXES
  6
Continuous
 62
     3
100
AcDbCircle
 10
3643.7831139844
 20
124.9710282783
 30
0.0
 40
3.25
100
AcDbArc
 50
180.0
 51
360.0
  0
ARC
  5
5C4
330
1B
100
AcDbEntity
 67
     1
  8
02___PRT_ALL_AXES
  6
Continuous
 62
     3
100
AcDbCircle
 10
3643.7831139844
 20
124.9710282783
 30
0.0
 40
3.25
100
AcDbArc
 50
0.0
 51
180.0
  0
ARC
  5
5C5
330
1B
100
AcDbEntity
 67
     1
  8
02___PRT_ALL_AXES
  6
Continuous
 62
     3
100
AcDbCircle
 10
3643.7831139844
 20
194.9710282783
 30
0.0
 40
3.25
100
AcDbArc
 50
180.0
 51
360.0
  0
ARC
  5
5C6
330
1B
100
AcDbEntity
 67
     1
  8
02___PRT_ALL_AXES
  6
Continuous
 62
     3
100
AcDbCircle
 10
3643.7831139844
 20
194.9710282783
 30
0.0
 40
3.25
100
AcDbArc
 50
0.0
 51
180.0
  0
LINE
  5
5C7
330
1B
100
AcDbEntity
 67
     1
  8
02___PRT_ALL_AXES
  6
Continuous
 62
     3
100
AcDbLine
 10
3657.0331139844
 20
121.9710282783
 30
0.0
 11
3657.0331139844
 21
127.9710282783
 31
0.0
  0
ARC
  5
5C8
330
1B
100
AcDbEntity
 67
     1
  8
02___PRT_ALL_AXES
  6
Continuous
 62
     3
100
AcDbCircle
 10
3660.2831139844
 20
121.9710282783
 30
0.0
 40
3.25
100
AcDbArc
 50
180.0
 51
360.0
  0
LINE
  5
5C9
330
1B
100
AcDbEntity
 67
     1
  8
02___PRT_ALL_AXES
  6
Continuous
 62
     3
100
AcDbLine
 10
3663.5331139844
 20
127.9710282783
 30
0.0
 11
3663.5331139844
 21
121.9710282783
 31
0.0
  0
ARC
  5
5CA
330
1B
100
AcDbEntity
 67
     1
  8
02___PRT_ALL_AXES
  6
Continuous
 62
     3
100
AcDbCircle
 10
3660.2831139844
 20
127.9710282783
 30
0.0
 40
3.25
100
AcDbArc
 50
0.0
 51
180.0
  0
ARC
  5
5CB
330
1B
100
AcDbEntity
 67
     1
  8
02___PRT_ALL_AXES
  6
Continuous
 62
     3
100
AcDbCircle
 10
3660.2831139844
 20
197.9710282783
 30
0.0
 40
3.25
100
AcDbArc
 50
0.0
 51
180.0
  0
LINE
  5
5CC
330
1B
100
AcDbEntity
 67
     1
  8
02___PRT_ALL_AXES
  6
Continuous
 62
     3
100
AcDbLine
 10
3657.0331139844
 20
191.9710282783
 30
0.0
 11
3657.0331139844
 21
197.9710282783
 31
0.0
  0
ARC
  5
5CD
330
1B
100
AcDbEntity
 67
     1
  8
02___PRT_ALL_AXES
  6
Continuous
 62
     3
100
AcDbCircle
 10
3660.2831139844
 20
191.9710282783
 30
0.0
 40
3.25
100
AcDbArc
 50
180.0
 51
360.0
  0
LINE
  5
5CE
330
1B
100
AcDbEntity
 67
     1
  8
02___PRT_ALL_AXES
  6
Continuous
 62
     3
100
AcDbLine
 10
3663.5331139844
 20
197.9710282783
 30
0.0
 11
3663.5331139844
 21
191.9710282783
 31
0.0
  0
ARC
  5
5CF
330
1B
100
AcDbEntity
 67
     1
  8
02___PRT_ALL_AXES
  6
Continuous
 62
     3
100
AcDbCircle
 10
3676.7831139844
 20
124.9710282783
 30
0.0
 40
3.25
100
AcDbArc
 50
180.0
 51
360.0
  0
ARC
  5
5D0
330
1B
100
AcDbEntity
 67
     1
  8
02___PRT_ALL_AXES
  6
Continuous
 62
     3
100
AcDbCircle
 10
3676.7831139844
 20
124.9710282783
 30
0.0
 40
3.25
100
AcDbArc
 50
0.0
 51
180.0
  0
ARC
  5
5D1
330
1B
100
AcDbEntity
 67
     1
  8
02___PRT_ALL_AXES
  6
Continuous
 62
     3
100
AcDbCircle
 10
3676.7831139844
 20
194.9710282783
 30
0.0
 40
3.25
100
AcDbArc
 50
180.0
 51
360.0
  0
ARC
  5
5D2
330
1B
100
AcDbEntity
 67
     1
  8
02___PRT_ALL_AXES
  6
Continuous
 62
     3
100
AcDbCircle
 10
3676.7831139844
 20
194.9710282783
 30
0.0
 40
3.25
100
AcDbArc
 50
0.0
 51
180.0
  0
ARC
  5
5D3
330
1B
100
AcDbEntity
 67
     1
  8
7_ALL_FEATURES
  6
Continuous
 62
     3
100
AcDbCircle
 10
3675.2831139844
 20
125.4710282783
 30
0.0
 40
10.0
100
AcDbArc
 50
270.0
 51
360.0
  0
LINE
  5
5D4
330
1B
100
AcDbEntity
 67
     1
  8
7_ALL_FEATURES
  6
Continuous
 62
     3
100
AcDbLine
 10
3645.2831139844
 20
115.4710282783
 30
0.0
 11
3675.2831139844
 21
115.4710282783
 31
0.0
  0
ARC
  5
5D5
330
1B
100
AcDbEntity
 67
     1
  8
7_ALL_FEATURES
  6
Continuous
 62
     3
100
AcDbCircle
 10
3645.2831139844
 20
125.4710282783
 30
0.0
 40
10.0
100
AcDbArc
 50
180.0
 51
270.0
  0
LINE
  5
5D6
330
1B
100
AcDbEntity
 67
     1
  8
7_ALL_FEATURES
  6
Continuous
 62
     3
100
AcDbLine
 10
3635.2831139844
 20
194.4710282783
 30
0.0
 11
3635.2831139844
 21
180.1710282783
 31
0.0
  0
LINE
  5
5D7
330
1B
100
AcDbEntity
 67
     1
  8
7_ALL_FEATURES
  6
Continuous
 62
     3
100
AcDbLine
 10
3635.2831139844
 20
139.7710282783
 30
0.0
 11
3635.2831139844
 21
125.4710282783
 31
0.0
  0
ARC
  5
5D8
330
1B
100
AcDbEntity
 67
     1
  8
7_ALL_FEATURES
  6
Continuous
 62
     3
100
AcDbCircle
 10
3645.2831139844
 20
194.4710282783
 30
0.0
 40
10.0
100
AcDbArc
 50
90.0
 51
180.0
  0
LINE
  5
5D9
330
1B
100
AcDbEntity
 67
     1
  8
7_ALL_FEATURES
  6
Continuous
 62
     3
100
AcDbLine
 10
3675.2831139844
 20
204.4710282783
 30
0.0
 11
3645.2831139844
 21
204.4710282783
 31
0.0
  0
ARC
  5
5DA
330
1B
100
AcDbEntity
 67
     1
  8
7_ALL_FEATURES
  6
Continuous
 62
     3
100
AcDbCircle
 10
3675.2831139844
 20
194.4710282783
 30
0.0
 40
10.0
100
AcDbArc
 50
0.0
 51
90.0
  0
LINE
  5
5DB
330
1B
100
AcDbEntity
 67
     1
  8
7_ALL_FEATURES
  6
Continuous
 62
     3
100
AcDbLine
 10
3685.2831139844
 20
125.4710282783
 30
0.0
 11
3685.2831139844
 21
139.7710282783
 31
0.0
  0
LINE
  5
5DC
330
1B
100
AcDbEntity
 67
     1
  8
7_ALL_FEATURES
  6
Continuous
 62
     3
100
AcDbLine
 10
3685.2831139844
 20
180.1710282783
 30
0.0
 11
3685.2831139844
 21
194.4710282783
 31
0.0
  0
ARC
  5
5DD
330
1B
100
AcDbEntity
 67
     1
  8
02___PRT_ALL_AXES
  6
Continuous
 62
     3
100
AcDbCircle
 10
4273.7831139844
 20
124.9710282783
 30
0.0
 40
3.25
100
AcDbArc
 50
180.0
 51
360.0
  0
ARC
  5
5DE
330
1B
100
AcDbEntity
 67
     1
  8
02___PRT_ALL_AXES
  6
Continuous
 62
     3
100
AcDbCircle
 10
4273.7831139844
 20
124.9710282783
 30
0.0
 40
3.25
100
AcDbArc
 50
0.0
 51
180.0
  0
ARC
  5
5DF
330
1B
100
AcDbEntity
 67
     1
  8
02___PRT_ALL_AXES
  6
Continuous
 62
     3
100
AcDbCircle
 10
4273.7831139844
 20
194.9710282783
 30
0.0
 40
3.25
100
AcDbArc
 50
180.0
 51
360.0
  0
ARC
  5
5E0
330
1B
100
AcDbEntity
 67
     1
  8
02___PRT_ALL_AXES
  6
Continuous
 62
     3
100
AcDbCircle
 10
4273.7831139844
 20
194.9710282783
 30
0.0
 40
3.25
100
AcDbArc
 50
0.0
 51
180.0
  0
LINE
  5
5E1
330
1B
100
AcDbEntity
 67
     1
  8
02___PRT_ALL_AXES
  6
Continuous
 62
     3
100
AcDbLine
 10
4287.0331139844
 20
121.9710282783
 30
0.0
 11
4287.0331139844
 21
127.9710282783
 31
0.0
  0
ARC
  5
5E2
330
1B
100
AcDbEntity
 67
     1
  8
02___PRT_ALL_AXES
  6
Continuous
 62
     3
100
AcDbCircle
 10
4290.2831139844
 20
121.9710282783
 30
0.0
 40
3.25
100
AcDbArc
 50
180.0
 51
360.0
  0
LINE
  5
5E3
330
1B
100
AcDbEntity
 67
     1
  8
02___PRT_ALL_AXES
  6
Continuous
 62
     3
100
AcDbLine
 10
4293.5331139844
 20
127.9710282783
 30
0.0
 11
4293.5331139844
 21
121.9710282783
 31
0.0
  0
ARC
  5
5E4
330
1B
100
AcDbEntity
 67
     1
  8
02___PRT_ALL_AXES
  6
Continuous
 62
     3
100
AcDbCircle
 10
4290.2831139844
 20
127.9710282783
 30
0.0
 40
3.25
100
AcDbArc
 50
0.0
 51
180.0
  0
ARC
  5
5E5
330
1B
100
AcDbEntity
 67
     1
  8
02___PRT_ALL_AXES
  6
Continuous
 62
     3
100
AcDbCircle
 10
4290.2831139844
 20
197.9710282783
 30
0.0
 40
3.25
100
AcDbArc
 50
0.0
 51
180.0
  0
LINE
  5
5E6
330
1B
100
AcDbEntity
 67
     1
  8
02___PRT_ALL_AXES
  6
Continuous
 62
     3
100
AcDbLine
 10
4287.0331139844
 20
191.9710282783
 30
0.0
 11
4287.0331139844
 21
197.9710282783
 31
0.0
  0
ARC
  5
5E7
330
1B
100
AcDbEntity
 67
     1
  8
02___PRT_ALL_AXES
  6
Continuous
 62
     3
100
AcDbCircle
 10
4290.2831139844
 20
191.9710282783
 30
0.0
 40
3.25
100
AcDbArc
 50
180.0
 51
360.0
  0
LINE
  5
5E8
330
1B
100
AcDbEntity
 67
     1
  8
02___PRT_ALL_AXES
  6
Continuous
 62
     3
100
AcDbLine
 10
4293.5331139844
 20
197.9710282783
 30
0.0
 11
4293.5331139844
 21
191.9710282783
 31
0.0
  0
ARC
  5
5E9
330
1B
100
AcDbEntity
 67
     1
  8
02___PRT_ALL_AXES
  6
Continuous
 62
     3
100
AcDbCircle
 10
4306.7831139844
 20
124.9710282783
 30
0.0
 40
3.25
100
AcDbArc
 50
180.0
 51
360.0
  0
ARC
  5
5EA
330
1B
100
AcDbEntity
 67
     1
  8
02___PRT_ALL_AXES
  6
Continuous
 62
     3
100
AcDbCircle
 10
4306.7831139844
 20
124.9710282783
 30
0.0
 40
3.25
100
AcDbArc
 50
0.0
 51
180.0
  0
ARC
  5
5EB
330
1B
100
AcDbEntity
 67
     1
  8
02___PRT_ALL_AXES
  6
Continuous
 62
     3
100
AcDbCircle
 10
4306.7831139844
 20
194.9710282783
 30
0.0
 40
3.25
100
AcDbArc
 50
180.0
 51
360.0
  0
ARC
  5
5EC
330
1B
100
AcDbEntity
 67
     1
  8
02___PRT_ALL_AXES
  6
Continuous
 62
     3
100
AcDbCircle
 10
4306.7831139844
 20
194.9710282783
 30
0.0
 40
3.25
100
AcDbArc
 50
0.0
 51
180.0
  0
ARC
  5
5ED
330
1B
100
AcDbEntity
 67
     1
  8
7_ALL_FEATURES
  6
Continuous
 62
     3
100
AcDbCircle
 10
4305.2831139844
 20
125.4710282783
 30
0.0
 40
10.0
100
AcDbArc
 50
270.0
 51
360.0
  0
LINE
  5
5EE
330
1B
100
AcDbEntity
 67
     1
  8
7_ALL_FEATURES
  6
Continuous
 62
     3
100
AcDbLine
 10
4275.2831139844
 20
115.4710282783
 30
0.0
 11
4305.2831139844
 21
115.4710282783
 31
0.0
  0
ARC
  5
5EF
330
1B
100
AcDbEntity
 67
     1
  8
7_ALL_FEATURES
  6
Continuous
 62
     3
100
AcDbCircle
 10
4275.2831139844
 20
125.4710282783
 30
0.0
 40
10.0
100
AcDbArc
 50
180.0
 51
270.0
  0
LINE
  5
5F0
330
1B
100
AcDbEntity
 67
     1
  8
7_ALL_FEATURES
  6
Continuous
 62
     3
100
AcDbLine
 10
4265.2831139844
 20
194.4710282783
 30
0.0
 11
4265.2831139844
 21
180.1710282783
 31
0.0
  0
LINE
  5
5F1
330
1B
100
AcDbEntity
 67
     1
  8
7_ALL_FEATURES
  6
Continuous
 62
     3
100
AcDbLine
 10
4265.2831139844
 20
139.7710282783
 30
0.0
 11
4265.2831139844
 21
125.4710282783
 31
0.0
  0
ARC
  5
5F2
330
1B
100
AcDbEntity
 67
     1
  8
7_ALL_FEATURES
  6
Continuous
 62
     3
100
AcDbCircle
 10
4275.2831139844
 20
194.4710282783
 30
0.0
 40
10.0
100
AcDbArc
 50
90.0
 51
180.0
  0
LINE
  5
5F3
330
1B
100
AcDbEntity
 67
     1
  8
7_ALL_FEATURES
  6
Continuous
 62
     3
100
AcDbLine
 10
4305.2831139844
 20
204.4710282783
 30
0.0
 11
4275.2831139844
 21
204.4710282783
 31
0.0
  0
ARC
  5
5F4
330
1B
100
AcDbEntity
 67
     1
  8
7_ALL_FEATURES
  6
Continuous
 62
     3
100
AcDbCircle
 10
4305.2831139844
 20
194.4710282783
 30
0.0
 40
10.0
100
AcDbArc
 50
0.0
 51
90.0
  0
LINE
  5
5F5
330
1B
100
AcDbEntity
 67
     1
  8
7_ALL_FEATURES
  6
Continuous
 62
     3
100
AcDbLine
 10
4315.2831139844
 20
125.4710282783
 30
0.0
 11
4315.2831139844
 21
139.7710282783
 31
0.0
  0
LINE
  5
5F6
330
1B
100
AcDbEntity
 67
     1
  8
7_ALL_FEATURES
  6
Continuous
 62
     3
100
AcDbLine
 10
4315.2831139844
 20
180.1710282783
 30
0.0
 11
4315.2831139844
 21
194.4710282783
 31
0.0
  0
LINE
  5
5F7
330
1B
100
AcDbEntity
 67
     1
  8
7_ALL_FEATURES
  6
Continuous
 62
     3
100
AcDbLine
 10
2340.2831139844
 20
177.8498994067
 30
0.0
 11
2340.2831139844
 21
142.0921571498
 31
0.0
  0
LINE
  5
5F8
330
1B
100
AcDbEntity
 67
     1
  8
7_ALL_FEATURES
  6
Continuous
 62
     3
100
AcDbLine
 10
4350.2831139844
 20
142.0921571498
 30
0.0
 11
4350.2831139844
 21
177.8498994067
 31
0.0
  0
ARC
  5
5F9
330
1B
100
AcDbEntity
 67
     1
  8
02___PRT_ALL_AXES
  6
Continuous
 62
     3
100
AcDbCircle
 10
4340.2831139844
 20
159.9710282783
 30
0.0
 40
2.5
100
AcDbArc
 50
90.0
 51
270.0
  0
ARC
  5
5FA
330
1B
100
AcDbEntity
 67
     1
  8
02___PRT_ALL_AXES
  6
Continuous
 62
     3
100
AcDbCircle
 10
4340.2831139844
 20
159.9710282783
 30
0.0
 40
2.5
100
AcDbArc
 50
270.0
 51
90.0
  0
ARC
  5
5FB
330
1B
100
AcDbEntity
 67
     1
  8
02___PRT_ALL_AXES
  6
Continuous
 62
     3
100
AcDbCircle
 10
2350.2831139844
 20
159.9710282783
 30
0.0
 40
2.5
100
AcDbArc
 50
270.0
 51
90.0
  0
ARC
  5
5FC
330
1B
100
AcDbEntity
 67
     1
  8
02___PRT_ALL_AXES
  6
Continuous
 62
     3
100
AcDbCircle
 10
2350.2831139844
 20
159.9710282783
 30
0.0
 40
2.5
100
AcDbArc
 50
90.0
 51
270.0
  0
LINE
  5
5FD
330
1B
100
AcDbEntity
 67
     1
  8
7_ALL_FEATURES
  6
Continuous
 62
     3
100
AcDbLine
 10
2340.2831139844
 20
140.9710282783
 30
0.0
 11
2340.2831139844
 21
141.6119638879
 31
0.0
  0
LINE
  5
5FE
330
1B
100
AcDbEntity
 67
     1
  8
7_ALL_FEATURES
  6
Continuous
 62
     3
100
AcDbLine
 10
2340.2831139844
 20
141.6119638879
 30
0.0
 11
2340.2831139844
 21
141.8814879782
 31
0.0
  0
LINE
  5
5FF
330
1B
100
AcDbEntity
 67
     1
  8
7_ALL_FEATURES
  6
Continuous
 62
     3
100
AcDbLine
 10
2340.2831139844
 20
141.8814879782
 30
0.0
 11
2340.2831139844
 21
142.0921571498
 31
0.0
  0
LINE
  5
600
330
1B
100
AcDbEntity
 67
     1
  8
7_ALL_FEATURES
  6
Continuous
 62
     3
100
AcDbLine
 10
4350.2831139844
 20
140.9710282783
 30
0.0
 11
4350.2831139844
 21
141.1223148975
 31
0.0
  0
LINE
  5
601
330
1B
100
AcDbEntity
 67
     1
  8
7_ALL_FEATURES
  6
Continuous
 62
     3
100
AcDbLine
 10
4350.2831139844
 20
141.1223148975
 30
0.0
 11
4350.2831139844
 21
141.6119638879
 31
0.0
  0
LINE
  5
602
330
1B
100
AcDbEntity
 67
     1
  8
7_ALL_FEATURES
  6
Continuous
 62
     3
100
AcDbLine
 10
4350.2831139844
 20
141.6119638879
 30
0.0
 11
4350.2831139844
 21
141.8814879782
 31
0.0
  0
LINE
  5
603
330
1B
100
AcDbEntity
 67
     1
  8
7_ALL_FEATURES
  6
Continuous
 62
     3
100
AcDbLine
 10
4350.2831139844
 20
141.8814879782
 30
0.0
 11
4350.2831139844
 21
142.0921571498
 31
0.0
  0
LINE
  5
604
330
1B
100
AcDbEntity
 67
     1
  8
7_ALL_FEATURES
  6
Continuous
 62
     3
100
AcDbLine
 10
4350.2831139844
 20
178.9710282783
 30
0.0
 11
4350.2831139844
 21
178.3300926686
 31
0.0
  0
LINE
  5
605
330
1B
100
AcDbEntity
 67
     1
  8
7_ALL_FEATURES
  6
Continuous
 62
     3
100
AcDbLine
 10
4350.2831139844
 20
178.3300926686
 30
0.0
 11
4350.2831139844
 21
178.0605685783
 31
0.0
  0
LINE
  5
606
330
1B
100
AcDbEntity
 67
     1
  8
7_ALL_FEATURES
  6
Continuous
 62
     3
100
AcDbLine
 10
4350.2831139844
 20
178.0605685783
 30
0.0
 11
4350.2831139844
 21
177.8498994067
 31
0.0
  0
LINE
  5
607
330
1B
100
AcDbEntity
 67
     1
  8
7_ALL_FEATURES
  6
Continuous
 62
     3
100
AcDbLine
 10
2340.2831139844
 20
178.9710282783
 30
0.0
 11
2340.2831139844
 21
178.819741659
 31
0.0
  0
LINE
  5
608
330
1B
100
AcDbEntity
 67
     1
  8
7_ALL_FEATURES
  6
Continuous
 62
     3
100
AcDbLine
 10
2340.2831139844
 20
178.819741659
 30
0.0
 11
2340.2831139844
 21
178.3300926686
 31
0.0
  0
LINE
  5
609
330
1B
100
AcDbEntity
 67
     1
  8
7_ALL_FEATURES
  6
Continuous
 62
     3
100
AcDbLine
 10
2340.2831139844
 20
178.3300926686
 30
0.0
 11
2340.2831139844
 21
178.0605685783
 31
0.0
  0
LINE
  5
60A
330
1B
100
AcDbEntity
 67
     1
  8
7_ALL_FEATURES
  6
Continuous
 62
     3
100
AcDbLine
 10
2340.2831139844
 20
178.0605685783
 30
0.0
 11
2340.2831139844
 21
177.8498994067
 31
0.0
  0
LINE
  5
60B
330
1B
100
AcDbEntity
 67
     1
  8
7_ALL_FEATURES
  6
Continuous
 62
     9
100
AcDbLine
 10
4350.2831139844
 20
142.0921571498
 30
0.0
 11
2340.2831139844
 21
142.0921571498
 31
0.0
  0
LINE
  5
60C
330
1B
100
AcDbEntity
 67
     1
  8
7_ALL_FEATURES
  6
Continuous
 62
     9
100
AcDbLine
 10
2340.2831139844
 20
177.8498994067
 30
0.0
 11
4350.2831139844
 21
177.8498994067
 31
0.0
  0
LINE
  5
60D
330
1B
100
AcDbEntity
 67
     1
  8
7_ALL_FEATURES
  6
Continuous
 62
     3
100
AcDbLine
 10
4351.0331139844
 20
178.9710282783
 30
0.0
 11
4350.2831139844
 21
178.9710282783
 31
0.0
  0
LINE
  5
60E
330
1B
100
AcDbEntity
 67
     1
  8
7_ALL_FEATURES
  6
Continuous
 62
     3
100
AcDbLine
 10
4350.2831139844
 20
178.9710282783
 30
0.0
 11
2340.2831139844
 21
178.9710282783
 31
0.0
  0
LINE
  5
60F
330
1B
100
AcDbEntity
 67
     1
  8
7_ALL_FEATURES
  6
Continuous
 62
     3
100
AcDbLine
 10
2340.2831139844
 20
178.9710282783
 30
0.0
 11
2339.5331139844
 21
178.9710282783
 31
0.0
  0
LINE
  5
610
330
1B
100
AcDbEntity
 67
     1
  8
7_ALL_FEATURES
  6
Continuous
 62
     3
100
AcDbLine
 10
4351.0331139844
 20
140.9710282783
 30
0.0
 11
4350.2831139844
 21
140.9710282783
 31
0.0
  0
LINE
  5
611
330
1B
100
AcDbEntity
 67
     1
  8
7_ALL_FEATURES
  6
Continuous
 62
     3
100
AcDbLine
 10
4350.2831139844
 20
140.9710282783
 30
0.0
 11
2340.2831139844
 21
140.9710282783
 31
0.0
  0
LINE
  5
612
330
1B
100
AcDbEntity
 67
     1
  8
7_ALL_FEATURES
  6
Continuous
 62
     3
100
AcDbLine
 10
2340.2831139844
 20
140.9710282783
 30
0.0
 11
2339.5331139844
 21
140.9710282783
 31
0.0
  0
LINE
  5
613
330
1B
100
AcDbEntity
 67
     1
  8
7_ALL_FEATURES
  6
Continuous
 62
     9
100
AcDbLine
 10
2339.5331139844
 20
177.7710282783
 30
0.0
 11
2340.2831139844
 21
177.7710282783
 31
0.0
  0
LINE
  5
614
330
1B
100
AcDbEntity
 67
     1
  8
7_ALL_FEATURES
  6
Continuous
 62
     9
100
AcDbLine
 10
4350.2831139844
 20
177.7710282783
 30
0.0
 11
4351.0331139844
 21
177.7710282783
 31
0.0
  0
LINE
  5
615
330
1B
100
AcDbEntity
 67
     1
  8
7_ALL_FEATURES
  6
Continuous
 62
     9
100
AcDbLine
 10
2339.5331139844
 20
142.1710282783
 30
0.0
 11
2340.2831139844
 21
142.1710282783
 31
0.0
  0
LINE
  5
616
330
1B
100
AcDbEntity
 67
     1
  8
7_ALL_FEATURES
  6
Continuous
 62
     9
100
AcDbLine
 10
4350.2831139844
 20
142.1710282783
 30
0.0
 11
4351.0331139844
 21
142.1710282783
 31
0.0
  0
LINE
  5
617
330
1B
100
AcDbEntity
 67
     1
  8
3_ALL_AXES
  6
Continuous
 62
     7
100
AcDbLine
 10
4546.4914716146
 20
416.5115422195
 30
0.0
 11
4546.4914716146
 21
417.21741239
 31
0.0
  0
ARC
  5
618
330
1B
100
AcDbEntity
 67
     1
  8
3_ALL_AXES
  6
Continuous
 62
     7
100
AcDbCircle
 10
4543.5914716146
 20
423.96741239
 30
0.0
 40
8.0
100
AcDbArc
 50
270.0
 51
291.2538091854
  0
LINE
  5
619
330
1B
100
AcDbEntity
 67
     1
  8
3_ALL_AXES
  6
Continuous
 62
     7
100
AcDbLine
 10
4540.6914716146
 20
416.5115422195
 30
0.0
 11
4540.6914716146
 21
417.21741239
 31
0.0
  0
ARC
  5
61A
330
1B
100
AcDbEntity
 67
     1
  8
3_ALL_AXES
  6
Continuous
 62
     7
100
AcDbCircle
 10
4543.5914716146
 20
423.96741239
 30
0.0
 40
8.0
100
AcDbArc
 50
248.7461908146
 51
270.0
  0
LINE
  5
61B
330
1B
100
AcDbEntity
 67
     1
  8
3_ALL_AXES
  6
Continuous
 62
     7
100
AcDbLine
 10
4543.5914716146
 20
416.5115422195
 30
0.0
 11
4546.4914716146
 21
416.5115422195
 31
0.0
  0
LINE
  5
61C
330
1B
100
AcDbEntity
 67
     1
  8
3_ALL_AXES
  6
Continuous
 62
     7
100
AcDbLine
 10
4543.5914716146
 20
416.5115422195
 30
0.0
 11
4540.6914716146
 21
416.5115422195
 31
0.0
  0
LINE
  5
61D
330
1B
100
AcDbEntity
 67
     1
  8
3_ALL_AXES
  6
Continuous
 62
     7
100
AcDbLine
 10
4566.4914716146
 20
416.5115422195
 30
0.0
 11
4566.4914716146
 21
417.21741239
 31
0.0
  0
ARC
  5
61E
330
1B
100
AcDbEntity
 67
     1
  8
3_ALL_AXES
  6
Continuous
 62
     7
100
AcDbCircle
 10
4563.5914716146
 20
423.96741239
 30
0.0
 40
8.0
100
AcDbArc
 50
270.0
 51
291.2538091854
  0
LINE
  5
61F
330
1B
100
AcDbEntity
 67
     1
  8
3_ALL_AXES
  6
Continuous
 62
     7
100
AcDbLine
 10
4560.6914716146
 20
416.5115422195
 30
0.0
 11
4560.6914716146
 21
417.21741239
 31
0.0
  0
ARC
  5
620
330
1B
100
AcDbEntity
 67
     1
  8
3_ALL_AXES
  6
Continuous
 62
     7
100
AcDbCircle
 10
4563.5914716146
 20
423.96741239
 30
0.0
 40
8.0
100
AcDbArc
 50
248.7461908146
 51
270.0
  0
LINE
  5
621
330
1B
100
AcDbEntity
 67
     1
  8
3_ALL_AXES
  6
Continuous
 62
     7
100
AcDbLine
 10
4563.5914716146
 20
416.5115422195
 30
0.0
 11
4566.4914716146
 21
416.5115422195
 31
0.0
  0
LINE
  5
622
330
1B
100
AcDbEntity
 67
     1
  8
3_ALL_AXES
  6
Continuous
 62
     7
100
AcDbLine
 10
4563.5914716146
 20
416.5115422195
 30
0.0
 11
4560.6914716146
 21
416.5115422195
 31
0.0
  0
ARC
  5
623
330
1B
100
AcDbEntity
 67
     1
  8
3_ALL_AXES
  6
Continuous
 62
     7
100
AcDbCircle
 10
4540.1414716146
 20
461.21741239
 30
0.0
 40
8.0
100
AcDbArc
 50
183.584263651
 51
201.2538091854
  0
LINE
  5
624
330
1B
100
AcDbEntity
 67
     1
  8
3_ALL_AXES
  6
Continuous
 62
     7
100
AcDbLine
 10
4532.685601444
 20
458.31741239
 30
0.0
 11
4533.3914716146
 21
458.31741239
 31
0.0
  0
LINE
  5
625
330
1B
100
AcDbEntity
 67
     1
  8
3_ALL_AXES
  6
Continuous
 62
     7
100
AcDbLine
 10
4532.685601444
 20
458.31741239
 30
0.0
 11
4532.685601444
 21
460.71741239
 31
0.0
  0
LINE
  5
626
330
1B
100
AcDbEntity
 67
     1
  8
3_ALL_AXES
  6
Continuous
 62
     7
100
AcDbLine
 10
4574.4973417851
 20
458.31741239
 30
0.0
 11
4573.7914716146
 21
458.31741239
 31
0.0
  0
ARC
  5
627
330
1B
100
AcDbEntity
 67
     1
  8
3_ALL_AXES
  6
Continuous
 62
     7
100
AcDbCircle
 10
4567.0414716146
 20
461.21741239
 30
0.0
 40
8.0
100
AcDbArc
 50
338.7461908146
 51
356.415736349
  0
LINE
  5
628
330
1B
100
AcDbEntity
 67
     1
  8
3_ALL_AXES
  6
Continuous
 62
     7
100
AcDbLine
 10
4574.4973417851
 20
460.71741239
 30
0.0
 11
4574.4973417851
 21
458.31741239
 31
0.0
  0
ARC
  5
629
330
1B
100
AcDbEntity
 67
     1
  8
3_ALL_AXES
  6
Continuous
 62
     7
100
AcDbCircle
 10
4573.9688315229
 20
429.8598551874
 30
0.0
 40
4.1
100
AcDbArc
 50
26.3930257743
 51
63.13669686989999
  0
LINE
  5
62A
330
1B
100
AcDbEntity
 67
     1
  8
3_ALL_AXES
  6
Continuous
 62
     7
100
AcDbLine
 10
4577.6414716146
 20
431.6823780446
 30
0.0
 11
4577.6414716146
 21
429.71741239
 31
0.0
  0
LINE
  5
62B
330
1B
100
AcDbEntity
 67
     1
  8
3_ALL_AXES
  6
Continuous
 62
     7
100
AcDbLine
 10
4575.4414716146
 20
433.51741239
 30
0.0
 11
4575.8214716146
 21
433.51741239
 31
0.0
  0
ARC
  5
62C
330
1B
100
AcDbEntity
 67
     1
  8
3_ALL_AXES
  6
Continuous
 62
     7
100
AcDbCircle
 10
4573.9688315229
 20
429.5749695927
 30
0.0
 40
4.1
100
AcDbArc
 50
296.8633031301
 51
333.6069742257001
  0
LINE
  5
62D
330
1B
100
AcDbEntity
 67
     1
  8
3_ALL_AXES
  6
Continuous
 62
     7
100
AcDbLine
 10
4577.6414716146
 20
427.7524467355
 30
0.0
 11
4577.6414716146
 21
429.71741239
 31
0.0
  0
LINE
  5
62E
330
1B
100
AcDbEntity
 67
     1
  8
3_ALL_AXES
  6
Continuous
 62
     7
100
AcDbLine
 10
4575.4414716146
 20
425.91741239
 30
0.0
 11
4575.8214716146
 21
425.91741239
 31
0.0
  0
LINE
  5
62F
330
1B
100
AcDbEntity
 67
     1
  8
3_ALL_AXES
  6
Continuous
 62
     7
100
AcDbLine
 10
4575.8214716146
 20
425.91741239
 30
0.0
 11
4575.8214716146
 21
429.71741239
 31
0.0
  0
LINE
  5
630
330
1B
100
AcDbEntity
 67
     1
  8
3_ALL_AXES
  6
Continuous
 62
     7
100
AcDbLine
 10
4575.8214716146
 20
433.51741239
 30
0.0
 11
4575.8214716146
 21
429.71741239
 31
0.0
  0
ARC
  5
631
330
1B
100
AcDbEntity
 67
     1
  8
3_ALL_AXES
  6
Continuous
 62
     7
100
AcDbCircle
 10
4573.9688315229
 20
464.8598551874
 30
0.0
 40
4.1
100
AcDbArc
 50
26.3930257743
 51
63.13669686989999
  0
LINE
  5
632
330
1B
100
AcDbEntity
 67
     1
  8
3_ALL_AXES
  6
Continuous
 62
     7
100
AcDbLine
 10
4577.6414716146
 20
466.6823780446
 30
0.0
 11
4577.6414716146
 21
464.71741239
 31
0.0
  0
LINE
  5
633
330
1B
100
AcDbEntity
 67
     1
  8
3_ALL_AXES
  6
Continuous
 62
     7
100
AcDbLine
 10
4575.4414716146
 20
468.51741239
 30
0.0
 11
4575.8214716146
 21
468.51741239
 31
0.0
  0
ARC
  5
634
330
1B
100
AcDbEntity
 67
     1
  8
3_ALL_AXES
  6
Continuous
 62
     7
100
AcDbCircle
 10
4573.9688315229
 20
464.5749695927
 30
0.0
 40
4.1
100
AcDbArc
 50
296.8633031301
 51
333.6069742257001
  0
LINE
  5
635
330
1B
100
AcDbEntity
 67
     1
  8
3_ALL_AXES
  6
Continuous
 62
     7
100
AcDbLine
 10
4577.6414716146
 20
462.7524467355
 30
0.0
 11
4577.6414716146
 21
464.71741239
 31
0.0
  0
LINE
  5
636
330
1B
100
AcDbEntity
 67
     1
  8
3_ALL_AXES
  6
Continuous
 62
     7
100
AcDbLine
 10
4575.4414716146
 20
460.91741239
 30
0.0
 11
4575.8214716146
 21
460.91741239
 31
0.0
  0
LINE
  5
637
330
1B
100
AcDbEntity
 67
     1
  8
3_ALL_AXES
  6
Continuous
 62
     7
100
AcDbLine
 10
4575.8214716146
 20
460.91741239
 30
0.0
 11
4575.8214716146
 21
464.71741239
 31
0.0
  0
LINE
  5
638
330
1B
100
AcDbEntity
 67
     1
  8
3_ALL_AXES
  6
Continuous
 62
     7
100
AcDbLine
 10
4575.8214716146
 20
468.51741239
 30
0.0
 11
4575.8214716146
 21
464.71741239
 31
0.0
  0
LINE
  5
639
330
1B
100
AcDbEntity
 67
     1
  8
3_ALL_AXES
  6
Continuous
 62
     7
100
AcDbLine
 10
4529.5414716146
 20
464.71741239
 30
0.0
 11
4529.5414716146
 21
466.6823780446
 31
0.0
  0
LINE
  5
63A
330
1B
100
AcDbEntity
 67
     1
  8
3_ALL_AXES
  6
Continuous
 62
     7
100
AcDbLine
 10
4529.5414716146
 20
464.71741239
 30
0.0
 11
4529.5414716146
 21
462.7524467355
 31
0.0
  0
ARC
  5
63B
330
1B
100
AcDbEntity
 67
     1
  8
3_ALL_AXES
  6
Continuous
 62
     7
100
AcDbCircle
 10
4533.2141117062
 20
464.8598551874
 30
0.0
 40
4.1
100
AcDbArc
 50
116.8633031301
 51
153.6069742257
  0
LINE
  5
63C
330
1B
100
AcDbEntity
 67
     1
  8
3_ALL_AXES
  6
Continuous
 62
     7
100
AcDbLine
 10
4531.7414716146
 20
468.51741239
 30
0.0
 11
4531.3614716146
 21
468.51741239
 31
0.0
  0
ARC
  5
63D
330
1B
100
AcDbEntity
 67
     1
  8
3_ALL_AXES
  6
Continuous
 62
     7
100
AcDbCircle
 10
4533.2141117062
 20
464.5749695927
 30
0.0
 40
4.1
100
AcDbArc
 50
206.3930257743
 51
243.1366968699
  0
LINE
  5
63E
330
1B
100
AcDbEntity
 67
     1
  8
3_ALL_AXES
  6
Continuous
 62
     7
100
AcDbLine
 10
4531.7414716146
 20
460.91741239
 30
0.0
 11
4531.3614716146
 21
460.91741239
 31
0.0
  0
LINE
  5
63F
330
1B
100
AcDbEntity
 67
     1
  8
3_ALL_AXES
  6
Continuous
 62
     7
100
AcDbLine
 10
4531.3614716146
 20
464.71741239
 30
0.0
 11
4531.3614716146
 21
468.51741239
 31
0.0
  0
LINE
  5
640
330
1B
100
AcDbEntity
 67
     1
  8
3_ALL_AXES
  6
Continuous
 62
     7
100
AcDbLine
 10
4531.3614716146
 20
464.71741239
 30
0.0
 11
4531.3614716146
 21
460.91741239
 31
0.0
  0
LINE
  5
641
330
1B
100
AcDbEntity
 67
     1
  8
3_ALL_AXES
  6
Continuous
 62
     7
100
AcDbLine
 10
4529.5414716146
 20
429.71741239
 30
0.0
 11
4529.5414716146
 21
431.6823780446
 31
0.0
  0
LINE
  5
642
330
1B
100
AcDbEntity
 67
     1
  8
3_ALL_AXES
  6
Continuous
 62
     7
100
AcDbLine
 10
4529.5414716146
 20
429.71741239
 30
0.0
 11
4529.5414716146
 21
427.7524467355
 31
0.0
  0
ARC
  5
643
330
1B
100
AcDbEntity
 67
     1
  8
3_ALL_AXES
  6
Continuous
 62
     7
100
AcDbCircle
 10
4533.2141117062
 20
429.8598551874
 30
0.0
 40
4.1
100
AcDbArc
 50
116.8633031301
 51
153.6069742257
  0
LINE
  5
644
330
1B
100
AcDbEntity
 67
     1
  8
3_ALL_AXES
  6
Continuous
 62
     7
100
AcDbLine
 10
4531.7414716146
 20
433.51741239
 30
0.0
 11
4531.3614716146
 21
433.51741239
 31
0.0
  0
ARC
  5
645
330
1B
100
AcDbEntity
 67
     1
  8
3_ALL_AXES
  6
Continuous
 62
     7
100
AcDbCircle
 10
4533.2141117062
 20
429.5749695927
 30
0.0
 40
4.1
100
AcDbArc
 50
206.3930257743
 51
243.1366968699
  0
LINE
  5
646
330
1B
100
AcDbEntity
 67
     1
  8
3_ALL_AXES
  6
Continuous
 62
     7
100
AcDbLine
 10
4531.7414716146
 20
425.91741239
 30
0.0
 11
4531.3614716146
 21
425.91741239
 31
0.0
  0
LINE
  5
647
330
1B
100
AcDbEntity
 67
     1
  8
3_ALL_AXES
  6
Continuous
 62
     7
100
AcDbLine
 10
4531.3614716146
 20
429.71741239
 30
0.0
 11
4531.3614716146
 21
433.51741239
 31
0.0
  0
LINE
  5
648
330
1B
100
AcDbEntity
 67
     1
  8
3_ALL_AXES
  6
Continuous
 62
     7
100
AcDbLine
 10
4531.3614716146
 20
429.71741239
 30
0.0
 11
4531.3614716146
 21
425.91741239
 31
0.0
  0
LINE
  5
649
330
1B
100
AcDbEntity
 67
     1
  8
7_ALL_FEATURES
  6
Continuous
 62
     7
100
AcDbLine
 10
4509.0914716146
 20
417.21741239
 30
0.0
 11
4509.0914716146
 21
418.41741239
 31
0.0
  0
LINE
  5
64A
330
1B
100
AcDbEntity
 67
     1
  8
7_ALL_FEATURES
  6
Continuous
 62
     7
100
AcDbLine
 10
4598.0914716146
 20
417.21741239
 30
0.0
 11
4598.0914716146
 21
418.41741239
 31
0.0
  0
LINE
  5
64B
330
1B
100
AcDbEntity
 67
     1
  8
7_ALL_FEATURES
  6
Continuous
 62
     7
100
AcDbLine
 10
4509.0914716146
 20
417.21741239
 30
0.0
 11
4509.0914716146
 21
418.41741239
 31
0.0
  0
LINE
  5
64C
330
1B
100
AcDbEntity
 67
     1
  8
7_ALL_FEATURES
  6
Continuous
 62
     7
100
AcDbLine
 10
4598.0914716146
 20
417.21741239
 30
0.0
 11
4591.8414716146
 21
417.21741239
 31
0.0
  0
LINE
  5
64D
330
1B
100
AcDbEntity
 67
     1
  8
7_ALL_FEATURES
  6
Continuous
 62
     7
100
AcDbLine
 10
4591.8414716146
 20
417.21741239
 30
0.0
 11
4588.5914716146
 21
417.21741239
 31
0.0
  0
LINE
  5
64E
330
1B
100
AcDbEntity
 67
     1
  8
7_ALL_FEATURES
  6
Continuous
 62
     7
100
AcDbLine
 10
4588.5914716146
 20
417.21741239
 30
0.0
 11
4588.0914716146
 21
417.21741239
 31
0.0
  0
LINE
  5
64F
330
1B
100
AcDbEntity
 67
     1
  8
7_ALL_FEATURES
  6
Continuous
 62
     7
100
AcDbLine
 10
4519.0914716146
 20
417.21741239
 30
0.0
 11
4533.8914716146
 21
417.21741239
 31
0.0
  0
LINE
  5
650
330
1B
100
AcDbEntity
 67
     1
  8
7_ALL_FEATURES
  6
Continuous
 62
     7
100
AcDbLine
 10
4551.2462637347
 20
417.21741239
 30
0.0
 11
4555.9366794945
 21
417.21741239
 31
0.0
  0
LINE
  5
651
330
1B
100
AcDbEntity
 67
     1
  8
7_ALL_FEATURES
  6
Continuous
 62
     7
100
AcDbLine
 10
4573.2914716146
 20
417.21741239
 30
0.0
 11
4588.0914716146
 21
417.21741239
 31
0.0
  0
LINE
  5
652
330
1B
100
AcDbEntity
 67
     1
  8
7_ALL_FEATURES
  6
Continuous
 62
     7
100
AcDbLine
 10
4519.0914716146
 20
417.21741239
 30
0.0
 11
4518.5914716146
 21
417.21741239
 31
0.0
  0
LINE
  5
653
330
1B
100
AcDbEntity
 67
     1
  8
7_ALL_FEATURES
  6
Continuous
 62
     7
100
AcDbLine
 10
4518.5914716146
 20
417.21741239
 30
0.0
 11
4515.3414716146
 21
417.21741239
 31
0.0
  0
LINE
  5
654
330
1B
100
AcDbEntity
 67
     1
  8
7_ALL_FEATURES
  6
Continuous
 62
     7
100
AcDbLine
 10
4515.3414716146
 20
417.21741239
 30
0.0
 11
4509.0914716146
 21
417.21741239
 31
0.0
  0
LINE
  5
655
330
1B
100
AcDbEntity
 67
     1
  8
7_ALL_FEATURES
  6
Continuous
 62
     9
100
AcDbLine
 10
4588.0914716146
 20
417.21741239
 30
0.0
 11
4588.0914716146
 21
418.41741239
 31
0.0
  0
LINE
  5
656
330
1B
100
AcDbEntity
 67
     1
  8
7_ALL_FEATURES
  6
Continuous
 62
     9
100
AcDbLine
 10
4519.0914716146
 20
417.21741239
 30
0.0
 11
4519.0914716146
 21
418.41741239
 31
0.0
  0
LINE
  5
657
330
1B
100
AcDbEntity
 67
     1
  8
7_ALL_FEATURES
  6
Continuous
 62
     7
100
AcDbLine
 10
4573.7914716146
 20
506.21741239
 30
0.0
 11
4573.7914716146
 21
505.71741239
 31
0.0
  0
LINE
  5
658
330
1B
100
AcDbEntity
 67
     1
  8
7_ALL_FEATURES
  6
Continuous
 62
     7
100
AcDbLine
 10
4573.7914716146
 20
469.91741239
 30
0.0
 11
4573.7914716146
 21
469.71741239
 31
0.0
  0
LINE
  5
659
330
1B
100
AcDbEntity
 67
     1
  8
7_ALL_FEATURES
  6
Continuous
 62
     7
100
AcDbLine
 10
4573.7914716146
 20
469.71741239
 30
0.0
 11
4573.7914716146
 21
468.71741239
 31
0.0
  0
LINE
  5
65A
330
1B
100
AcDbEntity
 67
     1
  8
7_ALL_FEATURES
  6
Continuous
 62
     7
100
AcDbLine
 10
4573.7914716146
 20
460.71741239
 30
0.0
 11
4573.7914716146
 21
459.71741239
 31
0.0
  0
LINE
  5
65B
330
1B
100
AcDbEntity
 67
     1
  8
7_ALL_FEATURES
  6
Continuous
 62
     7
100
AcDbLine
 10
4533.7414716146
 20
424.71741239
 30
0.0
 11
4533.3914716146
 21
424.71741239
 31
0.0
  0
LINE
  5
65C
330
1B
100
AcDbEntity
 67
     1
  8
7_ALL_FEATURES
  6
Continuous
 62
     7
100
AcDbLine
 10
4573.7914716146
 20
459.71741239
 30
0.0
 11
4573.7914716146
 21
459.51741239
 31
0.0
  0
LINE
  5
65D
330
1B
100
AcDbEntity
 67
     1
  8
7_ALL_FEATURES
  6
Continuous
 62
     7
100
AcDbLine
 10
4573.7914716146
 20
434.91741239
 30
0.0
 11
4573.7914716146
 21
434.71741239
 31
0.0
  0
LINE
  5
65E
330
1B
100
AcDbEntity
 67
     1
  8
7_ALL_FEATURES
  6
Continuous
 62
     7
100
AcDbLine
 10
4573.7914716146
 20
424.71741239
 30
0.0
 11
4573.7914716146
 21
425.71741239
 31
0.0
  0
LINE
  5
65F
330
1B
100
AcDbEntity
 67
     1
  8
7_ALL_FEATURES
  6
Continuous
 62
     7
100
AcDbLine
 10
4573.7914716146
 20
433.71741239
 30
0.0
 11
4573.7914716146
 21
434.71741239
 31
0.0
  0
LINE
  5
660
330
1B
100
AcDbEntity
 67
     1
  8
7_ALL_FEATURES
  6
Continuous
 62
     7
100
AcDbLine
 10
4533.7414716146
 20
434.71741239
 30
0.0
 11
4533.3914716146
 21
434.71741239
 31
0.0
  0
LINE
  5
661
330
1B
100
AcDbEntity
 67
     1
  8
7_ALL_FEATURES
  6
Continuous
 62
     7
100
AcDbLine
 10
4573.7914716146
 20
424.71741239
 30
0.0
 11
4573.7914716146
 21
424.51741239
 31
0.0
  0
LINE
  5
662
330
1B
100
AcDbEntity
 67
     1
  8
7_ALL_FEATURES
  6
Continuous
 62
     7
100
AcDbLine
 10
4533.8914716146
 20
506.21741239
 30
0.0
 11
4533.3914716146
 21
506.21741239
 31
0.0
  0
LINE
  5
663
330
1B
100
AcDbEntity
 67
     1
  8
7_ALL_FEATURES
  6
Continuous
 62
     7
100
AcDbLine
 10
4573.7914716146
 20
506.21741239
 30
0.0
 11
4573.2914716146
 21
506.21741239
 31
0.0
  0
LINE
  5
664
330
1B
100
AcDbEntity
 67
     1
  8
7_ALL_FEATURES
  6
Continuous
 62
     7
100
AcDbLine
 10
4573.4414716146
 20
469.71741239
 30
0.0
 11
4573.7914716146
 21
469.71741239
 31
0.0
  0
LINE
  5
665
330
1B
100
AcDbEntity
 67
     1
  8
7_ALL_FEATURES
  6
Continuous
 62
     7
100
AcDbLine
 10
4533.3914716146
 20
424.71741239
 30
0.0
 11
4533.3914716146
 21
424.51741239
 31
0.0
  0
LINE
  5
666
330
1B
100
AcDbEntity
 67
     1
  8
7_ALL_FEATURES
  6
Continuous
 62
     7
100
AcDbLine
 10
4573.4414716146
 20
459.71741239
 30
0.0
 11
4573.7914716146
 21
459.71741239
 31
0.0
  0
LINE
  5
667
330
1B
100
AcDbEntity
 67
     1
  8
7_ALL_FEATURES
  6
Continuous
 62
     7
100
AcDbLine
 10
4573.4414716146
 20
434.71741239
 30
0.0
 11
4573.7914716146
 21
434.71741239
 31
0.0
  0
LINE
  5
668
330
1B
100
AcDbEntity
 67
     1
  8
7_ALL_FEATURES
  6
Continuous
 62
     7
100
AcDbLine
 10
4533.3914716146
 20
434.71741239
 30
0.0
 11
4533.3914716146
 21
433.71741239
 31
0.0
  0
LINE
  5
669
330
1B
100
AcDbEntity
 67
     1
  8
7_ALL_FEATURES
  6
Continuous
 62
     7
100
AcDbLine
 10
4533.3914716146
 20
425.71741239
 30
0.0
 11
4533.3914716146
 21
424.71741239
 31
0.0
  0
LINE
  5
66A
330
1B
100
AcDbEntity
 67
     1
  8
7_ALL_FEATURES
  6
Continuous
 62
     7
100
AcDbLine
 10
4533.3914716146
 20
434.91741239
 30
0.0
 11
4533.3914716146
 21
434.71741239
 31
0.0
  0
LINE
  5
66B
330
1B
100
AcDbEntity
 67
     1
  8
7_ALL_FEATURES
  6
Continuous
 62
     7
100
AcDbLine
 10
4573.4414716146
 20
424.71741239
 30
0.0
 11
4573.7914716146
 21
424.71741239
 31
0.0
  0
LINE
  5
66C
330
1B
100
AcDbEntity
 67
     1
  8
7_ALL_FEATURES
  6
Continuous
 62
     7
100
AcDbLine
 10
4533.3914716146
 20
469.71741239
 30
0.0
 11
4533.3914716146
 21
468.71741239
 31
0.0
  0
LINE
  5
66D
330
1B
100
AcDbEntity
 67
     1
  8
7_ALL_FEATURES
  6
Continuous
 62
     7
100
AcDbLine
 10
4533.3914716146
 20
460.71741239
 30
0.0
 11
4533.3914716146
 21
459.71741239
 31
0.0
  0
LINE
  5
66E
330
1B
100
AcDbEntity
 67
     1
  8
7_ALL_FEATURES
  6
Continuous
 62
     7
100
AcDbLine
 10
4533.3914716146
 20
506.21741239
 30
0.0
 11
4533.3914716146
 21
505.71741239
 31
0.0
  0
LINE
  5
66F
330
1B
100
AcDbEntity
 67
     1
  8
7_ALL_FEATURES
  6
Continuous
 62
     7
100
AcDbLine
 10
4531.7414716146
 20
468.71741239
 30
0.0
 11
4532.7414716146
 21
468.71741239
 31
0.0
  0
LINE
  5
670
330
1B
100
AcDbEntity
 67
     1
  8
7_ALL_FEATURES
  6
Continuous
 62
     7
100
AcDbLine
 10
4532.7414716146
 20
468.71741239
 30
0.0
 11
4533.2598925572
 21
468.71741239
 31
0.0
  0
LINE
  5
671
330
1B
100
AcDbEntity
 67
     1
  8
7_ALL_FEATURES
  6
Continuous
 62
     7
100
AcDbLine
 10
4531.7414716146
 20
460.71741239
 30
0.0
 11
4532.7414716146
 21
460.71741239
 31
0.0
  0
LINE
  5
672
330
1B
100
AcDbEntity
 67
     1
  8
7_ALL_FEATURES
  6
Continuous
 62
     7
100
AcDbLine
 10
4532.7414716146
 20
460.71741239
 30
0.0
 11
4533.2598925572
 21
460.71741239
 31
0.0
  0
LINE
  5
673
330
1B
100
AcDbEntity
 67
     1
  8
7_ALL_FEATURES
  6
Continuous
 62
     7
100
AcDbLine
 10
4531.7414716146
 20
460.71741239
 30
0.0
 11
4531.7414716146
 21
468.71741239
 31
0.0
  0
LINE
  5
674
330
1B
100
AcDbEntity
 67
     1
  8
7_ALL_FEATURES
  6
Continuous
 62
     7
100
AcDbLine
 10
4575.4414716146
 20
460.71741239
 30
0.0
 11
4574.4414716146
 21
460.71741239
 31
0.0
  0
LINE
  5
675
330
1B
100
AcDbEntity
 67
     1
  8
7_ALL_FEATURES
  6
Continuous
 62
     7
100
AcDbLine
 10
4574.4414716146
 20
460.71741239
 30
0.0
 11
4573.9230506719
 21
460.71741239
 31
0.0
  0
LINE
  5
676
330
1B
100
AcDbEntity
 67
     1
  8
7_ALL_FEATURES
  6
Continuous
 62
     7
100
AcDbLine
 10
4575.4414716146
 20
468.71741239
 30
0.0
 11
4574.4414716146
 21
468.71741239
 31
0.0
  0
LINE
  5
677
330
1B
100
AcDbEntity
 67
     1
  8
7_ALL_FEATURES
  6
Continuous
 62
     7
100
AcDbLine
 10
4574.4414716146
 20
468.71741239
 30
0.0
 11
4573.9230506719
 21
468.71741239
 31
0.0
  0
LINE
  5
678
330
1B
100
AcDbEntity
 67
     1
  8
7_ALL_FEATURES
  6
Continuous
 62
     7
100
AcDbLine
 10
4575.4414716146
 20
468.71741239
 30
0.0
 11
4575.4414716146
 21
460.71741239
 31
0.0
  0
LINE
  5
679
330
1B
100
AcDbEntity
 67
     1
  8
7_ALL_FEATURES
  6
Continuous
 62
     7
100
AcDbLine
 10
4575.4414716146
 20
425.71741239
 30
0.0
 11
4574.4414716146
 21
425.71741239
 31
0.0
  0
LINE
  5
67A
330
1B
100
AcDbEntity
 67
     1
  8
7_ALL_FEATURES
  6
Continuous
 62
     7
100
AcDbLine
 10
4574.4414716146
 20
425.71741239
 30
0.0
 11
4573.9230506719
 21
425.71741239
 31
0.0
  0
LINE
  5
67B
330
1B
100
AcDbEntity
 67
     1
  8
7_ALL_FEATURES
  6
Continuous
 62
     7
100
AcDbLine
 10
4575.4414716146
 20
433.71741239
 30
0.0
 11
4574.4414716146
 21
433.71741239
 31
0.0
  0
LINE
  5
67C
330
1B
100
AcDbEntity
 67
     1
  8
7_ALL_FEATURES
  6
Continuous
 62
     7
100
AcDbLine
 10
4574.4414716146
 20
433.71741239
 30
0.0
 11
4573.9230506719
 21
433.71741239
 31
0.0
  0
LINE
  5
67D
330
1B
100
AcDbEntity
 67
     1
  8
7_ALL_FEATURES
  6
Continuous
 62
     7
100
AcDbLine
 10
4575.4414716146
 20
433.71741239
 30
0.0
 11
4575.4414716146
 21
425.71741239
 31
0.0
  0
ARC
  5
67E
330
1B
100
AcDbEntity
 67
     1
  8
7_ALL_FEATURES
  6
Continuous
 62
     7
100
AcDbCircle
 10
4553.5914716146
 20
416.21741239
 30
0.0
 40
2.0
100
AcDbArc
 50
43.81306146040001
 51
136.1869385396
  0
ARC
  5
67F
330
1B
100
AcDbEntity
 67
     1
  8
7_ALL_FEATURES
  6
Continuous
 62
     7
100
AcDbCircle
 10
4555.9366794945
 20
418.46741239
 30
0.0
 40
1.25
100
AcDbArc
 50
223.8130614604
 51
270.0
  0
LINE
  5
680
330
1B
100
AcDbEntity
 67
     1
  8
7_ALL_FEATURES
  6
Continuous
 62
     7
100
AcDbLine
 10
4573.2914716146
 20
417.21741239
 30
0.0
 11
4555.9366794945
 21
417.21741239
 31
0.0
  0
ARC
  5
681
330
1B
100
AcDbEntity
 67
     1
  8
7_ALL_FEATURES
  6
Continuous
 62
     7
100
AcDbCircle
 10
4573.2914716146
 20
417.71741239
 30
0.0
 40
0.5
100
AcDbArc
 50
270.0
 51
360.0
  0
LINE
  5
682
330
1B
100
AcDbEntity
 67
     1
  8
7_ALL_FEATURES
  6
Continuous
 62
     7
100
AcDbLine
 10
4573.7914716146
 20
424.51741239
 30
0.0
 11
4573.7914716146
 21
417.71741239
 31
0.0
  0
LINE
  5
683
330
1B
100
AcDbEntity
 67
     1
  8
7_ALL_FEATURES
  6
Continuous
 62
     7
100
AcDbLine
 10
4573.7914716146
 20
424.51741239
 30
0.0
 11
4573.4414716146
 21
424.51741239
 31
0.0
  0
LINE
  5
684
330
1B
100
AcDbEntity
 67
     1
  8
7_ALL_FEATURES
  6
Continuous
 62
     7
100
AcDbLine
 10
4573.4414716146
 20
425.71741239
 30
0.0
 11
4573.4414716146
 21
424.51741239
 31
0.0
  0
LINE
  5
685
330
1B
100
AcDbEntity
 67
     1
  8
7_ALL_FEATURES
  6
Continuous
 62
     7
100
AcDbLine
 10
4573.4414716146
 20
433.71741239
 30
0.0
 11
4573.4414716146
 21
434.91741239
 31
0.0
  0
LINE
  5
686
330
1B
100
AcDbEntity
 67
     1
  8
7_ALL_FEATURES
  6
Continuous
 62
     7
100
AcDbLine
 10
4573.7914716146
 20
434.91741239
 30
0.0
 11
4573.4414716146
 21
434.91741239
 31
0.0
  0
LINE
  5
687
330
1B
100
AcDbEntity
 67
     1
  8
7_ALL_FEATURES
  6
Continuous
 62
     7
100
AcDbLine
 10
4573.7914716146
 20
459.51741239
 30
0.0
 11
4573.7914716146
 21
434.91741239
 31
0.0
  0
LINE
  5
688
330
1B
100
AcDbEntity
 67
     1
  8
7_ALL_FEATURES
  6
Continuous
 62
     7
100
AcDbLine
 10
4573.7914716146
 20
459.51741239
 30
0.0
 11
4573.4414716146
 21
459.51741239
 31
0.0
  0
LINE
  5
689
330
1B
100
AcDbEntity
 67
     1
  8
7_ALL_FEATURES
  6
Continuous
 62
     7
100
AcDbLine
 10
4573.4414716146
 20
460.71741239
 30
0.0
 11
4573.4414716146
 21
459.51741239
 31
0.0
  0
LINE
  5
68A
330
1B
100
AcDbEntity
 67
     1
  8
7_ALL_FEATURES
  6
Continuous
 62
     7
100
AcDbLine
 10
4573.4414716146
 20
468.71741239
 30
0.0
 11
4573.4414716146
 21
469.91741239
 31
0.0
  0
LINE
  5
68B
330
1B
100
AcDbEntity
 67
     1
  8
7_ALL_FEATURES
  6
Continuous
 62
     7
100
AcDbLine
 10
4573.7914716146
 20
469.91741239
 30
0.0
 11
4573.4414716146
 21
469.91741239
 31
0.0
  0
LINE
  5
68C
330
1B
100
AcDbEntity
 67
     1
  8
7_ALL_FEATURES
  6
Continuous
 62
     7
100
AcDbLine
 10
4573.7914716146
 20
505.71741239
 30
0.0
 11
4573.7914716146
 21
469.91741239
 31
0.0
  0
ARC
  5
68D
330
1B
100
AcDbEntity
 67
     1
  8
7_ALL_FEATURES
  6
Continuous
 62
     7
100
AcDbCircle
 10
4573.2914716146
 20
505.71741239
 30
0.0
 40
0.5
100
AcDbArc
 50
0.0
 51
90.0
  0
LINE
  5
68E
330
1B
100
AcDbEntity
 67
     1
  8
7_ALL_FEATURES
  6
Continuous
 62
     7
100
AcDbLine
 10
4533.8914716146
 20
506.21741239
 30
0.0
 11
4573.2914716146
 21
506.21741239
 31
0.0
  0
ARC
  5
68F
330
1B
100
AcDbEntity
 67
     1
  8
7_ALL_FEATURES
  6
Continuous
 62
     7
100
AcDbCircle
 10
4533.8914716146
 20
505.71741239
 30
0.0
 40
0.5
100
AcDbArc
 50
90.0
 51
180.0
  0
LINE
  5
690
330
1B
100
AcDbEntity
 67
     1
  8
7_ALL_FEATURES
  6
Continuous
 62
     7
100
AcDbLine
 10
4533.3914716146
 20
469.71741239
 30
0.0
 11
4533.3914716146
 21
505.71741239
 31
0.0
  0
LINE
  5
691
330
1B
100
AcDbEntity
 67
     1
  8
7_ALL_FEATURES
  6
Continuous
 62
     7
100
AcDbLine
 10
4533.3914716146
 20
469.71741239
 30
0.0
 11
4533.7414716146
 21
469.71741239
 31
0.0
  0
LINE
  5
692
330
1B
100
AcDbEntity
 67
     1
  8
7_ALL_FEATURES
  6
Continuous
 62
     7
100
AcDbLine
 10
4533.7414716146
 20
468.71741239
 30
0.0
 11
4533.7414716146
 21
469.71741239
 31
0.0
  0
LINE
  5
693
330
1B
100
AcDbEntity
 67
     1
  8
7_ALL_FEATURES
  6
Continuous
 62
     7
100
AcDbLine
 10
4533.7414716146
 20
460.71741239
 30
0.0
 11
4533.7414716146
 21
459.71741239
 31
0.0
  0
LINE
  5
694
330
1B
100
AcDbEntity
 67
     1
  8
7_ALL_FEATURES
  6
Continuous
 62
     7
100
AcDbLine
 10
4533.3914716146
 20
459.71741239
 30
0.0
 11
4533.7414716146
 21
459.71741239
 31
0.0
  0
LINE
  5
695
330
1B
100
AcDbEntity
 67
     1
  8
7_ALL_FEATURES
  6
Continuous
 62
     7
100
AcDbLine
 10
4533.3914716146
 20
434.91741239
 30
0.0
 11
4533.3914716146
 21
459.71741239
 31
0.0
  0
LINE
  5
696
330
1B
100
AcDbEntity
 67
     1
  8
7_ALL_FEATURES
  6
Continuous
 62
     7
100
AcDbLine
 10
4533.3914716146
 20
434.91741239
 30
0.0
 11
4533.7414716146
 21
434.91741239
 31
0.0
  0
LINE
  5
697
330
1B
100
AcDbEntity
 67
     1
  8
7_ALL_FEATURES
  6
Continuous
 62
     7
100
AcDbLine
 10
4533.7414716146
 20
433.71741239
 30
0.0
 11
4533.7414716146
 21
434.91741239
 31
0.0
  0
LINE
  5
698
330
1B
100
AcDbEntity
 67
     1
  8
7_ALL_FEATURES
  6
Continuous
 62
     7
100
AcDbLine
 10
4533.7414716146
 20
425.71741239
 30
0.0
 11
4533.7414716146
 21
424.51741239
 31
0.0
  0
LINE
  5
699
330
1B
100
AcDbEntity
 67
     1
  8
7_ALL_FEATURES
  6
Continuous
 62
     7
100
AcDbLine
 10
4533.3914716146
 20
424.51741239
 30
0.0
 11
4533.7414716146
 21
424.51741239
 31
0.0
  0
LINE
  5
69A
330
1B
100
AcDbEntity
 67
     1
  8
7_ALL_FEATURES
  6
Continuous
 62
     7
100
AcDbLine
 10
4533.3914716146
 20
417.71741239
 30
0.0
 11
4533.3914716146
 21
424.51741239
 31
0.0
  0
ARC
  5
69B
330
1B
100
AcDbEntity
 67
     1
  8
7_ALL_FEATURES
  6
Continuous
 62
     7
100
AcDbCircle
 10
4533.8914716146
 20
417.71741239
 30
0.0
 40
0.5
100
AcDbArc
 50
180.0
 51
270.0
  0
LINE
  5
69C
330
1B
100
AcDbEntity
 67
     1
  8
7_ALL_FEATURES
  6
Continuous
 62
     7
100
AcDbLine
 10
4551.2462637347
 20
417.21741239
 30
0.0
 11
4533.8914716146
 21
417.21741239
 31
0.0
  0
ARC
  5
69D
330
1B
100
AcDbEntity
 67
     1
  8
7_ALL_FEATURES
  6
Continuous
 62
     7
100
AcDbCircle
 10
4551.2462637347
 20
418.46741239
 30
0.0
 40
1.25
100
AcDbArc
 50
270.0
 51
316.1869385396
  0
ARC
  5
69E
330
1B
100
AcDbEntity
 67
     1
  8
02___PRT_ALL_AXES
  6
Continuous
 62
     7
100
AcDbCircle
 10
4553.5914716146
 20
443.71741239
 30
0.0
 40
9.5
100
AcDbArc
 50
182.0
 51
358.0
  0
LINE
  5
69F
330
1B
100
AcDbEntity
 67
     1
  8
02___PRT_ALL_AXES
  6
Continuous
 62
     7
100
AcDbLine
 10
4563.5853798848
 20
443.368417423
 30
0.0
 11
4563.0856844712
 21
443.3858671714
 31
0.0
  0
ARC
  5
6A0
330
1B
100
AcDbEntity
 67
     1
  8
02___PRT_ALL_AXES
  6
Continuous
 62
     7
100
AcDbCircle
 10
4553.5914716146
 20
443.71741239
 30
0.0
 40
10.0
100
AcDbArc
 50
182.0
 51
358.0
  0
LINE
  5
6A1
330
1B
100
AcDbEntity
 67
     1
  8
02___PRT_ALL_AXES
  6
Continuous
 62
     7
100
AcDbLine
 10
4544.0972587579
 20
443.3858671714
 30
0.0
 11
4543.5975633444
 21
443.368417423
 31
0.0
  0
LINE
  5
6A2
330
1B
100
AcDbEntity
 67
     1
  8
02___PRT_ALL_AXES
  6
Continuous
 62
     7
100
AcDbLine
 10
4543.5975633444
 20
444.0664073571
 30
0.0
 11
4544.0972587579
 21
444.0489576087
 31
0.0
  0
ARC
  5
6A3
330
1B
100
AcDbEntity
 67
     1
  8
02___PRT_ALL_AXES
  6
Continuous
 62
     7
100
AcDbCircle
 10
4553.5914716146
 20
443.71741239
 30
0.0
 40
10.0
100
AcDbArc
 50
2.0
 51
178.0
  0
LINE
  5
6A4
330
1B
100
AcDbEntity
 67
     1
  8
02___PRT_ALL_AXES
  6
Continuous
 62
     7
100
AcDbLine
 10
4563.0856844712
 20
444.0489576087
 30
0.0
 11
4563.5853798848
 21
444.0664073571
 31
0.0
  0
ARC
  5
6A5
330
1B
100
AcDbEntity
 67
     1
  8
02___PRT_ALL_AXES
  6
Continuous
 62
     7
100
AcDbCircle
 10
4553.5914716146
 20
443.71741239
 30
0.0
 40
9.5
100
AcDbArc
 50
2.0
 51
178.0
  0
LINE
  5
6A6
330
1B
100
AcDbEntity
 67
     1
  8
7_ALL_FEATURES
  6
Continuous
 62
     7
100
AcDbLine
 10
4533.2598925572
 20
468.71741239
 30
0.0
 11
4533.7414716146
 21
468.71741239
 31
0.0
  0
LINE
  5
6A7
330
1B
100
AcDbEntity
 67
     1
  8
7_ALL_FEATURES
  6
Continuous
 62
     7
100
AcDbLine
 10
4531.7414716146
 20
460.71741239
 30
0.0
 11
4531.7414716146
 21
468.71741239
 31
0.0
  0
LINE
  5
6A8
330
1B
100
AcDbEntity
 67
     1
  8
7_ALL_FEATURES
  6
Continuous
 62
     7
100
AcDbLine
 10
4533.2598925572
 20
460.71741239
 30
0.0
 11
4533.7414716146
 21
460.71741239
 31
0.0
  0
LINE
  5
6A9
330
1B
100
AcDbEntity
 67
     1
  8
7_ALL_FEATURES
  6
Continuous
 62
     7
100
AcDbLine
 10
4573.9230506719
 20
460.71741239
 30
0.0
 11
4573.4414716146
 21
460.71741239
 31
0.0
  0
LINE
  5
6AA
330
1B
100
AcDbEntity
 67
     1
  8
7_ALL_FEATURES
  6
Continuous
 62
     7
100
AcDbLine
 10
4575.4414716146
 20
468.71741239
 30
0.0
 11
4575.4414716146
 21
460.71741239
 31
0.0
  0
LINE
  5
6AB
330
1B
100
AcDbEntity
 67
     1
  8
7_ALL_FEATURES
  6
Continuous
 62
     7
100
AcDbLine
 10
4573.9230506719
 20
468.71741239
 30
0.0
 11
4573.4414716146
 21
468.71741239
 31
0.0
  0
LINE
  5
6AC
330
1B
100
AcDbEntity
 67
     1
  8
7_ALL_FEATURES
  6
Continuous
 62
     7
100
AcDbLine
 10
4533.2598925572
 20
433.71741239
 30
0.0
 11
4533.7414716146
 21
433.71741239
 31
0.0
  0
LINE
  5
6AD
330
1B
100
AcDbEntity
 67
     1
  8
7_ALL_FEATURES
  6
Continuous
 62
     7
100
AcDbLine
 10
4531.7414716146
 20
433.71741239
 30
0.0
 11
4532.7414716146
 21
433.71741239
 31
0.0
  0
LINE
  5
6AE
330
1B
100
AcDbEntity
 67
     1
  8
7_ALL_FEATURES
  6
Continuous
 62
     7
100
AcDbLine
 10
4532.7414716146
 20
433.71741239
 30
0.0
 11
4533.2598925572
 21
433.71741239
 31
0.0
  0
LINE
  5
6AF
330
1B
100
AcDbEntity
 67
     1
  8
7_ALL_FEATURES
  6
Continuous
 62
     7
100
AcDbLine
 10
4531.7414716146
 20
425.71741239
 30
0.0
 11
4531.7414716146
 21
433.71741239
 31
0.0
  0
LINE
  5
6B0
330
1B
100
AcDbEntity
 67
     1
  8
7_ALL_FEATURES
  6
Continuous
 62
     7
100
AcDbLine
 10
4531.7414716146
 20
425.71741239
 30
0.0
 11
4532.7414716146
 21
425.71741239
 31
0.0
  0
LINE
  5
6B1
330
1B
100
AcDbEntity
 67
     1
  8
7_ALL_FEATURES
  6
Continuous
 62
     7
100
AcDbLine
 10
4532.7414716146
 20
425.71741239
 30
0.0
 11
4533.2598925572
 21
425.71741239
 31
0.0
  0
LINE
  5
6B2
330
1B
100
AcDbEntity
 67
     1
  8
7_ALL_FEATURES
  6
Continuous
 62
     7
100
AcDbLine
 10
4533.2598925572
 20
425.71741239
 30
0.0
 11
4533.7414716146
 21
425.71741239
 31
0.0
  0
LINE
  5
6B3
330
1B
100
AcDbEntity
 67
     1
  8
7_ALL_FEATURES
  6
Continuous
 62
     7
100
AcDbLine
 10
4573.9230506719
 20
425.71741239
 30
0.0
 11
4573.4414716146
 21
425.71741239
 31
0.0
  0
LINE
  5
6B4
330
1B
100
AcDbEntity
 67
     1
  8
7_ALL_FEATURES
  6
Continuous
 62
     7
100
AcDbLine
 10
4575.4414716146
 20
433.71741239
 30
0.0
 11
4575.4414716146
 21
425.71741239
 31
0.0
  0
LINE
  5
6B5
330
1B
100
AcDbEntity
 67
     1
  8
7_ALL_FEATURES
  6
Continuous
 62
     7
100
AcDbLine
 10
4573.9230506719
 20
433.71741239
 30
0.0
 11
4573.4414716146
 21
433.71741239
 31
0.0
  0
LINE
  5
6B6
330
1B
100
AcDbEntity
 67
     1
  8
7_ALL_FEATURES
  6
Continuous
 62
     9
100
AcDbLine
 10
4533.7414716146
 20
425.71741239
 30
0.0
 11
4533.7414716146
 21
433.71741239
 31
0.0
  0
LINE
  5
6B7
330
1B
100
AcDbEntity
 67
     1
  8
7_ALL_FEATURES
  6
Continuous
 62
     9
100
AcDbLine
 10
4533.7414716146
 20
460.71741239
 30
0.0
 11
4533.7414716146
 21
468.71741239
 31
0.0
  0
LINE
  5
6B8
330
1B
100
AcDbEntity
 67
     1
  8
7_ALL_FEATURES
  6
Continuous
 62
     9
100
AcDbLine
 10
4573.4414716146
 20
433.71741239
 30
0.0
 11
4573.4414716146
 21
425.71741239
 31
0.0
  0
LINE
  5
6B9
330
1B
100
AcDbEntity
 67
     1
  8
7_ALL_FEATURES
  6
Continuous
 62
     9
100
AcDbLine
 10
4573.4414716146
 20
468.71741239
 30
0.0
 11
4573.4414716146
 21
460.71741239
 31
0.0
  0
LINE
  5
6BA
330
1B
100
AcDbEntity
 67
     1
  8
7_ALL_FEATURES
  6
Continuous
 62
     3
100
AcDbLine
 10
4509.0914716146
 20
418.41741239
 30
0.0
 11
4515.3414716146
 21
418.41741239
 31
0.0
  0
LINE
  5
6BB
330
1B
100
AcDbEntity
 67
     1
  8
7_ALL_FEATURES
  6
Continuous
 62
     3
100
AcDbLine
 10
4515.3414716146
 20
418.41741239
 30
0.0
 11
4518.5914716146
 21
418.41741239
 31
0.0
  0
LINE
  5
6BC
330
1B
100
AcDbEntity
 67
     1
  8
7_ALL_FEATURES
  6
Continuous
 62
     3
100
AcDbLine
 10
4518.5914716146
 20
418.41741239
 30
0.0
 11
4519.0914716146
 21
418.41741239
 31
0.0
  0
LINE
  5
6BD
330
1B
100
AcDbEntity
 67
     1
  8
7_ALL_FEATURES
  6
Continuous
 62
     3
100
AcDbLine
 10
4588.0914716146
 20
418.41741239
 30
0.0
 11
4588.5914716146
 21
418.41741239
 31
0.0
  0
LINE
  5
6BE
330
1B
100
AcDbEntity
 67
     1
  8
7_ALL_FEATURES
  6
Continuous
 62
     3
100
AcDbLine
 10
4588.5914716146
 20
418.41741239
 30
0.0
 11
4591.8414716146
 21
418.41741239
 31
0.0
  0
LINE
  5
6BF
330
1B
100
AcDbEntity
 67
     1
  8
7_ALL_FEATURES
  6
Continuous
 62
     3
100
AcDbLine
 10
4591.8414716146
 20
418.41741239
 30
0.0
 11
4598.0914716146
 21
418.41741239
 31
0.0
  0
LINE
  5
6C0
330
1B
100
AcDbEntity
 67
     1
  8
7_ALL_FEATURES
  6
Continuous
 62
     3
100
AcDbLine
 10
4519.0914716146
 20
418.41741239
 30
0.0
 11
4533.3914716146
 21
418.41741239
 31
0.0
  0
LINE
  5
6C1
330
1B
100
AcDbEntity
 67
     1
  8
7_ALL_FEATURES
  6
Continuous
 62
     3
100
AcDbLine
 10
4573.7914716146
 20
418.41741239
 30
0.0
 11
4588.0914716146
 21
418.41741239
 31
0.0
  0
DIMENSION
  5
6C2
330
1B
100
AcDbEntity
 67
     1
  8
0
  6
Continuous
 62
     2
100
AcDbDimension
280
     0
  2
*D1
 10
4398.6182744762
 20
415.96741239
 30
0.0
 11
4398.6182744762
 21
460.235083681
 31
0.0
 70
   160
 71
     5
 42
-1.0
 73
     0
 74
     0
 75
     0
  3
DIMSTYLE_1
100
AcDbAlignedDimension
 13
4352.7831139844
 23
506.21741239
 33
0.0
 14
4308.5331139844
 24
415.96741239
 34
0.0
 50
270.0
100
AcDbRotatedDimension
  0
DIMENSION
  5
6C3
330
1B
100
AcDbEntity
 67
     1
  8
0
  6
Continuous
 62
     2
100
AcDbDimension
280
     0
  2
*D2
 10
4385.0900377468
 20
138.1210282783
 30
0.0
 11
4385.0900377468
 21
159.1136955579
 31
0.0
 70
   160
 71
     5
 42
-1.0
 73
     0
 74
     0
 75
     0
  3
DIMSTYLE_1
100
AcDbAlignedDimension
 13
4350.7831139844
 23
181.8210282783
 33
0.0
 14
4350.7831139844
 24
138.1210282783
 34
0.0
 50
270.0
100
AcDbRotatedDimension
  0
DIMENSION
  5
6C4
330
1B
100
AcDbEntity
 67
     1
  8
0
  6
Continuous
 62
     2
100
AcDbDimension
280
     0
  2
*D3
 10
4398.6182744762
 20
115.4710282783
 30
0.0
 11
4398.6182744762
 21
159.1136995693
 31
0.0
 70
   160
 71
     5
 42
-1.0
 73
     0
 74
     0
 75
     0
  3
DIMSTYLE_2
100
AcDbAlignedDimension
 13
4306.0331139844
 23
204.4710282783
 33
0.0
 14
4306.0331139844
 24
115.4710282783
 34
0.0
 50
270.0
100
AcDbRotatedDimension
  0
DIMENSION
  5
6C5
330
1B
100
AcDbEntity
 67
     1
  8
0
  6
Continuous
 62
     2
100
AcDbDimension
280
     0
  2
*D4
 10
4352.0331139844
 20
89.6856922816
 30
0.0
 11
3431.2363425926
 21
89.6856922816
 31
0.0
 70
   160
 71
     5
 42
-1.0
 73
     0
 74
     0
 75
     0
  3
DIMSTYLE_3
100
AcDbAlignedDimension
 13
2338.5331139844
 23
139.0210282783
 33
0.0
 14
4352.0331139844
 24
139.0210282783
 34
0.0
100
AcDbRotatedDimension
  0
DIMENSION
  5
6C6
330
1B
100
AcDbEntity
 67
     1
  8
0
  6
Continuous
 62
     2
100
AcDbDimension
280
     0
  2
*D5
 10
4598.0914716146
 20
388.7568685391
 30
0.0
 11
4552.7344907407
 21
388.7568685391
 31
0.0
 70
   160
 71
     5
 42
-1.0
 73
     0
 74
     0
 75
     0
  3
DIMSTYLE_2
100
AcDbAlignedDimension
 13
4509.0914716146
 23
403.5192282324
 33
0.0
 14
4598.0914716146
 24
403.6773512622
 34
0.0
100
AcDbRotatedDimension
  0
LINE
  5
6C7
330
1B
100
AcDbEntity
 67
     1
  8
0
  6
Continuous
 62
     2
100
AcDbLine
 10
4728.2132639488
 20
144.5790529754
 30
0.0
 11
4988.2132639488
 21
144.5790529754
 31
0.0
  0
LINE
  5
6C8
330
1B
100
AcDbEntity
 67
     1
  8
0
  6
Continuous
 62
     2
100
AcDbLine
 10
4728.2132639488
 20
144.5790529754
 30
0.0
 11
4728.2132639488
 21
12.5790529754
 31
0.0
  0
LINE
  5
6C9
330
1B
100
AcDbEntity
 67
     1
  8
0
  6
Continuous
 62
     2
100
AcDbLine
 10
4788.2132639488
 20
128.5790529754
 30
0.0
 11
4988.2132639488
 21
128.5790529754
 31
0.0
  0
LINE
  5
6CA
330
1B
100
AcDbEntity
 67
     1
  8
0
  6
Continuous
 62
     2
100
AcDbLine
 10
4728.2132639488
 20
112.5790529754
 30
0.0
 11
4988.2132639488
 21
112.5790529754
 31
0.0
  0
LINE
  5
6CB
330
1B
100
AcDbEntity
 67
     1
  8
0
  6
Continuous
 62
     2
100
AcDbLine
 10
4788.2132639488
 20
100.5790529754
 30
0.0
 11
4988.2132639488
 21
100.5790529754
 31
0.0
  0
LINE
  5
6CC
330
1B
100
AcDbEntity
 67
     1
  8
0
  6
Continuous
 62
     2
100
AcDbLine
 10
4788.2132639488
 20
88.5790529754
 30
0.0
 11
4988.2132639488
 21
88.5790529754
 31
0.0
  0
LINE
  5
6CD
330
1B
100
AcDbEntity
 67
     1
  8
0
  6
Continuous
 62
     2
100
AcDbLine
 10
4788.2132639488
 20
76.5790529754
 30
0.0
 11
4988.2132639488
 21
76.5790529754
 31
0.0
  0
LINE
  5
6CE
330
1B
100
AcDbEntity
 67
     1
  8
0
  6
Continuous
 62
     2
100
AcDbLine
 10
4788.2132639488
 20
64.5790529754
 30
0.0
 11
4988.2132639488
 21
64.5790529754
 31
0.0
  0
LINE
  5
6CF
330
1B
100
AcDbEntity
 67
     1
  8
0
  6
Continuous
 62
     2
100
AcDbLine
 10
4788.2132639488
 20
52.5790529754
 30
0.0
 11
4988.2132639488
 21
52.5790529754
 31
0.0
  0
LINE
  5
6D0
330
1B
100
AcDbEntity
 67
     1
  8
0
  6
Continuous
 62
     2
100
AcDbLine
 10
4728.2132639488
 20
40.5790529754
 30
0.0
 11
4988.2132639488
 21
40.5790529754
 31
0.0
  0
LINE
  5
6D1
330
1B
100
AcDbEntity
 67
     1
  8
0
  6
Continuous
 62
     2
100
AcDbLine
 10
4728.2132639488
 20
28.5790529754
 30
0.0
 11
4988.2132639488
 21
28.5790529754
 31
0.0
  0
LINE
  5
6D2
330
1B
100
AcDbEntity
 67
     1
  8
0
  6
Continuous
 62
     2
100
AcDbLine
 10
4728.2132639488
 20
20.5790529754
 30
0.0
 11
4988.2132639488
 21
20.5790529754
 31
0.0
  0
LINE
  5
6D3
330
1B
100
AcDbEntity
 67
     1
  8
0
  6
Continuous
 62
     2
100
AcDbLine
 10
4728.2132639488
 20
12.5790529754
 30
0.0
 11
4988.2132639488
 21
12.5790529754
 31
0.0
  0
LINE
  5
6D4
330
1B
100
AcDbEntity
 67
     1
  8
0
  6
Continuous
 62
     2
100
AcDbLine
 10
4788.2132639488
 20
144.5790529754
 30
0.0
 11
4788.2132639488
 21
28.5790529754
 31
0.0
  0
LINE
  5
6D5
330
1B
100
AcDbEntity
 67
     1
  8
0
  6
Continuous
 62
     2
100
AcDbLine
 10
4828.2132639488
 20
112.5790529754
 30
0.0
 11
4828.2132639488
 21
100.5790529754
 31
0.0
  0
LINE
  5
6D6
330
1B
100
AcDbEntity
 67
     1
  8
0
  6
Continuous
 62
     2
100
AcDbLine
 10
4888.2132639488
 20
52.5790529754
 30
0.0
 11
4888.2132639488
 21
28.5790529754
 31
0.0
  0
LINE
  5
6D7
330
1B
100
AcDbEntity
 67
     1
  8
0
  6
Continuous
 62
     2
100
AcDbLine
 10
4908.2132639488
 20
112.5790529754
 30
0.0
 11
4908.2132639488
 21
100.5790529754
 31
0.0
  0
LINE
  5
6D8
330
1B
100
AcDbEntity
 67
     1
  8
0
  6
Continuous
 62
     2
100
AcDbLine
 10
4908.2132639488
 20
88.5790529754
 30
0.0
 11
4908.2132639488
 21
76.5790529754
 31
0.0
  0
LINE
  5
6D9
330
1B
100
AcDbEntity
 67
     1
  8
0
  6
Continuous
 62
     2
100
AcDbLine
 10
4948.2132639488
 20
112.5790529754
 30
0.0
 11
4948.2132639488
 21
100.5790529754
 31
0.0
  0
LINE
  5
6DA
330
1B
100
AcDbEntity
 67
     1
  8
0
  6
Continuous
 62
     2
100
AcDbLine
 10
4968.2132639488
 20
88.5790529754
 30
0.0
 11
4968.2132639488
 21
76.5790529754
 31
0.0
  0
LINE
  5
6DB
330
1B
100
AcDbEntity
 67
     1
  8
0
  6
Continuous
 62
     2
100
AcDbLine
 10
4988.2132639488
 20
144.5790529754
 30
0.0
 11
4988.2132639488
 21
12.5790529754
 31
0.0
  0
INSERT
  5
6DC
330
1B
100
AcDbEntity
 67
     1
  8
0
  6
Continuous
 62
     2
100
AcDbBlockReference
  2
PROIEZIONE_EU_BL0
 10
4758.2132639488
 20
127.8290529754
 30
0.0
  0
MTEXT
  5
6DD
330
1B
100
AcDbEntity
 67
     1
  8
9_SOLID
  6
Continuous
 62
     2
100
AcDbMText
 10
4791.1882639488
 20
141.3290529754
 30
0.0
 40
3.8
 41
284.7285714286
 46
0.0
 71
     1
 72
     1
  1
EN: Chamfer/radii unlisted 0.3x45°. Remove sharp edges.\PGen. tol.: hole H11, shaft h11, lenght Js12. UNI EN 22768 Medium Grande.
 73
     1
 44
1.0
  0
MTEXT
  5
6DE
330
1B
100
AcDbEntity
 67
     1
  8
9_SOLID
  6
Continuous
 62
     2
100
AcDbMText
 10
4791.1882639488
 20
125.3290529754
 30
0.0
 40
3.8
 41
296.5357142857
 46
0.0
 71
     1
 72
     1
  1
IT: Sm./rac. non quotati 0.3x45°. Eliminare spigoli taglienti.\PToll. gen.: foro H11, albero h11, lunghezza Js12. UNI EN 22768 Grado Medio.
 73
     1
 44
1.0
  0
INSERT
  5
6DF
330
1B
100
AcDbEntity
 67
     1
  8
0
  6
Continuous
 62
     2
100
AcDbBlockReference
  2
LOGO2_BL1
 10
4755.8653580383
 20
76.5790529754
 30
0.0
  0
MTEXT
  5
6E0
330
1B
100
AcDbEntity
 67
     1
  8
9_SOLID
  6
Continuous
 62
     2
100
AcDbMText
 10
4791.1882639488
 20
109.0790529754
 30
0.0
 40
6.0
 41
42.2142857143
 46
0.0
 71
     1
 72
     1
  1
Pj: 571
 73
     1
 44
1.0
  0
MTEXT
  5
6E1
330
1B
100
AcDbEntity
 67
     1
  8
9_SOLID
  6
Continuous
 62
     2
100
AcDbMText
 10
4831.1882639488
 20
109.0790529754
 30
0.0
 40
6.0
 41
76.0714285714
 46
0.0
 71
     1
 72
     1
  1
% Check: %
 73
     1
 44
1.0
  0
MTEXT
  5
6E2
330
1B
100
AcDbEntity
 67
     1
  8
9_SOLID
  6
Continuous
 62
     2
100
AcDbMText
 10
4911.1882639488
 20
109.0790529754
 30
0.0
 40
6.0
 41
39.0
 46
0.0
 71
     1
 72
     1
  1
Rev:00
 73
     1
 44
1.0
  0
MTEXT
  5
6E3
330
1B
100
AcDbEntity
 67
     1
  8
9_SOLID
  6
Continuous
 62
     2
100
AcDbMText
 10
4951.1882639488
 20
109.5790529754
 30
0.0
 40
6.0
 41
39.4285714286
 46
0.0
 71
     1
 72
     1
  1
Ver: A
 73
     1
 44
1.0
  0
MTEXT
  5
6E4
330
1B
100
AcDbEntity
 67
     1
  8
9_SOLID
  6
Continuous
 62
     2
100
AcDbMText
 10
4791.1882639488
 20
97.0790529754
 30
0.0
 40
6.0
 41
147.4285714286
 46
0.0
 71
     1
 72
     1
  1
Neutral code: 571_C_492
 73
     1
 44
1.0
  0
MTEXT
  5
6E5
330
1B
100
AcDbEntity
 67
     1
  8
9_SOLID
  6
Continuous
 62
     2
100
AcDbMText
 10
4791.1882639488
 20
85.0790529754
 30
0.0
 40
6.0
 41
107.3571428571
 46
0.0
 71
     1
 72
     1
  1
Code: +M0IV8644I
 73
     1
 44
1.0
  0
MTEXT
  5
6E6
330
1B
100
AcDbEntity
 67
     1
  8
9_SOLID
  6
Continuous
 62
     2
100
AcDbMText
 10
4911.1882639488
 20
85.5790529754
 30
0.0
 40
6.0
 41
57.6428571429
 46
0.0
 71
     1
 72
     1
  1
Scale: 1:2
 73
     1
 44
1.0
  0
MTEXT
  5
6E7
330
1B
100
AcDbEntity
 67
     1
  8
9_SOLID
  6
Continuous
 62
     2
100
AcDbMText
 10
4978.2132639488
 20
85.5790529754
 30
0.0
 40
6.0
 41
83.1428571429
 46
0.0
 71
     2
 72
     1
  1
2500 by 3200
 73
     1
 44
1.0
  0
MTEXT
  5
6E8
330
1B
100
AcDbEntity
 67
     1
  8
9_SOLID
  6
Continuous
 62
     2
100
AcDbMText
 10
4791.1882639488
 20
73.5790529754
 30
0.0
 40
6.0
 41
304.2857142857
 46
0.0
 71
     1
 72
     1
  1
It descr.: CASSAFORMA RIO2.4 2011.5 mm AISI316
 73
     1
 44
1.0
  0
MTEXT
  5
6E9
330
1B
100
AcDbEntity
 67
     1
  8
9_SOLID
  6
Continuous
 62
     2
100
AcDbMText
 10
4791.1882639488
 20
61.5790529754
 30
0.0
 40
6.0
 41
67.9285714286
 46
0.0
 71
     1
 72
     1
  1
En descr.: 
 73
     1
 44
1.0
  0
MTEXT
  5
6EA
330
1B
100
AcDbEntity
 67
     1
  8
9_SOLID
  6
Continuous
 62
     2
100
AcDbMText
 10
4791.1882639488
 20
49.5790529754
 30
0.0
 40
6.0
 41
62.5714285714
 46
0.0
 71
     1
 72
     1
  1
Des.: S.Z.
 73
     1
 44
1.0
  0
MTEXT
  5
6EB
330
1B
100
AcDbEntity
 67
     1
  8
9_SOLID
  6
Continuous
 62
     2
100
AcDbMText
 10
4891.1882639488
 20
49.5790529754
 30
0.0
 40
6.0
 41
44.5714285714
 46
0.0
 71
     1
 72
     1
  1
Check: 
 73
     1
 44
1.0
  0
MTEXT
  5
6EC
330
1B
100
AcDbEntity
 67
     1
  8
9_SOLID
  6
Continuous
 62
     2
100
AcDbMText
 10
4731.1882639488
 20
37.5790529754
 30
0.0
 40
6.0
 41
87.0
 46
0.0
 71
     1
 72
     1
  1
Date: 07.12.18
 73
     1
 44
1.0
  0
MTEXT
  5
6ED
330
1B
100
AcDbEntity
 67
     1
  8
9_SOLID
  6
Continuous
 62
     2
100
AcDbMText
 10
4791.1882639488
 20
37.5790529754
 30
0.0
 40
6.0
 41
83.3571428571
 46
0.0
 71
     1
 72
     1
  1
Mat.: AISI304
 73
     1
 44
1.0
  0
MTEXT
  5
6EE
330
1B
100
AcDbEntity
 67
     1
  8
9_SOLID
  6
Continuous
 62
     2
100
AcDbMText
 10
4891.1882639488
 20
36.5790529754
 30
0.0
 40
4.0
 41
84.7142857143
 46
0.0
 71
     1
 72
     1
  1
Disegno per catalogo
 73
     1
 44
1.0
  0
MTEXT
  5
6EF
330
1B
100
AcDbEntity
 67
     1
  8
9_SOLID
  6
Continuous
 62
     2
100
AcDbMText
 10
4731.1882639488
 20
26.3790529754
 30
0.0
 40
3.6
 41
352.4142857143
 46
0.0
 71
     1
 72
     1
  1
It: A norma di legge si diffida da qualsiasi riproduzione senza nostra autorizzazione esplicita.
 73
     1
 44
1.0
  0
MTEXT
  5
6F0
330
1B
100
AcDbEntity
 67
     1
  8
9_SOLID
  6
Continuous
 62
     2
100
AcDbMText
 10
4731.1882639488
 20
18.3790529754
 30
0.0
 40
3.6
 41
316.2857142857
 46
0.0
 71
     1
 72
     1
  1
En: According to the law, beware of any reproduction made without our authorization.
 73
     1
 44
1.0
  0
ENDSEC
  0
SECTION
  2
OBJECTS
  0
DICTIONARY
  5
6F1
330
0
100
AcDbDictionary
281
     1
  3
ACAD_DETAILVIEWSTYLE
350
747
  3
ACAD_GROUP
350
6F2
  3
ACAD_LAYOUT
350
71A
  3
ACAD_MATERIAL
350
736
  3
ACAD_MLEADERSTYLE
350
73C
  3
ACAD_MLINESTYLE
350
6F3
  3
ACAD_PLOTSETTINGS
350
6F5
  3
ACAD_PLOTSTYLENAME
350
6F6
  3
ACAD_SCALELIST
350
6F8
  3
ACAD_SECTIONVIEWSTYLE
350
748
  3
ACAD_TABLESTYLE
350
73A
  3
ACAD_VISUALSTYLE
350
71D
  3
ACDB_RECOMPOSE_DATA
350
743
  3
AcDbVariableDictionary
350
73F
  3
APPDATA
350
73E
  0
DICTIONARY
  5
747
102
{ACAD_REACTORS
330
6F1
102
}
330
6F1
100
AcDbDictionary
281
     1
  0
DICTIONARY
  5
6F2
102
{ACAD_REACTORS
330
6F1
102
}
330
6F1
100
AcDbDictionary
281
     1
  0
DICTIONARY
  5
71A
102
{ACAD_REACTORS
330
6F1
102
}
330
6F1
100
AcDbDictionary
281
     1
  3
Foglio 1
350
71C
  3
Model
350
71B
  0
DICTIONARY
  5
736
102
{ACAD_REACTORS
330
6F1
102
}
330
6F1
100
AcDbDictionary
281
     1
  3
ByBlock
350
738
  3
ByLayer
350
737
  3
Global
350
739
  0
DICTIONARY
  5
73C
102
{ACAD_REACTORS
330
6F1
102
}
330
6F1
100
AcDbDictionary
281
     1
  3
Standard
350
73D
  0
DICTIONARY
  5
6F3
102
{ACAD_REACTORS
330
6F1
102
}
330
6F1
100
AcDbDictionary
281
     1
  3
STANDARD
350
6F4
  0
DICTIONARY
  5
6F5
102
{ACAD_REACTORS
330
6F1
102
}
330
6F1
100
AcDbDictionary
281
     1
  0
ACDBDICTIONARYWDFLT
  5
6F6
102
{ACAD_REACTORS
330
6F1
102
}
330
6F1
100
AcDbDictionary
281
     1
  3
Normal
350
6F7
100
AcDbDictionaryWithDefault
340
6F7
  0
DICTIONARY
  5
6F8
102
{ACAD_REACTORS
330
6F1
102
}
330
6F1
100
AcDbDictionary
281
     1
  3
A0
350
6F9
  3
A1
350
6FA
  3
A2
350
6FB
  3
A3
350
6FC
  3
A4
350
6FD
  3
A5
350
6FE
  3
A6
350
6FF
  3
A7
350
700
  3
A8
350
701
  3
A9
350
702
  3
B0
350
703
  3
B1
350
704
  3
B2
350
705
  3
B3
350
706
  3
B4
350
707
  3
B5
350
708
  3
B6
350
709
  3
B7
350
70A
  3
B8
350
70B
  3
B9
350
70C
  3
C0
350
70D
  3
C1
350
70E
  3
C2
350
70F
  3
C3
350
710
  3
C4
350
711
  3
C5
350
712
  3
C6
350
713
  3
C7
350
714
  3
C8
350
715
  3
C9
350
716
  3
D0
350
717
  3
D1
350
718
  3
D2
350
719
  0
DICTIONARY
  5
748
102
{ACAD_REACTORS
330
6F1
102
}
330
6F1
100
AcDbDictionary
281
     1
  0
DICTIONARY
  5
73A
102
{ACAD_REACTORS
330
6F1
102
}
330
6F1
100
AcDbDictionary
281
     1
  3
Standard
350
73B
  0
DICTIONARY
  5
71D
102
{ACAD_REACTORS
330
6F1
102
}
330
6F1
100
AcDbDictionary
281
     1
  3
2dWireframe
350
722
  3
Basic
350
725
  3
Brighten
350
729
  3
ColorChange
350
72D
  3
Conceptual
350
727
  3
Dim
350
728
  3
EdgeColorOff
350
730
  3
Facepattern
350
72C
  3
Flat
350
71E
  3
FlatWithEdges
350
71F
  3
Gouraud
350
720
  3
GouraudWithEdges
350
721
  3
Hidden
350
724
  3
JitterOff
350
72E
  3
Linepattern
350
72B
  3
OverhangOff
350
72F
  3
Realistic
350
726
  3
Shaded
350
735
  3
Shaded with edges
350
734
  3
Shades of Gray
350
731
  3
Sketchy
350
732
  3
Thicken
350
72A
  3
Wireframe
350
723
  3
X-Ray
350
733
  0
XRECORD
  5
743
102
{ACAD_REACTORS
330
6F1
102
}
330
6F1
100
AcDbXrecord
280
     1
 90
        1
330
73B
  0
DICTIONARY
  5
73F
102
{ACAD_REACTORS
330
6F1
102
}
330
6F1
100
AcDbDictionary
281
     1
  3
CANNOSCALE
350
740
  3
CMLEADERSTYLE
350
745
  3
CTABLESTYLE
350
744
  3
MSLTSCALE
350
746
  0
DICTIONARY
  5
73E
102
{ACAD_REACTORS
330
6F1
102
}
330
6F1
100
AcDbDictionary
281
     1
  0
LAYOUT
  5
71C
102
{ACAD_REACTORS
330
71A
102
}
330
71A
100
AcDbPlotSettings
  1

  2
none_device
  4
ISO_A3_(420.00_x_297.00_MM)
  6

 40
7.5
 41
20.0
 42
7.5
 43
20.0
 44
420.0
 45
297.0
 46
0.0
 47
0.0
 48
0.0
 49
0.0
140
0.0
141
0.0
142
1.0
143
24.90272373540856
 70
   688
 72
     1
 73
     0
 74
     1
  7

 75
     0
 76
     0
 77
     2
 78
   300
147
0.04015625
148
0.0
149
0.0
100
AcDbLayout
  1
Foglio 1
 70
     1
 71
     1
 10
0.0
 20
0.0
 11
412.5
 21
277.0
 12
0.0
 22
0.0
 32
0.0
 14
0.0
 24
0.0
 34
0.0
 15
5006.2632639488
 25
6400.0
 35
0.0
146
0.0
 13
0.0
 23
0.0
 33
0.0
 16
1.0
 26
0.0
 36
0.0
 17
0.0
 27
1.0
 37
0.0
 76
     0
330
1B
331
2A9
  0
LAYOUT
  5
71B
102
{ACAD_REACTORS
330
71A
102
}
330
71A
100
AcDbPlotSettings
  1

  2
none_device
  4
Letter_(8.50_x_11.00_Inches)
  6

 40
6.35
 41
6.35
 42
6.35
 43
6.35
 44
215.9
 45
279.4
 46
0.0
 47
0.0
 48
0.0
 49
0.0
140
0.0
141
0.0
142
1.0
143
625.0
 70
  1712
 72
     0
 73
     0
 74
     0
  7

 75
     0
 76
     0
 77
     2
 78
   300
147
0.0016
148
0.0
149
0.0
100
AcDbLayout
  1
Model
 70
     1
 71
     0
 10
0.0
 20
0.0
 11
5000.0
 21
6400.0
 12
0.0
 22
0.0
 32
0.0
 14
0.0
 24
0.0
 34
0.0
 15
5000.0
 25
6400.0
 35
0.0
146
0.0
 13
0.0
 23
0.0
 33
0.0
 16
1.0
 26
0.0
 36
0.0
 17
0.0
 27
1.0
 37
0.0
 76
     0
330
1F
331
1F4
  0
MATERIAL
  5
738
102
{ACAD_REACTORS
330
736
102
}
330
736
100
AcDbMaterial
  1
ByBlock
 72
     1
 94
      127
  0
MATERIAL
  5
737
102
{ACAD_REACTORS
330
736
102
}
330
736
100
AcDbMaterial
  1
ByLayer
 72
     1
 94
      127
  0
MATERIAL
  5
739
102
{ACAD_REACTORS
330
736
102
}
330
736
100
AcDbMaterial
  1
Global
 72
     1
 94
      127
  0
MLEADERSTYLE
  5
73D
102
{ACAD_REACTORS
330
73C
102
}
330
73C
100
AcDbMLeaderStyle
179
     2
170
     2
171
     1
172
     0
 90
        2
 40
0.0
 41
0.0
173
     1
 91
-1056964608
340
14
 92
       -2
290
     1
 42
2.0
291
     1
 43
8.0
  3
Standard
341
0
 44
4.0
300

342
11
174
     1
178
     1
175
     1
176
     0
 93
-1056964608
 45
4.0
292
     0
297
     0
 46
4.0
343
0
 94
-1056964608
 47
1.0
 49
1.0
140
1.0
293
     1
141
0.0
294
     1
177
     0
142
1.0
295
     0
296
     0
143
3.75
271
     0
272
     9
273
     9
298
     0
  0
MLINESTYLE
  5
6F4
102
{ACAD_REACTORS
330
6F3
102
}
330
6F3
100
AcDbMlineStyle
  2
STANDARD
 70
     0
  3

 62
   256
 51
90.0
 52
90.0
 71
     2
 49
0.5
 62
   256
  6
BYLAYER
 49
-0.5
 62
   256
  6
BYLAYER
  0
ACDBPLACEHOLDER
  5
6F7
102
{ACAD_REACTORS
330
6F6
102
}
330
6F6
  0
SCALE
  5
6F9
102
{ACAD_REACTORS
330
6F8
102
}
330
6F8
100
AcDbScale
 70
     0
300
1:1
140
1.0
141
1.0
290
     1
  0
SCALE
  5
6FA
102
{ACAD_REACTORS
330
6F8
102
}
330
6F8
100
AcDbScale
 70
     0
300
1:2
140
1.0
141
2.0
290
     0
  0
SCALE
  5
6FB
102
{ACAD_REACTORS
330
6F8
102
}
330
6F8
100
AcDbScale
 70
     0
300
1:4
140
1.0
141
4.0
290
     0
  0
SCALE
  5
6FC
102
{ACAD_REACTORS
330
6F8
102
}
330
6F8
100
AcDbScale
 70
     0
300
1:5
140
1.0
141
5.0
290
     0
  0
SCALE
  5
6FD
102
{ACAD_REACTORS
330
6F8
102
}
330
6F8
100
AcDbScale
 70
     0
300
1:8
140
1.0
141
8.0
290
     0
  0
SCALE
  5
6FE
102
{ACAD_REACTORS
330
6F8
102
}
330
6F8
100
AcDbScale
 70
     0
300
1:10
140
1.0
141
10.0
290
     0
  0
SCALE
  5
6FF
102
{ACAD_REACTORS
330
6F8
102
}
330
6F8
100
AcDbScale
 70
     0
300
1:16
140
1.0
141
16.0
290
     0
  0
SCALE
  5
700
102
{ACAD_REACTORS
330
6F8
102
}
330
6F8
100
AcDbScale
 70
     0
300
1:20
140
1.0
141
20.0
290
     0
  0
SCALE
  5
701
102
{ACAD_REACTORS
330
6F8
102
}
330
6F8
100
AcDbScale
 70
     0
300
1:30
140
1.0
141
30.0
290
     0
  0
SCALE
  5
702
102
{ACAD_REACTORS
330
6F8
102
}
330
6F8
100
AcDbScale
 70
     0
300
1:40
140
1.0
141
40.0
290
     0
  0
SCALE
  5
703
102
{ACAD_REACTORS
330
6F8
102
}
330
6F8
100
AcDbScale
 70
     0
300
1:50
140
1.0
141
50.0
290
     0
  0
SCALE
  5
704
102
{ACAD_REACTORS
330
6F8
102
}
330
6F8
100
AcDbScale
 70
     0
300
1:100
140
1.0
141
100.0
290
     0
  0
SCALE
  5
705
102
{ACAD_REACTORS
330
6F8
102
}
330
6F8
100
AcDbScale
 70
     0
300
2:1
140
2.0
141
1.0
290
     0
  0
SCALE
  5
706
102
{ACAD_REACTORS
330
6F8
102
}
330
6F8
100
AcDbScale
 70
     0
300
4:1
140
4.0
141
1.0
290
     0
  0
SCALE
  5
707
102
{ACAD_REACTORS
330
6F8
102
}
330
6F8
100
AcDbScale
 70
     0
300
8:1
140
8.0
141
1.0
290
     0
  0
SCALE
  5
708
102
{ACAD_REACTORS
330
6F8
102
}
330
6F8
100
AcDbScale
 70
     0
300
10:1
140
10.0
141
1.0
290
     0
  0
SCALE
  5
709
102
{ACAD_REACTORS
330
6F8
102
}
330
6F8
100
AcDbScale
 70
     0
300
100:1
140
100.0
141
1.0
290
     0
  0
SCALE
  5
70A
102
{ACAD_REACTORS
330
6F8
102
}
330
6F8
100
AcDbScale
 70
     0
300
1/128" = 1'-0"
140
0.0078125
141
12.0
290
     0
  0
SCALE
  5
70B
102
{ACAD_REACTORS
330
6F8
102
}
330
6F8
100
AcDbScale
 70
     0
300
1/64" = 1'-0"
140
0.015625
141
12.0
290
     0
  0
SCALE
  5
70C
102
{ACAD_REACTORS
330
6F8
102
}
330
6F8
100
AcDbScale
 70
     0
300
1/32" = 1'-0"
140
0.03125
141
12.0
290
     0
  0
SCALE
  5
70D
102
{ACAD_REACTORS
330
6F8
102
}
330
6F8
100
AcDbScale
 70
     0
300
1/16" = 1'-0"
140
0.0625
141
12.0
290
     0
  0
SCALE
  5
70E
102
{ACAD_REACTORS
330
6F8
102
}
330
6F8
100
AcDbScale
 70
     0
300
3/32" = 1'-0"
140
0.09375
141
12.0
290
     0
  0
SCALE
  5
70F
102
{ACAD_REACTORS
330
6F8
102
}
330
6F8
100
AcDbScale
 70
     0
300
1/8" = 1'-0"
140
0.125
141
12.0
290
     0
  0
SCALE
  5
710
102
{ACAD_REACTORS
330
6F8
102
}
330
6F8
100
AcDbScale
 70
     0
300
3/16" = 1'-0"
140
0.1875
141
12.0
290
     0
  0
SCALE
  5
711
102
{ACAD_REACTORS
330
6F8
102
}
330
6F8
100
AcDbScale
 70
     0
300
1/4" = 1'-0"
140
0.25
141
12.0
290
     0
  0
SCALE
  5
712
102
{ACAD_REACTORS
330
6F8
102
}
330
6F8
100
AcDbScale
 70
     0
300
3/8" = 1'-0"
140
0.375
141
12.0
290
     0
  0
SCALE
  5
713
102
{ACAD_REACTORS
330
6F8
102
}
330
6F8
100
AcDbScale
 70
     0
300
1/2" = 1'-0"
140
0.5
141
12.0
290
     0
  0
SCALE
  5
714
102
{ACAD_REACTORS
330
6F8
102
}
330
6F8
100
AcDbScale
 70
     0
300
3/4" = 1'-0"
140
0.75
141
12.0
290
     0
  0
SCALE
  5
715
102
{ACAD_REACTORS
330
6F8
102
}
330
6F8
100
AcDbScale
 70
     0
300
1" = 1'-0"
140
1.0
141
12.0
290
     0
  0
SCALE
  5
716
102
{ACAD_REACTORS
330
6F8
102
}
330
6F8
100
AcDbScale
 70
     0
300
1-1/2" = 1'-0"
140
1.5
141
12.0
290
     0
  0
SCALE
  5
717
102
{ACAD_REACTORS
330
6F8
102
}
330
6F8
100
AcDbScale
 70
     0
300
3" = 1'-0"
140
3.0
141
12.0
290
     0
  0
SCALE
  5
718
102
{ACAD_REACTORS
330
6F8
102
}
330
6F8
100
AcDbScale
 70
     0
300
6" = 1'-0"
140
6.0
141
12.0
290
     0
  0
SCALE
  5
719
102
{ACAD_REACTORS
330
6F8
102
}
330
6F8
100
AcDbScale
 70
     0
300
1'-0" = 1'-0"
140
12.0
141
12.0
290
     0
  0
TABLESTYLE
  5
73B
102
{ACAD_REACTORS
330
73A
102
}
102
{ACAD_XDICTIONARY
360
741
102
}
330
73A
100
AcDbTableStyle
  3
Standard
 70
     0
 71
     0
 40
0.06
 41
0.06
280
     0
281
     0
  7
STANDARD
140
4.5
170
     2
 62
     0
 63
   257
283
     0
 90
        4
 91
        0
  1

274
    -2
284
     1
 64
     0
275
    -2
285
     1
 65
     0
276
    -2
286
     1
 66
     0
277
    -2
287
     1
 67
     0
278
    -2
288
     1
 68
     0
279
    -2
289
     1
 69
     0
  7
STANDARD
140
6.0
170
     5
 62
     0
 63
   257
283
     0
 90
        4
 91
        0
  1

274
    -2
284
     1
 64
     0
275
    -2
285
     1
 65
     0
276
    -2
286
     1
 66
     0
277
    -2
287
     1
 67
     0
278
    -2
288
     1
 68
     0
279
    -2
289
     1
 69
     0
  7
STANDARD
140
4.5
170
     5
 62
     0
 63
   257
283
     0
 90
        4
 91
        0
  1

274
    -2
284
     1
 64
     0
275
    -2
285
     1
 65
     0
276
    -2
286
     1
 66
     0
277
    -2
287
     1
 67
     0
278
    -2
288
     1
 68
     0
279
    -2
289
     1
 69
     0
  0
VISUALSTYLE
  5
722
102
{ACAD_REACTORS
330
71D
102
}
330
71D
100
AcDbVisualStyle
  2
2dWireframe
 70
     4
177
     3
291
     0
 70
    58
 90
        0
176
     1
 90
        2
176
     1
 90
        0
176
     1
 90
        0
176
     1
 40
0.6
176
     1
 40
30.0
176
     1
 62
     7
420
 16777215
176
     1
 90
        1
176
     1
 90
        4
176
     1
 62
     7
176
     1
 62
   257
176
     1
 90
        1
176
     1
 90
        1
176
     1
 40
1.0
176
     1
 90
        0
176
     1
 62
   257
176
     1
 40
1.0
176
     1
 90
        1
176
     1
 90
        6
176
     1
 90
        2
176
     1
 62
     7
176
     1
 90
        5
176
     1
 90
        0
176
     1
 90
        0
176
     1
290
     0
176
     1
 90
        1
176
     1
 40
0.0
176
     1
 90
        0
176
     1
290
     1
176
     1
290
     1
176
     1
290
     0
176
     1
290
     0
176
     1
290
     0
176
     1
290
     0
176
     1
290
     0
176
     1
290
     0
176
     1
290
     0
176
     1
 90
       50
176
     1
 40
0.0
176
     1
 40
1.0
176
     1
 90
        0
176
     1
 62
    18
420
        0
176
     1
 90
       50
176
     1
 90
        3
176
     1
 62
     5
420
      255
176
     1
290
     0
176
     1
 90
       50
176
     1
 90
       50
176
     1
 90
       50
176
     1
290
     0
176
     1
 90
       50
176
     1
 62
   256
176
     0
 40
1.0
176
     0
 90
        2
176
     1
  1
strokes_ogs.tif
176
     1
290
     0
176
     1
 40
1.0
176
     1
 40
1.0
176
     1
  0
VISUALSTYLE
  5
725
102
{ACAD_REACTORS
330
71D
102
}
330
71D
100
AcDbVisualStyle
  2
Basic
 70
     7
177
     3
291
     1
 70
    58
 90
        1
176
     1
 90
        0
176
     1
 90
        1
176
     1
 90
        0
176
     1
 40
0.6
176
     1
 40
30.0
176
     1
 62
     7
420
 16777215
176
     1
 90
        0
176
     1
 90
        4
176
     1
 62
     7
176
     1
 62
   257
176
     1
 90
        1
176
     1
 90
        1
176
     1
 40
1.0
176
     1
 90
        8
176
     1
 62
     7
176
     1
 40
1.0
176
     1
 90
        1
176
     1
 90
        6
176
     1
 90
        2
176
     1
 62
     7
176
     1
 90
        5
176
     1
 90
        0
176
     1
 90
        0
176
     1
290
     0
176
     1
 90
        1
176
     1
 40
0.0
176
     1
 90
        0
176
     1
290
     0
176
     1
290
     1
176
     1
290
     1
176
     1
290
     0
176
     1
290
     0
176
     1
290
     0
176
     1
290
     0
176
     1
290
     0
176
     1
290
     0
176
     1
 90
       50
176
     1
 40
0.0
176
     1
 40
1.0
176
     1
 90
        0
176
     1
 62
    18
420
        0
176
     1
 90
       50
176
     1
 90
        3
176
     1
 62
     5
420
      255
176
     1
290
     0
176
     1
 90
       50
176
     1
 90
       50
176
     1
 90
       50
176
     1
290
     0
176
     1
 90
       50
176
     1
 62
   256
176
     0
 40
1.0
176
     0
 90
        2
176
     1
  1
strokes_ogs.tif
176
     1
290
     0
176
     1
 40
1.0
176
     1
 40
1.0
176
     1
  0
VISUALSTYLE
  5
729
102
{ACAD_REACTORS
330
71D
102
}
330
71D
100
AcDbVisualStyle
  2
Brighten
 70
    12
177
     3
291
     1
 70
    58
 90
        2
176
     1
 90
        2
176
     1
 90
        0
176
     1
 90
        0
176
     1
 40
0.6
176
     1
 40
30.0
176
     1
 62
     7
420
 16777215
176
     1
 90
        1
176
     1
 90
        4
176
     1
 62
     7
176
     1
 62
   257
176
     1
 90
        1
176
     1
 90
        1
176
     1
 40
1.0
176
     1
 90
        8
176
     1
 62
     7
176
     1
 40
1.0
176
     1
 90
        1
176
     1
 90
        6
176
     1
 90
        2
176
     1
 62
     7
176
     1
 90
        5
176
     1
 90
        0
176
     1
 90
        0
176
     1
290
     0
176
     1
 90
        1
176
     1
 40
50.0
176
     1
 90
        0
176
     1
290
     0
176
     1
290
     1
176
     1
290
     1
176
     1
290
     0
176
     1
290
     0
176
     1
290
     0
176
     1
290
     0
176
     1
290
     0
176
     1
290
     0
176
     1
 90
       50
176
     1
 40
0.0
176
     1
 40
1.0
176
     1
 90
        0
176
     1
 62
    18
420
        0
176
     1
 90
       50
176
     1
 90
        3
176
     1
 62
     5
420
      255
176
     1
290
     0
176
     1
 90
       50
176
     1
 90
       50
176
     1
 90
       50
176
     1
290
     0
176
     1
 90
       50
176
     1
 62
   256
176
     0
 40
1.0
176
     0
 90
        2
176
     1
  1
strokes_ogs.tif
176
     1
290
     0
176
     1
 40
1.0
176
     1
 40
1.0
176
     1
  0
VISUALSTYLE
  5
72D
102
{ACAD_REACTORS
330
71D
102
}
330
71D
100
AcDbVisualStyle
  2
ColorChange
 70
    16
177
     3
291
     1
 70
    58
 90
        2
176
     1
 90
        2
176
     1
 90
        3
176
     1
 90
        0
176
     1
 40
0.6
176
     1
 40
30.0
176
     1
 62
     8
420
  8421504
176
     1
 90
        1
176
     1
 90
        4
176
     1
 62
     7
176
     1
 62
   257
176
     1
 90
        1
176
     1
 90
        1
176
     1
 40
1.0
176
     1
 90
        8
176
     1
 62
     8
420
  8421504
176
     1
 40
1.0
176
     1
 90
        1
176
     1
 90
        6
176
     1
 90
        2
176
     1
 62
     7
176
     1
 90
        5
176
     1
 90
        0
176
     1
 90
        0
176
     1
290
     0
176
     1
 90
        1
176
     1
 40
0.0
176
     1
 90
        0
176
     1
290
     0
176
     1
290
     1
176
     1
290
     1
176
     1
290
     0
176
     1
290
     0
176
     1
290
     0
176
     1
290
     0
176
     1
290
     0
176
     1
290
     0
176
     1
 90
       50
176
     1
 40
0.0
176
     1
 40
1.0
176
     1
 90
        0
176
     1
 62
    18
420
        0
176
     1
 90
       50
176
     1
 90
        3
176
     1
 62
     5
420
      255
176
     1
290
     0
176
     1
 90
       50
176
     1
 90
       50
176
     1
 90
       50
176
     1
290
     0
176
     1
 90
       50
176
     1
 62
   256
176
     0
 40
1.0
176
     0
 90
        2
176
     1
  1
strokes_ogs.tif
176
     1
290
     0
176
     1
 40
1.0
176
     1
 40
1.0
176
     1
  0
VISUALSTYLE
  5
727
102
{ACAD_REACTORS
330
71D
102
}
330
71D
100
AcDbVisualStyle
  2
Conceptual
 70
     9
177
     3
291
     0
 70
    58
 90
        3
176
     1
 90
        2
176
     1
 90
        0
176
     1
 90
        0
176
     1
 40
0.6
176
     1
 40
30.0
176
     1
 62
     7
420
 16777215
176
     1
 90
        2
176
     1
 90
        2
176
     1
 62
     7
176
     1
 62
   257
176
     1
 90
        1
176
     1
 90
        1
176
     1
 40
179.0
176
     1
 90
        8
176
     1
 62
     7
176
     1
 40
1.0
176
     1
 90
        1
176
     1
 90
        6
176
     1
 90
        2
176
     1
 62
     7
176
     1
 90
        3
176
     1
 90
        0
176
     1
 90
        0
176
     1
290
     0
176
     1
 90
        1
176
     1
 40
0.0
176
     1
 90
        0
176
     1
290
     0
176
     1
290
     1
176
     1
290
     1
176
     1
290
     0
176
     1
290
     0
176
     1
290
     0
176
     1
290
     0
176
     1
290
     0
176
     1
290
     0
176
     1
 90
       50
176
     1
 40
0.0
176
     1
 40
1.0
176
     1
 90
        0
176
     1
 62
    18
420
        0
176
     1
 90
       50
176
     1
 90
        3
176
     1
 62
     5
420
      255
176
     1
290
     0
176
     1
 90
       50
176
     1
 90
       50
176
     1
 90
       50
176
     1
290
     0
176
     1
 90
       50
176
     1
 62
   256
176
     0
 40
1.0
176
     0
 90
        2
176
     1
  1
strokes_ogs.tif
176
     1
290
     0
176
     1
 40
1.0
176
     1
 40
1.0
176
     1
  0
VISUALSTYLE
  5
728
102
{ACAD_REACTORS
330
71D
102
}
330
71D
100
AcDbVisualStyle
  2
Dim
 70
    11
177
     3
291
     1
 70
    58
 90
        2
176
     1
 90
        2
176
     1
 90
        0
176
     1
 90
        0
176
     1
 40
0.6
176
     1
 40
30.0
176
     1
 62
     7
420
 16777215
176
     1
 90
        1
176
     1
 90
        4
176
     1
 62
     7
176
     1
 62
   257
176
     1
 90
        1
176
     1
 90
        1
176
     1
 40
1.0
176
     1
 90
        8
176
     1
 62
     7
176
     1
 40
1.0
176
     1
 90
        1
176
     1
 90
        6
176
     1
 90
        2
176
     1
 62
     7
176
     1
 90
        5
176
     1
 90
        0
176
     1
 90
        0
176
     1
290
     0
176
     1
 90
        1
176
     1
 40
-50.0
176
     1
 90
        0
176
     1
290
     0
176
     1
290
     1
176
     1
290
     1
176
     1
290
     0
176
     1
290
     0
176
     1
290
     0
176
     1
290
     0
176
     1
290
     0
176
     1
290
     0
176
     1
 90
       50
176
     1
 40
0.0
176
     1
 40
1.0
176
     1
 90
        0
176
     1
 62
    18
420
        0
176
     1
 90
       50
176
     1
 90
        3
176
     1
 62
     5
420
      255
176
     1
290
     0
176
     1
 90
       50
176
     1
 90
       50
176
     1
 90
       50
176
     1
290
     0
176
     1
 90
       50
176
     1
 62
   256
176
     0
 40
1.0
176
     0
 90
        2
176
     1
  1
strokes_ogs.tif
176
     1
290
     0
176
     1
 40
1.0
176
     1
 40
1.0
176
     1
  0
VISUALSTYLE
  5
730
102
{ACAD_REACTORS
330
71D
102
}
330
71D
100
AcDbVisualStyle
  2
EdgeColorOff
 70
    22
177
     3
291
     1
 70
    58
 90
        2
176
     0
 90
        2
176
     0
 90
        0
176
     0
 90
        0
176
     0
 40
0.6
176
     0
 40
30.0
176
     0
 62
     7
420
 16777215
176
     0
 90
        1
176
     0
 90
        4
176
     0
 62
     7
176
     0
 62
   257
176
     0
 90
        1
176
     0
 90
        1
176
     0
 40
1.0
176
     0
 90
        8
176
     2
 62
     7
176
     0
 40
1.0
176
     0
 90
        1
176
     0
 90
        6
176
     0
 90
        2
176
     0
 62
     7
176
     0
 90
        5
176
     0
 90
        0
176
     0
 90
        0
176
     0
290
     0
176
     0
 90
        1
176
     0
 40
0.0
176
     0
 90
        0
176
     0
290
     0
176
     0
290
     1
176
     0
290
     1
176
     0
290
     0
176
     0
290
     0
176
     0
290
     0
176
     0
290
     0
176
     0
290
     0
176
     0
290
     0
176
     0
 90
       50
176
     0
 40
0.0
176
     0
 40
1.0
176
     0
 90
        0
176
     0
 62
    18
420
        0
176
     0
 90
       50
176
     0
 90
        3
176
     0
 62
     5
420
      255
176
     0
290
     0
176
     0
 90
       50
176
     0
 90
       50
176
     0
 90
       50
176
     0
290
     0
176
     0
 90
       50
176
     0
 62
   256
176
     0
 40
1.0
176
     0
 90
        2
176
     0
  1
strokes_ogs.tif
176
     0
290
     0
176
     0
 40
1.0
176
     0
 40
1.0
176
     0
  0
VISUALSTYLE
  5
72C
102
{ACAD_REACTORS
330
71D
102
}
330
71D
100
AcDbVisualStyle
  2
Facepattern
 70
    15
177
     3
291
     1
 70
    58
 90
        2
176
     1
 90
        2
176
     1
 90
        0
176
     1
 90
        0
176
     1
 40
0.6
176
     1
 40
30.0
176
     1
 62
     7
420
 16777215
176
     1
 90
        1
176
     1
 90
        4
176
     1
 62
     7
176
     1
 62
   257
176
     1
 90
        1
176
     1
 90
        1
176
     1
 40
1.0
176
     1
 90
        8
176
     1
 62
     7
176
     1
 40
1.0
176
     1
 90
        1
176
     1
 90
        6
176
     1
 90
        2
176
     1
 62
     7
176
     1
 90
        5
176
     1
 90
        0
176
     1
 90
        0
176
     1
290
     0
176
     1
 90
        1
176
     1
 40
0.0
176
     1
 90
        0
176
     1
290
     0
176
     1
290
     1
176
     1
290
     1
176
     1
290
     0
176
     1
290
     0
176
     1
290
     0
176
     1
290
     0
176
     1
290
     0
176
     1
290
     0
176
     1
 90
       50
176
     1
 40
0.0
176
     1
 40
1.0
176
     1
 90
        0
176
     1
 62
    18
420
        0
176
     1
 90
       50
176
     1
 90
        3
176
     1
 62
     5
420
      255
176
     1
290
     0
176
     1
 90
       50
176
     1
 90
       50
176
     1
 90
       50
176
     1
290
     0
176
     1
 90
       50
176
     1
 62
   256
176
     0
 40
1.0
176
     0
 90
        2
176
     1
  1
strokes_ogs.tif
176
     1
290
     0
176
     1
 40
1.0
176
     1
 40
1.0
176
     1
  0
VISUALSTYLE
  5
71E
102
{ACAD_REACTORS
330
71D
102
}
330
71D
100
AcDbVisualStyle
  2
Flat
 70
     0
177
     3
291
     1
 70
    58
 90
        2
176
     1
 90
        1
176
     1
 90
        1
176
     1
 90
        2
176
     1
 40
0.6
176
     1
 40
30.0
176
     1
 62
     7
420
 16777215
176
     1
 90
        0
176
     1
 90
        0
176
     1
 62
     7
176
     1
 62
   257
176
     1
 90
        1
176
     1
 90
        1
176
     1
 40
1.0
176
     1
 90
        8
176
     1
 62
     7
176
     1
 40
1.0
176
     1
 90
        1
176
     1
 90
        6
176
     1
 90
        2
176
     1
 62
     7
176
     1
 90
        5
176
     1
 90
        0
176
     1
 90
        0
176
     1
290
     0
176
     1
 90
       13
176
     1
 40
0.0
176
     1
 90
        0
176
     1
290
     0
176
     1
290
     1
176
     1
290
     1
176
     1
290
     0
176
     1
290
     0
176
     1
290
     0
176
     1
290
     0
176
     1
290
     0
176
     1
290
     0
176
     1
 90
       50
176
     1
 40
0.0
176
     1
 40
1.0
176
     1
 90
        0
176
     1
 62
    18
420
        0
176
     1
 90
       50
176
     1
 90
        3
176
     1
 62
     5
420
      255
176
     1
290
     0
176
     1
 90
       50
176
     1
 90
       50
176
     1
 90
       50
176
     1
290
     0
176
     1
 90
       50
176
     1
 62
   256
176
     0
 40
1.0
176
     0
 90
        2
176
     1
  1
strokes_ogs.tif
176
     1
290
     0
176
     1
 40
1.0
176
     1
 40
1.0
176
     1
  0
VISUALSTYLE
  5
71F
102
{ACAD_REACTORS
330
71D
102
}
330
71D
100
AcDbVisualStyle
  2
FlatWithEdges
 70
     1
177
     3
291
     1
 70
    58
 90
        2
176
     1
 90
        1
176
     1
 90
        1
176
     1
 90
        2
176
     1
 40
0.6
176
     1
 40
30.0
176
     1
 62
     7
420
 16777215
176
     1
 90
        1
176
     1
 90
        0
176
     1
 62
     7
176
     1
 62
   257
176
     1
 90
        1
176
     1
 90
        1
176
     1
 40
1.0
176
     1
 90
        0
176
     1
 62
   257
176
     1
 40
1.0
176
     1
 90
        1
176
     1
 90
        6
176
     1
 90
        2
176
     1
 62
     7
176
     1
 90
        5
176
     1
 90
        0
176
     1
 90
        0
176
     1
290
     0
176
     1
 90
       13
176
     1
 40
0.0
176
     1
 90
        0
176
     1
290
     0
176
     1
290
     1
176
     1
290
     1
176
     1
290
     0
176
     1
290
     0
176
     1
290
     0
176
     1
290
     0
176
     1
290
     0
176
     1
290
     0
176
     1
 90
       50
176
     1
 40
0.0
176
     1
 40
1.0
176
     1
 90
        0
176
     1
 62
    18
420
        0
176
     1
 90
       50
176
     1
 90
        3
176
     1
 62
     5
420
      255
176
     1
290
     0
176
     1
 90
       50
176
     1
 90
       50
176
     1
 90
       50
176
     1
290
     0
176
     1
 90
       50
176
     1
 62
   256
176
     0
 40
1.0
176
     0
 90
        2
176
     1
  1
strokes_ogs.tif
176
     1
290
     0
176
     1
 40
1.0
176
     1
 40
1.0
176
     1
  0
VISUALSTYLE
  5
720
102
{ACAD_REACTORS
330
71D
102
}
330
71D
100
AcDbVisualStyle
  2
Gouraud
 70
     2
177
     3
291
     1
 70
    58
 90
        2
176
     1
 90
        2
176
     1
 90
        1
176
     1
 90
        2
176
     1
 40
0.6
176
     1
 40
30.0
176
     1
 62
     7
420
 16777215
176
     1
 90
        0
176
     1
 90
        0
176
     1
 62
     7
176
     1
 62
   257
176
     1
 90
        1
176
     1
 90
        1
176
     1
 40
1.0
176
     1
 90
        0
176
     1
 62
     7
176
     1
 40
1.0
176
     1
 90
        1
176
     1
 90
        6
176
     1
 90
        2
176
     1
 62
     7
176
     1
 90
        5
176
     1
 90
        0
176
     1
 90
        0
176
     1
290
     0
176
     1
 90
       13
176
     1
 40
0.0
176
     1
 90
        0
176
     1
290
     0
176
     1
290
     1
176
     1
290
     1
176
     1
290
     0
176
     1
290
     0
176
     1
290
     0
176
     1
290
     0
176
     1
290
     0
176
     1
290
     0
176
     1
 90
       50
176
     1
 40
0.0
176
     1
 40
1.0
176
     1
 90
        0
176
     1
 62
    18
420
        0
176
     1
 90
       50
176
     1
 90
        3
176
     1
 62
     5
420
      255
176
     1
290
     0
176
     1
 90
       50
176
     1
 90
       50
176
     1
 90
       50
176
     1
290
     0
176
     1
 90
       50
176
     1
 62
   256
176
     0
 40
1.0
176
     0
 90
        2
176
     1
  1
strokes_ogs.tif
176
     1
290
     0
176
     1
 40
1.0
176
     1
 40
1.0
176
     1
  0
VISUALSTYLE
  5
721
102
{ACAD_REACTORS
330
71D
102
}
330
71D
100
AcDbVisualStyle
  2
GouraudWithEdges
 70
     3
177
     3
291
     1
 70
    58
 90
        2
176
     1
 90
        2
176
     1
 90
        1
176
     1
 90
        2
176
     1
 40
0.6
176
     1
 40
30.0
176
     1
 62
     7
420
 16777215
176
     1
 90
        1
176
     1
 90
        0
176
     1
 62
     7
176
     1
 62
   257
176
     1
 90
        1
176
     1
 90
        1
176
     1
 40
1.0
176
     1
 90
        0
176
     1
 62
   257
176
     1
 40
1.0
176
     1
 90
        1
176
     1
 90
        6
176
     1
 90
        2
176
     1
 62
     7
176
     1
 90
        5
176
     1
 90
        0
176
     1
 90
        0
176
     1
290
     0
176
     1
 90
       13
176
     1
 40
0.0
176
     1
 90
        0
176
     1
290
     0
176
     1
290
     1
176
     1
290
     1
176
     1
290
     0
176
     1
290
     0
176
     1
290
     0
176
     1
290
     0
176
     1
290
     0
176
     1
290
     0
176
     1
 90
       50
176
     1
 40
0.0
176
     1
 40
1.0
176
     1
 90
        0
176
     1
 62
    18
420
        0
176
     1
 90
       50
176
     1
 90
        3
176
     1
 62
     5
420
      255
176
     1
290
     0
176
     1
 90
       50
176
     1
 90
       50
176
     1
 90
       50
176
     1
290
     0
176
     1
 90
       50
176
     1
 62
   256
176
     0
 40
1.0
176
     0
 90
        2
176
     1
  1
strokes_ogs.tif
176
     1
290
     0
176
     1
 40
1.0
176
     1
 40
1.0
176
     1
  0
VISUALSTYLE
  5
724
102
{ACAD_REACTORS
330
71D
102
}
330
71D
100
AcDbVisualStyle
  2
Hidden
 70
     6
177
     3
291
     0
 70
    58
 90
        1
176
     1
 90
        2
176
     1
 90
        2
176
     1
 90
        0
176
     1
 40
0.6
176
     1
 40
30.0
176
     1
 62
     7
420
 16777215
176
     1
 90
        2
176
     1
 90
        2
176
     1
 62
     7
176
     1
 62
   257
176
     1
 90
        2
176
     1
 90
        1
176
     1
 40
40.0
176
     1
 90
        0
176
     1
 62
   257
176
     1
 40
1.0
176
     1
 90
        1
176
     1
 90
        6
176
     1
 90
        2
176
     1
 62
     7
176
     1
 90
        3
176
     1
 90
        0
176
     1
 90
        0
176
     1
290
     0
176
     1
 90
        1
176
     1
 40
0.0
176
     1
 90
        0
176
     1
290
     0
176
     1
290
     1
176
     1
290
     1
176
     1
290
     0
176
     1
290
     0
176
     1
290
     0
176
     1
290
     0
176
     1
290
     0
176
     1
290
     0
176
     1
 90
       50
176
     1
 40
0.0
176
     1
 40
1.0
176
     1
 90
        0
176
     1
 62
    18
420
        0
176
     1
 90
       50
176
     1
 90
        3
176
     1
 62
     5
420
      255
176
     1
290
     0
176
     1
 90
       50
176
     1
 90
       50
176
     1
 90
       50
176
     1
290
     0
176
     1
 90
       50
176
     1
 62
   256
176
     0
 40
1.0
176
     0
 90
        2
176
     1
  1
strokes_ogs.tif
176
     1
290
     0
176
     1
 40
1.0
176
     1
 40
1.0
176
     1
  0
VISUALSTYLE
  5
72E
102
{ACAD_REACTORS
330
71D
102
}
330
71D
100
AcDbVisualStyle
  2
JitterOff
 70
    20
177
     3
291
     1
 70
    58
 90
        2
176
     0
 90
        2
176
     0
 90
        0
176
     0
 90
        0
176
     0
 40
0.6
176
     0
 40
30.0
176
     0
 62
     7
420
 16777215
176
     0
 90
        1
176
     0
 90
        4
176
     0
 62
     7
176
     0
 62
   257
176
     0
 90
        1
176
     0
 90
        1
176
     0
 40
1.0
176
     0
 90
       10
176
     2
 62
     7
176
     0
 40
1.0
176
     0
 90
        1
176
     0
 90
        6
176
     0
 90
        2
176
     0
 62
     7
176
     0
 90
        5
176
     0
 90
        0
176
     0
 90
        0
176
     0
290
     0
176
     0
 90
        1
176
     0
 40
0.0
176
     0
 90
        0
176
     0
290
     0
176
     0
290
     1
176
     0
290
     1
176
     0
290
     0
176
     0
290
     0
176
     0
290
     0
176
     0
290
     0
176
     0
290
     0
176
     0
290
     0
176
     0
 90
       50
176
     0
 40
0.0
176
     0
 40
1.0
176
     0
 90
        0
176
     0
 62
    18
420
        0
176
     0
 90
       50
176
     0
 90
        3
176
     0
 62
     5
420
      255
176
     0
290
     0
176
     0
 90
       50
176
     0
 90
       50
176
     0
 90
       50
176
     0
290
     0
176
     0
 90
       50
176
     0
 62
   256
176
     0
 40
1.0
176
     0
 90
        2
176
     0
  1
strokes_ogs.tif
176
     0
290
     0
176
     0
 40
1.0
176
     0
 40
1.0
176
     0
  0
VISUALSTYLE
  5
72B
102
{ACAD_REACTORS
330
71D
102
}
330
71D
100
AcDbVisualStyle
  2
Linepattern
 70
    14
177
     3
291
     1
 70
    58
 90
        2
176
     1
 90
        2
176
     1
 90
        0
176
     1
 90
        0
176
     1
 40
0.6
176
     1
 40
30.0
176
     1
 62
     7
420
 16777215
176
     1
 90
        1
176
     1
 90
        4
176
     1
 62
     7
176
     1
 62
   257
176
     1
 90
        7
176
     1
 90
        7
176
     1
 40
1.0
176
     1
 90
        8
176
     1
 62
     7
176
     1
 40
1.0
176
     1
 90
        1
176
     1
 90
        6
176
     1
 90
        2
176
     1
 62
     7
176
     1
 90
        5
176
     1
 90
        0
176
     1
 90
        0
176
     1
290
     0
176
     1
 90
        1
176
     1
 40
0.0
176
     1
 90
        0
176
     1
290
     0
176
     1
290
     1
176
     1
290
     1
176
     1
290
     0
176
     1
290
     0
176
     1
290
     0
176
     1
290
     0
176
     1
290
     0
176
     1
290
     0
176
     1
 90
       50
176
     1
 40
0.0
176
     1
 40
1.0
176
     1
 90
        0
176
     1
 62
    18
420
        0
176
     1
 90
       50
176
     1
 90
        3
176
     1
 62
     5
420
      255
176
     1
290
     0
176
     1
 90
       50
176
     1
 90
       50
176
     1
 90
       50
176
     1
290
     0
176
     1
 90
       50
176
     1
 62
   256
176
     0
 40
1.0
176
     0
 90
        2
176
     1
  1
strokes_ogs.tif
176
     1
290
     0
176
     1
 40
1.0
176
     1
 40
1.0
176
     1
  0
VISUALSTYLE
  5
72F
102
{ACAD_REACTORS
330
71D
102
}
330
71D
100
AcDbVisualStyle
  2
OverhangOff
 70
    21
177
     3
291
     1
 70
    58
 90
        2
176
     0
 90
        2
176
     0
 90
        0
176
     0
 90
        0
176
     0
 40
0.6
176
     0
 40
30.0
176
     0
 62
     7
420
 16777215
176
     0
 90
        1
176
     0
 90
        4
176
     0
 62
     7
176
     0
 62
   257
176
     0
 90
        1
176
     0
 90
        1
176
     0
 40
1.0
176
     0
 90
        9
176
     2
 62
     7
176
     0
 40
1.0
176
     0
 90
        1
176
     0
 90
        6
176
     0
 90
        2
176
     0
 62
     7
176
     0
 90
        5
176
     0
 90
        0
176
     0
 90
        0
176
     0
290
     0
176
     0
 90
        1
176
     0
 40
0.0
176
     0
 90
        0
176
     0
290
     0
176
     0
290
     1
176
     0
290
     1
176
     0
290
     0
176
     0
290
     0
176
     0
290
     0
176
     0
290
     0
176
     0
290
     0
176
     0
290
     0
176
     0
 90
       50
176
     0
 40
0.0
176
     0
 40
1.0
176
     0
 90
        0
176
     0
 62
    18
420
        0
176
     0
 90
       50
176
     0
 90
        3
176
     0
 62
     5
420
      255
176
     0
290
     0
176
     0
 90
       50
176
     0
 90
       50
176
     0
 90
       50
176
     0
290
     0
176
     0
 90
       50
176
     0
 62
   256
176
     0
 40
1.0
176
     0
 90
        2
176
     0
  1
strokes_ogs.tif
176
     0
290
     0
176
     0
 40
1.0
176
     0
 40
1.0
176
     0
  0
VISUALSTYLE
  5
726
102
{ACAD_REACTORS
330
71D
102
}
330
71D
100
AcDbVisualStyle
  2
Realistic
 70
     8
177
     3
291
     0
 70
    58
 90
        2
176
     1
 90
        3
176
     1
 90
        0
176
     1
 90
        2
176
     1
 40
0.6
176
     1
 40
30.0
176
     1
 62
     7
420
 16777215
176
     1
 90
        0
176
     1
 90
        0
176
     1
 62
     7
176
     1
 62
   257
176
     1
 90
        1
176
     1
 90
        1
176
     1
 40
1.0
176
     1
 90
        8
176
     1
 62
   257
176
     1
 40
1.0
176
     1
 90
        1
176
     1
 90
        6
176
     1
 90
        2
176
     1
 62
     7
176
     1
 90
        3
176
     1
 90
        0
176
     1
 90
        0
176
     1
290
     0
176
     1
 90
       13
176
     1
 40
0.0
176
     1
 90
        0
176
     1
290
     0
176
     1
290
     1
176
     1
290
     1
176
     1
290
     0
176
     1
290
     0
176
     1
290
     0
176
     1
290
     0
176
     1
290
     0
176
     1
290
     0
176
     1
 90
       50
176
     1
 40
0.0
176
     1
 40
1.0
176
     1
 90
        0
176
     1
 62
    18
420
        0
176
     1
 90
       50
176
     1
 90
        3
176
     1
 62
     5
420
      255
176
     1
290
     0
176
     1
 90
       50
176
     1
 90
       50
176
     1
 90
       50
176
     1
290
     0
176
     1
 90
       50
176
     1
 62
   256
176
     0
 40
1.0
176
     0
 90
        2
176
     1
  1
strokes_ogs.tif
176
     1
290
     0
176
     1
 40
1.0
176
     1
 40
1.0
176
     1
  0
VISUALSTYLE
  5
735
102
{ACAD_REACTORS
330
71D
102
}
330
71D
100
AcDbVisualStyle
  2
Shaded
 70
    27
177
     3
291
     0
 70
    58
 90
        2
176
     1
 90
        2
176
     1
 90
        1
176
     1
 90
        2
176
     1
 40
0.6
176
     1
 40
30.0
176
     1
 62
     7
420
 16777215
176
     1
 90
        0
176
     1
 90
        4
176
     1
 62
     7
176
     1
 62
   257
176
     1
 90
        1
176
     1
 90
        1
176
     1
 40
1.0
176
     1
 90
        8
176
     1
 62
   257
176
     1
 40
1.0
176
     1
 90
        1
176
     1
 90
        6
176
     1
 90
        2
176
     1
 62
     8
420
  7895160
176
     1
 90
        3
176
     1
 90
        0
176
     1
 90
        0
176
     1
290
     0
176
     1
 90
        5
176
     1
 40
0.0
176
     1
 90
        0
176
     1
290
     0
176
     1
290
     1
176
     1
290
     1
176
     1
290
     0
176
     1
290
     0
176
     1
290
     0
176
     1
290
     0
176
     1
290
     0
176
     1
290
     0
176
     1
 90
       50
176
     1
 40
0.0
176
     1
 40
1.0
176
     1
 90
        0
176
     1
 62
    18
420
        0
176
     1
 90
       50
176
     1
 90
        3
176
     1
 62
     5
420
      255
176
     1
290
     0
176
     1
 90
       50
176
     1
 90
       50
176
     1
 90
       50
176
     1
290
     0
176
     1
 90
       50
176
     1
 62
   256
176
     0
 40
1.0
176
     0
 90
        2
176
     1
  1
strokes_ogs.tif
176
     1
290
     0
176
     1
 40
1.0
176
     1
 40
1.0
176
     1
  0
VISUALSTYLE
  5
734
102
{ACAD_REACTORS
330
71D
102
}
330
71D
100
AcDbVisualStyle
  2
Shaded with edges
 70
    26
177
     3
291
     0
 70
    58
 90
        2
176
     1
 90
        2
176
     1
 90
        1
176
     1
 90
        2
176
     1
 40
0.6
176
     1
 40
30.0
176
     1
 62
     7
420
 16777215
176
     1
 90
        1
176
     1
 90
       10
176
     1
 62
     7
176
     1
 62
   257
176
     1
 90
        2
176
     1
 90
        1
176
     1
 40
1.0
176
     1
 90
        8
176
     1
 62
   257
176
     1
 40
1.0
176
     1
 90
        1
176
     1
 90
        6
176
     1
 90
        2
176
     1
 62
     7
176
     1
 90
        3
176
     1
 90
        0
176
     1
 90
        0
176
     1
290
     0
176
     1
 90
        5
176
     1
 40
0.0
176
     1
 90
        0
176
     1
290
     0
176
     1
290
     1
176
     1
290
     1
176
     1
290
     0
176
     1
290
     0
176
     1
290
     0
176
     1
290
     0
176
     1
290
     0
176
     1
290
     0
176
     1
 90
       50
176
     1
 40
0.0
176
     1
 40
1.0
176
     1
 90
        0
176
     1
 62
    18
420
        0
176
     1
 90
       50
176
     1
 90
        3
176
     1
 62
     5
420
      255
176
     1
290
     0
176
     1
 90
       50
176
     1
 90
       50
176
     1
 90
       50
176
     1
290
     0
176
     1
 90
       50
176
     1
 62
   256
176
     0
 40
1.0
176
     0
 90
        2
176
     1
  1
strokes_ogs.tif
176
     1
290
     0
176
     1
 40
1.0
176
     1
 40
1.0
176
     1
  0
VISUALSTYLE
  5
731
102
{ACAD_REACTORS
330
71D
102
}
330
71D
100
AcDbVisualStyle
  2
Shades of Gray
 70
    23
177
     3
291
     0
 70
    58
 90
        2
176
     1
 90
        2
176
     1
 90
        3
176
     1
 90
        0
176
     1
 40
0.6
176
     1
 40
30.0
176
     1
 62
     7
420
 16777215
176
     1
 90
        2
176
     1
 90
        2
176
     1
 62
     7
176
     1
 62
     7
176
     1
 90
        1
176
     1
 90
        1
176
     1
 40
40.0
176
     1
 90
        8
176
     1
 62
     7
176
     1
 40
1.0
176
     1
 90
        1
176
     1
 90
        6
176
     1
 90
        2
176
     1
 62
     7
176
     1
 90
        3
176
     1
 90
        0
176
     1
 90
        0
176
     1
290
     0
176
     1
 90
        1
176
     1
 40
0.0
176
     1
 90
        0
176
     1
290
     0
176
     1
290
     1
176
     1
290
     1
176
     1
290
     0
176
     1
290
     0
176
     1
290
     0
176
     1
290
     0
176
     1
290
     0
176
     1
290
     0
176
     1
 90
       50
176
     1
 40
0.0
176
     1
 40
1.0
176
     1
 90
        0
176
     1
 62
    18
420
        0
176
     1
 90
       50
176
     1
 90
        3
176
     1
 62
     5
420
      255
176
     1
290
     0
176
     1
 90
       50
176
     1
 90
       50
176
     1
 90
       50
176
     1
290
     0
176
     1
 90
       50
176
     1
 62
   256
176
     0
 40
1.0
176
     0
 90
        2
176
     1
  1
strokes_ogs.tif
176
     1
290
     0
176
     1
 40
1.0
176
     1
 40
1.0
176
     1
  0
VISUALSTYLE
  5
732
102
{ACAD_REACTORS
330
71D
102
}
330
71D
100
AcDbVisualStyle
  2
Sketchy
 70
    24
177
     3
291
     0
 70
    58
 90
        1
176
     1
 90
        2
176
     1
 90
        2
176
     1
 90
        0
176
     1
 40
0.6
176
     1
 40
30.0
176
     1
 62
     7
420
 16777215
176
     1
 90
        2
176
     1
 90
        2
176
     1
 62
     7
176
     1
 62
     7
176
     1
 90
        1
176
     1
 90
        1
176
     1
 40
40.0
176
     1
 90
       11
176
     1
 62
     7
176
     1
 40
1.0
176
     1
 90
        1
176
     1
 90
        6
176
     1
 90
        2
176
     1
 62
     7
176
     1
 90
        6
176
     1
 90
        0
176
     1
 90
        0
176
     1
290
     0
176
     1
 90
        1
176
     1
 40
0.0
176
     1
 90
        0
176
     1
290
     0
176
     1
290
     1
176
     1
290
     1
176
     1
290
     0
176
     1
290
     0
176
     1
290
     0
176
     1
290
     0
176
     1
290
     0
176
     1
290
     0
176
     1
 90
       50
176
     1
 40
0.0
176
     1
 40
1.0
176
     1
 90
        0
176
     1
 62
    18
420
        0
176
     1
 90
       50
176
     1
 90
        3
176
     1
 62
     5
420
      255
176
     1
290
     0
176
     1
 90
       50
176
     1
 90
       50
176
     1
 90
       50
176
     1
290
     0
176
     1
 90
       50
176
     1
 62
   256
176
     0
 40
1.0
176
     0
 90
        2
176
     1
  1
strokes_ogs.tif
176
     1
290
     0
176
     1
 40
1.0
176
     1
 40
1.0
176
     1
  0
VISUALSTYLE
  5
72A
102
{ACAD_REACTORS
330
71D
102
}
330
71D
100
AcDbVisualStyle
  2
Thicken
 70
    13
177
     3
291
     1
 70
    58
 90
        2
176
     1
 90
        2
176
     1
 90
        0
176
     1
 90
        0
176
     1
 40
0.6
176
     1
 40
30.0
176
     1
 62
     7
420
 16777215
176
     1
 90
        1
176
     1
 90
        4
176
     1
 62
     7
176
     1
 62
   257
176
     1
 90
        1
176
     1
 90
        1
176
     1
 40
1.0
176
     1
 90
       12
176
     1
 62
     7
176
     1
 40
1.0
176
     1
 90
        1
176
     1
 90
        6
176
     1
 90
        2
176
     1
 62
     7
176
     1
 90
        5
176
     1
 90
        0
176
     1
 90
        0
176
     1
290
     0
176
     1
 90
        1
176
     1
 40
0.0
176
     1
 90
        0
176
     1
290
     0
176
     1
290
     1
176
     1
290
     1
176
     1
290
     0
176
     1
290
     0
176
     1
290
     0
176
     1
290
     0
176
     1
290
     0
176
     1
290
     0
176
     1
 90
       50
176
     1
 40
0.0
176
     1
 40
1.0
176
     1
 90
        0
176
     1
 62
    18
420
        0
176
     1
 90
       50
176
     1
 90
        3
176
     1
 62
     5
420
      255
176
     1
290
     0
176
     1
 90
       50
176
     1
 90
       50
176
     1
 90
       50
176
     1
290
     0
176
     1
 90
       50
176
     1
 62
   256
176
     0
 40
1.0
176
     0
 90
        2
176
     1
  1
strokes_ogs.tif
176
     1
290
     0
176
     1
 40
1.0
176
     1
 40
1.0
176
     1
  0
VISUALSTYLE
  5
723
102
{ACAD_REACTORS
330
71D
102
}
330
71D
100
AcDbVisualStyle
  2
Wireframe
 70
     5
177
     3
291
     0
 70
    58
 90
        0
176
     1
 90
        2
176
     1
 90
        0
176
     1
 90
        0
176
     1
 40
0.6
176
     1
 40
30.0
176
     1
 62
     7
420
 16777215
176
     1
 90
        1
176
     1
 90
        4
176
     1
 62
     7
176
     1
 62
   257
176
     1
 90
        1
176
     1
 90
        1
176
     1
 40
1.0
176
     1
 90
        0
176
     1
 62
   257
176
     1
 40
1.0
176
     1
 90
        1
176
     1
 90
        6
176
     1
 90
        2
176
     1
 62
     7
176
     1
 90
        3
176
     1
 90
        0
176
     1
 90
        0
176
     1
290
     0
176
     1
 90
        1
176
     1
 40
0.0
176
     1
 90
        0
176
     1
290
     0
176
     1
290
     1
176
     1
290
     1
176
     1
290
     0
176
     1
290
     0
176
     1
290
     0
176
     1
290
     0
176
     1
290
     0
176
     1
290
     0
176
     1
 90
       50
176
     1
 40
0.0
176
     1
 40
1.0
176
     1
 90
        0
176
     1
 62
    18
420
        0
176
     1
 90
       50
176
     1
 90
        3
176
     1
 62
     5
420
      255
176
     1
290
     0
176
     1
 90
       50
176
     1
 90
       50
176
     1
 90
       50
176
     1
290
     0
176
     1
 90
       50
176
     1
 62
   256
176
     0
 40
1.0
176
     0
 90
        2
176
     1
  1
strokes_ogs.tif
176
     1
290
     0
176
     1
 40
1.0
176
     1
 40
1.0
176
     1
  0
VISUALSTYLE
  5
733
102
{ACAD_REACTORS
330
71D
102
}
330
71D
100
AcDbVisualStyle
  2
X-Ray
 70
    25
177
     3
291
     0
 70
    58
 90
        2
176
     1
 90
        2
176
     1
 90
        1
176
     1
 90
        1
176
     1
 40
0.5
176
     1
 40
30.0
176
     1
 62
     7
420
 16777215
176
     1
 90
        1
176
     1
 90
        0
176
     1
 62
     7
176
     1
 62
   257
176
     1
 90
        1
176
     1
 90
        1
176
     1
 40
1.0
176
     1
 90
        8
176
     1
 62
     7
176
     1
 40
1.0
176
     1
 90
        1
176
     1
 90
        6
176
     1
 90
        2
176
     1
 62
     7
176
     1
 90
        3
176
     1
 90
        0
176
     1
 90
        0
176
     1
290
     0
176
     1
 90
       13
176
     1
 40
0.0
176
     1
 90
        0
176
     1
290
     0
176
     1
290
     1
176
     1
290
     1
176
     1
290
     0
176
     1
290
     0
176
     1
290
     0
176
     1
290
     0
176
     1
290
     0
176
     1
290
     0
176
     1
 90
       50
176
     1
 40
0.0
176
     1
 40
1.0
176
     1
 90
        0
176
     1
 62
    18
420
        0
176
     1
 90
       50
176
     1
 90
        3
176
     1
 62
     5
420
      255
176
     1
290
     0
176
     1
 90
       50
176
     1
 90
       50
176
     1
 90
       50
176
     1
290
     0
176
     1
 90
       50
176
     1
 62
   256
176
     0
 40
1.0
176
     0
 90
        2
176
     1
  1
strokes_ogs.tif
176
     1
290
     0
176
     1
 40
1.0
176
     1
 40
1.0
176
     1
  0
DICTIONARYVAR
  5
740
102
{ACAD_REACTORS
330
73F
102
}
330
73F
100
DictionaryVariables
280
     0
  1
1:1
  0
DICTIONARYVAR
  5
745
102
{ACAD_REACTORS
330
73F
102
}
330
73F
100
DictionaryVariables
280
     0
  1
Standard
  0
DICTIONARYVAR
  5
744
102
{ACAD_REACTORS
330
73F
102
}
330
73F
100
DictionaryVariables
280
     0
  1
Standard
  0
DICTIONARYVAR
  5
746
102
{ACAD_REACTORS
330
73F
102
}
330
73F
100
DictionaryVariables
280
     0
  1
0
  0
DICTIONARY
  5
741
330
73B
100
AcDbDictionary
280
     1
281
     1
  3
ACAD_ROUNDTRIP_2008_TABLESTYLE_CELLSTYLEMAP
360
742
  0
CELLSTYLEMAP
  5
742
102
{ACAD_REACTORS
330
741
102
}
330
741
100
AcDbCellStyleMap
 90
        3
300
CELLSTYLE
  1
TABLEFORMAT_BEGIN
 90
        5
170
     1
 91
        0
 92
    32768
 62
   257
 93
        1
300
CONTENTFORMAT
  1
CONTENTFORMAT_BEGIN
 90
        0
 91
        0
 92
        4
 93
        0
300

 40
0.0
140
1.0
 94
        5
 62
     0
340
11
144
6.0
309
CONTENTFORMAT_END
171
     1
301
MARGIN
  1
CELLMARGIN_BEGIN
 40
1.5
 40
1.5
 40
1.5
 40
1.5
 40
1.5
 40
1.5
309
CELLMARGIN_END
 94
        6
 95
        1
302
GRIDFORMAT
  1
GRIDFORMAT_BEGIN
 90
        0
 91
        1
 62
     0
 92
       -2
340
14
 93
        0
 40
0.045
309
GRIDFORMAT_END
 95
        2
302
GRIDFORMAT
  1
GRIDFORMAT_BEGIN
 90
        0
 91
        1
 62
     0
 92
       -2
340
14
 93
        0
 40
0.045
309
GRIDFORMAT_END
 95
        4
302
GRIDFORMAT
  1
GRIDFORMAT_BEGIN
 90
        0
 91
        1
 62
     0
 92
       -2
340
14
 93
        0
 40
0.045
309
GRIDFORMAT_END
 95
        8
302
GRIDFORMAT
  1
GRIDFORMAT_BEGIN
 90
        0
 91
        1
 62
     0
 92
       -2
340
14
 93
        0
 40
0.045
309
GRIDFORMAT_END
 95
       16
302
GRIDFORMAT
  1
GRIDFORMAT_BEGIN
 90
        0
 91
        1
 62
     0
 92
       -2
340
14
 93
        0
 40
0.045
309
GRIDFORMAT_END
 95
       32
302
GRIDFORMAT
  1
GRIDFORMAT_BEGIN
 90
        0
 91
        1
 62
     0
 92
       -2
340
14
 93
        0
 40
0.045
309
GRIDFORMAT_END
309
TABLEFORMAT_END
  1
CELLSTYLE_BEGIN
 90
        1
 91
        1
300
_TITLE
309
CELLSTYLE_END
300
CELLSTYLE
  1
TABLEFORMAT_BEGIN
 90
        5
170
     1
 91
        0
 92
        0
 62
   257
 93
        1
300
CONTENTFORMAT
  1
CONTENTFORMAT_BEGIN
 90
        0
 91
        0
 92
        4
 93
        0
300

 40
0.0
140
1.0
 94
        5
 62
     0
340
11
144
4.5
309
CONTENTFORMAT_END
171
     1
301
MARGIN
  1
CELLMARGIN_BEGIN
 40
1.5
 40
1.5
 40
1.5
 40
1.5
 40
1.5
 40
1.5
309
CELLMARGIN_END
 94
        6
 95
        1
302
GRIDFORMAT
  1
GRIDFORMAT_BEGIN
 90
        0
 91
        1
 62
     0
 92
       -2
340
14
 93
        0
 40
0.045
309
GRIDFORMAT_END
 95
        2
302
GRIDFORMAT
  1
GRIDFORMAT_BEGIN
 90
        0
 91
        1
 62
     0
 92
       -2
340
14
 93
        0
 40
0.045
309
GRIDFORMAT_END
 95
        4
302
GRIDFORMAT
  1
GRIDFORMAT_BEGIN
 90
        0
 91
        1
 62
     0
 92
       -2
340
14
 93
        0
 40
0.045
309
GRIDFORMAT_END
 95
        8
302
GRIDFORMAT
  1
GRIDFORMAT_BEGIN
 90
        0
 91
        1
 62
     0
 92
       -2
340
14
 93
        0
 40
0.045
309
GRIDFORMAT_END
 95
       16
302
GRIDFORMAT
  1
GRIDFORMAT_BEGIN
 90
        0
 91
        1
 62
     0
 92
       -2
340
14
 93
        0
 40
0.045
309
GRIDFORMAT_END
 95
       32
302
GRIDFORMAT
  1
GRIDFORMAT_BEGIN
 90
        0
 91
        1
 62
     0
 92
       -2
340
14
 93
        0
 40
0.045
309
GRIDFORMAT_END
309
TABLEFORMAT_END
  1
CELLSTYLE_BEGIN
 90
        2
 91
        1
300
_HEADER
309
CELLSTYLE_END
300
CELLSTYLE
  1
TABLEFORMAT_BEGIN
 90
        5
170
     1
 91
        0
 92
        0
 62
   257
 93
        1
300
CONTENTFORMAT
  1
CONTENTFORMAT_BEGIN
 90
        0
 91
        0
 92
        4
 93
        0
300

 40
0.0
140
1.0
 94
        2
 62
     0
340
11
144
4.5
309
CONTENTFORMAT_END
171
     1
301
MARGIN
  1
CELLMARGIN_BEGIN
 40
1.5
 40
1.5
 40
1.5
 40
1.5
 40
1.5
 40
1.5
309
CELLMARGIN_END
 94
        6
 95
        1
302
GRIDFORMAT
  1
GRIDFORMAT_BEGIN
 90
        0
 91
        1
 62
     0
 92
       -2
340
14
 93
        0
 40
0.045
309
GRIDFORMAT_END
 95
        2
302
GRIDFORMAT
  1
GRIDFORMAT_BEGIN
 90
        0
 91
        1
 62
     0
 92
       -2
340
14
 93
        0
 40
0.045
309
GRIDFORMAT_END
 95
        4
302
GRIDFORMAT
  1
GRIDFORMAT_BEGIN
 90
        0
 91
        1
 62
     0
 92
       -2
340
14
 93
        0
 40
0.045
309
GRIDFORMAT_END
 95
        8
302
GRIDFORMAT
  1
GRIDFORMAT_BEGIN
 90
        0
 91
        1
 62
     0
 92
       -2
340
14
 93
        0
 40
0.045
309
GRIDFORMAT_END
 95
       16
302
GRIDFORMAT
  1
GRIDFORMAT_BEGIN
 90
        0
 91
        1
 62
     0
 92
       -2
340
14
 93
        0
 40
0.045
309
GRIDFORMAT_END
 95
       32
302
GRIDFORMAT
  1
GRIDFORMAT_BEGIN
 90
        0
 91
        1
 62
     0
 92
       -2
340
14
 93
        0
 40
0.045
309
GRIDFORMAT_END
309
TABLEFORMAT_END
  1
CELLSTYLE_BEGIN
 90
        3
 91
        2
300
_DATA
309
CELLSTYLE_END
  0
ENDSEC
  0
EOF
