  0
SECTION
  2
HEADER
  9
$ACADVER
  1
AC1027
  9
$ACADMAINTVER
 70
   105
  9
$DWGCODEPAGE
  3
ANSI_1252
  9
$REQUIREDVERSIONS
160
                 0
  9
$LASTSAVEDBY
  1
andrea.zolin
  9
$INSBASE
 10
0.0
 20
0.0
 30
0.0
  9
$EXTMIN
 10
0.0
 20
0.0
 30
0.0
  9
$EXTMAX
 10
1189.0
 20
841.0
 30
0.0
  9
$LIMMIN
 10
0.0
 20
0.0
  9
$LIMMAX
 10
1189.0
 20
841.0
  9
$ORTHOMODE
 70
     0
  9
$REGENMODE
 70
     1
  9
$FILLMODE
 70
     1
  9
$QTEXTMODE
 70
     0
  9
$MIRRTEXT
 70
     1
  9
$LTSCALE
 40
65.395
  9
$ATTMODE
 70
     1
  9
$TEXTSIZE
 40
0.2
  9
$TRACEWID
 40
0.05
  9
$TEXTSTYLE
  7
STANDARD
  9
$CLAYER
  8
0
  9
$CELTYPE
  6
BYLAYER
  9
$CECOLOR
 62
   256
  9
$CELTSCALE
 40
1.0
  9
$DISPSILH
 70
     0
  9
$DIMSCALE
 40
1.0
  9
$DIMASZ
 40
2.5
  9
$DIMEXO
 40
0.75
  9
$DIMDLI
 40
45.182
  9
$DIMRND
 40
0.0
  9
$DIMDLE
 40
0.0
  9
$DIMEXE
 40
0.75
  9
$DIMTP
 40
0.01
  9
$DIMTM
 40
0.01
  9
$DIMTXT
 40
3.0
  9
$DIMCEN
 40
10.701
  9
$DIMTSZ
 40
0.0
  9
$DIMTOL
 70
     1
  9
$DIMLIM
 70
     0
  9
$DIMTIH
 70
     1
  9
$DIMTOH
 70
     1
  9
$DIMSE1
 70
     0
  9
$DIMSE2
 70
     0
  9
$DIMTAD
 70
     0
  9
$DIMZIN
 70
     0
  9
$DIMBLK
  1
CLOSED
  9
$DIMASO
 70
     1
  9
$DIMSHO
 70
     1
  9
$DIMPOST
  1

  9
$DIMAPOST
  1

  9
$DIMALT
 70
     0
  9
$DIMALTD
 70
     2
  9
$DIMALTF
 40
25.4
  9
$DIMLFAC
 40
1.0
  9
$DIMTOFL
 70
     0
  9
$DIMTVP
 40
0.0
  9
$DIMTIX
 70
     0
  9
$DIMSOXD
 70
     0
  9
$DIMSAH
 70
     0
  9
$DIMBLK1
  1

  9
$DIMBLK2
  1

  9
$DIMSTYLE
  2
STANDARD
  9
$DIMCLRD
 70
     0
  9
$DIMCLRE
 70
     0
  9
$DIMCLRT
 70
     0
  9
$DIMTFAC
 40
1.0
  9
$DIMGAP
 40
0.625
  9
$DIMJUST
 70
     0
  9
$DIMSD1
 70
     0
  9
$DIMSD2
 70
     0
  9
$DIMTOLJ
 70
     1
  9
$DIMTZIN
 70
     0
  9
$DIMALTZ
 70
     0
  9
$DIMALTTZ
 70
     0
  9
$DIMUPT
 70
     0
  9
$DIMDEC
 70
     4
  9
$DIMTDEC
 70
     4
  9
$DIMALTU
 70
     2
  9
$DIMALTTD
 70
     2
  9
$DIMTXSTY
  7
STANDARD
  9
$DIMAUNIT
 70
     0
  9
$DIMADEC
 70
     0
  9
$DIMALTRND
 40
0.0
  9
$DIMAZIN
 70
     0
  9
$DIMDSEP
 70
    46
  9
$DIMATFIT
 70
     3
  9
$DIMFRAC
 70
     0
  9
$DIMLDRBLK
  1

  9
$DIMLUNIT
 70
     2
  9
$DIMLWD
 70
    -2
  9
$DIMLWE
 70
    -2
  9
$DIMTMOVE
 70
     2
  9
$DIMFXL
 40
1.0
  9
$DIMFXLON
 70
     0
  9
$DIMJOGANG
 40
0.7853981633974483
  9
$DIMTFILL
 70
     0
  9
$DIMTFILLCLR
 70
     0
  9
$DIMARCSYM
 70
     0
  9
$DIMLTYPE
  6

  9
$DIMLTEX1
  6

  9
$DIMLTEX2
  6

  9
$DIMTXTDIRECTION
 70
     0
  9
$LUNITS
 70
     2
  9
$LUPREC
 70
     4
  9
$SKETCHINC
 40
0.1
  9
$FILLETRAD
 40
0.5
  9
$AUNITS
 70
     0
  9
$AUPREC
 70
     0
  9
$MENU
  1
.
  9
$ELEVATION
 40
0.0
  9
$PELEVATION
 40
0.0
  9
$THICKNESS
 40
0.0
  9
$LIMCHECK
 70
     0
  9
$CHAMFERA
 40
0.0
  9
$CHAMFERB
 40
0.0
  9
$CHAMFERC
 40
0.0
  9
$CHAMFERD
 40
0.0
  9
$SKPOLY
 70
     0
  9
$TDCREATE
 40
2447893.041666667
  9
$TDUCREATE
 40
0.0
  9
$TDUPDATE
 40
2458466.623958252
  9
$TDUUPDATE
 40
2458466.582291586
  9
$TDINDWG
 40
0.0002106597
  9
$TDUSRTIMER
 40
0.0002106597
  9
$USRTIMER
 70
     1
  9
$ANGBASE
 50
0.0
  9
$ANGDIR
 70
     0
  9
$PDMODE
 70
     3
  9
$PDSIZE
 40
0.3125
  9
$PLINEWID
 40
0.0
  9
$SPLFRAME
 70
     0
  9
$SPLINETYPE
 70
     6
  9
$SPLINESEGS
 70
     8
  9
$HANDSEED
  5
6C6
  9
$SURFTAB1
 70
     6
  9
$SURFTAB2
 70
     6
  9
$SURFTYPE
 70
     6
  9
$SURFU
 70
     6
  9
$SURFV
 70
     6
  9
$UCSBASE
  2

  9
$UCSNAME
  2

  9
$UCSORG
 10
0.0
 20
0.0
 30
0.0
  9
$UCSXDIR
 10
1.0
 20
0.0
 30
0.0
  9
$UCSYDIR
 10
0.0
 20
1.0
 30
0.0
  9
$UCSORTHOREF
  2

  9
$UCSORTHOVIEW
 70
     0
  9
$UCSORGTOP
 10
0.0
 20
0.0
 30
0.0
  9
$UCSORGBOTTOM
 10
0.0
 20
0.0
 30
0.0
  9
$UCSORGLEFT
 10
0.0
 20
0.0
 30
0.0
  9
$UCSORGRIGHT
 10
0.0
 20
0.0
 30
0.0
  9
$UCSORGFRONT
 10
0.0
 20
0.0
 30
0.0
  9
$UCSORGBACK
 10
0.0
 20
0.0
 30
0.0
  9
$PUCSBASE
  2

  9
$PUCSNAME
  2

  9
$PUCSORG
 10
0.0
 20
0.0
 30
0.0
  9
$PUCSXDIR
 10
1.0
 20
0.0
 30
0.0
  9
$PUCSYDIR
 10
0.0
 20
1.0
 30
0.0
  9
$PUCSORTHOREF
  2

  9
$PUCSORTHOVIEW
 70
     0
  9
$PUCSORGTOP
 10
0.0
 20
0.0
 30
0.0
  9
$PUCSORGBOTTOM
 10
0.0
 20
0.0
 30
0.0
  9
$PUCSORGLEFT
 10
0.0
 20
0.0
 30
0.0
  9
$PUCSORGRIGHT
 10
0.0
 20
0.0
 30
0.0
  9
$PUCSORGFRONT
 10
0.0
 20
0.0
 30
0.0
  9
$PUCSORGBACK
 10
0.0
 20
0.0
 30
0.0
  9
$USERI1
 70
     0
  9
$USERI2
 70
     0
  9
$USERI3
 70
     0
  9
$USERI4
 70
     0
  9
$USERI5
 70
     0
  9
$USERR1
 40
0.0
  9
$USERR2
 40
0.0
  9
$USERR3
 40
0.0
  9
$USERR4
 40
0.0
  9
$USERR5
 40
0.0
  9
$WORLDVIEW
 70
     1
  9
$SHADEDGE
 70
     3
  9
$SHADEDIF
 70
    70
  9
$TILEMODE
 70
     0
  9
$MAXACTVP
 70
    64
  9
$PINSBASE
 10
0.0
 20
0.0
 30
0.0
  9
$PLIMCHECK
 70
     0
  9
$PEXTMIN
 10
0.0
 20
0.0
 30
0.0
  9
$PEXTMAX
 10
1189.0
 20
841.0
 30
0.0
  9
$PLIMMIN
 10
-24.54280155642023
 20
-65.44747081712062
  9
$PLIMMAX
 10
1349.854085603113
 20
906.4474708171206
  9
$UNITMODE
 70
     0
  9
$VISRETAIN
 70
     1
  9
$PLINEGEN
 70
     0
  9
$PSLTSCALE
 70
     1
  9
$TREEDEPTH
 70
  3020
  9
$CMLSTYLE
  2
STANDARD
  9
$CMLJUST
 70
     0
  9
$CMLSCALE
 40
1.0
  9
$PROXYGRAPHICS
 70
     1
  9
$MEASUREMENT
 70
     1
  9
$CELWEIGHT
370
    -1
  9
$ENDCAPS
280
     0
  9
$JOINSTYLE
280
     0
  9
$LWDISPLAY
290
     0
  9
$INSUNITS
 70
     0
  9
$HYPERLINKBASE
  1

  9
$STYLESHEET
  1

  9
$XEDIT
290
     1
  9
$CEPSNTYPE
380
     0
  9
$PSTYLEMODE
290
     1
  9
$FINGERPRINTGUID
  2
{C2E7565D-C5EF-4376-BC81-65E7FBF18360}
  9
$VERSIONGUID
  2
{FAEB1C32-E019-11D5-929B-00C0DF256EC4}
  9
$EXTNAMES
290
     1
  9
$PSVPSCALE
 40
0.0
  9
$OLESTARTUP
290
     0
  9
$SORTENTS
280
   127
  9
$INDEXCTL
280
     0
  9
$HIDETEXT
280
     1
  9
$XCLIPFRAME
280
     2
  9
$HALOGAP
280
     0
  9
$OBSCOLOR
 70
   257
  9
$OBSLTYPE
280
     0
  9
$INTERSECTIONDISPLAY
280
     0
  9
$INTERSECTIONCOLOR
 70
   257
  9
$DIMASSOC
280
     2
  9
$PROJECTNAME
  1

  9
$CAMERADISPLAY
290
     0
  9
$LENSLENGTH
 40
50.0
  9
$CAMERAHEIGHT
 40
0.0
  9
$STEPSPERSEC
 40
2.0
  9
$STEPSIZE
 40
6.0
  9
$3DDWFPREC
 40
2.0
  9
$PSOLWIDTH
 40
0.25
  9
$PSOLHEIGHT
 40
4.0
  9
$LOFTANG1
 40
1.570796326794897
  9
$LOFTANG2
 40
1.570796326794897
  9
$LOFTMAG1
 40
0.0
  9
$LOFTMAG2
 40
0.0
  9
$LOFTPARAM
 70
     7
  9
$LOFTNORMALS
280
     1
  9
$LATITUDE
 40
37.795
  9
$LONGITUDE
 40
-122.394
  9
$NORTHDIRECTION
 40
0.0
  9
$TIMEZONE
 70
 -8000
  9
$LIGHTGLYPHDISPLAY
280
     1
  9
$TILEMODELIGHTSYNCH
280
     1
  9
$SOLIDHIST
280
     0
  9
$SHOWHIST
280
     1
  9
$DWFFRAME
280
     2
  9
$DGNFRAME
280
     2
  9
$REALWORLDSCALE
290
     1
  9
$INTERFERECOLOR
 62
   256
  9
$CSHADOW
280
     0
  9
$SHADOWPLANELOCATION
 40
0.0
  0
ENDSEC
  0
SECTION
  2
CLASSES
  0
CLASS
  1
ACDBDICTIONARYWDFLT
  2
AcDbDictionaryWithDefault
  3
ObjectDBX Classes
 90
        0
 91
        4
280
     0
281
     0
  0
CLASS
  1
SCALE
  2
AcDbScale
  3
ObjectDBX Classes
 90
     1153
 91
        4
280
     0
281
     0
  0
CLASS
  1
VISUALSTYLE
  2
AcDbVisualStyle
  3
ObjectDBX Classes
 90
     4095
 91
        4
280
     0
281
     0
  0
CLASS
  1
MATERIAL
  2
AcDbMaterial
  3
ObjectDBX Classes
 90
     1153
 91
        4
280
     0
281
     0
  0
CLASS
  1
TABLESTYLE
  2
AcDbTableStyle
  3
ObjectDBX Classes
 90
     4095
 91
        4
280
     0
281
     0
  0
CLASS
  1
MLEADERSTYLE
  2
AcDbMLeaderStyle
  3
ACDB_MLEADERSTYLE_CLASS
 90
     4095
 91
        4
280
     0
281
     0
  0
CLASS
  1
DICTIONARYVAR
  2
AcDbDictionaryVar
  3
ObjectDBX Classes
 90
        0
 91
        4
280
     0
281
     0
  0
CLASS
  1
CELLSTYLEMAP
  2
AcDbCellStyleMap
  3
ObjectDBX Classes
 90
     1152
 91
        4
280
     0
281
     0
  0
ENDSEC
  0
SECTION
  2
TABLES
  0
TABLE
  2
VPORT
  5
8
330
0
100
AcDbSymbolTable
 70
     1
  0
VPORT
  5
1F4
330
8
100
AcDbSymbolTableRecord
100
AcDbViewportTableRecord
  2
*ACTIVE
 70
     0
 10
0.0
 20
0.0
 11
1.0
 21
1.0
 12
594.5
 22
420.5
 13
0.0
 23
0.0
 14
1.0
 24
1.0
 15
0.0
 25
0.0
 16
0.0
 26
0.0
 36
1.0
 17
0.0
 27
0.0
 37
0.0
 40
841.0
 41
1.4137931034
 42
50.0
 43
0.0
 44
0.0
 50
0.0
 51
0.0
 71
     0
 72
   100
 73
     1
 74
     1
 75
     0
 76
     0
 77
     0
 78
     0
281
     0
 65
     1
110
0.0
120
0.0
130
0.0
111
1.0
121
0.0
131
0.0
112
0.0
122
1.0
132
0.0
 79
     0
146
0.0
348
69F
 60
     3
 61
     5
292
     1
282
     1
141
0.0
142
0.0
 63
   256
  0
ENDTAB
  0
TABLE
  2
LTYPE
  5
5
330
0
100
AcDbSymbolTable
 70
     6
  0
LTYPE
  5
14
330
5
100
AcDbSymbolTableRecord
100
AcDbLinetypeTableRecord
  2
BYBLOCK
 70
     0
  3

 72
    65
 73
     0
 40
0.0
  0
LTYPE
  5
15
330
5
100
AcDbSymbolTableRecord
100
AcDbLinetypeTableRecord
  2
BYLAYER
 70
     0
  3

 72
    65
 73
     0
 40
0.0
  0
LTYPE
  5
16
330
5
100
AcDbSymbolTableRecord
100
AcDbLinetypeTableRecord
  2
CONTINUOUS
 70
     0
  3
Solid line
 72
    65
 73
     0
 40
0.0
  0
LTYPE
  5
1F5
330
5
100
AcDbSymbolTableRecord
100
AcDbLinetypeTableRecord
  2
CENTER
 70
     0
  3
____ _ ____ _ ____ _ ____ _ ____ _ ____ _ ____
 72
    65
 73
     4
 40
0.6
 49
0.375
 74
     0
 49
-0.075
 74
     0
 49
0.075
 74
     0
 49
-0.075
 74
     0
  0
LTYPE
  5
1F6
330
5
100
AcDbSymbolTableRecord
100
AcDbLinetypeTableRecord
  2
HIDDEN
 70
     0
  3
- - - - - - - - - - - - - - - - - - - -
 72
    65
 73
     2
 40
0.2
 49
0.1
 74
     0
 49
-0.1
 74
     0
  0
LTYPE
  5
1F7
330
5
100
AcDbSymbolTableRecord
100
AcDbLinetypeTableRecord
  2
PHANTOM
 70
     0
  3
_____ _ _ _____ _ _ _____ _ _ _____
 72
    65
 73
     6
 40
0.8
 49
0.45
 74
     0
 49
-0.05
 74
     0
 49
0.1
 74
     0
 49
-0.05
 74
     0
 49
0.1
 74
     0
 49
-0.05
 74
     0
  0
LTYPE
  5
1F8
330
5
100
AcDbSymbolTableRecord
100
AcDbLinetypeTableRecord
  2
DOT
 70
     0
  3
. . . . . . . . . . . . . . . . . . . .
 72
    65
 73
     2
 40
0.2
 49
0.1
 74
     0
 49
-0.1
 74
     0
  0
LTYPE
  5
1F9
330
5
100
AcDbSymbolTableRecord
100
AcDbLinetypeTableRecord
  2
DASHED
 70
     0
  3
- - - - - - - - - - - - - - - - - - - -
 72
    65
 73
     2
 40
0.2
 49
0.1
 74
     0
 49
-0.1
 74
     0
  0
ENDTAB
  0
TABLE
  2
LAYER
  5
2
330
0
100
AcDbSymbolTable
 70
    36
  0
LAYER
  5
10
330
2
100
AcDbSymbolTableRecord
100
AcDbLayerTableRecord
  2
0
 70
     0
 62
     7
  6
CONTINUOUS
370
    -3
390
674
347
6B6
348
0
  0
LAYER
  5
1FA
330
2
100
AcDbSymbolTableRecord
100
AcDbLayerTableRecord
  2
DEFAULT_1
 70
     0
 62
     7
  6
CENTER
370
    -3
390
674
347
6B6
348
0
  0
LAYER
  5
1FB
330
2
100
AcDbSymbolTableRecord
100
AcDbLayerTableRecord
  2
DEFAULT_2
 70
     0
 62
     8
  6
HIDDEN
370
    -3
390
674
347
6B6
348
0
  0
LAYER
  5
1FC
330
2
100
AcDbSymbolTableRecord
100
AcDbLayerTableRecord
  2
DEFAULT_3
 70
     0
 62
     7
  6
PHANTOM
370
    -3
390
674
347
6B6
348
0
  0
LAYER
  5
1FD
330
2
100
AcDbSymbolTableRecord
100
AcDbLayerTableRecord
  2
01_ALL_DTM_PLN
 70
     0
 62
     7
  6
CONTINUOUS
370
    -3
390
674
347
6B6
348
0
  0
LAYER
  5
1FE
330
2
100
AcDbSymbolTableRecord
100
AcDbLayerTableRecord
  2
01__ASM_ALL_DTM_PLN
 70
     0
 62
     7
  6
CONTINUOUS
370
    -3
390
674
347
6B6
348
0
  0
LAYER
  5
1FF
330
2
100
AcDbSymbolTableRecord
100
AcDbLayerTableRecord
  2
01__ASM_DEF_DTM_PLN
 70
     0
 62
     7
  6
CONTINUOUS
370
    -3
390
674
347
6B6
348
0
  0
LAYER
  5
200
330
2
100
AcDbSymbolTableRecord
100
AcDbLayerTableRecord
  2
01___PRT_ALL_DTM_PLN
 70
     0
 62
     7
  6
CONTINUOUS
370
    -3
390
674
347
6B6
348
0
  0
LAYER
  5
201
330
2
100
AcDbSymbolTableRecord
100
AcDbLayerTableRecord
  2
01___PRT_DEF_DTM_PLN
 70
     0
 62
     7
  6
CONTINUOUS
370
    -3
390
674
347
6B6
348
0
  0
LAYER
  5
202
330
2
100
AcDbSymbolTableRecord
100
AcDbLayerTableRecord
  2
02_ALL_AXES
 70
     0
 62
     7
  6
CONTINUOUS
370
    -3
390
674
347
6B6
348
0
  0
LAYER
  5
203
330
2
100
AcDbSymbolTableRecord
100
AcDbLayerTableRecord
  2
02__ASM_ALL_AXES
 70
     0
 62
     7
  6
CONTINUOUS
370
    -3
390
674
347
6B6
348
0
  0
LAYER
  5
204
330
2
100
AcDbSymbolTableRecord
100
AcDbLayerTableRecord
  2
02___PRT_ALL_AXES
 70
     0
 62
     7
  6
CONTINUOUS
370
    -3
390
674
347
6B6
348
0
  0
LAYER
  5
205
330
2
100
AcDbSymbolTableRecord
100
AcDbLayerTableRecord
  2
03_ALL_CURVES
 70
     0
 62
     7
  6
CONTINUOUS
370
    -3
390
674
347
6B6
348
0
  0
LAYER
  5
206
330
2
100
AcDbSymbolTableRecord
100
AcDbLayerTableRecord
  2
03__ASM_ALL_CURVES
 70
     0
 62
     7
  6
CONTINUOUS
370
    -3
390
674
347
6B6
348
0
  0
LAYER
  5
207
330
2
100
AcDbSymbolTableRecord
100
AcDbLayerTableRecord
  2
03___PRT_ALL_CURVES
 70
     0
 62
     7
  6
CONTINUOUS
370
    -3
390
674
347
6B6
348
0
  0
LAYER
  5
208
330
2
100
AcDbSymbolTableRecord
100
AcDbLayerTableRecord
  2
04_ALL_DTM_PNT
 70
     0
 62
     7
  6
CONTINUOUS
370
    -3
390
674
347
6B6
348
0
  0
LAYER
  5
209
330
2
100
AcDbSymbolTableRecord
100
AcDbLayerTableRecord
  2
04__ASM_ALL_DTM_PNT
 70
     0
 62
     7
  6
CONTINUOUS
370
    -3
390
674
347
6B6
348
0
  0
LAYER
  5
20A
330
2
100
AcDbSymbolTableRecord
100
AcDbLayerTableRecord
  2
04___PRT_ALL_DTM_PNT
 70
     0
 62
     7
  6
CONTINUOUS
370
    -3
390
674
347
6B6
348
0
  0
LAYER
  5
20B
330
2
100
AcDbSymbolTableRecord
100
AcDbLayerTableRecord
  2
05_ALL_DTM_CSYS
 70
     0
 62
     7
  6
CONTINUOUS
370
    -3
390
674
347
6B6
348
0
  0
LAYER
  5
20C
330
2
100
AcDbSymbolTableRecord
100
AcDbLayerTableRecord
  2
05__ASM_ALL_DTM_CSYS
 70
     0
 62
     7
  6
CONTINUOUS
370
    -3
390
674
347
6B6
348
0
  0
LAYER
  5
20D
330
2
100
AcDbSymbolTableRecord
100
AcDbLayerTableRecord
  2
05__ASM_DEF_DTM_CSYS
 70
     0
 62
     7
  6
CONTINUOUS
370
    -3
390
674
347
6B6
348
0
  0
LAYER
  5
20E
330
2
100
AcDbSymbolTableRecord
100
AcDbLayerTableRecord
  2
05___PRT_ALL_DTM_CSYS
 70
     0
 62
     7
  6
CONTINUOUS
370
    -3
390
674
347
6B6
348
0
  0
LAYER
  5
20F
330
2
100
AcDbSymbolTableRecord
100
AcDbLayerTableRecord
  2
05___PRT_DEF_DTM_CSYS
 70
     0
 62
     7
  6
CONTINUOUS
370
    -3
390
674
347
6B6
348
0
  0
LAYER
  5
210
330
2
100
AcDbSymbolTableRecord
100
AcDbLayerTableRecord
  2
06_ALL_SURFS
 70
     0
 62
     7
  6
CONTINUOUS
370
    -3
390
674
347
6B6
348
0
  0
LAYER
  5
211
330
2
100
AcDbSymbolTableRecord
100
AcDbLayerTableRecord
  2
06__ASM_ALL_SURFS
 70
     0
 62
     7
  6
CONTINUOUS
370
    -3
390
674
347
6B6
348
0
  0
LAYER
  5
212
330
2
100
AcDbSymbolTableRecord
100
AcDbLayerTableRecord
  2
06___PRT_ALL_SURFS
 70
     0
 62
     7
  6
CONTINUOUS
370
    -3
390
674
347
6B6
348
0
  0
LAYER
  5
213
330
2
100
AcDbSymbolTableRecord
100
AcDbLayerTableRecord
  2
07__ASM_ALL_SKELETONS
 70
     0
 62
     7
  6
CONTINUOUS
370
    -3
390
674
347
6B6
348
0
  0
LAYER
  5
214
330
2
100
AcDbSymbolTableRecord
100
AcDbLayerTableRecord
  2
1_ALL_PLANES
 70
     0
 62
     7
  6
CONTINUOUS
370
    -3
390
674
347
6B6
348
0
  0
LAYER
  5
215
330
2
100
AcDbSymbolTableRecord
100
AcDbLayerTableRecord
  2
2_ALL_CSYS
 70
     0
 62
     7
  6
CONTINUOUS
370
    -3
390
674
347
6B6
348
0
  0
LAYER
  5
216
330
2
100
AcDbSymbolTableRecord
100
AcDbLayerTableRecord
  2
3_ALL_AXES
 70
     0
 62
     7
  6
CONTINUOUS
370
    -3
390
674
347
6B6
348
0
  0
LAYER
  5
217
330
2
100
AcDbSymbolTableRecord
100
AcDbLayerTableRecord
  2
4_ALL_POINTS
 70
     0
 62
     7
  6
CONTINUOUS
370
    -3
390
674
347
6B6
348
0
  0
LAYER
  5
218
330
2
100
AcDbSymbolTableRecord
100
AcDbLayerTableRecord
  2
5_ALL_CURVES
 70
     0
 62
     7
  6
CONTINUOUS
370
    -3
390
674
347
6B6
348
0
  0
LAYER
  5
219
330
2
100
AcDbSymbolTableRecord
100
AcDbLayerTableRecord
  2
6_ALL_SURFS
 70
     0
 62
     7
  6
CONTINUOUS
370
    -3
390
674
347
6B6
348
0
  0
LAYER
  5
21A
330
2
100
AcDbSymbolTableRecord
100
AcDbLayerTableRecord
  2
7_ALL_FEATURES
 70
     0
 62
     7
  6
CONTINUOUS
370
    -3
390
674
347
6B6
348
0
  0
LAYER
  5
21B
330
2
100
AcDbSymbolTableRecord
100
AcDbLayerTableRecord
  2
8_ALL_NOTES_BALLOONS_SYMBOLS_GT
 70
     0
 62
     7
  6
CONTINUOUS
370
    -3
390
674
347
6B6
348
0
  0
LAYER
  5
21C
330
2
100
AcDbSymbolTableRecord
100
AcDbLayerTableRecord
  2
9_SOLID
 70
     0
 62
     7
  6
CONTINUOUS
370
    -3
390
674
347
6B6
348
0
  0
ENDTAB
  0
TABLE
  2
STYLE
  5
3
330
0
100
AcDbSymbolTable
 70
     3
  0
STYLE
  5
11
330
3
100
AcDbSymbolTableRecord
100
AcDbTextStyleTableRecord
  2
STANDARD
 70
     0
 40
0.0
 41
0.85
 50
0.0
 71
     0
 42
0.2
  3
txt
  4

  0
STYLE
  5
21D
330
3
100
AcDbSymbolTableRecord
100
AcDbTextStyleTableRecord
  2
TEXTSTYLE_1
 70
     0
 40
0.0
 41
0.8
 50
0.0
 71
     0
 42
0.2
  3
gdt
  4

  0
STYLE
  5
21E
330
3
100
AcDbSymbolTableRecord
100
AcDbTextStyleTableRecord
  2
TEXTSTYLE_2
 70
     0
 40
0.0
 41
2.0
 50
0.0
 71
     0
 42
0.2
  3
txt
  4

  0
ENDTAB
  0
TABLE
  2
VIEW
  5
6
330
0
100
AcDbSymbolTable
 70
     0
  0
ENDTAB
  0
TABLE
  2
UCS
  5
7
330
0
100
AcDbSymbolTable
 70
     0
  0
ENDTAB
  0
TABLE
  2
APPID
  5
9
330
0
100
AcDbSymbolTable
 70
     1
  0
APPID
  5
21F
330
9
100
AcDbSymbolTableRecord
100
AcDbRegAppTableRecord
  2
ACAD
 70
     0
  0
ENDTAB
  0
TABLE
  2
DIMSTYLE
  5
A
330
0
100
AcDbSymbolTable
 70
     4
100
AcDbDimStyleTable
  0
DIMSTYLE
105
228
330
A
100
AcDbSymbolTableRecord
100
AcDbDimStyleTableRecord
  2
STANDARD
 70
     0
 41
2.5
 42
0.75
 44
0.75
 47
0.01
 48
0.01
 71
     1
 73
     0
 74
     0
 77
     1
 78
     8
 79
     2
140
3.0
147
0.625
171
     1
178
     0
179
     2
271
     2
272
     2
284
     8
340
11
341
220
342
220
343
220
344
220
  0
DIMSTYLE
105
229
330
A
100
AcDbSymbolTableRecord
100
AcDbDimStyleTableRecord
  2
DIMSTYLE_1
 70
     0
 41
2.5
 42
0.75
 44
0.75
 47
0.3
 48
0.3
 73
     0
 74
     0
 77
     1
 78
     8
 79
     2
140
3.0
147
0.75
171
     1
178
     0
271
     0
272
     0
284
     8
340
11
341
220
342
220
343
220
344
220
  0
DIMSTYLE
105
22A
330
A
100
AcDbSymbolTableRecord
100
AcDbDimStyleTableRecord
  2
DIMSTYLE_2
 70
     0
 41
2.5
 42
0.75
 44
0.75
 47
0.3
 48
0.3
 73
     0
 74
     0
 77
     1
 78
     8
 79
     2
140
3.0
147
0.75
171
     1
178
     0
179
     2
271
     2
272
     2
284
     8
340
11
341
220
342
220
343
220
344
220
  0
DIMSTYLE
105
22B
330
A
100
AcDbSymbolTableRecord
100
AcDbDimStyleTableRecord
  2
DIMSTYLE_3
 70
     0
 41
2.5
 42
0.75
 44
0.75
 47
1.2
 48
1.2
 73
     0
 74
     0
 77
     1
 78
     8
 79
     2
140
3.0
147
0.75
171
     1
178
     0
271
     0
272
     0
284
     8
340
11
341
220
342
220
343
220
344
220
  0
ENDTAB
  0
TABLE
  2
BLOCK_RECORD
  5
1
330
0
100
AcDbSymbolTable
 70
     8
  0
BLOCK_RECORD
  5
1F
330
1
100
AcDbSymbolTableRecord
100
AcDbBlockTableRecord
  2
*MODEL_SPACE
340
698
 70
     0
280
     1
281
     0
  0
BLOCK_RECORD
  5
1B
330
1
100
AcDbSymbolTableRecord
100
AcDbBlockTableRecord
  2
*PAPER_SPACE
340
699
 70
     0
280
     1
281
     0
  0
BLOCK_RECORD
  5
220
330
1
100
AcDbSymbolTableRecord
100
AcDbBlockTableRecord
  2
_CLOSED
340
0
102
{BLKREFS
331
27E
331
27F
331
287
331
288
331
290
331
291
331
299
331
29A
331
2A2
331
2A3
102
}
 70
     0
280
     1
281
     0
  0
BLOCK_RECORD
  5
221
330
1
100
AcDbSymbolTableRecord
100
AcDbBlockTableRecord
  2
*D1
340
0
 70
     0
280
     1
281
     0
  0
BLOCK_RECORD
  5
222
330
1
100
AcDbSymbolTableRecord
100
AcDbBlockTableRecord
  2
*D2
340
0
 70
     0
280
     1
281
     0
  0
BLOCK_RECORD
  5
223
330
1
100
AcDbSymbolTableRecord
100
AcDbBlockTableRecord
  2
*D3
340
0
 70
     0
280
     1
281
     0
  0
BLOCK_RECORD
  5
224
330
1
100
AcDbSymbolTableRecord
100
AcDbBlockTableRecord
  2
*D4
340
0
 70
     0
280
     1
281
     0
  0
BLOCK_RECORD
  5
225
330
1
100
AcDbSymbolTableRecord
100
AcDbBlockTableRecord
  2
*D5
340
0
 70
     0
280
     1
281
     0
  0
BLOCK_RECORD
  5
226
330
1
100
AcDbSymbolTableRecord
100
AcDbBlockTableRecord
  2
LOGO2_BL1
340
0
102
{BLKREFS
331
65C
102
}
 70
     0
280
     1
281
     0
  0
BLOCK_RECORD
  5
227
330
1
100
AcDbSymbolTableRecord
100
AcDbBlockTableRecord
  2
PROIEZIONE_EU_BL0
340
0
102
{BLKREFS
331
659
102
}
 70
     0
280
     1
281
     0
  0
ENDTAB
  0
ENDSEC
  0
SECTION
  2
BLOCKS
  0
BLOCK
  5
20
330
1F
100
AcDbEntity
  8
0
100
AcDbBlockBegin
  2
*MODEL_SPACE
 70
     0
 10
0.0
 20
0.0
 30
0.0
  3
*MODEL_SPACE
  1

  0
ENDBLK
  5
21
330
1F
100
AcDbEntity
  8
0
100
AcDbBlockEnd
  0
BLOCK
  5
1C
330
1B
100
AcDbEntity
 67
     1
  8
0
100
AcDbBlockBegin
  2
*PAPER_SPACE
 70
     0
 10
0.0
 20
0.0
 30
0.0
  3
*PAPER_SPACE
  1

  0
ENDBLK
  5
1D
330
1B
100
AcDbEntity
 67
     1
  8
0
100
AcDbBlockEnd
  0
BLOCK
  5
272
330
220
100
AcDbEntity
  8
0
100
AcDbBlockBegin
  2
_CLOSED
 70
     0
 10
0.0
 20
0.0
 30
0.0
  3
_CLOSED
  1

  0
LINE
  5
273
330
220
100
AcDbEntity
  8
0
  6
ByBlock
 62
     0
100
AcDbLine
 10
0.0
 20
0.0
 30
0.0
 11
-1.0
 21
0.2
 31
0.0
  0
LINE
  5
274
330
220
100
AcDbEntity
  8
0
  6
ByBlock
 62
     0
100
AcDbLine
 10
-1.0
 20
0.2
 30
0.0
 11
-1.0
 21
-0.2
 31
0.0
  0
LINE
  5
275
330
220
100
AcDbEntity
  8
0
  6
ByBlock
 62
     0
100
AcDbLine
 10
-1.0
 20
-0.2
 30
0.0
 11
0.0
 21
0.0
 31
0.0
  0
LINE
  5
276
330
220
100
AcDbEntity
  8
0
  6
ByBlock
 62
     0
100
AcDbLine
 10
-1.0
 20
0.0
 30
0.0
 11
0.0
 21
0.0
 31
0.0
  0
ENDBLK
  5
277
330
220
100
AcDbEntity
  8
0
  6
ByBlock
 62
     0
100
AcDbBlockEnd
  0
BLOCK
  5
278
330
221
100
AcDbEntity
  8
0
100
AcDbBlockBegin
  2
*D1
 70
     1
 10
0.0
 20
0.0
 30
0.0
  3
*D1
  1

  0
MTEXT
  5
279
330
221
100
AcDbEntity
  8
0
  6
Continuous
 62
     2
100
AcDbMText
 10
1063.9349194887
 20
392.1419778257
 30
0.0
 40
3.0
 41
7.0714285714
 46
0.0
 71
     2
 72
     1
  1
90
 11
0.0
 21
1.0
 31
0.0
 73
     1
 44
1.0
  0
LINE
  5
27A
330
221
100
AcDbEntity
  8
0
  6
Continuous
 62
     2
100
AcDbLine
 10
1045.8909959278
 20
437.2669778257
 30
0.0
 11
1068.4349194887
 21
437.2669778257
 31
0.0
  0
LINE
  5
27B
330
221
100
AcDbEntity
  8
0
  6
Continuous
 62
     2
100
AcDbLine
 10
1031.8909959278
 20
347.0169778257
 30
0.0
 11
1068.4349194887
 21
347.0169778257
 31
0.0
  0
LINE
  5
27C
330
221
100
AcDbEntity
  8
0
  6
Continuous
 62
     2
100
AcDbLine
 10
1067.6849194887
 20
437.2669778257
 30
0.0
 11
1067.6849194887
 21
392.1419778257
 31
0.0
  0
LINE
  5
27D
330
221
100
AcDbEntity
  8
0
  6
Continuous
 62
     2
100
AcDbLine
 10
1067.6849194887
 20
347.0169778257
 30
0.0
 11
1067.6849194887
 21
392.1419778257
 31
0.0
  0
INSERT
  5
27E
330
221
100
AcDbEntity
  8
0
  6
Continuous
 62
     2
100
AcDbBlockReference
  2
_CLOSED
 10
1067.6849194887
 20
437.2669778257
 30
0.0
 41
2.5
 42
2.5
 43
2.5
 50
90.0
  0
INSERT
  5
27F
330
221
100
AcDbEntity
  8
0
  6
Continuous
 62
     2
100
AcDbBlockReference
  2
_CLOSED
 10
1067.6849194887
 20
347.0169778257
 30
0.0
 41
2.5
 42
2.5
 43
2.5
 50
270.0
  0
ENDBLK
  5
280
330
221
100
AcDbEntity
  8
0
  6
ByBlock
 62
     0
100
AcDbBlockEnd
  0
BLOCK
  5
281
330
222
100
AcDbEntity
  8
0
100
AcDbBlockBegin
  2
*D2
 70
     1
 10
0.0
 20
0.0
 30
0.0
  3
*D2
  1

  0
MTEXT
  5
282
330
222
100
AcDbEntity
  8
0
  6
Continuous
 62
     2
100
AcDbMText
 10
1057.9893607456
 20
248.0744656734
 30
0.0
 40
3.0
 41
7.0714285714
 46
0.0
 71
     2
 72
     1
  1
44
 11
0.0
 21
1.0
 31
0.0
 73
     1
 44
1.0
  0
LINE
  5
283
330
222
100
AcDbEntity
  8
0
  6
Continuous
 62
     2
100
AcDbLine
 10
1043.8909959278
 20
269.9244656734
 30
0.0
 11
1062.4893607456
 21
269.9244656734
 31
0.0
  0
LINE
  5
284
330
222
100
AcDbEntity
  8
0
  6
Continuous
 62
     2
100
AcDbLine
 10
1043.8909959278
 20
226.2244656734
 30
0.0
 11
1062.4893607456
 21
226.2244656734
 31
0.0
  0
LINE
  5
285
330
222
100
AcDbEntity
  8
0
  6
Continuous
 62
     2
100
AcDbLine
 10
1061.7393607456
 20
269.9244656734
 30
0.0
 11
1061.7393607456
 21
248.0744656734
 31
0.0
  0
LINE
  5
286
330
222
100
AcDbEntity
  8
0
  6
Continuous
 62
     2
100
AcDbLine
 10
1061.7393607456
 20
226.2244656734
 30
0.0
 11
1061.7393607456
 21
248.0744656734
 31
0.0
  0
INSERT
  5
287
330
222
100
AcDbEntity
  8
0
  6
Continuous
 62
     2
100
AcDbBlockReference
  2
_CLOSED
 10
1061.7393607456
 20
269.9244656734
 30
0.0
 41
2.5
 42
2.5
 43
2.5
 50
90.0
  0
INSERT
  5
288
330
222
100
AcDbEntity
  8
0
  6
Continuous
 62
     2
100
AcDbBlockReference
  2
_CLOSED
 10
1061.7393607456
 20
226.2244656734
 30
0.0
 41
2.5
 42
2.5
 43
2.5
 50
270.0
  0
ENDBLK
  5
289
330
222
100
AcDbEntity
  8
0
  6
ByBlock
 62
     0
100
AcDbBlockEnd
  0
BLOCK
  5
28A
330
223
100
AcDbEntity
  8
0
100
AcDbBlockBegin
  2
*D3
 70
     1
 10
0.0
 20
0.0
 30
0.0
  3
*D3
  1

  0
MTEXT
  5
28B
330
223
100
AcDbEntity
  8
0
  6
Continuous
 62
     2
100
AcDbMText
 10
1063.9349194887
 20
248.0744656734
 30
0.0
 40
3.0
 41
7.0714285714
 46
0.0
 71
     2
 72
     1
  1
89
 11
0.0
 21
1.0
 31
0.0
 73
     1
 44
1.0
  0
LINE
  5
28C
330
223
100
AcDbEntity
  8
0
  6
Continuous
 62
     2
100
AcDbLine
 10
1029.3909959278
 20
203.5744656734
 30
0.0
 11
1068.4349194887
 21
203.5744656734
 31
0.0
  0
LINE
  5
28D
330
223
100
AcDbEntity
  8
0
  6
Continuous
 62
     2
100
AcDbLine
 10
1029.3909959278
 20
292.5744656734
 30
0.0
 11
1068.4349194887
 21
292.5744656734
 31
0.0
  0
LINE
  5
28E
330
223
100
AcDbEntity
  8
0
  6
Continuous
 62
     2
100
AcDbLine
 10
1067.6849194887
 20
203.5744656734
 30
0.0
 11
1067.6849194887
 21
248.0744656734
 31
0.0
  0
LINE
  5
28F
330
223
100
AcDbEntity
  8
0
  6
Continuous
 62
     2
100
AcDbLine
 10
1067.6849194887
 20
292.5744656734
 30
0.0
 11
1067.6849194887
 21
248.0744656734
 31
0.0
  0
INSERT
  5
290
330
223
100
AcDbEntity
  8
0
  6
Continuous
 62
     2
100
AcDbBlockReference
  2
_CLOSED
 10
1067.6849194887
 20
203.5744656734
 30
0.0
 41
2.5
 42
2.5
 43
2.5
 50
270.0
  0
INSERT
  5
291
330
223
100
AcDbEntity
  8
0
  6
Continuous
 62
     2
100
AcDbBlockReference
  2
_CLOSED
 10
1067.6849194887
 20
292.5744656734
 30
0.0
 41
2.5
 42
2.5
 43
2.5
 50
90.0
  0
ENDBLK
  5
292
330
223
100
AcDbEntity
  8
0
  6
ByBlock
 62
     0
100
AcDbBlockEnd
  0
BLOCK
  5
293
330
224
100
AcDbEntity
  8
0
100
AcDbBlockBegin
  2
*D4
 70
     1
 10
0.0
 20
0.0
 30
0.0
  3
*D4
  1

  0
MTEXT
  5
294
330
224
100
AcDbEntity
  8
0
  6
Continuous
 62
     2
100
AcDbMText
 10
538.6409959278
 20
194.6679160023
 30
0.0
 40
3.0
 41
11.8928571429
 46
0.0
 71
     2
 72
     1
  1
1013
 73
     1
 44
1.0
  0
LINE
  5
295
330
224
100
AcDbEntity
  8
0
  6
Continuous
 62
     2
100
AcDbLine
 10
32.1409959278
 20
227.1244656734
 30
0.0
 11
32.1409959278
 21
190.1679160023
 31
0.0
  0
LINE
  5
296
330
224
100
AcDbEntity
  8
0
  6
Continuous
 62
     2
100
AcDbLine
 10
1045.1409959278
 20
227.1244656734
 30
0.0
 11
1045.1409959278
 21
190.1679160023
 31
0.0
  0
LINE
  5
297
330
224
100
AcDbEntity
  8
0
  6
Continuous
 62
     2
100
AcDbLine
 10
32.1409959278
 20
190.9179160023
 30
0.0
 11
538.6409959278
 21
190.9179160023
 31
0.0
  0
LINE
  5
298
330
224
100
AcDbEntity
  8
0
  6
Continuous
 62
     2
100
AcDbLine
 10
1045.1409959278
 20
190.9179160023
 30
0.0
 11
538.6409959278
 21
190.9179160023
 31
0.0
  0
INSERT
  5
299
330
224
100
AcDbEntity
  8
0
  6
Continuous
 62
     2
100
AcDbBlockReference
  2
_CLOSED
 10
32.1409959278
 20
190.9179160023
 30
0.0
 41
2.5
 42
2.5
 43
2.5
 50
180.0
  0
INSERT
  5
29A
330
224
100
AcDbEntity
  8
0
  6
Continuous
 62
     2
100
AcDbBlockReference
  2
_CLOSED
 10
1045.1409959278
 20
190.9179160023
 30
0.0
 41
2.5
 42
2.5
 43
2.5
 50
360.0
  0
ENDBLK
  5
29B
330
224
100
AcDbEntity
  8
0
  6
ByBlock
 62
     0
100
AcDbBlockEnd
  0
BLOCK
  5
29C
330
225
100
AcDbEntity
  8
0
100
AcDbBlockBegin
  2
*D5
 70
     1
 10
0.0
 20
0.0
 30
0.0
  3
*D5
  1

  0
MTEXT
  5
29D
330
225
100
AcDbEntity
  8
0
  6
Continuous
 62
     2
100
AcDbMText
 10
1119.6939886913
 20
338.4876847524
 30
0.0
 40
3.0
 41
7.0714285714
 46
0.0
 71
     2
 72
     1
  1
89
 73
     1
 44
1.0
  0
LINE
  5
29E
330
225
100
AcDbEntity
  8
0
  6
Continuous
 62
     2
100
AcDbLine
 10
1075.1939886913
 20
335.4876847524
 30
0.0
 11
1075.1939886913
 21
334.4927123736
 31
0.0
  0
LINE
  5
29F
330
225
100
AcDbEntity
  8
0
  6
Continuous
 62
     2
100
AcDbLine
 10
1164.1939886913
 20
335.4876847524
 30
0.0
 11
1164.1939886913
 21
334.3662139497
 31
0.0
  0
LINE
  5
2A0
330
225
100
AcDbEntity
  8
0
  6
Continuous
 62
     2
100
AcDbLine
 10
1075.1939886913
 20
334.7376847524
 30
0.0
 11
1119.6939886913
 21
334.7376847524
 31
0.0
  0
LINE
  5
2A1
330
225
100
AcDbEntity
  8
0
  6
Continuous
 62
     2
100
AcDbLine
 10
1164.1939886913
 20
334.7376847524
 30
0.0
 11
1119.6939886913
 21
334.7376847524
 31
0.0
  0
INSERT
  5
2A2
330
225
100
AcDbEntity
  8
0
  6
Continuous
 62
     2
100
AcDbBlockReference
  2
_CLOSED
 10
1075.1939886913
 20
334.7376847524
 30
0.0
 41
2.5
 42
2.5
 43
2.5
 50
180.0
  0
INSERT
  5
2A3
330
225
100
AcDbEntity
  8
0
  6
Continuous
 62
     2
100
AcDbBlockReference
  2
_CLOSED
 10
1164.1939886913
 20
334.7376847524
 30
0.0
 41
2.5
 42
2.5
 43
2.5
  0
ENDBLK
  5
2A4
330
225
100
AcDbEntity
  8
0
  6
ByBlock
 62
     0
100
AcDbBlockEnd
  0
BLOCK
  5
22C
330
226
100
AcDbEntity
  8
0
100
AcDbBlockBegin
  2
LOGO2_BL1
 70
     0
 10
1062.6457397255
 20
42.0288546686
 30
0.0
  3
LOGO2_BL1
  1

  0
LINE
  5
22D
330
226
100
AcDbEntity
  8
0
  6
Continuous
 62
     7
100
AcDbLine
 10
1054.3886649537
 20
45.2243460074
 30
0.0
 11
1053.0843240244
 21
45.2243460074
 31
0.0
  0
LINE
  5
22E
330
226
100
AcDbEntity
  8
0
  6
Continuous
 62
     7
100
AcDbLine
 10
1053.0843240244
 20
45.2243460074
 30
0.0
 11
1053.0843240244
 21
34.7652799476
 31
0.0
  0
LINE
  5
22F
330
226
100
AcDbEntity
  8
0
  6
Continuous
 62
     7
100
AcDbLine
 10
1053.0843240244
 20
34.7652799476
 30
0.0
 11
1057.5653789126
 21
34.7652799476
 31
0.0
  0
LINE
  5
230
330
226
100
AcDbEntity
  8
0
  6
Continuous
 62
     7
100
AcDbLine
 10
1057.5653789126
 20
34.7652799476
 30
0.0
 11
1057.5653789126
 21
35.9581342726
 31
0.0
  0
LINE
  5
231
330
226
100
AcDbEntity
  8
0
  6
Continuous
 62
     7
100
AcDbLine
 10
1057.5653789126
 20
35.9581342726
 30
0.0
 11
1054.3886649537
 21
35.9581342726
 31
0.0
  0
LINE
  5
232
330
226
100
AcDbEntity
  8
0
  6
Continuous
 62
     7
100
AcDbLine
 10
1054.3886649537
 20
35.9581342726
 30
0.0
 11
1054.3886649537
 21
45.2243460074
 31
0.0
  0
LINE
  5
233
330
226
100
AcDbEntity
  8
0
  6
Continuous
 62
     7
100
AcDbLine
 10
1069.32499117
 20
45.2243460074
 30
0.0
 11
1068.021173652
 21
45.2243460074
 31
0.0
  0
LINE
  5
234
330
226
100
AcDbEntity
  8
0
  6
Continuous
 62
     7
100
AcDbLine
 10
1068.021173652
 20
45.2243460074
 30
0.0
 11
1068.021173652
 21
34.7652799476
 31
0.0
  0
LINE
  5
235
330
226
100
AcDbEntity
  8
0
  6
Continuous
 62
     7
100
AcDbLine
 10
1068.021173652
 20
34.7652799476
 30
0.0
 11
1072.5023593931
 21
34.7652799476
 31
0.0
  0
LINE
  5
236
330
226
100
AcDbEntity
  8
0
  6
Continuous
 62
     7
100
AcDbLine
 10
1072.5023593931
 20
34.7652799476
 30
0.0
 11
1072.5023593931
 21
35.9581342726
 31
0.0
  0
LINE
  5
237
330
226
100
AcDbEntity
  8
0
  6
Continuous
 62
     7
100
AcDbLine
 10
1072.5023593931
 20
35.9581342726
 30
0.0
 11
1069.32499117
 21
35.9581342726
 31
0.0
  0
LINE
  5
238
330
226
100
AcDbEntity
  8
0
  6
Continuous
 62
     7
100
AcDbLine
 10
1069.32499117
 20
35.9581342726
 30
0.0
 11
1069.32499117
 21
45.2243460074
 31
0.0
  0
LWPOLYLINE
  5
239
330
226
100
AcDbEntity
  8
0
  6
Continuous
 62
     7
100
AcDbPolyline
 90
        2
 70
     0
 43
0.2
 10
1051.4387189353
 20
31.4217286407
 10
1051.4387189353
 20
29.5646653913
  0
LWPOLYLINE
  5
23A
330
226
100
AcDbEntity
  8
0
  6
Continuous
 62
     7
100
AcDbPolyline
 90
        2
 70
     0
 43
0.2
 10
1051.4387189353
 20
29.5646653913
 10
1052.2344349457
 20
29.5646653913
  0
LWPOLYLINE
  5
23B
330
226
100
AcDbEntity
  8
0
  6
Continuous
 62
     7
100
AcDbPolyline
 90
        2
 70
     0
 43
0.2
 10
1052.2344349457
 20
29.5646653913
 10
1052.2344349457
 20
29.7766469629
  0
LWPOLYLINE
  5
23C
330
226
100
AcDbEntity
  8
0
  6
Continuous
 62
     7
100
AcDbPolyline
 90
        2
 70
     0
 43
0.2
 10
1052.2344349457
 20
29.7766469629
 10
1051.6703284302
 20
29.7766469629
  0
LWPOLYLINE
  5
23D
330
226
100
AcDbEntity
  8
0
  6
Continuous
 62
     7
100
AcDbPolyline
 90
        2
 70
     0
 43
0.2
 10
1051.6703284302
 20
29.7766469629
 10
1051.6703284302
 20
31.4217286407
  0
LWPOLYLINE
  5
23E
330
226
100
AcDbEntity
  8
0
  6
Continuous
 62
     7
100
AcDbPolyline
 90
        2
 70
     0
 43
0.2
 10
1051.6703284302
 20
31.4217286407
 10
1051.4387189353
 20
31.4217286407
  0
SPLINE
  5
23F
330
226
100
AcDbEntity
  8
0
  6
Continuous
 62
     7
100
AcDbSpline
 70
     3
 71
     3
 72
    35
 73
    31
 74
     0
 42
0.000000001
 43
0.0000001
 40
0.0
 40
0.0
 40
0.0
 40
0.0
 40
1.0
 40
1.0
 40
1.0
 40
2.0
 40
2.0
 40
2.0
 40
3.0
 40
3.0
 40
3.0
 40
4.0
 40
4.0
 40
4.0
 40
5.0
 40
5.0
 40
5.0
 40
6.0
 40
6.0
 40
6.0
 40
7.0
 40
7.0
 40
7.0
 40
8.0
 40
8.0
 40
8.0
 40
9.0
 40
9.0
 40
9.0
 40
10.0
 40
10.0
 40
10.0
 40
10.0
 10
1053.6327282012
 20
30.7172170472
 30
0.0
 10
1053.6327282012
 20
30.7172170472
 30
0.0
 10
1053.6327282012
 20
30.055101768
 30
0.0
 10
1053.6327282012
 20
30.055101768
 30
0.0
 10
1053.6327282012
 20
29.7400081727
 30
0.0
 10
1053.7805918901
 20
29.5254095447
 30
0.0
 10
1054.1206783744
 20
29.5254095447
 30
0.0
 10
1054.4602414474
 20
29.5254095447
 30
0.0
 10
1054.6083668418
 20
29.7400081727
 30
0.0
 10
1054.6083668418
 20
30.055101768
 30
0.0
 10
1054.6083668418
 20
30.055101768
 30
0.0
 10
1054.6083668418
 20
30.7172170472
 30
0.0
 10
1054.6083668418
 20
30.7172170472
 30
0.0
 10
1054.6083668418
 20
30.7172170472
 30
0.0
 10
1054.3863096029
 20
30.7172170472
 30
0.0
 10
1054.3863096029
 20
30.7172170472
 30
0.0
 10
1054.3863096029
 20
30.7172170472
 30
0.0
 10
1054.3863096029
 20
30.0802255099
 30
0.0
 10
1054.3863096029
 20
30.0802255099
 30
0.0
 10
1054.3863096029
 20
29.8944145027
 30
0.0
 10
1054.3395951455
 20
29.7316335921
 30
0.0
 10
1054.1206783744
 20
29.7316335921
 30
0.0
 10
1053.9012381919
 20
29.7316335921
 30
0.0
 10
1053.8545237345
 20
29.8944145027
 30
0.0
 10
1053.8545237345
 20
30.0802255099
 30
0.0
 10
1053.8545237345
 20
30.0802255099
 30
0.0
 10
1053.8545237345
 20
30.7172170472
 30
0.0
 10
1053.8545237345
 20
30.7172170472
 30
0.0
 10
1053.8545237345
 20
30.7172170472
 30
0.0
 10
1053.6327282012
 20
30.7172170472
 30
0.0
 10
1053.6327282012
 20
30.7172170472
 30
0.0
  0
SPLINE
  5
240
330
226
100
AcDbEntity
  8
0
  6
Continuous
 62
     7
100
AcDbSpline
 70
     3
 71
     3
 72
    35
 73
    31
 74
     0
 42
0.000000001
 43
0.0000001
 40
0.0
 40
0.0
 40
0.0
 40
0.0
 40
1.0
 40
1.0
 40
1.0
 40
2.0
 40
2.0
 40
2.0
 40
3.0
 40
3.0
 40
3.0
 40
4.0
 40
4.0
 40
4.0
 40
5.0
 40
5.0
 40
5.0
 40
6.0
 40
6.0
 40
6.0
 40
7.0
 40
7.0
 40
7.0
 40
8.0
 40
8.0
 40
8.0
 40
9.0
 40
9.0
 40
9.0
 40
10.0
 40
10.0
 40
10.0
 40
10.0
 10
1057.031499399
 20
30.6758675555
 30
0.0
 10
1056.9430428914
 20
30.7271618617
 30
0.0
 10
1056.8295934947
 20
30.7522856035
 30
0.0
 10
1056.7259580597
 20
30.7522856035
 30
0.0
 10
1056.3710852065
 20
30.7522856035
 30
0.0
 10
1056.0956400163
 20
30.4884863144
 30
0.0
 10
1056.0956400163
 20
30.1309964048
 30
0.0
 10
1056.0956400163
 20
29.7860683661
 30
0.0
 10
1056.3740948215
 20
29.525932956
 30
0.0
 10
1056.7136578945
 20
29.525932956
 30
0.0
 10
1056.8295934947
 20
29.525932956
 30
0.0
 10
1056.9303501676
 20
29.5479162301
 30
0.0
 10
1057.031499399
 20
29.6018275927
 30
0.0
 10
1057.031499399
 20
29.6018275927
 30
0.0
 10
1057.031499399
 20
29.8844696882
 30
0.0
 10
1057.031499399
 20
29.8844696882
 30
0.0
 10
1056.9476227401
 20
29.791302479
 30
0.0
 10
1056.844118158
 20
29.7321570034
 30
0.0
 10
1056.7160132453
 20
29.7321570034
 30
0.0
 10
1056.4823101052
 20
29.7321570034
 30
0.0
 10
1056.3170429911
 20
29.9043593171
 30
0.0
 10
1056.3170429911
 20
30.1409412192
 30
0.0
 10
1056.3170429911
 20
30.3529227908
 30
0.0
 10
1056.4847963088
 20
30.5450147335
 30
0.0
 10
1056.7016194348
 20
30.5450147335
 30
0.0
 10
1056.8344350491
 20
30.5450147335
 30
0.0
 10
1056.9430428914
 20
30.4911033708
 30
0.0
 10
1057.031499399
 20
30.3900849923
 30
0.0
 10
1057.031499399
 20
30.3900849923
 30
0.0
 10
1057.031499399
 20
30.6758675555
 30
0.0
 10
1057.031499399
 20
30.6758675555
 30
0.0
  0
SPLINE
  5
241
330
226
100
AcDbEntity
  8
0
  6
Continuous
 62
     7
100
AcDbSpline
 70
     3
 71
     3
 72
    32
 73
    28
 74
     0
 42
0.000000001
 43
0.0000001
 40
0.0
 40
0.0
 40
0.0
 40
0.0
 40
1.0
 40
1.0
 40
1.0
 40
2.0
 40
2.0
 40
2.0
 40
3.0
 40
3.0
 40
3.0
 40
4.0
 40
4.0
 40
4.0
 40
5.0
 40
5.0
 40
5.0
 40
6.0
 40
6.0
 40
6.0
 40
7.0
 40
7.0
 40
7.0
 40
8.0
 40
8.0
 40
8.0
 40
9.0
 40
9.0
 40
9.0
 40
9.0
 10
1059.5633706513
 20
30.1043024291
 30
0.0
 10
1059.5633706513
 20
30.1043024291
 30
0.0
 10
1059.5633706513
 20
30.1383241628
 30
0.0
 10
1059.5633706513
 20
30.1383241628
 30
0.0
 10
1059.5633706513
 20
30.4806351451
 30
0.0
 10
1059.3905140734
 20
30.7522856035
 30
0.0
 10
1059.0238644663
 20
30.7522856035
 30
0.0
 10
1058.6522424519
 20
30.7522856035
 30
0.0
 10
1058.4625058601
 20
30.485869258
 30
0.0
 10
1058.4625058601
 20
30.1309964048
 30
0.0
 10
1058.4625058601
 20
29.791302479
 30
0.0
 10
1058.6765810768
 20
29.5254095447
 30
0.0
 10
1059.0287060207
 20
29.5254095447
 30
0.0
 10
1059.2527260519
 20
29.5254095447
 30
0.0
 10
1059.4548936619
 20
29.6410834393
 30
0.0
 10
1059.5633706513
 20
29.84050314
 30
0.0
 10
1059.5633706513
 20
29.84050314
 30
0.0
 10
1059.3757277046
 20
29.9472790427
 30
0.0
 10
1059.3757277046
 20
29.9472790427
 30
0.0
 10
1059.2922436042
 20
29.8085750514
 30
0.0
 10
1059.2010391872
 20
29.7227356002
 30
0.0
 10
1059.03145393
 20
29.7227356002
 30
0.0
 10
1058.8194723584
 20
29.7227356002
 30
0.0
 10
1058.6865258913
 20
29.9074997849
 30
0.0
 10
1058.6841705405
 20
30.1043024291
 30
0.0
 10
1058.6841705405
 20
30.1043024291
 30
0.0
 10
1059.5633706513
 20
30.1043024291
 30
0.0
 10
1059.5633706513
 20
30.1043024291
 30
0.0
  0
SPLINE
  5
242
330
226
100
AcDbEntity
  8
0
  6
Continuous
 62
     7
100
AcDbSpline
 70
     3
 71
     3
 72
    14
 73
    10
 74
     0
 42
0.000000001
 43
0.0000001
 40
0.0
 40
0.0
 40
0.0
 40
0.0
 40
1.0
 40
1.0
 40
1.0
 40
2.0
 40
2.0
 40
2.0
 40
3.0
 40
3.0
 40
3.0
 40
3.0
 10
1058.6962090001
 20
30.2717940412
 30
0.0
 10
1058.7238189455
 20
30.4366685969
 30
0.0
 10
1058.8516621526
 20
30.5596702495
 30
0.0
 10
1059.0238644663
 20
30.5596702495
 30
0.0
 10
1059.2010391872
 20
30.5596702495
 30
0.0
 10
1059.3144885839
 20
30.4439963549
 30
0.0
 10
1059.3417059709
 20
30.2717940412
 30
0.0
 10
1059.3417059709
 20
30.2717940412
 30
0.0
 10
1058.6962090001
 20
30.2717940412
 30
0.0
 10
1058.6962090001
 20
30.2717940412
 30
0.0
  0
SPLINE
  5
243
330
226
100
AcDbEntity
  8
0
  6
Continuous
 62
     7
100
AcDbSpline
 70
     3
 71
     3
 72
    20
 73
    16
 74
     0
 42
0.000000001
 43
0.0000001
 40
0.0
 40
0.0
 40
0.0
 40
0.0
 40
1.0
 40
1.0
 40
1.0
 40
2.0
 40
2.0
 40
2.0
 40
3.0
 40
3.0
 40
3.0
 40
4.0
 40
4.0
 40
4.0
 40
5.0
 40
5.0
 40
5.0
 40
5.0
 10
1061.5874021015
 20
30.4811585564
 30
0.0
 10
1061.5874021015
 20
30.4811585564
 30
0.0
 10
1061.9985416681
 20
29.97868372
 30
0.0
 10
1061.9985416681
 20
29.97868372
 30
0.0
 10
1061.882475215
 20
29.8630098254
 30
0.0
 10
1061.7446871935
 20
29.7326804147
 30
0.0
 10
1061.5727465854
 20
29.7326804147
 30
0.0
 10
1061.3953101588
 20
29.7326804147
 30
0.0
 10
1061.2278185467
 20
29.8970315591
 30
0.0
 10
1061.2278185467
 20
30.0739445744
 30
0.0
 10
1061.2278185467
 20
30.2519044123
 30
0.0
 10
1061.4375756203
 20
30.3780465327
 30
0.0
 10
1061.5651571217
 20
30.465979629
 30
0.0
 10
1061.5651571217
 20
30.465979629
 30
0.0
 10
1061.5874021015
 20
30.4811585564
 30
0.0
 10
1061.5874021015
 20
30.4811585564
 30
0.0
  0
SPLINE
  5
244
330
226
100
AcDbEntity
  8
0
  6
Continuous
 62
     7
100
AcDbSpline
 70
     3
 71
     3
 72
    23
 73
    19
 74
     0
 42
0.000000001
 43
0.0000001
 40
0.0
 40
0.0
 40
0.0
 40
0.0
 40
1.0
 40
1.0
 40
1.0
 40
2.0
 40
2.0
 40
2.0
 40
3.0
 40
3.0
 40
3.0
 40
4.0
 40
4.0
 40
4.0
 40
5.0
 40
5.0
 40
5.0
 40
6.0
 40
6.0
 40
6.0
 40
6.0
 10
1061.6367336153
 20
30.7721752324
 30
0.0
 10
1061.6367336153
 20
30.7721752324
 30
0.0
 10
1061.5751019362
 20
30.8506869256
 30
0.0
 10
1061.5751019362
 20
30.8506869256
 30
0.0
 10
1061.5211905735
 20
30.9192538043
 30
0.0
 10
1061.4644004488
 20
30.9883440943
 30
0.0
 10
1061.4644004488
 20
31.0820347148
 30
0.0
 10
1061.4644004488
 20
31.2008490772
 30
0.0
 10
1061.5603155673
 20
31.2783139478
 30
0.0
 10
1061.6712787603
 20
31.2783139478
 30
0.0
 10
1061.7945421186
 20
31.2783139478
 30
0.0
 10
1061.8878401807
 20
31.2071300126
 30
0.0
 10
1061.8878401807
 20
31.076800602
 30
0.0
 10
1061.8878401807
 20
30.9417604897
 30
0.0
 10
1061.759735268
 20
30.8653424417
 30
0.0
 10
1061.6661755003
 20
30.7915414501
 30
0.0
 10
1061.6661755003
 20
30.7915414501
 30
0.0
 10
1061.6367336153
 20
30.7721752324
 30
0.0
 10
1061.6367336153
 20
30.7721752324
 30
0.0
  0
SPLINE
  5
245
330
226
100
AcDbEntity
  8
0
  6
Continuous
 62
     7
100
AcDbSpline
 70
     3
 71
     3
 72
    50
 73
    46
 74
     0
 42
0.000000001
 43
0.0000001
 40
0.0
 40
0.0
 40
0.0
 40
0.0
 40
1.0
 40
1.0
 40
1.0
 40
2.0
 40
2.0
 40
2.0
 40
3.0
 40
3.0
 40
3.0
 40
4.0
 40
4.0
 40
4.0
 40
5.0
 40
5.0
 40
5.0
 40
6.0
 40
6.0
 40
6.0
 40
7.0
 40
7.0
 40
7.0
 40
8.0
 40
8.0
 40
8.0
 40
9.0
 40
9.0
 40
9.0
 40
10.0
 40
10.0
 40
10.0
 40
11.0
 40
11.0
 40
11.0
 40
12.0
 40
12.0
 40
12.0
 40
13.0
 40
13.0
 40
13.0
 40
14.0
 40
14.0
 40
14.0
 40
15.0
 40
15.0
 40
15.0
 40
15.0
 10
1062.338889858
 20
29.5651888026
 30
0.0
 10
1062.338889858
 20
29.5651888026
 30
0.0
 10
1062.6242798627
 20
29.5651888026
 30
0.0
 10
1062.6242798627
 20
29.5651888026
 30
0.0
 10
1062.6242798627
 20
29.5651888026
 30
0.0
 10
1062.2919136949
 20
29.9760666636
 30
0.0
 10
1062.2919136949
 20
29.9760666636
 30
0.0
 10
1062.2919136949
 20
29.9760666636
 30
0.0
 10
1062.5184199298
 20
30.2419595978
 30
0.0
 10
1062.5184199298
 20
30.2419595978
 30
0.0
 10
1062.5184199298
 20
30.2419595978
 30
0.0
 10
1062.3701636825
 20
30.3947956939
 30
0.0
 10
1062.3701636825
 20
30.3947956939
 30
0.0
 10
1062.3701636825
 20
30.3947956939
 30
0.0
 10
1062.1542565262
 20
30.1435582757
 30
0.0
 10
1062.1542565262
 20
30.1435582757
 30
0.0
 10
1062.1542565262
 20
30.1435582757
 30
0.0
 10
1061.7671938788
 20
30.611487967
 30
0.0
 10
1061.7671938788
 20
30.611487967
 30
0.0
 10
1061.9226470313
 20
30.7255916278
 30
0.0
 10
1062.1049250123
 20
30.8653424417
 30
0.0
 10
1062.1049250123
 20
31.0747069568
 30
0.0
 10
1062.1049250123
 20
31.318616617
 30
0.0
 10
1061.9028882552
 20
31.4620313098
 30
0.0
 10
1061.6763820204
 20
31.4620313098
 30
0.0
 10
1061.4322106546
 20
31.4620313098
 30
0.0
 10
1061.2478390285
 20
31.3112888589
 30
0.0
 10
1061.2478390285
 20
31.0548173279
 30
0.0
 10
1061.2478390285
 20
30.8972705302
 30
0.0
 10
1061.3465020562
 20
30.7596133615
 30
0.0
 10
1061.4518385779
 20
30.6486501685
 30
0.0
 10
1061.4518385779
 20
30.6486501685
 30
0.0
 10
1061.3362955361
 20
30.5649043624
 30
0.0
 10
1061.3362955361
 20
30.5649043624
 30
0.0
 10
1061.1585974039
 20
30.4366685969
 30
0.0
 10
1061.0112571263
 20
30.3089562427
 30
0.0
 10
1061.0112571263
 20
30.0718509292
 30
0.0
 10
1061.0112571263
 20
29.7515232211
 30
0.0
 10
1061.2698223025
 20
29.5254095447
 30
0.0
 10
1061.5802051963
 20
29.5254095447
 30
0.0
 10
1061.7991219674
 20
29.5254095447
 30
0.0
 10
1061.9963171701
 20
29.6505048425
 30
0.0
 10
1062.1365913953
 20
29.8164262208
 30
0.0
 10
1062.1365913953
 20
29.8164262208
 30
0.0
 10
1062.338889858
 20
29.5651888026
 30
0.0
 10
1062.338889858
 20
29.5651888026
 30
0.0
  0
LWPOLYLINE
  5
246
330
226
100
AcDbEntity
  8
0
  6
Continuous
 62
     7
100
AcDbPolyline
 90
        2
 70
     0
 43
0.2
 10
1064.2743339477
 20
31.4217286407
 10
1064.0429861585
 20
31.4217286407
  0
LWPOLYLINE
  5
247
330
226
100
AcDbEntity
  8
0
  6
Continuous
 62
     7
100
AcDbPolyline
 90
        2
 70
     0
 43
0.2
 10
1064.0429861585
 20
31.4217286407
 10
1064.0429861585
 20
29.5646653913
  0
LWPOLYLINE
  5
248
330
226
100
AcDbEntity
  8
0
  6
Continuous
 62
     7
100
AcDbPolyline
 90
        2
 70
     0
 43
0.2
 10
1064.0429861585
 20
29.5646653913
 10
1064.8383096104
 20
29.5646653913
  0
LWPOLYLINE
  5
249
330
226
100
AcDbEntity
  8
0
  6
Continuous
 62
     7
100
AcDbPolyline
 90
        2
 70
     0
 43
0.2
 10
1064.8383096104
 20
29.5646653913
 10
1064.8383096104
 20
29.7766469629
  0
LWPOLYLINE
  5
24A
330
226
100
AcDbEntity
  8
0
  6
Continuous
 62
     7
100
AcDbPolyline
 90
        2
 70
     0
 43
0.2
 10
1064.8383096104
 20
29.7766469629
 10
1064.2743339477
 20
29.7766469629
  0
LWPOLYLINE
  5
24B
330
226
100
AcDbEntity
  8
0
  6
Continuous
 62
     7
100
AcDbPolyline
 90
        2
 70
     0
 43
0.2
 10
1064.2743339477
 20
29.7766469629
 10
1064.2743339477
 20
31.4217286407
  0
LWPOLYLINE
  5
24C
330
226
100
AcDbEntity
  8
0
  6
Continuous
 62
     7
100
AcDbPolyline
 90
        2
 70
     0
 43
0.2
 10
1066.5174130219
 20
30.7172170472
 10
1066.2962717528
 20
30.7172170472
  0
LWPOLYLINE
  5
24D
330
226
100
AcDbEntity
  8
0
  6
Continuous
 62
     7
100
AcDbPolyline
 90
        2
 70
     0
 43
0.2
 10
1066.2962717528
 20
30.7172170472
 10
1066.2962717528
 20
29.5651888026
  0
LWPOLYLINE
  5
24E
330
226
100
AcDbEntity
  8
0
  6
Continuous
 62
     7
100
AcDbPolyline
 90
        2
 70
     0
 43
0.2
 10
1066.2962717528
 20
29.5651888026
 10
1066.5174130219
 20
29.5651888026
  0
LWPOLYLINE
  5
24F
330
226
100
AcDbEntity
  8
0
  6
Continuous
 62
     7
100
AcDbPolyline
 90
        2
 70
     0
 43
0.2
 10
1066.5174130219
 20
29.5651888026
 10
1066.5174130219
 20
30.7172170472
  0
LWPOLYLINE
  5
250
330
226
100
AcDbEntity
  8
0
  6
Continuous
 62
     7
100
AcDbPolyline
 90
        2
 70
     1
 43
0.2
 10
1066.2543897447
 20
31.2471709762
 42
1.0
 10
1066.5595567356
 20
31.2471709762
 42
1.0
  0
SPLINE
  5
251
330
226
100
AcDbEntity
  8
0
  6
Continuous
 62
     7
100
AcDbSpline
 70
     3
 71
     3
 72
    17
 73
    13
 74
     0
 42
0.000000001
 43
0.0000001
 40
0.0
 40
0.0
 40
0.0
 40
0.0
 40
1.0
 40
1.0
 40
1.0
 40
2.0
 40
2.0
 40
2.0
 40
3.0
 40
3.0
 40
3.0
 40
4.0
 40
4.0
 40
4.0
 40
4.0
 10
1068.6476969635
 20
29.7227356002
 30
0.0
 10
1068.4137321179
 20
29.7227356002
 30
0.0
 10
1068.2834027072
 20
29.9247723574
 30
0.0
 10
1068.2834027072
 20
30.1409412192
 30
0.0
 10
1068.2834027072
 20
30.3555398473
 30
0.0
 10
1068.4192279364
 20
30.5544361367
 30
0.0
 10
1068.6476969635
 20
30.5544361367
 30
0.0
 10
1068.8871576277
 20
30.5544361367
 30
0.0
 10
1069.0227211513
 20
30.3654846617
 30
0.0
 10
1069.0227211513
 20
30.1409412192
 30
0.0
 10
1069.0227211513
 20
29.9148275429
 30
0.0
 10
1068.8895129785
 20
29.7227356002
 30
0.0
 10
1068.6476969635
 20
29.7227356002
 30
0.0
  0
SPLINE
  5
252
330
226
100
AcDbEntity
  8
0
  6
Continuous
 62
     7
100
AcDbSpline
 70
     3
 71
     3
 72
    50
 73
    46
 74
     0
 42
0.000000001
 43
0.0000001
 40
0.0
 40
0.0
 40
0.0
 40
0.0
 40
1.0
 40
1.0
 40
1.0
 40
2.0
 40
2.0
 40
2.0
 40
3.0
 40
3.0
 40
3.0
 40
4.0
 40
4.0
 40
4.0
 40
5.0
 40
5.0
 40
5.0
 40
6.0
 40
6.0
 40
6.0
 40
7.0
 40
7.0
 40
7.0
 40
8.0
 40
8.0
 40
8.0
 40
9.0
 40
9.0
 40
9.0
 40
10.0
 40
10.0
 40
10.0
 40
11.0
 40
11.0
 40
11.0
 40
12.0
 40
12.0
 40
12.0
 40
13.0
 40
13.0
 40
13.0
 40
14.0
 40
14.0
 40
14.0
 40
15.0
 40
15.0
 40
15.0
 40
15.0
 10
1069.2318239608
 20
30.7177404585
 30
0.0
 10
1069.2318239608
 20
30.7177404585
 30
0.0
 10
1069.0101592804
 20
30.7177404585
 30
0.0
 10
1069.0101592804
 20
30.7177404585
 30
0.0
 10
1069.0101592804
 20
30.7177404585
 30
0.0
 10
1069.0101592804
 20
30.520414403
 30
0.0
 10
1069.0101592804
 20
30.520414403
 30
0.0
 10
1069.0101592804
 20
30.520414403
 30
0.0
 10
1069.0054485788
 20
30.520414403
 30
0.0
 10
1069.0054485788
 20
30.520414403
 30
0.0
 10
1068.9141133091
 20
30.6633056845
 30
0.0
 10
1068.7761944347
 20
30.7517621922
 30
0.0
 10
1068.6034687097
 20
30.7517621922
 30
0.0
 10
1068.2711025419
 20
30.7517621922
 30
0.0
 10
1068.0619997324
 20
30.4638859839
 30
0.0
 10
1068.0619997324
 20
30.1482689773
 30
0.0
 10
1068.0619997324
 20
29.8185198659
 30
0.0
 10
1068.2590640823
 20
29.5254095447
 30
0.0
 10
1068.6139369355
 20
29.5254095447
 30
0.0
 10
1068.7761944347
 20
29.5254095447
 30
0.0
 10
1068.9162069542
 20
29.6138660524
 30
0.0
 10
1069.0054485788
 20
29.7447188743
 30
0.0
 10
1069.0054485788
 20
29.7447188743
 30
0.0
 10
1069.0101592804
 20
29.7447188743
 30
0.0
 10
1069.0101592804
 20
29.7447188743
 30
0.0
 10
1069.0101592804
 20
29.7447188743
 30
0.0
 10
1069.0101592804
 20
29.5254095447
 30
0.0
 10
1069.0101592804
 20
29.5254095447
 30
0.0
 10
1069.0101592804
 20
29.2888276426
 30
0.0
 10
1068.9536308613
 20
29.1019698128
 30
0.0
 10
1068.680410169
 20
29.1019698128
 30
0.0
 10
1068.4781117063
 20
29.1019698128
 30
0.0
 10
1068.3354821303
 20
29.2202607639
 30
0.0
 10
1068.3354821303
 20
29.4264848113
 30
0.0
 10
1068.3354821303
 20
29.4264848113
 30
0.0
 10
1068.1138174499
 20
29.4264848113
 30
0.0
 10
1068.1138174499
 20
29.4264848113
 30
0.0
 10
1068.1187898571
 20
29.1019698128
 30
0.0
 10
1068.3498759407
 20
28.9051671686
 30
0.0
 10
1068.6702036489
 20
28.9051671686
 30
0.0
 10
1069.1182437113
 20
28.9051671686
 30
0.0
 10
1069.2318239608
 20
29.1904263205
 30
0.0
 10
1069.2318239608
 20
29.5871720767
 30
0.0
 10
1069.2318239608
 20
29.5871720767
 30
0.0
 10
1069.2318239608
 20
30.7177404585
 30
0.0
 10
1069.2318239608
 20
30.7177404585
 30
0.0
  0
SPLINE
  5
253
330
226
100
AcDbEntity
  8
0
  6
Continuous
 62
     7
100
AcDbSpline
 70
     3
 71
     3
 72
    44
 73
    40
 74
     0
 42
0.000000001
 43
0.0000001
 40
0.0
 40
0.0
 40
0.0
 40
0.0
 40
1.0
 40
1.0
 40
1.0
 40
2.0
 40
2.0
 40
2.0
 40
3.0
 40
3.0
 40
3.0
 40
4.0
 40
4.0
 40
4.0
 40
5.0
 40
5.0
 40
5.0
 40
6.0
 40
6.0
 40
6.0
 40
7.0
 40
7.0
 40
7.0
 40
8.0
 40
8.0
 40
8.0
 40
9.0
 40
9.0
 40
9.0
 40
10.0
 40
10.0
 40
10.0
 40
11.0
 40
11.0
 40
11.0
 40
12.0
 40
12.0
 40
12.0
 40
13.0
 40
13.0
 40
13.0
 40
13.0
 10
1070.8007492962
 20
31.7028005023
 30
0.0
 10
1070.8007492962
 20
31.7028005023
 30
0.0
 10
1070.8007492962
 20
29.5646653913
 30
0.0
 10
1070.8007492962
 20
29.5646653913
 30
0.0
 10
1070.8007492962
 20
29.5646653913
 30
0.0
 10
1071.022152271
 20
29.5646653913
 30
0.0
 10
1071.022152271
 20
29.5646653913
 30
0.0
 10
1071.022152271
 20
29.5646653913
 30
0.0
 10
1071.022152271
 20
30.0943576146
 30
0.0
 10
1071.022152271
 20
30.0943576146
 30
0.0
 10
1071.022152271
 20
30.3042455411
 30
0.0
 10
1071.022152271
 20
30.554959548
 30
0.0
 10
1071.3074114229
 20
30.554959548
 30
0.0
 10
1071.5343102161
 20
30.554959548
 30
0.0
 10
1071.5612658975
 20
30.4220130808
 30
0.0
 10
1071.5612658975
 20
30.2257338479
 30
0.0
 10
1071.5612658975
 20
30.2257338479
 30
0.0
 10
1071.5612658975
 20
29.5646653913
 30
0.0
 10
1071.5612658975
 20
29.5646653913
 30
0.0
 10
1071.5612658975
 20
29.5646653913
 30
0.0
 10
1071.7831922835
 20
29.5646653913
 30
0.0
 10
1071.7831922835
 20
29.5646653913
 30
0.0
 10
1071.7831922835
 20
29.5646653913
 30
0.0
 10
1071.7831922835
 20
30.2519044123
 30
0.0
 10
1071.7831922835
 20
30.2519044123
 30
0.0
 10
1071.7831922835
 20
30.5324528626
 30
0.0
 10
1071.6991847718
 20
30.7522856035
 30
0.0
 10
1071.3741463621
 20
30.7522856035
 30
0.0
 10
1071.2343955482
 20
30.7522856035
 30
0.0
 10
1071.0962149682
 20
30.6858123699
 30
0.0
 10
1071.0268629726
 20
30.5628107173
 30
0.0
 10
1071.0268629726
 20
30.5628107173
 30
0.0
 10
1071.022152271
 20
30.5628107173
 30
0.0
 10
1071.022152271
 20
30.5628107173
 30
0.0
 10
1071.022152271
 20
30.5628107173
 30
0.0
 10
1071.022152271
 20
31.7028005023
 30
0.0
 10
1071.022152271
 20
31.7028005023
 30
0.0
 10
1071.022152271
 20
31.7028005023
 30
0.0
 10
1070.8007492962
 20
31.7028005023
 30
0.0
 10
1070.8007492962
 20
31.7028005023
 30
0.0
  0
LWPOLYLINE
  5
254
330
226
100
AcDbEntity
  8
0
  6
Continuous
 62
     7
100
AcDbPolyline
 90
        2
 70
     0
 43
0.2
 10
1073.6229829604
 20
30.5104695885
 10
1073.8394135279
 20
30.5104695885
  0
LWPOLYLINE
  5
255
330
226
100
AcDbEntity
  8
0
  6
Continuous
 62
     7
100
AcDbPolyline
 90
        2
 70
     0
 43
0.2
 10
1073.8394135279
 20
30.5104695885
 10
1073.8394135279
 20
30.7172170472
  0
LWPOLYLINE
  5
256
330
226
100
AcDbEntity
  8
0
  6
Continuous
 62
     7
100
AcDbPolyline
 90
        2
 70
     0
 43
0.2
 10
1073.8394135279
 20
30.7172170472
 10
1073.6229829604
 20
30.7172170472
  0
LWPOLYLINE
  5
257
330
226
100
AcDbEntity
  8
0
  6
Continuous
 62
     7
100
AcDbPolyline
 90
        2
 70
     0
 43
0.2
 10
1073.6229829604
 20
30.7172170472
 10
1073.6229829604
 20
31.1579293516
  0
LWPOLYLINE
  5
258
330
226
100
AcDbEntity
  8
0
  6
Continuous
 62
     7
100
AcDbPolyline
 90
        2
 70
     0
 43
0.2
 10
1073.6229829604
 20
31.1579293516
 10
1073.40131828
 20
31.1579293516
  0
LWPOLYLINE
  5
259
330
226
100
AcDbEntity
  8
0
  6
Continuous
 62
     7
100
AcDbPolyline
 90
        2
 70
     0
 43
0.2
 10
1073.40131828
 20
31.1579293516
 10
1073.40131828
 20
30.7172170472
  0
LWPOLYLINE
  5
25A
330
226
100
AcDbEntity
  8
0
  6
Continuous
 62
     7
100
AcDbPolyline
 90
        2
 70
     0
 43
0.2
 10
1073.40131828
 20
30.7172170472
 10
1073.2806719781
 20
30.7172170472
  0
LWPOLYLINE
  5
25B
330
226
100
AcDbEntity
  8
0
  6
Continuous
 62
     7
100
AcDbPolyline
 90
        2
 70
     0
 43
0.2
 10
1073.2806719781
 20
30.7172170472
 10
1073.2806719781
 20
30.5104695885
  0
LWPOLYLINE
  5
25C
330
226
100
AcDbEntity
  8
0
  6
Continuous
 62
     7
100
AcDbPolyline
 90
        2
 70
     0
 43
0.2
 10
1073.2806719781
 20
30.5104695885
 10
1073.40131828
 20
30.5104695885
  0
LWPOLYLINE
  5
25D
330
226
100
AcDbEntity
  8
0
  6
Continuous
 62
     7
100
AcDbPolyline
 90
        2
 70
     0
 43
0.2
 10
1073.40131828
 20
30.5104695885
 10
1073.40131828
 20
29.5646653913
  0
LWPOLYLINE
  5
25E
330
226
100
AcDbEntity
  8
0
  6
Continuous
 62
     7
100
AcDbPolyline
 90
        2
 70
     0
 43
0.2
 10
1073.40131828
 20
29.5646653913
 10
1073.6229829604
 20
29.5646653913
  0
LWPOLYLINE
  5
25F
330
226
100
AcDbEntity
  8
0
  6
Continuous
 62
     7
100
AcDbPolyline
 90
        2
 70
     0
 43
0.2
 10
1073.6229829604
 20
29.5646653913
 10
1073.6229829604
 20
30.5104695885
  0
SPLINE
  5
260
330
226
100
AcDbEntity
  8
0
  6
Continuous
 62
     7
100
AcDbSpline
 70
     3
 71
     3
 72
    20
 73
    16
 74
     0
 42
0.000000001
 43
0.0000001
 40
0.0
 40
0.0
 40
0.0
 40
0.0
 40
1.0
 40
1.0
 40
1.0
 40
2.0
 40
2.0
 40
2.0
 40
3.0
 40
3.0
 40
3.0
 40
4.0
 40
4.0
 40
4.0
 40
5.0
 40
5.0
 40
5.0
 40
5.0
 10
1061.4049932676
 20
39.9255918347
 30
0.0
 10
1061.4049932676
 20
39.9255918347
 30
0.0
 10
1063.7213499221
 20
37.0960304125
 30
0.0
 10
1063.7213499221
 20
37.0960304125
 30
0.0
 10
1063.0697028687
 20
36.4438599478
 30
0.0
 10
1062.2928296647
 20
35.707943677
 30
0.0
 10
1061.32164002
 20
35.707943677
 30
0.0
 10
1060.3231021356
 20
35.707943677
 30
0.0
 10
1059.379784142
 20
36.6375221243
 30
0.0
 10
1059.379784142
 20
37.6367142728
 30
0.0
 10
1059.379784142
 20
38.6359064214
 30
0.0
 10
1060.5586372152
 20
39.34251166
 30
0.0
 10
1061.2801596755
 20
39.8423694399
 30
0.0
 10
1061.2801596755
 20
39.8423694399
 30
0.0
 10
1061.4049932676
 20
39.9255918347
 30
0.0
 10
1061.4049932676
 20
39.9255918347
 30
0.0
  0
SPLINE
  5
261
330
226
100
AcDbEntity
  8
0
  6
Continuous
 62
     7
100
AcDbSpline
 70
     3
 71
     3
 72
    23
 73
    19
 74
     0
 42
0.000000001
 43
0.0000001
 40
0.0
 40
0.0
 40
0.0
 40
0.0
 40
1.0
 40
1.0
 40
1.0
 40
2.0
 40
2.0
 40
2.0
 40
3.0
 40
3.0
 40
3.0
 40
4.0
 40
4.0
 40
4.0
 40
5.0
 40
5.0
 40
5.0
 40
6.0
 40
6.0
 40
6.0
 40
6.0
 10
1061.6824012502
 20
41.5633457544
 30
0.0
 10
1061.6824012502
 20
41.5633457544
 30
0.0
 10
1061.3359029776
 20
42.0066751153
 30
0.0
 10
1061.3359029776
 20
42.0066751153
 30
0.0
 10
1061.0300999327
 20
42.3947845852
 30
0.0
 10
1060.7112116056
 20
42.7832866136
 30
0.0
 10
1060.7112116056
 20
43.3102309277
 30
0.0
 10
1060.7112116056
 20
43.9764026443
 30
0.0
 10
1061.25254973
 20
44.4201245636
 30
0.0
 10
1061.8764559852
 20
44.4201245636
 30
0.0
 10
1062.5702376473
 20
44.4201245636
 30
0.0
 10
1063.097443667
 20
44.0178829889
 30
0.0
 10
1063.097443667
 20
43.2828826879
 30
0.0
 10
1063.097443667
 20
42.5196181774
 30
0.0
 10
1062.3761829123
 20
42.0895049516
 30
0.0
 10
1061.8491077454
 20
41.6737855362
 30
0.0
 10
1061.8491077454
 20
41.6737855362
 30
0.0
 10
1061.6824012502
 20
41.5633457544
 30
0.0
 10
1061.6824012502
 20
41.5633457544
 30
0.0
  0
SPLINE
  5
262
330
226
100
AcDbEntity
  8
0
  6
Continuous
 62
     7
100
AcDbSpline
 70
     3
 71
     3
 72
    50
 73
    46
 74
     0
 42
0.000000001
 43
0.0000001
 40
0.0
 40
0.0
 40
0.0
 40
0.0
 40
1.0
 40
1.0
 40
1.0
 40
2.0
 40
2.0
 40
2.0
 40
3.0
 40
3.0
 40
3.0
 40
4.0
 40
4.0
 40
4.0
 40
5.0
 40
5.0
 40
5.0
 40
6.0
 40
6.0
 40
6.0
 40
7.0
 40
7.0
 40
7.0
 40
8.0
 40
8.0
 40
8.0
 40
9.0
 40
9.0
 40
9.0
 40
10.0
 40
10.0
 40
10.0
 40
11.0
 40
11.0
 40
11.0
 40
12.0
 40
12.0
 40
12.0
 40
13.0
 40
13.0
 40
13.0
 40
14.0
 40
14.0
 40
14.0
 40
15.0
 40
15.0
 40
15.0
 40
15.0
 10
1065.6359884131
 20
34.7647565363
 30
0.0
 10
1065.6359884131
 20
34.7647565363
 30
0.0
 10
1067.2452164177
 20
34.7647565363
 30
0.0
 10
1067.2452164177
 20
34.7647565363
 30
0.0
 10
1067.2452164177
 20
34.7647565363
 30
0.0
 10
1065.3721891241
 20
37.0818983077
 30
0.0
 10
1065.3721891241
 20
37.0818983077
 30
0.0
 10
1065.3721891241
 20
37.0818983077
 30
0.0
 10
1066.6485275495
 20
38.5793780023
 30
0.0
 10
1066.6485275495
 20
38.5793780023
 30
0.0
 10
1066.6485275495
 20
38.5793780023
 30
0.0
 10
1065.8163036018
 20
39.4403895708
 30
0.0
 10
1065.8163036018
 20
39.4403895708
 30
0.0
 10
1065.8163036018
 20
39.4403895708
 30
0.0
 10
1064.5957084785
 20
38.0250854484
 30
0.0
 10
1064.5957084785
 20
38.0250854484
 30
0.0
 10
1064.5957084785
 20
38.0250854484
 30
0.0
 10
1062.4177941097
 20
40.6604612829
 30
0.0
 10
1062.4177941097
 20
40.6604612829
 30
0.0
 10
1063.2913675491
 20
41.2984996428
 30
0.0
 10
1064.3180387903
 20
42.0895049516
 30
0.0
 10
1064.3180387903
 20
43.2683580247
 30
0.0
 10
1064.3180387903
 20
44.6420509497
 30
0.0
 10
1063.1801426505
 20
45.4465340991
 30
0.0
 10
1061.9048510476
 20
45.4465340991
 30
0.0
 10
1060.5314198282
 20
45.4465340991
 30
0.0
 10
1059.4904856294
 20
44.6003088995
 30
0.0
 10
1059.4904856294
 20
43.1576565373
 30
0.0
 10
1059.4904856294
 20
42.2700818459
 30
0.0
 10
1060.0458250059
 20
41.4932086419
 30
0.0
 10
1060.6419904627
 20
40.8687789754
 30
0.0
 10
1060.6419904627
 20
40.8687789754
 30
0.0
 10
1059.9900817037
 20
40.3971854051
 30
0.0
 10
1059.9900817037
 20
40.3971854051
 30
0.0
 10
1058.9915438193
 20
39.6759246504
 30
0.0
 10
1058.1586656074
 20
38.9546638957
 30
0.0
 10
1058.1586656074
 20
37.6231055794
 30
0.0
 10
1058.1586656074
 20
35.8194302814
 30
0.0
 10
1059.6157117801
 20
34.5428301502
 30
0.0
 10
1061.3632512174
 20
34.5428301502
 30
0.0
 10
1062.5981092983
 20
34.5428301502
 30
0.0
 10
1063.707479523
 20
35.2510056227
 30
0.0
 10
1064.498353979
 20
36.1795372474
 30
0.0
 10
1064.498353979
 20
36.1795372474
 30
0.0
 10
1065.6359884131
 20
34.7647565363
 30
0.0
 10
1065.6359884131
 20
34.7647565363
 30
0.0
  0
LINE
  5
263
330
226
100
AcDbEntity
  8
0
  6
Continuous
 62
     7
100
AcDbLine
 10
1051.4388497881
 20
32.7386314409
 30
0.0
 11
1073.8527605158
 21
32.7386314409
 31
0.0
  0
LINE
  5
264
330
226
100
AcDbEntity
  8
0
  6
Continuous
 62
     7
100
AcDbLine
 10
1073.8527605158
 20
32.7386314409
 30
0.0
 11
1073.8527605158
 21
55.1525421686
 31
0.0
  0
LINE
  5
265
330
226
100
AcDbEntity
  8
0
  6
Continuous
 62
     7
100
AcDbLine
 10
1073.8527605158
 20
55.1525421686
 30
0.0
 11
1051.4388497881
 21
55.1525421686
 31
0.0
  0
LINE
  5
266
330
226
100
AcDbEntity
  8
0
  6
Continuous
 62
     7
100
AcDbLine
 10
1051.4388497881
 20
55.1525421686
 30
0.0
 11
1051.4388497881
 21
32.7386314409
 31
0.0
  0
ENDBLK
  5
267
330
226
100
AcDbEntity
  8
0
  6
ByBlock
 62
     0
100
AcDbBlockEnd
  0
BLOCK
  5
268
330
227
100
AcDbEntity
  8
0
100
AcDbBlockBegin
  2
PROIEZIONE_EU_BL0
 70
     0
 10
1063.8196926808
 20
67.6538546686
 30
0.0
  3
PROIEZIONE_EU_BL0
  1

  0
LWPOLYLINE
  5
269
330
227
100
AcDbEntity
  8
DEFAULT_1
  6
CENTER
 62
     7
100
AcDbPolyline
 90
        2
 70
     0
 43
0.25
 10
1069.9463133424
 20
72.6535488005
 10
1069.9463543248
 20
62.6541605367
  0
LWPOLYLINE
  5
26A
330
227
100
AcDbEntity
  8
DEFAULT_1
  6
CENTER
 62
     7
100
AcDbPolyline
 90
        2
 70
     0
 43
0.25
 10
1075.9463431675
 20
67.6541258037
 10
1051.693042194
 20
67.6538551433
  0
LWPOLYLINE
  5
26B
330
227
100
AcDbEntity
  8
0
  6
Continuous
 62
     7
100
AcDbPolyline
 90
        2
 70
     1
 43
0.25
 10
1066.3992031666
 20
67.6353069144
 42
1.0
 10
1073.5055322653
 20
67.6353069144
 42
1.0
  0
LWPOLYLINE
  5
26C
330
227
100
AcDbEntity
  8
0
  6
Continuous
 62
     7
100
AcDbPolyline
 90
        2
 70
     1
 43
0.25
 10
1067.948946995
 20
67.653204959
 42
1.0
 10
1071.9606987451
 20
67.653204959
 42
1.0
  0
LWPOLYLINE
  5
26D
330
227
100
AcDbEntity
  8
0
  6
Continuous
 62
     7
100
AcDbPolyline
 90
        2
 70
     0
 43
0.25
 10
1063.9463409615
 20
71.2290581638
 10
1063.9463406069
 20
64.1288552555
  0
LWPOLYLINE
  5
26E
330
227
100
AcDbEntity
  8
0
  6
Continuous
 62
     7
100
AcDbPolyline
 90
        2
 70
     0
 43
0.25
 10
1063.9463690433
 20
64.1288268191
 10
1053.9518117721
 20
65.648920232
  0
LWPOLYLINE
  5
26F
330
227
100
AcDbEntity
  8
0
  6
Continuous
 62
     7
100
AcDbPolyline
 90
        2
 70
     0
 43
0.25
 10
1053.9495017865
 20
65.6482426904
 10
1053.9468348824
 20
69.6538813019
  0
LWPOLYLINE
  5
270
330
227
100
AcDbEntity
  8
0
  6
Continuous
 62
     7
100
AcDbPolyline
 90
        2
 70
     0
 43
0.25
 10
1053.9468266063
 20
69.6538730258
 10
1063.9465698436
 20
71.2290302459
  0
ENDBLK
  5
271
330
227
100
AcDbEntity
  8
0
  6
ByBlock
 62
     0
100
AcDbBlockEnd
  0
ENDSEC
  0
SECTION
  2
ENTITIES
  0
LINE
  5
2A5
330
1B
100
AcDbEntity
 67
     1
  8
0
  6
Continuous
 62
     7
100
AcDbLine
 10
0.0
 20
0.0
 30
0.0
 11
1189.0
 21
0.0
 31
0.0
  0
LINE
  5
2A6
330
1B
100
AcDbEntity
 67
     1
  8
0
  6
Continuous
 62
     7
100
AcDbLine
 10
1189.0
 20
0.0
 30
0.0
 11
1189.0
 21
841.0
 31
0.0
  0
LINE
  5
2A7
330
1B
100
AcDbEntity
 67
     1
  8
0
  6
Continuous
 62
     7
100
AcDbLine
 10
0.0
 20
841.0
 30
0.0
 11
1189.0
 21
841.0
 31
0.0
  0
LINE
  5
2A8
330
1B
100
AcDbEntity
 67
     1
  8
0
  6
Continuous
 62
     7
100
AcDbLine
 10
0.0
 20
0.0
 30
0.0
 11
0.0
 21
841.0
 31
0.0
  0
LINE
  5
2A9
330
1B
100
AcDbEntity
 67
     1
  8
0
  6
Continuous
 62
     7
100
AcDbLine
 10
7.0
 20
834.0
 30
0.0
 11
1182.0
 21
834.0
 31
0.0
  0
LINE
  5
2AA
330
1B
100
AcDbEntity
 67
     1
  8
0
  6
Continuous
 62
     7
100
AcDbLine
 10
1182.0
 20
7.0
 30
0.0
 11
1182.0
 21
834.0
 31
0.0
  0
LINE
  5
2AB
330
1B
100
AcDbEntity
 67
     1
  8
0
  6
Continuous
 62
     7
100
AcDbLine
 10
7.0
 20
7.0
 30
0.0
 11
7.0
 21
834.0
 31
0.0
  0
LINE
  5
2AC
330
1B
100
AcDbEntity
 67
     1
  8
0
  6
Continuous
 62
     7
100
AcDbLine
 10
7.0
 20
7.0
 30
0.0
 11
1182.0
 21
7.0
 31
0.0
  0
LINE
  5
2AD
330
1B
100
AcDbEntity
 67
     1
  8
0
  6
Continuous
 62
     7
100
AcDbLine
 10
10.0
 20
831.0
 30
0.0
 11
1179.0
 21
831.0
 31
0.0
  0
LINE
  5
2AE
330
1B
100
AcDbEntity
 67
     1
  8
0
  6
Continuous
 62
     7
100
AcDbLine
 10
10.0
 20
10.0
 30
0.0
 11
10.0
 21
831.0
 31
0.0
  0
LINE
  5
2AF
330
1B
100
AcDbEntity
 67
     1
  8
0
  6
Continuous
 62
     7
100
AcDbLine
 10
10.0
 20
10.0
 30
0.0
 11
1179.0
 21
10.0
 31
0.0
  0
LINE
  5
2B0
330
1B
100
AcDbEntity
 67
     1
  8
0
  6
Continuous
 62
     7
100
AcDbLine
 10
1179.0
 20
10.0
 30
0.0
 11
1179.0
 21
831.0
 31
0.0
  0
LINE
  5
2B1
330
1B
100
AcDbEntity
 67
     1
  8
0
  6
Continuous
 62
     7
100
AcDbLine
 10
594.5
 20
841.0
 30
0.0
 11
594.5
 21
830.9963547375
 31
0.0
  0
LINE
  5
2B2
330
1B
100
AcDbEntity
 67
     1
  8
0
  6
Continuous
 62
     7
100
AcDbLine
 10
594.5
 20
0.0
 30
0.0
 11
594.5
 21
9.9978114262
 31
0.0
  0
LINE
  5
2B3
330
1B
100
AcDbEntity
 67
     1
  8
0
  6
Continuous
 62
     7
100
AcDbLine
 10
1189.0
 20
420.5
 30
0.0
 11
1179.0324714513
 21
420.5
 31
0.0
  0
LINE
  5
2B4
330
1B
100
AcDbEntity
 67
     1
  8
0
  6
Continuous
 62
     7
100
AcDbLine
 10
0.0
 20
420.5
 30
0.0
 11
10.0003039739
 21
420.5
 31
0.0
  0
VIEWPORT
  5
2B5
330
1B
100
AcDbEntity
 67
     1
  8
0
100
AcDbViewport
 10
0.0
 20
0.0
 30
0.0
 40
1401.884824902724
 41
991.332840466926
 68
     1
 69
     1
 12
662.6556420233462
 22
420.4999999999999
 13
0.0
 23
0.0
 14
1.0
 24
1.0
 15
0.0
 25
0.0
 16
0.0
 26
0.0
 36
1.0
 17
0.0
 27
0.0
 37
0.0
 42
50.0
 43
0.0
 44
0.0
 45
991.332840466926
 50
0.0
 51
0.0
 72
   100
 90
   557216
  1

281
     0
 71
     1
 74
     0
110
0.0
120
0.0
130
0.0
111
1.0
121
0.0
131
0.0
112
0.0
122
1.0
132
0.0
 79
     0
146
0.0
170
     0
 61
     5
348
69F
292
     1
282
     1
141
0.0
142
0.0
 63
   256
  0
LINE
  5
2B6
330
1B
100
AcDbEntity
 67
     1
  8
3_ALL_AXES
  6
Continuous
 62
     7
100
AcDbLine
 10
78.2409959278
 20
348.2669778257
 30
0.0
 11
78.2409959278
 21
347.5611076551
 31
0.0
  0
LINE
  5
2B7
330
1B
100
AcDbEntity
 67
     1
  8
3_ALL_AXES
  6
Continuous
 62
     7
100
AcDbLine
 10
84.0409959278
 20
348.2669778257
 30
0.0
 11
84.0409959278
 21
347.5611076551
 31
0.0
  0
ARC
  5
2B8
330
1B
100
AcDbEntity
 67
     1
  8
3_ALL_AXES
  6
Continuous
 62
     7
100
AcDbCircle
 10
81.1409959278
 20
355.0169778257
 30
0.0
 40
8.0
100
AcDbArc
 50
248.7461908146
 51
270.0
  0
ARC
  5
2B9
330
1B
100
AcDbEntity
 67
     1
  8
3_ALL_AXES
  6
Continuous
 62
     7
100
AcDbCircle
 10
81.1409959278
 20
355.0169778257
 30
0.0
 40
8.0
100
AcDbArc
 50
270.0
 51
291.2538091854
  0
LINE
  5
2BA
330
1B
100
AcDbEntity
 67
     1
  8
3_ALL_AXES
  6
Continuous
 62
     7
100
AcDbLine
 10
78.2409959278
 20
347.5611076551
 30
0.0
 11
78.2409959278
 21
348.2669778257
 31
0.0
  0
LINE
  5
2BB
330
1B
100
AcDbEntity
 67
     1
  8
3_ALL_AXES
  6
Continuous
 62
     7
100
AcDbLine
 10
84.0409959278
 20
347.5611076551
 30
0.0
 11
84.0409959278
 21
348.2669778257
 31
0.0
  0
LINE
  5
2BC
330
1B
100
AcDbEntity
 67
     1
  8
3_ALL_AXES
  6
Continuous
 62
     7
100
AcDbLine
 10
78.2409959278
 20
347.5611076551
 30
0.0
 11
84.0409959278
 21
347.5611076551
 31
0.0
  0
LINE
  5
2BD
330
1B
100
AcDbEntity
 67
     1
  8
3_ALL_AXES
  6
Continuous
 62
     7
100
AcDbLine
 10
553.2409959278
 20
348.2669778257
 30
0.0
 11
553.2409959278
 21
347.5611076551
 31
0.0
  0
LINE
  5
2BE
330
1B
100
AcDbEntity
 67
     1
  8
3_ALL_AXES
  6
Continuous
 62
     7
100
AcDbLine
 10
559.0409959278
 20
348.2669778257
 30
0.0
 11
559.0409959278
 21
347.5611076551
 31
0.0
  0
ARC
  5
2BF
330
1B
100
AcDbEntity
 67
     1
  8
3_ALL_AXES
  6
Continuous
 62
     7
100
AcDbCircle
 10
556.1409959278
 20
355.0169778257
 30
0.0
 40
8.0
100
AcDbArc
 50
248.7461908146
 51
270.0
  0
ARC
  5
2C0
330
1B
100
AcDbEntity
 67
     1
  8
3_ALL_AXES
  6
Continuous
 62
     7
100
AcDbCircle
 10
556.1409959278
 20
355.0169778257
 30
0.0
 40
8.0
100
AcDbArc
 50
270.0
 51
291.2538091854
  0
LINE
  5
2C1
330
1B
100
AcDbEntity
 67
     1
  8
3_ALL_AXES
  6
Continuous
 62
     7
100
AcDbLine
 10
553.2409959278
 20
347.5611076551
 30
0.0
 11
553.2409959278
 21
348.2669778257
 31
0.0
  0
LINE
  5
2C2
330
1B
100
AcDbEntity
 67
     1
  8
3_ALL_AXES
  6
Continuous
 62
     7
100
AcDbLine
 10
559.0409959278
 20
347.5611076551
 30
0.0
 11
559.0409959278
 21
348.2669778257
 31
0.0
  0
LINE
  5
2C3
330
1B
100
AcDbEntity
 67
     1
  8
3_ALL_AXES
  6
Continuous
 62
     7
100
AcDbLine
 10
553.2409959278
 20
347.5611076551
 30
0.0
 11
559.0409959278
 21
347.5611076551
 31
0.0
  0
LINE
  5
2C4
330
1B
100
AcDbEntity
 67
     1
  8
3_ALL_AXES
  6
Continuous
 62
     7
100
AcDbLine
 10
1028.2409959278
 20
348.2669778257
 30
0.0
 11
1028.2409959278
 21
347.5611076551
 31
0.0
  0
LINE
  5
2C5
330
1B
100
AcDbEntity
 67
     1
  8
3_ALL_AXES
  6
Continuous
 62
     7
100
AcDbLine
 10
1034.0409959278
 20
348.2669778257
 30
0.0
 11
1034.0409959278
 21
347.5611076551
 31
0.0
  0
ARC
  5
2C6
330
1B
100
AcDbEntity
 67
     1
  8
3_ALL_AXES
  6
Continuous
 62
     7
100
AcDbCircle
 10
1031.1409959278
 20
355.0169778257
 30
0.0
 40
8.0
100
AcDbArc
 50
248.7461908146
 51
270.0
  0
ARC
  5
2C7
330
1B
100
AcDbEntity
 67
     1
  8
3_ALL_AXES
  6
Continuous
 62
     7
100
AcDbCircle
 10
1031.1409959278
 20
355.0169778257
 30
0.0
 40
8.0
100
AcDbArc
 50
270.0
 51
291.2538091854
  0
LINE
  5
2C8
330
1B
100
AcDbEntity
 67
     1
  8
3_ALL_AXES
  6
Continuous
 62
     7
100
AcDbLine
 10
1028.2409959278
 20
347.5611076551
 30
0.0
 11
1028.2409959278
 21
348.2669778257
 31
0.0
  0
LINE
  5
2C9
330
1B
100
AcDbEntity
 67
     1
  8
3_ALL_AXES
  6
Continuous
 62
     7
100
AcDbLine
 10
1034.0409959278
 20
347.5611076551
 30
0.0
 11
1034.0409959278
 21
348.2669778257
 31
0.0
  0
LINE
  5
2CA
330
1B
100
AcDbEntity
 67
     1
  8
3_ALL_AXES
  6
Continuous
 62
     7
100
AcDbLine
 10
1028.2409959278
 20
347.5611076551
 30
0.0
 11
1034.0409959278
 21
347.5611076551
 31
0.0
  0
ARC
  5
2CB
330
1B
100
AcDbEntity
 67
     1
  8
3_ALL_AXES
  6
Continuous
 62
     7
100
AcDbCircle
 10
496.1409959278
 20
392.2669778257
 30
0.0
 40
2.9
100
AcDbArc
 50
0.0
 51
180.0
  0
ARC
  5
2CC
330
1B
100
AcDbEntity
 67
     1
  8
3_ALL_AXES
  6
Continuous
 62
     7
100
AcDbCircle
 10
496.1409959278
 20
392.2669778257
 30
0.0
 40
2.9
100
AcDbArc
 50
180.0
 51
360.0
  0
ARC
  5
2CD
330
1B
100
AcDbEntity
 67
     1
  8
3_ALL_AXES
  6
Continuous
 62
     7
100
AcDbCircle
 10
581.1409959278
 20
392.2669778257
 30
0.0
 40
2.9
100
AcDbArc
 50
0.0
 51
180.0
  0
ARC
  5
2CE
330
1B
100
AcDbEntity
 67
     1
  8
3_ALL_AXES
  6
Continuous
 62
     7
100
AcDbCircle
 10
581.1409959278
 20
392.2669778257
 30
0.0
 40
2.9
100
AcDbArc
 50
180.0
 51
360.0
  0
ARC
  5
2CF
330
1B
100
AcDbEntity
 67
     1
  8
3_ALL_AXES
  6
Continuous
 62
     7
100
AcDbCircle
 10
317.3909959278
 20
392.2669778257
 30
0.0
 40
2.9
100
AcDbArc
 50
0.0
 51
180.0
  0
ARC
  5
2D0
330
1B
100
AcDbEntity
 67
     1
  8
3_ALL_AXES
  6
Continuous
 62
     7
100
AcDbCircle
 10
317.3909959278
 20
392.2669778257
 30
0.0
 40
2.9
100
AcDbArc
 50
180.0
 51
360.0
  0
ARC
  5
2D1
330
1B
100
AcDbEntity
 67
     1
  8
3_ALL_AXES
  6
Continuous
 62
     7
100
AcDbCircle
 10
138.6409959278
 20
392.2669778257
 30
0.0
 40
2.9
100
AcDbArc
 50
0.0
 51
180.0
  0
ARC
  5
2D2
330
1B
100
AcDbEntity
 67
     1
  8
3_ALL_AXES
  6
Continuous
 62
     7
100
AcDbCircle
 10
138.6409959278
 20
392.2669778257
 30
0.0
 40
2.9
100
AcDbArc
 50
180.0
 51
360.0
  0
ARC
  5
2D3
330
1B
100
AcDbEntity
 67
     1
  8
3_ALL_AXES
  6
Continuous
 62
     7
100
AcDbCircle
 10
53.6409959278
 20
392.2669778257
 30
0.0
 40
2.9
100
AcDbArc
 50
0.0
 51
180.0
  0
ARC
  5
2D4
330
1B
100
AcDbEntity
 67
     1
  8
3_ALL_AXES
  6
Continuous
 62
     7
100
AcDbCircle
 10
53.6409959278
 20
392.2669778257
 30
0.0
 40
2.9
100
AcDbArc
 50
180.0
 51
360.0
  0
ARC
  5
2D5
330
1B
100
AcDbEntity
 67
     1
  8
3_ALL_AXES
  6
Continuous
 62
     7
100
AcDbCircle
 10
759.8909959278
 20
392.2669778257
 30
0.0
 40
2.9
100
AcDbArc
 50
0.0
 51
180.0
  0
ARC
  5
2D6
330
1B
100
AcDbEntity
 67
     1
  8
3_ALL_AXES
  6
Continuous
 62
     7
100
AcDbCircle
 10
759.8909959278
 20
392.2669778257
 30
0.0
 40
2.9
100
AcDbArc
 50
180.0
 51
360.0
  0
ARC
  5
2D7
330
1B
100
AcDbEntity
 67
     1
  8
3_ALL_AXES
  6
Continuous
 62
     7
100
AcDbCircle
 10
938.6409959278
 20
392.2669778257
 30
0.0
 40
2.9
100
AcDbArc
 50
0.0
 51
180.0
  0
ARC
  5
2D8
330
1B
100
AcDbEntity
 67
     1
  8
3_ALL_AXES
  6
Continuous
 62
     7
100
AcDbCircle
 10
938.6409959278
 20
392.2669778257
 30
0.0
 40
2.9
100
AcDbArc
 50
180.0
 51
360.0
  0
ARC
  5
2D9
330
1B
100
AcDbEntity
 67
     1
  8
3_ALL_AXES
  6
Continuous
 62
     7
100
AcDbCircle
 10
1023.6409959278
 20
392.2669778257
 30
0.0
 40
2.9
100
AcDbArc
 50
0.0
 51
180.0
  0
ARC
  5
2DA
330
1B
100
AcDbEntity
 67
     1
  8
3_ALL_AXES
  6
Continuous
 62
     7
100
AcDbCircle
 10
1023.6409959278
 20
392.2669778257
 30
0.0
 40
2.9
100
AcDbArc
 50
180.0
 51
360.0
  0
LINE
  5
2DB
330
1B
100
AcDbEntity
 67
     1
  8
3_ALL_AXES
  6
Continuous
 62
     7
100
AcDbLine
 10
43.2409959278
 20
348.2669778257
 30
0.0
 11
43.2409959278
 21
347.5611076551
 31
0.0
  0
LINE
  5
2DC
330
1B
100
AcDbEntity
 67
     1
  8
3_ALL_AXES
  6
Continuous
 62
     7
100
AcDbLine
 10
49.0409959278
 20
348.2669778257
 30
0.0
 11
49.0409959278
 21
347.5611076551
 31
0.0
  0
ARC
  5
2DD
330
1B
100
AcDbEntity
 67
     1
  8
3_ALL_AXES
  6
Continuous
 62
     7
100
AcDbCircle
 10
46.1409959278
 20
355.0169778257
 30
0.0
 40
8.0
100
AcDbArc
 50
248.7461908146
 51
270.0
  0
ARC
  5
2DE
330
1B
100
AcDbEntity
 67
     1
  8
3_ALL_AXES
  6
Continuous
 62
     7
100
AcDbCircle
 10
46.1409959278
 20
355.0169778257
 30
0.0
 40
8.0
100
AcDbArc
 50
270.0
 51
291.2538091854
  0
LINE
  5
2DF
330
1B
100
AcDbEntity
 67
     1
  8
3_ALL_AXES
  6
Continuous
 62
     7
100
AcDbLine
 10
43.2409959278
 20
347.5611076551
 30
0.0
 11
43.2409959278
 21
348.2669778257
 31
0.0
  0
LINE
  5
2E0
330
1B
100
AcDbEntity
 67
     1
  8
3_ALL_AXES
  6
Continuous
 62
     7
100
AcDbLine
 10
49.0409959278
 20
347.5611076551
 30
0.0
 11
49.0409959278
 21
348.2669778257
 31
0.0
  0
LINE
  5
2E1
330
1B
100
AcDbEntity
 67
     1
  8
3_ALL_AXES
  6
Continuous
 62
     7
100
AcDbLine
 10
43.2409959278
 20
347.5611076551
 30
0.0
 11
49.0409959278
 21
347.5611076551
 31
0.0
  0
LINE
  5
2E2
330
1B
100
AcDbEntity
 67
     1
  8
3_ALL_AXES
  6
Continuous
 62
     7
100
AcDbLine
 10
993.2409959278
 20
348.2669778257
 30
0.0
 11
993.2409959278
 21
347.5611076551
 31
0.0
  0
LINE
  5
2E3
330
1B
100
AcDbEntity
 67
     1
  8
3_ALL_AXES
  6
Continuous
 62
     7
100
AcDbLine
 10
999.0409959278
 20
348.2669778257
 30
0.0
 11
999.0409959278
 21
347.5611076551
 31
0.0
  0
ARC
  5
2E4
330
1B
100
AcDbEntity
 67
     1
  8
3_ALL_AXES
  6
Continuous
 62
     7
100
AcDbCircle
 10
996.1409959278
 20
355.0169778257
 30
0.0
 40
8.0
100
AcDbArc
 50
248.7461908146
 51
270.0
  0
ARC
  5
2E5
330
1B
100
AcDbEntity
 67
     1
  8
3_ALL_AXES
  6
Continuous
 62
     7
100
AcDbCircle
 10
996.1409959278
 20
355.0169778257
 30
0.0
 40
8.0
100
AcDbArc
 50
270.0
 51
291.2538091854
  0
LINE
  5
2E6
330
1B
100
AcDbEntity
 67
     1
  8
3_ALL_AXES
  6
Continuous
 62
     7
100
AcDbLine
 10
993.2409959278
 20
347.5611076551
 30
0.0
 11
993.2409959278
 21
348.2669778257
 31
0.0
  0
LINE
  5
2E7
330
1B
100
AcDbEntity
 67
     1
  8
3_ALL_AXES
  6
Continuous
 62
     7
100
AcDbLine
 10
999.0409959278
 20
347.5611076551
 30
0.0
 11
999.0409959278
 21
348.2669778257
 31
0.0
  0
LINE
  5
2E8
330
1B
100
AcDbEntity
 67
     1
  8
3_ALL_AXES
  6
Continuous
 62
     7
100
AcDbLine
 10
993.2409959278
 20
347.5611076551
 30
0.0
 11
999.0409959278
 21
347.5611076551
 31
0.0
  0
LINE
  5
2E9
330
1B
100
AcDbEntity
 67
     1
  8
3_ALL_AXES
  6
Continuous
 62
     7
100
AcDbLine
 10
518.2409959278
 20
348.2669778257
 30
0.0
 11
518.2409959278
 21
347.5611076551
 31
0.0
  0
LINE
  5
2EA
330
1B
100
AcDbEntity
 67
     1
  8
3_ALL_AXES
  6
Continuous
 62
     7
100
AcDbLine
 10
524.0409959278
 20
348.2669778257
 30
0.0
 11
524.0409959278
 21
347.5611076551
 31
0.0
  0
ARC
  5
2EB
330
1B
100
AcDbEntity
 67
     1
  8
3_ALL_AXES
  6
Continuous
 62
     7
100
AcDbCircle
 10
521.1409959278
 20
355.0169778257
 30
0.0
 40
8.0
100
AcDbArc
 50
248.7461908146
 51
270.0
  0
ARC
  5
2EC
330
1B
100
AcDbEntity
 67
     1
  8
3_ALL_AXES
  6
Continuous
 62
     7
100
AcDbCircle
 10
521.1409959278
 20
355.0169778257
 30
0.0
 40
8.0
100
AcDbArc
 50
270.0
 51
291.2538091854
  0
LINE
  5
2ED
330
1B
100
AcDbEntity
 67
     1
  8
3_ALL_AXES
  6
Continuous
 62
     7
100
AcDbLine
 10
518.2409959278
 20
347.5611076551
 30
0.0
 11
518.2409959278
 21
348.2669778257
 31
0.0
  0
LINE
  5
2EE
330
1B
100
AcDbEntity
 67
     1
  8
3_ALL_AXES
  6
Continuous
 62
     7
100
AcDbLine
 10
524.0409959278
 20
347.5611076551
 30
0.0
 11
524.0409959278
 21
348.2669778257
 31
0.0
  0
LINE
  5
2EF
330
1B
100
AcDbEntity
 67
     1
  8
3_ALL_AXES
  6
Continuous
 62
     7
100
AcDbLine
 10
518.2409959278
 20
347.5611076551
 30
0.0
 11
524.0409959278
 21
347.5611076551
 31
0.0
  0
LINE
  5
2F0
330
1B
100
AcDbEntity
 67
     1
  8
7_ALL_FEATURES
  6
Continuous
 62
     7
100
AcDbLine
 10
40.1693080913
 20
397.0169778257
 30
0.0
 11
39.4476202548
 21
395.7669778257
 31
0.0
  0
LINE
  5
2F1
330
1B
100
AcDbEntity
 67
     1
  8
7_ALL_FEATURES
  6
Continuous
 62
     7
100
AcDbLine
 10
39.4476202548
 20
395.7669778257
 30
0.0
 11
40.1693080913
 21
394.5169778257
 31
0.0
  0
LINE
  5
2F2
330
1B
100
AcDbEntity
 67
     1
  8
7_ALL_FEATURES
  6
Continuous
 62
     7
100
AcDbLine
 10
40.1693080913
 20
394.5169778257
 30
0.0
 11
41.6126837642
 21
394.5169778257
 31
0.0
  0
LINE
  5
2F3
330
1B
100
AcDbEntity
 67
     1
  8
7_ALL_FEATURES
  6
Continuous
 62
     7
100
AcDbLine
 10
41.6126837642
 20
394.5169778257
 30
0.0
 11
42.3343716007
 21
395.7669778257
 31
0.0
  0
LINE
  5
2F4
330
1B
100
AcDbEntity
 67
     1
  8
7_ALL_FEATURES
  6
Continuous
 62
     7
100
AcDbLine
 10
42.3343716007
 20
395.7669778257
 30
0.0
 11
41.6126837642
 21
397.0169778257
 31
0.0
  0
LINE
  5
2F5
330
1B
100
AcDbEntity
 67
     1
  8
7_ALL_FEATURES
  6
Continuous
 62
     7
100
AcDbLine
 10
41.6126837642
 20
397.0169778257
 30
0.0
 11
40.1693080913
 21
397.0169778257
 31
0.0
  0
ARC
  5
2F6
330
1B
100
AcDbEntity
 67
     1
  8
3_ALL_AXES
  6
Continuous
 62
     7
100
AcDbCircle
 10
40.8909959278
 20
395.7669778257
 30
0.0
 40
3.8
100
AcDbArc
 50
0.0
 51
180.0
  0
ARC
  5
2F7
330
1B
100
AcDbEntity
 67
     1
  8
3_ALL_AXES
  6
Continuous
 62
     7
100
AcDbCircle
 10
40.8909959278
 20
395.7669778257
 30
0.0
 40
3.8
100
AcDbArc
 50
180.0
 51
360.0
  0
ARC
  5
2F8
330
1B
100
AcDbEntity
 67
     1
  8
3_ALL_AXES
  6
Continuous
 62
     7
100
AcDbCircle
 10
40.8909959278
 20
395.7669778257
 30
0.0
 40
1.965
100
AcDbArc
 50
180.0
 51
360.0
  0
ARC
  5
2F9
330
1B
100
AcDbEntity
 67
     1
  8
3_ALL_AXES
  6
Continuous
 62
     7
100
AcDbCircle
 10
40.8909959278
 20
395.7669778257
 30
0.0
 40
1.965
100
AcDbArc
 50
0.0
 51
180.0
  0
LINE
  5
2FA
330
1B
100
AcDbEntity
 67
     1
  8
7_ALL_FEATURES
  6
Continuous
 62
     7
100
AcDbLine
 10
40.1693080913
 20
362.0169778257
 30
0.0
 11
39.4476202548
 21
360.7669778257
 31
0.0
  0
LINE
  5
2FB
330
1B
100
AcDbEntity
 67
     1
  8
7_ALL_FEATURES
  6
Continuous
 62
     7
100
AcDbLine
 10
39.4476202548
 20
360.7669778257
 30
0.0
 11
40.1693080913
 21
359.5169778257
 31
0.0
  0
LINE
  5
2FC
330
1B
100
AcDbEntity
 67
     1
  8
7_ALL_FEATURES
  6
Continuous
 62
     7
100
AcDbLine
 10
40.1693080913
 20
359.5169778257
 30
0.0
 11
41.6126837642
 21
359.5169778257
 31
0.0
  0
LINE
  5
2FD
330
1B
100
AcDbEntity
 67
     1
  8
7_ALL_FEATURES
  6
Continuous
 62
     7
100
AcDbLine
 10
41.6126837642
 20
359.5169778257
 30
0.0
 11
42.3343716007
 21
360.7669778257
 31
0.0
  0
LINE
  5
2FE
330
1B
100
AcDbEntity
 67
     1
  8
7_ALL_FEATURES
  6
Continuous
 62
     7
100
AcDbLine
 10
42.3343716007
 20
360.7669778257
 30
0.0
 11
41.6126837642
 21
362.0169778257
 31
0.0
  0
LINE
  5
2FF
330
1B
100
AcDbEntity
 67
     1
  8
7_ALL_FEATURES
  6
Continuous
 62
     7
100
AcDbLine
 10
41.6126837642
 20
362.0169778257
 30
0.0
 11
40.1693080913
 21
362.0169778257
 31
0.0
  0
ARC
  5
300
330
1B
100
AcDbEntity
 67
     1
  8
3_ALL_AXES
  6
Continuous
 62
     7
100
AcDbCircle
 10
40.8909959278
 20
360.7669778257
 30
0.0
 40
3.8
100
AcDbArc
 50
0.0
 51
180.0
  0
ARC
  5
301
330
1B
100
AcDbEntity
 67
     1
  8
3_ALL_AXES
  6
Continuous
 62
     7
100
AcDbCircle
 10
40.8909959278
 20
360.7669778257
 30
0.0
 40
3.8
100
AcDbArc
 50
180.0
 51
360.0
  0
ARC
  5
302
330
1B
100
AcDbEntity
 67
     1
  8
3_ALL_AXES
  6
Continuous
 62
     7
100
AcDbCircle
 10
40.8909959278
 20
360.7669778257
 30
0.0
 40
1.965
100
AcDbArc
 50
180.0
 51
360.0
  0
ARC
  5
303
330
1B
100
AcDbEntity
 67
     1
  8
3_ALL_AXES
  6
Continuous
 62
     7
100
AcDbCircle
 10
40.8909959278
 20
360.7669778257
 30
0.0
 40
1.965
100
AcDbArc
 50
0.0
 51
180.0
  0
LINE
  5
304
330
1B
100
AcDbEntity
 67
     1
  8
7_ALL_FEATURES
  6
Continuous
 62
     7
100
AcDbLine
 10
1035.6693080913
 20
362.0169778257
 30
0.0
 11
1034.9476202548
 21
360.7669778257
 31
0.0
  0
LINE
  5
305
330
1B
100
AcDbEntity
 67
     1
  8
7_ALL_FEATURES
  6
Continuous
 62
     7
100
AcDbLine
 10
1034.9476202548
 20
360.7669778257
 30
0.0
 11
1035.6693080913
 21
359.5169778257
 31
0.0
  0
LINE
  5
306
330
1B
100
AcDbEntity
 67
     1
  8
7_ALL_FEATURES
  6
Continuous
 62
     7
100
AcDbLine
 10
1035.6693080913
 20
359.5169778257
 30
0.0
 11
1037.1126837642
 21
359.5169778257
 31
0.0
  0
LINE
  5
307
330
1B
100
AcDbEntity
 67
     1
  8
7_ALL_FEATURES
  6
Continuous
 62
     7
100
AcDbLine
 10
1037.1126837642
 20
359.5169778257
 30
0.0
 11
1037.8343716007
 21
360.7669778257
 31
0.0
  0
LINE
  5
308
330
1B
100
AcDbEntity
 67
     1
  8
7_ALL_FEATURES
  6
Continuous
 62
     7
100
AcDbLine
 10
1037.8343716007
 20
360.7669778257
 30
0.0
 11
1037.1126837642
 21
362.0169778257
 31
0.0
  0
LINE
  5
309
330
1B
100
AcDbEntity
 67
     1
  8
7_ALL_FEATURES
  6
Continuous
 62
     7
100
AcDbLine
 10
1037.1126837642
 20
362.0169778257
 30
0.0
 11
1035.6693080913
 21
362.0169778257
 31
0.0
  0
ARC
  5
30A
330
1B
100
AcDbEntity
 67
     1
  8
3_ALL_AXES
  6
Continuous
 62
     7
100
AcDbCircle
 10
1036.3909959278
 20
360.7669778257
 30
0.0
 40
3.8
100
AcDbArc
 50
0.0
 51
180.0
  0
ARC
  5
30B
330
1B
100
AcDbEntity
 67
     1
  8
3_ALL_AXES
  6
Continuous
 62
     7
100
AcDbCircle
 10
1036.3909959278
 20
360.7669778257
 30
0.0
 40
3.8
100
AcDbArc
 50
180.0
 51
360.0
  0
ARC
  5
30C
330
1B
100
AcDbEntity
 67
     1
  8
3_ALL_AXES
  6
Continuous
 62
     7
100
AcDbCircle
 10
1036.3909959278
 20
360.7669778257
 30
0.0
 40
1.965
100
AcDbArc
 50
180.0
 51
360.0
  0
ARC
  5
30D
330
1B
100
AcDbEntity
 67
     1
  8
3_ALL_AXES
  6
Continuous
 62
     7
100
AcDbCircle
 10
1036.3909959278
 20
360.7669778257
 30
0.0
 40
1.965
100
AcDbArc
 50
0.0
 51
180.0
  0
LINE
  5
30E
330
1B
100
AcDbEntity
 67
     1
  8
7_ALL_FEATURES
  6
Continuous
 62
     7
100
AcDbLine
 10
1035.6693080913
 20
397.0169778257
 30
0.0
 11
1034.9476202548
 21
395.7669778257
 31
0.0
  0
LINE
  5
30F
330
1B
100
AcDbEntity
 67
     1
  8
7_ALL_FEATURES
  6
Continuous
 62
     7
100
AcDbLine
 10
1034.9476202548
 20
395.7669778257
 30
0.0
 11
1035.6693080913
 21
394.5169778257
 31
0.0
  0
LINE
  5
310
330
1B
100
AcDbEntity
 67
     1
  8
7_ALL_FEATURES
  6
Continuous
 62
     7
100
AcDbLine
 10
1035.6693080913
 20
394.5169778257
 30
0.0
 11
1037.1126837642
 21
394.5169778257
 31
0.0
  0
LINE
  5
311
330
1B
100
AcDbEntity
 67
     1
  8
7_ALL_FEATURES
  6
Continuous
 62
     7
100
AcDbLine
 10
1037.1126837642
 20
394.5169778257
 30
0.0
 11
1037.8343716007
 21
395.7669778257
 31
0.0
  0
LINE
  5
312
330
1B
100
AcDbEntity
 67
     1
  8
7_ALL_FEATURES
  6
Continuous
 62
     7
100
AcDbLine
 10
1037.8343716007
 20
395.7669778257
 30
0.0
 11
1037.1126837642
 21
397.0169778257
 31
0.0
  0
LINE
  5
313
330
1B
100
AcDbEntity
 67
     1
  8
7_ALL_FEATURES
  6
Continuous
 62
     7
100
AcDbLine
 10
1037.1126837642
 20
397.0169778257
 30
0.0
 11
1035.6693080913
 21
397.0169778257
 31
0.0
  0
ARC
  5
314
330
1B
100
AcDbEntity
 67
     1
  8
3_ALL_AXES
  6
Continuous
 62
     7
100
AcDbCircle
 10
1036.3909959278
 20
395.7669778257
 30
0.0
 40
3.8
100
AcDbArc
 50
0.0
 51
180.0
  0
ARC
  5
315
330
1B
100
AcDbEntity
 67
     1
  8
3_ALL_AXES
  6
Continuous
 62
     7
100
AcDbCircle
 10
1036.3909959278
 20
395.7669778257
 30
0.0
 40
3.8
100
AcDbArc
 50
180.0
 51
360.0
  0
ARC
  5
316
330
1B
100
AcDbEntity
 67
     1
  8
3_ALL_AXES
  6
Continuous
 62
     7
100
AcDbCircle
 10
1036.3909959278
 20
395.7669778257
 30
0.0
 40
1.965
100
AcDbArc
 50
180.0
 51
360.0
  0
ARC
  5
317
330
1B
100
AcDbEntity
 67
     1
  8
3_ALL_AXES
  6
Continuous
 62
     7
100
AcDbCircle
 10
1036.3909959278
 20
395.7669778257
 30
0.0
 40
1.965
100
AcDbArc
 50
0.0
 51
180.0
  0
LINE
  5
318
330
1B
100
AcDbEntity
 67
     1
  8
7_ALL_FEATURES
  6
Continuous
 62
     7
100
AcDbLine
 10
1038.6409959278
 20
348.2669778257
 30
0.0
 11
1038.6409959278
 21
349.4669778257
 31
0.0
  0
LINE
  5
319
330
1B
100
AcDbEntity
 67
     1
  8
7_ALL_FEATURES
  6
Continuous
 62
     7
100
AcDbLine
 10
1038.6409959278
 20
348.2669778257
 30
0.0
 11
1033.3909959278
 21
348.2669778257
 31
0.0
  0
LINE
  5
31A
330
1B
100
AcDbEntity
 67
     1
  8
7_ALL_FEATURES
  6
Continuous
 62
     7
100
AcDbLine
 10
1033.3909959278
 20
348.2669778257
 30
0.0
 11
1028.6409959278
 21
348.2669778257
 31
0.0
  0
LINE
  5
31B
330
1B
100
AcDbEntity
 67
     1
  8
7_ALL_FEATURES
  6
Continuous
 62
     7
100
AcDbLine
 10
998.6409959278
 20
348.2669778257
 30
0.0
 11
993.8909959278
 21
348.2669778257
 31
0.0
  0
LINE
  5
31C
330
1B
100
AcDbEntity
 67
     1
  8
7_ALL_FEATURES
  6
Continuous
 62
     7
100
AcDbLine
 10
993.8909959278
 20
348.2669778257
 30
0.0
 11
988.6409959278
 21
348.2669778257
 31
0.0
  0
LINE
  5
31D
330
1B
100
AcDbEntity
 67
     1
  8
7_ALL_FEATURES
  6
Continuous
 62
     7
100
AcDbLine
 10
998.6409959278
 20
348.2669778257
 30
0.0
 11
1028.6409959278
 21
348.2669778257
 31
0.0
  0
LINE
  5
31E
330
1B
100
AcDbEntity
 67
     1
  8
7_ALL_FEATURES
  6
Continuous
 62
     7
100
AcDbLine
 10
988.6409959278
 20
348.2669778257
 30
0.0
 11
988.6409959278
 21
349.4669778257
 31
0.0
  0
LINE
  5
31F
330
1B
100
AcDbEntity
 67
     1
  8
7_ALL_FEATURES
  6
Continuous
 62
     7
100
AcDbLine
 10
988.6409959278
 20
348.2669778257
 30
0.0
 11
988.6409959278
 21
349.4669778257
 31
0.0
  0
LINE
  5
320
330
1B
100
AcDbEntity
 67
     1
  8
7_ALL_FEATURES
  6
Continuous
 62
     9
100
AcDbLine
 10
1028.6409959278
 20
348.2669778257
 30
0.0
 11
1028.6409959278
 21
349.4669778257
 31
0.0
  0
LINE
  5
321
330
1B
100
AcDbEntity
 67
     1
  8
7_ALL_FEATURES
  6
Continuous
 62
     9
100
AcDbLine
 10
998.6409959278
 20
348.2669778257
 30
0.0
 11
998.6409959278
 21
349.4669778257
 31
0.0
  0
LINE
  5
322
330
1B
100
AcDbEntity
 67
     1
  8
7_ALL_FEATURES
  6
Continuous
 62
     7
100
AcDbLine
 10
563.6409959278
 20
348.2669778257
 30
0.0
 11
563.6409959278
 21
349.4669778257
 31
0.0
  0
LINE
  5
323
330
1B
100
AcDbEntity
 67
     1
  8
7_ALL_FEATURES
  6
Continuous
 62
     7
100
AcDbLine
 10
563.6409959278
 20
348.2669778257
 30
0.0
 11
558.3909959278
 21
348.2669778257
 31
0.0
  0
LINE
  5
324
330
1B
100
AcDbEntity
 67
     1
  8
7_ALL_FEATURES
  6
Continuous
 62
     7
100
AcDbLine
 10
558.3909959278
 20
348.2669778257
 30
0.0
 11
553.6409959278
 21
348.2669778257
 31
0.0
  0
LINE
  5
325
330
1B
100
AcDbEntity
 67
     1
  8
7_ALL_FEATURES
  6
Continuous
 62
     7
100
AcDbLine
 10
523.6409959278
 20
348.2669778257
 30
0.0
 11
518.8909959278
 21
348.2669778257
 31
0.0
  0
LINE
  5
326
330
1B
100
AcDbEntity
 67
     1
  8
7_ALL_FEATURES
  6
Continuous
 62
     7
100
AcDbLine
 10
518.8909959278
 20
348.2669778257
 30
0.0
 11
513.6409959278
 21
348.2669778257
 31
0.0
  0
LINE
  5
327
330
1B
100
AcDbEntity
 67
     1
  8
7_ALL_FEATURES
  6
Continuous
 62
     7
100
AcDbLine
 10
523.6409959278
 20
348.2669778257
 30
0.0
 11
553.6409959278
 21
348.2669778257
 31
0.0
  0
LINE
  5
328
330
1B
100
AcDbEntity
 67
     1
  8
7_ALL_FEATURES
  6
Continuous
 62
     7
100
AcDbLine
 10
513.6409959278
 20
348.2669778257
 30
0.0
 11
513.6409959278
 21
349.4669778257
 31
0.0
  0
LINE
  5
329
330
1B
100
AcDbEntity
 67
     1
  8
7_ALL_FEATURES
  6
Continuous
 62
     7
100
AcDbLine
 10
513.6409959278
 20
348.2669778257
 30
0.0
 11
513.6409959278
 21
349.4669778257
 31
0.0
  0
LINE
  5
32A
330
1B
100
AcDbEntity
 67
     1
  8
7_ALL_FEATURES
  6
Continuous
 62
     9
100
AcDbLine
 10
553.6409959278
 20
348.2669778257
 30
0.0
 11
553.6409959278
 21
349.4669778257
 31
0.0
  0
LINE
  5
32B
330
1B
100
AcDbEntity
 67
     1
  8
7_ALL_FEATURES
  6
Continuous
 62
     9
100
AcDbLine
 10
523.6409959278
 20
348.2669778257
 30
0.0
 11
523.6409959278
 21
349.4669778257
 31
0.0
  0
LINE
  5
32C
330
1B
100
AcDbEntity
 67
     1
  8
7_ALL_FEATURES
  6
Continuous
 62
     7
100
AcDbLine
 10
88.6409959278
 20
348.2669778257
 30
0.0
 11
88.6409959278
 21
349.4669778257
 31
0.0
  0
LINE
  5
32D
330
1B
100
AcDbEntity
 67
     1
  8
7_ALL_FEATURES
  6
Continuous
 62
     7
100
AcDbLine
 10
88.6409959278
 20
348.2669778257
 30
0.0
 11
83.3909959278
 21
348.2669778257
 31
0.0
  0
LINE
  5
32E
330
1B
100
AcDbEntity
 67
     1
  8
7_ALL_FEATURES
  6
Continuous
 62
     7
100
AcDbLine
 10
83.3909959278
 20
348.2669778257
 30
0.0
 11
78.6409959278
 21
348.2669778257
 31
0.0
  0
LINE
  5
32F
330
1B
100
AcDbEntity
 67
     1
  8
7_ALL_FEATURES
  6
Continuous
 62
     7
100
AcDbLine
 10
48.6409959278
 20
348.2669778257
 30
0.0
 11
43.8909959278
 21
348.2669778257
 31
0.0
  0
LINE
  5
330
330
1B
100
AcDbEntity
 67
     1
  8
7_ALL_FEATURES
  6
Continuous
 62
     7
100
AcDbLine
 10
43.8909959278
 20
348.2669778257
 30
0.0
 11
38.6409959278
 21
348.2669778257
 31
0.0
  0
LINE
  5
331
330
1B
100
AcDbEntity
 67
     1
  8
7_ALL_FEATURES
  6
Continuous
 62
     7
100
AcDbLine
 10
48.6409959278
 20
348.2669778257
 30
0.0
 11
78.6409959278
 21
348.2669778257
 31
0.0
  0
LINE
  5
332
330
1B
100
AcDbEntity
 67
     1
  8
7_ALL_FEATURES
  6
Continuous
 62
     7
100
AcDbLine
 10
38.6409959278
 20
348.2669778257
 30
0.0
 11
38.6409959278
 21
349.4669778257
 31
0.0
  0
LINE
  5
333
330
1B
100
AcDbEntity
 67
     1
  8
7_ALL_FEATURES
  6
Continuous
 62
     7
100
AcDbLine
 10
38.6409959278
 20
348.2669778257
 30
0.0
 11
38.6409959278
 21
349.4669778257
 31
0.0
  0
LINE
  5
334
330
1B
100
AcDbEntity
 67
     1
  8
7_ALL_FEATURES
  6
Continuous
 62
     9
100
AcDbLine
 10
78.6409959278
 20
348.2669778257
 30
0.0
 11
78.6409959278
 21
349.4669778257
 31
0.0
  0
LINE
  5
335
330
1B
100
AcDbEntity
 67
     1
  8
7_ALL_FEATURES
  6
Continuous
 62
     9
100
AcDbLine
 10
48.6409959278
 20
348.2669778257
 30
0.0
 11
48.6409959278
 21
349.4669778257
 31
0.0
  0
LINE
  5
336
330
1B
100
AcDbEntity
 67
     1
  8
7_ALL_FEATURES
  6
Continuous
 62
     7
100
AcDbLine
 10
32.1409959278
 20
437.2669778257
 30
0.0
 11
33.1409959278
 21
437.2669778257
 31
0.0
  0
LINE
  5
337
330
1B
100
AcDbEntity
 67
     1
  8
7_ALL_FEATURES
  6
Continuous
 62
     7
100
AcDbLine
 10
32.1409959278
 20
348.2669778257
 30
0.0
 11
33.1409959278
 21
348.2669778257
 31
0.0
  0
LINE
  5
338
330
1B
100
AcDbEntity
 67
     1
  8
7_ALL_FEATURES
  6
Continuous
 62
     7
100
AcDbLine
 10
32.1409959278
 20
348.2669778257
 30
0.0
 11
32.1409959278
 21
348.7669778257
 31
0.0
  0
LINE
  5
339
330
1B
100
AcDbEntity
 67
     1
  8
7_ALL_FEATURES
  6
Continuous
 62
     7
100
AcDbLine
 10
32.1409959278
 20
355.5669778257
 30
0.0
 11
32.1409959278
 21
348.7669778257
 31
0.0
  0
LINE
  5
33A
330
1B
100
AcDbEntity
 67
     1
  8
7_ALL_FEATURES
  6
Continuous
 62
     7
100
AcDbLine
 10
32.1409959278
 20
356.7669778257
 30
0.0
 11
32.1409959278
 21
355.5669778257
 31
0.0
  0
LINE
  5
33B
330
1B
100
AcDbEntity
 67
     1
  8
7_ALL_FEATURES
  6
Continuous
 62
     7
100
AcDbLine
 10
32.1409959278
 20
364.7669778257
 30
0.0
 11
32.1409959278
 21
365.9669778257
 31
0.0
  0
LINE
  5
33C
330
1B
100
AcDbEntity
 67
     1
  8
7_ALL_FEATURES
  6
Continuous
 62
     7
100
AcDbLine
 10
32.1409959278
 20
390.5669778257
 30
0.0
 11
32.1409959278
 21
365.9669778257
 31
0.0
  0
LINE
  5
33D
330
1B
100
AcDbEntity
 67
     1
  8
7_ALL_FEATURES
  6
Continuous
 62
     7
100
AcDbLine
 10
32.1409959278
 20
391.7669778257
 30
0.0
 11
32.1409959278
 21
390.5669778257
 31
0.0
  0
LINE
  5
33E
330
1B
100
AcDbEntity
 67
     1
  8
7_ALL_FEATURES
  6
Continuous
 62
     7
100
AcDbLine
 10
32.1409959278
 20
399.7669778257
 30
0.0
 11
32.1409959278
 21
400.9669778257
 31
0.0
  0
LINE
  5
33F
330
1B
100
AcDbEntity
 67
     1
  8
7_ALL_FEATURES
  6
Continuous
 62
     7
100
AcDbLine
 10
32.1409959278
 20
436.7669778257
 30
0.0
 11
32.1409959278
 21
400.9669778257
 31
0.0
  0
LINE
  5
340
330
1B
100
AcDbEntity
 67
     1
  8
7_ALL_FEATURES
  6
Continuous
 62
     7
100
AcDbLine
 10
32.1409959278
 20
436.7669778257
 30
0.0
 11
32.1409959278
 21
437.2669778257
 31
0.0
  0
LINE
  5
341
330
1B
100
AcDbEntity
 67
     1
  8
7_ALL_FEATURES
  6
Continuous
 62
     7
100
AcDbLine
 10
32.1409959278
 20
437.2669778257
 30
0.0
 11
33.1409959278
 21
437.2669778257
 31
0.0
  0
LINE
  5
342
330
1B
100
AcDbEntity
 67
     1
  8
7_ALL_FEATURES
  6
Continuous
 62
     7
100
AcDbLine
 10
32.1409959278
 20
400.9669778257
 30
0.0
 11
33.1409959278
 21
400.9669778257
 31
0.0
  0
LINE
  5
343
330
1B
100
AcDbEntity
 67
     1
  8
7_ALL_FEATURES
  6
Continuous
 62
     7
100
AcDbLine
 10
32.1409959278
 20
355.5669778257
 30
0.0
 11
33.1409959278
 21
355.5669778257
 31
0.0
  0
LINE
  5
344
330
1B
100
AcDbEntity
 67
     1
  8
7_ALL_FEATURES
  6
Continuous
 62
     7
100
AcDbLine
 10
32.1409959278
 20
365.9669778257
 30
0.0
 11
33.1409959278
 21
365.9669778257
 31
0.0
  0
LINE
  5
345
330
1B
100
AcDbEntity
 67
     1
  8
7_ALL_FEATURES
  6
Continuous
 62
     7
100
AcDbLine
 10
32.1409959278
 20
390.5669778257
 30
0.0
 11
33.1409959278
 21
390.5669778257
 31
0.0
  0
LINE
  5
346
330
1B
100
AcDbEntity
 67
     1
  8
7_ALL_FEATURES
  6
Continuous
 62
     7
100
AcDbLine
 10
32.1409959278
 20
399.7669778257
 30
0.0
 11
32.1409959278
 21
391.7669778257
 31
0.0
  0
LINE
  5
347
330
1B
100
AcDbEntity
 67
     1
  8
7_ALL_FEATURES
  6
Continuous
 62
     7
100
AcDbLine
 10
32.1998412169
 20
391.7669778257
 30
0.0
 11
32.1409959278
 21
391.7669778257
 31
0.0
  0
LINE
  5
348
330
1B
100
AcDbEntity
 67
     1
  8
7_ALL_FEATURES
  6
Continuous
 62
     7
100
AcDbLine
 10
34.1409959278
 20
391.7669778257
 30
0.0
 11
32.1998412169
 21
391.7669778257
 31
0.0
  0
LINE
  5
349
330
1B
100
AcDbEntity
 67
     1
  8
7_ALL_FEATURES
  6
Continuous
 62
     7
100
AcDbLine
 10
34.1409959278
 20
399.7669778257
 30
0.0
 11
32.1998412169
 21
399.7669778257
 31
0.0
  0
LINE
  5
34A
330
1B
100
AcDbEntity
 67
     1
  8
7_ALL_FEATURES
  6
Continuous
 62
     7
100
AcDbLine
 10
32.1998412169
 20
399.7669778257
 30
0.0
 11
32.1409959278
 21
399.7669778257
 31
0.0
  0
LINE
  5
34B
330
1B
100
AcDbEntity
 67
     1
  8
7_ALL_FEATURES
  6
Continuous
 62
     7
100
AcDbLine
 10
43.6409959278
 20
399.7669778257
 30
0.0
 11
34.1409959278
 21
399.7669778257
 31
0.0
  0
LINE
  5
34C
330
1B
100
AcDbEntity
 67
     1
  8
7_ALL_FEATURES
  6
Continuous
 62
     7
100
AcDbLine
 10
34.1409959278
 20
391.7669778257
 30
0.0
 11
43.6409959278
 21
391.7669778257
 31
0.0
  0
ARC
  5
34D
330
1B
100
AcDbEntity
 67
     1
  8
7_ALL_FEATURES
  6
Continuous
 62
     7
100
AcDbCircle
 10
43.6409959278
 20
392.7669778257
 30
0.0
 40
1.0
100
AcDbArc
 50
270.0
 51
360.0
  0
LINE
  5
34E
330
1B
100
AcDbEntity
 67
     1
  8
7_ALL_FEATURES
  6
Continuous
 62
     7
100
AcDbLine
 10
44.6409959278
 20
392.7669778257
 30
0.0
 11
44.6409959278
 21
395.1586616947
 31
0.0
  0
LINE
  5
34F
330
1B
100
AcDbEntity
 67
     1
  8
7_ALL_FEATURES
  6
Continuous
 62
     7
100
AcDbLine
 10
44.6409959278
 20
396.3752939567
 30
0.0
 11
44.6409959278
 21
398.7669778257
 31
0.0
  0
ARC
  5
350
330
1B
100
AcDbEntity
 67
     1
  8
7_ALL_FEATURES
  6
Continuous
 62
     7
100
AcDbCircle
 10
43.6409959278
 20
398.7669778257
 30
0.0
 40
1.0
100
AcDbArc
 50
0.0
 51
90.0
  0
LINE
  5
351
330
1B
100
AcDbEntity
 67
     1
  8
02___PRT_ALL_AXES
  6
Continuous
 62
     7
100
AcDbLine
 10
37.8290903924
 20
393.5169778257
 30
0.0
 11
37.3909959278
 21
393.5169778257
 31
0.0
  0
ARC
  5
352
330
1B
100
AcDbEntity
 67
     1
  8
02___PRT_ALL_AXES
  6
Continuous
 62
     7
100
AcDbCircle
 10
37.3909959278
 20
395.7669778257
 30
0.0
 40
2.25
100
AcDbArc
 50
90.0
 51
270.0
  0
LINE
  5
353
330
1B
100
AcDbEntity
 67
     1
  8
02___PRT_ALL_AXES
  6
Continuous
 62
     7
100
AcDbLine
 10
37.3909959278
 20
398.0169778257
 30
0.0
 11
37.8290903924
 21
398.0169778257
 31
0.0
  0
LINE
  5
354
330
1B
100
AcDbEntity
 67
     1
  8
7_ALL_FEATURES
  6
Continuous
 62
     7
100
AcDbLine
 10
32.1409959278
 20
364.7669778257
 30
0.0
 11
32.1409959278
 21
356.7669778257
 31
0.0
  0
LINE
  5
355
330
1B
100
AcDbEntity
 67
     1
  8
7_ALL_FEATURES
  6
Continuous
 62
     7
100
AcDbLine
 10
32.1998412169
 20
356.7669778257
 30
0.0
 11
32.1409959278
 21
356.7669778257
 31
0.0
  0
LINE
  5
356
330
1B
100
AcDbEntity
 67
     1
  8
7_ALL_FEATURES
  6
Continuous
 62
     7
100
AcDbLine
 10
34.1409959278
 20
356.7669778257
 30
0.0
 11
32.1998412169
 21
356.7669778257
 31
0.0
  0
LINE
  5
357
330
1B
100
AcDbEntity
 67
     1
  8
7_ALL_FEATURES
  6
Continuous
 62
     7
100
AcDbLine
 10
34.1409959278
 20
364.7669778257
 30
0.0
 11
32.1998412169
 21
364.7669778257
 31
0.0
  0
LINE
  5
358
330
1B
100
AcDbEntity
 67
     1
  8
7_ALL_FEATURES
  6
Continuous
 62
     7
100
AcDbLine
 10
32.1998412169
 20
364.7669778257
 30
0.0
 11
32.1409959278
 21
364.7669778257
 31
0.0
  0
LINE
  5
359
330
1B
100
AcDbEntity
 67
     1
  8
7_ALL_FEATURES
  6
Continuous
 62
     7
100
AcDbLine
 10
43.6409959278
 20
364.7669778257
 30
0.0
 11
34.1409959278
 21
364.7669778257
 31
0.0
  0
LINE
  5
35A
330
1B
100
AcDbEntity
 67
     1
  8
7_ALL_FEATURES
  6
Continuous
 62
     7
100
AcDbLine
 10
34.1409959278
 20
356.7669778257
 30
0.0
 11
43.6409959278
 21
356.7669778257
 31
0.0
  0
ARC
  5
35B
330
1B
100
AcDbEntity
 67
     1
  8
7_ALL_FEATURES
  6
Continuous
 62
     7
100
AcDbCircle
 10
43.6409959278
 20
357.7669778257
 30
0.0
 40
1.0
100
AcDbArc
 50
270.0
 51
360.0
  0
LINE
  5
35C
330
1B
100
AcDbEntity
 67
     1
  8
7_ALL_FEATURES
  6
Continuous
 62
     7
100
AcDbLine
 10
44.6409959278
 20
357.7669778257
 30
0.0
 11
44.6409959278
 21
360.1586616947
 31
0.0
  0
LINE
  5
35D
330
1B
100
AcDbEntity
 67
     1
  8
7_ALL_FEATURES
  6
Continuous
 62
     7
100
AcDbLine
 10
44.6409959278
 20
361.3752939567
 30
0.0
 11
44.6409959278
 21
363.7669778257
 31
0.0
  0
ARC
  5
35E
330
1B
100
AcDbEntity
 67
     1
  8
7_ALL_FEATURES
  6
Continuous
 62
     7
100
AcDbCircle
 10
43.6409959278
 20
363.7669778257
 30
0.0
 40
1.0
100
AcDbArc
 50
0.0
 51
90.0
  0
LINE
  5
35F
330
1B
100
AcDbEntity
 67
     1
  8
02___PRT_ALL_AXES
  6
Continuous
 62
     7
100
AcDbLine
 10
37.3909959278
 20
363.0169778257
 30
0.0
 11
37.8290903924
 21
363.0169778257
 31
0.0
  0
LINE
  5
360
330
1B
100
AcDbEntity
 67
     1
  8
02___PRT_ALL_AXES
  6
Continuous
 62
     7
100
AcDbLine
 10
37.8290903924
 20
358.5169778257
 30
0.0
 11
37.3909959278
 21
358.5169778257
 31
0.0
  0
ARC
  5
361
330
1B
100
AcDbEntity
 67
     1
  8
02___PRT_ALL_AXES
  6
Continuous
 62
     7
100
AcDbCircle
 10
37.3909959278
 20
360.7669778257
 30
0.0
 40
2.25
100
AcDbArc
 50
90.0
 51
270.0
  0
LINE
  5
362
330
1B
100
AcDbEntity
 67
     1
  8
7_ALL_FEATURES
  6
Continuous
 62
     9
100
AcDbLine
 10
34.1409959278
 20
364.7669778257
 30
0.0
 11
34.1409959278
 21
356.7669778257
 31
0.0
  0
LINE
  5
363
330
1B
100
AcDbEntity
 67
     1
  8
7_ALL_FEATURES
  6
Continuous
 62
     9
100
AcDbLine
 10
32.1409959278
 20
436.7669778257
 30
0.0
 11
33.1409959278
 21
436.7669778257
 31
0.0
  0
LINE
  5
364
330
1B
100
AcDbEntity
 67
     1
  8
7_ALL_FEATURES
  6
Continuous
 62
     9
100
AcDbLine
 10
32.1409959278
 20
348.7669778257
 30
0.0
 11
33.1409959278
 21
348.7669778257
 31
0.0
  0
LINE
  5
365
330
1B
100
AcDbEntity
 67
     1
  8
7_ALL_FEATURES
  6
Continuous
 62
     9
100
AcDbLine
 10
34.1409959278
 20
399.7669778257
 30
0.0
 11
34.1409959278
 21
391.7669778257
 31
0.0
  0
LINE
  5
366
330
1B
100
AcDbEntity
 67
     1
  8
7_ALL_FEATURES
  6
Continuous
 62
     7
100
AcDbLine
 10
1045.1409959278
 20
348.2669778257
 30
0.0
 11
1044.1409959278
 21
348.2669778257
 31
0.0
  0
LINE
  5
367
330
1B
100
AcDbEntity
 67
     1
  8
7_ALL_FEATURES
  6
Continuous
 62
     7
100
AcDbLine
 10
1045.1409959278
 20
348.2669778257
 30
0.0
 11
1044.1409959278
 21
348.2669778257
 31
0.0
  0
LINE
  5
368
330
1B
100
AcDbEntity
 67
     1
  8
7_ALL_FEATURES
  6
Continuous
 62
     7
100
AcDbLine
 10
1045.1409959278
 20
437.2669778257
 30
0.0
 11
1045.1409959278
 21
436.7669778257
 31
0.0
  0
LINE
  5
369
330
1B
100
AcDbEntity
 67
     1
  8
7_ALL_FEATURES
  6
Continuous
 62
     7
100
AcDbLine
 10
1045.1409959278
 20
400.7669778257
 30
0.0
 11
1045.1409959278
 21
436.7669778257
 31
0.0
  0
LINE
  5
36A
330
1B
100
AcDbEntity
 67
     1
  8
7_ALL_FEATURES
  6
Continuous
 62
     7
100
AcDbLine
 10
1045.1409959278
 20
399.7669778257
 30
0.0
 11
1045.1409959278
 21
400.7669778257
 31
0.0
  0
LINE
  5
36B
330
1B
100
AcDbEntity
 67
     1
  8
7_ALL_FEATURES
  6
Continuous
 62
     7
100
AcDbLine
 10
1045.1409959278
 20
391.7669778257
 30
0.0
 11
1045.1409959278
 21
390.7669778257
 31
0.0
  0
LINE
  5
36C
330
1B
100
AcDbEntity
 67
     1
  8
7_ALL_FEATURES
  6
Continuous
 62
     7
100
AcDbLine
 10
1045.1409959278
 20
365.9669778257
 30
0.0
 11
1045.1409959278
 21
390.7669778257
 31
0.0
  0
LINE
  5
36D
330
1B
100
AcDbEntity
 67
     1
  8
7_ALL_FEATURES
  6
Continuous
 62
     7
100
AcDbLine
 10
1045.1409959278
 20
364.7669778257
 30
0.0
 11
1045.1409959278
 21
365.9669778257
 31
0.0
  0
LINE
  5
36E
330
1B
100
AcDbEntity
 67
     1
  8
7_ALL_FEATURES
  6
Continuous
 62
     7
100
AcDbLine
 10
1045.1409959278
 20
356.7669778257
 30
0.0
 11
1045.1409959278
 21
355.5669778257
 31
0.0
  0
LINE
  5
36F
330
1B
100
AcDbEntity
 67
     1
  8
7_ALL_FEATURES
  6
Continuous
 62
     7
100
AcDbLine
 10
1045.1409959278
 20
348.7669778257
 30
0.0
 11
1045.1409959278
 21
355.5669778257
 31
0.0
  0
LINE
  5
370
330
1B
100
AcDbEntity
 67
     1
  8
7_ALL_FEATURES
  6
Continuous
 62
     7
100
AcDbLine
 10
1045.1409959278
 20
348.7669778257
 30
0.0
 11
1045.1409959278
 21
348.2669778257
 31
0.0
  0
LINE
  5
371
330
1B
100
AcDbEntity
 67
     1
  8
7_ALL_FEATURES
  6
Continuous
 62
     7
100
AcDbLine
 10
1045.1409959278
 20
400.7669778257
 30
0.0
 11
1044.1409959278
 21
400.7669778257
 31
0.0
  0
LINE
  5
372
330
1B
100
AcDbEntity
 67
     1
  8
7_ALL_FEATURES
  6
Continuous
 62
     7
100
AcDbLine
 10
1045.1409959278
 20
355.5669778257
 30
0.0
 11
1044.1409959278
 21
355.5669778257
 31
0.0
  0
LINE
  5
373
330
1B
100
AcDbEntity
 67
     1
  8
7_ALL_FEATURES
  6
Continuous
 62
     7
100
AcDbLine
 10
1045.1409959278
 20
365.9669778257
 30
0.0
 11
1044.1409959278
 21
365.9669778257
 31
0.0
  0
LINE
  5
374
330
1B
100
AcDbEntity
 67
     1
  8
7_ALL_FEATURES
  6
Continuous
 62
     7
100
AcDbLine
 10
1045.1409959278
 20
390.7669778257
 30
0.0
 11
1044.1409959278
 21
390.7669778257
 31
0.0
  0
LINE
  5
375
330
1B
100
AcDbEntity
 67
     1
  8
7_ALL_FEATURES
  6
Continuous
 62
     7
100
AcDbLine
 10
1045.1409959278
 20
437.2669778257
 30
0.0
 11
1044.1409959278
 21
437.2669778257
 31
0.0
  0
LINE
  5
376
330
1B
100
AcDbEntity
 67
     1
  8
7_ALL_FEATURES
  6
Continuous
 62
     7
100
AcDbLine
 10
1045.1409959278
 20
391.7669778257
 30
0.0
 11
1045.1409959278
 21
399.7669778257
 31
0.0
  0
LINE
  5
377
330
1B
100
AcDbEntity
 67
     1
  8
7_ALL_FEATURES
  6
Continuous
 62
     7
100
AcDbLine
 10
1045.0821506386
 20
399.7669778257
 30
0.0
 11
1045.1409959278
 21
399.7669778257
 31
0.0
  0
LINE
  5
378
330
1B
100
AcDbEntity
 67
     1
  8
7_ALL_FEATURES
  6
Continuous
 62
     7
100
AcDbLine
 10
1043.1409959278
 20
399.7669778257
 30
0.0
 11
1045.0821506386
 21
399.7669778257
 31
0.0
  0
LINE
  5
379
330
1B
100
AcDbEntity
 67
     1
  8
7_ALL_FEATURES
  6
Continuous
 62
     7
100
AcDbLine
 10
1043.1409959278
 20
391.7669778257
 30
0.0
 11
1045.0821506386
 21
391.7669778257
 31
0.0
  0
LINE
  5
37A
330
1B
100
AcDbEntity
 67
     1
  8
7_ALL_FEATURES
  6
Continuous
 62
     7
100
AcDbLine
 10
1045.0821506386
 20
391.7669778257
 30
0.0
 11
1045.1409959278
 21
391.7669778257
 31
0.0
  0
LINE
  5
37B
330
1B
100
AcDbEntity
 67
     1
  8
7_ALL_FEATURES
  6
Continuous
 62
     7
100
AcDbLine
 10
1032.6409959278
 20
398.7669778257
 30
0.0
 11
1032.6409959278
 21
396.3752939567
 31
0.0
  0
LINE
  5
37C
330
1B
100
AcDbEntity
 67
     1
  8
7_ALL_FEATURES
  6
Continuous
 62
     7
100
AcDbLine
 10
1032.6409959278
 20
395.1586616947
 30
0.0
 11
1032.6409959278
 21
392.7669778257
 31
0.0
  0
ARC
  5
37D
330
1B
100
AcDbEntity
 67
     1
  8
7_ALL_FEATURES
  6
Continuous
 62
     7
100
AcDbCircle
 10
1033.6409959278
 20
392.7669778257
 30
0.0
 40
1.0
100
AcDbArc
 50
180.0
 51
270.0
  0
LINE
  5
37E
330
1B
100
AcDbEntity
 67
     1
  8
7_ALL_FEATURES
  6
Continuous
 62
     7
100
AcDbLine
 10
1033.6409959278
 20
391.7669778257
 30
0.0
 11
1043.1409959278
 21
391.7669778257
 31
0.0
  0
LINE
  5
37F
330
1B
100
AcDbEntity
 67
     1
  8
7_ALL_FEATURES
  6
Continuous
 62
     7
100
AcDbLine
 10
1043.1409959278
 20
399.7669778257
 30
0.0
 11
1033.6409959278
 21
399.7669778257
 31
0.0
  0
ARC
  5
380
330
1B
100
AcDbEntity
 67
     1
  8
7_ALL_FEATURES
  6
Continuous
 62
     7
100
AcDbCircle
 10
1033.6409959278
 20
398.7669778257
 30
0.0
 40
1.0
100
AcDbArc
 50
90.0
 51
180.0
  0
ARC
  5
381
330
1B
100
AcDbEntity
 67
     1
  8
02___PRT_ALL_AXES
  6
Continuous
 62
     7
100
AcDbCircle
 10
1039.8909959278
 20
395.7669778257
 30
0.0
 40
2.25
100
AcDbArc
 50
270.0
 51
90.0
  0
LINE
  5
382
330
1B
100
AcDbEntity
 67
     1
  8
02___PRT_ALL_AXES
  6
Continuous
 62
     7
100
AcDbLine
 10
1039.4529014631
 20
393.5169778257
 30
0.0
 11
1039.8909959278
 21
393.5169778257
 31
0.0
  0
LINE
  5
383
330
1B
100
AcDbEntity
 67
     1
  8
02___PRT_ALL_AXES
  6
Continuous
 62
     7
100
AcDbLine
 10
1039.8909959278
 20
398.0169778257
 30
0.0
 11
1039.4529014631
 21
398.0169778257
 31
0.0
  0
LINE
  5
384
330
1B
100
AcDbEntity
 67
     1
  8
7_ALL_FEATURES
  6
Continuous
 62
     7
100
AcDbLine
 10
1045.1409959278
 20
356.7669778257
 30
0.0
 11
1045.1409959278
 21
364.7669778257
 31
0.0
  0
LINE
  5
385
330
1B
100
AcDbEntity
 67
     1
  8
7_ALL_FEATURES
  6
Continuous
 62
     7
100
AcDbLine
 10
1045.0821506386
 20
364.7669778257
 30
0.0
 11
1045.1409959278
 21
364.7669778257
 31
0.0
  0
LINE
  5
386
330
1B
100
AcDbEntity
 67
     1
  8
7_ALL_FEATURES
  6
Continuous
 62
     7
100
AcDbLine
 10
1043.1409959278
 20
364.7669778257
 30
0.0
 11
1045.0821506386
 21
364.7669778257
 31
0.0
  0
LINE
  5
387
330
1B
100
AcDbEntity
 67
     1
  8
7_ALL_FEATURES
  6
Continuous
 62
     7
100
AcDbLine
 10
1043.1409959278
 20
356.7669778257
 30
0.0
 11
1045.0821506386
 21
356.7669778257
 31
0.0
  0
LINE
  5
388
330
1B
100
AcDbEntity
 67
     1
  8
7_ALL_FEATURES
  6
Continuous
 62
     7
100
AcDbLine
 10
1045.0821506386
 20
356.7669778257
 30
0.0
 11
1045.1409959278
 21
356.7669778257
 31
0.0
  0
LINE
  5
389
330
1B
100
AcDbEntity
 67
     1
  8
7_ALL_FEATURES
  6
Continuous
 62
     7
100
AcDbLine
 10
1032.6409959278
 20
363.7669778257
 30
0.0
 11
1032.6409959278
 21
361.3752939567
 31
0.0
  0
LINE
  5
38A
330
1B
100
AcDbEntity
 67
     1
  8
7_ALL_FEATURES
  6
Continuous
 62
     7
100
AcDbLine
 10
1032.6409959278
 20
360.1586616947
 30
0.0
 11
1032.6409959278
 21
357.7669778257
 31
0.0
  0
ARC
  5
38B
330
1B
100
AcDbEntity
 67
     1
  8
7_ALL_FEATURES
  6
Continuous
 62
     7
100
AcDbCircle
 10
1033.6409959278
 20
357.7669778257
 30
0.0
 40
1.0
100
AcDbArc
 50
180.0
 51
270.0
  0
LINE
  5
38C
330
1B
100
AcDbEntity
 67
     1
  8
7_ALL_FEATURES
  6
Continuous
 62
     7
100
AcDbLine
 10
1033.6409959278
 20
356.7669778257
 30
0.0
 11
1043.1409959278
 21
356.7669778257
 31
0.0
  0
LINE
  5
38D
330
1B
100
AcDbEntity
 67
     1
  8
7_ALL_FEATURES
  6
Continuous
 62
     7
100
AcDbLine
 10
1043.1409959278
 20
364.7669778257
 30
0.0
 11
1033.6409959278
 21
364.7669778257
 31
0.0
  0
ARC
  5
38E
330
1B
100
AcDbEntity
 67
     1
  8
7_ALL_FEATURES
  6
Continuous
 62
     7
100
AcDbCircle
 10
1033.6409959278
 20
363.7669778257
 30
0.0
 40
1.0
100
AcDbArc
 50
90.0
 51
180.0
  0
LINE
  5
38F
330
1B
100
AcDbEntity
 67
     1
  8
02___PRT_ALL_AXES
  6
Continuous
 62
     7
100
AcDbLine
 10
1039.4529014631
 20
358.5169778257
 30
0.0
 11
1039.8909959278
 21
358.5169778257
 31
0.0
  0
LINE
  5
390
330
1B
100
AcDbEntity
 67
     1
  8
02___PRT_ALL_AXES
  6
Continuous
 62
     7
100
AcDbLine
 10
1039.8909959278
 20
363.0169778257
 30
0.0
 11
1039.4529014631
 21
363.0169778257
 31
0.0
  0
ARC
  5
391
330
1B
100
AcDbEntity
 67
     1
  8
02___PRT_ALL_AXES
  6
Continuous
 62
     7
100
AcDbCircle
 10
1039.8909959278
 20
360.7669778257
 30
0.0
 40
2.25
100
AcDbArc
 50
270.0
 51
90.0
  0
LINE
  5
392
330
1B
100
AcDbEntity
 67
     1
  8
7_ALL_FEATURES
  6
Continuous
 62
     9
100
AcDbLine
 10
1043.1409959278
 20
391.7669778257
 30
0.0
 11
1043.1409959278
 21
399.7669778257
 31
0.0
  0
LINE
  5
393
330
1B
100
AcDbEntity
 67
     1
  8
7_ALL_FEATURES
  6
Continuous
 62
     9
100
AcDbLine
 10
1043.1409959278
 20
356.7669778257
 30
0.0
 11
1043.1409959278
 21
364.7669778257
 31
0.0
  0
LINE
  5
394
330
1B
100
AcDbEntity
 67
     1
  8
7_ALL_FEATURES
  6
Continuous
 62
     9
100
AcDbLine
 10
1045.1409959278
 20
436.7669778257
 30
0.0
 11
1044.1409959278
 21
436.7669778257
 31
0.0
  0
LINE
  5
395
330
1B
100
AcDbEntity
 67
     1
  8
7_ALL_FEATURES
  6
Continuous
 62
     9
100
AcDbLine
 10
1045.1409959278
 20
348.7669778257
 30
0.0
 11
1044.1409959278
 21
348.7669778257
 31
0.0
  0
LINE
  5
396
330
1B
100
AcDbEntity
 67
     1
  8
7_ALL_FEATURES
  6
Continuous
 62
     7
100
AcDbLine
 10
33.1409959278
 20
349.4669778257
 30
0.0
 11
38.6409959278
 21
349.4669778257
 31
0.0
  0
LINE
  5
397
330
1B
100
AcDbEntity
 67
     1
  8
7_ALL_FEATURES
  6
Continuous
 62
     7
100
AcDbLine
 10
88.6409959278
 20
349.4669778257
 30
0.0
 11
513.6409959278
 21
349.4669778257
 31
0.0
  0
LINE
  5
398
330
1B
100
AcDbEntity
 67
     1
  8
7_ALL_FEATURES
  6
Continuous
 62
     7
100
AcDbLine
 10
563.6409959278
 20
349.4669778257
 30
0.0
 11
988.6409959278
 21
349.4669778257
 31
0.0
  0
LINE
  5
399
330
1B
100
AcDbEntity
 67
     1
  8
7_ALL_FEATURES
  6
Continuous
 62
     7
100
AcDbLine
 10
1038.6409959278
 20
349.4669778257
 30
0.0
 11
1044.1409959278
 21
349.4669778257
 31
0.0
  0
LINE
  5
39A
330
1B
100
AcDbEntity
 67
     1
  8
7_ALL_FEATURES
  6
Continuous
 62
     7
100
AcDbLine
 10
1041.6409959278
 20
390.7669778257
 30
0.0
 11
1041.6409959278
 21
391.7669778257
 31
0.0
  0
LINE
  5
39B
330
1B
100
AcDbEntity
 67
     1
  8
7_ALL_FEATURES
  6
Continuous
 62
     7
100
AcDbLine
 10
1041.6409959278
 20
394.3528130639
 30
0.0
 11
1041.6409959278
 21
397.1811425874
 31
0.0
  0
LINE
  5
39C
330
1B
100
AcDbEntity
 67
     1
  8
7_ALL_FEATURES
  6
Continuous
 62
     7
100
AcDbLine
 10
1041.6409959278
 20
399.7669778257
 30
0.0
 11
1041.6409959278
 21
400.7669778257
 31
0.0
  0
LINE
  5
39D
330
1B
100
AcDbEntity
 67
     1
  8
7_ALL_FEATURES
  6
Continuous
 62
     7
100
AcDbLine
 10
1044.1409959278
 20
400.7669778257
 30
0.0
 11
1041.6409959278
 21
400.7669778257
 31
0.0
  0
LINE
  5
39E
330
1B
100
AcDbEntity
 67
     1
  8
7_ALL_FEATURES
  6
Continuous
 62
     7
100
AcDbLine
 10
1044.1409959278
 20
400.7669778257
 30
0.0
 11
1044.1409959278
 21
436.7669778257
 31
0.0
  0
LINE
  5
39F
330
1B
100
AcDbEntity
 67
     1
  8
7_ALL_FEATURES
  6
Continuous
 62
     7
100
AcDbLine
 10
1044.1409959278
 20
436.7669778257
 30
0.0
 11
1044.1409959278
 21
437.2669778257
 31
0.0
  0
LINE
  5
3A0
330
1B
100
AcDbEntity
 67
     1
  8
7_ALL_FEATURES
  6
Continuous
 62
     7
100
AcDbLine
 10
1044.1409959278
 20
437.2669778257
 30
0.0
 11
33.1409959278
 21
437.2669778257
 31
0.0
  0
LINE
  5
3A1
330
1B
100
AcDbEntity
 67
     1
  8
7_ALL_FEATURES
  6
Continuous
 62
     7
100
AcDbLine
 10
33.1409959278
 20
437.2669778257
 30
0.0
 11
33.1409959278
 21
436.7669778257
 31
0.0
  0
LINE
  5
3A2
330
1B
100
AcDbEntity
 67
     1
  8
7_ALL_FEATURES
  6
Continuous
 62
     7
100
AcDbLine
 10
33.1409959278
 20
436.7669778257
 30
0.0
 11
33.1409959278
 21
400.9669778257
 31
0.0
  0
LINE
  5
3A3
330
1B
100
AcDbEntity
 67
     1
  8
7_ALL_FEATURES
  6
Continuous
 62
     7
100
AcDbLine
 10
33.1409959278
 20
400.9669778257
 30
0.0
 11
33.1409959278
 21
400.7669778257
 31
0.0
  0
LINE
  5
3A4
330
1B
100
AcDbEntity
 67
     1
  8
7_ALL_FEATURES
  6
Continuous
 62
     7
100
AcDbLine
 10
33.1409959278
 20
400.7669778257
 30
0.0
 11
35.6409959278
 21
400.7669778257
 31
0.0
  0
LINE
  5
3A5
330
1B
100
AcDbEntity
 67
     1
  8
7_ALL_FEATURES
  6
Continuous
 62
     7
100
AcDbLine
 10
35.6409959278
 20
400.7669778257
 30
0.0
 11
35.6409959278
 21
399.7669778257
 31
0.0
  0
LINE
  5
3A6
330
1B
100
AcDbEntity
 67
     1
  8
7_ALL_FEATURES
  6
Continuous
 62
     7
100
AcDbLine
 10
35.6409959278
 20
397.1811425874
 30
0.0
 11
35.6409959278
 21
394.3528130639
 31
0.0
  0
LINE
  5
3A7
330
1B
100
AcDbEntity
 67
     1
  8
7_ALL_FEATURES
  6
Continuous
 62
     7
100
AcDbLine
 10
35.6409959278
 20
391.7669778257
 30
0.0
 11
35.6409959278
 21
390.7669778257
 31
0.0
  0
LINE
  5
3A8
330
1B
100
AcDbEntity
 67
     1
  8
7_ALL_FEATURES
  6
Continuous
 62
     7
100
AcDbLine
 10
33.1409959278
 20
390.7669778257
 30
0.0
 11
35.6409959278
 21
390.7669778257
 31
0.0
  0
LINE
  5
3A9
330
1B
100
AcDbEntity
 67
     1
  8
7_ALL_FEATURES
  6
Continuous
 62
     7
100
AcDbLine
 10
33.1409959278
 20
390.7669778257
 30
0.0
 11
33.1409959278
 21
390.5669778257
 31
0.0
  0
LINE
  5
3AA
330
1B
100
AcDbEntity
 67
     1
  8
7_ALL_FEATURES
  6
Continuous
 62
     7
100
AcDbLine
 10
33.1409959278
 20
390.5669778257
 30
0.0
 11
33.1409959278
 21
365.9669778257
 31
0.0
  0
LINE
  5
3AB
330
1B
100
AcDbEntity
 67
     1
  8
7_ALL_FEATURES
  6
Continuous
 62
     7
100
AcDbLine
 10
33.1409959278
 20
365.9669778257
 30
0.0
 11
33.1409959278
 21
365.7669778257
 31
0.0
  0
LINE
  5
3AC
330
1B
100
AcDbEntity
 67
     1
  8
7_ALL_FEATURES
  6
Continuous
 62
     7
100
AcDbLine
 10
33.1409959278
 20
365.7669778257
 30
0.0
 11
35.6409959278
 21
365.7669778257
 31
0.0
  0
LINE
  5
3AD
330
1B
100
AcDbEntity
 67
     1
  8
7_ALL_FEATURES
  6
Continuous
 62
     7
100
AcDbLine
 10
35.6409959278
 20
355.7669778257
 30
0.0
 11
35.6409959278
 21
356.7669778257
 31
0.0
  0
LINE
  5
3AE
330
1B
100
AcDbEntity
 67
     1
  8
7_ALL_FEATURES
  6
Continuous
 62
     7
100
AcDbLine
 10
35.6409959278
 20
359.3528130639
 30
0.0
 11
35.6409959278
 21
362.1811425874
 31
0.0
  0
LINE
  5
3AF
330
1B
100
AcDbEntity
 67
     1
  8
7_ALL_FEATURES
  6
Continuous
 62
     7
100
AcDbLine
 10
35.6409959278
 20
364.7669778257
 30
0.0
 11
35.6409959278
 21
365.7669778257
 31
0.0
  0
LINE
  5
3B0
330
1B
100
AcDbEntity
 67
     1
  8
7_ALL_FEATURES
  6
Continuous
 62
     7
100
AcDbLine
 10
33.1409959278
 20
355.7669778257
 30
0.0
 11
35.6409959278
 21
355.7669778257
 31
0.0
  0
LINE
  5
3B1
330
1B
100
AcDbEntity
 67
     1
  8
7_ALL_FEATURES
  6
Continuous
 62
     7
100
AcDbLine
 10
33.1409959278
 20
355.7669778257
 30
0.0
 11
33.1409959278
 21
355.5669778257
 31
0.0
  0
LINE
  5
3B2
330
1B
100
AcDbEntity
 67
     1
  8
7_ALL_FEATURES
  6
Continuous
 62
     7
100
AcDbLine
 10
33.1409959278
 20
355.5669778257
 30
0.0
 11
33.1409959278
 21
351.8669778257
 31
0.0
  0
LINE
  5
3B3
330
1B
100
AcDbEntity
 67
     1
  8
7_ALL_FEATURES
  6
Continuous
 62
     7
100
AcDbLine
 10
1044.1409959278
 20
351.8669778257
 30
0.0
 11
1044.1409959278
 21
355.5669778257
 31
0.0
  0
LINE
  5
3B4
330
1B
100
AcDbEntity
 67
     1
  8
7_ALL_FEATURES
  6
Continuous
 62
     7
100
AcDbLine
 10
1044.1409959278
 20
355.5669778257
 30
0.0
 11
1044.1409959278
 21
355.7669778257
 31
0.0
  0
LINE
  5
3B5
330
1B
100
AcDbEntity
 67
     1
  8
7_ALL_FEATURES
  6
Continuous
 62
     7
100
AcDbLine
 10
1044.1409959278
 20
355.7669778257
 30
0.0
 11
1041.6409959278
 21
355.7669778257
 31
0.0
  0
LINE
  5
3B6
330
1B
100
AcDbEntity
 67
     1
  8
7_ALL_FEATURES
  6
Continuous
 62
     7
100
AcDbLine
 10
1041.6409959278
 20
355.7669778257
 30
0.0
 11
1041.6409959278
 21
356.7669778257
 31
0.0
  0
LINE
  5
3B7
330
1B
100
AcDbEntity
 67
     1
  8
7_ALL_FEATURES
  6
Continuous
 62
     7
100
AcDbLine
 10
1041.6409959278
 20
359.3528130639
 30
0.0
 11
1041.6409959278
 21
362.1811425874
 31
0.0
  0
LINE
  5
3B8
330
1B
100
AcDbEntity
 67
     1
  8
7_ALL_FEATURES
  6
Continuous
 62
     7
100
AcDbLine
 10
1041.6409959278
 20
364.7669778257
 30
0.0
 11
1041.6409959278
 21
365.7669778257
 31
0.0
  0
LINE
  5
3B9
330
1B
100
AcDbEntity
 67
     1
  8
7_ALL_FEATURES
  6
Continuous
 62
     7
100
AcDbLine
 10
1044.1409959278
 20
365.7669778257
 30
0.0
 11
1041.6409959278
 21
365.7669778257
 31
0.0
  0
LINE
  5
3BA
330
1B
100
AcDbEntity
 67
     1
  8
7_ALL_FEATURES
  6
Continuous
 62
     7
100
AcDbLine
 10
1044.1409959278
 20
365.7669778257
 30
0.0
 11
1044.1409959278
 21
365.9669778257
 31
0.0
  0
LINE
  5
3BB
330
1B
100
AcDbEntity
 67
     1
  8
7_ALL_FEATURES
  6
Continuous
 62
     7
100
AcDbLine
 10
1044.1409959278
 20
365.9669778257
 30
0.0
 11
1044.1409959278
 21
390.7669778257
 31
0.0
  0
LINE
  5
3BC
330
1B
100
AcDbEntity
 67
     1
  8
7_ALL_FEATURES
  6
Continuous
 62
     7
100
AcDbLine
 10
1044.1409959278
 20
390.7669778257
 30
0.0
 11
1041.6409959278
 21
390.7669778257
 31
0.0
  0
ARC
  5
3BD
330
1B
100
AcDbEntity
 67
     1
  8
02___PRT_ALL_AXES
  6
Continuous
 62
     7
100
AcDbCircle
 10
388.6409959278
 20
376.935432607
 30
0.0
 40
10.0
100
AcDbArc
 50
182.0
 51
358.0
  0
LINE
  5
3BE
330
1B
100
AcDbEntity
 67
     1
  8
02___PRT_ALL_AXES
  6
Continuous
 62
     7
100
AcDbLine
 10
378.6470876576
 20
376.58643764
 30
0.0
 11
379.1467830711
 21
376.6038873883
 31
0.0
  0
ARC
  5
3BF
330
1B
100
AcDbEntity
 67
     1
  8
02___PRT_ALL_AXES
  6
Continuous
 62
     7
100
AcDbCircle
 10
388.6409959278
 20
376.935432607
 30
0.0
 40
9.5
100
AcDbArc
 50
182.0
 51
358.0
  0
LINE
  5
3C0
330
1B
100
AcDbEntity
 67
     1
  8
02___PRT_ALL_AXES
  6
Continuous
 62
     7
100
AcDbLine
 10
398.1352087844
 20
376.6038873883
 30
0.0
 11
398.6349041979
 21
376.58643764
 31
0.0
  0
LINE
  5
3C1
330
1B
100
AcDbEntity
 67
     1
  8
02___PRT_ALL_AXES
  6
Continuous
 62
     7
100
AcDbLine
 10
379.1467830711
 20
377.2669778257
 30
0.0
 11
378.6470876576
 21
377.284427574
 31
0.0
  0
ARC
  5
3C2
330
1B
100
AcDbEntity
 67
     1
  8
02___PRT_ALL_AXES
  6
Continuous
 62
     7
100
AcDbCircle
 10
388.6409959278
 20
376.935432607
 30
0.0
 40
10.0
100
AcDbArc
 50
2.0
 51
178.0
  0
LINE
  5
3C3
330
1B
100
AcDbEntity
 67
     1
  8
02___PRT_ALL_AXES
  6
Continuous
 62
     7
100
AcDbLine
 10
398.6349041979
 20
377.284427574
 30
0.0
 11
398.1352087844
 21
377.2669778257
 31
0.0
  0
ARC
  5
3C4
330
1B
100
AcDbEntity
 67
     1
  8
02___PRT_ALL_AXES
  6
Continuous
 62
     7
100
AcDbCircle
 10
388.6409959278
 20
376.935432607
 30
0.0
 40
9.5
100
AcDbArc
 50
2.0
 51
178.0
  0
LINE
  5
3C5
330
1B
100
AcDbEntity
 67
     1
  8
02___PRT_ALL_AXES
  6
Continuous
 62
     7
100
AcDbLine
 10
698.1352087844
 20
376.6038873883
 30
0.0
 11
698.6349041979
 21
376.58643764
 31
0.0
  0
ARC
  5
3C6
330
1B
100
AcDbEntity
 67
     1
  8
02___PRT_ALL_AXES
  6
Continuous
 62
     7
100
AcDbCircle
 10
688.6409959278
 20
376.935432607
 30
0.0
 40
10.0
100
AcDbArc
 50
182.0
 51
358.0
  0
LINE
  5
3C7
330
1B
100
AcDbEntity
 67
     1
  8
02___PRT_ALL_AXES
  6
Continuous
 62
     7
100
AcDbLine
 10
678.6470876576
 20
376.58643764
 30
0.0
 11
679.1467830711
 21
376.6038873883
 31
0.0
  0
ARC
  5
3C8
330
1B
100
AcDbEntity
 67
     1
  8
02___PRT_ALL_AXES
  6
Continuous
 62
     7
100
AcDbCircle
 10
688.6409959278
 20
376.935432607
 30
0.0
 40
9.5
100
AcDbArc
 50
182.0
 51
358.0
  0
ARC
  5
3C9
330
1B
100
AcDbEntity
 67
     1
  8
02___PRT_ALL_AXES
  6
Continuous
 62
     7
100
AcDbCircle
 10
688.6409959278
 20
376.935432607
 30
0.0
 40
10.0
100
AcDbArc
 50
2.0
 51
178.0
  0
LINE
  5
3CA
330
1B
100
AcDbEntity
 67
     1
  8
02___PRT_ALL_AXES
  6
Continuous
 62
     7
100
AcDbLine
 10
698.6349041979
 20
377.284427574
 30
0.0
 11
698.1352087844
 21
377.2669778257
 31
0.0
  0
ARC
  5
3CB
330
1B
100
AcDbEntity
 67
     1
  8
02___PRT_ALL_AXES
  6
Continuous
 62
     7
100
AcDbCircle
 10
688.6409959278
 20
376.935432607
 30
0.0
 40
9.5
100
AcDbArc
 50
2.0
 51
178.0
  0
LINE
  5
3CC
330
1B
100
AcDbEntity
 67
     1
  8
02___PRT_ALL_AXES
  6
Continuous
 62
     7
100
AcDbLine
 10
679.1467830711
 20
377.2669778257
 30
0.0
 11
678.6470876576
 21
377.284427574
 31
0.0
  0
LINE
  5
3CD
330
1B
100
AcDbEntity
 67
     1
  8
02___PRT_ALL_AXES
  6
Continuous
 62
     7
100
AcDbLine
 10
198.1352087844
 20
376.6038873883
 30
0.0
 11
198.634904198
 21
376.58643764
 31
0.0
  0
ARC
  5
3CE
330
1B
100
AcDbEntity
 67
     1
  8
02___PRT_ALL_AXES
  6
Continuous
 62
     7
100
AcDbCircle
 10
188.6409959278
 20
376.935432607
 30
0.0
 40
10.0
100
AcDbArc
 50
182.0
 51
358.0
  0
LINE
  5
3CF
330
1B
100
AcDbEntity
 67
     1
  8
02___PRT_ALL_AXES
  6
Continuous
 62
     7
100
AcDbLine
 10
178.6470876576
 20
376.58643764
 30
0.0
 11
179.1467830711
 21
376.6038873883
 31
0.0
  0
ARC
  5
3D0
330
1B
100
AcDbEntity
 67
     1
  8
02___PRT_ALL_AXES
  6
Continuous
 62
     7
100
AcDbCircle
 10
188.6409959278
 20
376.935432607
 30
0.0
 40
9.5
100
AcDbArc
 50
182.0
 51
358.0
  0
ARC
  5
3D1
330
1B
100
AcDbEntity
 67
     1
  8
02___PRT_ALL_AXES
  6
Continuous
 62
     7
100
AcDbCircle
 10
188.6409959278
 20
376.935432607
 30
0.0
 40
10.0
100
AcDbArc
 50
2.0
 51
178.0
  0
LINE
  5
3D2
330
1B
100
AcDbEntity
 67
     1
  8
02___PRT_ALL_AXES
  6
Continuous
 62
     7
100
AcDbLine
 10
198.634904198
 20
377.284427574
 30
0.0
 11
198.1352087844
 21
377.2669778257
 31
0.0
  0
ARC
  5
3D3
330
1B
100
AcDbEntity
 67
     1
  8
02___PRT_ALL_AXES
  6
Continuous
 62
     7
100
AcDbCircle
 10
188.6409959278
 20
376.935432607
 30
0.0
 40
9.5
100
AcDbArc
 50
2.0
 51
178.0
  0
LINE
  5
3D4
330
1B
100
AcDbEntity
 67
     1
  8
02___PRT_ALL_AXES
  6
Continuous
 62
     7
100
AcDbLine
 10
179.1467830711
 20
377.2669778257
 30
0.0
 11
178.6470876576
 21
377.284427574
 31
0.0
  0
ARC
  5
3D5
330
1B
100
AcDbEntity
 67
     1
  8
02___PRT_ALL_AXES
  6
Continuous
 62
     7
100
AcDbCircle
 10
888.6409959278
 20
376.935432607
 30
0.0
 40
10.0
100
AcDbArc
 50
182.0
 51
358.0
  0
LINE
  5
3D6
330
1B
100
AcDbEntity
 67
     1
  8
02___PRT_ALL_AXES
  6
Continuous
 62
     7
100
AcDbLine
 10
878.6470876576
 20
376.58643764
 30
0.0
 11
879.1467830711
 21
376.6038873883
 31
0.0
  0
ARC
  5
3D7
330
1B
100
AcDbEntity
 67
     1
  8
02___PRT_ALL_AXES
  6
Continuous
 62
     7
100
AcDbCircle
 10
888.6409959278
 20
376.935432607
 30
0.0
 40
9.5
100
AcDbArc
 50
182.0
 51
358.0
  0
LINE
  5
3D8
330
1B
100
AcDbEntity
 67
     1
  8
02___PRT_ALL_AXES
  6
Continuous
 62
     7
100
AcDbLine
 10
898.1352087844
 20
376.6038873883
 30
0.0
 11
898.634904198
 21
376.58643764
 31
0.0
  0
LINE
  5
3D9
330
1B
100
AcDbEntity
 67
     1
  8
02___PRT_ALL_AXES
  6
Continuous
 62
     7
100
AcDbLine
 10
879.1467830711
 20
377.2669778257
 30
0.0
 11
878.6470876576
 21
377.284427574
 31
0.0
  0
ARC
  5
3DA
330
1B
100
AcDbEntity
 67
     1
  8
02___PRT_ALL_AXES
  6
Continuous
 62
     7
100
AcDbCircle
 10
888.6409959278
 20
376.935432607
 30
0.0
 40
10.0
100
AcDbArc
 50
2.0
 51
178.0
  0
LINE
  5
3DB
330
1B
100
AcDbEntity
 67
     1
  8
02___PRT_ALL_AXES
  6
Continuous
 62
     7
100
AcDbLine
 10
898.634904198
 20
377.284427574
 30
0.0
 11
898.1352087844
 21
377.2669778257
 31
0.0
  0
ARC
  5
3DC
330
1B
100
AcDbEntity
 67
     1
  8
02___PRT_ALL_AXES
  6
Continuous
 62
     7
100
AcDbCircle
 10
888.6409959278
 20
376.935432607
 30
0.0
 40
9.5
100
AcDbArc
 50
2.0
 51
178.0
  0
LINE
  5
3DD
330
1B
100
AcDbEntity
 67
     1
  8
7_ALL_FEATURES
  6
Continuous
 62
     9
100
AcDbLine
 10
33.1409959278
 20
351.8669778257
 30
0.0
 11
1044.1409959278
 21
351.8669778257
 31
0.0
  0
LINE
  5
3DE
330
1B
100
AcDbEntity
 67
     1
  8
7_ALL_FEATURES
  6
Continuous
 62
     3
100
AcDbLine
 10
988.6409959278
 20
349.4669778257
 30
0.0
 11
993.8909959278
 21
349.4669778257
 31
0.0
  0
LINE
  5
3DF
330
1B
100
AcDbEntity
 67
     1
  8
7_ALL_FEATURES
  6
Continuous
 62
     3
100
AcDbLine
 10
993.8909959278
 20
349.4669778257
 30
0.0
 11
998.6409959278
 21
349.4669778257
 31
0.0
  0
LINE
  5
3E0
330
1B
100
AcDbEntity
 67
     1
  8
7_ALL_FEATURES
  6
Continuous
 62
     3
100
AcDbLine
 10
1028.6409959278
 20
349.4669778257
 30
0.0
 11
1033.3909959278
 21
349.4669778257
 31
0.0
  0
LINE
  5
3E1
330
1B
100
AcDbEntity
 67
     1
  8
7_ALL_FEATURES
  6
Continuous
 62
     3
100
AcDbLine
 10
1033.3909959278
 20
349.4669778257
 30
0.0
 11
1038.6409959278
 21
349.4669778257
 31
0.0
  0
LINE
  5
3E2
330
1B
100
AcDbEntity
 67
     1
  8
7_ALL_FEATURES
  6
Continuous
 62
     3
100
AcDbLine
 10
998.6409959278
 20
349.4669778257
 30
0.0
 11
1028.6409959278
 21
349.4669778257
 31
0.0
  0
LINE
  5
3E3
330
1B
100
AcDbEntity
 67
     1
  8
7_ALL_FEATURES
  6
Continuous
 62
     3
100
AcDbLine
 10
513.6409959278
 20
349.4669778257
 30
0.0
 11
518.8909959278
 21
349.4669778257
 31
0.0
  0
LINE
  5
3E4
330
1B
100
AcDbEntity
 67
     1
  8
7_ALL_FEATURES
  6
Continuous
 62
     3
100
AcDbLine
 10
518.8909959278
 20
349.4669778257
 30
0.0
 11
523.6409959278
 21
349.4669778257
 31
0.0
  0
LINE
  5
3E5
330
1B
100
AcDbEntity
 67
     1
  8
7_ALL_FEATURES
  6
Continuous
 62
     3
100
AcDbLine
 10
553.6409959278
 20
349.4669778257
 30
0.0
 11
558.3909959278
 21
349.4669778257
 31
0.0
  0
LINE
  5
3E6
330
1B
100
AcDbEntity
 67
     1
  8
7_ALL_FEATURES
  6
Continuous
 62
     3
100
AcDbLine
 10
558.3909959278
 20
349.4669778257
 30
0.0
 11
563.6409959278
 21
349.4669778257
 31
0.0
  0
LINE
  5
3E7
330
1B
100
AcDbEntity
 67
     1
  8
7_ALL_FEATURES
  6
Continuous
 62
     3
100
AcDbLine
 10
523.6409959278
 20
349.4669778257
 30
0.0
 11
553.6409959278
 21
349.4669778257
 31
0.0
  0
LINE
  5
3E8
330
1B
100
AcDbEntity
 67
     1
  8
7_ALL_FEATURES
  6
Continuous
 62
     3
100
AcDbLine
 10
38.6409959278
 20
349.4669778257
 30
0.0
 11
43.8909959278
 21
349.4669778257
 31
0.0
  0
LINE
  5
3E9
330
1B
100
AcDbEntity
 67
     1
  8
7_ALL_FEATURES
  6
Continuous
 62
     3
100
AcDbLine
 10
43.8909959278
 20
349.4669778257
 30
0.0
 11
48.6409959278
 21
349.4669778257
 31
0.0
  0
LINE
  5
3EA
330
1B
100
AcDbEntity
 67
     1
  8
7_ALL_FEATURES
  6
Continuous
 62
     3
100
AcDbLine
 10
78.6409959278
 20
349.4669778257
 30
0.0
 11
83.3909959278
 21
349.4669778257
 31
0.0
  0
LINE
  5
3EB
330
1B
100
AcDbEntity
 67
     1
  8
7_ALL_FEATURES
  6
Continuous
 62
     3
100
AcDbLine
 10
83.3909959278
 20
349.4669778257
 30
0.0
 11
88.6409959278
 21
349.4669778257
 31
0.0
  0
LINE
  5
3EC
330
1B
100
AcDbEntity
 67
     1
  8
7_ALL_FEATURES
  6
Continuous
 62
     3
100
AcDbLine
 10
48.6409959278
 20
349.4669778257
 30
0.0
 11
78.6409959278
 21
349.4669778257
 31
0.0
  0
LINE
  5
3ED
330
1B
100
AcDbEntity
 67
     1
  8
7_ALL_FEATURES
  6
Continuous
 62
     3
100
AcDbLine
 10
33.1409959278
 20
348.7669778257
 30
0.0
 11
33.1409959278
 21
348.2669778257
 31
0.0
  0
LINE
  5
3EE
330
1B
100
AcDbEntity
 67
     1
  8
7_ALL_FEATURES
  6
Continuous
 62
     3
100
AcDbLine
 10
33.1409959278
 20
355.5669778257
 30
0.0
 11
33.1409959278
 21
351.8669778257
 31
0.0
  0
LINE
  5
3EF
330
1B
100
AcDbEntity
 67
     1
  8
7_ALL_FEATURES
  6
Continuous
 62
     3
100
AcDbLine
 10
33.1409959278
 20
351.8669778257
 30
0.0
 11
33.1409959278
 21
349.4669778257
 31
0.0
  0
LINE
  5
3F0
330
1B
100
AcDbEntity
 67
     1
  8
7_ALL_FEATURES
  6
Continuous
 62
     3
100
AcDbLine
 10
33.1409959278
 20
349.4669778257
 30
0.0
 11
33.1409959278
 21
348.7669778257
 31
0.0
  0
LINE
  5
3F1
330
1B
100
AcDbEntity
 67
     1
  8
7_ALL_FEATURES
  6
Continuous
 62
     3
100
AcDbLine
 10
33.1409959278
 20
356.7669778257
 30
0.0
 11
33.1409959278
 21
355.7669778257
 31
0.0
  0
LINE
  5
3F2
330
1B
100
AcDbEntity
 67
     1
  8
7_ALL_FEATURES
  6
Continuous
 62
     3
100
AcDbLine
 10
33.1409959278
 20
364.7669778257
 30
0.0
 11
33.1409959278
 21
365.7669778257
 31
0.0
  0
LINE
  5
3F3
330
1B
100
AcDbEntity
 67
     1
  8
7_ALL_FEATURES
  6
Continuous
 62
     3
100
AcDbLine
 10
33.1409959278
 20
390.5669778257
 30
0.0
 11
33.1409959278
 21
365.9669778257
 31
0.0
  0
LINE
  5
3F4
330
1B
100
AcDbEntity
 67
     1
  8
7_ALL_FEATURES
  6
Continuous
 62
     3
100
AcDbLine
 10
33.1409959278
 20
391.7669778257
 30
0.0
 11
33.1409959278
 21
390.7669778257
 31
0.0
  0
LINE
  5
3F5
330
1B
100
AcDbEntity
 67
     1
  8
7_ALL_FEATURES
  6
Continuous
 62
     3
100
AcDbLine
 10
33.1409959278
 20
399.7669778257
 30
0.0
 11
33.1409959278
 21
400.7669778257
 31
0.0
  0
LINE
  5
3F6
330
1B
100
AcDbEntity
 67
     1
  8
7_ALL_FEATURES
  6
Continuous
 62
     3
100
AcDbLine
 10
33.1409959278
 20
436.7669778257
 30
0.0
 11
33.1409959278
 21
400.9669778257
 31
0.0
  0
LINE
  5
3F7
330
1B
100
AcDbEntity
 67
     1
  8
7_ALL_FEATURES
  6
Continuous
 62
     3
100
AcDbLine
 10
1044.1409959278
 20
348.2669778257
 30
0.0
 11
1044.1409959278
 21
348.7669778257
 31
0.0
  0
LINE
  5
3F8
330
1B
100
AcDbEntity
 67
     1
  8
7_ALL_FEATURES
  6
Continuous
 62
     3
100
AcDbLine
 10
1044.1409959278
 20
400.7669778257
 30
0.0
 11
1044.1409959278
 21
436.7669778257
 31
0.0
  0
LINE
  5
3F9
330
1B
100
AcDbEntity
 67
     1
  8
7_ALL_FEATURES
  6
Continuous
 62
     3
100
AcDbLine
 10
1044.1409959278
 20
399.7669778257
 30
0.0
 11
1044.1409959278
 21
400.7669778257
 31
0.0
  0
LINE
  5
3FA
330
1B
100
AcDbEntity
 67
     1
  8
7_ALL_FEATURES
  6
Continuous
 62
     3
100
AcDbLine
 10
1044.1409959278
 20
391.7669778257
 30
0.0
 11
1044.1409959278
 21
390.7669778257
 31
0.0
  0
LINE
  5
3FB
330
1B
100
AcDbEntity
 67
     1
  8
7_ALL_FEATURES
  6
Continuous
 62
     3
100
AcDbLine
 10
1044.1409959278
 20
365.9669778257
 30
0.0
 11
1044.1409959278
 21
390.7669778257
 31
0.0
  0
LINE
  5
3FC
330
1B
100
AcDbEntity
 67
     1
  8
7_ALL_FEATURES
  6
Continuous
 62
     3
100
AcDbLine
 10
1044.1409959278
 20
364.7669778257
 30
0.0
 11
1044.1409959278
 21
365.7669778257
 31
0.0
  0
LINE
  5
3FD
330
1B
100
AcDbEntity
 67
     1
  8
7_ALL_FEATURES
  6
Continuous
 62
     3
100
AcDbLine
 10
1044.1409959278
 20
356.7669778257
 30
0.0
 11
1044.1409959278
 21
355.7669778257
 31
0.0
  0
LINE
  5
3FE
330
1B
100
AcDbEntity
 67
     1
  8
7_ALL_FEATURES
  6
Continuous
 62
     3
100
AcDbLine
 10
1044.1409959278
 20
348.7669778257
 30
0.0
 11
1044.1409959278
 21
349.4669778257
 31
0.0
  0
LINE
  5
3FF
330
1B
100
AcDbEntity
 67
     1
  8
7_ALL_FEATURES
  6
Continuous
 62
     3
100
AcDbLine
 10
1044.1409959278
 20
349.4669778257
 30
0.0
 11
1044.1409959278
 21
351.8669778257
 31
0.0
  0
LINE
  5
400
330
1B
100
AcDbEntity
 67
     1
  8
7_ALL_FEATURES
  6
Continuous
 62
     3
100
AcDbLine
 10
1044.1409959278
 20
351.8669778257
 30
0.0
 11
1044.1409959278
 21
355.5669778257
 31
0.0
  0
LINE
  5
401
330
1B
100
AcDbEntity
 67
     1
  8
3_ALL_AXES
  6
Continuous
 62
     7
100
AcDbLine
 10
314.4909959278
 20
227.8744656734
 30
0.0
 11
314.4909959278
 21
227.1685955029
 31
0.0
  0
LINE
  5
402
330
1B
100
AcDbEntity
 67
     1
  8
3_ALL_AXES
  6
Continuous
 62
     7
100
AcDbLine
 10
320.2909959278
 20
227.8744656734
 30
0.0
 11
320.2909959278
 21
227.1685955029
 31
0.0
  0
ARC
  5
403
330
1B
100
AcDbEntity
 67
     1
  8
3_ALL_AXES
  6
Continuous
 62
     7
100
AcDbCircle
 10
317.3909959278
 20
234.6244656734
 30
0.0
 40
8.0
100
AcDbArc
 50
248.7461908146
 51
270.0
  0
ARC
  5
404
330
1B
100
AcDbEntity
 67
     1
  8
3_ALL_AXES
  6
Continuous
 62
     7
100
AcDbCircle
 10
317.3909959278
 20
234.6244656734
 30
0.0
 40
8.0
100
AcDbArc
 50
270.0
 51
291.2538091854
  0
LINE
  5
405
330
1B
100
AcDbEntity
 67
     1
  8
3_ALL_AXES
  6
Continuous
 62
     7
100
AcDbLine
 10
314.4909959278
 20
227.1685955029
 30
0.0
 11
314.4909959278
 21
227.8744656734
 31
0.0
  0
LINE
  5
406
330
1B
100
AcDbEntity
 67
     1
  8
3_ALL_AXES
  6
Continuous
 62
     7
100
AcDbLine
 10
320.2909959278
 20
227.1685955029
 30
0.0
 11
320.2909959278
 21
227.8744656734
 31
0.0
  0
LINE
  5
407
330
1B
100
AcDbEntity
 67
     1
  8
3_ALL_AXES
  6
Continuous
 62
     7
100
AcDbLine
 10
314.4909959278
 20
227.1685955029
 30
0.0
 11
320.2909959278
 21
227.1685955029
 31
0.0
  0
LINE
  5
408
330
1B
100
AcDbEntity
 67
     1
  8
3_ALL_AXES
  6
Continuous
 62
     7
100
AcDbLine
 10
493.2409959278
 20
227.8744656734
 30
0.0
 11
493.2409959278
 21
227.1685955029
 31
0.0
  0
LINE
  5
409
330
1B
100
AcDbEntity
 67
     1
  8
3_ALL_AXES
  6
Continuous
 62
     7
100
AcDbLine
 10
499.0409959278
 20
227.8744656734
 30
0.0
 11
499.0409959278
 21
227.1685955029
 31
0.0
  0
ARC
  5
40A
330
1B
100
AcDbEntity
 67
     1
  8
3_ALL_AXES
  6
Continuous
 62
     7
100
AcDbCircle
 10
496.1409959278
 20
234.6244656734
 30
0.0
 40
8.0
100
AcDbArc
 50
248.7461908146
 51
270.0
  0
ARC
  5
40B
330
1B
100
AcDbEntity
 67
     1
  8
3_ALL_AXES
  6
Continuous
 62
     7
100
AcDbCircle
 10
496.1409959278
 20
234.6244656734
 30
0.0
 40
8.0
100
AcDbArc
 50
270.0
 51
291.2538091854
  0
LINE
  5
40C
330
1B
100
AcDbEntity
 67
     1
  8
3_ALL_AXES
  6
Continuous
 62
     7
100
AcDbLine
 10
493.2409959278
 20
227.1685955029
 30
0.0
 11
493.2409959278
 21
227.8744656734
 31
0.0
  0
LINE
  5
40D
330
1B
100
AcDbEntity
 67
     1
  8
3_ALL_AXES
  6
Continuous
 62
     7
100
AcDbLine
 10
499.0409959278
 20
227.1685955029
 30
0.0
 11
499.0409959278
 21
227.8744656734
 31
0.0
  0
LINE
  5
40E
330
1B
100
AcDbEntity
 67
     1
  8
3_ALL_AXES
  6
Continuous
 62
     7
100
AcDbLine
 10
493.2409959278
 20
227.1685955029
 30
0.0
 11
499.0409959278
 21
227.1685955029
 31
0.0
  0
LINE
  5
40F
330
1B
100
AcDbEntity
 67
     1
  8
3_ALL_AXES
  6
Continuous
 62
     7
100
AcDbLine
 10
578.2409959278
 20
227.8744656734
 30
0.0
 11
578.2409959278
 21
227.1685955029
 31
0.0
  0
LINE
  5
410
330
1B
100
AcDbEntity
 67
     1
  8
3_ALL_AXES
  6
Continuous
 62
     7
100
AcDbLine
 10
584.0409959278
 20
227.8744656734
 30
0.0
 11
584.0409959278
 21
227.1685955029
 31
0.0
  0
ARC
  5
411
330
1B
100
AcDbEntity
 67
     1
  8
3_ALL_AXES
  6
Continuous
 62
     7
100
AcDbCircle
 10
581.1409959278
 20
234.6244656734
 30
0.0
 40
8.0
100
AcDbArc
 50
248.7461908146
 51
270.0
  0
ARC
  5
412
330
1B
100
AcDbEntity
 67
     1
  8
3_ALL_AXES
  6
Continuous
 62
     7
100
AcDbCircle
 10
581.1409959278
 20
234.6244656734
 30
0.0
 40
8.0
100
AcDbArc
 50
270.0
 51
291.2538091854
  0
LINE
  5
413
330
1B
100
AcDbEntity
 67
     1
  8
3_ALL_AXES
  6
Continuous
 62
     7
100
AcDbLine
 10
578.2409959278
 20
227.1685955029
 30
0.0
 11
578.2409959278
 21
227.8744656734
 31
0.0
  0
LINE
  5
414
330
1B
100
AcDbEntity
 67
     1
  8
3_ALL_AXES
  6
Continuous
 62
     7
100
AcDbLine
 10
584.0409959278
 20
227.1685955029
 30
0.0
 11
584.0409959278
 21
227.8744656734
 31
0.0
  0
LINE
  5
415
330
1B
100
AcDbEntity
 67
     1
  8
3_ALL_AXES
  6
Continuous
 62
     7
100
AcDbLine
 10
578.2409959278
 20
227.1685955029
 30
0.0
 11
584.0409959278
 21
227.1685955029
 31
0.0
  0
LINE
  5
416
330
1B
100
AcDbEntity
 67
     1
  8
3_ALL_AXES
  6
Continuous
 62
     7
100
AcDbLine
 10
320.2909959278
 20
268.2744656734
 30
0.0
 11
320.2909959278
 21
268.980335844
 31
0.0
  0
LINE
  5
417
330
1B
100
AcDbEntity
 67
     1
  8
3_ALL_AXES
  6
Continuous
 62
     7
100
AcDbLine
 10
314.4909959278
 20
268.2744656734
 30
0.0
 11
314.4909959278
 21
268.980335844
 31
0.0
  0
ARC
  5
418
330
1B
100
AcDbEntity
 67
     1
  8
3_ALL_AXES
  6
Continuous
 62
     7
100
AcDbCircle
 10
317.3909959278
 20
261.5244656734
 30
0.0
 40
8.0
100
AcDbArc
 50
68.7461908146
 51
90.0
  0
ARC
  5
419
330
1B
100
AcDbEntity
 67
     1
  8
3_ALL_AXES
  6
Continuous
 62
     7
100
AcDbCircle
 10
317.3909959278
 20
261.5244656734
 30
0.0
 40
8.0
100
AcDbArc
 50
90.0
 51
111.2538091854
  0
LINE
  5
41A
330
1B
100
AcDbEntity
 67
     1
  8
3_ALL_AXES
  6
Continuous
 62
     7
100
AcDbLine
 10
320.2909959278
 20
268.980335844
 30
0.0
 11
320.2909959278
 21
268.2744656734
 31
0.0
  0
LINE
  5
41B
330
1B
100
AcDbEntity
 67
     1
  8
3_ALL_AXES
  6
Continuous
 62
     7
100
AcDbLine
 10
314.4909959278
 20
268.980335844
 30
0.0
 11
314.4909959278
 21
268.2744656734
 31
0.0
  0
LINE
  5
41C
330
1B
100
AcDbEntity
 67
     1
  8
3_ALL_AXES
  6
Continuous
 62
     7
100
AcDbLine
 10
320.2909959278
 20
268.980335844
 30
0.0
 11
314.4909959278
 21
268.980335844
 31
0.0
  0
LINE
  5
41D
330
1B
100
AcDbEntity
 67
     1
  8
3_ALL_AXES
  6
Continuous
 62
     7
100
AcDbLine
 10
499.0409959278
 20
268.2744656734
 30
0.0
 11
499.0409959278
 21
268.980335844
 31
0.0
  0
LINE
  5
41E
330
1B
100
AcDbEntity
 67
     1
  8
3_ALL_AXES
  6
Continuous
 62
     7
100
AcDbLine
 10
493.2409959278
 20
268.2744656734
 30
0.0
 11
493.2409959278
 21
268.980335844
 31
0.0
  0
ARC
  5
41F
330
1B
100
AcDbEntity
 67
     1
  8
3_ALL_AXES
  6
Continuous
 62
     7
100
AcDbCircle
 10
496.1409959278
 20
261.5244656734
 30
0.0
 40
8.0
100
AcDbArc
 50
68.7461908146
 51
90.0
  0
ARC
  5
420
330
1B
100
AcDbEntity
 67
     1
  8
3_ALL_AXES
  6
Continuous
 62
     7
100
AcDbCircle
 10
496.1409959278
 20
261.5244656734
 30
0.0
 40
8.0
100
AcDbArc
 50
90.0
 51
111.2538091854
  0
LINE
  5
421
330
1B
100
AcDbEntity
 67
     1
  8
3_ALL_AXES
  6
Continuous
 62
     7
100
AcDbLine
 10
499.0409959278
 20
268.980335844
 30
0.0
 11
499.0409959278
 21
268.2744656734
 31
0.0
  0
LINE
  5
422
330
1B
100
AcDbEntity
 67
     1
  8
3_ALL_AXES
  6
Continuous
 62
     7
100
AcDbLine
 10
493.2409959278
 20
268.980335844
 30
0.0
 11
493.2409959278
 21
268.2744656734
 31
0.0
  0
LINE
  5
423
330
1B
100
AcDbEntity
 67
     1
  8
3_ALL_AXES
  6
Continuous
 62
     7
100
AcDbLine
 10
499.0409959278
 20
268.980335844
 30
0.0
 11
493.2409959278
 21
268.980335844
 31
0.0
  0
LINE
  5
424
330
1B
100
AcDbEntity
 67
     1
  8
3_ALL_AXES
  6
Continuous
 62
     7
100
AcDbLine
 10
584.0409959278
 20
268.2744656734
 30
0.0
 11
584.0409959278
 21
268.980335844
 31
0.0
  0
LINE
  5
425
330
1B
100
AcDbEntity
 67
     1
  8
3_ALL_AXES
  6
Continuous
 62
     7
100
AcDbLine
 10
578.2409959278
 20
268.2744656734
 30
0.0
 11
578.2409959278
 21
268.980335844
 31
0.0
  0
ARC
  5
426
330
1B
100
AcDbEntity
 67
     1
  8
3_ALL_AXES
  6
Continuous
 62
     7
100
AcDbCircle
 10
581.1409959278
 20
261.5244656734
 30
0.0
 40
8.0
100
AcDbArc
 50
68.7461908146
 51
90.0
  0
ARC
  5
427
330
1B
100
AcDbEntity
 67
     1
  8
3_ALL_AXES
  6
Continuous
 62
     7
100
AcDbCircle
 10
581.1409959278
 20
261.5244656734
 30
0.0
 40
8.0
100
AcDbArc
 50
90.0
 51
111.2538091854
  0
LINE
  5
428
330
1B
100
AcDbEntity
 67
     1
  8
3_ALL_AXES
  6
Continuous
 62
     7
100
AcDbLine
 10
584.0409959278
 20
268.980335844
 30
0.0
 11
584.0409959278
 21
268.2744656734
 31
0.0
  0
LINE
  5
429
330
1B
100
AcDbEntity
 67
     1
  8
3_ALL_AXES
  6
Continuous
 62
     7
100
AcDbLine
 10
578.2409959278
 20
268.980335844
 30
0.0
 11
578.2409959278
 21
268.2744656734
 31
0.0
  0
LINE
  5
42A
330
1B
100
AcDbEntity
 67
     1
  8
3_ALL_AXES
  6
Continuous
 62
     7
100
AcDbLine
 10
584.0409959278
 20
268.980335844
 30
0.0
 11
578.2409959278
 21
268.980335844
 31
0.0
  0
LINE
  5
42B
330
1B
100
AcDbEntity
 67
     1
  8
3_ALL_AXES
  6
Continuous
 62
     7
100
AcDbLine
 10
141.5409959278
 20
268.2744656734
 30
0.0
 11
141.5409959278
 21
268.980335844
 31
0.0
  0
LINE
  5
42C
330
1B
100
AcDbEntity
 67
     1
  8
3_ALL_AXES
  6
Continuous
 62
     7
100
AcDbLine
 10
135.7409959278
 20
268.2744656734
 30
0.0
 11
135.7409959278
 21
268.980335844
 31
0.0
  0
ARC
  5
42D
330
1B
100
AcDbEntity
 67
     1
  8
3_ALL_AXES
  6
Continuous
 62
     7
100
AcDbCircle
 10
138.6409959278
 20
261.5244656734
 30
0.0
 40
8.0
100
AcDbArc
 50
68.7461908146
 51
90.0
  0
ARC
  5
42E
330
1B
100
AcDbEntity
 67
     1
  8
3_ALL_AXES
  6
Continuous
 62
     7
100
AcDbCircle
 10
138.6409959278
 20
261.5244656734
 30
0.0
 40
8.0
100
AcDbArc
 50
90.0
 51
111.2538091854
  0
LINE
  5
42F
330
1B
100
AcDbEntity
 67
     1
  8
3_ALL_AXES
  6
Continuous
 62
     7
100
AcDbLine
 10
141.5409959278
 20
268.980335844
 30
0.0
 11
141.5409959278
 21
268.2744656734
 31
0.0
  0
LINE
  5
430
330
1B
100
AcDbEntity
 67
     1
  8
3_ALL_AXES
  6
Continuous
 62
     7
100
AcDbLine
 10
135.7409959278
 20
268.980335844
 30
0.0
 11
135.7409959278
 21
268.2744656734
 31
0.0
  0
LINE
  5
431
330
1B
100
AcDbEntity
 67
     1
  8
3_ALL_AXES
  6
Continuous
 62
     7
100
AcDbLine
 10
141.5409959278
 20
268.980335844
 30
0.0
 11
135.7409959278
 21
268.980335844
 31
0.0
  0
LINE
  5
432
330
1B
100
AcDbEntity
 67
     1
  8
3_ALL_AXES
  6
Continuous
 62
     7
100
AcDbLine
 10
135.7409959278
 20
227.8744656734
 30
0.0
 11
135.7409959278
 21
227.1685955029
 31
0.0
  0
LINE
  5
433
330
1B
100
AcDbEntity
 67
     1
  8
3_ALL_AXES
  6
Continuous
 62
     7
100
AcDbLine
 10
141.5409959278
 20
227.8744656734
 30
0.0
 11
141.5409959278
 21
227.1685955029
 31
0.0
  0
ARC
  5
434
330
1B
100
AcDbEntity
 67
     1
  8
3_ALL_AXES
  6
Continuous
 62
     7
100
AcDbCircle
 10
138.6409959278
 20
234.6244656734
 30
0.0
 40
8.0
100
AcDbArc
 50
248.7461908146
 51
270.0
  0
ARC
  5
435
330
1B
100
AcDbEntity
 67
     1
  8
3_ALL_AXES
  6
Continuous
 62
     7
100
AcDbCircle
 10
138.6409959278
 20
234.6244656734
 30
0.0
 40
8.0
100
AcDbArc
 50
270.0
 51
291.2538091854
  0
LINE
  5
436
330
1B
100
AcDbEntity
 67
     1
  8
3_ALL_AXES
  6
Continuous
 62
     7
100
AcDbLine
 10
135.7409959278
 20
227.1685955029
 30
0.0
 11
135.7409959278
 21
227.8744656734
 31
0.0
  0
LINE
  5
437
330
1B
100
AcDbEntity
 67
     1
  8
3_ALL_AXES
  6
Continuous
 62
     7
100
AcDbLine
 10
141.5409959278
 20
227.1685955029
 30
0.0
 11
141.5409959278
 21
227.8744656734
 31
0.0
  0
LINE
  5
438
330
1B
100
AcDbEntity
 67
     1
  8
3_ALL_AXES
  6
Continuous
 62
     7
100
AcDbLine
 10
135.7409959278
 20
227.1685955029
 30
0.0
 11
141.5409959278
 21
227.1685955029
 31
0.0
  0
LINE
  5
439
330
1B
100
AcDbEntity
 67
     1
  8
3_ALL_AXES
  6
Continuous
 62
     7
100
AcDbLine
 10
50.7409959278
 20
227.8744656734
 30
0.0
 11
50.7409959278
 21
227.1685955029
 31
0.0
  0
LINE
  5
43A
330
1B
100
AcDbEntity
 67
     1
  8
3_ALL_AXES
  6
Continuous
 62
     7
100
AcDbLine
 10
56.5409959278
 20
227.8744656734
 30
0.0
 11
56.5409959278
 21
227.1685955029
 31
0.0
  0
ARC
  5
43B
330
1B
100
AcDbEntity
 67
     1
  8
3_ALL_AXES
  6
Continuous
 62
     7
100
AcDbCircle
 10
53.6409959278
 20
234.6244656734
 30
0.0
 40
8.0
100
AcDbArc
 50
248.7461908146
 51
270.0
  0
ARC
  5
43C
330
1B
100
AcDbEntity
 67
     1
  8
3_ALL_AXES
  6
Continuous
 62
     7
100
AcDbCircle
 10
53.6409959278
 20
234.6244656734
 30
0.0
 40
8.0
100
AcDbArc
 50
270.0
 51
291.2538091854
  0
LINE
  5
43D
330
1B
100
AcDbEntity
 67
     1
  8
3_ALL_AXES
  6
Continuous
 62
     7
100
AcDbLine
 10
50.7409959278
 20
227.1685955029
 30
0.0
 11
50.7409959278
 21
227.8744656734
 31
0.0
  0
LINE
  5
43E
330
1B
100
AcDbEntity
 67
     1
  8
3_ALL_AXES
  6
Continuous
 62
     7
100
AcDbLine
 10
56.5409959278
 20
227.1685955029
 30
0.0
 11
56.5409959278
 21
227.8744656734
 31
0.0
  0
LINE
  5
43F
330
1B
100
AcDbEntity
 67
     1
  8
3_ALL_AXES
  6
Continuous
 62
     7
100
AcDbLine
 10
50.7409959278
 20
227.1685955029
 30
0.0
 11
56.5409959278
 21
227.1685955029
 31
0.0
  0
LINE
  5
440
330
1B
100
AcDbEntity
 67
     1
  8
3_ALL_AXES
  6
Continuous
 62
     7
100
AcDbLine
 10
56.5409959278
 20
268.2744656734
 30
0.0
 11
56.5409959278
 21
268.980335844
 31
0.0
  0
LINE
  5
441
330
1B
100
AcDbEntity
 67
     1
  8
3_ALL_AXES
  6
Continuous
 62
     7
100
AcDbLine
 10
50.7409959278
 20
268.2744656734
 30
0.0
 11
50.7409959278
 21
268.980335844
 31
0.0
  0
ARC
  5
442
330
1B
100
AcDbEntity
 67
     1
  8
3_ALL_AXES
  6
Continuous
 62
     7
100
AcDbCircle
 10
53.6409959278
 20
261.5244656734
 30
0.0
 40
8.0
100
AcDbArc
 50
68.7461908146
 51
90.0
  0
ARC
  5
443
330
1B
100
AcDbEntity
 67
     1
  8
3_ALL_AXES
  6
Continuous
 62
     7
100
AcDbCircle
 10
53.6409959278
 20
261.5244656734
 30
0.0
 40
8.0
100
AcDbArc
 50
90.0
 51
111.2538091854
  0
LINE
  5
444
330
1B
100
AcDbEntity
 67
     1
  8
3_ALL_AXES
  6
Continuous
 62
     7
100
AcDbLine
 10
56.5409959278
 20
268.980335844
 30
0.0
 11
56.5409959278
 21
268.2744656734
 31
0.0
  0
LINE
  5
445
330
1B
100
AcDbEntity
 67
     1
  8
3_ALL_AXES
  6
Continuous
 62
     7
100
AcDbLine
 10
50.7409959278
 20
268.980335844
 30
0.0
 11
50.7409959278
 21
268.2744656734
 31
0.0
  0
LINE
  5
446
330
1B
100
AcDbEntity
 67
     1
  8
3_ALL_AXES
  6
Continuous
 62
     7
100
AcDbLine
 10
56.5409959278
 20
268.980335844
 30
0.0
 11
50.7409959278
 21
268.980335844
 31
0.0
  0
LINE
  5
447
330
1B
100
AcDbEntity
 67
     1
  8
3_ALL_AXES
  6
Continuous
 62
     7
100
AcDbLine
 10
762.7909959278
 20
268.2744656734
 30
0.0
 11
762.7909959278
 21
268.980335844
 31
0.0
  0
LINE
  5
448
330
1B
100
AcDbEntity
 67
     1
  8
3_ALL_AXES
  6
Continuous
 62
     7
100
AcDbLine
 10
756.9909959278
 20
268.2744656734
 30
0.0
 11
756.9909959278
 21
268.980335844
 31
0.0
  0
ARC
  5
449
330
1B
100
AcDbEntity
 67
     1
  8
3_ALL_AXES
  6
Continuous
 62
     7
100
AcDbCircle
 10
759.8909959278
 20
261.5244656734
 30
0.0
 40
8.0
100
AcDbArc
 50
68.7461908146
 51
90.0
  0
ARC
  5
44A
330
1B
100
AcDbEntity
 67
     1
  8
3_ALL_AXES
  6
Continuous
 62
     7
100
AcDbCircle
 10
759.8909959278
 20
261.5244656734
 30
0.0
 40
8.0
100
AcDbArc
 50
90.0
 51
111.2538091854
  0
LINE
  5
44B
330
1B
100
AcDbEntity
 67
     1
  8
3_ALL_AXES
  6
Continuous
 62
     7
100
AcDbLine
 10
762.7909959278
 20
268.980335844
 30
0.0
 11
762.7909959278
 21
268.2744656734
 31
0.0
  0
LINE
  5
44C
330
1B
100
AcDbEntity
 67
     1
  8
3_ALL_AXES
  6
Continuous
 62
     7
100
AcDbLine
 10
756.9909959278
 20
268.980335844
 30
0.0
 11
756.9909959278
 21
268.2744656734
 31
0.0
  0
LINE
  5
44D
330
1B
100
AcDbEntity
 67
     1
  8
3_ALL_AXES
  6
Continuous
 62
     7
100
AcDbLine
 10
762.7909959278
 20
268.980335844
 30
0.0
 11
756.9909959278
 21
268.980335844
 31
0.0
  0
LINE
  5
44E
330
1B
100
AcDbEntity
 67
     1
  8
3_ALL_AXES
  6
Continuous
 62
     7
100
AcDbLine
 10
941.5409959278
 20
268.2744656734
 30
0.0
 11
941.5409959278
 21
268.980335844
 31
0.0
  0
LINE
  5
44F
330
1B
100
AcDbEntity
 67
     1
  8
3_ALL_AXES
  6
Continuous
 62
     7
100
AcDbLine
 10
935.7409959278
 20
268.2744656734
 30
0.0
 11
935.7409959278
 21
268.980335844
 31
0.0
  0
ARC
  5
450
330
1B
100
AcDbEntity
 67
     1
  8
3_ALL_AXES
  6
Continuous
 62
     7
100
AcDbCircle
 10
938.6409959278
 20
261.5244656734
 30
0.0
 40
8.0
100
AcDbArc
 50
68.7461908146
 51
90.0
  0
ARC
  5
451
330
1B
100
AcDbEntity
 67
     1
  8
3_ALL_AXES
  6
Continuous
 62
     7
100
AcDbCircle
 10
938.6409959278
 20
261.5244656734
 30
0.0
 40
8.0
100
AcDbArc
 50
90.0
 51
111.2538091854
  0
LINE
  5
452
330
1B
100
AcDbEntity
 67
     1
  8
3_ALL_AXES
  6
Continuous
 62
     7
100
AcDbLine
 10
941.5409959278
 20
268.980335844
 30
0.0
 11
941.5409959278
 21
268.2744656734
 31
0.0
  0
LINE
  5
453
330
1B
100
AcDbEntity
 67
     1
  8
3_ALL_AXES
  6
Continuous
 62
     7
100
AcDbLine
 10
935.7409959278
 20
268.980335844
 30
0.0
 11
935.7409959278
 21
268.2744656734
 31
0.0
  0
LINE
  5
454
330
1B
100
AcDbEntity
 67
     1
  8
3_ALL_AXES
  6
Continuous
 62
     7
100
AcDbLine
 10
941.5409959278
 20
268.980335844
 30
0.0
 11
935.7409959278
 21
268.980335844
 31
0.0
  0
LINE
  5
455
330
1B
100
AcDbEntity
 67
     1
  8
3_ALL_AXES
  6
Continuous
 62
     7
100
AcDbLine
 10
1020.7409959278
 20
227.8744656734
 30
0.0
 11
1020.7409959278
 21
227.1685955029
 31
0.0
  0
LINE
  5
456
330
1B
100
AcDbEntity
 67
     1
  8
3_ALL_AXES
  6
Continuous
 62
     7
100
AcDbLine
 10
1026.5409959278
 20
227.8744656734
 30
0.0
 11
1026.5409959278
 21
227.1685955029
 31
0.0
  0
ARC
  5
457
330
1B
100
AcDbEntity
 67
     1
  8
3_ALL_AXES
  6
Continuous
 62
     7
100
AcDbCircle
 10
1023.6409959278
 20
234.6244656734
 30
0.0
 40
8.0
100
AcDbArc
 50
248.7461908146
 51
270.0
  0
ARC
  5
458
330
1B
100
AcDbEntity
 67
     1
  8
3_ALL_AXES
  6
Continuous
 62
     7
100
AcDbCircle
 10
1023.6409959278
 20
234.6244656734
 30
0.0
 40
8.0
100
AcDbArc
 50
270.0
 51
291.2538091854
  0
LINE
  5
459
330
1B
100
AcDbEntity
 67
     1
  8
3_ALL_AXES
  6
Continuous
 62
     7
100
AcDbLine
 10
1020.7409959278
 20
227.1685955029
 30
0.0
 11
1020.7409959278
 21
227.8744656734
 31
0.0
  0
LINE
  5
45A
330
1B
100
AcDbEntity
 67
     1
  8
3_ALL_AXES
  6
Continuous
 62
     7
100
AcDbLine
 10
1026.5409959278
 20
227.1685955029
 30
0.0
 11
1026.5409959278
 21
227.8744656734
 31
0.0
  0
LINE
  5
45B
330
1B
100
AcDbEntity
 67
     1
  8
3_ALL_AXES
  6
Continuous
 62
     7
100
AcDbLine
 10
1020.7409959278
 20
227.1685955029
 30
0.0
 11
1026.5409959278
 21
227.1685955029
 31
0.0
  0
LINE
  5
45C
330
1B
100
AcDbEntity
 67
     1
  8
3_ALL_AXES
  6
Continuous
 62
     7
100
AcDbLine
 10
935.7409959278
 20
227.8744656734
 30
0.0
 11
935.7409959278
 21
227.1685955029
 31
0.0
  0
LINE
  5
45D
330
1B
100
AcDbEntity
 67
     1
  8
3_ALL_AXES
  6
Continuous
 62
     7
100
AcDbLine
 10
941.5409959278
 20
227.8744656734
 30
0.0
 11
941.5409959278
 21
227.1685955029
 31
0.0
  0
ARC
  5
45E
330
1B
100
AcDbEntity
 67
     1
  8
3_ALL_AXES
  6
Continuous
 62
     7
100
AcDbCircle
 10
938.6409959278
 20
234.6244656734
 30
0.0
 40
8.0
100
AcDbArc
 50
248.7461908146
 51
270.0
  0
ARC
  5
45F
330
1B
100
AcDbEntity
 67
     1
  8
3_ALL_AXES
  6
Continuous
 62
     7
100
AcDbCircle
 10
938.6409959278
 20
234.6244656734
 30
0.0
 40
8.0
100
AcDbArc
 50
270.0
 51
291.2538091854
  0
LINE
  5
460
330
1B
100
AcDbEntity
 67
     1
  8
3_ALL_AXES
  6
Continuous
 62
     7
100
AcDbLine
 10
935.7409959278
 20
227.1685955029
 30
0.0
 11
935.7409959278
 21
227.8744656734
 31
0.0
  0
LINE
  5
461
330
1B
100
AcDbEntity
 67
     1
  8
3_ALL_AXES
  6
Continuous
 62
     7
100
AcDbLine
 10
941.5409959278
 20
227.1685955029
 30
0.0
 11
941.5409959278
 21
227.8744656734
 31
0.0
  0
LINE
  5
462
330
1B
100
AcDbEntity
 67
     1
  8
3_ALL_AXES
  6
Continuous
 62
     7
100
AcDbLine
 10
935.7409959278
 20
227.1685955029
 30
0.0
 11
941.5409959278
 21
227.1685955029
 31
0.0
  0
LINE
  5
463
330
1B
100
AcDbEntity
 67
     1
  8
3_ALL_AXES
  6
Continuous
 62
     7
100
AcDbLine
 10
756.9909959278
 20
227.8744656734
 30
0.0
 11
756.9909959278
 21
227.1685955029
 31
0.0
  0
LINE
  5
464
330
1B
100
AcDbEntity
 67
     1
  8
3_ALL_AXES
  6
Continuous
 62
     7
100
AcDbLine
 10
762.7909959278
 20
227.8744656734
 30
0.0
 11
762.7909959278
 21
227.1685955029
 31
0.0
  0
ARC
  5
465
330
1B
100
AcDbEntity
 67
     1
  8
3_ALL_AXES
  6
Continuous
 62
     7
100
AcDbCircle
 10
759.8909959278
 20
234.6244656734
 30
0.0
 40
8.0
100
AcDbArc
 50
248.7461908146
 51
270.0
  0
ARC
  5
466
330
1B
100
AcDbEntity
 67
     1
  8
3_ALL_AXES
  6
Continuous
 62
     7
100
AcDbCircle
 10
759.8909959278
 20
234.6244656734
 30
0.0
 40
8.0
100
AcDbArc
 50
270.0
 51
291.2538091854
  0
LINE
  5
467
330
1B
100
AcDbEntity
 67
     1
  8
3_ALL_AXES
  6
Continuous
 62
     7
100
AcDbLine
 10
756.9909959278
 20
227.1685955029
 30
0.0
 11
756.9909959278
 21
227.8744656734
 31
0.0
  0
LINE
  5
468
330
1B
100
AcDbEntity
 67
     1
  8
3_ALL_AXES
  6
Continuous
 62
     7
100
AcDbLine
 10
762.7909959278
 20
227.1685955029
 30
0.0
 11
762.7909959278
 21
227.8744656734
 31
0.0
  0
LINE
  5
469
330
1B
100
AcDbEntity
 67
     1
  8
3_ALL_AXES
  6
Continuous
 62
     7
100
AcDbLine
 10
756.9909959278
 20
227.1685955029
 30
0.0
 11
762.7909959278
 21
227.1685955029
 31
0.0
  0
LINE
  5
46A
330
1B
100
AcDbEntity
 67
     1
  8
3_ALL_AXES
  6
Continuous
 62
     7
100
AcDbLine
 10
1026.5409959278
 20
268.2744656734
 30
0.0
 11
1026.5409959278
 21
268.980335844
 31
0.0
  0
LINE
  5
46B
330
1B
100
AcDbEntity
 67
     1
  8
3_ALL_AXES
  6
Continuous
 62
     7
100
AcDbLine
 10
1020.7409959278
 20
268.2744656734
 30
0.0
 11
1020.7409959278
 21
268.980335844
 31
0.0
  0
ARC
  5
46C
330
1B
100
AcDbEntity
 67
     1
  8
3_ALL_AXES
  6
Continuous
 62
     7
100
AcDbCircle
 10
1023.6409959278
 20
261.5244656734
 30
0.0
 40
8.0
100
AcDbArc
 50
68.7461908146
 51
90.0
  0
ARC
  5
46D
330
1B
100
AcDbEntity
 67
     1
  8
3_ALL_AXES
  6
Continuous
 62
     7
100
AcDbCircle
 10
1023.6409959278
 20
261.5244656734
 30
0.0
 40
8.0
100
AcDbArc
 50
90.0
 51
111.2538091854
  0
LINE
  5
46E
330
1B
100
AcDbEntity
 67
     1
  8
3_ALL_AXES
  6
Continuous
 62
     7
100
AcDbLine
 10
1026.5409959278
 20
268.980335844
 30
0.0
 11
1026.5409959278
 21
268.2744656734
 31
0.0
  0
LINE
  5
46F
330
1B
100
AcDbEntity
 67
     1
  8
3_ALL_AXES
  6
Continuous
 62
     7
100
AcDbLine
 10
1020.7409959278
 20
268.980335844
 30
0.0
 11
1020.7409959278
 21
268.2744656734
 31
0.0
  0
LINE
  5
470
330
1B
100
AcDbEntity
 67
     1
  8
3_ALL_AXES
  6
Continuous
 62
     7
100
AcDbLine
 10
1026.5409959278
 20
268.980335844
 30
0.0
 11
1020.7409959278
 21
268.980335844
 31
0.0
  0
ARC
  5
471
330
1B
100
AcDbEntity
 67
     1
  8
3_ALL_AXES
  6
Continuous
 62
     7
100
AcDbCircle
 10
1036.5334387251
 20
227.6971057651
 30
0.0
 40
4.1
100
AcDbArc
 50
296.3930257743
 51
298.8426038472999
  0
ARC
  5
472
330
1B
100
AcDbEntity
 67
     1
  8
3_ALL_AXES
  6
Continuous
 62
     7
100
AcDbCircle
 10
1036.5334387251
 20
227.6971057651
 30
0.0
 40
4.1
100
AcDbArc
 50
298.8426038472999
 51
330.6871187969
  0
ARC
  5
473
330
1B
100
AcDbEntity
 67
     1
  8
3_ALL_AXES
  6
Continuous
 62
     7
100
AcDbCircle
 10
1036.5334387251
 20
227.6971057651
 30
0.0
 40
4.1
100
AcDbArc
 50
330.6871187969
 51
333.1366968699
  0
ARC
  5
474
330
1B
100
AcDbEntity
 67
     1
  8
3_ALL_AXES
  6
Continuous
 62
     7
100
AcDbCircle
 10
1036.2485531304
 20
227.6971057651
 30
0.0
 40
4.1
100
AcDbArc
 50
206.8633031301
 51
243.6069742257
  0
LINE
  5
475
330
1B
100
AcDbEntity
 67
     1
  8
3_ALL_AXES
  6
Continuous
 62
     7
100
AcDbLine
 10
1040.1909959278
 20
225.8444656734
 30
0.0
 11
1040.1909959278
 21
226.2244656734
 31
0.0
  0
LINE
  5
476
330
1B
100
AcDbEntity
 67
     1
  8
3_ALL_AXES
  6
Continuous
 62
     7
100
AcDbLine
 10
1032.5909959278
 20
225.8444656734
 30
0.0
 11
1032.5909959278
 21
226.2244656734
 31
0.0
  0
LINE
  5
477
330
1B
100
AcDbEntity
 67
     1
  8
7_ALL_FEATURES
  6
Continuous
 62
     7
100
AcDbLine
 10
1038.3909959278
 20
227.2244656734
 30
0.0
 11
1038.3909959278
 21
227.8744656734
 31
0.0
  0
LINE
  5
478
330
1B
100
AcDbEntity
 67
     1
  8
7_ALL_FEATURES
  6
Continuous
 62
     7
100
AcDbLine
 10
1034.3909959278
 20
227.2244656734
 30
0.0
 11
1034.3909959278
 21
227.8744656734
 31
0.0
  0
ARC
  5
479
330
1B
100
AcDbEntity
 67
     1
  8
3_ALL_AXES
  6
Continuous
 62
     7
100
AcDbCircle
 10
1036.5334387251
 20
227.6971057651
 30
0.0
 40
4.1
100
AcDbArc
 50
330.6871187969
 51
333.1366968699
  0
ARC
  5
47A
330
1B
100
AcDbEntity
 67
     1
  8
3_ALL_AXES
  6
Continuous
 62
     7
100
AcDbCircle
 10
1036.5334387251
 20
227.6971057651
 30
0.0
 40
4.1
100
AcDbArc
 50
298.8426038472999
 51
330.6871187969
  0
ARC
  5
47B
330
1B
100
AcDbEntity
 67
     1
  8
3_ALL_AXES
  6
Continuous
 62
     7
100
AcDbCircle
 10
1036.5334387251
 20
227.6971057651
 30
0.0
 40
4.1
100
AcDbArc
 50
296.3930257743
 51
298.8426038472999
  0
LINE
  5
47C
330
1B
100
AcDbEntity
 67
     1
  8
3_ALL_AXES
  6
Continuous
 62
     7
100
AcDbLine
 10
1038.3559959278
 20
224.0244656734
 30
0.0
 11
1037.8343716007
 21
224.0244656734
 31
0.0
  0
LINE
  5
47D
330
1B
100
AcDbEntity
 67
     1
  8
3_ALL_AXES
  6
Continuous
 62
     7
100
AcDbLine
 10
1037.8343716007
 20
224.0244656734
 30
0.0
 11
1037.1126837642
 21
224.0244656734
 31
0.0
  0
LINE
  5
47E
330
1B
100
AcDbEntity
 67
     1
  8
3_ALL_AXES
  6
Continuous
 62
     7
100
AcDbLine
 10
1037.1126837642
 20
224.0244656734
 30
0.0
 11
1035.6693080913
 21
224.0244656734
 31
0.0
  0
LINE
  5
47F
330
1B
100
AcDbEntity
 67
     1
  8
3_ALL_AXES
  6
Continuous
 62
     7
100
AcDbLine
 10
1035.6693080913
 20
224.0244656734
 30
0.0
 11
1034.9476202548
 21
224.0244656734
 31
0.0
  0
LINE
  5
480
330
1B
100
AcDbEntity
 67
     1
  8
3_ALL_AXES
  6
Continuous
 62
     7
100
AcDbLine
 10
1034.9476202548
 20
224.0244656734
 30
0.0
 11
1034.4259959278
 21
224.0244656734
 31
0.0
  0
LINE
  5
481
330
1B
100
AcDbEntity
 67
     1
  8
3_ALL_AXES
  6
Continuous
 62
     7
100
AcDbLine
 10
1040.1909959278
 20
226.2244656734
 30
0.0
 11
1040.1909959278
 21
225.8444656734
 31
0.0
  0
LINE
  5
482
330
1B
100
AcDbEntity
 67
     1
  8
3_ALL_AXES
  6
Continuous
 62
     7
100
AcDbLine
 10
1032.6409959278
 20
226.2244656734
 30
0.0
 11
1032.5909959278
 21
226.2244656734
 31
0.0
  0
LINE
  5
483
330
1B
100
AcDbEntity
 67
     1
  8
3_ALL_AXES
  6
Continuous
 62
     7
100
AcDbLine
 10
1038.3909959278
 20
227.8744656734
 30
0.0
 11
1038.3909959278
 21
227.2244656734
 31
0.0
  0
ARC
  5
484
330
1B
100
AcDbEntity
 67
     1
  8
3_ALL_AXES
  6
Continuous
 62
     7
100
AcDbCircle
 10
1036.2485531304
 20
227.6971057651
 30
0.0
 40
4.1
100
AcDbArc
 50
206.8633031301
 51
243.6069742257
  0
LINE
  5
485
330
1B
100
AcDbEntity
 67
     1
  8
3_ALL_AXES
  6
Continuous
 62
     7
100
AcDbLine
 10
1032.5909959278
 20
226.2244656734
 30
0.0
 11
1032.5909959278
 21
225.8444656734
 31
0.0
  0
LINE
  5
486
330
1B
100
AcDbEntity
 67
     1
  8
3_ALL_AXES
  6
Continuous
 62
     7
100
AcDbLine
 10
1034.3909959278
 20
227.8744656734
 30
0.0
 11
1034.3909959278
 21
227.2244656734
 31
0.0
  0
LINE
  5
487
330
1B
100
AcDbEntity
 67
     1
  8
3_ALL_AXES
  6
Continuous
 62
     7
100
AcDbLine
 10
1040.1909959278
 20
225.8444656734
 30
0.0
 11
1032.5909959278
 21
225.8444656734
 31
0.0
  0
ARC
  5
488
330
1B
100
AcDbEntity
 67
     1
  8
3_ALL_AXES
  6
Continuous
 62
     7
100
AcDbCircle
 10
1036.2485531304
 20
268.4518255817
 30
0.0
 40
4.1
100
AcDbArc
 50
116.3930257743
 51
118.8426038473
  0
ARC
  5
489
330
1B
100
AcDbEntity
 67
     1
  8
3_ALL_AXES
  6
Continuous
 62
     7
100
AcDbCircle
 10
1036.2485531304
 20
268.4518255817
 30
0.0
 40
4.1
100
AcDbArc
 50
118.8426038473
 51
150.6871187969
  0
ARC
  5
48A
330
1B
100
AcDbEntity
 67
     1
  8
3_ALL_AXES
  6
Continuous
 62
     7
100
AcDbCircle
 10
1036.2485531304
 20
268.4518255817
 30
0.0
 40
4.1
100
AcDbArc
 50
150.6871187969
 51
153.1366968699
  0
ARC
  5
48B
330
1B
100
AcDbEntity
 67
     1
  8
3_ALL_AXES
  6
Continuous
 62
     7
100
AcDbCircle
 10
1036.5334387251
 20
268.4518255817
 30
0.0
 40
4.1
100
AcDbArc
 50
26.8633031301
 51
63.6069742257
  0
LINE
  5
48C
330
1B
100
AcDbEntity
 67
     1
  8
3_ALL_AXES
  6
Continuous
 62
     7
100
AcDbLine
 10
1032.5909959278
 20
270.3044656734
 30
0.0
 11
1032.5909959278
 21
269.9244656734
 31
0.0
  0
LINE
  5
48D
330
1B
100
AcDbEntity
 67
     1
  8
3_ALL_AXES
  6
Continuous
 62
     7
100
AcDbLine
 10
1040.1909959278
 20
270.3044656734
 30
0.0
 11
1040.1909959278
 21
269.9244656734
 31
0.0
  0
LINE
  5
48E
330
1B
100
AcDbEntity
 67
     1
  8
7_ALL_FEATURES
  6
Continuous
 62
     7
100
AcDbLine
 10
1034.3909959278
 20
268.9244656734
 30
0.0
 11
1034.3909959278
 21
268.2744656734
 31
0.0
  0
LINE
  5
48F
330
1B
100
AcDbEntity
 67
     1
  8
7_ALL_FEATURES
  6
Continuous
 62
     7
100
AcDbLine
 10
1038.3909959278
 20
268.9244656734
 30
0.0
 11
1038.3909959278
 21
268.2744656734
 31
0.0
  0
ARC
  5
490
330
1B
100
AcDbEntity
 67
     1
  8
3_ALL_AXES
  6
Continuous
 62
     7
100
AcDbCircle
 10
1036.2485531304
 20
268.4518255817
 30
0.0
 40
4.1
100
AcDbArc
 50
150.6871187969
 51
153.1366968699
  0
ARC
  5
491
330
1B
100
AcDbEntity
 67
     1
  8
3_ALL_AXES
  6
Continuous
 62
     7
100
AcDbCircle
 10
1036.2485531304
 20
268.4518255817
 30
0.0
 40
4.1
100
AcDbArc
 50
118.8426038473
 51
150.6871187969
  0
ARC
  5
492
330
1B
100
AcDbEntity
 67
     1
  8
3_ALL_AXES
  6
Continuous
 62
     7
100
AcDbCircle
 10
1036.2485531304
 20
268.4518255817
 30
0.0
 40
4.1
100
AcDbArc
 50
116.3930257743
 51
118.8426038473
  0
LINE
  5
493
330
1B
100
AcDbEntity
 67
     1
  8
3_ALL_AXES
  6
Continuous
 62
     7
100
AcDbLine
 10
1034.4259959278
 20
272.1244656734
 30
0.0
 11
1034.9476202548
 21
272.1244656734
 31
0.0
  0
LINE
  5
494
330
1B
100
AcDbEntity
 67
     1
  8
3_ALL_AXES
  6
Continuous
 62
     7
100
AcDbLine
 10
1034.9476202548
 20
272.1244656734
 30
0.0
 11
1035.6693080913
 21
272.1244656734
 31
0.0
  0
LINE
  5
495
330
1B
100
AcDbEntity
 67
     1
  8
3_ALL_AXES
  6
Continuous
 62
     7
100
AcDbLine
 10
1035.6693080913
 20
272.1244656734
 30
0.0
 11
1037.1126837642
 21
272.1244656734
 31
0.0
  0
LINE
  5
496
330
1B
100
AcDbEntity
 67
     1
  8
3_ALL_AXES
  6
Continuous
 62
     7
100
AcDbLine
 10
1037.1126837642
 20
272.1244656734
 30
0.0
 11
1037.8343716007
 21
272.1244656734
 31
0.0
  0
LINE
  5
497
330
1B
100
AcDbEntity
 67
     1
  8
3_ALL_AXES
  6
Continuous
 62
     7
100
AcDbLine
 10
1037.8343716007
 20
272.1244656734
 30
0.0
 11
1038.3559959278
 21
272.1244656734
 31
0.0
  0
LINE
  5
498
330
1B
100
AcDbEntity
 67
     1
  8
3_ALL_AXES
  6
Continuous
 62
     7
100
AcDbLine
 10
1032.5909959278
 20
269.9244656734
 30
0.0
 11
1032.5909959278
 21
270.3044656734
 31
0.0
  0
LINE
  5
499
330
1B
100
AcDbEntity
 67
     1
  8
3_ALL_AXES
  6
Continuous
 62
     7
100
AcDbLine
 10
1032.5909959278
 20
269.9244656734
 30
0.0
 11
1032.6409959278
 21
269.9244656734
 31
0.0
  0
LINE
  5
49A
330
1B
100
AcDbEntity
 67
     1
  8
3_ALL_AXES
  6
Continuous
 62
     7
100
AcDbLine
 10
1034.3909959278
 20
268.2744656734
 30
0.0
 11
1034.3909959278
 21
268.9244656734
 31
0.0
  0
ARC
  5
49B
330
1B
100
AcDbEntity
 67
     1
  8
3_ALL_AXES
  6
Continuous
 62
     7
100
AcDbCircle
 10
1036.5334387251
 20
268.4518255817
 30
0.0
 40
4.1
100
AcDbArc
 50
26.8633031301
 51
63.6069742257
  0
LINE
  5
49C
330
1B
100
AcDbEntity
 67
     1
  8
3_ALL_AXES
  6
Continuous
 62
     7
100
AcDbLine
 10
1040.1909959278
 20
269.9244656734
 30
0.0
 11
1040.1909959278
 21
270.3044656734
 31
0.0
  0
LINE
  5
49D
330
1B
100
AcDbEntity
 67
     1
  8
3_ALL_AXES
  6
Continuous
 62
     7
100
AcDbLine
 10
1038.3909959278
 20
268.2744656734
 30
0.0
 11
1038.3909959278
 21
268.9244656734
 31
0.0
  0
LINE
  5
49E
330
1B
100
AcDbEntity
 67
     1
  8
3_ALL_AXES
  6
Continuous
 62
     7
100
AcDbLine
 10
1032.5909959278
 20
270.3044656734
 30
0.0
 11
1040.1909959278
 21
270.3044656734
 31
0.0
  0
ARC
  5
49F
330
1B
100
AcDbEntity
 67
     1
  8
3_ALL_AXES
  6
Continuous
 62
     7
100
AcDbCircle
 10
40.7485531304
 20
268.4518255817
 30
0.0
 40
4.1
100
AcDbArc
 50
116.3930257743
 51
118.8426038473
  0
ARC
  5
4A0
330
1B
100
AcDbEntity
 67
     1
  8
3_ALL_AXES
  6
Continuous
 62
     7
100
AcDbCircle
 10
40.7485531304
 20
268.4518255817
 30
0.0
 40
4.1
100
AcDbArc
 50
118.8426038473
 51
150.6871187969
  0
ARC
  5
4A1
330
1B
100
AcDbEntity
 67
     1
  8
3_ALL_AXES
  6
Continuous
 62
     7
100
AcDbCircle
 10
40.7485531304
 20
268.4518255817
 30
0.0
 40
4.1
100
AcDbArc
 50
150.6871187969
 51
153.1366968699
  0
ARC
  5
4A2
330
1B
100
AcDbEntity
 67
     1
  8
3_ALL_AXES
  6
Continuous
 62
     7
100
AcDbCircle
 10
41.0334387251
 20
268.4518255817
 30
0.0
 40
4.1
100
AcDbArc
 50
26.8633031301
 51
63.6069742257
  0
LINE
  5
4A3
330
1B
100
AcDbEntity
 67
     1
  8
3_ALL_AXES
  6
Continuous
 62
     7
100
AcDbLine
 10
37.0909959278
 20
270.3044656734
 30
0.0
 11
37.0909959278
 21
269.9244656734
 31
0.0
  0
LINE
  5
4A4
330
1B
100
AcDbEntity
 67
     1
  8
3_ALL_AXES
  6
Continuous
 62
     7
100
AcDbLine
 10
44.6909959278
 20
270.3044656734
 30
0.0
 11
44.6909959278
 21
269.9244656734
 31
0.0
  0
LINE
  5
4A5
330
1B
100
AcDbEntity
 67
     1
  8
7_ALL_FEATURES
  6
Continuous
 62
     7
100
AcDbLine
 10
38.8909959278
 20
268.9244656734
 30
0.0
 11
38.8909959278
 21
268.2744656734
 31
0.0
  0
LINE
  5
4A6
330
1B
100
AcDbEntity
 67
     1
  8
7_ALL_FEATURES
  6
Continuous
 62
     7
100
AcDbLine
 10
42.8909959278
 20
268.9244656734
 30
0.0
 11
42.8909959278
 21
268.2744656734
 31
0.0
  0
ARC
  5
4A7
330
1B
100
AcDbEntity
 67
     1
  8
3_ALL_AXES
  6
Continuous
 62
     7
100
AcDbCircle
 10
40.7485531304
 20
268.4518255817
 30
0.0
 40
4.1
100
AcDbArc
 50
150.6871187969
 51
153.1366968699
  0
ARC
  5
4A8
330
1B
100
AcDbEntity
 67
     1
  8
3_ALL_AXES
  6
Continuous
 62
     7
100
AcDbCircle
 10
40.7485531304
 20
268.4518255817
 30
0.0
 40
4.1
100
AcDbArc
 50
118.8426038473
 51
150.6871187969
  0
ARC
  5
4A9
330
1B
100
AcDbEntity
 67
     1
  8
3_ALL_AXES
  6
Continuous
 62
     7
100
AcDbCircle
 10
40.7485531304
 20
268.4518255817
 30
0.0
 40
4.1
100
AcDbArc
 50
116.3930257743
 51
118.8426038473
  0
LINE
  5
4AA
330
1B
100
AcDbEntity
 67
     1
  8
3_ALL_AXES
  6
Continuous
 62
     7
100
AcDbLine
 10
38.9259959278
 20
272.1244656734
 30
0.0
 11
39.4476202548
 21
272.1244656734
 31
0.0
  0
LINE
  5
4AB
330
1B
100
AcDbEntity
 67
     1
  8
3_ALL_AXES
  6
Continuous
 62
     7
100
AcDbLine
 10
39.4476202548
 20
272.1244656734
 30
0.0
 11
40.1693080913
 21
272.1244656734
 31
0.0
  0
LINE
  5
4AC
330
1B
100
AcDbEntity
 67
     1
  8
3_ALL_AXES
  6
Continuous
 62
     7
100
AcDbLine
 10
40.1693080913
 20
272.1244656734
 30
0.0
 11
41.6126837642
 21
272.1244656734
 31
0.0
  0
LINE
  5
4AD
330
1B
100
AcDbEntity
 67
     1
  8
3_ALL_AXES
  6
Continuous
 62
     7
100
AcDbLine
 10
41.6126837642
 20
272.1244656734
 30
0.0
 11
42.3343716007
 21
272.1244656734
 31
0.0
  0
LINE
  5
4AE
330
1B
100
AcDbEntity
 67
     1
  8
3_ALL_AXES
  6
Continuous
 62
     7
100
AcDbLine
 10
42.3343716007
 20
272.1244656734
 30
0.0
 11
42.8559959278
 21
272.1244656734
 31
0.0
  0
LINE
  5
4AF
330
1B
100
AcDbEntity
 67
     1
  8
3_ALL_AXES
  6
Continuous
 62
     7
100
AcDbLine
 10
37.0909959278
 20
269.9244656734
 30
0.0
 11
37.0909959278
 21
270.3044656734
 31
0.0
  0
LINE
  5
4B0
330
1B
100
AcDbEntity
 67
     1
  8
3_ALL_AXES
  6
Continuous
 62
     7
100
AcDbLine
 10
44.6409959278
 20
269.9244656734
 30
0.0
 11
44.6909959278
 21
269.9244656734
 31
0.0
  0
LINE
  5
4B1
330
1B
100
AcDbEntity
 67
     1
  8
3_ALL_AXES
  6
Continuous
 62
     7
100
AcDbLine
 10
38.8909959278
 20
268.2744656734
 30
0.0
 11
38.8909959278
 21
268.9244656734
 31
0.0
  0
ARC
  5
4B2
330
1B
100
AcDbEntity
 67
     1
  8
3_ALL_AXES
  6
Continuous
 62
     7
100
AcDbCircle
 10
41.0334387251
 20
268.4518255817
 30
0.0
 40
4.1
100
AcDbArc
 50
26.8633031301
 51
63.6069742257
  0
LINE
  5
4B3
330
1B
100
AcDbEntity
 67
     1
  8
3_ALL_AXES
  6
Continuous
 62
     7
100
AcDbLine
 10
44.6909959278
 20
269.9244656734
 30
0.0
 11
44.6909959278
 21
270.3044656734
 31
0.0
  0
LINE
  5
4B4
330
1B
100
AcDbEntity
 67
     1
  8
3_ALL_AXES
  6
Continuous
 62
     7
100
AcDbLine
 10
42.8909959278
 20
268.2744656734
 30
0.0
 11
42.8909959278
 21
268.9244656734
 31
0.0
  0
LINE
  5
4B5
330
1B
100
AcDbEntity
 67
     1
  8
3_ALL_AXES
  6
Continuous
 62
     7
100
AcDbLine
 10
37.0909959278
 20
270.3044656734
 30
0.0
 11
44.6909959278
 21
270.3044656734
 31
0.0
  0
ARC
  5
4B6
330
1B
100
AcDbEntity
 67
     1
  8
3_ALL_AXES
  6
Continuous
 62
     7
100
AcDbCircle
 10
41.0334387251
 20
227.6971057651
 30
0.0
 40
4.1
100
AcDbArc
 50
296.3930257743
 51
298.8426038472999
  0
ARC
  5
4B7
330
1B
100
AcDbEntity
 67
     1
  8
3_ALL_AXES
  6
Continuous
 62
     7
100
AcDbCircle
 10
41.0334387251
 20
227.6971057651
 30
0.0
 40
4.1
100
AcDbArc
 50
298.8426038472999
 51
330.6871187969
  0
ARC
  5
4B8
330
1B
100
AcDbEntity
 67
     1
  8
3_ALL_AXES
  6
Continuous
 62
     7
100
AcDbCircle
 10
41.0334387251
 20
227.6971057651
 30
0.0
 40
4.1
100
AcDbArc
 50
330.6871187969
 51
333.1366968699
  0
ARC
  5
4B9
330
1B
100
AcDbEntity
 67
     1
  8
3_ALL_AXES
  6
Continuous
 62
     7
100
AcDbCircle
 10
40.7485531304
 20
227.6971057651
 30
0.0
 40
4.1
100
AcDbArc
 50
206.8633031301
 51
243.6069742257
  0
LINE
  5
4BA
330
1B
100
AcDbEntity
 67
     1
  8
3_ALL_AXES
  6
Continuous
 62
     7
100
AcDbLine
 10
44.6909959278
 20
225.8444656734
 30
0.0
 11
44.6909959278
 21
226.2244656734
 31
0.0
  0
LINE
  5
4BB
330
1B
100
AcDbEntity
 67
     1
  8
3_ALL_AXES
  6
Continuous
 62
     7
100
AcDbLine
 10
37.0909959278
 20
225.8444656734
 30
0.0
 11
37.0909959278
 21
226.2244656734
 31
0.0
  0
LINE
  5
4BC
330
1B
100
AcDbEntity
 67
     1
  8
7_ALL_FEATURES
  6
Continuous
 62
     7
100
AcDbLine
 10
42.8909959278
 20
227.2244656734
 30
0.0
 11
42.8909959278
 21
227.8744656734
 31
0.0
  0
LINE
  5
4BD
330
1B
100
AcDbEntity
 67
     1
  8
7_ALL_FEATURES
  6
Continuous
 62
     7
100
AcDbLine
 10
38.8909959278
 20
227.2244656734
 30
0.0
 11
38.8909959278
 21
227.8744656734
 31
0.0
  0
ARC
  5
4BE
330
1B
100
AcDbEntity
 67
     1
  8
3_ALL_AXES
  6
Continuous
 62
     7
100
AcDbCircle
 10
41.0334387251
 20
227.6971057651
 30
0.0
 40
4.1
100
AcDbArc
 50
330.6871187969
 51
333.1366968699
  0
ARC
  5
4BF
330
1B
100
AcDbEntity
 67
     1
  8
3_ALL_AXES
  6
Continuous
 62
     7
100
AcDbCircle
 10
41.0334387251
 20
227.6971057651
 30
0.0
 40
4.1
100
AcDbArc
 50
298.8426038472999
 51
330.6871187969
  0
ARC
  5
4C0
330
1B
100
AcDbEntity
 67
     1
  8
3_ALL_AXES
  6
Continuous
 62
     7
100
AcDbCircle
 10
41.0334387251
 20
227.6971057651
 30
0.0
 40
4.1
100
AcDbArc
 50
296.3930257743
 51
298.8426038472999
  0
LINE
  5
4C1
330
1B
100
AcDbEntity
 67
     1
  8
3_ALL_AXES
  6
Continuous
 62
     7
100
AcDbLine
 10
42.8559959278
 20
224.0244656734
 30
0.0
 11
42.3343716007
 21
224.0244656734
 31
0.0
  0
LINE
  5
4C2
330
1B
100
AcDbEntity
 67
     1
  8
3_ALL_AXES
  6
Continuous
 62
     7
100
AcDbLine
 10
42.3343716007
 20
224.0244656734
 30
0.0
 11
41.6126837642
 21
224.0244656734
 31
0.0
  0
LINE
  5
4C3
330
1B
100
AcDbEntity
 67
     1
  8
3_ALL_AXES
  6
Continuous
 62
     7
100
AcDbLine
 10
41.6126837642
 20
224.0244656734
 30
0.0
 11
40.1693080913
 21
224.0244656734
 31
0.0
  0
LINE
  5
4C4
330
1B
100
AcDbEntity
 67
     1
  8
3_ALL_AXES
  6
Continuous
 62
     7
100
AcDbLine
 10
40.1693080913
 20
224.0244656734
 30
0.0
 11
39.4476202548
 21
224.0244656734
 31
0.0
  0
LINE
  5
4C5
330
1B
100
AcDbEntity
 67
     1
  8
3_ALL_AXES
  6
Continuous
 62
     7
100
AcDbLine
 10
39.4476202548
 20
224.0244656734
 30
0.0
 11
38.9259959278
 21
224.0244656734
 31
0.0
  0
LINE
  5
4C6
330
1B
100
AcDbEntity
 67
     1
  8
3_ALL_AXES
  6
Continuous
 62
     7
100
AcDbLine
 10
44.6909959278
 20
226.2244656734
 30
0.0
 11
44.6909959278
 21
225.8444656734
 31
0.0
  0
LINE
  5
4C7
330
1B
100
AcDbEntity
 67
     1
  8
3_ALL_AXES
  6
Continuous
 62
     7
100
AcDbLine
 10
44.6909959278
 20
226.2244656734
 30
0.0
 11
44.6409959278
 21
226.2244656734
 31
0.0
  0
LINE
  5
4C8
330
1B
100
AcDbEntity
 67
     1
  8
3_ALL_AXES
  6
Continuous
 62
     7
100
AcDbLine
 10
42.8909959278
 20
227.8744656734
 30
0.0
 11
42.8909959278
 21
227.2244656734
 31
0.0
  0
ARC
  5
4C9
330
1B
100
AcDbEntity
 67
     1
  8
3_ALL_AXES
  6
Continuous
 62
     7
100
AcDbCircle
 10
40.7485531304
 20
227.6971057651
 30
0.0
 40
4.1
100
AcDbArc
 50
206.8633031301
 51
243.6069742257
  0
LINE
  5
4CA
330
1B
100
AcDbEntity
 67
     1
  8
3_ALL_AXES
  6
Continuous
 62
     7
100
AcDbLine
 10
37.0909959278
 20
226.2244656734
 30
0.0
 11
37.0909959278
 21
225.8444656734
 31
0.0
  0
LINE
  5
4CB
330
1B
100
AcDbEntity
 67
     1
  8
3_ALL_AXES
  6
Continuous
 62
     7
100
AcDbLine
 10
38.8909959278
 20
227.8744656734
 30
0.0
 11
38.8909959278
 21
227.2244656734
 31
0.0
  0
LINE
  5
4CC
330
1B
100
AcDbEntity
 67
     1
  8
3_ALL_AXES
  6
Continuous
 62
     7
100
AcDbLine
 10
44.6909959278
 20
225.8444656734
 30
0.0
 11
37.0909959278
 21
225.8444656734
 31
0.0
  0
LINE
  5
4CD
330
1B
100
AcDbEntity
 67
     1
  8
7_ALL_FEATURES
  6
Continuous
 62
     7
100
AcDbLine
 10
1032.6409959278
 20
268.9244656734
 30
0.0
 11
1032.6409959278
 21
269.9244656734
 31
0.0
  0
LINE
  5
4CE
330
1B
100
AcDbEntity
 67
     1
  8
7_ALL_FEATURES
  6
Continuous
 62
     7
100
AcDbLine
 10
1032.6409959278
 20
227.2244656734
 30
0.0
 11
1032.6409959278
 21
226.2244656734
 31
0.0
  0
LINE
  5
4CF
330
1B
100
AcDbEntity
 67
     1
  8
7_ALL_FEATURES
  6
Continuous
 62
     7
100
AcDbLine
 10
1033.6409959278
 20
269.9244656734
 30
0.0
 11
1043.1409959278
 21
269.9244656734
 31
0.0
  0
ARC
  5
4D0
330
1B
100
AcDbEntity
 67
     1
  8
7_ALL_FEATURES
  6
Continuous
 62
     7
100
AcDbCircle
 10
1043.1409959278
 20
267.9244656734
 30
0.0
 40
2.0
100
AcDbArc
 50
10.0792345963
 51
13.9331436567
  0
ARC
  5
4D1
330
1B
100
AcDbEntity
 67
     1
  8
7_ALL_FEATURES
  6
Continuous
 62
     7
100
AcDbCircle
 10
1043.1409959278
 20
267.9244656734
 30
0.0
 40
2.0
100
AcDbArc
 50
13.9331436567
 51
90.0
  0
LINE
  5
4D2
330
1B
100
AcDbEntity
 67
     1
  8
7_ALL_FEATURES
  6
Continuous
 62
     7
100
AcDbLine
 10
1033.6409959278
 20
226.2244656734
 30
0.0
 11
1032.6409959278
 21
226.2244656734
 31
0.0
  0
LINE
  5
4D3
330
1B
100
AcDbEntity
 67
     1
  8
7_ALL_FEATURES
  6
Continuous
 62
     7
100
AcDbLine
 10
1043.1409959278
 20
226.2244656734
 30
0.0
 11
1033.6409959278
 21
226.2244656734
 31
0.0
  0
ARC
  5
4D4
330
1B
100
AcDbEntity
 67
     1
  8
7_ALL_FEATURES
  6
Continuous
 62
     7
100
AcDbCircle
 10
1043.1409959278
 20
228.2244656734
 30
0.0
 40
2.0
100
AcDbArc
 50
270.0
 51
346.0668563433
  0
ARC
  5
4D5
330
1B
100
AcDbEntity
 67
     1
  8
7_ALL_FEATURES
  6
Continuous
 62
     7
100
AcDbCircle
 10
1043.1409959278
 20
228.2244656734
 30
0.0
 40
2.0
100
AcDbArc
 50
346.0668563433
 51
349.9207654037
  0
LINE
  5
4D6
330
1B
100
AcDbEntity
 67
     1
  8
7_ALL_FEATURES
  6
Continuous
 62
     7
100
AcDbLine
 10
1045.1409959278
 20
268.2744656734
 30
0.0
 11
1044.1409959278
 21
268.2744656734
 31
0.0
  0
LINE
  5
4D7
330
1B
100
AcDbEntity
 67
     1
  8
7_ALL_FEATURES
  6
Continuous
 62
     7
100
AcDbLine
 10
1045.1409959278
 20
227.8744656734
 30
0.0
 11
1044.1409959278
 21
227.8744656734
 31
0.0
  0
LINE
  5
4D8
330
1B
100
AcDbEntity
 67
     1
  8
7_ALL_FEATURES
  6
Continuous
 62
     7
100
AcDbLine
 10
1045.1409959278
 20
228.3744656734
 30
0.0
 11
1045.1409959278
 21
227.8744656734
 31
0.0
  0
LINE
  5
4D9
330
1B
100
AcDbEntity
 67
     1
  8
7_ALL_FEATURES
  6
Continuous
 62
     7
100
AcDbLine
 10
1045.1409959278
 20
228.3744656734
 30
0.0
 11
1045.1409959278
 21
267.7744656734
 31
0.0
  0
LINE
  5
4DA
330
1B
100
AcDbEntity
 67
     1
  8
7_ALL_FEATURES
  6
Continuous
 62
     7
100
AcDbLine
 10
1045.1409959278
 20
268.2744656734
 30
0.0
 11
1045.1409959278
 21
267.7744656734
 31
0.0
  0
LINE
  5
4DB
330
1B
100
AcDbEntity
 67
     1
  8
7_ALL_FEATURES
  6
Continuous
 62
     7
100
AcDbLine
 10
1032.6409959278
 20
268.9244656734
 30
0.0
 11
1032.6409959278
 21
269.9244656734
 31
0.0
  0
LINE
  5
4DC
330
1B
100
AcDbEntity
 67
     1
  8
7_ALL_FEATURES
  6
Continuous
 62
     7
100
AcDbLine
 10
1032.6409959278
 20
269.9244656734
 30
0.0
 11
1033.6409959278
 21
269.9244656734
 31
0.0
  0
LINE
  5
4DD
330
1B
100
AcDbEntity
 67
     1
  8
7_ALL_FEATURES
  6
Continuous
 62
     7
100
AcDbLine
 10
1045.1409959278
 20
227.8744656734
 30
0.0
 11
1044.1409959278
 21
227.8744656734
 31
0.0
  0
LINE
  5
4DE
330
1B
100
AcDbEntity
 67
     1
  8
7_ALL_FEATURES
  6
Continuous
 62
     9
100
AcDbLine
 10
1045.0821506386
 20
227.7428866161
 30
0.0
 11
1044.5517801769
 21
227.8744656734
 31
0.0
  0
LINE
  5
4DF
330
1B
100
AcDbEntity
 67
     1
  8
7_ALL_FEATURES
  6
Continuous
 62
     9
100
AcDbLine
 10
1043.1409959278
 20
226.2244656734
 30
0.0
 11
1043.1409959278
 21
227.2244656734
 31
0.0
  0
LINE
  5
4E0
330
1B
100
AcDbEntity
 67
     1
  8
7_ALL_FEATURES
  6
Continuous
 62
     9
100
AcDbLine
 10
1045.1409959278
 20
267.7744656734
 30
0.0
 11
1044.1409959278
 21
267.7744656734
 31
0.0
  0
LINE
  5
4E1
330
1B
100
AcDbEntity
 67
     1
  8
7_ALL_FEATURES
  6
Continuous
 62
     9
100
AcDbLine
 10
1045.1409959278
 20
228.3744656734
 30
0.0
 11
1044.1409959278
 21
228.3744656734
 31
0.0
  0
LINE
  5
4E2
330
1B
100
AcDbEntity
 67
     1
  8
7_ALL_FEATURES
  6
Continuous
 62
     9
100
AcDbLine
 10
1033.6409959278
 20
268.9244656734
 30
0.0
 11
1033.6409959278
 21
269.9244656734
 31
0.0
  0
LINE
  5
4E3
330
1B
100
AcDbEntity
 67
     1
  8
7_ALL_FEATURES
  6
Continuous
 62
     9
100
AcDbLine
 10
1043.1409959278
 20
269.9244656734
 30
0.0
 11
1043.1409959278
 21
268.9244656734
 31
0.0
  0
LINE
  5
4E4
330
1B
100
AcDbEntity
 67
     1
  8
7_ALL_FEATURES
  6
Continuous
 62
     9
100
AcDbLine
 10
1045.0821506386
 20
268.4060447308
 30
0.0
 11
1044.5517801769
 21
268.2744656734
 31
0.0
  0
LINE
  5
4E5
330
1B
100
AcDbEntity
 67
     1
  8
7_ALL_FEATURES
  6
Continuous
 62
     9
100
AcDbLine
 10
1033.6409959278
 20
227.2244656734
 30
0.0
 11
1033.6409959278
 21
226.2244656734
 31
0.0
  0
LINE
  5
4E6
330
1B
100
AcDbEntity
 67
     1
  8
7_ALL_FEATURES
  6
Continuous
 62
     7
100
AcDbLine
 10
44.6409959278
 20
227.2244656734
 30
0.0
 11
44.6409959278
 21
226.2244656734
 31
0.0
  0
LINE
  5
4E7
330
1B
100
AcDbEntity
 67
     1
  8
7_ALL_FEATURES
  6
Continuous
 62
     7
100
AcDbLine
 10
44.6409959278
 20
268.9244656734
 30
0.0
 11
44.6409959278
 21
269.9244656734
 31
0.0
  0
LINE
  5
4E8
330
1B
100
AcDbEntity
 67
     1
  8
7_ALL_FEATURES
  6
Continuous
 62
     7
100
AcDbLine
 10
43.6409959278
 20
226.2244656734
 30
0.0
 11
34.1409959278
 21
226.2244656734
 31
0.0
  0
ARC
  5
4E9
330
1B
100
AcDbEntity
 67
     1
  8
7_ALL_FEATURES
  6
Continuous
 62
     7
100
AcDbCircle
 10
34.1409959278
 20
228.2244656734
 30
0.0
 40
2.0
100
AcDbArc
 50
190.0792345963
 51
193.9331436567
  0
ARC
  5
4EA
330
1B
100
AcDbEntity
 67
     1
  8
7_ALL_FEATURES
  6
Continuous
 62
     7
100
AcDbCircle
 10
34.1409959278
 20
228.2244656734
 30
0.0
 40
2.0
100
AcDbArc
 50
193.9331436567
 51
270.0
  0
LINE
  5
4EB
330
1B
100
AcDbEntity
 67
     1
  8
7_ALL_FEATURES
  6
Continuous
 62
     7
100
AcDbLine
 10
43.6409959278
 20
269.9244656734
 30
0.0
 11
44.6409959278
 21
269.9244656734
 31
0.0
  0
LINE
  5
4EC
330
1B
100
AcDbEntity
 67
     1
  8
7_ALL_FEATURES
  6
Continuous
 62
     7
100
AcDbLine
 10
34.1409959278
 20
269.9244656734
 30
0.0
 11
43.6409959278
 21
269.9244656734
 31
0.0
  0
ARC
  5
4ED
330
1B
100
AcDbEntity
 67
     1
  8
7_ALL_FEATURES
  6
Continuous
 62
     7
100
AcDbCircle
 10
34.1409959278
 20
267.9244656734
 30
0.0
 40
2.0
100
AcDbArc
 50
90.0
 51
166.0668563433
  0
ARC
  5
4EE
330
1B
100
AcDbEntity
 67
     1
  8
7_ALL_FEATURES
  6
Continuous
 62
     7
100
AcDbCircle
 10
34.1409959278
 20
267.9244656734
 30
0.0
 40
2.0
100
AcDbArc
 50
166.0668563433
 51
169.9207654037
  0
LINE
  5
4EF
330
1B
100
AcDbEntity
 67
     1
  8
7_ALL_FEATURES
  6
Continuous
 62
     7
100
AcDbLine
 10
32.1409959278
 20
227.8744656734
 30
0.0
 11
33.1409959278
 21
227.8744656734
 31
0.0
  0
LINE
  5
4F0
330
1B
100
AcDbEntity
 67
     1
  8
7_ALL_FEATURES
  6
Continuous
 62
     7
100
AcDbLine
 10
32.1409959278
 20
268.2744656734
 30
0.0
 11
33.1409959278
 21
268.2744656734
 31
0.0
  0
LINE
  5
4F1
330
1B
100
AcDbEntity
 67
     1
  8
7_ALL_FEATURES
  6
Continuous
 62
     7
100
AcDbLine
 10
32.1409959278
 20
267.7744656734
 30
0.0
 11
32.1409959278
 21
268.2744656734
 31
0.0
  0
LINE
  5
4F2
330
1B
100
AcDbEntity
 67
     1
  8
7_ALL_FEATURES
  6
Continuous
 62
     7
100
AcDbLine
 10
32.1409959278
 20
267.7744656734
 30
0.0
 11
32.1409959278
 21
228.3744656734
 31
0.0
  0
LINE
  5
4F3
330
1B
100
AcDbEntity
 67
     1
  8
7_ALL_FEATURES
  6
Continuous
 62
     7
100
AcDbLine
 10
32.1409959278
 20
227.8744656734
 30
0.0
 11
32.1409959278
 21
228.3744656734
 31
0.0
  0
LINE
  5
4F4
330
1B
100
AcDbEntity
 67
     1
  8
7_ALL_FEATURES
  6
Continuous
 62
     7
100
AcDbLine
 10
44.6409959278
 20
227.2244656734
 30
0.0
 11
44.6409959278
 21
226.2244656734
 31
0.0
  0
LINE
  5
4F5
330
1B
100
AcDbEntity
 67
     1
  8
7_ALL_FEATURES
  6
Continuous
 62
     7
100
AcDbLine
 10
44.6409959278
 20
226.2244656734
 30
0.0
 11
43.6409959278
 21
226.2244656734
 31
0.0
  0
LINE
  5
4F6
330
1B
100
AcDbEntity
 67
     1
  8
7_ALL_FEATURES
  6
Continuous
 62
     7
100
AcDbLine
 10
32.1409959278
 20
268.2744656734
 30
0.0
 11
33.1409959278
 21
268.2744656734
 31
0.0
  0
LINE
  5
4F7
330
1B
100
AcDbEntity
 67
     1
  8
7_ALL_FEATURES
  6
Continuous
 62
     9
100
AcDbLine
 10
32.1998412169
 20
268.4060447308
 30
0.0
 11
32.7302116786
 21
268.2744656734
 31
0.0
  0
LINE
  5
4F8
330
1B
100
AcDbEntity
 67
     1
  8
7_ALL_FEATURES
  6
Continuous
 62
     9
100
AcDbLine
 10
34.1409959278
 20
269.9244656734
 30
0.0
 11
34.1409959278
 21
268.9244656734
 31
0.0
  0
LINE
  5
4F9
330
1B
100
AcDbEntity
 67
     1
  8
7_ALL_FEATURES
  6
Continuous
 62
     9
100
AcDbLine
 10
32.1409959278
 20
228.3744656734
 30
0.0
 11
33.1409959278
 21
228.3744656734
 31
0.0
  0
LINE
  5
4FA
330
1B
100
AcDbEntity
 67
     1
  8
7_ALL_FEATURES
  6
Continuous
 62
     9
100
AcDbLine
 10
32.1409959278
 20
267.7744656734
 30
0.0
 11
33.1409959278
 21
267.7744656734
 31
0.0
  0
LINE
  5
4FB
330
1B
100
AcDbEntity
 67
     1
  8
7_ALL_FEATURES
  6
Continuous
 62
     9
100
AcDbLine
 10
43.6409959278
 20
227.2244656734
 30
0.0
 11
43.6409959278
 21
226.2244656734
 31
0.0
  0
LINE
  5
4FC
330
1B
100
AcDbEntity
 67
     1
  8
7_ALL_FEATURES
  6
Continuous
 62
     9
100
AcDbLine
 10
34.1409959278
 20
226.2244656734
 30
0.0
 11
34.1409959278
 21
227.2244656734
 31
0.0
  0
LINE
  5
4FD
330
1B
100
AcDbEntity
 67
     1
  8
7_ALL_FEATURES
  6
Continuous
 62
     9
100
AcDbLine
 10
32.1998412169
 20
227.7428866161
 30
0.0
 11
32.7302116786
 21
227.8744656734
 31
0.0
  0
LINE
  5
4FE
330
1B
100
AcDbEntity
 67
     1
  8
7_ALL_FEATURES
  6
Continuous
 62
     9
100
AcDbLine
 10
43.6409959278
 20
268.9244656734
 30
0.0
 11
43.6409959278
 21
269.9244656734
 31
0.0
  0
LINE
  5
4FF
330
1B
100
AcDbEntity
 67
     1
  8
7_ALL_FEATURES
  6
Continuous
 62
     7
100
AcDbLine
 10
1044.1409959278
 20
227.8744656734
 30
0.0
 11
33.1409959278
 21
227.8744656734
 31
0.0
  0
LINE
  5
500
330
1B
100
AcDbEntity
 67
     1
  8
7_ALL_FEATURES
  6
Continuous
 62
     7
100
AcDbLine
 10
1044.1409959278
 20
268.2744656734
 30
0.0
 11
33.1409959278
 21
268.2744656734
 31
0.0
  0
LINE
  5
501
330
1B
100
AcDbEntity
 67
     1
  8
7_ALL_FEATURES
  6
Continuous
 62
     7
100
AcDbLine
 10
33.1409959278
 20
227.8744656734
 30
0.0
 11
33.1409959278
 21
228.3744656734
 31
0.0
  0
LINE
  5
502
330
1B
100
AcDbEntity
 67
     1
  8
7_ALL_FEATURES
  6
Continuous
 62
     7
100
AcDbLine
 10
33.1409959278
 20
228.3744656734
 30
0.0
 11
33.1409959278
 21
229.0744656734
 31
0.0
  0
LINE
  5
503
330
1B
100
AcDbEntity
 67
     1
  8
7_ALL_FEATURES
  6
Continuous
 62
     7
100
AcDbLine
 10
1044.1409959278
 20
227.8744656734
 30
0.0
 11
1044.1409959278
 21
228.3744656734
 31
0.0
  0
LINE
  5
504
330
1B
100
AcDbEntity
 67
     1
  8
7_ALL_FEATURES
  6
Continuous
 62
     7
100
AcDbLine
 10
1044.1409959278
 20
228.3744656734
 30
0.0
 11
1044.1409959278
 21
229.0744656734
 31
0.0
  0
LINE
  5
505
330
1B
100
AcDbEntity
 67
     1
  8
7_ALL_FEATURES
  6
Continuous
 62
     7
100
AcDbLine
 10
1044.1409959278
 20
267.0744656734
 30
0.0
 11
1044.1409959278
 21
267.7744656734
 31
0.0
  0
LINE
  5
506
330
1B
100
AcDbEntity
 67
     1
  8
7_ALL_FEATURES
  6
Continuous
 62
     7
100
AcDbLine
 10
1044.1409959278
 20
267.7744656734
 30
0.0
 11
1044.1409959278
 21
268.2744656734
 31
0.0
  0
LINE
  5
507
330
1B
100
AcDbEntity
 67
     1
  8
7_ALL_FEATURES
  6
Continuous
 62
     7
100
AcDbLine
 10
33.1409959278
 20
267.0744656734
 30
0.0
 11
33.1409959278
 21
267.7744656734
 31
0.0
  0
LINE
  5
508
330
1B
100
AcDbEntity
 67
     1
  8
7_ALL_FEATURES
  6
Continuous
 62
     7
100
AcDbLine
 10
33.1409959278
 20
267.7744656734
 30
0.0
 11
33.1409959278
 21
268.2744656734
 31
0.0
  0
LINE
  5
509
330
1B
100
AcDbEntity
 67
     1
  8
7_ALL_FEATURES
  6
Continuous
 62
     3
100
AcDbLine
 10
1044.1409959278
 20
228.3744656734
 30
0.0
 11
1044.1409959278
 21
229.0744656734
 31
0.0
  0
LINE
  5
50A
330
1B
100
AcDbEntity
 67
     1
  8
7_ALL_FEATURES
  6
Continuous
 62
     3
100
AcDbLine
 10
1044.1409959278
 20
229.0744656734
 30
0.0
 11
1044.1409959278
 21
267.0744656734
 31
0.0
  0
LINE
  5
50B
330
1B
100
AcDbEntity
 67
     1
  8
7_ALL_FEATURES
  6
Continuous
 62
     3
100
AcDbLine
 10
1044.1409959278
 20
267.0744656734
 30
0.0
 11
1044.1409959278
 21
267.7744656734
 31
0.0
  0
LINE
  5
50C
330
1B
100
AcDbEntity
 67
     1
  8
7_ALL_FEATURES
  6
Continuous
 62
     3
100
AcDbLine
 10
1033.6409959278
 20
268.9244656734
 30
0.0
 11
1032.6409959278
 21
268.9244656734
 31
0.0
  0
LINE
  5
50D
330
1B
100
AcDbEntity
 67
     1
  8
7_ALL_FEATURES
  6
Continuous
 62
     3
100
AcDbLine
 10
1033.6409959278
 20
268.9244656734
 30
0.0
 11
1043.1409959278
 21
268.9244656734
 31
0.0
  0
ARC
  5
50E
330
1B
100
AcDbEntity
 67
     1
  8
7_ALL_FEATURES
  6
Continuous
 62
     3
100
AcDbCircle
 10
1043.1409959278
 20
267.9244656734
 30
0.0
 40
1.0
100
AcDbArc
 50
20.489042011
 51
90.0
  0
LINE
  5
50F
330
1B
100
AcDbEntity
 67
     1
  8
7_ALL_FEATURES
  6
Continuous
 62
     3
100
AcDbLine
 10
1032.6409959278
 20
227.2244656734
 30
0.0
 11
1033.6409959278
 21
227.2244656734
 31
0.0
  0
LINE
  5
510
330
1B
100
AcDbEntity
 67
     1
  8
7_ALL_FEATURES
  6
Continuous
 62
     3
100
AcDbLine
 10
1043.1409959278
 20
227.2244656734
 30
0.0
 11
1033.6409959278
 21
227.2244656734
 31
0.0
  0
ARC
  5
511
330
1B
100
AcDbEntity
 67
     1
  8
7_ALL_FEATURES
  6
Continuous
 62
     3
100
AcDbCircle
 10
1043.1409959278
 20
228.2244656734
 30
0.0
 40
1.0
100
AcDbArc
 50
270.0
 51
339.510957989
  0
LINE
  5
512
330
1B
100
AcDbEntity
 67
     1
  8
7_ALL_FEATURES
  6
Continuous
 62
     3
100
AcDbLine
 10
33.1409959278
 20
267.7744656734
 30
0.0
 11
33.1409959278
 21
267.0744656734
 31
0.0
  0
LINE
  5
513
330
1B
100
AcDbEntity
 67
     1
  8
7_ALL_FEATURES
  6
Continuous
 62
     3
100
AcDbLine
 10
33.1409959278
 20
267.0744656734
 30
0.0
 11
33.1409959278
 21
229.0744656734
 31
0.0
  0
LINE
  5
514
330
1B
100
AcDbEntity
 67
     1
  8
7_ALL_FEATURES
  6
Continuous
 62
     3
100
AcDbLine
 10
33.1409959278
 20
229.0744656734
 30
0.0
 11
33.1409959278
 21
228.3744656734
 31
0.0
  0
LINE
  5
515
330
1B
100
AcDbEntity
 67
     1
  8
7_ALL_FEATURES
  6
Continuous
 62
     3
100
AcDbLine
 10
43.6409959278
 20
227.2244656734
 30
0.0
 11
44.6409959278
 21
227.2244656734
 31
0.0
  0
LINE
  5
516
330
1B
100
AcDbEntity
 67
     1
  8
7_ALL_FEATURES
  6
Continuous
 62
     3
100
AcDbLine
 10
43.6409959278
 20
227.2244656734
 30
0.0
 11
34.1409959278
 21
227.2244656734
 31
0.0
  0
ARC
  5
517
330
1B
100
AcDbEntity
 67
     1
  8
7_ALL_FEATURES
  6
Continuous
 62
     3
100
AcDbCircle
 10
34.1409959278
 20
228.2244656734
 30
0.0
 40
1.0
100
AcDbArc
 50
200.489042011
 51
270.0
  0
LINE
  5
518
330
1B
100
AcDbEntity
 67
     1
  8
7_ALL_FEATURES
  6
Continuous
 62
     3
100
AcDbLine
 10
44.6409959278
 20
268.9244656734
 30
0.0
 11
43.6409959278
 21
268.9244656734
 31
0.0
  0
LINE
  5
519
330
1B
100
AcDbEntity
 67
     1
  8
7_ALL_FEATURES
  6
Continuous
 62
     3
100
AcDbLine
 10
34.1409959278
 20
268.9244656734
 30
0.0
 11
43.6409959278
 21
268.9244656734
 31
0.0
  0
ARC
  5
51A
330
1B
100
AcDbEntity
 67
     1
  8
7_ALL_FEATURES
  6
Continuous
 62
     3
100
AcDbCircle
 10
34.1409959278
 20
267.9244656734
 30
0.0
 40
1.0
100
AcDbArc
 50
90.0
 51
159.510957989
  0
ARC
  5
51B
330
1B
100
AcDbEntity
 67
     1
  8
02___PRT_ALL_AXES
  6
Continuous
 62
     3
100
AcDbCircle
 10
997.1409959278
 20
213.0744656734
 30
0.0
 40
3.25
100
AcDbArc
 50
180.0
 51
360.0
  0
ARC
  5
51C
330
1B
100
AcDbEntity
 67
     1
  8
02___PRT_ALL_AXES
  6
Continuous
 62
     3
100
AcDbCircle
 10
997.1409959278
 20
213.0744656734
 30
0.0
 40
3.25
100
AcDbArc
 50
0.0
 51
180.0
  0
ARC
  5
51D
330
1B
100
AcDbEntity
 67
     1
  8
02___PRT_ALL_AXES
  6
Continuous
 62
     3
100
AcDbCircle
 10
997.1409959278
 20
283.0744656734
 30
0.0
 40
3.25
100
AcDbArc
 50
180.0
 51
360.0
  0
ARC
  5
51E
330
1B
100
AcDbEntity
 67
     1
  8
02___PRT_ALL_AXES
  6
Continuous
 62
     3
100
AcDbCircle
 10
997.1409959278
 20
283.0744656734
 30
0.0
 40
3.25
100
AcDbArc
 50
0.0
 51
180.0
  0
LINE
  5
51F
330
1B
100
AcDbEntity
 67
     1
  8
02___PRT_ALL_AXES
  6
Continuous
 62
     3
100
AcDbLine
 10
1010.3909959278
 20
210.0744656734
 30
0.0
 11
1010.3909959278
 21
216.0744656734
 31
0.0
  0
ARC
  5
520
330
1B
100
AcDbEntity
 67
     1
  8
02___PRT_ALL_AXES
  6
Continuous
 62
     3
100
AcDbCircle
 10
1013.6409959278
 20
210.0744656734
 30
0.0
 40
3.25
100
AcDbArc
 50
180.0
 51
360.0
  0
LINE
  5
521
330
1B
100
AcDbEntity
 67
     1
  8
02___PRT_ALL_AXES
  6
Continuous
 62
     3
100
AcDbLine
 10
1016.8909959278
 20
216.0744656734
 30
0.0
 11
1016.8909959278
 21
210.0744656734
 31
0.0
  0
ARC
  5
522
330
1B
100
AcDbEntity
 67
     1
  8
02___PRT_ALL_AXES
  6
Continuous
 62
     3
100
AcDbCircle
 10
1013.6409959278
 20
216.0744656734
 30
0.0
 40
3.25
100
AcDbArc
 50
0.0
 51
180.0
  0
ARC
  5
523
330
1B
100
AcDbEntity
 67
     1
  8
02___PRT_ALL_AXES
  6
Continuous
 62
     3
100
AcDbCircle
 10
1013.6409959278
 20
286.0744656734
 30
0.0
 40
3.25
100
AcDbArc
 50
0.0
 51
180.0
  0
LINE
  5
524
330
1B
100
AcDbEntity
 67
     1
  8
02___PRT_ALL_AXES
  6
Continuous
 62
     3
100
AcDbLine
 10
1010.3909959278
 20
280.0744656734
 30
0.0
 11
1010.3909959278
 21
286.0744656734
 31
0.0
  0
ARC
  5
525
330
1B
100
AcDbEntity
 67
     1
  8
02___PRT_ALL_AXES
  6
Continuous
 62
     3
100
AcDbCircle
 10
1013.6409959278
 20
280.0744656734
 30
0.0
 40
3.25
100
AcDbArc
 50
180.0
 51
360.0
  0
LINE
  5
526
330
1B
100
AcDbEntity
 67
     1
  8
02___PRT_ALL_AXES
  6
Continuous
 62
     3
100
AcDbLine
 10
1016.8909959278
 20
286.0744656734
 30
0.0
 11
1016.8909959278
 21
280.0744656734
 31
0.0
  0
ARC
  5
527
330
1B
100
AcDbEntity
 67
     1
  8
02___PRT_ALL_AXES
  6
Continuous
 62
     3
100
AcDbCircle
 10
1030.1409959278
 20
213.0744656734
 30
0.0
 40
3.25
100
AcDbArc
 50
180.0
 51
360.0
  0
ARC
  5
528
330
1B
100
AcDbEntity
 67
     1
  8
02___PRT_ALL_AXES
  6
Continuous
 62
     3
100
AcDbCircle
 10
1030.1409959278
 20
213.0744656734
 30
0.0
 40
3.25
100
AcDbArc
 50
0.0
 51
180.0
  0
ARC
  5
529
330
1B
100
AcDbEntity
 67
     1
  8
02___PRT_ALL_AXES
  6
Continuous
 62
     3
100
AcDbCircle
 10
1030.1409959278
 20
283.0744656734
 30
0.0
 40
3.25
100
AcDbArc
 50
180.0
 51
360.0
  0
ARC
  5
52A
330
1B
100
AcDbEntity
 67
     1
  8
02___PRT_ALL_AXES
  6
Continuous
 62
     3
100
AcDbCircle
 10
1030.1409959278
 20
283.0744656734
 30
0.0
 40
3.25
100
AcDbArc
 50
0.0
 51
180.0
  0
ARC
  5
52B
330
1B
100
AcDbEntity
 67
     1
  8
7_ALL_FEATURES
  6
Continuous
 62
     3
100
AcDbCircle
 10
1028.6409959278
 20
213.5744656734
 30
0.0
 40
10.0
100
AcDbArc
 50
270.0
 51
360.0
  0
LINE
  5
52C
330
1B
100
AcDbEntity
 67
     1
  8
7_ALL_FEATURES
  6
Continuous
 62
     3
100
AcDbLine
 10
998.6409959278
 20
203.5744656734
 30
0.0
 11
1028.6409959278
 21
203.5744656734
 31
0.0
  0
ARC
  5
52D
330
1B
100
AcDbEntity
 67
     1
  8
7_ALL_FEATURES
  6
Continuous
 62
     3
100
AcDbCircle
 10
998.6409959278
 20
213.5744656734
 30
0.0
 40
10.0
100
AcDbArc
 50
180.0
 51
270.0
  0
LINE
  5
52E
330
1B
100
AcDbEntity
 67
     1
  8
7_ALL_FEATURES
  6
Continuous
 62
     3
100
AcDbLine
 10
988.6409959278
 20
282.5744656734
 30
0.0
 11
988.6409959278
 21
268.2744656734
 31
0.0
  0
LINE
  5
52F
330
1B
100
AcDbEntity
 67
     1
  8
7_ALL_FEATURES
  6
Continuous
 62
     3
100
AcDbLine
 10
988.6409959278
 20
227.8744656734
 30
0.0
 11
988.6409959278
 21
213.5744656734
 31
0.0
  0
ARC
  5
530
330
1B
100
AcDbEntity
 67
     1
  8
7_ALL_FEATURES
  6
Continuous
 62
     3
100
AcDbCircle
 10
998.6409959278
 20
282.5744656734
 30
0.0
 40
10.0
100
AcDbArc
 50
90.0
 51
180.0
  0
LINE
  5
531
330
1B
100
AcDbEntity
 67
     1
  8
7_ALL_FEATURES
  6
Continuous
 62
     3
100
AcDbLine
 10
1028.6409959278
 20
292.5744656734
 30
0.0
 11
998.6409959278
 21
292.5744656734
 31
0.0
  0
ARC
  5
532
330
1B
100
AcDbEntity
 67
     1
  8
7_ALL_FEATURES
  6
Continuous
 62
     3
100
AcDbCircle
 10
1028.6409959278
 20
282.5744656734
 30
0.0
 40
10.0
100
AcDbArc
 50
0.0
 51
90.0
  0
LINE
  5
533
330
1B
100
AcDbEntity
 67
     1
  8
7_ALL_FEATURES
  6
Continuous
 62
     3
100
AcDbLine
 10
1038.6409959278
 20
213.5744656734
 30
0.0
 11
1038.6409959278
 21
224.1808017063
 31
0.0
  0
LINE
  5
534
330
1B
100
AcDbEntity
 67
     1
  8
7_ALL_FEATURES
  6
Continuous
 62
     3
100
AcDbLine
 10
1038.6409959278
 20
227.2244656734
 30
0.0
 11
1038.6409959278
 21
227.8744656734
 31
0.0
  0
LINE
  5
535
330
1B
100
AcDbEntity
 67
     1
  8
7_ALL_FEATURES
  6
Continuous
 62
     3
100
AcDbLine
 10
1038.6409959278
 20
268.2744656734
 30
0.0
 11
1038.6409959278
 21
268.9244656734
 31
0.0
  0
LINE
  5
536
330
1B
100
AcDbEntity
 67
     1
  8
7_ALL_FEATURES
  6
Continuous
 62
     3
100
AcDbLine
 10
1038.6409959278
 20
271.9681296405
 30
0.0
 11
1038.6409959278
 21
282.5744656734
 31
0.0
  0
ARC
  5
537
330
1B
100
AcDbEntity
 67
     1
  8
02___PRT_ALL_AXES
  6
Continuous
 62
     3
100
AcDbCircle
 10
522.1409959278
 20
213.0744656734
 30
0.0
 40
3.25
100
AcDbArc
 50
180.0
 51
360.0
  0
ARC
  5
538
330
1B
100
AcDbEntity
 67
     1
  8
02___PRT_ALL_AXES
  6
Continuous
 62
     3
100
AcDbCircle
 10
522.1409959278
 20
213.0744656734
 30
0.0
 40
3.25
100
AcDbArc
 50
0.0
 51
180.0
  0
ARC
  5
539
330
1B
100
AcDbEntity
 67
     1
  8
02___PRT_ALL_AXES
  6
Continuous
 62
     3
100
AcDbCircle
 10
522.1409959278
 20
283.0744656734
 30
0.0
 40
3.25
100
AcDbArc
 50
180.0
 51
360.0
  0
ARC
  5
53A
330
1B
100
AcDbEntity
 67
     1
  8
02___PRT_ALL_AXES
  6
Continuous
 62
     3
100
AcDbCircle
 10
522.1409959278
 20
283.0744656734
 30
0.0
 40
3.25
100
AcDbArc
 50
0.0
 51
180.0
  0
LINE
  5
53B
330
1B
100
AcDbEntity
 67
     1
  8
02___PRT_ALL_AXES
  6
Continuous
 62
     3
100
AcDbLine
 10
535.3909959278
 20
210.0744656734
 30
0.0
 11
535.3909959278
 21
216.0744656734
 31
0.0
  0
ARC
  5
53C
330
1B
100
AcDbEntity
 67
     1
  8
02___PRT_ALL_AXES
  6
Continuous
 62
     3
100
AcDbCircle
 10
538.6409959278
 20
210.0744656734
 30
0.0
 40
3.25
100
AcDbArc
 50
180.0
 51
360.0
  0
LINE
  5
53D
330
1B
100
AcDbEntity
 67
     1
  8
02___PRT_ALL_AXES
  6
Continuous
 62
     3
100
AcDbLine
 10
541.8909959278
 20
216.0744656734
 30
0.0
 11
541.8909959278
 21
210.0744656734
 31
0.0
  0
ARC
  5
53E
330
1B
100
AcDbEntity
 67
     1
  8
02___PRT_ALL_AXES
  6
Continuous
 62
     3
100
AcDbCircle
 10
538.6409959278
 20
216.0744656734
 30
0.0
 40
3.25
100
AcDbArc
 50
0.0
 51
180.0
  0
ARC
  5
53F
330
1B
100
AcDbEntity
 67
     1
  8
02___PRT_ALL_AXES
  6
Continuous
 62
     3
100
AcDbCircle
 10
538.6409959278
 20
286.0744656734
 30
0.0
 40
3.25
100
AcDbArc
 50
0.0
 51
180.0
  0
LINE
  5
540
330
1B
100
AcDbEntity
 67
     1
  8
02___PRT_ALL_AXES
  6
Continuous
 62
     3
100
AcDbLine
 10
535.3909959278
 20
280.0744656734
 30
0.0
 11
535.3909959278
 21
286.0744656734
 31
0.0
  0
ARC
  5
541
330
1B
100
AcDbEntity
 67
     1
  8
02___PRT_ALL_AXES
  6
Continuous
 62
     3
100
AcDbCircle
 10
538.6409959278
 20
280.0744656734
 30
0.0
 40
3.25
100
AcDbArc
 50
180.0
 51
360.0
  0
LINE
  5
542
330
1B
100
AcDbEntity
 67
     1
  8
02___PRT_ALL_AXES
  6
Continuous
 62
     3
100
AcDbLine
 10
541.8909959278
 20
286.0744656734
 30
0.0
 11
541.8909959278
 21
280.0744656734
 31
0.0
  0
ARC
  5
543
330
1B
100
AcDbEntity
 67
     1
  8
02___PRT_ALL_AXES
  6
Continuous
 62
     3
100
AcDbCircle
 10
555.1409959278
 20
213.0744656734
 30
0.0
 40
3.25
100
AcDbArc
 50
180.0
 51
360.0
  0
ARC
  5
544
330
1B
100
AcDbEntity
 67
     1
  8
02___PRT_ALL_AXES
  6
Continuous
 62
     3
100
AcDbCircle
 10
555.1409959278
 20
213.0744656734
 30
0.0
 40
3.25
100
AcDbArc
 50
0.0
 51
180.0
  0
ARC
  5
545
330
1B
100
AcDbEntity
 67
     1
  8
02___PRT_ALL_AXES
  6
Continuous
 62
     3
100
AcDbCircle
 10
555.1409959278
 20
283.0744656734
 30
0.0
 40
3.25
100
AcDbArc
 50
180.0
 51
360.0
  0
ARC
  5
546
330
1B
100
AcDbEntity
 67
     1
  8
02___PRT_ALL_AXES
  6
Continuous
 62
     3
100
AcDbCircle
 10
555.1409959278
 20
283.0744656734
 30
0.0
 40
3.25
100
AcDbArc
 50
0.0
 51
180.0
  0
ARC
  5
547
330
1B
100
AcDbEntity
 67
     1
  8
7_ALL_FEATURES
  6
Continuous
 62
     3
100
AcDbCircle
 10
553.6409959278
 20
213.5744656734
 30
0.0
 40
10.0
100
AcDbArc
 50
270.0
 51
360.0
  0
LINE
  5
548
330
1B
100
AcDbEntity
 67
     1
  8
7_ALL_FEATURES
  6
Continuous
 62
     3
100
AcDbLine
 10
523.6409959278
 20
203.5744656734
 30
0.0
 11
553.6409959278
 21
203.5744656734
 31
0.0
  0
ARC
  5
549
330
1B
100
AcDbEntity
 67
     1
  8
7_ALL_FEATURES
  6
Continuous
 62
     3
100
AcDbCircle
 10
523.6409959278
 20
213.5744656734
 30
0.0
 40
10.0
100
AcDbArc
 50
180.0
 51
270.0
  0
LINE
  5
54A
330
1B
100
AcDbEntity
 67
     1
  8
7_ALL_FEATURES
  6
Continuous
 62
     3
100
AcDbLine
 10
513.6409959278
 20
282.5744656734
 30
0.0
 11
513.6409959278
 21
268.2744656734
 31
0.0
  0
LINE
  5
54B
330
1B
100
AcDbEntity
 67
     1
  8
7_ALL_FEATURES
  6
Continuous
 62
     3
100
AcDbLine
 10
513.6409959278
 20
227.8744656734
 30
0.0
 11
513.6409959278
 21
213.5744656734
 31
0.0
  0
ARC
  5
54C
330
1B
100
AcDbEntity
 67
     1
  8
7_ALL_FEATURES
  6
Continuous
 62
     3
100
AcDbCircle
 10
523.6409959278
 20
282.5744656734
 30
0.0
 40
10.0
100
AcDbArc
 50
90.0
 51
180.0
  0
LINE
  5
54D
330
1B
100
AcDbEntity
 67
     1
  8
7_ALL_FEATURES
  6
Continuous
 62
     3
100
AcDbLine
 10
553.6409959278
 20
292.5744656734
 30
0.0
 11
523.6409959278
 21
292.5744656734
 31
0.0
  0
ARC
  5
54E
330
1B
100
AcDbEntity
 67
     1
  8
7_ALL_FEATURES
  6
Continuous
 62
     3
100
AcDbCircle
 10
553.6409959278
 20
282.5744656734
 30
0.0
 40
10.0
100
AcDbArc
 50
0.0
 51
90.0
  0
LINE
  5
54F
330
1B
100
AcDbEntity
 67
     1
  8
7_ALL_FEATURES
  6
Continuous
 62
     3
100
AcDbLine
 10
563.6409959278
 20
213.5744656734
 30
0.0
 11
563.6409959278
 21
227.8744656734
 31
0.0
  0
LINE
  5
550
330
1B
100
AcDbEntity
 67
     1
  8
7_ALL_FEATURES
  6
Continuous
 62
     3
100
AcDbLine
 10
563.6409959278
 20
268.2744656734
 30
0.0
 11
563.6409959278
 21
282.5744656734
 31
0.0
  0
ARC
  5
551
330
1B
100
AcDbEntity
 67
     1
  8
02___PRT_ALL_AXES
  6
Continuous
 62
     3
100
AcDbCircle
 10
47.1409959278
 20
213.0744656734
 30
0.0
 40
3.25
100
AcDbArc
 50
180.0
 51
360.0
  0
ARC
  5
552
330
1B
100
AcDbEntity
 67
     1
  8
02___PRT_ALL_AXES
  6
Continuous
 62
     3
100
AcDbCircle
 10
47.1409959278
 20
213.0744656734
 30
0.0
 40
3.25
100
AcDbArc
 50
0.0
 51
180.0
  0
ARC
  5
553
330
1B
100
AcDbEntity
 67
     1
  8
02___PRT_ALL_AXES
  6
Continuous
 62
     3
100
AcDbCircle
 10
47.1409959278
 20
283.0744656734
 30
0.0
 40
3.25
100
AcDbArc
 50
180.0
 51
360.0
  0
ARC
  5
554
330
1B
100
AcDbEntity
 67
     1
  8
02___PRT_ALL_AXES
  6
Continuous
 62
     3
100
AcDbCircle
 10
47.1409959278
 20
283.0744656734
 30
0.0
 40
3.25
100
AcDbArc
 50
0.0
 51
180.0
  0
LINE
  5
555
330
1B
100
AcDbEntity
 67
     1
  8
02___PRT_ALL_AXES
  6
Continuous
 62
     3
100
AcDbLine
 10
60.3909959278
 20
210.0744656734
 30
0.0
 11
60.3909959278
 21
216.0744656734
 31
0.0
  0
ARC
  5
556
330
1B
100
AcDbEntity
 67
     1
  8
02___PRT_ALL_AXES
  6
Continuous
 62
     3
100
AcDbCircle
 10
63.6409959278
 20
210.0744656734
 30
0.0
 40
3.25
100
AcDbArc
 50
180.0
 51
360.0
  0
LINE
  5
557
330
1B
100
AcDbEntity
 67
     1
  8
02___PRT_ALL_AXES
  6
Continuous
 62
     3
100
AcDbLine
 10
66.8909959278
 20
216.0744656734
 30
0.0
 11
66.8909959278
 21
210.0744656734
 31
0.0
  0
ARC
  5
558
330
1B
100
AcDbEntity
 67
     1
  8
02___PRT_ALL_AXES
  6
Continuous
 62
     3
100
AcDbCircle
 10
63.6409959278
 20
216.0744656734
 30
0.0
 40
3.25
100
AcDbArc
 50
0.0
 51
180.0
  0
ARC
  5
559
330
1B
100
AcDbEntity
 67
     1
  8
02___PRT_ALL_AXES
  6
Continuous
 62
     3
100
AcDbCircle
 10
63.6409959278
 20
286.0744656734
 30
0.0
 40
3.25
100
AcDbArc
 50
0.0
 51
180.0
  0
LINE
  5
55A
330
1B
100
AcDbEntity
 67
     1
  8
02___PRT_ALL_AXES
  6
Continuous
 62
     3
100
AcDbLine
 10
60.3909959278
 20
280.0744656734
 30
0.0
 11
60.3909959278
 21
286.0744656734
 31
0.0
  0
ARC
  5
55B
330
1B
100
AcDbEntity
 67
     1
  8
02___PRT_ALL_AXES
  6
Continuous
 62
     3
100
AcDbCircle
 10
63.6409959278
 20
280.0744656734
 30
0.0
 40
3.25
100
AcDbArc
 50
180.0
 51
360.0
  0
LINE
  5
55C
330
1B
100
AcDbEntity
 67
     1
  8
02___PRT_ALL_AXES
  6
Continuous
 62
     3
100
AcDbLine
 10
66.8909959278
 20
286.0744656734
 30
0.0
 11
66.8909959278
 21
280.0744656734
 31
0.0
  0
ARC
  5
55D
330
1B
100
AcDbEntity
 67
     1
  8
02___PRT_ALL_AXES
  6
Continuous
 62
     3
100
AcDbCircle
 10
80.1409959278
 20
213.0744656734
 30
0.0
 40
3.25
100
AcDbArc
 50
180.0
 51
360.0
  0
ARC
  5
55E
330
1B
100
AcDbEntity
 67
     1
  8
02___PRT_ALL_AXES
  6
Continuous
 62
     3
100
AcDbCircle
 10
80.1409959278
 20
213.0744656734
 30
0.0
 40
3.25
100
AcDbArc
 50
0.0
 51
180.0
  0
ARC
  5
55F
330
1B
100
AcDbEntity
 67
     1
  8
02___PRT_ALL_AXES
  6
Continuous
 62
     3
100
AcDbCircle
 10
80.1409959278
 20
283.0744656734
 30
0.0
 40
3.25
100
AcDbArc
 50
180.0
 51
360.0
  0
ARC
  5
560
330
1B
100
AcDbEntity
 67
     1
  8
02___PRT_ALL_AXES
  6
Continuous
 62
     3
100
AcDbCircle
 10
80.1409959278
 20
283.0744656734
 30
0.0
 40
3.25
100
AcDbArc
 50
0.0
 51
180.0
  0
ARC
  5
561
330
1B
100
AcDbEntity
 67
     1
  8
7_ALL_FEATURES
  6
Continuous
 62
     3
100
AcDbCircle
 10
78.6409959278
 20
213.5744656734
 30
0.0
 40
10.0
100
AcDbArc
 50
270.0
 51
360.0
  0
LINE
  5
562
330
1B
100
AcDbEntity
 67
     1
  8
7_ALL_FEATURES
  6
Continuous
 62
     3
100
AcDbLine
 10
48.6409959278
 20
203.5744656734
 30
0.0
 11
78.6409959278
 21
203.5744656734
 31
0.0
  0
ARC
  5
563
330
1B
100
AcDbEntity
 67
     1
  8
7_ALL_FEATURES
  6
Continuous
 62
     3
100
AcDbCircle
 10
48.6409959278
 20
213.5744656734
 30
0.0
 40
10.0
100
AcDbArc
 50
180.0
 51
270.0
  0
LINE
  5
564
330
1B
100
AcDbEntity
 67
     1
  8
7_ALL_FEATURES
  6
Continuous
 62
     3
100
AcDbLine
 10
38.6409959278
 20
282.5744656734
 30
0.0
 11
38.6409959278
 21
271.9681296405
 31
0.0
  0
LINE
  5
565
330
1B
100
AcDbEntity
 67
     1
  8
7_ALL_FEATURES
  6
Continuous
 62
     3
100
AcDbLine
 10
38.6409959278
 20
268.9244656734
 30
0.0
 11
38.6409959278
 21
268.2744656734
 31
0.0
  0
LINE
  5
566
330
1B
100
AcDbEntity
 67
     1
  8
7_ALL_FEATURES
  6
Continuous
 62
     3
100
AcDbLine
 10
38.6409959278
 20
227.8744656734
 30
0.0
 11
38.6409959278
 21
227.2244656734
 31
0.0
  0
LINE
  5
567
330
1B
100
AcDbEntity
 67
     1
  8
7_ALL_FEATURES
  6
Continuous
 62
     3
100
AcDbLine
 10
38.6409959278
 20
224.1808017063
 30
0.0
 11
38.6409959278
 21
213.5744656734
 31
0.0
  0
ARC
  5
568
330
1B
100
AcDbEntity
 67
     1
  8
7_ALL_FEATURES
  6
Continuous
 62
     3
100
AcDbCircle
 10
48.6409959278
 20
282.5744656734
 30
0.0
 40
10.0
100
AcDbArc
 50
90.0
 51
180.0
  0
LINE
  5
569
330
1B
100
AcDbEntity
 67
     1
  8
7_ALL_FEATURES
  6
Continuous
 62
     3
100
AcDbLine
 10
78.6409959278
 20
292.5744656734
 30
0.0
 11
48.6409959278
 21
292.5744656734
 31
0.0
  0
ARC
  5
56A
330
1B
100
AcDbEntity
 67
     1
  8
7_ALL_FEATURES
  6
Continuous
 62
     3
100
AcDbCircle
 10
78.6409959278
 20
282.5744656734
 30
0.0
 40
10.0
100
AcDbArc
 50
0.0
 51
90.0
  0
LINE
  5
56B
330
1B
100
AcDbEntity
 67
     1
  8
7_ALL_FEATURES
  6
Continuous
 62
     3
100
AcDbLine
 10
88.6409959278
 20
213.5744656734
 30
0.0
 11
88.6409959278
 21
227.8744656734
 31
0.0
  0
LINE
  5
56C
330
1B
100
AcDbEntity
 67
     1
  8
7_ALL_FEATURES
  6
Continuous
 62
     3
100
AcDbLine
 10
88.6409959278
 20
268.2744656734
 30
0.0
 11
88.6409959278
 21
282.5744656734
 31
0.0
  0
LINE
  5
56D
330
1B
100
AcDbEntity
 67
     1
  8
7_ALL_FEATURES
  6
Continuous
 62
     3
100
AcDbLine
 10
34.1409959278
 20
265.9533368018
 30
0.0
 11
34.1409959278
 21
230.195594545
 31
0.0
  0
LINE
  5
56E
330
1B
100
AcDbEntity
 67
     1
  8
7_ALL_FEATURES
  6
Continuous
 62
     3
100
AcDbLine
 10
1043.1409959278
 20
230.195594545
 30
0.0
 11
1043.1409959278
 21
265.9533368018
 31
0.0
  0
ARC
  5
56F
330
1B
100
AcDbEntity
 67
     1
  8
02___PRT_ALL_AXES
  6
Continuous
 62
     3
100
AcDbCircle
 10
44.1409959278
 20
245.6344656734
 30
0.0
 40
2.5
100
AcDbArc
 50
90.0
 51
270.0
  0
ARC
  5
570
330
1B
100
AcDbEntity
 67
     1
  8
02___PRT_ALL_AXES
  6
Continuous
 62
     3
100
AcDbCircle
 10
44.1409959278
 20
245.6344656734
 30
0.0
 40
2.5
100
AcDbArc
 50
270.0
 51
90.0
  0
ARC
  5
571
330
1B
100
AcDbEntity
 67
     1
  8
02___PRT_ALL_AXES
  6
Continuous
 62
     3
100
AcDbCircle
 10
1033.1409959278
 20
245.6344656734
 30
0.0
 40
2.5
100
AcDbArc
 50
270.0
 51
90.0
  0
ARC
  5
572
330
1B
100
AcDbEntity
 67
     1
  8
02___PRT_ALL_AXES
  6
Continuous
 62
     3
100
AcDbCircle
 10
1033.1409959278
 20
245.6344656734
 30
0.0
 40
2.5
100
AcDbArc
 50
90.0
 51
270.0
  0
LINE
  5
573
330
1B
100
AcDbEntity
 67
     1
  8
7_ALL_FEATURES
  6
Continuous
 62
     3
100
AcDbLine
 10
34.1409959278
 20
229.0744656734
 30
0.0
 11
34.1409959278
 21
229.6452150796
 31
0.0
  0
LINE
  5
574
330
1B
100
AcDbEntity
 67
     1
  8
7_ALL_FEATURES
  6
Continuous
 62
     3
100
AcDbLine
 10
34.1409959278
 20
229.6452150796
 30
0.0
 11
34.1409959278
 21
229.7610548002
 31
0.0
  0
LINE
  5
575
330
1B
100
AcDbEntity
 67
     1
  8
7_ALL_FEATURES
  6
Continuous
 62
     3
100
AcDbLine
 10
34.1409959278
 20
229.7610548002
 30
0.0
 11
34.1409959278
 21
230.0058048643
 31
0.0
  0
LINE
  5
576
330
1B
100
AcDbEntity
 67
     1
  8
7_ALL_FEATURES
  6
Continuous
 62
     3
100
AcDbLine
 10
34.1409959278
 20
230.0058048643
 30
0.0
 11
34.1409959278
 21
230.195594545
 31
0.0
  0
LINE
  5
577
330
1B
100
AcDbEntity
 67
     1
  8
7_ALL_FEATURES
  6
Continuous
 62
     3
100
AcDbLine
 10
1043.1409959278
 20
229.0744656734
 30
0.0
 11
1043.1409959278
 21
229.4334334891
 31
0.0
  0
LINE
  5
578
330
1B
100
AcDbEntity
 67
     1
  8
7_ALL_FEATURES
  6
Continuous
 62
     3
100
AcDbLine
 10
1043.1409959278
 20
229.4334334891
 30
0.0
 11
1043.1409959278
 21
229.6452150796
 31
0.0
  0
LINE
  5
579
330
1B
100
AcDbEntity
 67
     1
  8
7_ALL_FEATURES
  6
Continuous
 62
     3
100
AcDbLine
 10
1043.1409959278
 20
229.6452150796
 30
0.0
 11
1043.1409959278
 21
229.7610548002
 31
0.0
  0
LINE
  5
57A
330
1B
100
AcDbEntity
 67
     1
  8
7_ALL_FEATURES
  6
Continuous
 62
     3
100
AcDbLine
 10
1043.1409959278
 20
229.7610548002
 30
0.0
 11
1043.1409959278
 21
230.0058048643
 31
0.0
  0
LINE
  5
57B
330
1B
100
AcDbEntity
 67
     1
  8
7_ALL_FEATURES
  6
Continuous
 62
     3
100
AcDbLine
 10
1043.1409959278
 20
230.0058048643
 30
0.0
 11
1043.1409959278
 21
230.195594545
 31
0.0
  0
LINE
  5
57C
330
1B
100
AcDbEntity
 67
     1
  8
7_ALL_FEATURES
  6
Continuous
 62
     3
100
AcDbLine
 10
1043.1409959278
 20
267.0744656734
 30
0.0
 11
1043.1409959278
 21
266.5037162672
 31
0.0
  0
LINE
  5
57D
330
1B
100
AcDbEntity
 67
     1
  8
7_ALL_FEATURES
  6
Continuous
 62
     3
100
AcDbLine
 10
1043.1409959278
 20
266.5037162672
 30
0.0
 11
1043.1409959278
 21
266.3878765466
 31
0.0
  0
LINE
  5
57E
330
1B
100
AcDbEntity
 67
     1
  8
7_ALL_FEATURES
  6
Continuous
 62
     3
100
AcDbLine
 10
1043.1409959278
 20
266.3878765466
 30
0.0
 11
1043.1409959278
 21
266.1431264826
 31
0.0
  0
LINE
  5
57F
330
1B
100
AcDbEntity
 67
     1
  8
7_ALL_FEATURES
  6
Continuous
 62
     3
100
AcDbLine
 10
1043.1409959278
 20
266.1431264826
 30
0.0
 11
1043.1409959278
 21
265.9533368018
 31
0.0
  0
LINE
  5
580
330
1B
100
AcDbEntity
 67
     1
  8
7_ALL_FEATURES
  6
Continuous
 62
     3
100
AcDbLine
 10
34.1409959278
 20
267.0744656734
 30
0.0
 11
34.1409959278
 21
266.7154978577
 31
0.0
  0
LINE
  5
581
330
1B
100
AcDbEntity
 67
     1
  8
7_ALL_FEATURES
  6
Continuous
 62
     3
100
AcDbLine
 10
34.1409959278
 20
266.7154978577
 30
0.0
 11
34.1409959278
 21
266.5037162672
 31
0.0
  0
LINE
  5
582
330
1B
100
AcDbEntity
 67
     1
  8
7_ALL_FEATURES
  6
Continuous
 62
     3
100
AcDbLine
 10
34.1409959278
 20
266.5037162672
 30
0.0
 11
34.1409959278
 21
266.3878765466
 31
0.0
  0
LINE
  5
583
330
1B
100
AcDbEntity
 67
     1
  8
7_ALL_FEATURES
  6
Continuous
 62
     3
100
AcDbLine
 10
34.1409959278
 20
266.3878765466
 30
0.0
 11
34.1409959278
 21
266.1431264826
 31
0.0
  0
LINE
  5
584
330
1B
100
AcDbEntity
 67
     1
  8
7_ALL_FEATURES
  6
Continuous
 62
     3
100
AcDbLine
 10
34.1409959278
 20
266.1431264826
 30
0.0
 11
34.1409959278
 21
265.9533368018
 31
0.0
  0
LINE
  5
585
330
1B
100
AcDbEntity
 67
     1
  8
7_ALL_FEATURES
  6
Continuous
 62
     9
100
AcDbLine
 10
1043.1409959278
 20
230.195594545
 30
0.0
 11
34.1409959278
 21
230.195594545
 31
0.0
  0
LINE
  5
586
330
1B
100
AcDbEntity
 67
     1
  8
7_ALL_FEATURES
  6
Continuous
 62
     9
100
AcDbLine
 10
34.1409959278
 20
265.9533368018
 30
0.0
 11
1043.1409959278
 21
265.9533368018
 31
0.0
  0
LINE
  5
587
330
1B
100
AcDbEntity
 67
     1
  8
7_ALL_FEATURES
  6
Continuous
 62
     3
100
AcDbLine
 10
1044.1409959278
 20
267.0744656734
 30
0.0
 11
1043.1409959278
 21
267.0744656734
 31
0.0
  0
LINE
  5
588
330
1B
100
AcDbEntity
 67
     1
  8
7_ALL_FEATURES
  6
Continuous
 62
     3
100
AcDbLine
 10
1043.1409959278
 20
267.0744656734
 30
0.0
 11
34.1409959278
 21
267.0744656734
 31
0.0
  0
LINE
  5
589
330
1B
100
AcDbEntity
 67
     1
  8
7_ALL_FEATURES
  6
Continuous
 62
     3
100
AcDbLine
 10
34.1409959278
 20
267.0744656734
 30
0.0
 11
33.1409959278
 21
267.0744656734
 31
0.0
  0
LINE
  5
58A
330
1B
100
AcDbEntity
 67
     1
  8
7_ALL_FEATURES
  6
Continuous
 62
     3
100
AcDbLine
 10
1044.1409959278
 20
229.0744656734
 30
0.0
 11
1043.1409959278
 21
229.0744656734
 31
0.0
  0
LINE
  5
58B
330
1B
100
AcDbEntity
 67
     1
  8
7_ALL_FEATURES
  6
Continuous
 62
     3
100
AcDbLine
 10
1043.1409959278
 20
229.0744656734
 30
0.0
 11
34.1409959278
 21
229.0744656734
 31
0.0
  0
LINE
  5
58C
330
1B
100
AcDbEntity
 67
     1
  8
7_ALL_FEATURES
  6
Continuous
 62
     3
100
AcDbLine
 10
34.1409959278
 20
229.0744656734
 30
0.0
 11
33.1409959278
 21
229.0744656734
 31
0.0
  0
LINE
  5
58D
330
1B
100
AcDbEntity
 67
     1
  8
7_ALL_FEATURES
  6
Continuous
 62
     9
100
AcDbLine
 10
33.1409959278
 20
230.2744656734
 30
0.0
 11
34.1409959278
 21
230.2744656734
 31
0.0
  0
LINE
  5
58E
330
1B
100
AcDbEntity
 67
     1
  8
7_ALL_FEATURES
  6
Continuous
 62
     9
100
AcDbLine
 10
1043.1409959278
 20
230.2744656734
 30
0.0
 11
1044.1409959278
 21
230.2744656734
 31
0.0
  0
LINE
  5
58F
330
1B
100
AcDbEntity
 67
     1
  8
7_ALL_FEATURES
  6
Continuous
 62
     9
100
AcDbLine
 10
33.1409959278
 20
265.8744656734
 30
0.0
 11
34.1409959278
 21
265.8744656734
 31
0.0
  0
LINE
  5
590
330
1B
100
AcDbEntity
 67
     1
  8
7_ALL_FEATURES
  6
Continuous
 62
     9
100
AcDbLine
 10
1043.1409959278
 20
265.8744656734
 30
0.0
 11
1044.1409959278
 21
265.8744656734
 31
0.0
  0
LINE
  5
591
330
1B
100
AcDbEntity
 67
     1
  8
3_ALL_AXES
  6
Continuous
 62
     7
100
AcDbLine
 10
1112.5939886913
 20
347.5611076551
 30
0.0
 11
1112.5939886913
 21
348.2669778257
 31
0.0
  0
ARC
  5
592
330
1B
100
AcDbEntity
 67
     1
  8
3_ALL_AXES
  6
Continuous
 62
     7
100
AcDbCircle
 10
1109.6939886913
 20
355.0169778257
 30
0.0
 40
8.0
100
AcDbArc
 50
270.0
 51
291.2538091854
  0
LINE
  5
593
330
1B
100
AcDbEntity
 67
     1
  8
3_ALL_AXES
  6
Continuous
 62
     7
100
AcDbLine
 10
1106.7939886913
 20
347.5611076551
 30
0.0
 11
1106.7939886913
 21
348.2669778257
 31
0.0
  0
ARC
  5
594
330
1B
100
AcDbEntity
 67
     1
  8
3_ALL_AXES
  6
Continuous
 62
     7
100
AcDbCircle
 10
1109.6939886913
 20
355.0169778257
 30
0.0
 40
8.0
100
AcDbArc
 50
248.7461908146
 51
270.0
  0
LINE
  5
595
330
1B
100
AcDbEntity
 67
     1
  8
3_ALL_AXES
  6
Continuous
 62
     7
100
AcDbLine
 10
1109.6939886913
 20
347.5611076551
 30
0.0
 11
1112.5939886913
 21
347.5611076551
 31
0.0
  0
LINE
  5
596
330
1B
100
AcDbEntity
 67
     1
  8
3_ALL_AXES
  6
Continuous
 62
     7
100
AcDbLine
 10
1109.6939886913
 20
347.5611076551
 30
0.0
 11
1106.7939886913
 21
347.5611076551
 31
0.0
  0
ARC
  5
597
330
1B
100
AcDbEntity
 67
     1
  8
3_ALL_AXES
  6
Continuous
 62
     7
100
AcDbCircle
 10
1106.2439886913
 20
392.2669778257
 30
0.0
 40
8.0
100
AcDbArc
 50
183.5833666136
 51
201.2538091854
  0
LINE
  5
598
330
1B
100
AcDbEntity
 67
     1
  8
3_ALL_AXES
  6
Continuous
 62
     7
100
AcDbLine
 10
1098.7881185208
 20
389.3669778257
 30
0.0
 11
1099.4939886913
 21
389.3669778257
 31
0.0
  0
LINE
  5
599
330
1B
100
AcDbEntity
 67
     1
  8
3_ALL_AXES
  6
Continuous
 62
     7
100
AcDbLine
 10
1098.7881185208
 20
389.3669778257
 30
0.0
 11
1098.7881185208
 21
391.7669778257
 31
0.0
  0
LINE
  5
59A
330
1B
100
AcDbEntity
 67
     1
  8
3_ALL_AXES
  6
Continuous
 62
     7
100
AcDbLine
 10
1140.5998588618
 20
389.3669778257
 30
0.0
 11
1139.8939886913
 21
389.3669778257
 31
0.0
  0
ARC
  5
59B
330
1B
100
AcDbEntity
 67
     1
  8
3_ALL_AXES
  6
Continuous
 62
     7
100
AcDbCircle
 10
1133.1439886913
 20
392.2669778257
 30
0.0
 40
8.0
100
AcDbArc
 50
338.7461908146
 51
356.4166333864
  0
LINE
  5
59C
330
1B
100
AcDbEntity
 67
     1
  8
3_ALL_AXES
  6
Continuous
 62
     7
100
AcDbLine
 10
1140.5998588618
 20
391.7669778257
 30
0.0
 11
1140.5998588618
 21
389.3669778257
 31
0.0
  0
LINE
  5
59D
330
1B
100
AcDbEntity
 67
     1
  8
3_ALL_AXES
  6
Continuous
 62
     7
100
AcDbLine
 10
1132.5939886913
 20
347.5611076551
 30
0.0
 11
1132.5939886913
 21
348.2669778257
 31
0.0
  0
ARC
  5
59E
330
1B
100
AcDbEntity
 67
     1
  8
3_ALL_AXES
  6
Continuous
 62
     7
100
AcDbCircle
 10
1129.6939886913
 20
355.0169778257
 30
0.0
 40
8.0
100
AcDbArc
 50
270.0
 51
291.2538091854
  0
LINE
  5
59F
330
1B
100
AcDbEntity
 67
     1
  8
3_ALL_AXES
  6
Continuous
 62
     7
100
AcDbLine
 10
1126.7939886913
 20
347.5611076551
 30
0.0
 11
1126.7939886913
 21
348.2669778257
 31
0.0
  0
ARC
  5
5A0
330
1B
100
AcDbEntity
 67
     1
  8
3_ALL_AXES
  6
Continuous
 62
     7
100
AcDbCircle
 10
1129.6939886913
 20
355.0169778257
 30
0.0
 40
8.0
100
AcDbArc
 50
248.7461908146
 51
270.0
  0
LINE
  5
5A1
330
1B
100
AcDbEntity
 67
     1
  8
3_ALL_AXES
  6
Continuous
 62
     7
100
AcDbLine
 10
1129.6939886913
 20
347.5611076551
 30
0.0
 11
1132.5939886913
 21
347.5611076551
 31
0.0
  0
LINE
  5
5A2
330
1B
100
AcDbEntity
 67
     1
  8
3_ALL_AXES
  6
Continuous
 62
     7
100
AcDbLine
 10
1129.6939886913
 20
347.5611076551
 30
0.0
 11
1126.7939886913
 21
347.5611076551
 31
0.0
  0
ARC
  5
5A3
330
1B
100
AcDbEntity
 67
     1
  8
3_ALL_AXES
  6
Continuous
 62
     7
100
AcDbCircle
 10
1140.0713485996
 20
360.909420623
 30
0.0
 40
4.1
100
AcDbArc
 50
26.3930257743
 51
63.13669686989999
  0
LINE
  5
5A4
330
1B
100
AcDbEntity
 67
     1
  8
3_ALL_AXES
  6
Continuous
 62
     7
100
AcDbLine
 10
1143.7439886913
 20
362.7319434802
 30
0.0
 11
1143.7439886913
 21
360.7669778257
 31
0.0
  0
LINE
  5
5A5
330
1B
100
AcDbEntity
 67
     1
  8
3_ALL_AXES
  6
Continuous
 62
     7
100
AcDbLine
 10
1141.5439886913
 20
364.5669778257
 30
0.0
 11
1141.9239886913
 21
364.5669778257
 31
0.0
  0
ARC
  5
5A6
330
1B
100
AcDbEntity
 67
     1
  8
3_ALL_AXES
  6
Continuous
 62
     7
100
AcDbCircle
 10
1140.0713485996
 20
360.6245350283
 30
0.0
 40
4.1
100
AcDbArc
 50
296.8633031301
 51
333.6069742257001
  0
LINE
  5
5A7
330
1B
100
AcDbEntity
 67
     1
  8
3_ALL_AXES
  6
Continuous
 62
     7
100
AcDbLine
 10
1143.7439886913
 20
358.8020121711
 30
0.0
 11
1143.7439886913
 21
360.7669778257
 31
0.0
  0
LINE
  5
5A8
330
1B
100
AcDbEntity
 67
     1
  8
3_ALL_AXES
  6
Continuous
 62
     7
100
AcDbLine
 10
1141.5439886913
 20
356.9669778257
 30
0.0
 11
1141.9239886913
 21
356.9669778257
 31
0.0
  0
LINE
  5
5A9
330
1B
100
AcDbEntity
 67
     1
  8
3_ALL_AXES
  6
Continuous
 62
     7
100
AcDbLine
 10
1141.9239886913
 20
356.9669778257
 30
0.0
 11
1141.9239886913
 21
360.7669778257
 31
0.0
  0
LINE
  5
5AA
330
1B
100
AcDbEntity
 67
     1
  8
3_ALL_AXES
  6
Continuous
 62
     7
100
AcDbLine
 10
1141.9239886913
 20
364.5669778257
 30
0.0
 11
1141.9239886913
 21
360.7669778257
 31
0.0
  0
ARC
  5
5AB
330
1B
100
AcDbEntity
 67
     1
  8
3_ALL_AXES
  6
Continuous
 62
     7
100
AcDbCircle
 10
1140.0713485996
 20
395.909420623
 30
0.0
 40
4.1
100
AcDbArc
 50
26.3930257743
 51
63.13669686989999
  0
LINE
  5
5AC
330
1B
100
AcDbEntity
 67
     1
  8
3_ALL_AXES
  6
Continuous
 62
     7
100
AcDbLine
 10
1143.7439886913
 20
397.7319434802
 30
0.0
 11
1143.7439886913
 21
395.7669778257
 31
0.0
  0
LINE
  5
5AD
330
1B
100
AcDbEntity
 67
     1
  8
3_ALL_AXES
  6
Continuous
 62
     7
100
AcDbLine
 10
1141.5439886913
 20
399.5669778257
 30
0.0
 11
1141.9239886913
 21
399.5669778257
 31
0.0
  0
ARC
  5
5AE
330
1B
100
AcDbEntity
 67
     1
  8
3_ALL_AXES
  6
Continuous
 62
     7
100
AcDbCircle
 10
1140.0713485996
 20
395.6245350283
 30
0.0
 40
4.1
100
AcDbArc
 50
296.8633031301
 51
333.6069742257001
  0
LINE
  5
5AF
330
1B
100
AcDbEntity
 67
     1
  8
3_ALL_AXES
  6
Continuous
 62
     7
100
AcDbLine
 10
1143.7439886913
 20
393.8020121711
 30
0.0
 11
1143.7439886913
 21
395.7669778257
 31
0.0
  0
LINE
  5
5B0
330
1B
100
AcDbEntity
 67
     1
  8
3_ALL_AXES
  6
Continuous
 62
     7
100
AcDbLine
 10
1141.5439886913
 20
391.9669778257
 30
0.0
 11
1141.9239886913
 21
391.9669778257
 31
0.0
  0
LINE
  5
5B1
330
1B
100
AcDbEntity
 67
     1
  8
3_ALL_AXES
  6
Continuous
 62
     7
100
AcDbLine
 10
1141.9239886913
 20
391.9669778257
 30
0.0
 11
1141.9239886913
 21
395.7669778257
 31
0.0
  0
LINE
  5
5B2
330
1B
100
AcDbEntity
 67
     1
  8
3_ALL_AXES
  6
Continuous
 62
     7
100
AcDbLine
 10
1141.9239886913
 20
399.5669778257
 30
0.0
 11
1141.9239886913
 21
395.7669778257
 31
0.0
  0
LINE
  5
5B3
330
1B
100
AcDbEntity
 67
     1
  8
3_ALL_AXES
  6
Continuous
 62
     7
100
AcDbLine
 10
1095.6439886913
 20
395.7669778257
 30
0.0
 11
1095.6439886913
 21
397.7319434802
 31
0.0
  0
LINE
  5
5B4
330
1B
100
AcDbEntity
 67
     1
  8
3_ALL_AXES
  6
Continuous
 62
     7
100
AcDbLine
 10
1095.6439886913
 20
395.7669778257
 30
0.0
 11
1095.6439886913
 21
393.8020121711
 31
0.0
  0
ARC
  5
5B5
330
1B
100
AcDbEntity
 67
     1
  8
3_ALL_AXES
  6
Continuous
 62
     7
100
AcDbCircle
 10
1099.316628783
 20
395.909420623
 30
0.0
 40
4.1
100
AcDbArc
 50
116.8633031301
 51
153.6069742257
  0
LINE
  5
5B6
330
1B
100
AcDbEntity
 67
     1
  8
3_ALL_AXES
  6
Continuous
 62
     7
100
AcDbLine
 10
1097.8439886913
 20
399.5669778257
 30
0.0
 11
1097.4639886913
 21
399.5669778257
 31
0.0
  0
ARC
  5
5B7
330
1B
100
AcDbEntity
 67
     1
  8
3_ALL_AXES
  6
Continuous
 62
     7
100
AcDbCircle
 10
1099.316628783
 20
395.6245350283
 30
0.0
 40
4.1
100
AcDbArc
 50
206.3930257743
 51
243.1366968699
  0
LINE
  5
5B8
330
1B
100
AcDbEntity
 67
     1
  8
3_ALL_AXES
  6
Continuous
 62
     7
100
AcDbLine
 10
1097.8439886913
 20
391.9669778257
 30
0.0
 11
1097.4639886913
 21
391.9669778257
 31
0.0
  0
LINE
  5
5B9
330
1B
100
AcDbEntity
 67
     1
  8
3_ALL_AXES
  6
Continuous
 62
     7
100
AcDbLine
 10
1097.4639886913
 20
395.7669778257
 30
0.0
 11
1097.4639886913
 21
399.5669778257
 31
0.0
  0
LINE
  5
5BA
330
1B
100
AcDbEntity
 67
     1
  8
3_ALL_AXES
  6
Continuous
 62
     7
100
AcDbLine
 10
1097.4639886913
 20
395.7669778257
 30
0.0
 11
1097.4639886913
 21
391.9669778257
 31
0.0
  0
LINE
  5
5BB
330
1B
100
AcDbEntity
 67
     1
  8
3_ALL_AXES
  6
Continuous
 62
     7
100
AcDbLine
 10
1095.6439886913
 20
360.7669778257
 30
0.0
 11
1095.6439886913
 21
362.7319434802
 31
0.0
  0
LINE
  5
5BC
330
1B
100
AcDbEntity
 67
     1
  8
3_ALL_AXES
  6
Continuous
 62
     7
100
AcDbLine
 10
1095.6439886913
 20
360.7669778257
 30
0.0
 11
1095.6439886913
 21
358.8020121711
 31
0.0
  0
ARC
  5
5BD
330
1B
100
AcDbEntity
 67
     1
  8
3_ALL_AXES
  6
Continuous
 62
     7
100
AcDbCircle
 10
1099.316628783
 20
360.909420623
 30
0.0
 40
4.1
100
AcDbArc
 50
116.8633031301
 51
153.6069742257
  0
LINE
  5
5BE
330
1B
100
AcDbEntity
 67
     1
  8
3_ALL_AXES
  6
Continuous
 62
     7
100
AcDbLine
 10
1097.8439886913
 20
364.5669778257
 30
0.0
 11
1097.4639886913
 21
364.5669778257
 31
0.0
  0
ARC
  5
5BF
330
1B
100
AcDbEntity
 67
     1
  8
3_ALL_AXES
  6
Continuous
 62
     7
100
AcDbCircle
 10
1099.316628783
 20
360.6245350283
 30
0.0
 40
4.1
100
AcDbArc
 50
206.3930257743
 51
243.1366968699
  0
LINE
  5
5C0
330
1B
100
AcDbEntity
 67
     1
  8
3_ALL_AXES
  6
Continuous
 62
     7
100
AcDbLine
 10
1097.8439886913
 20
356.9669778257
 30
0.0
 11
1097.4639886913
 21
356.9669778257
 31
0.0
  0
LINE
  5
5C1
330
1B
100
AcDbEntity
 67
     1
  8
3_ALL_AXES
  6
Continuous
 62
     7
100
AcDbLine
 10
1097.4639886913
 20
360.7669778257
 30
0.0
 11
1097.4639886913
 21
364.5669778257
 31
0.0
  0
LINE
  5
5C2
330
1B
100
AcDbEntity
 67
     1
  8
3_ALL_AXES
  6
Continuous
 62
     7
100
AcDbLine
 10
1097.4639886913
 20
360.7669778257
 30
0.0
 11
1097.4639886913
 21
356.9669778257
 31
0.0
  0
LINE
  5
5C3
330
1B
100
AcDbEntity
 67
     1
  8
7_ALL_FEATURES
  6
Continuous
 62
     7
100
AcDbLine
 10
1075.1939886913
 20
348.2669778257
 30
0.0
 11
1075.1939886913
 21
349.4669778257
 31
0.0
  0
LINE
  5
5C4
330
1B
100
AcDbEntity
 67
     1
  8
7_ALL_FEATURES
  6
Continuous
 62
     7
100
AcDbLine
 10
1164.1939886913
 20
348.2669778257
 30
0.0
 11
1164.1939886913
 21
349.4669778257
 31
0.0
  0
LINE
  5
5C5
330
1B
100
AcDbEntity
 67
     1
  8
7_ALL_FEATURES
  6
Continuous
 62
     7
100
AcDbLine
 10
1075.1939886913
 20
348.2669778257
 30
0.0
 11
1075.1939886913
 21
349.4669778257
 31
0.0
  0
LINE
  5
5C6
330
1B
100
AcDbEntity
 67
     1
  8
7_ALL_FEATURES
  6
Continuous
 62
     7
100
AcDbLine
 10
1164.1939886913
 20
348.2669778257
 30
0.0
 11
1157.9439886913
 21
348.2669778257
 31
0.0
  0
LINE
  5
5C7
330
1B
100
AcDbEntity
 67
     1
  8
7_ALL_FEATURES
  6
Continuous
 62
     7
100
AcDbLine
 10
1157.9439886913
 20
348.2669778257
 30
0.0
 11
1154.6939886913
 21
348.2669778257
 31
0.0
  0
LINE
  5
5C8
330
1B
100
AcDbEntity
 67
     1
  8
7_ALL_FEATURES
  6
Continuous
 62
     7
100
AcDbLine
 10
1154.6939886913
 20
348.2669778257
 30
0.0
 11
1154.1939886913
 21
348.2669778257
 31
0.0
  0
LINE
  5
5C9
330
1B
100
AcDbEntity
 67
     1
  8
7_ALL_FEATURES
  6
Continuous
 62
     7
100
AcDbLine
 10
1085.1939886913
 20
348.2669778257
 30
0.0
 11
1099.9939886913
 21
348.2669778257
 31
0.0
  0
LINE
  5
5CA
330
1B
100
AcDbEntity
 67
     1
  8
7_ALL_FEATURES
  6
Continuous
 62
     7
100
AcDbLine
 10
1117.3487808114
 20
348.2669778257
 30
0.0
 11
1122.0391965712
 21
348.2669778257
 31
0.0
  0
LINE
  5
5CB
330
1B
100
AcDbEntity
 67
     1
  8
7_ALL_FEATURES
  6
Continuous
 62
     7
100
AcDbLine
 10
1139.3939886913
 20
348.2669778257
 30
0.0
 11
1154.1939886913
 21
348.2669778257
 31
0.0
  0
LINE
  5
5CC
330
1B
100
AcDbEntity
 67
     1
  8
7_ALL_FEATURES
  6
Continuous
 62
     7
100
AcDbLine
 10
1085.1939886913
 20
348.2669778257
 30
0.0
 11
1084.6939886913
 21
348.2669778257
 31
0.0
  0
LINE
  5
5CD
330
1B
100
AcDbEntity
 67
     1
  8
7_ALL_FEATURES
  6
Continuous
 62
     7
100
AcDbLine
 10
1084.6939886913
 20
348.2669778257
 30
0.0
 11
1081.4439886913
 21
348.2669778257
 31
0.0
  0
LINE
  5
5CE
330
1B
100
AcDbEntity
 67
     1
  8
7_ALL_FEATURES
  6
Continuous
 62
     7
100
AcDbLine
 10
1081.4439886913
 20
348.2669778257
 30
0.0
 11
1075.1939886913
 21
348.2669778257
 31
0.0
  0
LINE
  5
5CF
330
1B
100
AcDbEntity
 67
     1
  8
7_ALL_FEATURES
  6
Continuous
 62
     9
100
AcDbLine
 10
1154.1939886913
 20
348.2669778257
 30
0.0
 11
1154.1939886913
 21
349.4669778257
 31
0.0
  0
LINE
  5
5D0
330
1B
100
AcDbEntity
 67
     1
  8
7_ALL_FEATURES
  6
Continuous
 62
     9
100
AcDbLine
 10
1085.1939886913
 20
348.2669778257
 30
0.0
 11
1085.1939886913
 21
349.4669778257
 31
0.0
  0
LINE
  5
5D1
330
1B
100
AcDbEntity
 67
     1
  8
7_ALL_FEATURES
  6
Continuous
 62
     7
100
AcDbLine
 10
1099.8439886913
 20
355.7669778257
 30
0.0
 11
1099.4939886913
 21
355.7669778257
 31
0.0
  0
LINE
  5
5D2
330
1B
100
AcDbEntity
 67
     1
  8
7_ALL_FEATURES
  6
Continuous
 62
     7
100
AcDbLine
 10
1099.8439886913
 20
365.7669778257
 30
0.0
 11
1099.4939886913
 21
365.7669778257
 31
0.0
  0
LINE
  5
5D3
330
1B
100
AcDbEntity
 67
     1
  8
7_ALL_FEATURES
  6
Continuous
 62
     7
100
AcDbLine
 10
1099.9939886913
 20
437.2669778257
 30
0.0
 11
1099.4939886913
 21
437.2669778257
 31
0.0
  0
LINE
  5
5D4
330
1B
100
AcDbEntity
 67
     1
  8
7_ALL_FEATURES
  6
Continuous
 62
     7
100
AcDbLine
 10
1139.8939886913
 20
437.2669778257
 30
0.0
 11
1139.8939886913
 21
436.7669778257
 31
0.0
  0
LINE
  5
5D5
330
1B
100
AcDbEntity
 67
     1
  8
7_ALL_FEATURES
  6
Continuous
 62
     7
100
AcDbLine
 10
1139.8939886913
 20
400.9669778257
 30
0.0
 11
1139.8939886913
 21
400.7669778257
 31
0.0
  0
LINE
  5
5D6
330
1B
100
AcDbEntity
 67
     1
  8
7_ALL_FEATURES
  6
Continuous
 62
     7
100
AcDbLine
 10
1139.8939886913
 20
400.7669778257
 30
0.0
 11
1139.8939886913
 21
399.7669778257
 31
0.0
  0
LINE
  5
5D7
330
1B
100
AcDbEntity
 67
     1
  8
7_ALL_FEATURES
  6
Continuous
 62
     7
100
AcDbLine
 10
1139.8939886913
 20
391.7669778257
 30
0.0
 11
1139.8939886913
 21
390.7669778257
 31
0.0
  0
LINE
  5
5D8
330
1B
100
AcDbEntity
 67
     1
  8
7_ALL_FEATURES
  6
Continuous
 62
     7
100
AcDbLine
 10
1139.8939886913
 20
390.7669778257
 30
0.0
 11
1139.8939886913
 21
390.5669778257
 31
0.0
  0
LINE
  5
5D9
330
1B
100
AcDbEntity
 67
     1
  8
7_ALL_FEATURES
  6
Continuous
 62
     7
100
AcDbLine
 10
1139.8939886913
 20
365.9669778257
 30
0.0
 11
1139.8939886913
 21
365.7669778257
 31
0.0
  0
LINE
  5
5DA
330
1B
100
AcDbEntity
 67
     1
  8
7_ALL_FEATURES
  6
Continuous
 62
     7
100
AcDbLine
 10
1139.8939886913
 20
355.7669778257
 30
0.0
 11
1139.8939886913
 21
356.7669778257
 31
0.0
  0
LINE
  5
5DB
330
1B
100
AcDbEntity
 67
     1
  8
7_ALL_FEATURES
  6
Continuous
 62
     7
100
AcDbLine
 10
1139.8939886913
 20
364.7669778257
 30
0.0
 11
1139.8939886913
 21
365.7669778257
 31
0.0
  0
LINE
  5
5DC
330
1B
100
AcDbEntity
 67
     1
  8
7_ALL_FEATURES
  6
Continuous
 62
     7
100
AcDbLine
 10
1139.8939886913
 20
355.7669778257
 30
0.0
 11
1139.8939886913
 21
355.5669778257
 31
0.0
  0
LINE
  5
5DD
330
1B
100
AcDbEntity
 67
     1
  8
7_ALL_FEATURES
  6
Continuous
 62
     7
100
AcDbLine
 10
1139.8939886913
 20
437.2669778257
 30
0.0
 11
1139.3939886913
 21
437.2669778257
 31
0.0
  0
LINE
  5
5DE
330
1B
100
AcDbEntity
 67
     1
  8
7_ALL_FEATURES
  6
Continuous
 62
     7
100
AcDbLine
 10
1139.5439886913
 20
400.7669778257
 30
0.0
 11
1139.8939886913
 21
400.7669778257
 31
0.0
  0
LINE
  5
5DF
330
1B
100
AcDbEntity
 67
     1
  8
7_ALL_FEATURES
  6
Continuous
 62
     7
100
AcDbLine
 10
1139.5439886913
 20
390.7669778257
 30
0.0
 11
1139.8939886913
 21
390.7669778257
 31
0.0
  0
LINE
  5
5E0
330
1B
100
AcDbEntity
 67
     1
  8
7_ALL_FEATURES
  6
Continuous
 62
     7
100
AcDbLine
 10
1139.5439886913
 20
365.7669778257
 30
0.0
 11
1139.8939886913
 21
365.7669778257
 31
0.0
  0
LINE
  5
5E1
330
1B
100
AcDbEntity
 67
     1
  8
7_ALL_FEATURES
  6
Continuous
 62
     7
100
AcDbLine
 10
1139.5439886913
 20
355.7669778257
 30
0.0
 11
1139.8939886913
 21
355.7669778257
 31
0.0
  0
LINE
  5
5E2
330
1B
100
AcDbEntity
 67
     1
  8
7_ALL_FEATURES
  6
Continuous
 62
     7
100
AcDbLine
 10
1099.4939886913
 20
355.7669778257
 30
0.0
 11
1099.4939886913
 21
355.5669778257
 31
0.0
  0
LINE
  5
5E3
330
1B
100
AcDbEntity
 67
     1
  8
7_ALL_FEATURES
  6
Continuous
 62
     7
100
AcDbLine
 10
1099.4939886913
 20
365.7669778257
 30
0.0
 11
1099.4939886913
 21
364.7669778257
 31
0.0
  0
LINE
  5
5E4
330
1B
100
AcDbEntity
 67
     1
  8
7_ALL_FEATURES
  6
Continuous
 62
     7
100
AcDbLine
 10
1099.4939886913
 20
356.7669778257
 30
0.0
 11
1099.4939886913
 21
355.7669778257
 31
0.0
  0
LINE
  5
5E5
330
1B
100
AcDbEntity
 67
     1
  8
7_ALL_FEATURES
  6
Continuous
 62
     7
100
AcDbLine
 10
1099.4939886913
 20
365.9669778257
 30
0.0
 11
1099.4939886913
 21
365.7669778257
 31
0.0
  0
LINE
  5
5E6
330
1B
100
AcDbEntity
 67
     1
  8
7_ALL_FEATURES
  6
Continuous
 62
     7
100
AcDbLine
 10
1099.4939886913
 20
400.7669778257
 30
0.0
 11
1099.4939886913
 21
399.7669778257
 31
0.0
  0
LINE
  5
5E7
330
1B
100
AcDbEntity
 67
     1
  8
7_ALL_FEATURES
  6
Continuous
 62
     7
100
AcDbLine
 10
1099.4939886913
 20
391.7669778257
 30
0.0
 11
1099.4939886913
 21
390.7669778257
 31
0.0
  0
LINE
  5
5E8
330
1B
100
AcDbEntity
 67
     1
  8
7_ALL_FEATURES
  6
Continuous
 62
     7
100
AcDbLine
 10
1099.4939886913
 20
437.2669778257
 30
0.0
 11
1099.4939886913
 21
436.7669778257
 31
0.0
  0
LINE
  5
5E9
330
1B
100
AcDbEntity
 67
     1
  8
7_ALL_FEATURES
  6
Continuous
 62
     7
100
AcDbLine
 10
1097.8439886913
 20
399.7669778257
 30
0.0
 11
1098.8439886913
 21
399.7669778257
 31
0.0
  0
LINE
  5
5EA
330
1B
100
AcDbEntity
 67
     1
  8
7_ALL_FEATURES
  6
Continuous
 62
     7
100
AcDbLine
 10
1098.8439886913
 20
399.7669778257
 30
0.0
 11
1099.362409634
 21
399.7669778257
 31
0.0
  0
LINE
  5
5EB
330
1B
100
AcDbEntity
 67
     1
  8
7_ALL_FEATURES
  6
Continuous
 62
     7
100
AcDbLine
 10
1097.8439886913
 20
391.7669778257
 30
0.0
 11
1098.8338499289
 21
391.7669778257
 31
0.0
  0
LINE
  5
5EC
330
1B
100
AcDbEntity
 67
     1
  8
7_ALL_FEATURES
  6
Continuous
 62
     7
100
AcDbLine
 10
1098.8338499289
 20
391.7669778257
 30
0.0
 11
1098.8439886913
 21
391.7669778257
 31
0.0
  0
LINE
  5
5ED
330
1B
100
AcDbEntity
 67
     1
  8
7_ALL_FEATURES
  6
Continuous
 62
     7
100
AcDbLine
 10
1098.8439886913
 20
391.7669778257
 30
0.0
 11
1099.362409634
 21
391.7669778257
 31
0.0
  0
LINE
  5
5EE
330
1B
100
AcDbEntity
 67
     1
  8
7_ALL_FEATURES
  6
Continuous
 62
     7
100
AcDbLine
 10
1097.8439886913
 20
391.7669778257
 30
0.0
 11
1097.8439886913
 21
399.7669778257
 31
0.0
  0
LINE
  5
5EF
330
1B
100
AcDbEntity
 67
     1
  8
7_ALL_FEATURES
  6
Continuous
 62
     7
100
AcDbLine
 10
1141.5439886913
 20
391.7669778257
 30
0.0
 11
1140.5439886913
 21
391.7669778257
 31
0.0
  0
LINE
  5
5F0
330
1B
100
AcDbEntity
 67
     1
  8
7_ALL_FEATURES
  6
Continuous
 62
     7
100
AcDbLine
 10
1140.5439886913
 20
391.7669778257
 30
0.0
 11
1140.0255677486
 21
391.7669778257
 31
0.0
  0
LINE
  5
5F1
330
1B
100
AcDbEntity
 67
     1
  8
7_ALL_FEATURES
  6
Continuous
 62
     7
100
AcDbLine
 10
1141.5439886913
 20
399.7669778257
 30
0.0
 11
1140.5541274537
 21
399.7669778257
 31
0.0
  0
LINE
  5
5F2
330
1B
100
AcDbEntity
 67
     1
  8
7_ALL_FEATURES
  6
Continuous
 62
     7
100
AcDbLine
 10
1140.5541274537
 20
399.7669778257
 30
0.0
 11
1140.5439886913
 21
399.7669778257
 31
0.0
  0
LINE
  5
5F3
330
1B
100
AcDbEntity
 67
     1
  8
7_ALL_FEATURES
  6
Continuous
 62
     7
100
AcDbLine
 10
1140.5439886913
 20
399.7669778257
 30
0.0
 11
1140.0255677486
 21
399.7669778257
 31
0.0
  0
LINE
  5
5F4
330
1B
100
AcDbEntity
 67
     1
  8
7_ALL_FEATURES
  6
Continuous
 62
     7
100
AcDbLine
 10
1141.5439886913
 20
399.7669778257
 30
0.0
 11
1141.5439886913
 21
391.7669778257
 31
0.0
  0
LINE
  5
5F5
330
1B
100
AcDbEntity
 67
     1
  8
7_ALL_FEATURES
  6
Continuous
 62
     7
100
AcDbLine
 10
1141.5439886913
 20
356.7669778257
 30
0.0
 11
1140.5439886913
 21
356.7669778257
 31
0.0
  0
LINE
  5
5F6
330
1B
100
AcDbEntity
 67
     1
  8
7_ALL_FEATURES
  6
Continuous
 62
     7
100
AcDbLine
 10
1140.5439886913
 20
356.7669778257
 30
0.0
 11
1140.0255677486
 21
356.7669778257
 31
0.0
  0
LINE
  5
5F7
330
1B
100
AcDbEntity
 67
     1
  8
7_ALL_FEATURES
  6
Continuous
 62
     7
100
AcDbLine
 10
1141.5439886913
 20
364.7669778257
 30
0.0
 11
1140.5541247641
 21
364.7669778257
 31
0.0
  0
LINE
  5
5F8
330
1B
100
AcDbEntity
 67
     1
  8
7_ALL_FEATURES
  6
Continuous
 62
     7
100
AcDbLine
 10
1140.5541247641
 20
364.7669778257
 30
0.0
 11
1140.5439886913
 21
364.7669778257
 31
0.0
  0
LINE
  5
5F9
330
1B
100
AcDbEntity
 67
     1
  8
7_ALL_FEATURES
  6
Continuous
 62
     7
100
AcDbLine
 10
1140.5439886913
 20
364.7669778257
 30
0.0
 11
1140.0255677486
 21
364.7669778257
 31
0.0
  0
LINE
  5
5FA
330
1B
100
AcDbEntity
 67
     1
  8
7_ALL_FEATURES
  6
Continuous
 62
     7
100
AcDbLine
 10
1141.5439886913
 20
364.7669778257
 30
0.0
 11
1141.5439886913
 21
356.7669778257
 31
0.0
  0
ARC
  5
5FB
330
1B
100
AcDbEntity
 67
     1
  8
7_ALL_FEATURES
  6
Continuous
 62
     7
100
AcDbCircle
 10
1119.6939886913
 20
347.2669778257
 30
0.0
 40
2.0
100
AcDbArc
 50
43.81306146040001
 51
136.1869385396
  0
ARC
  5
5FC
330
1B
100
AcDbEntity
 67
     1
  8
7_ALL_FEATURES
  6
Continuous
 62
     7
100
AcDbCircle
 10
1122.0391965712
 20
349.5169778257
 30
0.0
 40
1.25
100
AcDbArc
 50
223.8130614604
 51
270.0
  0
LINE
  5
5FD
330
1B
100
AcDbEntity
 67
     1
  8
7_ALL_FEATURES
  6
Continuous
 62
     7
100
AcDbLine
 10
1139.3939886913
 20
348.2669778257
 30
0.0
 11
1122.0391965712
 21
348.2669778257
 31
0.0
  0
ARC
  5
5FE
330
1B
100
AcDbEntity
 67
     1
  8
7_ALL_FEATURES
  6
Continuous
 62
     7
100
AcDbCircle
 10
1139.3939886913
 20
348.7669778257
 30
0.0
 40
0.5
100
AcDbArc
 50
270.0
 51
360.0
  0
LINE
  5
5FF
330
1B
100
AcDbEntity
 67
     1
  8
7_ALL_FEATURES
  6
Continuous
 62
     7
100
AcDbLine
 10
1139.8939886913
 20
355.5669778257
 30
0.0
 11
1139.8939886913
 21
348.7669778257
 31
0.0
  0
LINE
  5
600
330
1B
100
AcDbEntity
 67
     1
  8
7_ALL_FEATURES
  6
Continuous
 62
     7
100
AcDbLine
 10
1139.8939886913
 20
355.5669778257
 30
0.0
 11
1139.5439886913
 21
355.5669778257
 31
0.0
  0
LINE
  5
601
330
1B
100
AcDbEntity
 67
     1
  8
7_ALL_FEATURES
  6
Continuous
 62
     7
100
AcDbLine
 10
1139.5439886913
 20
356.7669778257
 30
0.0
 11
1139.5439886913
 21
355.5669778257
 31
0.0
  0
LINE
  5
602
330
1B
100
AcDbEntity
 67
     1
  8
7_ALL_FEATURES
  6
Continuous
 62
     7
100
AcDbLine
 10
1139.5439886913
 20
364.7669778257
 30
0.0
 11
1139.5439886913
 21
365.9669778257
 31
0.0
  0
LINE
  5
603
330
1B
100
AcDbEntity
 67
     1
  8
7_ALL_FEATURES
  6
Continuous
 62
     7
100
AcDbLine
 10
1139.8939886913
 20
365.9669778257
 30
0.0
 11
1139.5439886913
 21
365.9669778257
 31
0.0
  0
LINE
  5
604
330
1B
100
AcDbEntity
 67
     1
  8
7_ALL_FEATURES
  6
Continuous
 62
     7
100
AcDbLine
 10
1139.8939886913
 20
390.5669778257
 30
0.0
 11
1139.8939886913
 21
365.9669778257
 31
0.0
  0
LINE
  5
605
330
1B
100
AcDbEntity
 67
     1
  8
7_ALL_FEATURES
  6
Continuous
 62
     7
100
AcDbLine
 10
1139.8939886913
 20
390.5669778257
 30
0.0
 11
1139.5439886913
 21
390.5669778257
 31
0.0
  0
LINE
  5
606
330
1B
100
AcDbEntity
 67
     1
  8
7_ALL_FEATURES
  6
Continuous
 62
     7
100
AcDbLine
 10
1139.5439886913
 20
391.7669778257
 30
0.0
 11
1139.5439886913
 21
390.5669778257
 31
0.0
  0
LINE
  5
607
330
1B
100
AcDbEntity
 67
     1
  8
7_ALL_FEATURES
  6
Continuous
 62
     7
100
AcDbLine
 10
1139.5439886913
 20
399.7669778257
 30
0.0
 11
1139.5439886913
 21
400.9669778257
 31
0.0
  0
LINE
  5
608
330
1B
100
AcDbEntity
 67
     1
  8
7_ALL_FEATURES
  6
Continuous
 62
     7
100
AcDbLine
 10
1139.8939886913
 20
400.9669778257
 30
0.0
 11
1139.5439886913
 21
400.9669778257
 31
0.0
  0
LINE
  5
609
330
1B
100
AcDbEntity
 67
     1
  8
7_ALL_FEATURES
  6
Continuous
 62
     7
100
AcDbLine
 10
1139.8939886913
 20
436.7669778257
 30
0.0
 11
1139.8939886913
 21
400.9669778257
 31
0.0
  0
ARC
  5
60A
330
1B
100
AcDbEntity
 67
     1
  8
7_ALL_FEATURES
  6
Continuous
 62
     7
100
AcDbCircle
 10
1139.3939886913
 20
436.7669778257
 30
0.0
 40
0.5
100
AcDbArc
 50
0.0
 51
90.0
  0
LINE
  5
60B
330
1B
100
AcDbEntity
 67
     1
  8
7_ALL_FEATURES
  6
Continuous
 62
     7
100
AcDbLine
 10
1099.9939886913
 20
437.2669778257
 30
0.0
 11
1139.3939886913
 21
437.2669778257
 31
0.0
  0
ARC
  5
60C
330
1B
100
AcDbEntity
 67
     1
  8
7_ALL_FEATURES
  6
Continuous
 62
     7
100
AcDbCircle
 10
1099.9939886913
 20
436.7669778257
 30
0.0
 40
0.5
100
AcDbArc
 50
90.0
 51
180.0
  0
LINE
  5
60D
330
1B
100
AcDbEntity
 67
     1
  8
7_ALL_FEATURES
  6
Continuous
 62
     7
100
AcDbLine
 10
1099.4939886913
 20
400.7669778257
 30
0.0
 11
1099.4939886913
 21
436.7669778257
 31
0.0
  0
LINE
  5
60E
330
1B
100
AcDbEntity
 67
     1
  8
7_ALL_FEATURES
  6
Continuous
 62
     7
100
AcDbLine
 10
1099.4939886913
 20
400.7669778257
 30
0.0
 11
1099.8439886913
 21
400.7669778257
 31
0.0
  0
LINE
  5
60F
330
1B
100
AcDbEntity
 67
     1
  8
7_ALL_FEATURES
  6
Continuous
 62
     7
100
AcDbLine
 10
1099.8439886913
 20
399.7669778257
 30
0.0
 11
1099.8439886913
 21
400.7669778257
 31
0.0
  0
LINE
  5
610
330
1B
100
AcDbEntity
 67
     1
  8
7_ALL_FEATURES
  6
Continuous
 62
     7
100
AcDbLine
 10
1099.8439886913
 20
391.7669778257
 30
0.0
 11
1099.8439886913
 21
390.7669778257
 31
0.0
  0
LINE
  5
611
330
1B
100
AcDbEntity
 67
     1
  8
7_ALL_FEATURES
  6
Continuous
 62
     7
100
AcDbLine
 10
1099.4939886913
 20
390.7669778257
 30
0.0
 11
1099.8439886913
 21
390.7669778257
 31
0.0
  0
LINE
  5
612
330
1B
100
AcDbEntity
 67
     1
  8
7_ALL_FEATURES
  6
Continuous
 62
     7
100
AcDbLine
 10
1099.4939886913
 20
365.9669778257
 30
0.0
 11
1099.4939886913
 21
390.7669778257
 31
0.0
  0
LINE
  5
613
330
1B
100
AcDbEntity
 67
     1
  8
7_ALL_FEATURES
  6
Continuous
 62
     7
100
AcDbLine
 10
1099.4939886913
 20
365.9669778257
 30
0.0
 11
1099.8439886913
 21
365.9669778257
 31
0.0
  0
LINE
  5
614
330
1B
100
AcDbEntity
 67
     1
  8
7_ALL_FEATURES
  6
Continuous
 62
     7
100
AcDbLine
 10
1099.8439886913
 20
364.7669778257
 30
0.0
 11
1099.8439886913
 21
365.9669778257
 31
0.0
  0
LINE
  5
615
330
1B
100
AcDbEntity
 67
     1
  8
7_ALL_FEATURES
  6
Continuous
 62
     7
100
AcDbLine
 10
1099.8439886913
 20
356.7669778257
 30
0.0
 11
1099.8439886913
 21
355.5669778257
 31
0.0
  0
LINE
  5
616
330
1B
100
AcDbEntity
 67
     1
  8
7_ALL_FEATURES
  6
Continuous
 62
     7
100
AcDbLine
 10
1099.4939886913
 20
355.5669778257
 30
0.0
 11
1099.8439886913
 21
355.5669778257
 31
0.0
  0
LINE
  5
617
330
1B
100
AcDbEntity
 67
     1
  8
7_ALL_FEATURES
  6
Continuous
 62
     7
100
AcDbLine
 10
1099.4939886913
 20
348.7669778257
 30
0.0
 11
1099.4939886913
 21
355.5669778257
 31
0.0
  0
ARC
  5
618
330
1B
100
AcDbEntity
 67
     1
  8
7_ALL_FEATURES
  6
Continuous
 62
     7
100
AcDbCircle
 10
1099.9939886913
 20
348.7669778257
 30
0.0
 40
0.5
100
AcDbArc
 50
180.0
 51
270.0
  0
LINE
  5
619
330
1B
100
AcDbEntity
 67
     1
  8
7_ALL_FEATURES
  6
Continuous
 62
     7
100
AcDbLine
 10
1117.3487808114
 20
348.2669778257
 30
0.0
 11
1099.9939886913
 21
348.2669778257
 31
0.0
  0
ARC
  5
61A
330
1B
100
AcDbEntity
 67
     1
  8
7_ALL_FEATURES
  6
Continuous
 62
     7
100
AcDbCircle
 10
1117.3487808114
 20
349.5169778257
 30
0.0
 40
1.25
100
AcDbArc
 50
270.0
 51
316.1869385396
  0
ARC
  5
61B
330
1B
100
AcDbEntity
 67
     1
  8
02___PRT_ALL_AXES
  6
Continuous
 62
     7
100
AcDbCircle
 10
1119.6939886913
 20
374.7669778257
 30
0.0
 40
9.5
100
AcDbArc
 50
182.0
 51
358.0
  0
LINE
  5
61C
330
1B
100
AcDbEntity
 67
     1
  8
02___PRT_ALL_AXES
  6
Continuous
 62
     7
100
AcDbLine
 10
1129.6878969615
 20
374.4179828587
 30
0.0
 11
1129.188201548
 21
374.435432607
 31
0.0
  0
ARC
  5
61D
330
1B
100
AcDbEntity
 67
     1
  8
02___PRT_ALL_AXES
  6
Continuous
 62
     7
100
AcDbCircle
 10
1119.6939886913
 20
374.7669778257
 30
0.0
 40
10.0
100
AcDbArc
 50
182.0
 51
358.0
  0
LINE
  5
61E
330
1B
100
AcDbEntity
 67
     1
  8
02___PRT_ALL_AXES
  6
Continuous
 62
     7
100
AcDbLine
 10
1110.1997758346
 20
374.435432607
 30
0.0
 11
1109.7000804211
 21
374.4179828587
 31
0.0
  0
LINE
  5
61F
330
1B
100
AcDbEntity
 67
     1
  8
02___PRT_ALL_AXES
  6
Continuous
 62
     7
100
AcDbLine
 10
1109.7000804211
 20
375.1159727927
 30
0.0
 11
1110.1997758346
 21
375.0985230444
 31
0.0
  0
ARC
  5
620
330
1B
100
AcDbEntity
 67
     1
  8
02___PRT_ALL_AXES
  6
Continuous
 62
     7
100
AcDbCircle
 10
1119.6939886913
 20
374.7669778257
 30
0.0
 40
10.0
100
AcDbArc
 50
2.0
 51
178.0
  0
LINE
  5
621
330
1B
100
AcDbEntity
 67
     1
  8
02___PRT_ALL_AXES
  6
Continuous
 62
     7
100
AcDbLine
 10
1129.188201548
 20
375.0985230444
 30
0.0
 11
1129.6878969615
 21
375.1159727927
 31
0.0
  0
ARC
  5
622
330
1B
100
AcDbEntity
 67
     1
  8
02___PRT_ALL_AXES
  6
Continuous
 62
     7
100
AcDbCircle
 10
1119.6939886913
 20
374.7669778257
 30
0.0
 40
9.5
100
AcDbArc
 50
2.0
 51
178.0
  0
LINE
  5
623
330
1B
100
AcDbEntity
 67
     1
  8
7_ALL_FEATURES
  6
Continuous
 62
     7
100
AcDbLine
 10
1099.362409634
 20
399.7669778257
 30
0.0
 11
1099.8439886913
 21
399.7669778257
 31
0.0
  0
LINE
  5
624
330
1B
100
AcDbEntity
 67
     1
  8
7_ALL_FEATURES
  6
Continuous
 62
     7
100
AcDbLine
 10
1097.8439886913
 20
391.7669778257
 30
0.0
 11
1097.8439886913
 21
399.7669778257
 31
0.0
  0
LINE
  5
625
330
1B
100
AcDbEntity
 67
     1
  8
7_ALL_FEATURES
  6
Continuous
 62
     7
100
AcDbLine
 10
1099.362409634
 20
391.7669778257
 30
0.0
 11
1099.8439886913
 21
391.7669778257
 31
0.0
  0
LINE
  5
626
330
1B
100
AcDbEntity
 67
     1
  8
7_ALL_FEATURES
  6
Continuous
 62
     7
100
AcDbLine
 10
1140.0255677486
 20
391.7669778257
 30
0.0
 11
1139.5439886913
 21
391.7669778257
 31
0.0
  0
LINE
  5
627
330
1B
100
AcDbEntity
 67
     1
  8
7_ALL_FEATURES
  6
Continuous
 62
     7
100
AcDbLine
 10
1141.5439886913
 20
399.7669778257
 30
0.0
 11
1141.5439886913
 21
391.7669778257
 31
0.0
  0
LINE
  5
628
330
1B
100
AcDbEntity
 67
     1
  8
7_ALL_FEATURES
  6
Continuous
 62
     7
100
AcDbLine
 10
1140.0255677486
 20
399.7669778257
 30
0.0
 11
1139.5439886913
 21
399.7669778257
 31
0.0
  0
LINE
  5
629
330
1B
100
AcDbEntity
 67
     1
  8
7_ALL_FEATURES
  6
Continuous
 62
     7
100
AcDbLine
 10
1099.362409634
 20
364.7669778257
 30
0.0
 11
1099.8439886913
 21
364.7669778257
 31
0.0
  0
LINE
  5
62A
330
1B
100
AcDbEntity
 67
     1
  8
7_ALL_FEATURES
  6
Continuous
 62
     7
100
AcDbLine
 10
1097.8439886913
 20
364.7669778257
 30
0.0
 11
1098.8439886913
 21
364.7669778257
 31
0.0
  0
LINE
  5
62B
330
1B
100
AcDbEntity
 67
     1
  8
7_ALL_FEATURES
  6
Continuous
 62
     7
100
AcDbLine
 10
1098.8439886913
 20
364.7669778257
 30
0.0
 11
1099.362409634
 21
364.7669778257
 31
0.0
  0
LINE
  5
62C
330
1B
100
AcDbEntity
 67
     1
  8
7_ALL_FEATURES
  6
Continuous
 62
     7
100
AcDbLine
 10
1097.8439886913
 20
356.7669778257
 30
0.0
 11
1097.8439886913
 21
364.7669778257
 31
0.0
  0
LINE
  5
62D
330
1B
100
AcDbEntity
 67
     1
  8
7_ALL_FEATURES
  6
Continuous
 62
     7
100
AcDbLine
 10
1097.8439886913
 20
356.7669778257
 30
0.0
 11
1098.8439886913
 21
356.7669778257
 31
0.0
  0
LINE
  5
62E
330
1B
100
AcDbEntity
 67
     1
  8
7_ALL_FEATURES
  6
Continuous
 62
     7
100
AcDbLine
 10
1098.8439886913
 20
356.7669778257
 30
0.0
 11
1099.362409634
 21
356.7669778257
 31
0.0
  0
LINE
  5
62F
330
1B
100
AcDbEntity
 67
     1
  8
7_ALL_FEATURES
  6
Continuous
 62
     7
100
AcDbLine
 10
1099.362409634
 20
356.7669778257
 30
0.0
 11
1099.8439886913
 21
356.7669778257
 31
0.0
  0
LINE
  5
630
330
1B
100
AcDbEntity
 67
     1
  8
7_ALL_FEATURES
  6
Continuous
 62
     7
100
AcDbLine
 10
1140.0255677486
 20
356.7669778257
 30
0.0
 11
1139.5439886913
 21
356.7669778257
 31
0.0
  0
LINE
  5
631
330
1B
100
AcDbEntity
 67
     1
  8
7_ALL_FEATURES
  6
Continuous
 62
     7
100
AcDbLine
 10
1141.5439886913
 20
364.7669778257
 30
0.0
 11
1141.5439886913
 21
356.7669778257
 31
0.0
  0
LINE
  5
632
330
1B
100
AcDbEntity
 67
     1
  8
7_ALL_FEATURES
  6
Continuous
 62
     7
100
AcDbLine
 10
1140.0255677486
 20
364.7669778257
 30
0.0
 11
1139.5439886913
 21
364.7669778257
 31
0.0
  0
LINE
  5
633
330
1B
100
AcDbEntity
 67
     1
  8
7_ALL_FEATURES
  6
Continuous
 62
     9
100
AcDbLine
 10
1099.8439886913
 20
356.7669778257
 30
0.0
 11
1099.8439886913
 21
364.7669778257
 31
0.0
  0
LINE
  5
634
330
1B
100
AcDbEntity
 67
     1
  8
7_ALL_FEATURES
  6
Continuous
 62
     9
100
AcDbLine
 10
1099.8439886913
 20
391.7669778257
 30
0.0
 11
1099.8439886913
 21
399.7669778257
 31
0.0
  0
LINE
  5
635
330
1B
100
AcDbEntity
 67
     1
  8
7_ALL_FEATURES
  6
Continuous
 62
     9
100
AcDbLine
 10
1139.5439886913
 20
364.7669778257
 30
0.0
 11
1139.5439886913
 21
356.7669778257
 31
0.0
  0
LINE
  5
636
330
1B
100
AcDbEntity
 67
     1
  8
7_ALL_FEATURES
  6
Continuous
 62
     9
100
AcDbLine
 10
1139.5439886913
 20
399.7669778257
 30
0.0
 11
1139.5439886913
 21
391.7669778257
 31
0.0
  0
LINE
  5
637
330
1B
100
AcDbEntity
 67
     1
  8
7_ALL_FEATURES
  6
Continuous
 62
     3
100
AcDbLine
 10
1075.1939886913
 20
349.4669778257
 30
0.0
 11
1081.4439886913
 21
349.4669778257
 31
0.0
  0
LINE
  5
638
330
1B
100
AcDbEntity
 67
     1
  8
7_ALL_FEATURES
  6
Continuous
 62
     3
100
AcDbLine
 10
1081.4439886913
 20
349.4669778257
 30
0.0
 11
1084.6939886913
 21
349.4669778257
 31
0.0
  0
LINE
  5
639
330
1B
100
AcDbEntity
 67
     1
  8
7_ALL_FEATURES
  6
Continuous
 62
     3
100
AcDbLine
 10
1084.6939886913
 20
349.4669778257
 30
0.0
 11
1085.1939886913
 21
349.4669778257
 31
0.0
  0
LINE
  5
63A
330
1B
100
AcDbEntity
 67
     1
  8
7_ALL_FEATURES
  6
Continuous
 62
     3
100
AcDbLine
 10
1154.1939886913
 20
349.4669778257
 30
0.0
 11
1154.6939886913
 21
349.4669778257
 31
0.0
  0
LINE
  5
63B
330
1B
100
AcDbEntity
 67
     1
  8
7_ALL_FEATURES
  6
Continuous
 62
     3
100
AcDbLine
 10
1154.6939886913
 20
349.4669778257
 30
0.0
 11
1157.9439886913
 21
349.4669778257
 31
0.0
  0
LINE
  5
63C
330
1B
100
AcDbEntity
 67
     1
  8
7_ALL_FEATURES
  6
Continuous
 62
     3
100
AcDbLine
 10
1157.9439886913
 20
349.4669778257
 30
0.0
 11
1164.1939886913
 21
349.4669778257
 31
0.0
  0
LINE
  5
63D
330
1B
100
AcDbEntity
 67
     1
  8
7_ALL_FEATURES
  6
Continuous
 62
     3
100
AcDbLine
 10
1085.1939886913
 20
349.4669778257
 30
0.0
 11
1099.4939886913
 21
349.4669778257
 31
0.0
  0
LINE
  5
63E
330
1B
100
AcDbEntity
 67
     1
  8
7_ALL_FEATURES
  6
Continuous
 62
     3
100
AcDbLine
 10
1139.8939886913
 20
349.4669778257
 30
0.0
 11
1154.1939886913
 21
349.4669778257
 31
0.0
  0
DIMENSION
  5
63F
330
1B
100
AcDbEntity
 67
     1
  8
0
  6
Continuous
 62
     2
100
AcDbDimension
280
     0
  2
*D1
 10
1067.6849194887
 20
347.0169778257
 30
0.0
 11
1067.6849194887
 21
391.7133816053
 31
0.0
 70
   160
 71
     5
 42
-1.0
 73
     0
 74
     0
 75
     0
  3
DIMSTYLE_1
100
AcDbAlignedDimension
 13
1045.1409959278
 23
437.2669778257
 33
0.0
 14
1031.1409959278
 24
347.0169778257
 34
0.0
 50
270.0
100
AcDbRotatedDimension
  0
DIMENSION
  5
640
330
1B
100
AcDbEntity
 67
     1
  8
0
  6
Continuous
 62
     2
100
AcDbDimension
280
     0
  2
*D2
 10
1061.7393607456
 20
226.2244656734
 30
0.0
 11
1061.7393607456
 21
247.6459202005
 31
0.0
 70
   160
 71
     5
 42
-1.0
 73
     0
 74
     0
 75
     0
  3
DIMSTYLE_1
100
AcDbAlignedDimension
 13
1043.1409959278
 23
269.9244656734
 33
0.0
 14
1043.1409959278
 24
226.2244656734
 34
0.0
 50
270.0
100
AcDbRotatedDimension
  0
DIMENSION
  5
641
330
1B
100
AcDbEntity
 67
     1
  8
0
  6
Continuous
 62
     2
100
AcDbDimension
280
     0
  2
*D3
 10
1067.6849194887
 20
292.5744656734
 30
0.0
 11
1067.6849194887
 21
247.6458694531
 31
0.0
 70
   160
 71
     5
 42
-1.0
 73
     0
 74
     0
 75
     0
  3
DIMSTYLE_2
100
AcDbAlignedDimension
 13
1028.6409959278
 23
203.5744656734
 33
0.0
 14
1028.6409959278
 24
292.5744656734
 34
0.0
 50
90.0
100
AcDbRotatedDimension
  0
DIMENSION
  5
642
330
1B
100
AcDbEntity
 67
     1
  8
0
  6
Continuous
 62
     2
100
AcDbDimension
280
     0
  2
*D4
 10
1045.1409959278
 20
190.9179160023
 30
0.0
 11
538.2124177856
 21
190.9179160023
 31
0.0
 70
   160
 71
     5
 42
-1.0
 73
     0
 74
     0
 75
     0
  3
DIMSTYLE_3
100
AcDbAlignedDimension
 13
32.1409959278
 23
227.8744656734
 33
0.0
 14
1045.1409959278
 24
227.8744656734
 34
0.0
 50
360.0
100
AcDbRotatedDimension
  0
DIMENSION
  5
643
330
1B
100
AcDbEntity
 67
     1
  8
0
  6
Continuous
 62
     2
100
AcDbDimension
280
     0
  2
*D5
 10
1164.1939886913
 20
334.7376847524
 30
0.0
 11
1119.2654112549
 21
334.7376847524
 31
0.0
 70
   160
 71
     5
 42
-1.0
 73
     0
 74
     0
 75
     0
  3
DIMSTYLE_2
100
AcDbAlignedDimension
 13
1075.1939886913
 23
336.2376847524
 33
0.0
 14
1164.1939886913
 24
336.2376847524
 34
0.0
100
AcDbRotatedDimension
  0
LINE
  5
644
330
1B
100
AcDbEntity
 67
     1
  8
0
  6
Continuous
 62
     2
100
AcDbLine
 10
1048.8196926808
 20
76.0288546686
 30
0.0
 11
1178.8196926808
 21
76.0288546686
 31
0.0
  0
LINE
  5
645
330
1B
100
AcDbEntity
 67
     1
  8
0
  6
Continuous
 62
     2
100
AcDbLine
 10
1048.8196926808
 20
76.0288546686
 30
0.0
 11
1048.8196926808
 21
10.0288546686
 31
0.0
  0
LINE
  5
646
330
1B
100
AcDbEntity
 67
     1
  8
0
  6
Continuous
 62
     2
100
AcDbLine
 10
1078.8196926808
 20
68.0288546686
 30
0.0
 11
1178.8196926808
 21
68.0288546686
 31
0.0
  0
LINE
  5
647
330
1B
100
AcDbEntity
 67
     1
  8
0
  6
Continuous
 62
     2
100
AcDbLine
 10
1048.8196926808
 20
60.0288546686
 30
0.0
 11
1178.8196926808
 21
60.0288546686
 31
0.0
  0
LINE
  5
648
330
1B
100
AcDbEntity
 67
     1
  8
0
  6
Continuous
 62
     2
100
AcDbLine
 10
1078.8196926808
 20
54.0288546686
 30
0.0
 11
1178.8196926808
 21
54.0288546686
 31
0.0
  0
LINE
  5
649
330
1B
100
AcDbEntity
 67
     1
  8
0
  6
Continuous
 62
     2
100
AcDbLine
 10
1078.8196926808
 20
48.0288546686
 30
0.0
 11
1178.8196926808
 21
48.0288546686
 31
0.0
  0
LINE
  5
64A
330
1B
100
AcDbEntity
 67
     1
  8
0
  6
Continuous
 62
     2
100
AcDbLine
 10
1078.8196926808
 20
42.0288546686
 30
0.0
 11
1178.8196926808
 21
42.0288546686
 31
0.0
  0
LINE
  5
64B
330
1B
100
AcDbEntity
 67
     1
  8
0
  6
Continuous
 62
     2
100
AcDbLine
 10
1078.8196926808
 20
36.0288546686
 30
0.0
 11
1178.8196926808
 21
36.0288546686
 31
0.0
  0
LINE
  5
64C
330
1B
100
AcDbEntity
 67
     1
  8
0
  6
Continuous
 62
     2
100
AcDbLine
 10
1078.8196926808
 20
30.0288546686
 30
0.0
 11
1178.8196926808
 21
30.0288546686
 31
0.0
  0
LINE
  5
64D
330
1B
100
AcDbEntity
 67
     1
  8
0
  6
Continuous
 62
     2
100
AcDbLine
 10
1048.8196926808
 20
24.0288546686
 30
0.0
 11
1178.8196926808
 21
24.0288546686
 31
0.0
  0
LINE
  5
64E
330
1B
100
AcDbEntity
 67
     1
  8
0
  6
Continuous
 62
     2
100
AcDbLine
 10
1048.8196926808
 20
18.0288546686
 30
0.0
 11
1178.8196926808
 21
18.0288546686
 31
0.0
  0
LINE
  5
64F
330
1B
100
AcDbEntity
 67
     1
  8
0
  6
Continuous
 62
     2
100
AcDbLine
 10
1048.8196926808
 20
14.0288546686
 30
0.0
 11
1178.8196926808
 21
14.0288546686
 31
0.0
  0
LINE
  5
650
330
1B
100
AcDbEntity
 67
     1
  8
0
  6
Continuous
 62
     2
100
AcDbLine
 10
1048.8196926808
 20
10.0288546686
 30
0.0
 11
1178.8196926808
 21
10.0288546686
 31
0.0
  0
LINE
  5
651
330
1B
100
AcDbEntity
 67
     1
  8
0
  6
Continuous
 62
     2
100
AcDbLine
 10
1078.8196926808
 20
76.0288546686
 30
0.0
 11
1078.8196926808
 21
18.0288546686
 31
0.0
  0
LINE
  5
652
330
1B
100
AcDbEntity
 67
     1
  8
0
  6
Continuous
 62
     2
100
AcDbLine
 10
1098.8196926808
 20
60.0288546686
 30
0.0
 11
1098.8196926808
 21
54.0288546686
 31
0.0
  0
LINE
  5
653
330
1B
100
AcDbEntity
 67
     1
  8
0
  6
Continuous
 62
     2
100
AcDbLine
 10
1128.8196926808
 20
30.0288546686
 30
0.0
 11
1128.8196926808
 21
18.0288546686
 31
0.0
  0
LINE
  5
654
330
1B
100
AcDbEntity
 67
     1
  8
0
  6
Continuous
 62
     2
100
AcDbLine
 10
1138.8196926808
 20
60.0288546686
 30
0.0
 11
1138.8196926808
 21
54.0288546686
 31
0.0
  0
LINE
  5
655
330
1B
100
AcDbEntity
 67
     1
  8
0
  6
Continuous
 62
     2
100
AcDbLine
 10
1138.8196926808
 20
48.0288546686
 30
0.0
 11
1138.8196926808
 21
42.0288546686
 31
0.0
  0
LINE
  5
656
330
1B
100
AcDbEntity
 67
     1
  8
0
  6
Continuous
 62
     2
100
AcDbLine
 10
1158.8196926808
 20
60.0288546686
 30
0.0
 11
1158.8196926808
 21
54.0288546686
 31
0.0
  0
LINE
  5
657
330
1B
100
AcDbEntity
 67
     1
  8
0
  6
Continuous
 62
     2
100
AcDbLine
 10
1168.8196926808
 20
48.0288546686
 30
0.0
 11
1168.8196926808
 21
42.0288546686
 31
0.0
  0
LINE
  5
658
330
1B
100
AcDbEntity
 67
     1
  8
0
  6
Continuous
 62
     2
100
AcDbLine
 10
1178.8196926808
 20
76.0288546686
 30
0.0
 11
1178.8196926808
 21
10.0288546686
 31
0.0
  0
INSERT
  5
659
330
1B
100
AcDbEntity
 67
     1
  8
0
  6
Continuous
 62
     2
100
AcDbBlockReference
  2
PROIEZIONE_EU_BL0
 10
1063.8196926808
 20
67.6538546686
 30
0.0
  0
MTEXT
  5
65A
330
1B
100
AcDbEntity
 67
     1
  8
9_SOLID
  6
Continuous
 62
     2
100
AcDbMText
 10
1080.3071926808
 20
74.4038546686
 30
0.0
 40
1.9
 41
142.3642857143
 46
0.0
 71
     1
 72
     1
  1
EN: Chamfer/radii unlisted 0.3x45°. Remove sharp edges.\PGen. tol.: hole H11, shaft h11, lenght Js12. UNI EN 22768 Medium Grande.
 73
     1
 44
1.0
  0
MTEXT
  5
65B
330
1B
100
AcDbEntity
 67
     1
  8
9_SOLID
  6
Continuous
 62
     2
100
AcDbMText
 10
1080.3071926808
 20
66.4038546686
 30
0.0
 40
1.9
 41
148.2678571429
 46
0.0
 71
     1
 72
     1
  1
IT: Sm./rac. non quotati 0.3x45°. Eliminare spigoli taglienti.\PToll. gen.: foro H11, albero h11, lunghezza Js12. UNI EN 22768 Grado Medio.
 73
     1
 44
1.0
  0
INSERT
  5
65C
330
1B
100
AcDbEntity
 67
     1
  8
0
  6
Continuous
 62
     2
100
AcDbBlockReference
  2
LOGO2_BL1
 10
1062.6457397255
 20
42.0288546686
 30
0.0
  0
MTEXT
  5
65D
330
1B
100
AcDbEntity
 67
     1
  8
9_SOLID
  6
Continuous
 62
     2
100
AcDbMText
 10
1080.3071926808
 20
58.2788546686
 30
0.0
 40
3.0
 41
21.1071428571
 46
0.0
 71
     1
 72
     1
  1
Pj: 571
 73
     1
 44
1.0
  0
MTEXT
  5
65E
330
1B
100
AcDbEntity
 67
     1
  8
0
  6
Continuous
 62
     2
100
AcDbMText
 10
1100.3071926808
 20
58.2788546686
 30
0.0
 40
3.0
 41
41.5714285714
 46
0.0
 71
     1
 72
     1
  1
% Check:  %
 73
     1
 44
1.0
  0
MTEXT
  5
65F
330
1B
100
AcDbEntity
 67
     1
  8
9_SOLID
  6
Continuous
 62
     2
100
AcDbMText
 10
1140.3071926808
 20
58.2788546686
 30
0.0
 40
3.0
 41
19.5
 46
0.0
 71
     1
 72
     1
  1
Rev:00
 73
     1
 44
1.0
  0
MTEXT
  5
660
330
1B
100
AcDbEntity
 67
     1
  8
9_SOLID
  6
Continuous
 62
     2
100
AcDbMText
 10
1160.3071926808
 20
58.5288546686
 30
0.0
 40
3.0
 41
19.7142857143
 46
0.0
 71
     1
 72
     1
  1
Ver: A
 73
     1
 44
1.0
  0
MTEXT
  5
661
330
1B
100
AcDbEntity
 67
     1
  8
9_SOLID
  6
Continuous
 62
     2
100
AcDbMText
 10
1080.3071926808
 20
52.2788546686
 30
0.0
 40
3.0
 41
73.7142857143
 46
0.0
 71
     1
 72
     1
  1
Neutral code: 571_C_472
 73
     1
 44
1.0
  0
MTEXT
  5
662
330
1B
100
AcDbEntity
 67
     1
  8
0
  6
Continuous
 62
     2
100
AcDbMText
 10
1080.3071926808
 20
46.2788546686
 30
0.0
 40
3.0
 41
22.9285714286
 46
0.0
 71
     1
 72
     1
  1
Code:  
 73
     1
 44
1.0
  0
MTEXT
  5
663
330
1B
100
AcDbEntity
 67
     1
  8
9_SOLID
  6
Continuous
 62
     2
100
AcDbMText
 10
1140.3071926808
 20
46.5288546686
 30
0.0
 40
3.0
 41
27.8571428571
 46
0.0
 71
     1
 72
     1
  1
Scale: 1:1
 73
     1
 44
1.0
  0
MTEXT
  5
664
330
1B
100
AcDbEntity
 67
     1
  8
9_SOLID
  6
Continuous
 62
     2
100
AcDbMText
 10
1173.8196926808
 20
46.5288546686
 30
0.0
 40
3.0
 41
8.25
 46
0.0
 71
     2
 72
     1
  1
A0
 73
     1
 44
1.0
  0
MTEXT
  5
665
330
1B
100
AcDbEntity
 67
     1
  8
9_SOLID
  6
Continuous
 62
     2
100
AcDbMText
 10
1080.3071926808
 20
40.5288546686
 30
0.0
 40
3.0
 41
125.7857142857
 46
0.0
 71
     1
 72
     1
  1
It descr.: CASSAFORMA RIO 2.2 AISI 316
 73
     1
 44
1.0
  0
MTEXT
  5
666
330
1B
100
AcDbEntity
 67
     1
  8
0
  6
Continuous
 62
     2
100
AcDbMText
 10
1080.3071926808
 20
34.5288546686
 30
0.0
 40
3.0
 41
37.5
 46
0.0
 71
     1
 72
     1
  1
En descr.:  
 73
     1
 44
1.0
  0
MTEXT
  5
667
330
1B
100
AcDbEntity
 67
     1
  8
9_SOLID
  6
Continuous
 62
     2
100
AcDbMText
 10
1080.3071926808
 20
28.5288546686
 30
0.0
 40
3.0
 41
31.2857142857
 46
0.0
 71
     1
 72
     1
  1
Des.: S.Z.
 73
     1
 44
1.0
  0
MTEXT
  5
668
330
1B
100
AcDbEntity
 67
     1
  8
9_SOLID
  6
Continuous
 62
     2
100
AcDbMText
 10
1130.3071926808
 20
28.5288546686
 30
0.0
 40
3.0
 41
22.2857142857
 46
0.0
 71
     1
 72
     1
  1
Check: 
 73
     1
 44
1.0
  0
MTEXT
  5
669
330
1B
100
AcDbEntity
 67
     1
  8
9_SOLID
  6
Continuous
 62
     2
100
AcDbMText
 10
1050.3071926808
 20
22.5288546686
 30
0.0
 40
3.0
 41
43.5
 46
0.0
 71
     1
 72
     1
  1
Date: 06.12.18
 73
     1
 44
1.0
  0
MTEXT
  5
66A
330
1B
100
AcDbEntity
 67
     1
  8
0
  6
Continuous
 62
     2
100
AcDbMText
 10
1080.3071926808
 20
22.5288546686
 30
0.0
 40
3.0
 41
21.75
 46
0.0
 71
     1
 72
     1
  1
Mat.:  
 73
     1
 44
1.0
  0
MTEXT
  5
66B
330
1B
100
AcDbEntity
 67
     1
  8
9_SOLID
  6
Continuous
 62
     2
100
AcDbMText
 10
1130.3071926808
 20
22.0288546686
 30
0.0
 40
2.0
 41
42.3571428571
 46
0.0
 71
     1
 72
     1
  1
Disegno per catalogo
 73
     1
 44
1.0
  0
MTEXT
  5
66C
330
1B
100
AcDbEntity
 67
     1
  8
9_SOLID
  6
Continuous
 62
     2
100
AcDbMText
 10
1050.3071926808
 20
16.9288546686
 30
0.0
 40
1.8
 41
176.2071428571
 46
0.0
 71
     1
 72
     1
  1
It: A norma di legge si diffida da qualsiasi riproduzione senza nostra autorizzazione esplicita.
 73
     1
 44
1.0
  0
MTEXT
  5
66D
330
1B
100
AcDbEntity
 67
     1
  8
9_SOLID
  6
Continuous
 62
     2
100
AcDbMText
 10
1050.3071926808
 20
12.9288546686
 30
0.0
 40
1.8
 41
158.1428571429
 46
0.0
 71
     1
 72
     1
  1
En: According to the law, beware of any reproduction made without our authorization.
 73
     1
 44
1.0
  0
ENDSEC
  0
SECTION
  2
OBJECTS
  0
DICTIONARY
  5
66E
330
0
100
AcDbDictionary
281
     1
  3
ACAD_DETAILVIEWSTYLE
350
6C4
  3
ACAD_GROUP
350
66F
  3
ACAD_LAYOUT
350
697
  3
ACAD_MATERIAL
350
6B3
  3
ACAD_MLEADERSTYLE
350
6B9
  3
ACAD_MLINESTYLE
350
670
  3
ACAD_PLOTSETTINGS
350
672
  3
ACAD_PLOTSTYLENAME
350
673
  3
ACAD_SCALELIST
350
675
  3
ACAD_SECTIONVIEWSTYLE
350
6C5
  3
ACAD_TABLESTYLE
350
6B7
  3
ACAD_VISUALSTYLE
350
69A
  3
ACDB_RECOMPOSE_DATA
350
6C0
  3
AcDbVariableDictionary
350
6BC
  3
APPDATA
350
6BB
  0
DICTIONARY
  5
6C4
102
{ACAD_REACTORS
330
66E
102
}
330
66E
100
AcDbDictionary
281
     1
  0
DICTIONARY
  5
66F
102
{ACAD_REACTORS
330
66E
102
}
330
66E
100
AcDbDictionary
281
     1
  0
DICTIONARY
  5
697
102
{ACAD_REACTORS
330
66E
102
}
330
66E
100
AcDbDictionary
281
     1
  3
Foglio 1
350
699
  3
Model
350
698
  0
DICTIONARY
  5
6B3
102
{ACAD_REACTORS
330
66E
102
}
330
66E
100
AcDbDictionary
281
     1
  3
ByBlock
350
6B5
  3
ByLayer
350
6B4
  3
Global
350
6B6
  0
DICTIONARY
  5
6B9
102
{ACAD_REACTORS
330
66E
102
}
330
66E
100
AcDbDictionary
281
     1
  3
Standard
350
6BA
  0
DICTIONARY
  5
670
102
{ACAD_REACTORS
330
66E
102
}
330
66E
100
AcDbDictionary
281
     1
  3
STANDARD
350
671
  0
DICTIONARY
  5
672
102
{ACAD_REACTORS
330
66E
102
}
330
66E
100
AcDbDictionary
281
     1
  0
ACDBDICTIONARYWDFLT
  5
673
102
{ACAD_REACTORS
330
66E
102
}
330
66E
100
AcDbDictionary
281
     1
  3
Normal
350
674
100
AcDbDictionaryWithDefault
340
674
  0
DICTIONARY
  5
675
102
{ACAD_REACTORS
330
66E
102
}
330
66E
100
AcDbDictionary
281
     1
  3
A0
350
676
  3
A1
350
677
  3
A2
350
678
  3
A3
350
679
  3
A4
350
67A
  3
A5
350
67B
  3
A6
350
67C
  3
A7
350
67D
  3
A8
350
67E
  3
A9
350
67F
  3
B0
350
680
  3
B1
350
681
  3
B2
350
682
  3
B3
350
683
  3
B4
350
684
  3
B5
350
685
  3
B6
350
686
  3
B7
350
687
  3
B8
350
688
  3
B9
350
689
  3
C0
350
68A
  3
C1
350
68B
  3
C2
350
68C
  3
C3
350
68D
  3
C4
350
68E
  3
C5
350
68F
  3
C6
350
690
  3
C7
350
691
  3
C8
350
692
  3
C9
350
693
  3
D0
350
694
  3
D1
350
695
  3
D2
350
696
  0
DICTIONARY
  5
6C5
102
{ACAD_REACTORS
330
66E
102
}
330
66E
100
AcDbDictionary
281
     1
  0
DICTIONARY
  5
6B7
102
{ACAD_REACTORS
330
66E
102
}
330
66E
100
AcDbDictionary
281
     1
  3
Standard
350
6B8
  0
DICTIONARY
  5
69A
102
{ACAD_REACTORS
330
66E
102
}
330
66E
100
AcDbDictionary
281
     1
  3
2dWireframe
350
69F
  3
Basic
350
6A2
  3
Brighten
350
6A6
  3
ColorChange
350
6AA
  3
Conceptual
350
6A4
  3
Dim
350
6A5
  3
EdgeColorOff
350
6AD
  3
Facepattern
350
6A9
  3
Flat
350
69B
  3
FlatWithEdges
350
69C
  3
Gouraud
350
69D
  3
GouraudWithEdges
350
69E
  3
Hidden
350
6A1
  3
JitterOff
350
6AB
  3
Linepattern
350
6A8
  3
OverhangOff
350
6AC
  3
Realistic
350
6A3
  3
Shaded
350
6B2
  3
Shaded with edges
350
6B1
  3
Shades of Gray
350
6AE
  3
Sketchy
350
6AF
  3
Thicken
350
6A7
  3
Wireframe
350
6A0
  3
X-Ray
350
6B0
  0
XRECORD
  5
6C0
102
{ACAD_REACTORS
330
66E
102
}
330
66E
100
AcDbXrecord
280
     1
 90
        1
330
6B8
  0
DICTIONARY
  5
6BC
102
{ACAD_REACTORS
330
66E
102
}
330
66E
100
AcDbDictionary
281
     1
  3
CANNOSCALE
350
6BD
  3
CMLEADERSTYLE
350
6C2
  3
CTABLESTYLE
350
6C1
  3
MSLTSCALE
350
6C3
  0
DICTIONARY
  5
6BB
102
{ACAD_REACTORS
330
66E
102
}
330
66E
100
AcDbDictionary
281
     1
  0
LAYOUT
  5
699
102
{ACAD_REACTORS
330
697
102
}
330
697
100
AcDbPlotSettings
  1

  2
none_device
  4
ISO_A3_(420.00_x_297.00_MM)
  6

 40
7.5
 41
20.0
 42
7.5
 43
20.0
 44
420.0
 45
297.0
 46
0.0
 47
0.0
 48
0.0
 49
0.0
140
0.0
141
0.0
142
1.0
143
3.272373540856031
 70
   688
 72
     1
 73
     0
 74
     1
  7

 75
     0
 76
     0
 77
     2
 78
   300
147
0.3055885850178359
148
0.0
149
0.0
100
AcDbLayout
  1
Foglio 1
 70
     1
 71
     1
 10
0.0
 20
0.0
 11
412.5
 21
277.0
 12
0.0
 22
0.0
 32
0.0
 14
0.0
 24
0.0
 34
0.0
 15
1189.0
 25
841.0
 35
0.0
146
0.0
 13
0.0
 23
0.0
 33
0.0
 16
1.0
 26
0.0
 36
0.0
 17
0.0
 27
1.0
 37
0.0
 76
     0
330
1B
331
2B5
  0
LAYOUT
  5
698
102
{ACAD_REACTORS
330
697
102
}
330
697
100
AcDbPlotSettings
  1

  2
none_device
  4
Letter_(8.50_x_11.00_Inches)
  6

 40
6.35
 41
6.35
 42
6.35
 43
6.35
 44
215.9
 45
279.4
 46
0.0
 47
0.0
 48
0.0
 49
0.0
140
0.0
141
0.0
142
1.0
143
148.624999994925
 70
  1712
 72
     0
 73
     0
 74
     0
  7

 75
     0
 76
     0
 77
     2
 78
   300
147
0.0067283431457302
148
-0.0000005156208999
149
0.0
100
AcDbLayout
  1
Model
 70
     1
 71
     0
 10
0.0
 20
0.0
 11
1189.0
 21
841.0
 12
0.0
 22
0.0
 32
0.0
 14
0.0
 24
0.0
 34
0.0
 15
1189.0
 25
841.0
 35
0.0
146
0.0
 13
0.0
 23
0.0
 33
0.0
 16
1.0
 26
0.0
 36
0.0
 17
0.0
 27
1.0
 37
0.0
 76
     0
330
1F
331
1F4
  0
MATERIAL
  5
6B5
102
{ACAD_REACTORS
330
6B3
102
}
330
6B3
100
AcDbMaterial
  1
ByBlock
 72
     1
 94
      127
  0
MATERIAL
  5
6B4
102
{ACAD_REACTORS
330
6B3
102
}
330
6B3
100
AcDbMaterial
  1
ByLayer
 72
     1
 94
      127
  0
MATERIAL
  5
6B6
102
{ACAD_REACTORS
330
6B3
102
}
330
6B3
100
AcDbMaterial
  1
Global
 72
     1
 94
      127
  0
MLEADERSTYLE
  5
6BA
102
{ACAD_REACTORS
330
6B9
102
}
330
6B9
100
AcDbMLeaderStyle
179
     2
170
     2
171
     1
172
     0
 90
        2
 40
0.0
 41
0.0
173
     1
 91
-1056964608
340
14
 92
       -2
290
     1
 42
2.0
291
     1
 43
8.0
  3
Standard
341
0
 44
4.0
300

342
11
174
     1
178
     1
175
     1
176
     0
 93
-1056964608
 45
4.0
292
     0
297
     0
 46
4.0
343
0
 94
-1056964608
 47
1.0
 49
1.0
140
1.0
293
     1
141
0.0
294
     1
177
     0
142
1.0
295
     0
296
     0
143
3.75
271
     0
272
     9
273
     9
298
     0
  0
MLINESTYLE
  5
671
102
{ACAD_REACTORS
330
670
102
}
330
670
100
AcDbMlineStyle
  2
STANDARD
 70
     0
  3

 62
   256
 51
90.0
 52
90.0
 71
     2
 49
0.5
 62
   256
  6
BYLAYER
 49
-0.5
 62
   256
  6
BYLAYER
  0
ACDBPLACEHOLDER
  5
674
102
{ACAD_REACTORS
330
673
102
}
330
673
  0
SCALE
  5
676
102
{ACAD_REACTORS
330
675
102
}
330
675
100
AcDbScale
 70
     0
300
1:1
140
1.0
141
1.0
290
     1
  0
SCALE
  5
677
102
{ACAD_REACTORS
330
675
102
}
330
675
100
AcDbScale
 70
     0
300
1:2
140
1.0
141
2.0
290
     0
  0
SCALE
  5
678
102
{ACAD_REACTORS
330
675
102
}
330
675
100
AcDbScale
 70
     0
300
1:4
140
1.0
141
4.0
290
     0
  0
SCALE
  5
679
102
{ACAD_REACTORS
330
675
102
}
330
675
100
AcDbScale
 70
     0
300
1:5
140
1.0
141
5.0
290
     0
  0
SCALE
  5
67A
102
{ACAD_REACTORS
330
675
102
}
330
675
100
AcDbScale
 70
     0
300
1:8
140
1.0
141
8.0
290
     0
  0
SCALE
  5
67B
102
{ACAD_REACTORS
330
675
102
}
330
675
100
AcDbScale
 70
     0
300
1:10
140
1.0
141
10.0
290
     0
  0
SCALE
  5
67C
102
{ACAD_REACTORS
330
675
102
}
330
675
100
AcDbScale
 70
     0
300
1:16
140
1.0
141
16.0
290
     0
  0
SCALE
  5
67D
102
{ACAD_REACTORS
330
675
102
}
330
675
100
AcDbScale
 70
     0
300
1:20
140
1.0
141
20.0
290
     0
  0
SCALE
  5
67E
102
{ACAD_REACTORS
330
675
102
}
330
675
100
AcDbScale
 70
     0
300
1:30
140
1.0
141
30.0
290
     0
  0
SCALE
  5
67F
102
{ACAD_REACTORS
330
675
102
}
330
675
100
AcDbScale
 70
     0
300
1:40
140
1.0
141
40.0
290
     0
  0
SCALE
  5
680
102
{ACAD_REACTORS
330
675
102
}
330
675
100
AcDbScale
 70
     0
300
1:50
140
1.0
141
50.0
290
     0
  0
SCALE
  5
681
102
{ACAD_REACTORS
330
675
102
}
330
675
100
AcDbScale
 70
     0
300
1:100
140
1.0
141
100.0
290
     0
  0
SCALE
  5
682
102
{ACAD_REACTORS
330
675
102
}
330
675
100
AcDbScale
 70
     0
300
2:1
140
2.0
141
1.0
290
     0
  0
SCALE
  5
683
102
{ACAD_REACTORS
330
675
102
}
330
675
100
AcDbScale
 70
     0
300
4:1
140
4.0
141
1.0
290
     0
  0
SCALE
  5
684
102
{ACAD_REACTORS
330
675
102
}
330
675
100
AcDbScale
 70
     0
300
8:1
140
8.0
141
1.0
290
     0
  0
SCALE
  5
685
102
{ACAD_REACTORS
330
675
102
}
330
675
100
AcDbScale
 70
     0
300
10:1
140
10.0
141
1.0
290
     0
  0
SCALE
  5
686
102
{ACAD_REACTORS
330
675
102
}
330
675
100
AcDbScale
 70
     0
300
100:1
140
100.0
141
1.0
290
     0
  0
SCALE
  5
687
102
{ACAD_REACTORS
330
675
102
}
330
675
100
AcDbScale
 70
     0
300
1/128" = 1'-0"
140
0.0078125
141
12.0
290
     0
  0
SCALE
  5
688
102
{ACAD_REACTORS
330
675
102
}
330
675
100
AcDbScale
 70
     0
300
1/64" = 1'-0"
140
0.015625
141
12.0
290
     0
  0
SCALE
  5
689
102
{ACAD_REACTORS
330
675
102
}
330
675
100
AcDbScale
 70
     0
300
1/32" = 1'-0"
140
0.03125
141
12.0
290
     0
  0
SCALE
  5
68A
102
{ACAD_REACTORS
330
675
102
}
330
675
100
AcDbScale
 70
     0
300
1/16" = 1'-0"
140
0.0625
141
12.0
290
     0
  0
SCALE
  5
68B
102
{ACAD_REACTORS
330
675
102
}
330
675
100
AcDbScale
 70
     0
300
3/32" = 1'-0"
140
0.09375
141
12.0
290
     0
  0
SCALE
  5
68C
102
{ACAD_REACTORS
330
675
102
}
330
675
100
AcDbScale
 70
     0
300
1/8" = 1'-0"
140
0.125
141
12.0
290
     0
  0
SCALE
  5
68D
102
{ACAD_REACTORS
330
675
102
}
330
675
100
AcDbScale
 70
     0
300
3/16" = 1'-0"
140
0.1875
141
12.0
290
     0
  0
SCALE
  5
68E
102
{ACAD_REACTORS
330
675
102
}
330
675
100
AcDbScale
 70
     0
300
1/4" = 1'-0"
140
0.25
141
12.0
290
     0
  0
SCALE
  5
68F
102
{ACAD_REACTORS
330
675
102
}
330
675
100
AcDbScale
 70
     0
300
3/8" = 1'-0"
140
0.375
141
12.0
290
     0
  0
SCALE
  5
690
102
{ACAD_REACTORS
330
675
102
}
330
675
100
AcDbScale
 70
     0
300
1/2" = 1'-0"
140
0.5
141
12.0
290
     0
  0
SCALE
  5
691
102
{ACAD_REACTORS
330
675
102
}
330
675
100
AcDbScale
 70
     0
300
3/4" = 1'-0"
140
0.75
141
12.0
290
     0
  0
SCALE
  5
692
102
{ACAD_REACTORS
330
675
102
}
330
675
100
AcDbScale
 70
     0
300
1" = 1'-0"
140
1.0
141
12.0
290
     0
  0
SCALE
  5
693
102
{ACAD_REACTORS
330
675
102
}
330
675
100
AcDbScale
 70
     0
300
1-1/2" = 1'-0"
140
1.5
141
12.0
290
     0
  0
SCALE
  5
694
102
{ACAD_REACTORS
330
675
102
}
330
675
100
AcDbScale
 70
     0
300
3" = 1'-0"
140
3.0
141
12.0
290
     0
  0
SCALE
  5
695
102
{ACAD_REACTORS
330
675
102
}
330
675
100
AcDbScale
 70
     0
300
6" = 1'-0"
140
6.0
141
12.0
290
     0
  0
SCALE
  5
696
102
{ACAD_REACTORS
330
675
102
}
330
675
100
AcDbScale
 70
     0
300
1'-0" = 1'-0"
140
12.0
141
12.0
290
     0
  0
TABLESTYLE
  5
6B8
102
{ACAD_REACTORS
330
6B7
102
}
102
{ACAD_XDICTIONARY
360
6BE
102
}
330
6B7
100
AcDbTableStyle
  3
Standard
 70
     0
 71
     0
 40
0.06
 41
0.06
280
     0
281
     0
  7
STANDARD
140
4.5
170
     2
 62
     0
 63
   257
283
     0
 90
        4
 91
        0
  1

274
    -2
284
     1
 64
     0
275
    -2
285
     1
 65
     0
276
    -2
286
     1
 66
     0
277
    -2
287
     1
 67
     0
278
    -2
288
     1
 68
     0
279
    -2
289
     1
 69
     0
  7
STANDARD
140
6.0
170
     5
 62
     0
 63
   257
283
     0
 90
        4
 91
        0
  1

274
    -2
284
     1
 64
     0
275
    -2
285
     1
 65
     0
276
    -2
286
     1
 66
     0
277
    -2
287
     1
 67
     0
278
    -2
288
     1
 68
     0
279
    -2
289
     1
 69
     0
  7
STANDARD
140
4.5
170
     5
 62
     0
 63
   257
283
     0
 90
        4
 91
        0
  1

274
    -2
284
     1
 64
     0
275
    -2
285
     1
 65
     0
276
    -2
286
     1
 66
     0
277
    -2
287
     1
 67
     0
278
    -2
288
     1
 68
     0
279
    -2
289
     1
 69
     0
  0
VISUALSTYLE
  5
69F
102
{ACAD_REACTORS
330
69A
102
}
330
69A
100
AcDbVisualStyle
  2
2dWireframe
 70
     4
177
     3
291
     0
 70
    58
 90
        0
176
     1
 90
        2
176
     1
 90
        0
176
     1
 90
        0
176
     1
 40
0.6
176
     1
 40
30.0
176
     1
 62
     7
420
 16777215
176
     1
 90
        1
176
     1
 90
        4
176
     1
 62
     7
176
     1
 62
   257
176
     1
 90
        1
176
     1
 90
        1
176
     1
 40
1.0
176
     1
 90
        0
176
     1
 62
   257
176
     1
 40
1.0
176
     1
 90
        1
176
     1
 90
        6
176
     1
 90
        2
176
     1
 62
     7
176
     1
 90
        5
176
     1
 90
        0
176
     1
 90
        0
176
     1
290
     0
176
     1
 90
        1
176
     1
 40
0.0
176
     1
 90
        0
176
     1
290
     1
176
     1
290
     1
176
     1
290
     0
176
     1
290
     0
176
     1
290
     0
176
     1
290
     0
176
     1
290
     0
176
     1
290
     0
176
     1
290
     0
176
     1
 90
       50
176
     1
 40
0.0
176
     1
 40
1.0
176
     1
 90
        0
176
     1
 62
    18
420
        0
176
     1
 90
       50
176
     1
 90
        3
176
     1
 62
     5
420
      255
176
     1
290
     0
176
     1
 90
       50
176
     1
 90
       50
176
     1
 90
       50
176
     1
290
     0
176
     1
 90
       50
176
     1
 62
   256
176
     0
 40
1.0
176
     0
 90
        2
176
     1
  1
strokes_ogs.tif
176
     1
290
     0
176
     1
 40
1.0
176
     1
 40
1.0
176
     1
  0
VISUALSTYLE
  5
6A2
102
{ACAD_REACTORS
330
69A
102
}
330
69A
100
AcDbVisualStyle
  2
Basic
 70
     7
177
     3
291
     1
 70
    58
 90
        1
176
     1
 90
        0
176
     1
 90
        1
176
     1
 90
        0
176
     1
 40
0.6
176
     1
 40
30.0
176
     1
 62
     7
420
 16777215
176
     1
 90
        0
176
     1
 90
        4
176
     1
 62
     7
176
     1
 62
   257
176
     1
 90
        1
176
     1
 90
        1
176
     1
 40
1.0
176
     1
 90
        8
176
     1
 62
     7
176
     1
 40
1.0
176
     1
 90
        1
176
     1
 90
        6
176
     1
 90
        2
176
     1
 62
     7
176
     1
 90
        5
176
     1
 90
        0
176
     1
 90
        0
176
     1
290
     0
176
     1
 90
        1
176
     1
 40
0.0
176
     1
 90
        0
176
     1
290
     0
176
     1
290
     1
176
     1
290
     1
176
     1
290
     0
176
     1
290
     0
176
     1
290
     0
176
     1
290
     0
176
     1
290
     0
176
     1
290
     0
176
     1
 90
       50
176
     1
 40
0.0
176
     1
 40
1.0
176
     1
 90
        0
176
     1
 62
    18
420
        0
176
     1
 90
       50
176
     1
 90
        3
176
     1
 62
     5
420
      255
176
     1
290
     0
176
     1
 90
       50
176
     1
 90
       50
176
     1
 90
       50
176
     1
290
     0
176
     1
 90
       50
176
     1
 62
   256
176
     0
 40
1.0
176
     0
 90
        2
176
     1
  1
strokes_ogs.tif
176
     1
290
     0
176
     1
 40
1.0
176
     1
 40
1.0
176
     1
  0
VISUALSTYLE
  5
6A6
102
{ACAD_REACTORS
330
69A
102
}
330
69A
100
AcDbVisualStyle
  2
Brighten
 70
    12
177
     3
291
     1
 70
    58
 90
        2
176
     1
 90
        2
176
     1
 90
        0
176
     1
 90
        0
176
     1
 40
0.6
176
     1
 40
30.0
176
     1
 62
     7
420
 16777215
176
     1
 90
        1
176
     1
 90
        4
176
     1
 62
     7
176
     1
 62
   257
176
     1
 90
        1
176
     1
 90
        1
176
     1
 40
1.0
176
     1
 90
        8
176
     1
 62
     7
176
     1
 40
1.0
176
     1
 90
        1
176
     1
 90
        6
176
     1
 90
        2
176
     1
 62
     7
176
     1
 90
        5
176
     1
 90
        0
176
     1
 90
        0
176
     1
290
     0
176
     1
 90
        1
176
     1
 40
50.0
176
     1
 90
        0
176
     1
290
     0
176
     1
290
     1
176
     1
290
     1
176
     1
290
     0
176
     1
290
     0
176
     1
290
     0
176
     1
290
     0
176
     1
290
     0
176
     1
290
     0
176
     1
 90
       50
176
     1
 40
0.0
176
     1
 40
1.0
176
     1
 90
        0
176
     1
 62
    18
420
        0
176
     1
 90
       50
176
     1
 90
        3
176
     1
 62
     5
420
      255
176
     1
290
     0
176
     1
 90
       50
176
     1
 90
       50
176
     1
 90
       50
176
     1
290
     0
176
     1
 90
       50
176
     1
 62
   256
176
     0
 40
1.0
176
     0
 90
        2
176
     1
  1
strokes_ogs.tif
176
     1
290
     0
176
     1
 40
1.0
176
     1
 40
1.0
176
     1
  0
VISUALSTYLE
  5
6AA
102
{ACAD_REACTORS
330
69A
102
}
330
69A
100
AcDbVisualStyle
  2
ColorChange
 70
    16
177
     3
291
     1
 70
    58
 90
        2
176
     1
 90
        2
176
     1
 90
        3
176
     1
 90
        0
176
     1
 40
0.6
176
     1
 40
30.0
176
     1
 62
     8
420
  8421504
176
     1
 90
        1
176
     1
 90
        4
176
     1
 62
     7
176
     1
 62
   257
176
     1
 90
        1
176
     1
 90
        1
176
     1
 40
1.0
176
     1
 90
        8
176
     1
 62
     8
420
  8421504
176
     1
 40
1.0
176
     1
 90
        1
176
     1
 90
        6
176
     1
 90
        2
176
     1
 62
     7
176
     1
 90
        5
176
     1
 90
        0
176
     1
 90
        0
176
     1
290
     0
176
     1
 90
        1
176
     1
 40
0.0
176
     1
 90
        0
176
     1
290
     0
176
     1
290
     1
176
     1
290
     1
176
     1
290
     0
176
     1
290
     0
176
     1
290
     0
176
     1
290
     0
176
     1
290
     0
176
     1
290
     0
176
     1
 90
       50
176
     1
 40
0.0
176
     1
 40
1.0
176
     1
 90
        0
176
     1
 62
    18
420
        0
176
     1
 90
       50
176
     1
 90
        3
176
     1
 62
     5
420
      255
176
     1
290
     0
176
     1
 90
       50
176
     1
 90
       50
176
     1
 90
       50
176
     1
290
     0
176
     1
 90
       50
176
     1
 62
   256
176
     0
 40
1.0
176
     0
 90
        2
176
     1
  1
strokes_ogs.tif
176
     1
290
     0
176
     1
 40
1.0
176
     1
 40
1.0
176
     1
  0
VISUALSTYLE
  5
6A4
102
{ACAD_REACTORS
330
69A
102
}
330
69A
100
AcDbVisualStyle
  2
Conceptual
 70
     9
177
     3
291
     0
 70
    58
 90
        3
176
     1
 90
        2
176
     1
 90
        0
176
     1
 90
        0
176
     1
 40
0.6
176
     1
 40
30.0
176
     1
 62
     7
420
 16777215
176
     1
 90
        2
176
     1
 90
        2
176
     1
 62
     7
176
     1
 62
   257
176
     1
 90
        1
176
     1
 90
        1
176
     1
 40
179.0
176
     1
 90
        8
176
     1
 62
     7
176
     1
 40
1.0
176
     1
 90
        1
176
     1
 90
        6
176
     1
 90
        2
176
     1
 62
     7
176
     1
 90
        3
176
     1
 90
        0
176
     1
 90
        0
176
     1
290
     0
176
     1
 90
        1
176
     1
 40
0.0
176
     1
 90
        0
176
     1
290
     0
176
     1
290
     1
176
     1
290
     1
176
     1
290
     0
176
     1
290
     0
176
     1
290
     0
176
     1
290
     0
176
     1
290
     0
176
     1
290
     0
176
     1
 90
       50
176
     1
 40
0.0
176
     1
 40
1.0
176
     1
 90
        0
176
     1
 62
    18
420
        0
176
     1
 90
       50
176
     1
 90
        3
176
     1
 62
     5
420
      255
176
     1
290
     0
176
     1
 90
       50
176
     1
 90
       50
176
     1
 90
       50
176
     1
290
     0
176
     1
 90
       50
176
     1
 62
   256
176
     0
 40
1.0
176
     0
 90
        2
176
     1
  1
strokes_ogs.tif
176
     1
290
     0
176
     1
 40
1.0
176
     1
 40
1.0
176
     1
  0
VISUALSTYLE
  5
6A5
102
{ACAD_REACTORS
330
69A
102
}
330
69A
100
AcDbVisualStyle
  2
Dim
 70
    11
177
     3
291
     1
 70
    58
 90
        2
176
     1
 90
        2
176
     1
 90
        0
176
     1
 90
        0
176
     1
 40
0.6
176
     1
 40
30.0
176
     1
 62
     7
420
 16777215
176
     1
 90
        1
176
     1
 90
        4
176
     1
 62
     7
176
     1
 62
   257
176
     1
 90
        1
176
     1
 90
        1
176
     1
 40
1.0
176
     1
 90
        8
176
     1
 62
     7
176
     1
 40
1.0
176
     1
 90
        1
176
     1
 90
        6
176
     1
 90
        2
176
     1
 62
     7
176
     1
 90
        5
176
     1
 90
        0
176
     1
 90
        0
176
     1
290
     0
176
     1
 90
        1
176
     1
 40
-50.0
176
     1
 90
        0
176
     1
290
     0
176
     1
290
     1
176
     1
290
     1
176
     1
290
     0
176
     1
290
     0
176
     1
290
     0
176
     1
290
     0
176
     1
290
     0
176
     1
290
     0
176
     1
 90
       50
176
     1
 40
0.0
176
     1
 40
1.0
176
     1
 90
        0
176
     1
 62
    18
420
        0
176
     1
 90
       50
176
     1
 90
        3
176
     1
 62
     5
420
      255
176
     1
290
     0
176
     1
 90
       50
176
     1
 90
       50
176
     1
 90
       50
176
     1
290
     0
176
     1
 90
       50
176
     1
 62
   256
176
     0
 40
1.0
176
     0
 90
        2
176
     1
  1
strokes_ogs.tif
176
     1
290
     0
176
     1
 40
1.0
176
     1
 40
1.0
176
     1
  0
VISUALSTYLE
  5
6AD
102
{ACAD_REACTORS
330
69A
102
}
330
69A
100
AcDbVisualStyle
  2
EdgeColorOff
 70
    22
177
     3
291
     1
 70
    58
 90
        2
176
     0
 90
        2
176
     0
 90
        0
176
     0
 90
        0
176
     0
 40
0.6
176
     0
 40
30.0
176
     0
 62
     7
420
 16777215
176
     0
 90
        1
176
     0
 90
        4
176
     0
 62
     7
176
     0
 62
   257
176
     0
 90
        1
176
     0
 90
        1
176
     0
 40
1.0
176
     0
 90
        8
176
     2
 62
     7
176
     0
 40
1.0
176
     0
 90
        1
176
     0
 90
        6
176
     0
 90
        2
176
     0
 62
     7
176
     0
 90
        5
176
     0
 90
        0
176
     0
 90
        0
176
     0
290
     0
176
     0
 90
        1
176
     0
 40
0.0
176
     0
 90
        0
176
     0
290
     0
176
     0
290
     1
176
     0
290
     1
176
     0
290
     0
176
     0
290
     0
176
     0
290
     0
176
     0
290
     0
176
     0
290
     0
176
     0
290
     0
176
     0
 90
       50
176
     0
 40
0.0
176
     0
 40
1.0
176
     0
 90
        0
176
     0
 62
    18
420
        0
176
     0
 90
       50
176
     0
 90
        3
176
     0
 62
     5
420
      255
176
     0
290
     0
176
     0
 90
       50
176
     0
 90
       50
176
     0
 90
       50
176
     0
290
     0
176
     0
 90
       50
176
     0
 62
   256
176
     0
 40
1.0
176
     0
 90
        2
176
     0
  1
strokes_ogs.tif
176
     0
290
     0
176
     0
 40
1.0
176
     0
 40
1.0
176
     0
  0
VISUALSTYLE
  5
6A9
102
{ACAD_REACTORS
330
69A
102
}
330
69A
100
AcDbVisualStyle
  2
Facepattern
 70
    15
177
     3
291
     1
 70
    58
 90
        2
176
     1
 90
        2
176
     1
 90
        0
176
     1
 90
        0
176
     1
 40
0.6
176
     1
 40
30.0
176
     1
 62
     7
420
 16777215
176
     1
 90
        1
176
     1
 90
        4
176
     1
 62
     7
176
     1
 62
   257
176
     1
 90
        1
176
     1
 90
        1
176
     1
 40
1.0
176
     1
 90
        8
176
     1
 62
     7
176
     1
 40
1.0
176
     1
 90
        1
176
     1
 90
        6
176
     1
 90
        2
176
     1
 62
     7
176
     1
 90
        5
176
     1
 90
        0
176
     1
 90
        0
176
     1
290
     0
176
     1
 90
        1
176
     1
 40
0.0
176
     1
 90
        0
176
     1
290
     0
176
     1
290
     1
176
     1
290
     1
176
     1
290
     0
176
     1
290
     0
176
     1
290
     0
176
     1
290
     0
176
     1
290
     0
176
     1
290
     0
176
     1
 90
       50
176
     1
 40
0.0
176
     1
 40
1.0
176
     1
 90
        0
176
     1
 62
    18
420
        0
176
     1
 90
       50
176
     1
 90
        3
176
     1
 62
     5
420
      255
176
     1
290
     0
176
     1
 90
       50
176
     1
 90
       50
176
     1
 90
       50
176
     1
290
     0
176
     1
 90
       50
176
     1
 62
   256
176
     0
 40
1.0
176
     0
 90
        2
176
     1
  1
strokes_ogs.tif
176
     1
290
     0
176
     1
 40
1.0
176
     1
 40
1.0
176
     1
  0
VISUALSTYLE
  5
69B
102
{ACAD_REACTORS
330
69A
102
}
330
69A
100
AcDbVisualStyle
  2
Flat
 70
     0
177
     3
291
     1
 70
    58
 90
        2
176
     1
 90
        1
176
     1
 90
        1
176
     1
 90
        2
176
     1
 40
0.6
176
     1
 40
30.0
176
     1
 62
     7
420
 16777215
176
     1
 90
        0
176
     1
 90
        0
176
     1
 62
     7
176
     1
 62
   257
176
     1
 90
        1
176
     1
 90
        1
176
     1
 40
1.0
176
     1
 90
        8
176
     1
 62
     7
176
     1
 40
1.0
176
     1
 90
        1
176
     1
 90
        6
176
     1
 90
        2
176
     1
 62
     7
176
     1
 90
        5
176
     1
 90
        0
176
     1
 90
        0
176
     1
290
     0
176
     1
 90
       13
176
     1
 40
0.0
176
     1
 90
        0
176
     1
290
     0
176
     1
290
     1
176
     1
290
     1
176
     1
290
     0
176
     1
290
     0
176
     1
290
     0
176
     1
290
     0
176
     1
290
     0
176
     1
290
     0
176
     1
 90
       50
176
     1
 40
0.0
176
     1
 40
1.0
176
     1
 90
        0
176
     1
 62
    18
420
        0
176
     1
 90
       50
176
     1
 90
        3
176
     1
 62
     5
420
      255
176
     1
290
     0
176
     1
 90
       50
176
     1
 90
       50
176
     1
 90
       50
176
     1
290
     0
176
     1
 90
       50
176
     1
 62
   256
176
     0
 40
1.0
176
     0
 90
        2
176
     1
  1
strokes_ogs.tif
176
     1
290
     0
176
     1
 40
1.0
176
     1
 40
1.0
176
     1
  0
VISUALSTYLE
  5
69C
102
{ACAD_REACTORS
330
69A
102
}
330
69A
100
AcDbVisualStyle
  2
FlatWithEdges
 70
     1
177
     3
291
     1
 70
    58
 90
        2
176
     1
 90
        1
176
     1
 90
        1
176
     1
 90
        2
176
     1
 40
0.6
176
     1
 40
30.0
176
     1
 62
     7
420
 16777215
176
     1
 90
        1
176
     1
 90
        0
176
     1
 62
     7
176
     1
 62
   257
176
     1
 90
        1
176
     1
 90
        1
176
     1
 40
1.0
176
     1
 90
        0
176
     1
 62
   257
176
     1
 40
1.0
176
     1
 90
        1
176
     1
 90
        6
176
     1
 90
        2
176
     1
 62
     7
176
     1
 90
        5
176
     1
 90
        0
176
     1
 90
        0
176
     1
290
     0
176
     1
 90
       13
176
     1
 40
0.0
176
     1
 90
        0
176
     1
290
     0
176
     1
290
     1
176
     1
290
     1
176
     1
290
     0
176
     1
290
     0
176
     1
290
     0
176
     1
290
     0
176
     1
290
     0
176
     1
290
     0
176
     1
 90
       50
176
     1
 40
0.0
176
     1
 40
1.0
176
     1
 90
        0
176
     1
 62
    18
420
        0
176
     1
 90
       50
176
     1
 90
        3
176
     1
 62
     5
420
      255
176
     1
290
     0
176
     1
 90
       50
176
     1
 90
       50
176
     1
 90
       50
176
     1
290
     0
176
     1
 90
       50
176
     1
 62
   256
176
     0
 40
1.0
176
     0
 90
        2
176
     1
  1
strokes_ogs.tif
176
     1
290
     0
176
     1
 40
1.0
176
     1
 40
1.0
176
     1
  0
VISUALSTYLE
  5
69D
102
{ACAD_REACTORS
330
69A
102
}
330
69A
100
AcDbVisualStyle
  2
Gouraud
 70
     2
177
     3
291
     1
 70
    58
 90
        2
176
     1
 90
        2
176
     1
 90
        1
176
     1
 90
        2
176
     1
 40
0.6
176
     1
 40
30.0
176
     1
 62
     7
420
 16777215
176
     1
 90
        0
176
     1
 90
        0
176
     1
 62
     7
176
     1
 62
   257
176
     1
 90
        1
176
     1
 90
        1
176
     1
 40
1.0
176
     1
 90
        0
176
     1
 62
     7
176
     1
 40
1.0
176
     1
 90
        1
176
     1
 90
        6
176
     1
 90
        2
176
     1
 62
     7
176
     1
 90
        5
176
     1
 90
        0
176
     1
 90
        0
176
     1
290
     0
176
     1
 90
       13
176
     1
 40
0.0
176
     1
 90
        0
176
     1
290
     0
176
     1
290
     1
176
     1
290
     1
176
     1
290
     0
176
     1
290
     0
176
     1
290
     0
176
     1
290
     0
176
     1
290
     0
176
     1
290
     0
176
     1
 90
       50
176
     1
 40
0.0
176
     1
 40
1.0
176
     1
 90
        0
176
     1
 62
    18
420
        0
176
     1
 90
       50
176
     1
 90
        3
176
     1
 62
     5
420
      255
176
     1
290
     0
176
     1
 90
       50
176
     1
 90
       50
176
     1
 90
       50
176
     1
290
     0
176
     1
 90
       50
176
     1
 62
   256
176
     0
 40
1.0
176
     0
 90
        2
176
     1
  1
strokes_ogs.tif
176
     1
290
     0
176
     1
 40
1.0
176
     1
 40
1.0
176
     1
  0
VISUALSTYLE
  5
69E
102
{ACAD_REACTORS
330
69A
102
}
330
69A
100
AcDbVisualStyle
  2
GouraudWithEdges
 70
     3
177
     3
291
     1
 70
    58
 90
        2
176
     1
 90
        2
176
     1
 90
        1
176
     1
 90
        2
176
     1
 40
0.6
176
     1
 40
30.0
176
     1
 62
     7
420
 16777215
176
     1
 90
        1
176
     1
 90
        0
176
     1
 62
     7
176
     1
 62
   257
176
     1
 90
        1
176
     1
 90
        1
176
     1
 40
1.0
176
     1
 90
        0
176
     1
 62
   257
176
     1
 40
1.0
176
     1
 90
        1
176
     1
 90
        6
176
     1
 90
        2
176
     1
 62
     7
176
     1
 90
        5
176
     1
 90
        0
176
     1
 90
        0
176
     1
290
     0
176
     1
 90
       13
176
     1
 40
0.0
176
     1
 90
        0
176
     1
290
     0
176
     1
290
     1
176
     1
290
     1
176
     1
290
     0
176
     1
290
     0
176
     1
290
     0
176
     1
290
     0
176
     1
290
     0
176
     1
290
     0
176
     1
 90
       50
176
     1
 40
0.0
176
     1
 40
1.0
176
     1
 90
        0
176
     1
 62
    18
420
        0
176
     1
 90
       50
176
     1
 90
        3
176
     1
 62
     5
420
      255
176
     1
290
     0
176
     1
 90
       50
176
     1
 90
       50
176
     1
 90
       50
176
     1
290
     0
176
     1
 90
       50
176
     1
 62
   256
176
     0
 40
1.0
176
     0
 90
        2
176
     1
  1
strokes_ogs.tif
176
     1
290
     0
176
     1
 40
1.0
176
     1
 40
1.0
176
     1
  0
VISUALSTYLE
  5
6A1
102
{ACAD_REACTORS
330
69A
102
}
330
69A
100
AcDbVisualStyle
  2
Hidden
 70
     6
177
     3
291
     0
 70
    58
 90
        1
176
     1
 90
        2
176
     1
 90
        2
176
     1
 90
        0
176
     1
 40
0.6
176
     1
 40
30.0
176
     1
 62
     7
420
 16777215
176
     1
 90
        2
176
     1
 90
        2
176
     1
 62
     7
176
     1
 62
   257
176
     1
 90
        2
176
     1
 90
        1
176
     1
 40
40.0
176
     1
 90
        0
176
     1
 62
   257
176
     1
 40
1.0
176
     1
 90
        1
176
     1
 90
        6
176
     1
 90
        2
176
     1
 62
     7
176
     1
 90
        3
176
     1
 90
        0
176
     1
 90
        0
176
     1
290
     0
176
     1
 90
        1
176
     1
 40
0.0
176
     1
 90
        0
176
     1
290
     0
176
     1
290
     1
176
     1
290
     1
176
     1
290
     0
176
     1
290
     0
176
     1
290
     0
176
     1
290
     0
176
     1
290
     0
176
     1
290
     0
176
     1
 90
       50
176
     1
 40
0.0
176
     1
 40
1.0
176
     1
 90
        0
176
     1
 62
    18
420
        0
176
     1
 90
       50
176
     1
 90
        3
176
     1
 62
     5
420
      255
176
     1
290
     0
176
     1
 90
       50
176
     1
 90
       50
176
     1
 90
       50
176
     1
290
     0
176
     1
 90
       50
176
     1
 62
   256
176
     0
 40
1.0
176
     0
 90
        2
176
     1
  1
strokes_ogs.tif
176
     1
290
     0
176
     1
 40
1.0
176
     1
 40
1.0
176
     1
  0
VISUALSTYLE
  5
6AB
102
{ACAD_REACTORS
330
69A
102
}
330
69A
100
AcDbVisualStyle
  2
JitterOff
 70
    20
177
     3
291
     1
 70
    58
 90
        2
176
     0
 90
        2
176
     0
 90
        0
176
     0
 90
        0
176
     0
 40
0.6
176
     0
 40
30.0
176
     0
 62
     7
420
 16777215
176
     0
 90
        1
176
     0
 90
        4
176
     0
 62
     7
176
     0
 62
   257
176
     0
 90
        1
176
     0
 90
        1
176
     0
 40
1.0
176
     0
 90
       10
176
     2
 62
     7
176
     0
 40
1.0
176
     0
 90
        1
176
     0
 90
        6
176
     0
 90
        2
176
     0
 62
     7
176
     0
 90
        5
176
     0
 90
        0
176
     0
 90
        0
176
     0
290
     0
176
     0
 90
        1
176
     0
 40
0.0
176
     0
 90
        0
176
     0
290
     0
176
     0
290
     1
176
     0
290
     1
176
     0
290
     0
176
     0
290
     0
176
     0
290
     0
176
     0
290
     0
176
     0
290
     0
176
     0
290
     0
176
     0
 90
       50
176
     0
 40
0.0
176
     0
 40
1.0
176
     0
 90
        0
176
     0
 62
    18
420
        0
176
     0
 90
       50
176
     0
 90
        3
176
     0
 62
     5
420
      255
176
     0
290
     0
176
     0
 90
       50
176
     0
 90
       50
176
     0
 90
       50
176
     0
290
     0
176
     0
 90
       50
176
     0
 62
   256
176
     0
 40
1.0
176
     0
 90
        2
176
     0
  1
strokes_ogs.tif
176
     0
290
     0
176
     0
 40
1.0
176
     0
 40
1.0
176
     0
  0
VISUALSTYLE
  5
6A8
102
{ACAD_REACTORS
330
69A
102
}
330
69A
100
AcDbVisualStyle
  2
Linepattern
 70
    14
177
     3
291
     1
 70
    58
 90
        2
176
     1
 90
        2
176
     1
 90
        0
176
     1
 90
        0
176
     1
 40
0.6
176
     1
 40
30.0
176
     1
 62
     7
420
 16777215
176
     1
 90
        1
176
     1
 90
        4
176
     1
 62
     7
176
     1
 62
   257
176
     1
 90
        7
176
     1
 90
        7
176
     1
 40
1.0
176
     1
 90
        8
176
     1
 62
     7
176
     1
 40
1.0
176
     1
 90
        1
176
     1
 90
        6
176
     1
 90
        2
176
     1
 62
     7
176
     1
 90
        5
176
     1
 90
        0
176
     1
 90
        0
176
     1
290
     0
176
     1
 90
        1
176
     1
 40
0.0
176
     1
 90
        0
176
     1
290
     0
176
     1
290
     1
176
     1
290
     1
176
     1
290
     0
176
     1
290
     0
176
     1
290
     0
176
     1
290
     0
176
     1
290
     0
176
     1
290
     0
176
     1
 90
       50
176
     1
 40
0.0
176
     1
 40
1.0
176
     1
 90
        0
176
     1
 62
    18
420
        0
176
     1
 90
       50
176
     1
 90
        3
176
     1
 62
     5
420
      255
176
     1
290
     0
176
     1
 90
       50
176
     1
 90
       50
176
     1
 90
       50
176
     1
290
     0
176
     1
 90
       50
176
     1
 62
   256
176
     0
 40
1.0
176
     0
 90
        2
176
     1
  1
strokes_ogs.tif
176
     1
290
     0
176
     1
 40
1.0
176
     1
 40
1.0
176
     1
  0
VISUALSTYLE
  5
6AC
102
{ACAD_REACTORS
330
69A
102
}
330
69A
100
AcDbVisualStyle
  2
OverhangOff
 70
    21
177
     3
291
     1
 70
    58
 90
        2
176
     0
 90
        2
176
     0
 90
        0
176
     0
 90
        0
176
     0
 40
0.6
176
     0
 40
30.0
176
     0
 62
     7
420
 16777215
176
     0
 90
        1
176
     0
 90
        4
176
     0
 62
     7
176
     0
 62
   257
176
     0
 90
        1
176
     0
 90
        1
176
     0
 40
1.0
176
     0
 90
        9
176
     2
 62
     7
176
     0
 40
1.0
176
     0
 90
        1
176
     0
 90
        6
176
     0
 90
        2
176
     0
 62
     7
176
     0
 90
        5
176
     0
 90
        0
176
     0
 90
        0
176
     0
290
     0
176
     0
 90
        1
176
     0
 40
0.0
176
     0
 90
        0
176
     0
290
     0
176
     0
290
     1
176
     0
290
     1
176
     0
290
     0
176
     0
290
     0
176
     0
290
     0
176
     0
290
     0
176
     0
290
     0
176
     0
290
     0
176
     0
 90
       50
176
     0
 40
0.0
176
     0
 40
1.0
176
     0
 90
        0
176
     0
 62
    18
420
        0
176
     0
 90
       50
176
     0
 90
        3
176
     0
 62
     5
420
      255
176
     0
290
     0
176
     0
 90
       50
176
     0
 90
       50
176
     0
 90
       50
176
     0
290
     0
176
     0
 90
       50
176
     0
 62
   256
176
     0
 40
1.0
176
     0
 90
        2
176
     0
  1
strokes_ogs.tif
176
     0
290
     0
176
     0
 40
1.0
176
     0
 40
1.0
176
     0
  0
VISUALSTYLE
  5
6A3
102
{ACAD_REACTORS
330
69A
102
}
330
69A
100
AcDbVisualStyle
  2
Realistic
 70
     8
177
     3
291
     0
 70
    58
 90
        2
176
     1
 90
        3
176
     1
 90
        0
176
     1
 90
        2
176
     1
 40
0.6
176
     1
 40
30.0
176
     1
 62
     7
420
 16777215
176
     1
 90
        0
176
     1
 90
        0
176
     1
 62
     7
176
     1
 62
   257
176
     1
 90
        1
176
     1
 90
        1
176
     1
 40
1.0
176
     1
 90
        8
176
     1
 62
   257
176
     1
 40
1.0
176
     1
 90
        1
176
     1
 90
        6
176
     1
 90
        2
176
     1
 62
     7
176
     1
 90
        3
176
     1
 90
        0
176
     1
 90
        0
176
     1
290
     0
176
     1
 90
       13
176
     1
 40
0.0
176
     1
 90
        0
176
     1
290
     0
176
     1
290
     1
176
     1
290
     1
176
     1
290
     0
176
     1
290
     0
176
     1
290
     0
176
     1
290
     0
176
     1
290
     0
176
     1
290
     0
176
     1
 90
       50
176
     1
 40
0.0
176
     1
 40
1.0
176
     1
 90
        0
176
     1
 62
    18
420
        0
176
     1
 90
       50
176
     1
 90
        3
176
     1
 62
     5
420
      255
176
     1
290
     0
176
     1
 90
       50
176
     1
 90
       50
176
     1
 90
       50
176
     1
290
     0
176
     1
 90
       50
176
     1
 62
   256
176
     0
 40
1.0
176
     0
 90
        2
176
     1
  1
strokes_ogs.tif
176
     1
290
     0
176
     1
 40
1.0
176
     1
 40
1.0
176
     1
  0
VISUALSTYLE
  5
6B2
102
{ACAD_REACTORS
330
69A
102
}
330
69A
100
AcDbVisualStyle
  2
Shaded
 70
    27
177
     3
291
     0
 70
    58
 90
        2
176
     1
 90
        2
176
     1
 90
        1
176
     1
 90
        2
176
     1
 40
0.6
176
     1
 40
30.0
176
     1
 62
     7
420
 16777215
176
     1
 90
        0
176
     1
 90
        4
176
     1
 62
     7
176
     1
 62
   257
176
     1
 90
        1
176
     1
 90
        1
176
     1
 40
1.0
176
     1
 90
        8
176
     1
 62
   257
176
     1
 40
1.0
176
     1
 90
        1
176
     1
 90
        6
176
     1
 90
        2
176
     1
 62
     8
420
  7895160
176
     1
 90
        3
176
     1
 90
        0
176
     1
 90
        0
176
     1
290
     0
176
     1
 90
        5
176
     1
 40
0.0
176
     1
 90
        0
176
     1
290
     0
176
     1
290
     1
176
     1
290
     1
176
     1
290
     0
176
     1
290
     0
176
     1
290
     0
176
     1
290
     0
176
     1
290
     0
176
     1
290
     0
176
     1
 90
       50
176
     1
 40
0.0
176
     1
 40
1.0
176
     1
 90
        0
176
     1
 62
    18
420
        0
176
     1
 90
       50
176
     1
 90
        3
176
     1
 62
     5
420
      255
176
     1
290
     0
176
     1
 90
       50
176
     1
 90
       50
176
     1
 90
       50
176
     1
290
     0
176
     1
 90
       50
176
     1
 62
   256
176
     0
 40
1.0
176
     0
 90
        2
176
     1
  1
strokes_ogs.tif
176
     1
290
     0
176
     1
 40
1.0
176
     1
 40
1.0
176
     1
  0
VISUALSTYLE
  5
6B1
102
{ACAD_REACTORS
330
69A
102
}
330
69A
100
AcDbVisualStyle
  2
Shaded with edges
 70
    26
177
     3
291
     0
 70
    58
 90
        2
176
     1
 90
        2
176
     1
 90
        1
176
     1
 90
        2
176
     1
 40
0.6
176
     1
 40
30.0
176
     1
 62
     7
420
 16777215
176
     1
 90
        1
176
     1
 90
       10
176
     1
 62
     7
176
     1
 62
   257
176
     1
 90
        2
176
     1
 90
        1
176
     1
 40
1.0
176
     1
 90
        8
176
     1
 62
   257
176
     1
 40
1.0
176
     1
 90
        1
176
     1
 90
        6
176
     1
 90
        2
176
     1
 62
     7
176
     1
 90
        3
176
     1
 90
        0
176
     1
 90
        0
176
     1
290
     0
176
     1
 90
        5
176
     1
 40
0.0
176
     1
 90
        0
176
     1
290
     0
176
     1
290
     1
176
     1
290
     1
176
     1
290
     0
176
     1
290
     0
176
     1
290
     0
176
     1
290
     0
176
     1
290
     0
176
     1
290
     0
176
     1
 90
       50
176
     1
 40
0.0
176
     1
 40
1.0
176
     1
 90
        0
176
     1
 62
    18
420
        0
176
     1
 90
       50
176
     1
 90
        3
176
     1
 62
     5
420
      255
176
     1
290
     0
176
     1
 90
       50
176
     1
 90
       50
176
     1
 90
       50
176
     1
290
     0
176
     1
 90
       50
176
     1
 62
   256
176
     0
 40
1.0
176
     0
 90
        2
176
     1
  1
strokes_ogs.tif
176
     1
290
     0
176
     1
 40
1.0
176
     1
 40
1.0
176
     1
  0
VISUALSTYLE
  5
6AE
102
{ACAD_REACTORS
330
69A
102
}
330
69A
100
AcDbVisualStyle
  2
Shades of Gray
 70
    23
177
     3
291
     0
 70
    58
 90
        2
176
     1
 90
        2
176
     1
 90
        3
176
     1
 90
        0
176
     1
 40
0.6
176
     1
 40
30.0
176
     1
 62
     7
420
 16777215
176
     1
 90
        2
176
     1
 90
        2
176
     1
 62
     7
176
     1
 62
     7
176
     1
 90
        1
176
     1
 90
        1
176
     1
 40
40.0
176
     1
 90
        8
176
     1
 62
     7
176
     1
 40
1.0
176
     1
 90
        1
176
     1
 90
        6
176
     1
 90
        2
176
     1
 62
     7
176
     1
 90
        3
176
     1
 90
        0
176
     1
 90
        0
176
     1
290
     0
176
     1
 90
        1
176
     1
 40
0.0
176
     1
 90
        0
176
     1
290
     0
176
     1
290
     1
176
     1
290
     1
176
     1
290
     0
176
     1
290
     0
176
     1
290
     0
176
     1
290
     0
176
     1
290
     0
176
     1
290
     0
176
     1
 90
       50
176
     1
 40
0.0
176
     1
 40
1.0
176
     1
 90
        0
176
     1
 62
    18
420
        0
176
     1
 90
       50
176
     1
 90
        3
176
     1
 62
     5
420
      255
176
     1
290
     0
176
     1
 90
       50
176
     1
 90
       50
176
     1
 90
       50
176
     1
290
     0
176
     1
 90
       50
176
     1
 62
   256
176
     0
 40
1.0
176
     0
 90
        2
176
     1
  1
strokes_ogs.tif
176
     1
290
     0
176
     1
 40
1.0
176
     1
 40
1.0
176
     1
  0
VISUALSTYLE
  5
6AF
102
{ACAD_REACTORS
330
69A
102
}
330
69A
100
AcDbVisualStyle
  2
Sketchy
 70
    24
177
     3
291
     0
 70
    58
 90
        1
176
     1
 90
        2
176
     1
 90
        2
176
     1
 90
        0
176
     1
 40
0.6
176
     1
 40
30.0
176
     1
 62
     7
420
 16777215
176
     1
 90
        2
176
     1
 90
        2
176
     1
 62
     7
176
     1
 62
     7
176
     1
 90
        1
176
     1
 90
        1
176
     1
 40
40.0
176
     1
 90
       11
176
     1
 62
     7
176
     1
 40
1.0
176
     1
 90
        1
176
     1
 90
        6
176
     1
 90
        2
176
     1
 62
     7
176
     1
 90
        6
176
     1
 90
        0
176
     1
 90
        0
176
     1
290
     0
176
     1
 90
        1
176
     1
 40
0.0
176
     1
 90
        0
176
     1
290
     0
176
     1
290
     1
176
     1
290
     1
176
     1
290
     0
176
     1
290
     0
176
     1
290
     0
176
     1
290
     0
176
     1
290
     0
176
     1
290
     0
176
     1
 90
       50
176
     1
 40
0.0
176
     1
 40
1.0
176
     1
 90
        0
176
     1
 62
    18
420
        0
176
     1
 90
       50
176
     1
 90
        3
176
     1
 62
     5
420
      255
176
     1
290
     0
176
     1
 90
       50
176
     1
 90
       50
176
     1
 90
       50
176
     1
290
     0
176
     1
 90
       50
176
     1
 62
   256
176
     0
 40
1.0
176
     0
 90
        2
176
     1
  1
strokes_ogs.tif
176
     1
290
     0
176
     1
 40
1.0
176
     1
 40
1.0
176
     1
  0
VISUALSTYLE
  5
6A7
102
{ACAD_REACTORS
330
69A
102
}
330
69A
100
AcDbVisualStyle
  2
Thicken
 70
    13
177
     3
291
     1
 70
    58
 90
        2
176
     1
 90
        2
176
     1
 90
        0
176
     1
 90
        0
176
     1
 40
0.6
176
     1
 40
30.0
176
     1
 62
     7
420
 16777215
176
     1
 90
        1
176
     1
 90
        4
176
     1
 62
     7
176
     1
 62
   257
176
     1
 90
        1
176
     1
 90
        1
176
     1
 40
1.0
176
     1
 90
       12
176
     1
 62
     7
176
     1
 40
1.0
176
     1
 90
        1
176
     1
 90
        6
176
     1
 90
        2
176
     1
 62
     7
176
     1
 90
        5
176
     1
 90
        0
176
     1
 90
        0
176
     1
290
     0
176
     1
 90
        1
176
     1
 40
0.0
176
     1
 90
        0
176
     1
290
     0
176
     1
290
     1
176
     1
290
     1
176
     1
290
     0
176
     1
290
     0
176
     1
290
     0
176
     1
290
     0
176
     1
290
     0
176
     1
290
     0
176
     1
 90
       50
176
     1
 40
0.0
176
     1
 40
1.0
176
     1
 90
        0
176
     1
 62
    18
420
        0
176
     1
 90
       50
176
     1
 90
        3
176
     1
 62
     5
420
      255
176
     1
290
     0
176
     1
 90
       50
176
     1
 90
       50
176
     1
 90
       50
176
     1
290
     0
176
     1
 90
       50
176
     1
 62
   256
176
     0
 40
1.0
176
     0
 90
        2
176
     1
  1
strokes_ogs.tif
176
     1
290
     0
176
     1
 40
1.0
176
     1
 40
1.0
176
     1
  0
VISUALSTYLE
  5
6A0
102
{ACAD_REACTORS
330
69A
102
}
330
69A
100
AcDbVisualStyle
  2
Wireframe
 70
     5
177
     3
291
     0
 70
    58
 90
        0
176
     1
 90
        2
176
     1
 90
        0
176
     1
 90
        0
176
     1
 40
0.6
176
     1
 40
30.0
176
     1
 62
     7
420
 16777215
176
     1
 90
        1
176
     1
 90
        4
176
     1
 62
     7
176
     1
 62
   257
176
     1
 90
        1
176
     1
 90
        1
176
     1
 40
1.0
176
     1
 90
        0
176
     1
 62
   257
176
     1
 40
1.0
176
     1
 90
        1
176
     1
 90
        6
176
     1
 90
        2
176
     1
 62
     7
176
     1
 90
        3
176
     1
 90
        0
176
     1
 90
        0
176
     1
290
     0
176
     1
 90
        1
176
     1
 40
0.0
176
     1
 90
        0
176
     1
290
     0
176
     1
290
     1
176
     1
290
     1
176
     1
290
     0
176
     1
290
     0
176
     1
290
     0
176
     1
290
     0
176
     1
290
     0
176
     1
290
     0
176
     1
 90
       50
176
     1
 40
0.0
176
     1
 40
1.0
176
     1
 90
        0
176
     1
 62
    18
420
        0
176
     1
 90
       50
176
     1
 90
        3
176
     1
 62
     5
420
      255
176
     1
290
     0
176
     1
 90
       50
176
     1
 90
       50
176
     1
 90
       50
176
     1
290
     0
176
     1
 90
       50
176
     1
 62
   256
176
     0
 40
1.0
176
     0
 90
        2
176
     1
  1
strokes_ogs.tif
176
     1
290
     0
176
     1
 40
1.0
176
     1
 40
1.0
176
     1
  0
VISUALSTYLE
  5
6B0
102
{ACAD_REACTORS
330
69A
102
}
330
69A
100
AcDbVisualStyle
  2
X-Ray
 70
    25
177
     3
291
     0
 70
    58
 90
        2
176
     1
 90
        2
176
     1
 90
        1
176
     1
 90
        1
176
     1
 40
0.5
176
     1
 40
30.0
176
     1
 62
     7
420
 16777215
176
     1
 90
        1
176
     1
 90
        0
176
     1
 62
     7
176
     1
 62
   257
176
     1
 90
        1
176
     1
 90
        1
176
     1
 40
1.0
176
     1
 90
        8
176
     1
 62
     7
176
     1
 40
1.0
176
     1
 90
        1
176
     1
 90
        6
176
     1
 90
        2
176
     1
 62
     7
176
     1
 90
        3
176
     1
 90
        0
176
     1
 90
        0
176
     1
290
     0
176
     1
 90
       13
176
     1
 40
0.0
176
     1
 90
        0
176
     1
290
     0
176
     1
290
     1
176
     1
290
     1
176
     1
290
     0
176
     1
290
     0
176
     1
290
     0
176
     1
290
     0
176
     1
290
     0
176
     1
290
     0
176
     1
 90
       50
176
     1
 40
0.0
176
     1
 40
1.0
176
     1
 90
        0
176
     1
 62
    18
420
        0
176
     1
 90
       50
176
     1
 90
        3
176
     1
 62
     5
420
      255
176
     1
290
     0
176
     1
 90
       50
176
     1
 90
       50
176
     1
 90
       50
176
     1
290
     0
176
     1
 90
       50
176
     1
 62
   256
176
     0
 40
1.0
176
     0
 90
        2
176
     1
  1
strokes_ogs.tif
176
     1
290
     0
176
     1
 40
1.0
176
     1
 40
1.0
176
     1
  0
DICTIONARYVAR
  5
6BD
102
{ACAD_REACTORS
330
6BC
102
}
330
6BC
100
DictionaryVariables
280
     0
  1
1:1
  0
DICTIONARYVAR
  5
6C2
102
{ACAD_REACTORS
330
6BC
102
}
330
6BC
100
DictionaryVariables
280
     0
  1
Standard
  0
DICTIONARYVAR
  5
6C1
102
{ACAD_REACTORS
330
6BC
102
}
330
6BC
100
DictionaryVariables
280
     0
  1
Standard
  0
DICTIONARYVAR
  5
6C3
102
{ACAD_REACTORS
330
6BC
102
}
330
6BC
100
DictionaryVariables
280
     0
  1
0
  0
DICTIONARY
  5
6BE
330
6B8
100
AcDbDictionary
280
     1
281
     1
  3
ACAD_ROUNDTRIP_2008_TABLESTYLE_CELLSTYLEMAP
360
6BF
  0
CELLSTYLEMAP
  5
6BF
102
{ACAD_REACTORS
330
6BE
102
}
330
6BE
100
AcDbCellStyleMap
 90
        3
300
CELLSTYLE
  1
TABLEFORMAT_BEGIN
 90
        5
170
     1
 91
        0
 92
    32768
 62
   257
 93
        1
300
CONTENTFORMAT
  1
CONTENTFORMAT_BEGIN
 90
        0
 91
        0
 92
        4
 93
        0
300

 40
0.0
140
1.0
 94
        5
 62
     0
340
11
144
6.0
309
CONTENTFORMAT_END
171
     1
301
MARGIN
  1
CELLMARGIN_BEGIN
 40
1.5
 40
1.5
 40
1.5
 40
1.5
 40
1.5
 40
1.5
309
CELLMARGIN_END
 94
        6
 95
        1
302
GRIDFORMAT
  1
GRIDFORMAT_BEGIN
 90
        0
 91
        1
 62
     0
 92
       -2
340
14
 93
        0
 40
0.045
309
GRIDFORMAT_END
 95
        2
302
GRIDFORMAT
  1
GRIDFORMAT_BEGIN
 90
        0
 91
        1
 62
     0
 92
       -2
340
14
 93
        0
 40
0.045
309
GRIDFORMAT_END
 95
        4
302
GRIDFORMAT
  1
GRIDFORMAT_BEGIN
 90
        0
 91
        1
 62
     0
 92
       -2
340
14
 93
        0
 40
0.045
309
GRIDFORMAT_END
 95
        8
302
GRIDFORMAT
  1
GRIDFORMAT_BEGIN
 90
        0
 91
        1
 62
     0
 92
       -2
340
14
 93
        0
 40
0.045
309
GRIDFORMAT_END
 95
       16
302
GRIDFORMAT
  1
GRIDFORMAT_BEGIN
 90
        0
 91
        1
 62
     0
 92
       -2
340
14
 93
        0
 40
0.045
309
GRIDFORMAT_END
 95
       32
302
GRIDFORMAT
  1
GRIDFORMAT_BEGIN
 90
        0
 91
        1
 62
     0
 92
       -2
340
14
 93
        0
 40
0.045
309
GRIDFORMAT_END
309
TABLEFORMAT_END
  1
CELLSTYLE_BEGIN
 90
        1
 91
        1
300
_TITLE
309
CELLSTYLE_END
300
CELLSTYLE
  1
TABLEFORMAT_BEGIN
 90
        5
170
     1
 91
        0
 92
        0
 62
   257
 93
        1
300
CONTENTFORMAT
  1
CONTENTFORMAT_BEGIN
 90
        0
 91
        0
 92
        4
 93
        0
300

 40
0.0
140
1.0
 94
        5
 62
     0
340
11
144
4.5
309
CONTENTFORMAT_END
171
     1
301
MARGIN
  1
CELLMARGIN_BEGIN
 40
1.5
 40
1.5
 40
1.5
 40
1.5
 40
1.5
 40
1.5
309
CELLMARGIN_END
 94
        6
 95
        1
302
GRIDFORMAT
  1
GRIDFORMAT_BEGIN
 90
        0
 91
        1
 62
     0
 92
       -2
340
14
 93
        0
 40
0.045
309
GRIDFORMAT_END
 95
        2
302
GRIDFORMAT
  1
GRIDFORMAT_BEGIN
 90
        0
 91
        1
 62
     0
 92
       -2
340
14
 93
        0
 40
0.045
309
GRIDFORMAT_END
 95
        4
302
GRIDFORMAT
  1
GRIDFORMAT_BEGIN
 90
        0
 91
        1
 62
     0
 92
       -2
340
14
 93
        0
 40
0.045
309
GRIDFORMAT_END
 95
        8
302
GRIDFORMAT
  1
GRIDFORMAT_BEGIN
 90
        0
 91
        1
 62
     0
 92
       -2
340
14
 93
        0
 40
0.045
309
GRIDFORMAT_END
 95
       16
302
GRIDFORMAT
  1
GRIDFORMAT_BEGIN
 90
        0
 91
        1
 62
     0
 92
       -2
340
14
 93
        0
 40
0.045
309
GRIDFORMAT_END
 95
       32
302
GRIDFORMAT
  1
GRIDFORMAT_BEGIN
 90
        0
 91
        1
 62
     0
 92
       -2
340
14
 93
        0
 40
0.045
309
GRIDFORMAT_END
309
TABLEFORMAT_END
  1
CELLSTYLE_BEGIN
 90
        2
 91
        1
300
_HEADER
309
CELLSTYLE_END
300
CELLSTYLE
  1
TABLEFORMAT_BEGIN
 90
        5
170
     1
 91
        0
 92
        0
 62
   257
 93
        1
300
CONTENTFORMAT
  1
CONTENTFORMAT_BEGIN
 90
        0
 91
        0
 92
        4
 93
        0
300

 40
0.0
140
1.0
 94
        2
 62
     0
340
11
144
4.5
309
CONTENTFORMAT_END
171
     1
301
MARGIN
  1
CELLMARGIN_BEGIN
 40
1.5
 40
1.5
 40
1.5
 40
1.5
 40
1.5
 40
1.5
309
CELLMARGIN_END
 94
        6
 95
        1
302
GRIDFORMAT
  1
GRIDFORMAT_BEGIN
 90
        0
 91
        1
 62
     0
 92
       -2
340
14
 93
        0
 40
0.045
309
GRIDFORMAT_END
 95
        2
302
GRIDFORMAT
  1
GRIDFORMAT_BEGIN
 90
        0
 91
        1
 62
     0
 92
       -2
340
14
 93
        0
 40
0.045
309
GRIDFORMAT_END
 95
        4
302
GRIDFORMAT
  1
GRIDFORMAT_BEGIN
 90
        0
 91
        1
 62
     0
 92
       -2
340
14
 93
        0
 40
0.045
309
GRIDFORMAT_END
 95
        8
302
GRIDFORMAT
  1
GRIDFORMAT_BEGIN
 90
        0
 91
        1
 62
     0
 92
       -2
340
14
 93
        0
 40
0.045
309
GRIDFORMAT_END
 95
       16
302
GRIDFORMAT
  1
GRIDFORMAT_BEGIN
 90
        0
 91
        1
 62
     0
 92
       -2
340
14
 93
        0
 40
0.045
309
GRIDFORMAT_END
 95
       32
302
GRIDFORMAT
  1
GRIDFORMAT_BEGIN
 90
        0
 91
        1
 62
     0
 92
       -2
340
14
 93
        0
 40
0.045
309
GRIDFORMAT_END
309
TABLEFORMAT_END
  1
CELLSTYLE_BEGIN
 90
        3
 91
        2
300
_DATA
309
CELLSTYLE_END
  0
ENDSEC
  0
EOF
