  0
SECTION
  2
HEADER
  9
$ACADVER
  1
AC1027
  9
$ACADMAINTVER
 70
   105
  9
$DWGCODEPAGE
  3
ANSI_1252
  9
$REQUIREDVERSIONS
160
                 0
  9
$LASTSAVEDBY
  1
andrea.zolin
  9
$INSBASE
 10
0.0
 20
0.0
 30
0.0
  9
$EXTMIN
 10
0.0
 20
0.0
 30
0.0
  9
$EXTMAX
 10
594.0
 20
420.0
 30
0.0
  9
$LIMMIN
 10
0.0
 20
0.0
  9
$LIMMAX
 10
594.0
 20
420.0
  9
$ORTHOMODE
 70
     0
  9
$REGENMODE
 70
     1
  9
$FILLMODE
 70
     1
  9
$QTEXTMODE
 70
     0
  9
$MIRRTEXT
 70
     1
  9
$LTSCALE
 40
32.67
  9
$ATTMODE
 70
     1
  9
$TEXTSIZE
 40
0.2
  9
$TRACEWID
 40
0.05
  9
$TEXTSTYLE
  7
STANDARD
  9
$CLAYER
  8
0
  9
$CELTYPE
  6
BYLAYER
  9
$CECOLOR
 62
   256
  9
$CELTSCALE
 40
1.0
  9
$DISPSILH
 70
     0
  9
$DIMSCALE
 40
1.0
  9
$DIMASZ
 40
2.5
  9
$DIMEXO
 40
0.75
  9
$DIMDLI
 40
22.572
  9
$DIMRND
 40
0.0
  9
$DIMDLE
 40
0.0
  9
$DIMEXE
 40
0.75
  9
$DIMTP
 40
0.01
  9
$DIMTM
 40
0.01
  9
$DIMTXT
 40
3.0
  9
$DIMCEN
 40
5.346
  9
$DIMTSZ
 40
0.0
  9
$DIMTOL
 70
     1
  9
$DIMLIM
 70
     0
  9
$DIMTIH
 70
     1
  9
$DIMTOH
 70
     1
  9
$DIMSE1
 70
     0
  9
$DIMSE2
 70
     0
  9
$DIMTAD
 70
     0
  9
$DIMZIN
 70
     0
  9
$DIMBLK
  1
CLOSED
  9
$DIMASO
 70
     1
  9
$DIMSHO
 70
     1
  9
$DIMPOST
  1

  9
$DIMAPOST
  1

  9
$DIMALT
 70
     0
  9
$DIMALTD
 70
     2
  9
$DIMALTF
 40
25.4
  9
$DIMLFAC
 40
1.0
  9
$DIMTOFL
 70
     0
  9
$DIMTVP
 40
0.0
  9
$DIMTIX
 70
     0
  9
$DIMSOXD
 70
     0
  9
$DIMSAH
 70
     0
  9
$DIMBLK1
  1

  9
$DIMBLK2
  1

  9
$DIMSTYLE
  2
STANDARD
  9
$DIMCLRD
 70
     0
  9
$DIMCLRE
 70
     0
  9
$DIMCLRT
 70
     0
  9
$DIMTFAC
 40
1.0
  9
$DIMGAP
 40
0.625
  9
$DIMJUST
 70
     0
  9
$DIMSD1
 70
     0
  9
$DIMSD2
 70
     0
  9
$DIMTOLJ
 70
     1
  9
$DIMTZIN
 70
     0
  9
$DIMALTZ
 70
     0
  9
$DIMALTTZ
 70
     0
  9
$DIMUPT
 70
     0
  9
$DIMDEC
 70
     4
  9
$DIMTDEC
 70
     4
  9
$DIMALTU
 70
     2
  9
$DIMALTTD
 70
     2
  9
$DIMTXSTY
  7
STANDARD
  9
$DIMAUNIT
 70
     0
  9
$DIMADEC
 70
     0
  9
$DIMALTRND
 40
0.0
  9
$DIMAZIN
 70
     0
  9
$DIMDSEP
 70
    46
  9
$DIMATFIT
 70
     3
  9
$DIMFRAC
 70
     0
  9
$DIMLDRBLK
  1

  9
$DIMLUNIT
 70
     2
  9
$DIMLWD
 70
    -2
  9
$DIMLWE
 70
    -2
  9
$DIMTMOVE
 70
     2
  9
$DIMFXL
 40
1.0
  9
$DIMFXLON
 70
     0
  9
$DIMJOGANG
 40
0.7853981633974483
  9
$DIMTFILL
 70
     0
  9
$DIMTFILLCLR
 70
     0
  9
$DIMARCSYM
 70
     0
  9
$DIMLTYPE
  6

  9
$DIMLTEX1
  6

  9
$DIMLTEX2
  6

  9
$DIMTXTDIRECTION
 70
     0
  9
$LUNITS
 70
     2
  9
$LUPREC
 70
     4
  9
$SKETCHINC
 40
0.1
  9
$FILLETRAD
 40
0.5
  9
$AUNITS
 70
     0
  9
$AUPREC
 70
     0
  9
$MENU
  1
.
  9
$ELEVATION
 40
0.0
  9
$PELEVATION
 40
0.0
  9
$THICKNESS
 40
0.0
  9
$LIMCHECK
 70
     0
  9
$CHAMFERA
 40
0.0
  9
$CHAMFERB
 40
0.0
  9
$CHAMFERC
 40
0.0
  9
$CHAMFERD
 40
0.0
  9
$SKPOLY
 70
     0
  9
$TDCREATE
 40
2447893.041666667
  9
$TDUCREATE
 40
0.0
  9
$TDUPDATE
 40
2458466.620603206
  9
$TDUUPDATE
 40
2458466.578936539
  9
$TDINDWG
 40
0.0003889931
  9
$TDUSRTIMER
 40
0.0003889931
  9
$USRTIMER
 70
     1
  9
$ANGBASE
 50
0.0
  9
$ANGDIR
 70
     0
  9
$PDMODE
 70
     3
  9
$PDSIZE
 40
0.3125
  9
$PLINEWID
 40
0.0
  9
$SPLFRAME
 70
     0
  9
$SPLINETYPE
 70
     6
  9
$SPLINESEGS
 70
     8
  9
$HANDSEED
  5
628
  9
$SURFTAB1
 70
     6
  9
$SURFTAB2
 70
     6
  9
$SURFTYPE
 70
     6
  9
$SURFU
 70
     6
  9
$SURFV
 70
     6
  9
$UCSBASE
  2

  9
$UCSNAME
  2

  9
$UCSORG
 10
0.0
 20
0.0
 30
0.0
  9
$UCSXDIR
 10
1.0
 20
0.0
 30
0.0
  9
$UCSYDIR
 10
0.0
 20
1.0
 30
0.0
  9
$UCSORTHOREF
  2

  9
$UCSORTHOVIEW
 70
     0
  9
$UCSORGTOP
 10
0.0
 20
0.0
 30
0.0
  9
$UCSORGBOTTOM
 10
0.0
 20
0.0
 30
0.0
  9
$UCSORGLEFT
 10
0.0
 20
0.0
 30
0.0
  9
$UCSORGRIGHT
 10
0.0
 20
0.0
 30
0.0
  9
$UCSORGFRONT
 10
0.0
 20
0.0
 30
0.0
  9
$UCSORGBACK
 10
0.0
 20
0.0
 30
0.0
  9
$PUCSBASE
  2

  9
$PUCSNAME
  2

  9
$PUCSORG
 10
0.0
 20
0.0
 30
0.0
  9
$PUCSXDIR
 10
1.0
 20
0.0
 30
0.0
  9
$PUCSYDIR
 10
0.0
 20
1.0
 30
0.0
  9
$PUCSORTHOREF
  2

  9
$PUCSORTHOVIEW
 70
     0
  9
$PUCSORGTOP
 10
0.0
 20
0.0
 30
0.0
  9
$PUCSORGBOTTOM
 10
0.0
 20
0.0
 30
0.0
  9
$PUCSORGLEFT
 10
0.0
 20
0.0
 30
0.0
  9
$PUCSORGRIGHT
 10
0.0
 20
0.0
 30
0.0
  9
$PUCSORGFRONT
 10
0.0
 20
0.0
 30
0.0
  9
$PUCSORGBACK
 10
0.0
 20
0.0
 30
0.0
  9
$USERI1
 70
     0
  9
$USERI2
 70
     0
  9
$USERI3
 70
     0
  9
$USERI4
 70
     0
  9
$USERI5
 70
     0
  9
$USERR1
 40
0.0
  9
$USERR2
 40
0.0
  9
$USERR3
 40
0.0
  9
$USERR4
 40
0.0
  9
$USERR5
 40
0.0
  9
$WORLDVIEW
 70
     1
  9
$SHADEDGE
 70
     3
  9
$SHADEDIF
 70
    70
  9
$TILEMODE
 70
     0
  9
$MAXACTVP
 70
    64
  9
$PINSBASE
 10
0.0
 20
0.0
 30
0.0
  9
$PLIMCHECK
 70
     0
  9
$PEXTMIN
 10
0.0
 20
0.0
 30
0.0
  9
$PEXTMAX
 10
596.6868915399666
 20
420.0
 30
0.0
  9
$PLIMMIN
 10
-12.2568093385214
 20
-32.68482490272373
  9
$PLIMMAX
 10
674.1245136186769
 20
452.6848249027237
  9
$UNITMODE
 70
     0
  9
$VISRETAIN
 70
     1
  9
$PLINEGEN
 70
     0
  9
$PSLTSCALE
 70
     1
  9
$TREEDEPTH
 70
  3020
  9
$CMLSTYLE
  2
STANDARD
  9
$CMLJUST
 70
     0
  9
$CMLSCALE
 40
1.0
  9
$PROXYGRAPHICS
 70
     1
  9
$MEASUREMENT
 70
     1
  9
$CELWEIGHT
370
    -1
  9
$ENDCAPS
280
     0
  9
$JOINSTYLE
280
     0
  9
$LWDISPLAY
290
     0
  9
$INSUNITS
 70
     0
  9
$HYPERLINKBASE
  1

  9
$STYLESHEET
  1

  9
$XEDIT
290
     1
  9
$CEPSNTYPE
380
     0
  9
$PSTYLEMODE
290
     1
  9
$FINGERPRINTGUID
  2
{51BE3B59-F9FF-4C1F-BEA5-8A22A1DE3D3D}
  9
$VERSIONGUID
  2
{FAEB1C32-E019-11D5-929B-00C0DF256EC4}
  9
$EXTNAMES
290
     1
  9
$PSVPSCALE
 40
0.0
  9
$OLESTARTUP
290
     0
  9
$SORTENTS
280
   127
  9
$INDEXCTL
280
     0
  9
$HIDETEXT
280
     1
  9
$XCLIPFRAME
280
     2
  9
$HALOGAP
280
     0
  9
$OBSCOLOR
 70
   257
  9
$OBSLTYPE
280
     0
  9
$INTERSECTIONDISPLAY
280
     0
  9
$INTERSECTIONCOLOR
 70
   257
  9
$DIMASSOC
280
     2
  9
$PROJECTNAME
  1

  9
$CAMERADISPLAY
290
     0
  9
$LENSLENGTH
 40
50.0
  9
$CAMERAHEIGHT
 40
0.0
  9
$STEPSPERSEC
 40
2.0
  9
$STEPSIZE
 40
6.0
  9
$3DDWFPREC
 40
2.0
  9
$PSOLWIDTH
 40
0.25
  9
$PSOLHEIGHT
 40
4.0
  9
$LOFTANG1
 40
1.570796326794897
  9
$LOFTANG2
 40
1.570796326794897
  9
$LOFTMAG1
 40
0.0
  9
$LOFTMAG2
 40
0.0
  9
$LOFTPARAM
 70
     7
  9
$LOFTNORMALS
280
     1
  9
$LATITUDE
 40
37.795
  9
$LONGITUDE
 40
-122.394
  9
$NORTHDIRECTION
 40
0.0
  9
$TIMEZONE
 70
 -8000
  9
$LIGHTGLYPHDISPLAY
280
     1
  9
$TILEMODELIGHTSYNCH
280
     1
  9
$SOLIDHIST
280
     0
  9
$SHOWHIST
280
     1
  9
$DWFFRAME
280
     2
  9
$DGNFRAME
280
     2
  9
$REALWORLDSCALE
290
     1
  9
$INTERFERECOLOR
 62
   256
  9
$CSHADOW
280
     0
  9
$SHADOWPLANELOCATION
 40
0.0
  0
ENDSEC
  0
SECTION
  2
CLASSES
  0
CLASS
  1
ACDBDICTIONARYWDFLT
  2
AcDbDictionaryWithDefault
  3
ObjectDBX Classes
 90
        0
 91
        4
280
     0
281
     0
  0
CLASS
  1
SCALE
  2
AcDbScale
  3
ObjectDBX Classes
 90
     1153
 91
        4
280
     0
281
     0
  0
CLASS
  1
VISUALSTYLE
  2
AcDbVisualStyle
  3
ObjectDBX Classes
 90
     4095
 91
        4
280
     0
281
     0
  0
CLASS
  1
MATERIAL
  2
AcDbMaterial
  3
ObjectDBX Classes
 90
     1153
 91
        4
280
     0
281
     0
  0
CLASS
  1
TABLESTYLE
  2
AcDbTableStyle
  3
ObjectDBX Classes
 90
     4095
 91
        4
280
     0
281
     0
  0
CLASS
  1
MLEADERSTYLE
  2
AcDbMLeaderStyle
  3
ACDB_MLEADERSTYLE_CLASS
 90
     4095
 91
        4
280
     0
281
     0
  0
CLASS
  1
DICTIONARYVAR
  2
AcDbDictionaryVar
  3
ObjectDBX Classes
 90
        0
 91
        4
280
     0
281
     0
  0
CLASS
  1
CELLSTYLEMAP
  2
AcDbCellStyleMap
  3
ObjectDBX Classes
 90
     1152
 91
        4
280
     0
281
     0
  0
ENDSEC
  0
SECTION
  2
TABLES
  0
TABLE
  2
VPORT
  5
8
330
0
100
AcDbSymbolTable
 70
     1
  0
VPORT
  5
1F4
330
8
100
AcDbSymbolTableRecord
100
AcDbViewportTableRecord
  2
*ACTIVE
 70
     0
 10
0.0
 20
0.0
 11
1.0
 21
1.0
 12
297.0
 22
210.0
 13
0.0
 23
0.0
 14
1.0
 24
1.0
 15
0.0
 25
0.0
 16
0.0
 26
0.0
 36
1.0
 17
0.0
 27
0.0
 37
0.0
 40
420.0
 41
1.4142857143
 42
50.0
 43
0.0
 44
0.0
 50
0.0
 51
0.0
 71
     0
 72
   100
 73
     1
 74
     1
 75
     0
 76
     0
 77
     0
 78
     0
281
     0
 65
     1
110
0.0
120
0.0
130
0.0
111
1.0
121
0.0
131
0.0
112
0.0
122
1.0
132
0.0
 79
     0
146
0.0
348
5FE
 60
     3
 61
     5
292
     1
282
     1
141
0.0
142
0.0
 63
   256
  0
ENDTAB
  0
TABLE
  2
LTYPE
  5
5
330
0
100
AcDbSymbolTable
 70
     6
  0
LTYPE
  5
14
330
5
100
AcDbSymbolTableRecord
100
AcDbLinetypeTableRecord
  2
BYBLOCK
 70
     0
  3

 72
    65
 73
     0
 40
0.0
  0
LTYPE
  5
15
330
5
100
AcDbSymbolTableRecord
100
AcDbLinetypeTableRecord
  2
BYLAYER
 70
     0
  3

 72
    65
 73
     0
 40
0.0
  0
LTYPE
  5
16
330
5
100
AcDbSymbolTableRecord
100
AcDbLinetypeTableRecord
  2
CONTINUOUS
 70
     0
  3
Solid line
 72
    65
 73
     0
 40
0.0
  0
LTYPE
  5
1F5
330
5
100
AcDbSymbolTableRecord
100
AcDbLinetypeTableRecord
  2
CENTER
 70
     0
  3
____ _ ____ _ ____ _ ____ _ ____ _ ____ _ ____
 72
    65
 73
     4
 40
0.6
 49
0.375
 74
     0
 49
-0.075
 74
     0
 49
0.075
 74
     0
 49
-0.075
 74
     0
  0
LTYPE
  5
1F6
330
5
100
AcDbSymbolTableRecord
100
AcDbLinetypeTableRecord
  2
HIDDEN
 70
     0
  3
- - - - - - - - - - - - - - - - - - - -
 72
    65
 73
     2
 40
0.2
 49
0.1
 74
     0
 49
-0.1
 74
     0
  0
LTYPE
  5
1F7
330
5
100
AcDbSymbolTableRecord
100
AcDbLinetypeTableRecord
  2
PHANTOM
 70
     0
  3
_____ _ _ _____ _ _ _____ _ _ _____
 72
    65
 73
     6
 40
0.8
 49
0.45
 74
     0
 49
-0.05
 74
     0
 49
0.1
 74
     0
 49
-0.05
 74
     0
 49
0.1
 74
     0
 49
-0.05
 74
     0
  0
LTYPE
  5
1F8
330
5
100
AcDbSymbolTableRecord
100
AcDbLinetypeTableRecord
  2
DOT
 70
     0
  3
. . . . . . . . . . . . . . . . . . . .
 72
    65
 73
     2
 40
0.2
 49
0.1
 74
     0
 49
-0.1
 74
     0
  0
LTYPE
  5
1F9
330
5
100
AcDbSymbolTableRecord
100
AcDbLinetypeTableRecord
  2
DASHED
 70
     0
  3
- - - - - - - - - - - - - - - - - - - -
 72
    65
 73
     2
 40
0.2
 49
0.1
 74
     0
 49
-0.1
 74
     0
  0
ENDTAB
  0
TABLE
  2
LAYER
  5
2
330
0
100
AcDbSymbolTable
 70
    36
  0
LAYER
  5
10
330
2
100
AcDbSymbolTableRecord
100
AcDbLayerTableRecord
  2
0
 70
     0
 62
     7
  6
CONTINUOUS
370
    -3
390
5D3
347
615
348
0
  0
LAYER
  5
1FA
330
2
100
AcDbSymbolTableRecord
100
AcDbLayerTableRecord
  2
DEFAULT_1
 70
     0
 62
     7
  6
CENTER
370
    -3
390
5D3
347
615
348
0
  0
LAYER
  5
1FB
330
2
100
AcDbSymbolTableRecord
100
AcDbLayerTableRecord
  2
DEFAULT_2
 70
     0
 62
     8
  6
HIDDEN
370
    -3
390
5D3
347
615
348
0
  0
LAYER
  5
1FC
330
2
100
AcDbSymbolTableRecord
100
AcDbLayerTableRecord
  2
DEFAULT_3
 70
     0
 62
     7
  6
PHANTOM
370
    -3
390
5D3
347
615
348
0
  0
LAYER
  5
1FD
330
2
100
AcDbSymbolTableRecord
100
AcDbLayerTableRecord
  2
01_ALL_DTM_PLN
 70
     0
 62
     7
  6
CONTINUOUS
370
    -3
390
5D3
347
615
348
0
  0
LAYER
  5
1FE
330
2
100
AcDbSymbolTableRecord
100
AcDbLayerTableRecord
  2
01__ASM_ALL_DTM_PLN
 70
     0
 62
     7
  6
CONTINUOUS
370
    -3
390
5D3
347
615
348
0
  0
LAYER
  5
1FF
330
2
100
AcDbSymbolTableRecord
100
AcDbLayerTableRecord
  2
01__ASM_DEF_DTM_PLN
 70
     0
 62
     7
  6
CONTINUOUS
370
    -3
390
5D3
347
615
348
0
  0
LAYER
  5
200
330
2
100
AcDbSymbolTableRecord
100
AcDbLayerTableRecord
  2
01___PRT_ALL_DTM_PLN
 70
     0
 62
     7
  6
CONTINUOUS
370
    -3
390
5D3
347
615
348
0
  0
LAYER
  5
201
330
2
100
AcDbSymbolTableRecord
100
AcDbLayerTableRecord
  2
01___PRT_DEF_DTM_PLN
 70
     0
 62
     7
  6
CONTINUOUS
370
    -3
390
5D3
347
615
348
0
  0
LAYER
  5
202
330
2
100
AcDbSymbolTableRecord
100
AcDbLayerTableRecord
  2
02_ALL_AXES
 70
     0
 62
     7
  6
CONTINUOUS
370
    -3
390
5D3
347
615
348
0
  0
LAYER
  5
203
330
2
100
AcDbSymbolTableRecord
100
AcDbLayerTableRecord
  2
02__ASM_ALL_AXES
 70
     0
 62
     7
  6
CONTINUOUS
370
    -3
390
5D3
347
615
348
0
  0
LAYER
  5
204
330
2
100
AcDbSymbolTableRecord
100
AcDbLayerTableRecord
  2
02___PRT_ALL_AXES
 70
     0
 62
     7
  6
CONTINUOUS
370
    -3
390
5D3
347
615
348
0
  0
LAYER
  5
205
330
2
100
AcDbSymbolTableRecord
100
AcDbLayerTableRecord
  2
03_ALL_CURVES
 70
     0
 62
     7
  6
CONTINUOUS
370
    -3
390
5D3
347
615
348
0
  0
LAYER
  5
206
330
2
100
AcDbSymbolTableRecord
100
AcDbLayerTableRecord
  2
03__ASM_ALL_CURVES
 70
     0
 62
     7
  6
CONTINUOUS
370
    -3
390
5D3
347
615
348
0
  0
LAYER
  5
207
330
2
100
AcDbSymbolTableRecord
100
AcDbLayerTableRecord
  2
03___PRT_ALL_CURVES
 70
     0
 62
     7
  6
CONTINUOUS
370
    -3
390
5D3
347
615
348
0
  0
LAYER
  5
208
330
2
100
AcDbSymbolTableRecord
100
AcDbLayerTableRecord
  2
04_ALL_DTM_PNT
 70
     0
 62
     7
  6
CONTINUOUS
370
    -3
390
5D3
347
615
348
0
  0
LAYER
  5
209
330
2
100
AcDbSymbolTableRecord
100
AcDbLayerTableRecord
  2
04__ASM_ALL_DTM_PNT
 70
     0
 62
     7
  6
CONTINUOUS
370
    -3
390
5D3
347
615
348
0
  0
LAYER
  5
20A
330
2
100
AcDbSymbolTableRecord
100
AcDbLayerTableRecord
  2
04___PRT_ALL_DTM_PNT
 70
     0
 62
     7
  6
CONTINUOUS
370
    -3
390
5D3
347
615
348
0
  0
LAYER
  5
20B
330
2
100
AcDbSymbolTableRecord
100
AcDbLayerTableRecord
  2
05_ALL_DTM_CSYS
 70
     0
 62
     7
  6
CONTINUOUS
370
    -3
390
5D3
347
615
348
0
  0
LAYER
  5
20C
330
2
100
AcDbSymbolTableRecord
100
AcDbLayerTableRecord
  2
05__ASM_ALL_DTM_CSYS
 70
     0
 62
     7
  6
CONTINUOUS
370
    -3
390
5D3
347
615
348
0
  0
LAYER
  5
20D
330
2
100
AcDbSymbolTableRecord
100
AcDbLayerTableRecord
  2
05__ASM_DEF_DTM_CSYS
 70
     0
 62
     7
  6
CONTINUOUS
370
    -3
390
5D3
347
615
348
0
  0
LAYER
  5
20E
330
2
100
AcDbSymbolTableRecord
100
AcDbLayerTableRecord
  2
05___PRT_ALL_DTM_CSYS
 70
     0
 62
     7
  6
CONTINUOUS
370
    -3
390
5D3
347
615
348
0
  0
LAYER
  5
20F
330
2
100
AcDbSymbolTableRecord
100
AcDbLayerTableRecord
  2
05___PRT_DEF_DTM_CSYS
 70
     0
 62
     7
  6
CONTINUOUS
370
    -3
390
5D3
347
615
348
0
  0
LAYER
  5
210
330
2
100
AcDbSymbolTableRecord
100
AcDbLayerTableRecord
  2
06_ALL_SURFS
 70
     0
 62
     7
  6
CONTINUOUS
370
    -3
390
5D3
347
615
348
0
  0
LAYER
  5
211
330
2
100
AcDbSymbolTableRecord
100
AcDbLayerTableRecord
  2
06__ASM_ALL_SURFS
 70
     0
 62
     7
  6
CONTINUOUS
370
    -3
390
5D3
347
615
348
0
  0
LAYER
  5
212
330
2
100
AcDbSymbolTableRecord
100
AcDbLayerTableRecord
  2
06___PRT_ALL_SURFS
 70
     0
 62
     7
  6
CONTINUOUS
370
    -3
390
5D3
347
615
348
0
  0
LAYER
  5
213
330
2
100
AcDbSymbolTableRecord
100
AcDbLayerTableRecord
  2
07__ASM_ALL_SKELETONS
 70
     0
 62
     7
  6
CONTINUOUS
370
    -3
390
5D3
347
615
348
0
  0
LAYER
  5
214
330
2
100
AcDbSymbolTableRecord
100
AcDbLayerTableRecord
  2
1_ALL_PLANES
 70
     0
 62
     7
  6
CONTINUOUS
370
    -3
390
5D3
347
615
348
0
  0
LAYER
  5
215
330
2
100
AcDbSymbolTableRecord
100
AcDbLayerTableRecord
  2
2_ALL_CSYS
 70
     0
 62
     7
  6
CONTINUOUS
370
    -3
390
5D3
347
615
348
0
  0
LAYER
  5
216
330
2
100
AcDbSymbolTableRecord
100
AcDbLayerTableRecord
  2
3_ALL_AXES
 70
     0
 62
     7
  6
CONTINUOUS
370
    -3
390
5D3
347
615
348
0
  0
LAYER
  5
217
330
2
100
AcDbSymbolTableRecord
100
AcDbLayerTableRecord
  2
4_ALL_POINTS
 70
     0
 62
     7
  6
CONTINUOUS
370
    -3
390
5D3
347
615
348
0
  0
LAYER
  5
218
330
2
100
AcDbSymbolTableRecord
100
AcDbLayerTableRecord
  2
5_ALL_CURVES
 70
     0
 62
     7
  6
CONTINUOUS
370
    -3
390
5D3
347
615
348
0
  0
LAYER
  5
219
330
2
100
AcDbSymbolTableRecord
100
AcDbLayerTableRecord
  2
6_ALL_SURFS
 70
     0
 62
     7
  6
CONTINUOUS
370
    -3
390
5D3
347
615
348
0
  0
LAYER
  5
21A
330
2
100
AcDbSymbolTableRecord
100
AcDbLayerTableRecord
  2
7_ALL_FEATURES
 70
     0
 62
     7
  6
CONTINUOUS
370
    -3
390
5D3
347
615
348
0
  0
LAYER
  5
21B
330
2
100
AcDbSymbolTableRecord
100
AcDbLayerTableRecord
  2
8_ALL_NOTES_BALLOONS_SYMBOLS_GT
 70
     0
 62
     7
  6
CONTINUOUS
370
    -3
390
5D3
347
615
348
0
  0
LAYER
  5
21C
330
2
100
AcDbSymbolTableRecord
100
AcDbLayerTableRecord
  2
9_SOLID
 70
     0
 62
     7
  6
CONTINUOUS
370
    -3
390
5D3
347
615
348
0
  0
ENDTAB
  0
TABLE
  2
STYLE
  5
3
330
0
100
AcDbSymbolTable
 70
     3
  0
STYLE
  5
11
330
3
100
AcDbSymbolTableRecord
100
AcDbTextStyleTableRecord
  2
STANDARD
 70
     0
 40
0.0
 41
0.85
 50
0.0
 71
     0
 42
0.2
  3
txt
  4

  0
STYLE
  5
21D
330
3
100
AcDbSymbolTableRecord
100
AcDbTextStyleTableRecord
  2
TEXTSTYLE_1
 70
     0
 40
0.0
 41
0.8
 50
0.0
 71
     0
 42
0.2
  3
gdt
  4

  0
STYLE
  5
21E
330
3
100
AcDbSymbolTableRecord
100
AcDbTextStyleTableRecord
  2
TEXTSTYLE_2
 70
     0
 40
0.0
 41
2.0
 50
0.0
 71
     0
 42
0.2
  3
txt
  4

  0
ENDTAB
  0
TABLE
  2
VIEW
  5
6
330
0
100
AcDbSymbolTable
 70
     0
  0
ENDTAB
  0
TABLE
  2
UCS
  5
7
330
0
100
AcDbSymbolTable
 70
     0
  0
ENDTAB
  0
TABLE
  2
APPID
  5
9
330
0
100
AcDbSymbolTable
 70
     1
  0
APPID
  5
21F
330
9
100
AcDbSymbolTableRecord
100
AcDbRegAppTableRecord
  2
ACAD
 70
     0
  0
ENDTAB
  0
TABLE
  2
DIMSTYLE
  5
A
330
0
100
AcDbSymbolTable
 70
     4
100
AcDbDimStyleTable
  0
DIMSTYLE
105
227
330
A
100
AcDbSymbolTableRecord
100
AcDbDimStyleTableRecord
  2
STANDARD
 70
     0
 41
2.5
 42
0.75
 44
0.75
 47
0.01
 48
0.01
 71
     1
 73
     0
 74
     0
 77
     1
 78
     8
 79
     2
140
3.0
147
0.625
171
     1
178
     0
179
     2
271
     2
272
     2
284
     8
340
11
341
220
342
220
343
220
344
220
  0
DIMSTYLE
105
228
330
A
100
AcDbSymbolTableRecord
100
AcDbDimStyleTableRecord
  2
DIMSTYLE_1
 70
     0
 41
2.5
 42
0.75
 44
0.75
 47
0.3
 48
0.3
 73
     0
 74
     0
 77
     1
 78
     8
 79
     2
140
3.0
147
0.75
171
     1
178
     0
271
     0
272
     0
284
     8
340
11
341
220
342
220
343
220
344
220
  0
DIMSTYLE
105
229
330
A
100
AcDbSymbolTableRecord
100
AcDbDimStyleTableRecord
  2
DIMSTYLE_2
 70
     0
 41
2.5
 42
0.75
 44
0.75
 47
0.3
 48
0.3
 73
     0
 74
     0
 77
     1
 78
     8
 79
     2
140
3.0
147
0.75
171
     1
178
     0
179
     2
271
     2
272
     2
284
     8
340
11
341
220
342
220
343
220
344
220
  0
DIMSTYLE
105
22A
330
A
100
AcDbSymbolTableRecord
100
AcDbDimStyleTableRecord
  2
DIMSTYLE_3
 70
     0
 41
2.5
 42
0.75
 44
0.75
 47
0.5
 48
0.5
 73
     0
 74
     0
 77
     1
 78
     8
 79
     2
140
3.0
147
0.75
171
     1
178
     0
179
     2
271
     2
272
     2
284
     8
340
11
341
220
342
220
343
220
344
220
  0
ENDTAB
  0
TABLE
  2
BLOCK_RECORD
  5
1
330
0
100
AcDbSymbolTable
 70
     7
  0
BLOCK_RECORD
  5
1F
330
1
100
AcDbSymbolTableRecord
100
AcDbBlockTableRecord
  2
*MODEL_SPACE
340
5F7
 70
     0
280
     1
281
     0
  0
BLOCK_RECORD
  5
1B
330
1
100
AcDbSymbolTableRecord
100
AcDbBlockTableRecord
  2
*PAPER_SPACE
340
5F8
 70
     0
280
     1
281
     0
  0
BLOCK_RECORD
  5
220
330
1
100
AcDbSymbolTableRecord
100
AcDbBlockTableRecord
  2
_CLOSED
340
0
102
{BLKREFS
331
27D
331
27E
331
286
331
287
331
28F
331
290
331
298
331
299
102
}
 70
     0
280
     1
281
     0
  0
BLOCK_RECORD
  5
221
330
1
100
AcDbSymbolTableRecord
100
AcDbBlockTableRecord
  2
*D1
340
0
 70
     0
280
     1
281
     0
  0
BLOCK_RECORD
  5
222
330
1
100
AcDbSymbolTableRecord
100
AcDbBlockTableRecord
  2
*D2
340
0
 70
     0
280
     1
281
     0
  0
BLOCK_RECORD
  5
223
330
1
100
AcDbSymbolTableRecord
100
AcDbBlockTableRecord
  2
*D3
340
0
 70
     0
280
     1
281
     0
  0
BLOCK_RECORD
  5
224
330
1
100
AcDbSymbolTableRecord
100
AcDbBlockTableRecord
  2
*D4
340
0
 70
     0
280
     1
281
     0
  0
BLOCK_RECORD
  5
225
330
1
100
AcDbSymbolTableRecord
100
AcDbBlockTableRecord
  2
LOGO2_BL1
340
0
102
{BLKREFS
331
5BB
102
}
 70
     0
280
     1
281
     0
  0
BLOCK_RECORD
  5
226
330
1
100
AcDbSymbolTableRecord
100
AcDbBlockTableRecord
  2
PROIEZIONE_EU_BL0
340
0
102
{BLKREFS
331
5B8
102
}
 70
     0
280
     1
281
     0
  0
ENDTAB
  0
ENDSEC
  0
SECTION
  2
BLOCKS
  0
BLOCK
  5
20
330
1F
100
AcDbEntity
  8
0
100
AcDbBlockBegin
  2
*MODEL_SPACE
 70
     0
 10
0.0
 20
0.0
 30
0.0
  3
*MODEL_SPACE
  1

  0
ENDBLK
  5
21
330
1F
100
AcDbEntity
  8
0
100
AcDbBlockEnd
  0
BLOCK
  5
1C
330
1B
100
AcDbEntity
 67
     1
  8
0
100
AcDbBlockBegin
  2
*PAPER_SPACE
 70
     0
 10
0.0
 20
0.0
 30
0.0
  3
*PAPER_SPACE
  1

  0
ENDBLK
  5
1D
330
1B
100
AcDbEntity
 67
     1
  8
0
100
AcDbBlockEnd
  0
BLOCK
  5
271
330
220
100
AcDbEntity
  8
0
100
AcDbBlockBegin
  2
_CLOSED
 70
     0
 10
0.0
 20
0.0
 30
0.0
  3
_CLOSED
  1

  0
LINE
  5
272
330
220
100
AcDbEntity
  8
0
  6
ByBlock
 62
     0
100
AcDbLine
 10
0.0
 20
0.0
 30
0.0
 11
-1.0
 21
0.2
 31
0.0
  0
LINE
  5
273
330
220
100
AcDbEntity
  8
0
  6
ByBlock
 62
     0
100
AcDbLine
 10
-1.0
 20
0.2
 30
0.0
 11
-1.0
 21
-0.2
 31
0.0
  0
LINE
  5
274
330
220
100
AcDbEntity
  8
0
  6
ByBlock
 62
     0
100
AcDbLine
 10
-1.0
 20
-0.2
 30
0.0
 11
0.0
 21
0.0
 31
0.0
  0
LINE
  5
275
330
220
100
AcDbEntity
  8
0
  6
ByBlock
 62
     0
100
AcDbLine
 10
-1.0
 20
0.0
 30
0.0
 11
0.0
 21
0.0
 31
0.0
  0
ENDBLK
  5
276
330
220
100
AcDbEntity
  8
0
  6
ByBlock
 62
     0
100
AcDbBlockEnd
  0
BLOCK
  5
277
330
221
100
AcDbEntity
  8
0
100
AcDbBlockBegin
  2
*D1
 70
     1
 10
0.0
 20
0.0
 30
0.0
  3
*D1
  1

  0
MTEXT
  5
278
330
221
100
AcDbEntity
  8
0
  6
Continuous
 62
     2
100
AcDbMText
 10
317.6746961867
 20
289.3123574747
 30
0.0
 40
3.0
 41
7.0714285714
 46
0.0
 71
     2
 72
     1
  1
90
 11
0.0
 21
1.0
 31
0.0
 73
     1
 44
1.0
  0
LINE
  5
279
330
221
100
AcDbEntity
  8
0
  6
Continuous
 62
     2
100
AcDbLine
 10
319.8460191225
 20
334.4373574747
 30
0.0
 11
322.1746961867
 21
334.4373574747
 31
0.0
  0
LINE
  5
27A
330
221
100
AcDbEntity
  8
0
  6
Continuous
 62
     2
100
AcDbLine
 10
320.4046138186
 20
244.1873574747
 30
0.0
 11
322.1746961867
 21
244.1873574747
 31
0.0
  0
LINE
  5
27B
330
221
100
AcDbEntity
  8
0
  6
Continuous
 62
     2
100
AcDbLine
 10
321.4246961867
 20
334.4373574747
 30
0.0
 11
321.4246961867
 21
289.3123574747
 31
0.0
  0
LINE
  5
27C
330
221
100
AcDbEntity
  8
0
  6
Continuous
 62
     2
100
AcDbLine
 10
321.4246961867
 20
244.1873574747
 30
0.0
 11
321.4246961867
 21
289.3123574747
 31
0.0
  0
INSERT
  5
27D
330
221
100
AcDbEntity
  8
0
  6
Continuous
 62
     2
100
AcDbBlockReference
  2
_CLOSED
 10
321.4246961867
 20
334.4373574747
 30
0.0
 41
2.5
 42
2.5
 43
2.5
 50
90.0
  0
INSERT
  5
27E
330
221
100
AcDbEntity
  8
0
  6
Continuous
 62
     2
100
AcDbBlockReference
  2
_CLOSED
 10
321.4246961867
 20
244.1873574747
 30
0.0
 41
2.5
 42
2.5
 43
2.5
 50
270.0
  0
ENDBLK
  5
27F
330
221
100
AcDbEntity
  8
0
  6
ByBlock
 62
     0
100
AcDbBlockEnd
  0
BLOCK
  5
280
330
222
100
AcDbEntity
  8
0
100
AcDbBlockBegin
  2
*D2
 70
     1
 10
0.0
 20
0.0
 30
0.0
  3
*D2
  1

  0
MTEXT
  5
281
330
222
100
AcDbEntity
  8
0
  6
Continuous
 62
     2
100
AcDbMText
 10
317.6746961867
 20
144.1477916996
 30
0.0
 40
3.0
 41
7.0714285714
 46
0.0
 71
     2
 72
     1
  1
44
 11
0.0
 21
1.0
 31
0.0
 73
     1
 44
1.0
  0
LINE
  5
282
330
222
100
AcDbEntity
  8
0
  6
Continuous
 62
     2
100
AcDbLine
 10
320.3084131718
 20
122.2977916996
 30
0.0
 11
322.1746961867
 21
122.2977916996
 31
0.0
  0
LINE
  5
283
330
222
100
AcDbEntity
  8
0
  6
Continuous
 62
     2
100
AcDbLine
 10
320.3084131718
 20
165.9977916996
 30
0.0
 11
322.1746961867
 21
165.9977916996
 31
0.0
  0
LINE
  5
284
330
222
100
AcDbEntity
  8
0
  6
Continuous
 62
     2
100
AcDbLine
 10
321.4246961867
 20
122.2977916996
 30
0.0
 11
321.4246961867
 21
144.1477916996
 31
0.0
  0
LINE
  5
285
330
222
100
AcDbEntity
  8
0
  6
Continuous
 62
     2
100
AcDbLine
 10
321.4246961867
 20
165.9977916996
 30
0.0
 11
321.4246961867
 21
144.1477916996
 31
0.0
  0
INSERT
  5
286
330
222
100
AcDbEntity
  8
0
  6
Continuous
 62
     2
100
AcDbBlockReference
  2
_CLOSED
 10
321.4246961867
 20
122.2977916996
 30
0.0
 41
2.5
 42
2.5
 43
2.5
 50
270.0
  0
INSERT
  5
287
330
222
100
AcDbEntity
  8
0
  6
Continuous
 62
     2
100
AcDbBlockReference
  2
_CLOSED
 10
321.4246961867
 20
165.9977916996
 30
0.0
 41
2.5
 42
2.5
 43
2.5
 50
90.0
  0
ENDBLK
  5
288
330
222
100
AcDbEntity
  8
0
  6
ByBlock
 62
     0
100
AcDbBlockEnd
  0
BLOCK
  5
289
330
223
100
AcDbEntity
  8
0
100
AcDbBlockBegin
  2
*D3
 70
     1
 10
0.0
 20
0.0
 30
0.0
  3
*D3
  1

  0
MTEXT
  5
28A
330
223
100
AcDbEntity
  8
0
  6
Continuous
 62
     2
100
AcDbMText
 10
325.2089342803
 20
144.1477916996
 30
0.0
 40
3.0
 41
7.0714285714
 46
0.0
 71
     2
 72
     1
  1
89
 11
0.0
 21
1.0
 31
0.0
 73
     1
 44
1.0
  0
LINE
  5
28B
330
223
100
AcDbEntity
  8
0
  6
Continuous
 62
     2
100
AcDbLine
 10
320.2669471838
 20
188.6477916996
 30
0.0
 11
329.7089342803
 21
188.6477916996
 31
0.0
  0
LINE
  5
28C
330
223
100
AcDbEntity
  8
0
  6
Continuous
 62
     2
100
AcDbLine
 10
320.6622547582
 20
99.6477916996
 30
0.0
 11
329.7089342803
 21
99.6477916996
 31
0.0
  0
LINE
  5
28D
330
223
100
AcDbEntity
  8
0
  6
Continuous
 62
     2
100
AcDbLine
 10
328.9589342803
 20
188.6477916996
 30
0.0
 11
328.9589342803
 21
144.1477916996
 31
0.0
  0
LINE
  5
28E
330
223
100
AcDbEntity
  8
0
  6
Continuous
 62
     2
100
AcDbLine
 10
328.9589342803
 20
99.6477916996
 30
0.0
 11
328.9589342803
 21
144.1477916996
 31
0.0
  0
INSERT
  5
28F
330
223
100
AcDbEntity
  8
0
  6
Continuous
 62
     2
100
AcDbBlockReference
  2
_CLOSED
 10
328.9589342803
 20
188.6477916996
 30
0.0
 41
2.5
 42
2.5
 43
2.5
 50
90.0
  0
INSERT
  5
290
330
223
100
AcDbEntity
  8
0
  6
Continuous
 62
     2
100
AcDbBlockReference
  2
_CLOSED
 10
328.9589342803
 20
99.6477916996
 30
0.0
 41
2.5
 42
2.5
 43
2.5
 50
270.0
  0
ENDBLK
  5
291
330
223
100
AcDbEntity
  8
0
  6
ByBlock
 62
     0
100
AcDbBlockEnd
  0
BLOCK
  5
292
330
224
100
AcDbEntity
  8
0
100
AcDbBlockBegin
  2
*D4
 70
     1
 10
0.0
 20
0.0
 30
0.0
  3
*D4
  1

  0
MTEXT
  5
293
330
224
100
AcDbEntity
  8
0
  6
Continuous
 62
     2
100
AcDbMText
 10
176.4299778294
 20
86.1427011563
 30
0.0
 40
3.0
 41
16.3928571429
 46
0.0
 71
     2
 72
     1
  1
262,5
 73
     1
 44
1.0
  0
LINE
  5
294
330
224
100
AcDbEntity
  8
0
  6
Continuous
 62
     2
100
AcDbLine
 10
45.1799778294
 20
90.388325881
 30
0.0
 11
45.1799778294
 21
81.6427011563
 31
0.0
  0
LINE
  5
295
330
224
100
AcDbEntity
  8
0
  6
Continuous
 62
     2
100
AcDbLine
 10
307.6799778294
 20
90.388325881
 30
0.0
 11
307.6799778294
 21
81.6427011563
 31
0.0
  0
LINE
  5
296
330
224
100
AcDbEntity
  8
0
  6
Continuous
 62
     2
100
AcDbLine
 10
45.1799778294
 20
82.3927011563
 30
0.0
 11
176.4299778294
 21
82.3927011563
 31
0.0
  0
LINE
  5
297
330
224
100
AcDbEntity
  8
0
  6
Continuous
 62
     2
100
AcDbLine
 10
307.6799778294
 20
82.3927011563
 30
0.0
 11
176.4299778294
 21
82.3927011563
 31
0.0
  0
INSERT
  5
298
330
224
100
AcDbEntity
  8
0
  6
Continuous
 62
     2
100
AcDbBlockReference
  2
_CLOSED
 10
45.1799778294
 20
82.3927011563
 30
0.0
 41
2.5
 42
2.5
 43
2.5
 50
180.0
  0
INSERT
  5
299
330
224
100
AcDbEntity
  8
0
  6
Continuous
 62
     2
100
AcDbBlockReference
  2
_CLOSED
 10
307.6799778294
 20
82.3927011563
 30
0.0
 41
2.5
 42
2.5
 43
2.5
  0
ENDBLK
  5
29A
330
224
100
AcDbEntity
  8
0
  6
ByBlock
 62
     0
100
AcDbBlockEnd
  0
BLOCK
  5
22B
330
225
100
AcDbEntity
  8
0
100
AcDbBlockBegin
  2
LOGO2_BL1
 70
     0
 10
472.9737719181
 20
37.7011877111
 30
0.0
  3
LOGO2_BL1
  1

  0
LINE
  5
22C
330
225
100
AcDbEntity
  8
0
  6
Continuous
 62
     7
100
AcDbLine
 10
464.7166971463
 20
40.89667905
 30
0.0
 11
463.4123562169
 21
40.89667905
 31
0.0
  0
LINE
  5
22D
330
225
100
AcDbEntity
  8
0
  6
Continuous
 62
     7
100
AcDbLine
 10
463.4123562169
 20
40.89667905
 30
0.0
 11
463.4123562169
 21
30.4376129901
 31
0.0
  0
LINE
  5
22E
330
225
100
AcDbEntity
  8
0
  6
Continuous
 62
     7
100
AcDbLine
 10
463.4123562169
 20
30.4376129901
 30
0.0
 11
467.8934111052
 21
30.4376129901
 31
0.0
  0
LINE
  5
22F
330
225
100
AcDbEntity
  8
0
  6
Continuous
 62
     7
100
AcDbLine
 10
467.8934111052
 20
30.4376129901
 30
0.0
 11
467.8934111052
 21
31.6304673152
 31
0.0
  0
LINE
  5
230
330
225
100
AcDbEntity
  8
0
  6
Continuous
 62
     7
100
AcDbLine
 10
467.8934111052
 20
31.6304673152
 30
0.0
 11
464.7166971463
 21
31.6304673152
 31
0.0
  0
LINE
  5
231
330
225
100
AcDbEntity
  8
0
  6
Continuous
 62
     7
100
AcDbLine
 10
464.7166971463
 20
31.6304673152
 30
0.0
 11
464.7166971463
 21
40.89667905
 31
0.0
  0
LINE
  5
232
330
225
100
AcDbEntity
  8
0
  6
Continuous
 62
     7
100
AcDbLine
 10
479.6530233626
 20
40.89667905
 30
0.0
 11
478.3492058445
 21
40.89667905
 31
0.0
  0
LINE
  5
233
330
225
100
AcDbEntity
  8
0
  6
Continuous
 62
     7
100
AcDbLine
 10
478.3492058445
 20
40.89667905
 30
0.0
 11
478.3492058445
 21
30.4376129901
 31
0.0
  0
LINE
  5
234
330
225
100
AcDbEntity
  8
0
  6
Continuous
 62
     7
100
AcDbLine
 10
478.3492058445
 20
30.4376129901
 30
0.0
 11
482.8303915856
 21
30.4376129901
 31
0.0
  0
LINE
  5
235
330
225
100
AcDbEntity
  8
0
  6
Continuous
 62
     7
100
AcDbLine
 10
482.8303915856
 20
30.4376129901
 30
0.0
 11
482.8303915856
 21
31.6304673152
 31
0.0
  0
LINE
  5
236
330
225
100
AcDbEntity
  8
0
  6
Continuous
 62
     7
100
AcDbLine
 10
482.8303915856
 20
31.6304673152
 30
0.0
 11
479.6530233626
 21
31.6304673152
 31
0.0
  0
LINE
  5
237
330
225
100
AcDbEntity
  8
0
  6
Continuous
 62
     7
100
AcDbLine
 10
479.6530233626
 20
31.6304673152
 30
0.0
 11
479.6530233626
 21
40.89667905
 31
0.0
  0
LWPOLYLINE
  5
238
330
225
100
AcDbEntity
  8
0
  6
Continuous
 62
     7
100
AcDbPolyline
 90
        2
 70
     0
 43
0.2
 10
461.7667511279
 20
27.0940616832
 10
461.7667511279
 20
25.2369984339
  0
LWPOLYLINE
  5
239
330
225
100
AcDbEntity
  8
0
  6
Continuous
 62
     7
100
AcDbPolyline
 90
        2
 70
     0
 43
0.2
 10
461.7667511279
 20
25.2369984339
 10
462.5624671382
 20
25.2369984339
  0
LWPOLYLINE
  5
23A
330
225
100
AcDbEntity
  8
0
  6
Continuous
 62
     7
100
AcDbPolyline
 90
        2
 70
     0
 43
0.2
 10
462.5624671382
 20
25.2369984339
 10
462.5624671382
 20
25.4489800055
  0
LWPOLYLINE
  5
23B
330
225
100
AcDbEntity
  8
0
  6
Continuous
 62
     7
100
AcDbPolyline
 90
        2
 70
     0
 43
0.2
 10
462.5624671382
 20
25.4489800055
 10
461.9983606227
 20
25.4489800055
  0
LWPOLYLINE
  5
23C
330
225
100
AcDbEntity
  8
0
  6
Continuous
 62
     7
100
AcDbPolyline
 90
        2
 70
     0
 43
0.2
 10
461.9983606227
 20
25.4489800055
 10
461.9983606227
 20
27.0940616832
  0
LWPOLYLINE
  5
23D
330
225
100
AcDbEntity
  8
0
  6
Continuous
 62
     7
100
AcDbPolyline
 90
        2
 70
     0
 43
0.2
 10
461.9983606227
 20
27.0940616832
 10
461.7667511279
 20
27.0940616832
  0
SPLINE
  5
23E
330
225
100
AcDbEntity
  8
0
  6
Continuous
 62
     7
100
AcDbSpline
 70
     3
 71
     3
 72
    35
 73
    31
 74
     0
 42
0.000000001
 43
0.0000001
 40
0.0
 40
0.0
 40
0.0
 40
0.0
 40
1.0
 40
1.0
 40
1.0
 40
2.0
 40
2.0
 40
2.0
 40
3.0
 40
3.0
 40
3.0
 40
4.0
 40
4.0
 40
4.0
 40
5.0
 40
5.0
 40
5.0
 40
6.0
 40
6.0
 40
6.0
 40
7.0
 40
7.0
 40
7.0
 40
8.0
 40
8.0
 40
8.0
 40
9.0
 40
9.0
 40
9.0
 40
10.0
 40
10.0
 40
10.0
 40
10.0
 10
463.9607603938
 20
26.3895500898
 30
0.0
 10
463.9607603938
 20
26.3895500898
 30
0.0
 10
463.9607603938
 20
25.7274348106
 30
0.0
 10
463.9607603938
 20
25.7274348106
 30
0.0
 10
463.9607603938
 20
25.4123412153
 30
0.0
 10
464.1086240826
 20
25.1977425873
 30
0.0
 10
464.4487105669
 20
25.1977425873
 30
0.0
 10
464.7882736399
 20
25.1977425873
 30
0.0
 10
464.9363990344
 20
25.4123412153
 30
0.0
 10
464.9363990344
 20
25.7274348106
 30
0.0
 10
464.9363990344
 20
25.7274348106
 30
0.0
 10
464.9363990344
 20
26.3895500898
 30
0.0
 10
464.9363990344
 20
26.3895500898
 30
0.0
 10
464.9363990344
 20
26.3895500898
 30
0.0
 10
464.7143417955
 20
26.3895500898
 30
0.0
 10
464.7143417955
 20
26.3895500898
 30
0.0
 10
464.7143417955
 20
26.3895500898
 30
0.0
 10
464.7143417955
 20
25.7525585524
 30
0.0
 10
464.7143417955
 20
25.7525585524
 30
0.0
 10
464.7143417955
 20
25.5667475452
 30
0.0
 10
464.6676273381
 20
25.4039666347
 30
0.0
 10
464.4487105669
 20
25.4039666347
 30
0.0
 10
464.2292703845
 20
25.4039666347
 30
0.0
 10
464.182555927
 20
25.5667475452
 30
0.0
 10
464.182555927
 20
25.7525585524
 30
0.0
 10
464.182555927
 20
25.7525585524
 30
0.0
 10
464.182555927
 20
26.3895500898
 30
0.0
 10
464.182555927
 20
26.3895500898
 30
0.0
 10
464.182555927
 20
26.3895500898
 30
0.0
 10
463.9607603938
 20
26.3895500898
 30
0.0
 10
463.9607603938
 20
26.3895500898
 30
0.0
  0
SPLINE
  5
23F
330
225
100
AcDbEntity
  8
0
  6
Continuous
 62
     7
100
AcDbSpline
 70
     3
 71
     3
 72
    35
 73
    31
 74
     0
 42
0.000000001
 43
0.0000001
 40
0.0
 40
0.0
 40
0.0
 40
0.0
 40
1.0
 40
1.0
 40
1.0
 40
2.0
 40
2.0
 40
2.0
 40
3.0
 40
3.0
 40
3.0
 40
4.0
 40
4.0
 40
4.0
 40
5.0
 40
5.0
 40
5.0
 40
6.0
 40
6.0
 40
6.0
 40
7.0
 40
7.0
 40
7.0
 40
8.0
 40
8.0
 40
8.0
 40
9.0
 40
9.0
 40
9.0
 40
10.0
 40
10.0
 40
10.0
 40
10.0
 10
467.3595315916
 20
26.348200598
 30
0.0
 10
467.2710750839
 20
26.3994949042
 30
0.0
 10
467.1576256873
 20
26.424618646
 30
0.0
 10
467.0539902523
 20
26.424618646
 30
0.0
 10
466.6991173991
 20
26.424618646
 30
0.0
 10
466.4236722089
 20
26.160819357
 30
0.0
 10
466.4236722089
 20
25.8033294473
 30
0.0
 10
466.4236722089
 20
25.4584014086
 30
0.0
 10
466.702127014
 20
25.1982659986
 30
0.0
 10
467.041690087
 20
25.1982659986
 30
0.0
 10
467.1576256873
 20
25.1982659986
 30
0.0
 10
467.2583823602
 20
25.2202492727
 30
0.0
 10
467.3595315916
 20
25.2741606353
 30
0.0
 10
467.3595315916
 20
25.2741606353
 30
0.0
 10
467.3595315916
 20
25.5568027308
 30
0.0
 10
467.3595315916
 20
25.5568027308
 30
0.0
 10
467.2756549327
 20
25.4636355215
 30
0.0
 10
467.1721503505
 20
25.404490046
 30
0.0
 10
467.0440454378
 20
25.404490046
 30
0.0
 10
466.8103422978
 20
25.404490046
 30
0.0
 10
466.6450751836
 20
25.5766923597
 30
0.0
 10
466.6450751836
 20
25.8132742618
 30
0.0
 10
466.6450751836
 20
26.0252558334
 30
0.0
 10
466.8128285014
 20
26.217347776
 30
0.0
 10
467.0296516274
 20
26.217347776
 30
0.0
 10
467.1624672417
 20
26.217347776
 30
0.0
 10
467.2710750839
 20
26.1634364134
 30
0.0
 10
467.3595315916
 20
26.0624180348
 30
0.0
 10
467.3595315916
 20
26.0624180348
 30
0.0
 10
467.3595315916
 20
26.348200598
 30
0.0
 10
467.3595315916
 20
26.348200598
 30
0.0
  0
SPLINE
  5
240
330
225
100
AcDbEntity
  8
0
  6
Continuous
 62
     7
100
AcDbSpline
 70
     3
 71
     3
 72
    32
 73
    28
 74
     0
 42
0.000000001
 43
0.0000001
 40
0.0
 40
0.0
 40
0.0
 40
0.0
 40
1.0
 40
1.0
 40
1.0
 40
2.0
 40
2.0
 40
2.0
 40
3.0
 40
3.0
 40
3.0
 40
4.0
 40
4.0
 40
4.0
 40
5.0
 40
5.0
 40
5.0
 40
6.0
 40
6.0
 40
6.0
 40
7.0
 40
7.0
 40
7.0
 40
8.0
 40
8.0
 40
8.0
 40
9.0
 40
9.0
 40
9.0
 40
9.0
 10
469.8914028438
 20
25.7766354717
 30
0.0
 10
469.8914028438
 20
25.7766354717
 30
0.0
 10
469.8914028438
 20
25.8106572054
 30
0.0
 10
469.8914028438
 20
25.8106572054
 30
0.0
 10
469.8914028438
 20
26.1529681876
 30
0.0
 10
469.718546266
 20
26.424618646
 30
0.0
 10
469.3518966588
 20
26.424618646
 30
0.0
 10
468.9802746445
 20
26.424618646
 30
0.0
 10
468.7905380526
 20
26.1582023005
 30
0.0
 10
468.7905380526
 20
25.8033294473
 30
0.0
 10
468.7905380526
 20
25.4636355215
 30
0.0
 10
469.0046132693
 20
25.1977425873
 30
0.0
 10
469.3567382133
 20
25.1977425873
 30
0.0
 10
469.5807582445
 20
25.1977425873
 30
0.0
 10
469.7829258544
 20
25.3134164819
 30
0.0
 10
469.8914028438
 20
25.5128361826
 30
0.0
 10
469.8914028438
 20
25.5128361826
 30
0.0
 10
469.7037598971
 20
25.6196120853
 30
0.0
 10
469.7037598971
 20
25.6196120853
 30
0.0
 10
469.6202757967
 20
25.480908094
 30
0.0
 10
469.5290713798
 20
25.3950686428
 30
0.0
 10
469.3594861225
 20
25.3950686428
 30
0.0
 10
469.1475045509
 20
25.3950686428
 30
0.0
 10
469.0145580838
 20
25.5798328274
 30
0.0
 10
469.012202733
 20
25.7766354717
 30
0.0
 10
469.012202733
 20
25.7766354717
 30
0.0
 10
469.8914028438
 20
25.7766354717
 30
0.0
 10
469.8914028438
 20
25.7766354717
 30
0.0
  0
SPLINE
  5
241
330
225
100
AcDbEntity
  8
0
  6
Continuous
 62
     7
100
AcDbSpline
 70
     3
 71
     3
 72
    14
 73
    10
 74
     0
 42
0.000000001
 43
0.0000001
 40
0.0
 40
0.0
 40
0.0
 40
0.0
 40
1.0
 40
1.0
 40
1.0
 40
2.0
 40
2.0
 40
2.0
 40
3.0
 40
3.0
 40
3.0
 40
3.0
 10
469.0242411926
 20
25.9441270838
 30
0.0
 10
469.0518511381
 20
26.1090016395
 30
0.0
 10
469.1796943451
 20
26.2320032921
 30
0.0
 10
469.3518966588
 20
26.2320032921
 30
0.0
 10
469.5290713798
 20
26.2320032921
 30
0.0
 10
469.6425207764
 20
26.1163293975
 30
0.0
 10
469.6697381634
 20
25.9441270838
 30
0.0
 10
469.6697381634
 20
25.9441270838
 30
0.0
 10
469.0242411926
 20
25.9441270838
 30
0.0
 10
469.0242411926
 20
25.9441270838
 30
0.0
  0
SPLINE
  5
242
330
225
100
AcDbEntity
  8
0
  6
Continuous
 62
     7
100
AcDbSpline
 70
     3
 71
     3
 72
    20
 73
    16
 74
     0
 42
0.000000001
 43
0.0000001
 40
0.0
 40
0.0
 40
0.0
 40
0.0
 40
1.0
 40
1.0
 40
1.0
 40
2.0
 40
2.0
 40
2.0
 40
3.0
 40
3.0
 40
3.0
 40
4.0
 40
4.0
 40
4.0
 40
5.0
 40
5.0
 40
5.0
 40
5.0
 10
471.915434294
 20
26.1534915989
 30
0.0
 10
471.915434294
 20
26.1534915989
 30
0.0
 10
472.3265738606
 20
25.6510167626
 30
0.0
 10
472.3265738606
 20
25.6510167626
 30
0.0
 10
472.2105074076
 20
25.535342868
 30
0.0
 10
472.072719386
 20
25.4050134573
 30
0.0
 10
471.900778778
 20
25.4050134573
 30
0.0
 10
471.7233423514
 20
25.4050134573
 30
0.0
 10
471.5558507392
 20
25.5693646017
 30
0.0
 10
471.5558507392
 20
25.746277617
 30
0.0
 10
471.5558507392
 20
25.9242374548
 30
0.0
 10
471.7656078129
 20
26.0503795752
 30
0.0
 10
471.8931893143
 20
26.1383126716
 30
0.0
 10
471.8931893143
 20
26.1383126716
 30
0.0
 10
471.915434294
 20
26.1534915989
 30
0.0
 10
471.915434294
 20
26.1534915989
 30
0.0
  0
SPLINE
  5
243
330
225
100
AcDbEntity
  8
0
  6
Continuous
 62
     7
100
AcDbSpline
 70
     3
 71
     3
 72
    23
 73
    19
 74
     0
 42
0.000000001
 43
0.0000001
 40
0.0
 40
0.0
 40
0.0
 40
0.0
 40
1.0
 40
1.0
 40
1.0
 40
2.0
 40
2.0
 40
2.0
 40
3.0
 40
3.0
 40
3.0
 40
4.0
 40
4.0
 40
4.0
 40
5.0
 40
5.0
 40
5.0
 40
6.0
 40
6.0
 40
6.0
 40
6.0
 10
471.9647658079
 20
26.444508275
 30
0.0
 10
471.9647658079
 20
26.444508275
 30
0.0
 10
471.9031341287
 20
26.5230199682
 30
0.0
 10
471.9031341287
 20
26.5230199682
 30
0.0
 10
471.8492227661
 20
26.5915868469
 30
0.0
 10
471.7924326414
 20
26.6606771369
 30
0.0
 10
471.7924326414
 20
26.7543677574
 30
0.0
 10
471.7924326414
 20
26.8731821197
 30
0.0
 10
471.8883477599
 20
26.9506469904
 30
0.0
 10
471.9993109529
 20
26.9506469904
 30
0.0
 10
472.1225743112
 20
26.9506469904
 30
0.0
 10
472.2158723733
 20
26.8794630552
 30
0.0
 10
472.2158723733
 20
26.7491336445
 30
0.0
 10
472.2158723733
 20
26.6140935323
 30
0.0
 10
472.0877674605
 20
26.5376754842
 30
0.0
 10
471.9942076928
 20
26.4638744926
 30
0.0
 10
471.9942076928
 20
26.4638744926
 30
0.0
 10
471.9647658079
 20
26.444508275
 30
0.0
 10
471.9647658079
 20
26.444508275
 30
0.0
  0
SPLINE
  5
244
330
225
100
AcDbEntity
  8
0
  6
Continuous
 62
     7
100
AcDbSpline
 70
     3
 71
     3
 72
    50
 73
    46
 74
     0
 42
0.000000001
 43
0.0000001
 40
0.0
 40
0.0
 40
0.0
 40
0.0
 40
1.0
 40
1.0
 40
1.0
 40
2.0
 40
2.0
 40
2.0
 40
3.0
 40
3.0
 40
3.0
 40
4.0
 40
4.0
 40
4.0
 40
5.0
 40
5.0
 40
5.0
 40
6.0
 40
6.0
 40
6.0
 40
7.0
 40
7.0
 40
7.0
 40
8.0
 40
8.0
 40
8.0
 40
9.0
 40
9.0
 40
9.0
 40
10.0
 40
10.0
 40
10.0
 40
11.0
 40
11.0
 40
11.0
 40
12.0
 40
12.0
 40
12.0
 40
13.0
 40
13.0
 40
13.0
 40
14.0
 40
14.0
 40
14.0
 40
15.0
 40
15.0
 40
15.0
 40
15.0
 10
472.6669220506
 20
25.2375218452
 30
0.0
 10
472.6669220506
 20
25.2375218452
 30
0.0
 10
472.9523120553
 20
25.2375218452
 30
0.0
 10
472.9523120553
 20
25.2375218452
 30
0.0
 10
472.9523120553
 20
25.2375218452
 30
0.0
 10
472.6199458875
 20
25.6483997061
 30
0.0
 10
472.6199458875
 20
25.6483997061
 30
0.0
 10
472.6199458875
 20
25.6483997061
 30
0.0
 10
472.8464521223
 20
25.9142926404
 30
0.0
 10
472.8464521223
 20
25.9142926404
 30
0.0
 10
472.8464521223
 20
25.9142926404
 30
0.0
 10
472.698195875
 20
26.0671287364
 30
0.0
 10
472.698195875
 20
26.0671287364
 30
0.0
 10
472.698195875
 20
26.0671287364
 30
0.0
 10
472.4822887188
 20
25.8158913182
 30
0.0
 10
472.4822887188
 20
25.8158913182
 30
0.0
 10
472.4822887188
 20
25.8158913182
 30
0.0
 10
472.0952260714
 20
26.2838210096
 30
0.0
 10
472.0952260714
 20
26.2838210096
 30
0.0
 10
472.2506792239
 20
26.3979246704
 30
0.0
 10
472.4329572049
 20
26.5376754842
 30
0.0
 10
472.4329572049
 20
26.7470399994
 30
0.0
 10
472.4329572049
 20
26.9909496595
 30
0.0
 10
472.2309204478
 20
27.1343643524
 30
0.0
 10
472.004414213
 20
27.1343643524
 30
0.0
 10
471.7602428472
 20
27.1343643524
 30
0.0
 10
471.575871221
 20
26.9836219015
 30
0.0
 10
471.575871221
 20
26.7271503704
 30
0.0
 10
471.575871221
 20
26.5696035728
 30
0.0
 10
471.6745342488
 20
26.4319464041
 30
0.0
 10
471.7798707705
 20
26.320983211
 30
0.0
 10
471.7798707705
 20
26.320983211
 30
0.0
 10
471.6643277287
 20
26.237237405
 30
0.0
 10
471.6643277287
 20
26.237237405
 30
0.0
 10
471.4866295964
 20
26.1090016395
 30
0.0
 10
471.3392893189
 20
25.9812892852
 30
0.0
 10
471.3392893189
 20
25.7441839718
 30
0.0
 10
471.3392893189
 20
25.4238562636
 30
0.0
 10
471.5978544951
 20
25.1977425873
 30
0.0
 10
471.9082373888
 20
25.1977425873
 30
0.0
 10
472.12715416
 20
25.1977425873
 30
0.0
 10
472.3243493627
 20
25.3228378851
 30
0.0
 10
472.4646235878
 20
25.4887592633
 30
0.0
 10
472.4646235878
 20
25.4887592633
 30
0.0
 10
472.6669220506
 20
25.2375218452
 30
0.0
 10
472.6669220506
 20
25.2375218452
 30
0.0
  0
LWPOLYLINE
  5
245
330
225
100
AcDbEntity
  8
0
  6
Continuous
 62
     7
100
AcDbPolyline
 90
        2
 70
     0
 43
0.2
 10
474.6023661403
 20
27.0940616832
 10
474.3710183511
 20
27.0940616832
  0
LWPOLYLINE
  5
246
330
225
100
AcDbEntity
  8
0
  6
Continuous
 62
     7
100
AcDbPolyline
 90
        2
 70
     0
 43
0.2
 10
474.3710183511
 20
27.0940616832
 10
474.3710183511
 20
25.2369984339
  0
LWPOLYLINE
  5
247
330
225
100
AcDbEntity
  8
0
  6
Continuous
 62
     7
100
AcDbPolyline
 90
        2
 70
     0
 43
0.2
 10
474.3710183511
 20
25.2369984339
 10
475.166341803
 20
25.2369984339
  0
LWPOLYLINE
  5
248
330
225
100
AcDbEntity
  8
0
  6
Continuous
 62
     7
100
AcDbPolyline
 90
        2
 70
     0
 43
0.2
 10
475.166341803
 20
25.2369984339
 10
475.166341803
 20
25.4489800055
  0
LWPOLYLINE
  5
249
330
225
100
AcDbEntity
  8
0
  6
Continuous
 62
     7
100
AcDbPolyline
 90
        2
 70
     0
 43
0.2
 10
475.166341803
 20
25.4489800055
 10
474.6023661403
 20
25.4489800055
  0
LWPOLYLINE
  5
24A
330
225
100
AcDbEntity
  8
0
  6
Continuous
 62
     7
100
AcDbPolyline
 90
        2
 70
     0
 43
0.2
 10
474.6023661403
 20
25.4489800055
 10
474.6023661403
 20
27.0940616832
  0
LWPOLYLINE
  5
24B
330
225
100
AcDbEntity
  8
0
  6
Continuous
 62
     7
100
AcDbPolyline
 90
        2
 70
     0
 43
0.2
 10
476.8454452145
 20
26.3895500898
 10
476.6243039453
 20
26.3895500898
  0
LWPOLYLINE
  5
24C
330
225
100
AcDbEntity
  8
0
  6
Continuous
 62
     7
100
AcDbPolyline
 90
        2
 70
     0
 43
0.2
 10
476.6243039453
 20
26.3895500898
 10
476.6243039453
 20
25.2375218452
  0
LWPOLYLINE
  5
24D
330
225
100
AcDbEntity
  8
0
  6
Continuous
 62
     7
100
AcDbPolyline
 90
        2
 70
     0
 43
0.2
 10
476.6243039453
 20
25.2375218452
 10
476.8454452145
 20
25.2375218452
  0
LWPOLYLINE
  5
24E
330
225
100
AcDbEntity
  8
0
  6
Continuous
 62
     7
100
AcDbPolyline
 90
        2
 70
     0
 43
0.2
 10
476.8454452145
 20
25.2375218452
 10
476.8454452145
 20
26.3895500898
  0
LWPOLYLINE
  5
24F
330
225
100
AcDbEntity
  8
0
  6
Continuous
 62
     7
100
AcDbPolyline
 90
        2
 70
     1
 43
0.2
 10
476.5824219373
 20
26.9195040187
 42
1.0
 10
476.8875889282
 20
26.9195040187
 42
1.0
  0
SPLINE
  5
250
330
225
100
AcDbEntity
  8
0
  6
Continuous
 62
     7
100
AcDbSpline
 70
     3
 71
     3
 72
    17
 73
    13
 74
     0
 42
0.000000001
 43
0.0000001
 40
0.0
 40
0.0
 40
0.0
 40
0.0
 40
1.0
 40
1.0
 40
1.0
 40
2.0
 40
2.0
 40
2.0
 40
3.0
 40
3.0
 40
3.0
 40
4.0
 40
4.0
 40
4.0
 40
4.0
 10
478.9757291561
 20
25.3950686428
 30
0.0
 10
478.7417643104
 20
25.3950686428
 30
0.0
 10
478.6114348997
 20
25.5971053999
 30
0.0
 10
478.6114348997
 20
25.8132742618
 30
0.0
 10
478.6114348997
 20
26.0278728898
 30
0.0
 10
478.7472601289
 20
26.2267691792
 30
0.0
 10
478.9757291561
 20
26.2267691792
 30
0.0
 10
479.2151898203
 20
26.2267691792
 30
0.0
 10
479.3507533439
 20
26.0378177043
 30
0.0
 10
479.3507533439
 20
25.8132742618
 30
0.0
 10
479.3507533439
 20
25.5871605855
 30
0.0
 10
479.2175451711
 20
25.3950686428
 30
0.0
 10
478.9757291561
 20
25.3950686428
 30
0.0
  0
SPLINE
  5
251
330
225
100
AcDbEntity
  8
0
  6
Continuous
 62
     7
100
AcDbSpline
 70
     3
 71
     3
 72
    50
 73
    46
 74
     0
 42
0.000000001
 43
0.0000001
 40
0.0
 40
0.0
 40
0.0
 40
0.0
 40
1.0
 40
1.0
 40
1.0
 40
2.0
 40
2.0
 40
2.0
 40
3.0
 40
3.0
 40
3.0
 40
4.0
 40
4.0
 40
4.0
 40
5.0
 40
5.0
 40
5.0
 40
6.0
 40
6.0
 40
6.0
 40
7.0
 40
7.0
 40
7.0
 40
8.0
 40
8.0
 40
8.0
 40
9.0
 40
9.0
 40
9.0
 40
10.0
 40
10.0
 40
10.0
 40
11.0
 40
11.0
 40
11.0
 40
12.0
 40
12.0
 40
12.0
 40
13.0
 40
13.0
 40
13.0
 40
14.0
 40
14.0
 40
14.0
 40
15.0
 40
15.0
 40
15.0
 40
15.0
 10
479.5598561534
 20
26.390073501
 30
0.0
 10
479.5598561534
 20
26.390073501
 30
0.0
 10
479.3381914729
 20
26.390073501
 30
0.0
 10
479.3381914729
 20
26.390073501
 30
0.0
 10
479.3381914729
 20
26.390073501
 30
0.0
 10
479.3381914729
 20
26.1927474455
 30
0.0
 10
479.3381914729
 20
26.1927474455
 30
0.0
 10
479.3381914729
 20
26.1927474455
 30
0.0
 10
479.3334807714
 20
26.1927474455
 30
0.0
 10
479.3334807714
 20
26.1927474455
 30
0.0
 10
479.2421455016
 20
26.3356387271
 30
0.0
 10
479.1042266273
 20
26.4240952348
 30
0.0
 10
478.9315009023
 20
26.4240952348
 30
0.0
 10
478.5991347345
 20
26.4240952348
 30
0.0
 10
478.390031925
 20
26.1362190264
 30
0.0
 10
478.390031925
 20
25.8206020198
 30
0.0
 10
478.390031925
 20
25.4908529085
 30
0.0
 10
478.5870962749
 20
25.1977425873
 30
0.0
 10
478.941969128
 20
25.1977425873
 30
0.0
 10
479.1042266273
 20
25.1977425873
 30
0.0
 10
479.2442391468
 20
25.2861990949
 30
0.0
 10
479.3334807714
 20
25.4170519169
 30
0.0
 10
479.3334807714
 20
25.4170519169
 30
0.0
 10
479.3381914729
 20
25.4170519169
 30
0.0
 10
479.3381914729
 20
25.4170519169
 30
0.0
 10
479.3381914729
 20
25.4170519169
 30
0.0
 10
479.3381914729
 20
25.1977425873
 30
0.0
 10
479.3381914729
 20
25.1977425873
 30
0.0
 10
479.3381914729
 20
24.9611606852
 30
0.0
 10
479.2816630539
 20
24.7743028554
 30
0.0
 10
479.0084423616
 20
24.7743028554
 30
0.0
 10
478.8061438988
 20
24.7743028554
 30
0.0
 10
478.6635143229
 20
24.8925938064
 30
0.0
 10
478.6635143229
 20
25.0988178539
 30
0.0
 10
478.6635143229
 20
25.0988178539
 30
0.0
 10
478.4418496425
 20
25.0988178539
 30
0.0
 10
478.4418496425
 20
25.0988178539
 30
0.0
 10
478.4468220497
 20
24.7743028554
 30
0.0
 10
478.6779081333
 20
24.5775002111
 30
0.0
 10
478.9982358415
 20
24.5775002111
 30
0.0
 10
479.4462759039
 20
24.5775002111
 30
0.0
 10
479.5598561534
 20
24.862759363
 30
0.0
 10
479.5598561534
 20
25.2595051192
 30
0.0
 10
479.5598561534
 20
25.2595051192
 30
0.0
 10
479.5598561534
 20
26.390073501
 30
0.0
 10
479.5598561534
 20
26.390073501
 30
0.0
  0
SPLINE
  5
252
330
225
100
AcDbEntity
  8
0
  6
Continuous
 62
     7
100
AcDbSpline
 70
     3
 71
     3
 72
    44
 73
    40
 74
     0
 42
0.000000001
 43
0.0000001
 40
0.0
 40
0.0
 40
0.0
 40
0.0
 40
1.0
 40
1.0
 40
1.0
 40
2.0
 40
2.0
 40
2.0
 40
3.0
 40
3.0
 40
3.0
 40
4.0
 40
4.0
 40
4.0
 40
5.0
 40
5.0
 40
5.0
 40
6.0
 40
6.0
 40
6.0
 40
7.0
 40
7.0
 40
7.0
 40
8.0
 40
8.0
 40
8.0
 40
9.0
 40
9.0
 40
9.0
 40
10.0
 40
10.0
 40
10.0
 40
11.0
 40
11.0
 40
11.0
 40
12.0
 40
12.0
 40
12.0
 40
13.0
 40
13.0
 40
13.0
 40
13.0
 10
481.1287814887
 20
27.3751335448
 30
0.0
 10
481.1287814887
 20
27.3751335448
 30
0.0
 10
481.1287814887
 20
25.2369984339
 30
0.0
 10
481.1287814887
 20
25.2369984339
 30
0.0
 10
481.1287814887
 20
25.2369984339
 30
0.0
 10
481.3501844635
 20
25.2369984339
 30
0.0
 10
481.3501844635
 20
25.2369984339
 30
0.0
 10
481.3501844635
 20
25.2369984339
 30
0.0
 10
481.3501844635
 20
25.7666906572
 30
0.0
 10
481.3501844635
 20
25.7666906572
 30
0.0
 10
481.3501844635
 20
25.9765785836
 30
0.0
 10
481.3501844635
 20
26.2272925905
 30
0.0
 10
481.6354436154
 20
26.2272925905
 30
0.0
 10
481.8623424087
 20
26.2272925905
 30
0.0
 10
481.88929809
 20
26.0943461234
 30
0.0
 10
481.88929809
 20
25.8980668904
 30
0.0
 10
481.88929809
 20
25.8980668904
 30
0.0
 10
481.88929809
 20
25.2369984339
 30
0.0
 10
481.88929809
 20
25.2369984339
 30
0.0
 10
481.88929809
 20
25.2369984339
 30
0.0
 10
482.1112244761
 20
25.2369984339
 30
0.0
 10
482.1112244761
 20
25.2369984339
 30
0.0
 10
482.1112244761
 20
25.2369984339
 30
0.0
 10
482.1112244761
 20
25.9242374548
 30
0.0
 10
482.1112244761
 20
25.9242374548
 30
0.0
 10
482.1112244761
 20
26.2047859051
 30
0.0
 10
482.0272169644
 20
26.424618646
 30
0.0
 10
481.7021785546
 20
26.424618646
 30
0.0
 10
481.5624277407
 20
26.424618646
 30
0.0
 10
481.4242471608
 20
26.3581454125
 30
0.0
 10
481.3548951651
 20
26.2351437598
 30
0.0
 10
481.3548951651
 20
26.2351437598
 30
0.0
 10
481.3501844635
 20
26.2351437598
 30
0.0
 10
481.3501844635
 20
26.2351437598
 30
0.0
 10
481.3501844635
 20
26.2351437598
 30
0.0
 10
481.3501844635
 20
27.3751335448
 30
0.0
 10
481.3501844635
 20
27.3751335448
 30
0.0
 10
481.3501844635
 20
27.3751335448
 30
0.0
 10
481.1287814887
 20
27.3751335448
 30
0.0
 10
481.1287814887
 20
27.3751335448
 30
0.0
  0
LWPOLYLINE
  5
253
330
225
100
AcDbEntity
  8
0
  6
Continuous
 62
     7
100
AcDbPolyline
 90
        2
 70
     0
 43
0.2
 10
483.9510151529
 20
26.182802631
 10
484.1674457205
 20
26.182802631
  0
LWPOLYLINE
  5
254
330
225
100
AcDbEntity
  8
0
  6
Continuous
 62
     7
100
AcDbPolyline
 90
        2
 70
     0
 43
0.2
 10
484.1674457205
 20
26.182802631
 10
484.1674457205
 20
26.3895500898
  0
LWPOLYLINE
  5
255
330
225
100
AcDbEntity
  8
0
  6
Continuous
 62
     7
100
AcDbPolyline
 90
        2
 70
     0
 43
0.2
 10
484.1674457205
 20
26.3895500898
 10
483.9510151529
 20
26.3895500898
  0
LWPOLYLINE
  5
256
330
225
100
AcDbEntity
  8
0
  6
Continuous
 62
     7
100
AcDbPolyline
 90
        2
 70
     0
 43
0.2
 10
483.9510151529
 20
26.3895500898
 10
483.9510151529
 20
26.8302623941
  0
LWPOLYLINE
  5
257
330
225
100
AcDbEntity
  8
0
  6
Continuous
 62
     7
100
AcDbPolyline
 90
        2
 70
     0
 43
0.2
 10
483.9510151529
 20
26.8302623941
 10
483.7293504725
 20
26.8302623941
  0
LWPOLYLINE
  5
258
330
225
100
AcDbEntity
  8
0
  6
Continuous
 62
     7
100
AcDbPolyline
 90
        2
 70
     0
 43
0.2
 10
483.7293504725
 20
26.8302623941
 10
483.7293504725
 20
26.3895500898
  0
LWPOLYLINE
  5
259
330
225
100
AcDbEntity
  8
0
  6
Continuous
 62
     7
100
AcDbPolyline
 90
        2
 70
     0
 43
0.2
 10
483.7293504725
 20
26.3895500898
 10
483.6087041707
 20
26.3895500898
  0
LWPOLYLINE
  5
25A
330
225
100
AcDbEntity
  8
0
  6
Continuous
 62
     7
100
AcDbPolyline
 90
        2
 70
     0
 43
0.2
 10
483.6087041707
 20
26.3895500898
 10
483.6087041707
 20
26.182802631
  0
LWPOLYLINE
  5
25B
330
225
100
AcDbEntity
  8
0
  6
Continuous
 62
     7
100
AcDbPolyline
 90
        2
 70
     0
 43
0.2
 10
483.6087041707
 20
26.182802631
 10
483.7293504725
 20
26.182802631
  0
LWPOLYLINE
  5
25C
330
225
100
AcDbEntity
  8
0
  6
Continuous
 62
     7
100
AcDbPolyline
 90
        2
 70
     0
 43
0.2
 10
483.7293504725
 20
26.182802631
 10
483.7293504725
 20
25.2369984339
  0
LWPOLYLINE
  5
25D
330
225
100
AcDbEntity
  8
0
  6
Continuous
 62
     7
100
AcDbPolyline
 90
        2
 70
     0
 43
0.2
 10
483.7293504725
 20
25.2369984339
 10
483.9510151529
 20
25.2369984339
  0
LWPOLYLINE
  5
25E
330
225
100
AcDbEntity
  8
0
  6
Continuous
 62
     7
100
AcDbPolyline
 90
        2
 70
     0
 43
0.2
 10
483.9510151529
 20
25.2369984339
 10
483.9510151529
 20
26.182802631
  0
SPLINE
  5
25F
330
225
100
AcDbEntity
  8
0
  6
Continuous
 62
     7
100
AcDbSpline
 70
     3
 71
     3
 72
    20
 73
    16
 74
     0
 42
0.000000001
 43
0.0000001
 40
0.0
 40
0.0
 40
0.0
 40
0.0
 40
1.0
 40
1.0
 40
1.0
 40
2.0
 40
2.0
 40
2.0
 40
3.0
 40
3.0
 40
3.0
 40
4.0
 40
4.0
 40
4.0
 40
5.0
 40
5.0
 40
5.0
 40
5.0
 10
471.7330254602
 20
35.5979248773
 30
0.0
 10
471.7330254602
 20
35.5979248773
 30
0.0
 10
474.0493821147
 20
32.768363455
 30
0.0
 10
474.0493821147
 20
32.768363455
 30
0.0
 10
473.3977350613
 20
32.1161929903
 30
0.0
 10
472.6208618572
 20
31.3802767196
 30
0.0
 10
471.6496722126
 20
31.3802767196
 30
0.0
 10
470.6511343282
 20
31.3802767196
 30
0.0
 10
469.7078163346
 20
32.3098551669
 30
0.0
 10
469.7078163346
 20
33.3090473154
 30
0.0
 10
469.7078163346
 20
34.3082394639
 30
0.0
 10
470.8866694077
 20
35.0148447026
 30
0.0
 10
471.608191868
 20
35.5147024825
 30
0.0
 10
471.608191868
 20
35.5147024825
 30
0.0
 10
471.7330254602
 20
35.5979248773
 30
0.0
 10
471.7330254602
 20
35.5979248773
 30
0.0
  0
SPLINE
  5
260
330
225
100
AcDbEntity
  8
0
  6
Continuous
 62
     7
100
AcDbSpline
 70
     3
 71
     3
 72
    23
 73
    19
 74
     0
 42
0.000000001
 43
0.0000001
 40
0.0
 40
0.0
 40
0.0
 40
0.0
 40
1.0
 40
1.0
 40
1.0
 40
2.0
 40
2.0
 40
2.0
 40
3.0
 40
3.0
 40
3.0
 40
4.0
 40
4.0
 40
4.0
 40
5.0
 40
5.0
 40
5.0
 40
6.0
 40
6.0
 40
6.0
 40
6.0
 10
472.0104334428
 20
37.235678797
 30
0.0
 10
472.0104334428
 20
37.235678797
 30
0.0
 10
471.6639351702
 20
37.6790081578
 30
0.0
 10
471.6639351702
 20
37.6790081578
 30
0.0
 10
471.3581321253
 20
38.0671176278
 30
0.0
 10
471.0392437981
 20
38.4556196562
 30
0.0
 10
471.0392437981
 20
38.9825639703
 30
0.0
 10
471.0392437981
 20
39.6487356869
 30
0.0
 10
471.5805819226
 20
40.0924576062
 30
0.0
 10
472.2044881777
 20
40.0924576062
 30
0.0
 10
472.8982698398
 20
40.0924576062
 30
0.0
 10
473.4254758595
 20
39.6902160315
 30
0.0
 10
473.4254758595
 20
38.9552157305
 30
0.0
 10
473.4254758595
 20
38.1919512199
 30
0.0
 10
472.7042151048
 20
37.7618379941
 30
0.0
 10
472.1771399379
 20
37.3461185787
 30
0.0
 10
472.1771399379
 20
37.3461185787
 30
0.0
 10
472.0104334428
 20
37.235678797
 30
0.0
 10
472.0104334428
 20
37.235678797
 30
0.0
  0
SPLINE
  5
261
330
225
100
AcDbEntity
  8
0
  6
Continuous
 62
     7
100
AcDbSpline
 70
     3
 71
     3
 72
    50
 73
    46
 74
     0
 42
0.000000001
 43
0.0000001
 40
0.0
 40
0.0
 40
0.0
 40
0.0
 40
1.0
 40
1.0
 40
1.0
 40
2.0
 40
2.0
 40
2.0
 40
3.0
 40
3.0
 40
3.0
 40
4.0
 40
4.0
 40
4.0
 40
5.0
 40
5.0
 40
5.0
 40
6.0
 40
6.0
 40
6.0
 40
7.0
 40
7.0
 40
7.0
 40
8.0
 40
8.0
 40
8.0
 40
9.0
 40
9.0
 40
9.0
 40
10.0
 40
10.0
 40
10.0
 40
11.0
 40
11.0
 40
11.0
 40
12.0
 40
12.0
 40
12.0
 40
13.0
 40
13.0
 40
13.0
 40
14.0
 40
14.0
 40
14.0
 40
15.0
 40
15.0
 40
15.0
 40
15.0
 10
475.9640206057
 20
30.4370895789
 30
0.0
 10
475.9640206057
 20
30.4370895789
 30
0.0
 10
477.5732486102
 20
30.4370895789
 30
0.0
 10
477.5732486102
 20
30.4370895789
 30
0.0
 10
477.5732486102
 20
30.4370895789
 30
0.0
 10
475.7002213166
 20
32.7542313503
 30
0.0
 10
475.7002213166
 20
32.7542313503
 30
0.0
 10
475.7002213166
 20
32.7542313503
 30
0.0
 10
476.9765597421
 20
34.2517110449
 30
0.0
 10
476.9765597421
 20
34.2517110449
 30
0.0
 10
476.9765597421
 20
34.2517110449
 30
0.0
 10
476.1443357944
 20
35.1127226134
 30
0.0
 10
476.1443357944
 20
35.1127226134
 30
0.0
 10
476.1443357944
 20
35.1127226134
 30
0.0
 10
474.923740671
 20
33.697418491
 30
0.0
 10
474.923740671
 20
33.697418491
 30
0.0
 10
474.923740671
 20
33.697418491
 30
0.0
 10
472.7458263022
 20
36.3327943254
 30
0.0
 10
472.7458263022
 20
36.3327943254
 30
0.0
 10
473.6193997417
 20
36.9708326853
 30
0.0
 10
474.6460709828
 20
37.7618379941
 30
0.0
 10
474.6460709828
 20
38.9406910672
 30
0.0
 10
474.6460709828
 20
40.3143839923
 30
0.0
 10
473.508174843
 20
41.1188671417
 30
0.0
 10
472.2328832401
 20
41.1188671417
 30
0.0
 10
470.8594520207
 20
41.1188671417
 30
0.0
 10
469.818517822
 20
40.272641942
 30
0.0
 10
469.818517822
 20
38.8299895799
 30
0.0
 10
469.818517822
 20
37.9424148884
 30
0.0
 10
470.3738571984
 20
37.1655416844
 30
0.0
 10
470.9700226553
 20
36.541112018
 30
0.0
 10
470.9700226553
 20
36.541112018
 30
0.0
 10
470.3181138963
 20
36.0695184476
 30
0.0
 10
470.3181138963
 20
36.0695184476
 30
0.0
 10
469.3195760118
 20
35.3482576929
 30
0.0
 10
468.4866978
 20
34.6269969383
 30
0.0
 10
468.4866978
 20
33.2954386219
 30
0.0
 10
468.4866978
 20
31.4917633239
 30
0.0
 10
469.9437439726
 20
30.2151631928
 30
0.0
 10
471.69128341
 20
30.2151631928
 30
0.0
 10
472.9261414909
 20
30.2151631928
 30
0.0
 10
474.0355117155
 20
30.9233386653
 30
0.0
 10
474.8263861715
 20
31.85187029
 30
0.0
 10
474.8263861715
 20
31.85187029
 30
0.0
 10
475.9640206057
 20
30.4370895789
 30
0.0
 10
475.9640206057
 20
30.4370895789
 30
0.0
  0
LINE
  5
262
330
225
100
AcDbEntity
  8
0
  6
Continuous
 62
     7
100
AcDbLine
 10
461.7668819807
 20
28.4109644835
 30
0.0
 11
484.1807927083
 21
28.4109644835
 31
0.0
  0
LINE
  5
263
330
225
100
AcDbEntity
  8
0
  6
Continuous
 62
     7
100
AcDbLine
 10
484.1807927083
 20
28.4109644835
 30
0.0
 11
484.1807927083
 21
50.8248752111
 31
0.0
  0
LINE
  5
264
330
225
100
AcDbEntity
  8
0
  6
Continuous
 62
     7
100
AcDbLine
 10
484.1807927083
 20
50.8248752111
 30
0.0
 11
461.7668819807
 21
50.8248752111
 31
0.0
  0
LINE
  5
265
330
225
100
AcDbEntity
  8
0
  6
Continuous
 62
     7
100
AcDbLine
 10
461.7668819807
 20
50.8248752111
 30
0.0
 11
461.7668819807
 21
28.4109644835
 31
0.0
  0
ENDBLK
  5
266
330
225
100
AcDbEntity
  8
0
  6
ByBlock
 62
     0
100
AcDbBlockEnd
  0
BLOCK
  5
267
330
226
100
AcDbEntity
  8
0
100
AcDbBlockBegin
  2
PROIEZIONE_EU_BL0
 70
     0
 10
474.1477248733
 20
63.3261877111
 30
0.0
  3
PROIEZIONE_EU_BL0
  1

  0
LWPOLYLINE
  5
268
330
226
100
AcDbEntity
  8
DEFAULT_1
  6
CENTER
 62
     7
100
AcDbPolyline
 90
        2
 70
     0
 43
0.25
 10
480.274345535
 20
68.325881843
 10
480.2743865173
 20
58.3264935793
  0
LWPOLYLINE
  5
269
330
226
100
AcDbEntity
  8
DEFAULT_1
  6
CENTER
 62
     7
100
AcDbPolyline
 90
        2
 70
     0
 43
0.25
 10
486.27437536
 20
63.3264588463
 10
462.0210743866
 20
63.3261881859
  0
LWPOLYLINE
  5
26A
330
226
100
AcDbEntity
  8
0
  6
Continuous
 62
     7
100
AcDbPolyline
 90
        2
 70
     1
 43
0.25
 10
476.7272353592
 20
63.3076399569
 42
1.0
 10
483.8335644578
 20
63.3076399569
 42
1.0
  0
LWPOLYLINE
  5
26B
330
226
100
AcDbEntity
  8
0
  6
Continuous
 62
     7
100
AcDbPolyline
 90
        2
 70
     1
 43
0.25
 10
478.2769791876
 20
63.3255380015
 42
1.0
 10
482.2887309376
 20
63.3255380015
 42
1.0
  0
LWPOLYLINE
  5
26C
330
226
100
AcDbEntity
  8
0
  6
Continuous
 62
     7
100
AcDbPolyline
 90
        2
 70
     0
 43
0.25
 10
474.274373154
 20
66.9013912064
 10
474.2743727994
 20
59.8011882981
  0
LWPOLYLINE
  5
26D
330
226
100
AcDbEntity
  8
0
  6
Continuous
 62
     7
100
AcDbPolyline
 90
        2
 70
     0
 43
0.25
 10
474.2744012358
 20
59.8011598617
 10
464.2798439647
 20
61.3212532745
  0
LWPOLYLINE
  5
26E
330
226
100
AcDbEntity
  8
0
  6
Continuous
 62
     7
100
AcDbPolyline
 90
        2
 70
     0
 43
0.25
 10
464.2775339791
 20
61.320575733
 10
464.274867075
 20
65.3262143444
  0
LWPOLYLINE
  5
26F
330
226
100
AcDbEntity
  8
0
  6
Continuous
 62
     7
100
AcDbPolyline
 90
        2
 70
     0
 43
0.25
 10
464.2748587989
 20
65.3262060684
 10
474.2746020362
 20
66.9013632884
  0
ENDBLK
  5
270
330
226
100
AcDbEntity
  8
0
  6
ByBlock
 62
     0
100
AcDbBlockEnd
  0
ENDSEC
  0
SECTION
  2
ENTITIES
  0
LINE
  5
29B
330
1B
100
AcDbEntity
 67
     1
  8
0
  6
Continuous
 62
     7
100
AcDbLine
 10
0.0
 20
0.0
 30
0.0
 11
594.0
 21
0.0
 31
0.0
  0
LINE
  5
29C
330
1B
100
AcDbEntity
 67
     1
  8
0
  6
Continuous
 62
     7
100
AcDbLine
 10
594.0
 20
0.0
 30
0.0
 11
594.0
 21
420.0
 31
0.0
  0
LINE
  5
29D
330
1B
100
AcDbEntity
 67
     1
  8
0
  6
Continuous
 62
     7
100
AcDbLine
 10
0.0
 20
420.0
 30
0.0
 11
594.0
 21
420.0
 31
0.0
  0
LINE
  5
29E
330
1B
100
AcDbEntity
 67
     1
  8
0
  6
Continuous
 62
     7
100
AcDbLine
 10
0.0
 20
0.0
 30
0.0
 11
0.0
 21
420.0
 31
0.0
  0
VIEWPORT
  5
29F
330
1B
100
AcDbEntity
 67
     1
  8
0
100
AcDbViewport
 10
0.0
 20
0.0
 30
0.0
 40
700.1089494163423
 41
495.0770428015564
 68
     1
 69
     1
 12
330.9338521400778
 22
210.0
 13
0.0
 23
0.0
 14
1.0
 24
1.0
 15
0.0
 25
0.0
 16
0.0
 26
0.0
 36
1.0
 17
0.0
 27
0.0
 37
0.0
 42
50.0
 43
0.0
 44
0.0
 45
495.0770428015564
 50
0.0
 51
0.0
 72
   100
 90
   557216
  1

281
     0
 71
     1
 74
     0
110
0.0
120
0.0
130
0.0
111
1.0
121
0.0
131
0.0
112
0.0
122
1.0
132
0.0
 79
     0
146
0.0
170
     0
 61
     5
348
5FE
292
     1
282
     1
141
0.0
142
0.0
 63
   256
  0
ARC
  5
2A0
330
1B
100
AcDbEntity
 67
     1
  8
0
  6
Continuous
 62
     2
100
AcDbCircle
 10
301.1799778294
 20
292.9373574747
 30
0.0
 40
2.0
100
AcDbArc
 50
306.6490898474
 51
360.0
  0
ARC
  5
2A1
330
1B
100
AcDbEntity
 67
     1
  8
0
  6
Continuous
 62
     2
100
AcDbCircle
 10
301.1799778294
 20
292.9373574747
 30
0.0
 40
2.0
100
AcDbArc
 50
0.0
 51
53.3505754591
  0
LINE
  5
2A2
330
1B
100
AcDbEntity
 67
     1
  8
3_ALL_AXES
  6
Continuous
 62
     7
100
AcDbLine
 10
291.0299778294
 20
245.4373574747
 30
0.0
 11
291.0299778294
 21
244.7314873041
 31
0.0
  0
LINE
  5
2A3
330
1B
100
AcDbEntity
 67
     1
  8
3_ALL_AXES
  6
Continuous
 62
     7
100
AcDbLine
 10
296.8299778294
 20
245.4373574747
 30
0.0
 11
296.8299778294
 21
244.7314873041
 31
0.0
  0
ARC
  5
2A4
330
1B
100
AcDbEntity
 67
     1
  8
3_ALL_AXES
  6
Continuous
 62
     7
100
AcDbCircle
 10
293.9299778294
 20
252.1873574747
 30
0.0
 40
8.0
100
AcDbArc
 50
248.7461908146
 51
270.0
  0
ARC
  5
2A5
330
1B
100
AcDbEntity
 67
     1
  8
3_ALL_AXES
  6
Continuous
 62
     7
100
AcDbCircle
 10
293.9299778294
 20
252.1873574747
 30
0.0
 40
8.0
100
AcDbArc
 50
270.0
 51
291.2538091854
  0
LINE
  5
2A6
330
1B
100
AcDbEntity
 67
     1
  8
3_ALL_AXES
  6
Continuous
 62
     7
100
AcDbLine
 10
291.0299778294
 20
244.7314873041
 30
0.0
 11
291.0299778294
 21
245.4373574747
 31
0.0
  0
LINE
  5
2A7
330
1B
100
AcDbEntity
 67
     1
  8
3_ALL_AXES
  6
Continuous
 62
     7
100
AcDbLine
 10
296.8299778294
 20
244.7314873041
 30
0.0
 11
296.8299778294
 21
245.4373574747
 31
0.0
  0
LINE
  5
2A8
330
1B
100
AcDbEntity
 67
     1
  8
3_ALL_AXES
  6
Continuous
 62
     7
100
AcDbLine
 10
291.0299778294
 20
244.7314873041
 30
0.0
 11
296.8299778294
 21
244.7314873041
 31
0.0
  0
LINE
  5
2A9
330
1B
100
AcDbEntity
 67
     1
  8
3_ALL_AXES
  6
Continuous
 62
     7
100
AcDbLine
 10
56.0299778294
 20
245.4373574747
 30
0.0
 11
56.0299778294
 21
244.7314873041
 31
0.0
  0
LINE
  5
2AA
330
1B
100
AcDbEntity
 67
     1
  8
3_ALL_AXES
  6
Continuous
 62
     7
100
AcDbLine
 10
61.8299778294
 20
245.4373574747
 30
0.0
 11
61.8299778294
 21
244.7314873041
 31
0.0
  0
ARC
  5
2AB
330
1B
100
AcDbEntity
 67
     1
  8
3_ALL_AXES
  6
Continuous
 62
     7
100
AcDbCircle
 10
58.9299778294
 20
252.1873574747
 30
0.0
 40
8.0
100
AcDbArc
 50
248.7461908146
 51
270.0
  0
ARC
  5
2AC
330
1B
100
AcDbEntity
 67
     1
  8
3_ALL_AXES
  6
Continuous
 62
     7
100
AcDbCircle
 10
58.9299778294
 20
252.1873574747
 30
0.0
 40
8.0
100
AcDbArc
 50
270.0
 51
291.2538091854
  0
LINE
  5
2AD
330
1B
100
AcDbEntity
 67
     1
  8
3_ALL_AXES
  6
Continuous
 62
     7
100
AcDbLine
 10
56.0299778294
 20
244.7314873041
 30
0.0
 11
56.0299778294
 21
245.4373574747
 31
0.0
  0
LINE
  5
2AE
330
1B
100
AcDbEntity
 67
     1
  8
3_ALL_AXES
  6
Continuous
 62
     7
100
AcDbLine
 10
61.8299778294
 20
244.7314873041
 30
0.0
 11
61.8299778294
 21
245.4373574747
 31
0.0
  0
LINE
  5
2AF
330
1B
100
AcDbEntity
 67
     1
  8
3_ALL_AXES
  6
Continuous
 62
     7
100
AcDbLine
 10
56.0299778294
 20
244.7314873041
 30
0.0
 11
61.8299778294
 21
244.7314873041
 31
0.0
  0
ARC
  5
2B0
330
1B
100
AcDbEntity
 67
     1
  8
3_ALL_AXES
  6
Continuous
 62
     7
100
AcDbCircle
 10
67.9299778294
 20
284.4373574747
 30
0.0
 40
2.9
100
AcDbArc
 50
0.0
 51
180.0
  0
ARC
  5
2B1
330
1B
100
AcDbEntity
 67
     1
  8
3_ALL_AXES
  6
Continuous
 62
     7
100
AcDbCircle
 10
67.9299778294
 20
284.4373574747
 30
0.0
 40
2.9
100
AcDbArc
 50
180.0
 51
360.0
  0
ARC
  5
2B2
330
1B
100
AcDbEntity
 67
     1
  8
3_ALL_AXES
  6
Continuous
 62
     7
100
AcDbCircle
 10
202.9299778294
 20
284.4373574747
 30
0.0
 40
2.9
100
AcDbArc
 50
0.0
 51
180.0
  0
ARC
  5
2B3
330
1B
100
AcDbEntity
 67
     1
  8
3_ALL_AXES
  6
Continuous
 62
     7
100
AcDbCircle
 10
202.9299778294
 20
284.4373574747
 30
0.0
 40
2.9
100
AcDbArc
 50
180.0
 51
360.0
  0
ARC
  5
2B4
330
1B
100
AcDbEntity
 67
     1
  8
3_ALL_AXES
  6
Continuous
 62
     7
100
AcDbCircle
 10
284.9299778294
 20
284.4373574747
 30
0.0
 40
2.9
100
AcDbArc
 50
0.0
 51
180.0
  0
ARC
  5
2B5
330
1B
100
AcDbEntity
 67
     1
  8
3_ALL_AXES
  6
Continuous
 62
     7
100
AcDbCircle
 10
284.9299778294
 20
284.4373574747
 30
0.0
 40
2.9
100
AcDbArc
 50
180.0
 51
360.0
  0
ARC
  5
2B6
330
1B
100
AcDbEntity
 67
     1
  8
3_ALL_AXES
  6
Continuous
 62
     7
100
AcDbCircle
 10
149.9299778294
 20
284.4373574747
 30
0.0
 40
2.9
100
AcDbArc
 50
0.0
 51
180.0
  0
ARC
  5
2B7
330
1B
100
AcDbEntity
 67
     1
  8
3_ALL_AXES
  6
Continuous
 62
     7
100
AcDbCircle
 10
149.9299778294
 20
284.4373574747
 30
0.0
 40
2.9
100
AcDbArc
 50
180.0
 51
360.0
  0
LINE
  5
2B8
330
1B
100
AcDbEntity
 67
     1
  8
3_ALL_AXES
  6
Continuous
 62
     7
100
AcDbLine
 10
256.0299778294
 20
245.4373574747
 30
0.0
 11
256.0299778294
 21
244.7314873041
 31
0.0
  0
LINE
  5
2B9
330
1B
100
AcDbEntity
 67
     1
  8
3_ALL_AXES
  6
Continuous
 62
     7
100
AcDbLine
 10
261.8299778294
 20
245.4373574747
 30
0.0
 11
261.8299778294
 21
244.7314873041
 31
0.0
  0
ARC
  5
2BA
330
1B
100
AcDbEntity
 67
     1
  8
3_ALL_AXES
  6
Continuous
 62
     7
100
AcDbCircle
 10
258.9299778294
 20
252.1873574747
 30
0.0
 40
8.0
100
AcDbArc
 50
248.7461908146
 51
270.0
  0
ARC
  5
2BB
330
1B
100
AcDbEntity
 67
     1
  8
3_ALL_AXES
  6
Continuous
 62
     7
100
AcDbCircle
 10
258.9299778294
 20
252.1873574747
 30
0.0
 40
8.0
100
AcDbArc
 50
270.0
 51
291.2538091854
  0
LINE
  5
2BC
330
1B
100
AcDbEntity
 67
     1
  8
3_ALL_AXES
  6
Continuous
 62
     7
100
AcDbLine
 10
256.0299778294
 20
244.7314873041
 30
0.0
 11
256.0299778294
 21
245.4373574747
 31
0.0
  0
LINE
  5
2BD
330
1B
100
AcDbEntity
 67
     1
  8
3_ALL_AXES
  6
Continuous
 62
     7
100
AcDbLine
 10
261.8299778294
 20
244.7314873041
 30
0.0
 11
261.8299778294
 21
245.4373574747
 31
0.0
  0
LINE
  5
2BE
330
1B
100
AcDbEntity
 67
     1
  8
3_ALL_AXES
  6
Continuous
 62
     7
100
AcDbLine
 10
256.0299778294
 20
244.7314873041
 30
0.0
 11
261.8299778294
 21
244.7314873041
 31
0.0
  0
LINE
  5
2BF
330
1B
100
AcDbEntity
 67
     1
  8
3_ALL_AXES
  6
Continuous
 62
     7
100
AcDbLine
 10
91.0299778294
 20
245.4373574747
 30
0.0
 11
91.0299778294
 21
244.7314873041
 31
0.0
  0
LINE
  5
2C0
330
1B
100
AcDbEntity
 67
     1
  8
3_ALL_AXES
  6
Continuous
 62
     7
100
AcDbLine
 10
96.8299778294
 20
245.4373574747
 30
0.0
 11
96.8299778294
 21
244.7314873041
 31
0.0
  0
ARC
  5
2C1
330
1B
100
AcDbEntity
 67
     1
  8
3_ALL_AXES
  6
Continuous
 62
     7
100
AcDbCircle
 10
93.9299778294
 20
252.1873574747
 30
0.0
 40
8.0
100
AcDbArc
 50
248.7461908146
 51
270.0
  0
ARC
  5
2C2
330
1B
100
AcDbEntity
 67
     1
  8
3_ALL_AXES
  6
Continuous
 62
     7
100
AcDbCircle
 10
93.9299778294
 20
252.1873574747
 30
0.0
 40
8.0
100
AcDbArc
 50
270.0
 51
291.2538091854
  0
LINE
  5
2C3
330
1B
100
AcDbEntity
 67
     1
  8
3_ALL_AXES
  6
Continuous
 62
     7
100
AcDbLine
 10
91.0299778294
 20
244.7314873041
 30
0.0
 11
91.0299778294
 21
245.4373574747
 31
0.0
  0
LINE
  5
2C4
330
1B
100
AcDbEntity
 67
     1
  8
3_ALL_AXES
  6
Continuous
 62
     7
100
AcDbLine
 10
96.8299778294
 20
244.7314873041
 30
0.0
 11
96.8299778294
 21
245.4373574747
 31
0.0
  0
LINE
  5
2C5
330
1B
100
AcDbEntity
 67
     1
  8
3_ALL_AXES
  6
Continuous
 62
     7
100
AcDbLine
 10
91.0299778294
 20
244.7314873041
 30
0.0
 11
96.8299778294
 21
244.7314873041
 31
0.0
  0
LINE
  5
2C6
330
1B
100
AcDbEntity
 67
     1
  8
7_ALL_FEATURES
  6
Continuous
 62
     7
100
AcDbLine
 10
53.2082899929
 20
259.1873574747
 30
0.0
 11
52.4866021564
 21
257.9373574747
 31
0.0
  0
LINE
  5
2C7
330
1B
100
AcDbEntity
 67
     1
  8
7_ALL_FEATURES
  6
Continuous
 62
     7
100
AcDbLine
 10
52.4866021564
 20
257.9373574747
 30
0.0
 11
53.2082899929
 21
256.6873574747
 31
0.0
  0
LINE
  5
2C8
330
1B
100
AcDbEntity
 67
     1
  8
7_ALL_FEATURES
  6
Continuous
 62
     7
100
AcDbLine
 10
53.2082899929
 20
256.6873574747
 30
0.0
 11
54.6516656659
 21
256.6873574747
 31
0.0
  0
LINE
  5
2C9
330
1B
100
AcDbEntity
 67
     1
  8
7_ALL_FEATURES
  6
Continuous
 62
     7
100
AcDbLine
 10
54.6516656659
 20
256.6873574747
 30
0.0
 11
55.3733535024
 21
257.9373574747
 31
0.0
  0
LINE
  5
2CA
330
1B
100
AcDbEntity
 67
     1
  8
7_ALL_FEATURES
  6
Continuous
 62
     7
100
AcDbLine
 10
55.3733535024
 20
257.9373574747
 30
0.0
 11
54.6516656659
 21
259.1873574747
 31
0.0
  0
LINE
  5
2CB
330
1B
100
AcDbEntity
 67
     1
  8
7_ALL_FEATURES
  6
Continuous
 62
     7
100
AcDbLine
 10
54.6516656659
 20
259.1873574747
 30
0.0
 11
53.2082899929
 21
259.1873574747
 31
0.0
  0
ARC
  5
2CC
330
1B
100
AcDbEntity
 67
     1
  8
3_ALL_AXES
  6
Continuous
 62
     7
100
AcDbCircle
 10
53.9299778294
 20
257.9373574747
 30
0.0
 40
3.8
100
AcDbArc
 50
0.0
 51
180.0
  0
ARC
  5
2CD
330
1B
100
AcDbEntity
 67
     1
  8
3_ALL_AXES
  6
Continuous
 62
     7
100
AcDbCircle
 10
53.9299778294
 20
257.9373574747
 30
0.0
 40
3.8
100
AcDbArc
 50
180.0
 51
360.0
  0
ARC
  5
2CE
330
1B
100
AcDbEntity
 67
     1
  8
3_ALL_AXES
  6
Continuous
 62
     7
100
AcDbCircle
 10
53.9299778294
 20
257.9373574747
 30
0.0
 40
1.965
100
AcDbArc
 50
180.0
 51
360.0
  0
ARC
  5
2CF
330
1B
100
AcDbEntity
 67
     1
  8
3_ALL_AXES
  6
Continuous
 62
     7
100
AcDbCircle
 10
53.9299778294
 20
257.9373574747
 30
0.0
 40
1.965
100
AcDbArc
 50
0.0
 51
180.0
  0
LINE
  5
2D0
330
1B
100
AcDbEntity
 67
     1
  8
7_ALL_FEATURES
  6
Continuous
 62
     7
100
AcDbLine
 10
298.2082899929
 20
259.1873574747
 30
0.0
 11
297.4866021564
 21
257.9373574747
 31
0.0
  0
LINE
  5
2D1
330
1B
100
AcDbEntity
 67
     1
  8
7_ALL_FEATURES
  6
Continuous
 62
     7
100
AcDbLine
 10
297.4866021564
 20
257.9373574747
 30
0.0
 11
298.2082899929
 21
256.6873574747
 31
0.0
  0
LINE
  5
2D2
330
1B
100
AcDbEntity
 67
     1
  8
7_ALL_FEATURES
  6
Continuous
 62
     7
100
AcDbLine
 10
298.2082899929
 20
256.6873574747
 30
0.0
 11
299.6516656659
 21
256.6873574747
 31
0.0
  0
LINE
  5
2D3
330
1B
100
AcDbEntity
 67
     1
  8
7_ALL_FEATURES
  6
Continuous
 62
     7
100
AcDbLine
 10
299.6516656659
 20
256.6873574747
 30
0.0
 11
300.3733535024
 21
257.9373574747
 31
0.0
  0
LINE
  5
2D4
330
1B
100
AcDbEntity
 67
     1
  8
7_ALL_FEATURES
  6
Continuous
 62
     7
100
AcDbLine
 10
300.3733535024
 20
257.9373574747
 30
0.0
 11
299.6516656659
 21
259.1873574747
 31
0.0
  0
LINE
  5
2D5
330
1B
100
AcDbEntity
 67
     1
  8
7_ALL_FEATURES
  6
Continuous
 62
     7
100
AcDbLine
 10
299.6516656659
 20
259.1873574747
 30
0.0
 11
298.2082899929
 21
259.1873574747
 31
0.0
  0
ARC
  5
2D6
330
1B
100
AcDbEntity
 67
     1
  8
3_ALL_AXES
  6
Continuous
 62
     7
100
AcDbCircle
 10
298.9299778294
 20
257.9373574747
 30
0.0
 40
3.8
100
AcDbArc
 50
0.0
 51
180.0
  0
ARC
  5
2D7
330
1B
100
AcDbEntity
 67
     1
  8
3_ALL_AXES
  6
Continuous
 62
     7
100
AcDbCircle
 10
298.9299778294
 20
257.9373574747
 30
0.0
 40
3.8
100
AcDbArc
 50
180.0
 51
360.0
  0
ARC
  5
2D8
330
1B
100
AcDbEntity
 67
     1
  8
3_ALL_AXES
  6
Continuous
 62
     7
100
AcDbCircle
 10
298.9299778294
 20
257.9373574747
 30
0.0
 40
1.965
100
AcDbArc
 50
180.0
 51
360.0
  0
ARC
  5
2D9
330
1B
100
AcDbEntity
 67
     1
  8
3_ALL_AXES
  6
Continuous
 62
     7
100
AcDbCircle
 10
298.9299778294
 20
257.9373574747
 30
0.0
 40
1.965
100
AcDbArc
 50
0.0
 51
180.0
  0
LINE
  5
2DA
330
1B
100
AcDbEntity
 67
     1
  8
7_ALL_FEATURES
  6
Continuous
 62
     7
100
AcDbLine
 10
53.2082899929
 20
294.1873574747
 30
0.0
 11
52.4866021564
 21
292.9373574747
 31
0.0
  0
LINE
  5
2DB
330
1B
100
AcDbEntity
 67
     1
  8
7_ALL_FEATURES
  6
Continuous
 62
     7
100
AcDbLine
 10
52.4866021564
 20
292.9373574747
 30
0.0
 11
53.2082899929
 21
291.6873574747
 31
0.0
  0
LINE
  5
2DC
330
1B
100
AcDbEntity
 67
     1
  8
7_ALL_FEATURES
  6
Continuous
 62
     7
100
AcDbLine
 10
53.2082899929
 20
291.6873574747
 30
0.0
 11
54.6516656659
 21
291.6873574747
 31
0.0
  0
LINE
  5
2DD
330
1B
100
AcDbEntity
 67
     1
  8
7_ALL_FEATURES
  6
Continuous
 62
     7
100
AcDbLine
 10
54.6516656659
 20
291.6873574747
 30
0.0
 11
55.3733535024
 21
292.9373574747
 31
0.0
  0
LINE
  5
2DE
330
1B
100
AcDbEntity
 67
     1
  8
7_ALL_FEATURES
  6
Continuous
 62
     7
100
AcDbLine
 10
55.3733535024
 20
292.9373574747
 30
0.0
 11
54.6516656659
 21
294.1873574747
 31
0.0
  0
LINE
  5
2DF
330
1B
100
AcDbEntity
 67
     1
  8
7_ALL_FEATURES
  6
Continuous
 62
     7
100
AcDbLine
 10
54.6516656659
 20
294.1873574747
 30
0.0
 11
53.2082899929
 21
294.1873574747
 31
0.0
  0
ARC
  5
2E0
330
1B
100
AcDbEntity
 67
     1
  8
3_ALL_AXES
  6
Continuous
 62
     7
100
AcDbCircle
 10
53.9299778294
 20
292.9373574747
 30
0.0
 40
3.8
100
AcDbArc
 50
0.0
 51
180.0
  0
ARC
  5
2E1
330
1B
100
AcDbEntity
 67
     1
  8
3_ALL_AXES
  6
Continuous
 62
     7
100
AcDbCircle
 10
53.9299778294
 20
292.9373574747
 30
0.0
 40
3.8
100
AcDbArc
 50
180.0
 51
360.0
  0
ARC
  5
2E2
330
1B
100
AcDbEntity
 67
     1
  8
3_ALL_AXES
  6
Continuous
 62
     7
100
AcDbCircle
 10
53.9299778294
 20
292.9373574747
 30
0.0
 40
1.965
100
AcDbArc
 50
180.0
 51
360.0
  0
ARC
  5
2E3
330
1B
100
AcDbEntity
 67
     1
  8
3_ALL_AXES
  6
Continuous
 62
     7
100
AcDbCircle
 10
53.9299778294
 20
292.9373574747
 30
0.0
 40
1.965
100
AcDbArc
 50
0.0
 51
180.0
  0
LINE
  5
2E4
330
1B
100
AcDbEntity
 67
     1
  8
7_ALL_FEATURES
  6
Continuous
 62
     7
100
AcDbLine
 10
298.2082899929
 20
294.1873574747
 30
0.0
 11
297.4866021564
 21
292.9373574747
 31
0.0
  0
LINE
  5
2E5
330
1B
100
AcDbEntity
 67
     1
  8
7_ALL_FEATURES
  6
Continuous
 62
     7
100
AcDbLine
 10
297.4866021564
 20
292.9373574747
 30
0.0
 11
298.2082899929
 21
291.6873574747
 31
0.0
  0
LINE
  5
2E6
330
1B
100
AcDbEntity
 67
     1
  8
7_ALL_FEATURES
  6
Continuous
 62
     7
100
AcDbLine
 10
298.2082899929
 20
291.6873574747
 30
0.0
 11
299.6516656659
 21
291.6873574747
 31
0.0
  0
LINE
  5
2E7
330
1B
100
AcDbEntity
 67
     1
  8
7_ALL_FEATURES
  6
Continuous
 62
     7
100
AcDbLine
 10
299.6516656659
 20
291.6873574747
 30
0.0
 11
300.3733535024
 21
292.9373574747
 31
0.0
  0
LINE
  5
2E8
330
1B
100
AcDbEntity
 67
     1
  8
7_ALL_FEATURES
  6
Continuous
 62
     7
100
AcDbLine
 10
300.3733535024
 20
292.9373574747
 30
0.0
 11
299.6516656659
 21
294.1873574747
 31
0.0
  0
LINE
  5
2E9
330
1B
100
AcDbEntity
 67
     1
  8
7_ALL_FEATURES
  6
Continuous
 62
     7
100
AcDbLine
 10
299.6516656659
 20
294.1873574747
 30
0.0
 11
298.2082899929
 21
294.1873574747
 31
0.0
  0
ARC
  5
2EA
330
1B
100
AcDbEntity
 67
     1
  8
3_ALL_AXES
  6
Continuous
 62
     7
100
AcDbCircle
 10
298.9299778294
 20
292.9373574747
 30
0.0
 40
3.8
100
AcDbArc
 50
0.0
 51
180.0
  0
ARC
  5
2EB
330
1B
100
AcDbEntity
 67
     1
  8
3_ALL_AXES
  6
Continuous
 62
     7
100
AcDbCircle
 10
298.9299778294
 20
292.9373574747
 30
0.0
 40
3.8
100
AcDbArc
 50
180.0
 51
360.0
  0
ARC
  5
2EC
330
1B
100
AcDbEntity
 67
     1
  8
3_ALL_AXES
  6
Continuous
 62
     7
100
AcDbCircle
 10
298.9299778294
 20
292.9373574747
 30
0.0
 40
1.965
100
AcDbArc
 50
180.0
 51
360.0
  0
ARC
  5
2ED
330
1B
100
AcDbEntity
 67
     1
  8
3_ALL_AXES
  6
Continuous
 62
     7
100
AcDbCircle
 10
298.9299778294
 20
292.9373574747
 30
0.0
 40
1.965
100
AcDbArc
 50
0.0
 51
180.0
  0
LINE
  5
2EE
330
1B
100
AcDbEntity
 67
     1
  8
7_ALL_FEATURES
  6
Continuous
 62
     7
100
AcDbLine
 10
51.4299778294
 20
245.4373574747
 30
0.0
 11
51.4299778294
 21
246.6373574747
 31
0.0
  0
LINE
  5
2EF
330
1B
100
AcDbEntity
 67
     1
  8
7_ALL_FEATURES
  6
Continuous
 62
     7
100
AcDbLine
 10
101.4299778294
 20
245.4373574747
 30
0.0
 11
101.4299778294
 21
246.6373574747
 31
0.0
  0
LINE
  5
2F0
330
1B
100
AcDbEntity
 67
     1
  8
7_ALL_FEATURES
  6
Continuous
 62
     7
100
AcDbLine
 10
101.4299778294
 20
245.4373574747
 30
0.0
 11
96.1799778294
 21
245.4373574747
 31
0.0
  0
LINE
  5
2F1
330
1B
100
AcDbEntity
 67
     1
  8
7_ALL_FEATURES
  6
Continuous
 62
     7
100
AcDbLine
 10
96.1799778294
 20
245.4373574747
 30
0.0
 11
91.4299778294
 21
245.4373574747
 31
0.0
  0
LINE
  5
2F2
330
1B
100
AcDbEntity
 67
     1
  8
7_ALL_FEATURES
  6
Continuous
 62
     7
100
AcDbLine
 10
61.4299778294
 20
245.4373574747
 30
0.0
 11
56.6799778294
 21
245.4373574747
 31
0.0
  0
LINE
  5
2F3
330
1B
100
AcDbEntity
 67
     1
  8
7_ALL_FEATURES
  6
Continuous
 62
     7
100
AcDbLine
 10
56.6799778294
 20
245.4373574747
 30
0.0
 11
51.4299778294
 21
245.4373574747
 31
0.0
  0
LINE
  5
2F4
330
1B
100
AcDbEntity
 67
     1
  8
7_ALL_FEATURES
  6
Continuous
 62
     7
100
AcDbLine
 10
61.4299778294
 20
245.4373574747
 30
0.0
 11
91.4299778294
 21
245.4373574747
 31
0.0
  0
LINE
  5
2F5
330
1B
100
AcDbEntity
 67
     1
  8
7_ALL_FEATURES
  6
Continuous
 62
     7
100
AcDbLine
 10
51.4299778294
 20
245.4373574747
 30
0.0
 11
51.4299778294
 21
246.6373574747
 31
0.0
  0
LINE
  5
2F6
330
1B
100
AcDbEntity
 67
     1
  8
7_ALL_FEATURES
  6
Continuous
 62
     9
100
AcDbLine
 10
61.4299778294
 20
245.4373574747
 30
0.0
 11
61.4299778294
 21
246.6373574747
 31
0.0
  0
LINE
  5
2F7
330
1B
100
AcDbEntity
 67
     1
  8
7_ALL_FEATURES
  6
Continuous
 62
     9
100
AcDbLine
 10
91.4299778294
 20
245.4373574747
 30
0.0
 11
91.4299778294
 21
246.6373574747
 31
0.0
  0
LINE
  5
2F8
330
1B
100
AcDbEntity
 67
     1
  8
7_ALL_FEATURES
  6
Continuous
 62
     7
100
AcDbLine
 10
251.4299778294
 20
245.4373574747
 30
0.0
 11
251.4299778294
 21
246.6373574747
 31
0.0
  0
LINE
  5
2F9
330
1B
100
AcDbEntity
 67
     1
  8
7_ALL_FEATURES
  6
Continuous
 62
     7
100
AcDbLine
 10
301.4299778294
 20
245.4373574747
 30
0.0
 11
301.4299778294
 21
246.6373574747
 31
0.0
  0
LINE
  5
2FA
330
1B
100
AcDbEntity
 67
     1
  8
7_ALL_FEATURES
  6
Continuous
 62
     7
100
AcDbLine
 10
301.4299778294
 20
245.4373574747
 30
0.0
 11
296.1799778294
 21
245.4373574747
 31
0.0
  0
LINE
  5
2FB
330
1B
100
AcDbEntity
 67
     1
  8
7_ALL_FEATURES
  6
Continuous
 62
     7
100
AcDbLine
 10
296.1799778294
 20
245.4373574747
 30
0.0
 11
291.4299778294
 21
245.4373574747
 31
0.0
  0
LINE
  5
2FC
330
1B
100
AcDbEntity
 67
     1
  8
7_ALL_FEATURES
  6
Continuous
 62
     7
100
AcDbLine
 10
261.4299778294
 20
245.4373574747
 30
0.0
 11
256.6799778294
 21
245.4373574747
 31
0.0
  0
LINE
  5
2FD
330
1B
100
AcDbEntity
 67
     1
  8
7_ALL_FEATURES
  6
Continuous
 62
     7
100
AcDbLine
 10
256.6799778294
 20
245.4373574747
 30
0.0
 11
251.4299778294
 21
245.4373574747
 31
0.0
  0
LINE
  5
2FE
330
1B
100
AcDbEntity
 67
     1
  8
7_ALL_FEATURES
  6
Continuous
 62
     7
100
AcDbLine
 10
261.4299778294
 20
245.4373574747
 30
0.0
 11
291.4299778294
 21
245.4373574747
 31
0.0
  0
LINE
  5
2FF
330
1B
100
AcDbEntity
 67
     1
  8
7_ALL_FEATURES
  6
Continuous
 62
     7
100
AcDbLine
 10
251.4299778294
 20
245.4373574747
 30
0.0
 11
251.4299778294
 21
246.6373574747
 31
0.0
  0
LINE
  5
300
330
1B
100
AcDbEntity
 67
     1
  8
7_ALL_FEATURES
  6
Continuous
 62
     9
100
AcDbLine
 10
261.4299778294
 20
245.4373574747
 30
0.0
 11
261.4299778294
 21
246.6373574747
 31
0.0
  0
LINE
  5
301
330
1B
100
AcDbEntity
 67
     1
  8
7_ALL_FEATURES
  6
Continuous
 62
     9
100
AcDbLine
 10
291.4299778294
 20
245.4373574747
 30
0.0
 11
291.4299778294
 21
246.6373574747
 31
0.0
  0
LINE
  5
302
330
1B
100
AcDbEntity
 67
     1
  8
7_ALL_FEATURES
  6
Continuous
 62
     7
100
AcDbLine
 10
45.1799778294
 20
334.4373574747
 30
0.0
 11
46.1799778294
 21
334.4373574747
 31
0.0
  0
LINE
  5
303
330
1B
100
AcDbEntity
 67
     1
  8
7_ALL_FEATURES
  6
Continuous
 62
     7
100
AcDbLine
 10
45.1799778294
 20
245.4373574747
 30
0.0
 11
46.1799778294
 21
245.4373574747
 31
0.0
  0
LINE
  5
304
330
1B
100
AcDbEntity
 67
     1
  8
7_ALL_FEATURES
  6
Continuous
 62
     7
100
AcDbLine
 10
45.1799778294
 20
245.4373574747
 30
0.0
 11
45.1799778294
 21
245.9373574747
 31
0.0
  0
LINE
  5
305
330
1B
100
AcDbEntity
 67
     1
  8
7_ALL_FEATURES
  6
Continuous
 62
     7
100
AcDbLine
 10
45.1799778294
 20
252.7373574747
 30
0.0
 11
45.1799778294
 21
245.9373574747
 31
0.0
  0
LINE
  5
306
330
1B
100
AcDbEntity
 67
     1
  8
7_ALL_FEATURES
  6
Continuous
 62
     7
100
AcDbLine
 10
45.1799778294
 20
253.9373574747
 30
0.0
 11
45.1799778294
 21
252.7373574747
 31
0.0
  0
LINE
  5
307
330
1B
100
AcDbEntity
 67
     1
  8
7_ALL_FEATURES
  6
Continuous
 62
     7
100
AcDbLine
 10
45.1799778294
 20
261.9373574747
 30
0.0
 11
45.1799778294
 21
263.1373574747
 31
0.0
  0
LINE
  5
308
330
1B
100
AcDbEntity
 67
     1
  8
7_ALL_FEATURES
  6
Continuous
 62
     7
100
AcDbLine
 10
45.1799778294
 20
287.7373574747
 30
0.0
 11
45.1799778294
 21
263.1373574747
 31
0.0
  0
LINE
  5
309
330
1B
100
AcDbEntity
 67
     1
  8
7_ALL_FEATURES
  6
Continuous
 62
     7
100
AcDbLine
 10
45.1799778294
 20
288.9373574747
 30
0.0
 11
45.1799778294
 21
287.7373574747
 31
0.0
  0
LINE
  5
30A
330
1B
100
AcDbEntity
 67
     1
  8
7_ALL_FEATURES
  6
Continuous
 62
     7
100
AcDbLine
 10
45.1799778294
 20
296.9373574747
 30
0.0
 11
45.1799778294
 21
298.1373574747
 31
0.0
  0
LINE
  5
30B
330
1B
100
AcDbEntity
 67
     1
  8
7_ALL_FEATURES
  6
Continuous
 62
     7
100
AcDbLine
 10
45.1799778294
 20
333.9373574747
 30
0.0
 11
45.1799778294
 21
298.1373574747
 31
0.0
  0
LINE
  5
30C
330
1B
100
AcDbEntity
 67
     1
  8
7_ALL_FEATURES
  6
Continuous
 62
     7
100
AcDbLine
 10
45.1799778294
 20
333.9373574747
 30
0.0
 11
45.1799778294
 21
334.4373574747
 31
0.0
  0
LINE
  5
30D
330
1B
100
AcDbEntity
 67
     1
  8
7_ALL_FEATURES
  6
Continuous
 62
     7
100
AcDbLine
 10
45.1799778294
 20
334.4373574747
 30
0.0
 11
46.1799778294
 21
334.4373574747
 31
0.0
  0
LINE
  5
30E
330
1B
100
AcDbEntity
 67
     1
  8
7_ALL_FEATURES
  6
Continuous
 62
     7
100
AcDbLine
 10
45.1799778294
 20
298.1373574747
 30
0.0
 11
46.1799778294
 21
298.1373574747
 31
0.0
  0
LINE
  5
30F
330
1B
100
AcDbEntity
 67
     1
  8
7_ALL_FEATURES
  6
Continuous
 62
     7
100
AcDbLine
 10
45.1799778294
 20
252.7373574747
 30
0.0
 11
46.1799778294
 21
252.7373574747
 31
0.0
  0
LINE
  5
310
330
1B
100
AcDbEntity
 67
     1
  8
7_ALL_FEATURES
  6
Continuous
 62
     7
100
AcDbLine
 10
45.1799778294
 20
263.1373574747
 30
0.0
 11
46.1799778294
 21
263.1373574747
 31
0.0
  0
LINE
  5
311
330
1B
100
AcDbEntity
 67
     1
  8
7_ALL_FEATURES
  6
Continuous
 62
     7
100
AcDbLine
 10
45.1799778294
 20
287.7373574747
 30
0.0
 11
46.1799778294
 21
287.7373574747
 31
0.0
  0
LINE
  5
312
330
1B
100
AcDbEntity
 67
     1
  8
7_ALL_FEATURES
  6
Continuous
 62
     7
100
AcDbLine
 10
45.1799778294
 20
296.9373574747
 30
0.0
 11
45.1799778294
 21
288.9373574747
 31
0.0
  0
LINE
  5
313
330
1B
100
AcDbEntity
 67
     1
  8
7_ALL_FEATURES
  6
Continuous
 62
     7
100
AcDbLine
 10
45.2388231185
 20
288.9373574747
 30
0.0
 11
45.1799778294
 21
288.9373574747
 31
0.0
  0
LINE
  5
314
330
1B
100
AcDbEntity
 67
     1
  8
7_ALL_FEATURES
  6
Continuous
 62
     7
100
AcDbLine
 10
47.1799778294
 20
288.9373574747
 30
0.0
 11
45.2388231185
 21
288.9373574747
 31
0.0
  0
LINE
  5
315
330
1B
100
AcDbEntity
 67
     1
  8
7_ALL_FEATURES
  6
Continuous
 62
     7
100
AcDbLine
 10
47.1799778294
 20
296.9373574747
 30
0.0
 11
45.2388231185
 21
296.9373574747
 31
0.0
  0
LINE
  5
316
330
1B
100
AcDbEntity
 67
     1
  8
7_ALL_FEATURES
  6
Continuous
 62
     7
100
AcDbLine
 10
45.2388231185
 20
296.9373574747
 30
0.0
 11
45.1799778294
 21
296.9373574747
 31
0.0
  0
LINE
  5
317
330
1B
100
AcDbEntity
 67
     1
  8
7_ALL_FEATURES
  6
Continuous
 62
     7
100
AcDbLine
 10
56.6799778294
 20
296.9373574747
 30
0.0
 11
47.1799778294
 21
296.9373574747
 31
0.0
  0
LINE
  5
318
330
1B
100
AcDbEntity
 67
     1
  8
7_ALL_FEATURES
  6
Continuous
 62
     7
100
AcDbLine
 10
47.1799778294
 20
288.9373574747
 30
0.0
 11
56.6799778294
 21
288.9373574747
 31
0.0
  0
ARC
  5
319
330
1B
100
AcDbEntity
 67
     1
  8
7_ALL_FEATURES
  6
Continuous
 62
     7
100
AcDbCircle
 10
56.6799778294
 20
289.9373574747
 30
0.0
 40
1.0
100
AcDbArc
 50
270.0
 51
360.0
  0
LINE
  5
31A
330
1B
100
AcDbEntity
 67
     1
  8
7_ALL_FEATURES
  6
Continuous
 62
     7
100
AcDbLine
 10
57.6799778294
 20
289.9373574747
 30
0.0
 11
57.6799778294
 21
292.3290413437
 31
0.0
  0
LINE
  5
31B
330
1B
100
AcDbEntity
 67
     1
  8
7_ALL_FEATURES
  6
Continuous
 62
     7
100
AcDbLine
 10
57.6799778294
 20
293.5456736056
 30
0.0
 11
57.6799778294
 21
295.9373574747
 31
0.0
  0
ARC
  5
31C
330
1B
100
AcDbEntity
 67
     1
  8
7_ALL_FEATURES
  6
Continuous
 62
     7
100
AcDbCircle
 10
56.6799778294
 20
295.9373574747
 30
0.0
 40
1.0
100
AcDbArc
 50
0.0
 51
90.0
  0
LINE
  5
31D
330
1B
100
AcDbEntity
 67
     1
  8
02___PRT_ALL_AXES
  6
Continuous
 62
     7
100
AcDbLine
 10
50.868072294
 20
290.6873574747
 30
0.0
 11
50.4299778294
 21
290.6873574747
 31
0.0
  0
ARC
  5
31E
330
1B
100
AcDbEntity
 67
     1
  8
02___PRT_ALL_AXES
  6
Continuous
 62
     7
100
AcDbCircle
 10
50.4299778294
 20
292.9373574747
 30
0.0
 40
2.25
100
AcDbArc
 50
90.0
 51
270.0
  0
LINE
  5
31F
330
1B
100
AcDbEntity
 67
     1
  8
02___PRT_ALL_AXES
  6
Continuous
 62
     7
100
AcDbLine
 10
50.4299778294
 20
295.1873574747
 30
0.0
 11
50.868072294
 21
295.1873574747
 31
0.0
  0
LINE
  5
320
330
1B
100
AcDbEntity
 67
     1
  8
7_ALL_FEATURES
  6
Continuous
 62
     7
100
AcDbLine
 10
45.1799778294
 20
261.9373574747
 30
0.0
 11
45.1799778294
 21
253.9373574747
 31
0.0
  0
LINE
  5
321
330
1B
100
AcDbEntity
 67
     1
  8
7_ALL_FEATURES
  6
Continuous
 62
     7
100
AcDbLine
 10
45.2388231185
 20
253.9373574747
 30
0.0
 11
45.1799778294
 21
253.9373574747
 31
0.0
  0
LINE
  5
322
330
1B
100
AcDbEntity
 67
     1
  8
7_ALL_FEATURES
  6
Continuous
 62
     7
100
AcDbLine
 10
47.1799778294
 20
253.9373574747
 30
0.0
 11
45.2388231185
 21
253.9373574747
 31
0.0
  0
LINE
  5
323
330
1B
100
AcDbEntity
 67
     1
  8
7_ALL_FEATURES
  6
Continuous
 62
     7
100
AcDbLine
 10
47.1799778294
 20
261.9373574747
 30
0.0
 11
45.2388231185
 21
261.9373574747
 31
0.0
  0
LINE
  5
324
330
1B
100
AcDbEntity
 67
     1
  8
7_ALL_FEATURES
  6
Continuous
 62
     7
100
AcDbLine
 10
45.2388231185
 20
261.9373574747
 30
0.0
 11
45.1799778294
 21
261.9373574747
 31
0.0
  0
LINE
  5
325
330
1B
100
AcDbEntity
 67
     1
  8
7_ALL_FEATURES
  6
Continuous
 62
     7
100
AcDbLine
 10
56.6799778294
 20
261.9373574747
 30
0.0
 11
47.1799778294
 21
261.9373574747
 31
0.0
  0
LINE
  5
326
330
1B
100
AcDbEntity
 67
     1
  8
7_ALL_FEATURES
  6
Continuous
 62
     7
100
AcDbLine
 10
47.1799778294
 20
253.9373574747
 30
0.0
 11
56.6799778294
 21
253.9373574747
 31
0.0
  0
ARC
  5
327
330
1B
100
AcDbEntity
 67
     1
  8
7_ALL_FEATURES
  6
Continuous
 62
     7
100
AcDbCircle
 10
56.6799778294
 20
254.9373574747
 30
0.0
 40
1.0
100
AcDbArc
 50
270.0
 51
360.0
  0
LINE
  5
328
330
1B
100
AcDbEntity
 67
     1
  8
7_ALL_FEATURES
  6
Continuous
 62
     7
100
AcDbLine
 10
57.6799778294
 20
254.9373574747
 30
0.0
 11
57.6799778294
 21
257.3290413437
 31
0.0
  0
LINE
  5
329
330
1B
100
AcDbEntity
 67
     1
  8
7_ALL_FEATURES
  6
Continuous
 62
     7
100
AcDbLine
 10
57.6799778294
 20
258.5456736056
 30
0.0
 11
57.6799778294
 21
260.9373574747
 31
0.0
  0
ARC
  5
32A
330
1B
100
AcDbEntity
 67
     1
  8
7_ALL_FEATURES
  6
Continuous
 62
     7
100
AcDbCircle
 10
56.6799778294
 20
260.9373574747
 30
0.0
 40
1.0
100
AcDbArc
 50
0.0
 51
90.0
  0
LINE
  5
32B
330
1B
100
AcDbEntity
 67
     1
  8
02___PRT_ALL_AXES
  6
Continuous
 62
     7
100
AcDbLine
 10
50.4299778294
 20
260.1873574747
 30
0.0
 11
50.868072294
 21
260.1873574747
 31
0.0
  0
LINE
  5
32C
330
1B
100
AcDbEntity
 67
     1
  8
02___PRT_ALL_AXES
  6
Continuous
 62
     7
100
AcDbLine
 10
50.868072294
 20
255.6873574747
 30
0.0
 11
50.4299778294
 21
255.6873574747
 31
0.0
  0
ARC
  5
32D
330
1B
100
AcDbEntity
 67
     1
  8
02___PRT_ALL_AXES
  6
Continuous
 62
     7
100
AcDbCircle
 10
50.4299778294
 20
257.9373574747
 30
0.0
 40
2.25
100
AcDbArc
 50
90.0
 51
270.0
  0
LINE
  5
32E
330
1B
100
AcDbEntity
 67
     1
  8
7_ALL_FEATURES
  6
Continuous
 62
     9
100
AcDbLine
 10
47.1799778294
 20
261.9373574747
 30
0.0
 11
47.1799778294
 21
253.9373574747
 31
0.0
  0
LINE
  5
32F
330
1B
100
AcDbEntity
 67
     1
  8
7_ALL_FEATURES
  6
Continuous
 62
     9
100
AcDbLine
 10
45.1799778294
 20
333.9373574747
 30
0.0
 11
46.1799778294
 21
333.9373574747
 31
0.0
  0
LINE
  5
330
330
1B
100
AcDbEntity
 67
     1
  8
7_ALL_FEATURES
  6
Continuous
 62
     9
100
AcDbLine
 10
45.1799778294
 20
245.9373574747
 30
0.0
 11
46.1799778294
 21
245.9373574747
 31
0.0
  0
LINE
  5
331
330
1B
100
AcDbEntity
 67
     1
  8
7_ALL_FEATURES
  6
Continuous
 62
     9
100
AcDbLine
 10
47.1799778294
 20
296.9373574747
 30
0.0
 11
47.1799778294
 21
288.9373574747
 31
0.0
  0
LINE
  5
332
330
1B
100
AcDbEntity
 67
     1
  8
7_ALL_FEATURES
  6
Continuous
 62
     7
100
AcDbLine
 10
307.6799778294
 20
245.4373574747
 30
0.0
 11
306.6799778294
 21
245.4373574747
 31
0.0
  0
LINE
  5
333
330
1B
100
AcDbEntity
 67
     1
  8
7_ALL_FEATURES
  6
Continuous
 62
     7
100
AcDbLine
 10
307.6799778294
 20
245.4373574747
 30
0.0
 11
306.6799778294
 21
245.4373574747
 31
0.0
  0
LINE
  5
334
330
1B
100
AcDbEntity
 67
     1
  8
7_ALL_FEATURES
  6
Continuous
 62
     7
100
AcDbLine
 10
307.6799778294
 20
334.4373574747
 30
0.0
 11
307.6799778294
 21
333.9373574747
 31
0.0
  0
LINE
  5
335
330
1B
100
AcDbEntity
 67
     1
  8
7_ALL_FEATURES
  6
Continuous
 62
     7
100
AcDbLine
 10
307.6799778294
 20
297.9373574747
 30
0.0
 11
307.6799778294
 21
333.9373574747
 31
0.0
  0
LINE
  5
336
330
1B
100
AcDbEntity
 67
     1
  8
7_ALL_FEATURES
  6
Continuous
 62
     7
100
AcDbLine
 10
307.6799778294
 20
296.9373574747
 30
0.0
 11
307.6799778294
 21
297.9373574747
 31
0.0
  0
LINE
  5
337
330
1B
100
AcDbEntity
 67
     1
  8
7_ALL_FEATURES
  6
Continuous
 62
     7
100
AcDbLine
 10
307.6799778294
 20
288.9373574747
 30
0.0
 11
307.6799778294
 21
287.9373574747
 31
0.0
  0
LINE
  5
338
330
1B
100
AcDbEntity
 67
     1
  8
7_ALL_FEATURES
  6
Continuous
 62
     7
100
AcDbLine
 10
307.6799778294
 20
263.1373574747
 30
0.0
 11
307.6799778294
 21
287.9373574747
 31
0.0
  0
LINE
  5
339
330
1B
100
AcDbEntity
 67
     1
  8
7_ALL_FEATURES
  6
Continuous
 62
     7
100
AcDbLine
 10
307.6799778294
 20
261.9373574747
 30
0.0
 11
307.6799778294
 21
263.1373574747
 31
0.0
  0
LINE
  5
33A
330
1B
100
AcDbEntity
 67
     1
  8
7_ALL_FEATURES
  6
Continuous
 62
     7
100
AcDbLine
 10
307.6799778294
 20
253.9373574747
 30
0.0
 11
307.6799778294
 21
252.7373574747
 31
0.0
  0
LINE
  5
33B
330
1B
100
AcDbEntity
 67
     1
  8
7_ALL_FEATURES
  6
Continuous
 62
     7
100
AcDbLine
 10
307.6799778294
 20
245.9373574747
 30
0.0
 11
307.6799778294
 21
252.7373574747
 31
0.0
  0
LINE
  5
33C
330
1B
100
AcDbEntity
 67
     1
  8
7_ALL_FEATURES
  6
Continuous
 62
     7
100
AcDbLine
 10
307.6799778294
 20
245.9373574747
 30
0.0
 11
307.6799778294
 21
245.4373574747
 31
0.0
  0
LINE
  5
33D
330
1B
100
AcDbEntity
 67
     1
  8
7_ALL_FEATURES
  6
Continuous
 62
     7
100
AcDbLine
 10
307.6799778294
 20
297.9373574747
 30
0.0
 11
306.6799778294
 21
297.9373574747
 31
0.0
  0
LINE
  5
33E
330
1B
100
AcDbEntity
 67
     1
  8
7_ALL_FEATURES
  6
Continuous
 62
     7
100
AcDbLine
 10
307.6799778294
 20
252.7373574747
 30
0.0
 11
306.6799778294
 21
252.7373574747
 31
0.0
  0
LINE
  5
33F
330
1B
100
AcDbEntity
 67
     1
  8
7_ALL_FEATURES
  6
Continuous
 62
     7
100
AcDbLine
 10
307.6799778294
 20
263.1373574747
 30
0.0
 11
306.6799778294
 21
263.1373574747
 31
0.0
  0
LINE
  5
340
330
1B
100
AcDbEntity
 67
     1
  8
7_ALL_FEATURES
  6
Continuous
 62
     7
100
AcDbLine
 10
307.6799778294
 20
287.9373574747
 30
0.0
 11
306.6799778294
 21
287.9373574747
 31
0.0
  0
LINE
  5
341
330
1B
100
AcDbEntity
 67
     1
  8
7_ALL_FEATURES
  6
Continuous
 62
     7
100
AcDbLine
 10
307.6799778294
 20
334.4373574747
 30
0.0
 11
306.6799778294
 21
334.4373574747
 31
0.0
  0
LINE
  5
342
330
1B
100
AcDbEntity
 67
     1
  8
7_ALL_FEATURES
  6
Continuous
 62
     7
100
AcDbLine
 10
307.6799778294
 20
288.9373574747
 30
0.0
 11
307.6799778294
 21
296.9373574747
 31
0.0
  0
LINE
  5
343
330
1B
100
AcDbEntity
 67
     1
  8
7_ALL_FEATURES
  6
Continuous
 62
     7
100
AcDbLine
 10
307.6211325403
 20
296.9373574747
 30
0.0
 11
307.6799778294
 21
296.9373574747
 31
0.0
  0
LINE
  5
344
330
1B
100
AcDbEntity
 67
     1
  8
7_ALL_FEATURES
  6
Continuous
 62
     7
100
AcDbLine
 10
305.6799778294
 20
296.9373574747
 30
0.0
 11
307.6211325403
 21
296.9373574747
 31
0.0
  0
LINE
  5
345
330
1B
100
AcDbEntity
 67
     1
  8
7_ALL_FEATURES
  6
Continuous
 62
     7
100
AcDbLine
 10
305.6799778294
 20
288.9373574747
 30
0.0
 11
307.6211325403
 21
288.9373574747
 31
0.0
  0
LINE
  5
346
330
1B
100
AcDbEntity
 67
     1
  8
7_ALL_FEATURES
  6
Continuous
 62
     7
100
AcDbLine
 10
307.6211325403
 20
288.9373574747
 30
0.0
 11
307.6799778294
 21
288.9373574747
 31
0.0
  0
LINE
  5
347
330
1B
100
AcDbEntity
 67
     1
  8
7_ALL_FEATURES
  6
Continuous
 62
     7
100
AcDbLine
 10
295.1799778294
 20
295.9373574747
 30
0.0
 11
295.1799778294
 21
293.5456736056
 31
0.0
  0
LINE
  5
348
330
1B
100
AcDbEntity
 67
     1
  8
7_ALL_FEATURES
  6
Continuous
 62
     7
100
AcDbLine
 10
295.1799778294
 20
292.3290413437
 30
0.0
 11
295.1799778294
 21
289.9373574747
 31
0.0
  0
ARC
  5
349
330
1B
100
AcDbEntity
 67
     1
  8
7_ALL_FEATURES
  6
Continuous
 62
     7
100
AcDbCircle
 10
296.1799778294
 20
289.9373574747
 30
0.0
 40
1.0
100
AcDbArc
 50
180.0
 51
270.0
  0
LINE
  5
34A
330
1B
100
AcDbEntity
 67
     1
  8
7_ALL_FEATURES
  6
Continuous
 62
     7
100
AcDbLine
 10
296.1799778294
 20
288.9373574747
 30
0.0
 11
305.6799778294
 21
288.9373574747
 31
0.0
  0
LINE
  5
34B
330
1B
100
AcDbEntity
 67
     1
  8
7_ALL_FEATURES
  6
Continuous
 62
     7
100
AcDbLine
 10
305.6799778294
 20
296.9373574747
 30
0.0
 11
296.1799778294
 21
296.9373574747
 31
0.0
  0
ARC
  5
34C
330
1B
100
AcDbEntity
 67
     1
  8
7_ALL_FEATURES
  6
Continuous
 62
     7
100
AcDbCircle
 10
296.1799778294
 20
295.9373574747
 30
0.0
 40
1.0
100
AcDbArc
 50
90.0
 51
180.0
  0
ARC
  5
34D
330
1B
100
AcDbEntity
 67
     1
  8
02___PRT_ALL_AXES
  6
Continuous
 62
     7
100
AcDbCircle
 10
302.4299778294
 20
292.9373574747
 30
0.0
 40
2.25
100
AcDbArc
 50
270.0
 51
90.0
  0
LINE
  5
34E
330
1B
100
AcDbEntity
 67
     1
  8
02___PRT_ALL_AXES
  6
Continuous
 62
     7
100
AcDbLine
 10
301.9918833648
 20
290.6873574747
 30
0.0
 11
302.4299778294
 21
290.6873574747
 31
0.0
  0
LINE
  5
34F
330
1B
100
AcDbEntity
 67
     1
  8
02___PRT_ALL_AXES
  6
Continuous
 62
     7
100
AcDbLine
 10
302.4299778294
 20
295.1873574747
 30
0.0
 11
301.9918833648
 21
295.1873574747
 31
0.0
  0
LINE
  5
350
330
1B
100
AcDbEntity
 67
     1
  8
7_ALL_FEATURES
  6
Continuous
 62
     7
100
AcDbLine
 10
307.6799778294
 20
253.9373574747
 30
0.0
 11
307.6799778294
 21
261.9373574747
 31
0.0
  0
LINE
  5
351
330
1B
100
AcDbEntity
 67
     1
  8
7_ALL_FEATURES
  6
Continuous
 62
     7
100
AcDbLine
 10
307.6211325403
 20
261.9373574747
 30
0.0
 11
307.6799778294
 21
261.9373574747
 31
0.0
  0
LINE
  5
352
330
1B
100
AcDbEntity
 67
     1
  8
7_ALL_FEATURES
  6
Continuous
 62
     7
100
AcDbLine
 10
305.6799778294
 20
261.9373574747
 30
0.0
 11
307.6211325403
 21
261.9373574747
 31
0.0
  0
LINE
  5
353
330
1B
100
AcDbEntity
 67
     1
  8
7_ALL_FEATURES
  6
Continuous
 62
     7
100
AcDbLine
 10
305.6799778294
 20
253.9373574747
 30
0.0
 11
307.6211325403
 21
253.9373574747
 31
0.0
  0
LINE
  5
354
330
1B
100
AcDbEntity
 67
     1
  8
7_ALL_FEATURES
  6
Continuous
 62
     7
100
AcDbLine
 10
307.6211325403
 20
253.9373574747
 30
0.0
 11
307.6799778294
 21
253.9373574747
 31
0.0
  0
LINE
  5
355
330
1B
100
AcDbEntity
 67
     1
  8
7_ALL_FEATURES
  6
Continuous
 62
     7
100
AcDbLine
 10
295.1799778294
 20
260.9373574747
 30
0.0
 11
295.1799778294
 21
258.5456736056
 31
0.0
  0
LINE
  5
356
330
1B
100
AcDbEntity
 67
     1
  8
7_ALL_FEATURES
  6
Continuous
 62
     7
100
AcDbLine
 10
295.1799778294
 20
257.3290413437
 30
0.0
 11
295.1799778294
 21
254.9373574747
 31
0.0
  0
ARC
  5
357
330
1B
100
AcDbEntity
 67
     1
  8
7_ALL_FEATURES
  6
Continuous
 62
     7
100
AcDbCircle
 10
296.1799778294
 20
254.9373574747
 30
0.0
 40
1.0
100
AcDbArc
 50
180.0
 51
270.0
  0
LINE
  5
358
330
1B
100
AcDbEntity
 67
     1
  8
7_ALL_FEATURES
  6
Continuous
 62
     7
100
AcDbLine
 10
296.1799778294
 20
253.9373574747
 30
0.0
 11
305.6799778294
 21
253.9373574747
 31
0.0
  0
LINE
  5
359
330
1B
100
AcDbEntity
 67
     1
  8
7_ALL_FEATURES
  6
Continuous
 62
     7
100
AcDbLine
 10
305.6799778294
 20
261.9373574747
 30
0.0
 11
296.1799778294
 21
261.9373574747
 31
0.0
  0
ARC
  5
35A
330
1B
100
AcDbEntity
 67
     1
  8
7_ALL_FEATURES
  6
Continuous
 62
     7
100
AcDbCircle
 10
296.1799778294
 20
260.9373574747
 30
0.0
 40
1.0
100
AcDbArc
 50
90.0
 51
180.0
  0
LINE
  5
35B
330
1B
100
AcDbEntity
 67
     1
  8
02___PRT_ALL_AXES
  6
Continuous
 62
     7
100
AcDbLine
 10
301.9918833648
 20
255.6873574747
 30
0.0
 11
302.4299778294
 21
255.6873574747
 31
0.0
  0
LINE
  5
35C
330
1B
100
AcDbEntity
 67
     1
  8
02___PRT_ALL_AXES
  6
Continuous
 62
     7
100
AcDbLine
 10
302.4299778294
 20
260.1873574747
 30
0.0
 11
301.9918833648
 21
260.1873574747
 31
0.0
  0
ARC
  5
35D
330
1B
100
AcDbEntity
 67
     1
  8
02___PRT_ALL_AXES
  6
Continuous
 62
     7
100
AcDbCircle
 10
302.4299778294
 20
257.9373574747
 30
0.0
 40
2.25
100
AcDbArc
 50
270.0
 51
90.0
  0
LINE
  5
35E
330
1B
100
AcDbEntity
 67
     1
  8
7_ALL_FEATURES
  6
Continuous
 62
     9
100
AcDbLine
 10
305.6799778294
 20
288.9373574747
 30
0.0
 11
305.6799778294
 21
296.9373574747
 31
0.0
  0
LINE
  5
35F
330
1B
100
AcDbEntity
 67
     1
  8
7_ALL_FEATURES
  6
Continuous
 62
     9
100
AcDbLine
 10
305.6799778294
 20
253.9373574747
 30
0.0
 11
305.6799778294
 21
261.9373574747
 31
0.0
  0
LINE
  5
360
330
1B
100
AcDbEntity
 67
     1
  8
7_ALL_FEATURES
  6
Continuous
 62
     9
100
AcDbLine
 10
307.6799778294
 20
333.9373574747
 30
0.0
 11
306.6799778294
 21
333.9373574747
 31
0.0
  0
LINE
  5
361
330
1B
100
AcDbEntity
 67
     1
  8
7_ALL_FEATURES
  6
Continuous
 62
     9
100
AcDbLine
 10
307.6799778294
 20
245.9373574747
 30
0.0
 11
306.6799778294
 21
245.9373574747
 31
0.0
  0
ARC
  5
362
330
1B
100
AcDbEntity
 67
     1
  8
02___PRT_ALL_AXES
  6
Continuous
 62
     7
100
AcDbCircle
 10
176.4299778294
 20
273.105812256
 30
0.0
 40
10.0
100
AcDbArc
 50
182.0
 51
358.0
  0
LINE
  5
363
330
1B
100
AcDbEntity
 67
     1
  8
02___PRT_ALL_AXES
  6
Continuous
 62
     7
100
AcDbLine
 10
166.4360695592
 20
272.756817289
 30
0.0
 11
166.9357649727
 21
272.7742670373
 31
0.0
  0
ARC
  5
364
330
1B
100
AcDbEntity
 67
     1
  8
02___PRT_ALL_AXES
  6
Continuous
 62
     7
100
AcDbCircle
 10
176.4299778294
 20
273.105812256
 30
0.0
 40
9.5
100
AcDbArc
 50
182.0
 51
358.0
  0
LINE
  5
365
330
1B
100
AcDbEntity
 67
     1
  8
02___PRT_ALL_AXES
  6
Continuous
 62
     7
100
AcDbLine
 10
185.9241906861
 20
272.7742670373
 30
0.0
 11
186.4238860996
 21
272.756817289
 31
0.0
  0
LINE
  5
366
330
1B
100
AcDbEntity
 67
     1
  8
02___PRT_ALL_AXES
  6
Continuous
 62
     7
100
AcDbLine
 10
166.9357649727
 20
273.4373574747
 30
0.0
 11
166.4360695592
 21
273.454807223
 31
0.0
  0
ARC
  5
367
330
1B
100
AcDbEntity
 67
     1
  8
02___PRT_ALL_AXES
  6
Continuous
 62
     7
100
AcDbCircle
 10
176.4299778294
 20
273.105812256
 30
0.0
 40
10.0
100
AcDbArc
 50
2.0
 51
178.0
  0
LINE
  5
368
330
1B
100
AcDbEntity
 67
     1
  8
02___PRT_ALL_AXES
  6
Continuous
 62
     7
100
AcDbLine
 10
186.4238860996
 20
273.454807223
 30
0.0
 11
185.9241906861
 21
273.4373574747
 31
0.0
  0
ARC
  5
369
330
1B
100
AcDbEntity
 67
     1
  8
02___PRT_ALL_AXES
  6
Continuous
 62
     7
100
AcDbCircle
 10
176.4299778294
 20
273.105812256
 30
0.0
 40
9.5
100
AcDbArc
 50
2.0
 51
178.0
  0
ARC
  5
36A
330
1B
100
AcDbEntity
 67
     1
  8
02___PRT_ALL_AXES
  6
Continuous
 62
     7
100
AcDbCircle
 10
301.1799778294
 20
292.9373574747
 30
0.0
 40
1.65
100
AcDbArc
 50
333.5992621443999
 51
360.0
  0
ARC
  5
36B
330
1B
100
AcDbEntity
 67
     1
  8
02___PRT_ALL_AXES
  6
Continuous
 62
     7
100
AcDbCircle
 10
301.1799778294
 20
292.9373574747
 30
0.0
 40
1.65
100
AcDbArc
 50
0.0
 51
26.4007378556
  0
LINE
  5
36C
330
1B
100
AcDbEntity
 67
     1
  8
7_ALL_FEATURES
  6
Continuous
 62
     7
100
AcDbLine
 10
304.1799778294
 20
287.9373574747
 30
0.0
 11
304.1799778294
 21
288.9373574747
 31
0.0
  0
LINE
  5
36D
330
1B
100
AcDbEntity
 67
     1
  8
7_ALL_FEATURES
  6
Continuous
 62
     7
100
AcDbLine
 10
304.1799778294
 20
291.5231927129
 30
0.0
 11
304.1799778294
 21
294.3515222364
 31
0.0
  0
LINE
  5
36E
330
1B
100
AcDbEntity
 67
     1
  8
7_ALL_FEATURES
  6
Continuous
 62
     7
100
AcDbLine
 10
304.1799778294
 20
296.9373574747
 30
0.0
 11
304.1799778294
 21
297.9373574747
 31
0.0
  0
LINE
  5
36F
330
1B
100
AcDbEntity
 67
     1
  8
7_ALL_FEATURES
  6
Continuous
 62
     7
100
AcDbLine
 10
306.6799778294
 20
297.9373574747
 30
0.0
 11
304.1799778294
 21
297.9373574747
 31
0.0
  0
LINE
  5
370
330
1B
100
AcDbEntity
 67
     1
  8
7_ALL_FEATURES
  6
Continuous
 62
     7
100
AcDbLine
 10
306.6799778294
 20
297.9373574747
 30
0.0
 11
306.6799778294
 21
333.9373574747
 31
0.0
  0
LINE
  5
371
330
1B
100
AcDbEntity
 67
     1
  8
7_ALL_FEATURES
  6
Continuous
 62
     7
100
AcDbLine
 10
306.6799778294
 20
333.9373574747
 30
0.0
 11
306.6799778294
 21
334.4373574747
 31
0.0
  0
LINE
  5
372
330
1B
100
AcDbEntity
 67
     1
  8
7_ALL_FEATURES
  6
Continuous
 62
     7
100
AcDbLine
 10
306.6799778294
 20
334.4373574747
 30
0.0
 11
46.1799778294
 21
334.4373574747
 31
0.0
  0
LINE
  5
373
330
1B
100
AcDbEntity
 67
     1
  8
7_ALL_FEATURES
  6
Continuous
 62
     7
100
AcDbLine
 10
46.1799778294
 20
334.4373574747
 30
0.0
 11
46.1799778294
 21
333.9373574747
 31
0.0
  0
LINE
  5
374
330
1B
100
AcDbEntity
 67
     1
  8
7_ALL_FEATURES
  6
Continuous
 62
     7
100
AcDbLine
 10
46.1799778294
 20
333.9373574747
 30
0.0
 11
46.1799778294
 21
298.1373574747
 31
0.0
  0
LINE
  5
375
330
1B
100
AcDbEntity
 67
     1
  8
7_ALL_FEATURES
  6
Continuous
 62
     7
100
AcDbLine
 10
46.1799778294
 20
298.1373574747
 30
0.0
 11
46.1799778294
 21
297.9373574747
 31
0.0
  0
LINE
  5
376
330
1B
100
AcDbEntity
 67
     1
  8
7_ALL_FEATURES
  6
Continuous
 62
     7
100
AcDbLine
 10
46.1799778294
 20
297.9373574747
 30
0.0
 11
48.6799778294
 21
297.9373574747
 31
0.0
  0
LINE
  5
377
330
1B
100
AcDbEntity
 67
     1
  8
7_ALL_FEATURES
  6
Continuous
 62
     7
100
AcDbLine
 10
48.6799778294
 20
297.9373574747
 30
0.0
 11
48.6799778294
 21
296.9373574747
 31
0.0
  0
LINE
  5
378
330
1B
100
AcDbEntity
 67
     1
  8
7_ALL_FEATURES
  6
Continuous
 62
     7
100
AcDbLine
 10
48.6799778294
 20
294.3515222364
 30
0.0
 11
48.6799778294
 21
291.5231927129
 31
0.0
  0
LINE
  5
379
330
1B
100
AcDbEntity
 67
     1
  8
7_ALL_FEATURES
  6
Continuous
 62
     7
100
AcDbLine
 10
48.6799778294
 20
288.9373574747
 30
0.0
 11
48.6799778294
 21
287.9373574747
 31
0.0
  0
LINE
  5
37A
330
1B
100
AcDbEntity
 67
     1
  8
7_ALL_FEATURES
  6
Continuous
 62
     7
100
AcDbLine
 10
46.1799778294
 20
287.9373574747
 30
0.0
 11
48.6799778294
 21
287.9373574747
 31
0.0
  0
LINE
  5
37B
330
1B
100
AcDbEntity
 67
     1
  8
7_ALL_FEATURES
  6
Continuous
 62
     7
100
AcDbLine
 10
46.1799778294
 20
287.9373574747
 30
0.0
 11
46.1799778294
 21
287.7373574747
 31
0.0
  0
LINE
  5
37C
330
1B
100
AcDbEntity
 67
     1
  8
7_ALL_FEATURES
  6
Continuous
 62
     7
100
AcDbLine
 10
46.1799778294
 20
287.7373574747
 30
0.0
 11
46.1799778294
 21
263.1373574747
 31
0.0
  0
LINE
  5
37D
330
1B
100
AcDbEntity
 67
     1
  8
7_ALL_FEATURES
  6
Continuous
 62
     7
100
AcDbLine
 10
46.1799778294
 20
263.1373574747
 30
0.0
 11
46.1799778294
 21
262.9373574747
 31
0.0
  0
LINE
  5
37E
330
1B
100
AcDbEntity
 67
     1
  8
7_ALL_FEATURES
  6
Continuous
 62
     7
100
AcDbLine
 10
46.1799778294
 20
262.9373574747
 30
0.0
 11
48.6799778294
 21
262.9373574747
 31
0.0
  0
LINE
  5
37F
330
1B
100
AcDbEntity
 67
     1
  8
7_ALL_FEATURES
  6
Continuous
 62
     7
100
AcDbLine
 10
46.1799778294
 20
246.6373574747
 30
0.0
 11
51.4299778294
 21
246.6373574747
 31
0.0
  0
LINE
  5
380
330
1B
100
AcDbEntity
 67
     1
  8
7_ALL_FEATURES
  6
Continuous
 62
     7
100
AcDbLine
 10
101.4299778294
 20
246.6373574747
 30
0.0
 11
251.4299778294
 21
246.6373574747
 31
0.0
  0
LINE
  5
381
330
1B
100
AcDbEntity
 67
     1
  8
7_ALL_FEATURES
  6
Continuous
 62
     7
100
AcDbLine
 10
301.4299778294
 20
246.6373574747
 30
0.0
 11
306.6799778294
 21
246.6373574747
 31
0.0
  0
LINE
  5
382
330
1B
100
AcDbEntity
 67
     1
  8
7_ALL_FEATURES
  6
Continuous
 62
     7
100
AcDbLine
 10
48.6799778294
 20
252.9373574747
 30
0.0
 11
48.6799778294
 21
253.9373574747
 31
0.0
  0
LINE
  5
383
330
1B
100
AcDbEntity
 67
     1
  8
7_ALL_FEATURES
  6
Continuous
 62
     7
100
AcDbLine
 10
48.6799778294
 20
256.5231927129
 30
0.0
 11
48.6799778294
 21
259.3515222364
 31
0.0
  0
LINE
  5
384
330
1B
100
AcDbEntity
 67
     1
  8
7_ALL_FEATURES
  6
Continuous
 62
     7
100
AcDbLine
 10
48.6799778294
 20
261.9373574747
 30
0.0
 11
48.6799778294
 21
262.9373574747
 31
0.0
  0
LINE
  5
385
330
1B
100
AcDbEntity
 67
     1
  8
7_ALL_FEATURES
  6
Continuous
 62
     7
100
AcDbLine
 10
46.1799778294
 20
252.9373574747
 30
0.0
 11
48.6799778294
 21
252.9373574747
 31
0.0
  0
LINE
  5
386
330
1B
100
AcDbEntity
 67
     1
  8
7_ALL_FEATURES
  6
Continuous
 62
     7
100
AcDbLine
 10
46.1799778294
 20
252.9373574747
 30
0.0
 11
46.1799778294
 21
252.7373574747
 31
0.0
  0
LINE
  5
387
330
1B
100
AcDbEntity
 67
     1
  8
7_ALL_FEATURES
  6
Continuous
 62
     7
100
AcDbLine
 10
46.1799778294
 20
252.7373574747
 30
0.0
 11
46.1799778294
 21
249.0373574747
 31
0.0
  0
LINE
  5
388
330
1B
100
AcDbEntity
 67
     1
  8
7_ALL_FEATURES
  6
Continuous
 62
     7
100
AcDbLine
 10
306.6799778294
 20
249.0373574747
 30
0.0
 11
306.6799778294
 21
252.7373574747
 31
0.0
  0
LINE
  5
389
330
1B
100
AcDbEntity
 67
     1
  8
7_ALL_FEATURES
  6
Continuous
 62
     7
100
AcDbLine
 10
306.6799778294
 20
252.7373574747
 30
0.0
 11
306.6799778294
 21
252.9373574747
 31
0.0
  0
LINE
  5
38A
330
1B
100
AcDbEntity
 67
     1
  8
7_ALL_FEATURES
  6
Continuous
 62
     7
100
AcDbLine
 10
306.6799778294
 20
252.9373574747
 30
0.0
 11
304.1799778294
 21
252.9373574747
 31
0.0
  0
LINE
  5
38B
330
1B
100
AcDbEntity
 67
     1
  8
7_ALL_FEATURES
  6
Continuous
 62
     7
100
AcDbLine
 10
304.1799778294
 20
252.9373574747
 30
0.0
 11
304.1799778294
 21
253.9373574747
 31
0.0
  0
LINE
  5
38C
330
1B
100
AcDbEntity
 67
     1
  8
7_ALL_FEATURES
  6
Continuous
 62
     7
100
AcDbLine
 10
304.1799778294
 20
256.5231927129
 30
0.0
 11
304.1799778294
 21
259.3515222364
 31
0.0
  0
LINE
  5
38D
330
1B
100
AcDbEntity
 67
     1
  8
7_ALL_FEATURES
  6
Continuous
 62
     7
100
AcDbLine
 10
304.1799778294
 20
261.9373574747
 30
0.0
 11
304.1799778294
 21
262.9373574747
 31
0.0
  0
LINE
  5
38E
330
1B
100
AcDbEntity
 67
     1
  8
7_ALL_FEATURES
  6
Continuous
 62
     7
100
AcDbLine
 10
306.6799778294
 20
262.9373574747
 30
0.0
 11
304.1799778294
 21
262.9373574747
 31
0.0
  0
LINE
  5
38F
330
1B
100
AcDbEntity
 67
     1
  8
7_ALL_FEATURES
  6
Continuous
 62
     7
100
AcDbLine
 10
306.6799778294
 20
262.9373574747
 30
0.0
 11
306.6799778294
 21
263.1373574747
 31
0.0
  0
LINE
  5
390
330
1B
100
AcDbEntity
 67
     1
  8
7_ALL_FEATURES
  6
Continuous
 62
     7
100
AcDbLine
 10
306.6799778294
 20
263.1373574747
 30
0.0
 11
306.6799778294
 21
287.9373574747
 31
0.0
  0
LINE
  5
391
330
1B
100
AcDbEntity
 67
     1
  8
7_ALL_FEATURES
  6
Continuous
 62
     7
100
AcDbLine
 10
306.6799778294
 20
287.9373574747
 30
0.0
 11
304.1799778294
 21
287.9373574747
 31
0.0
  0
LINE
  5
392
330
1B
100
AcDbEntity
 67
     1
  8
7_ALL_FEATURES
  6
Continuous
 62
     9
100
AcDbLine
 10
46.1799778294
 20
249.0373574747
 30
0.0
 11
306.6799778294
 21
249.0373574747
 31
0.0
  0
LINE
  5
393
330
1B
100
AcDbEntity
 67
     1
  8
7_ALL_FEATURES
  6
Continuous
 62
     3
100
AcDbLine
 10
91.4299778294
 20
246.6373574747
 30
0.0
 11
96.1799778294
 21
246.6373574747
 31
0.0
  0
LINE
  5
394
330
1B
100
AcDbEntity
 67
     1
  8
7_ALL_FEATURES
  6
Continuous
 62
     3
100
AcDbLine
 10
96.1799778294
 20
246.6373574747
 30
0.0
 11
101.4299778294
 21
246.6373574747
 31
0.0
  0
LINE
  5
395
330
1B
100
AcDbEntity
 67
     1
  8
7_ALL_FEATURES
  6
Continuous
 62
     3
100
AcDbLine
 10
61.4299778294
 20
246.6373574747
 30
0.0
 11
91.4299778294
 21
246.6373574747
 31
0.0
  0
LINE
  5
396
330
1B
100
AcDbEntity
 67
     1
  8
7_ALL_FEATURES
  6
Continuous
 62
     3
100
AcDbLine
 10
51.4299778294
 20
246.6373574747
 30
0.0
 11
56.6799778294
 21
246.6373574747
 31
0.0
  0
LINE
  5
397
330
1B
100
AcDbEntity
 67
     1
  8
7_ALL_FEATURES
  6
Continuous
 62
     3
100
AcDbLine
 10
56.6799778294
 20
246.6373574747
 30
0.0
 11
61.4299778294
 21
246.6373574747
 31
0.0
  0
LINE
  5
398
330
1B
100
AcDbEntity
 67
     1
  8
7_ALL_FEATURES
  6
Continuous
 62
     3
100
AcDbLine
 10
291.4299778294
 20
246.6373574747
 30
0.0
 11
296.1799778294
 21
246.6373574747
 31
0.0
  0
LINE
  5
399
330
1B
100
AcDbEntity
 67
     1
  8
7_ALL_FEATURES
  6
Continuous
 62
     3
100
AcDbLine
 10
296.1799778294
 20
246.6373574747
 30
0.0
 11
301.4299778294
 21
246.6373574747
 31
0.0
  0
LINE
  5
39A
330
1B
100
AcDbEntity
 67
     1
  8
7_ALL_FEATURES
  6
Continuous
 62
     3
100
AcDbLine
 10
261.4299778294
 20
246.6373574747
 30
0.0
 11
291.4299778294
 21
246.6373574747
 31
0.0
  0
LINE
  5
39B
330
1B
100
AcDbEntity
 67
     1
  8
7_ALL_FEATURES
  6
Continuous
 62
     3
100
AcDbLine
 10
251.4299778294
 20
246.6373574747
 30
0.0
 11
256.6799778294
 21
246.6373574747
 31
0.0
  0
LINE
  5
39C
330
1B
100
AcDbEntity
 67
     1
  8
7_ALL_FEATURES
  6
Continuous
 62
     3
100
AcDbLine
 10
256.6799778294
 20
246.6373574747
 30
0.0
 11
261.4299778294
 21
246.6373574747
 31
0.0
  0
LINE
  5
39D
330
1B
100
AcDbEntity
 67
     1
  8
7_ALL_FEATURES
  6
Continuous
 62
     3
100
AcDbLine
 10
46.1799778294
 20
245.9373574747
 30
0.0
 11
46.1799778294
 21
245.4373574747
 31
0.0
  0
LINE
  5
39E
330
1B
100
AcDbEntity
 67
     1
  8
7_ALL_FEATURES
  6
Continuous
 62
     3
100
AcDbLine
 10
46.1799778294
 20
252.7373574747
 30
0.0
 11
46.1799778294
 21
249.0373574747
 31
0.0
  0
LINE
  5
39F
330
1B
100
AcDbEntity
 67
     1
  8
7_ALL_FEATURES
  6
Continuous
 62
     3
100
AcDbLine
 10
46.1799778294
 20
249.0373574747
 30
0.0
 11
46.1799778294
 21
246.6373574747
 31
0.0
  0
LINE
  5
3A0
330
1B
100
AcDbEntity
 67
     1
  8
7_ALL_FEATURES
  6
Continuous
 62
     3
100
AcDbLine
 10
46.1799778294
 20
246.6373574747
 30
0.0
 11
46.1799778294
 21
245.9373574747
 31
0.0
  0
LINE
  5
3A1
330
1B
100
AcDbEntity
 67
     1
  8
7_ALL_FEATURES
  6
Continuous
 62
     3
100
AcDbLine
 10
46.1799778294
 20
253.9373574747
 30
0.0
 11
46.1799778294
 21
252.9373574747
 31
0.0
  0
LINE
  5
3A2
330
1B
100
AcDbEntity
 67
     1
  8
7_ALL_FEATURES
  6
Continuous
 62
     3
100
AcDbLine
 10
46.1799778294
 20
261.9373574747
 30
0.0
 11
46.1799778294
 21
262.9373574747
 31
0.0
  0
LINE
  5
3A3
330
1B
100
AcDbEntity
 67
     1
  8
7_ALL_FEATURES
  6
Continuous
 62
     3
100
AcDbLine
 10
46.1799778294
 20
287.7373574747
 30
0.0
 11
46.1799778294
 21
263.1373574747
 31
0.0
  0
LINE
  5
3A4
330
1B
100
AcDbEntity
 67
     1
  8
7_ALL_FEATURES
  6
Continuous
 62
     3
100
AcDbLine
 10
46.1799778294
 20
288.9373574747
 30
0.0
 11
46.1799778294
 21
287.9373574747
 31
0.0
  0
LINE
  5
3A5
330
1B
100
AcDbEntity
 67
     1
  8
7_ALL_FEATURES
  6
Continuous
 62
     3
100
AcDbLine
 10
46.1799778294
 20
296.9373574747
 30
0.0
 11
46.1799778294
 21
297.9373574747
 31
0.0
  0
LINE
  5
3A6
330
1B
100
AcDbEntity
 67
     1
  8
7_ALL_FEATURES
  6
Continuous
 62
     3
100
AcDbLine
 10
46.1799778294
 20
333.9373574747
 30
0.0
 11
46.1799778294
 21
298.1373574747
 31
0.0
  0
LINE
  5
3A7
330
1B
100
AcDbEntity
 67
     1
  8
7_ALL_FEATURES
  6
Continuous
 62
     3
100
AcDbLine
 10
306.6799778294
 20
245.4373574747
 30
0.0
 11
306.6799778294
 21
245.9373574747
 31
0.0
  0
LINE
  5
3A8
330
1B
100
AcDbEntity
 67
     1
  8
7_ALL_FEATURES
  6
Continuous
 62
     3
100
AcDbLine
 10
306.6799778294
 20
297.9373574747
 30
0.0
 11
306.6799778294
 21
333.9373574747
 31
0.0
  0
LINE
  5
3A9
330
1B
100
AcDbEntity
 67
     1
  8
7_ALL_FEATURES
  6
Continuous
 62
     3
100
AcDbLine
 10
306.6799778294
 20
296.9373574747
 30
0.0
 11
306.6799778294
 21
297.9373574747
 31
0.0
  0
LINE
  5
3AA
330
1B
100
AcDbEntity
 67
     1
  8
7_ALL_FEATURES
  6
Continuous
 62
     3
100
AcDbLine
 10
306.6799778294
 20
288.9373574747
 30
0.0
 11
306.6799778294
 21
287.9373574747
 31
0.0
  0
LINE
  5
3AB
330
1B
100
AcDbEntity
 67
     1
  8
7_ALL_FEATURES
  6
Continuous
 62
     3
100
AcDbLine
 10
306.6799778294
 20
263.1373574747
 30
0.0
 11
306.6799778294
 21
287.9373574747
 31
0.0
  0
LINE
  5
3AC
330
1B
100
AcDbEntity
 67
     1
  8
7_ALL_FEATURES
  6
Continuous
 62
     3
100
AcDbLine
 10
306.6799778294
 20
261.9373574747
 30
0.0
 11
306.6799778294
 21
262.9373574747
 31
0.0
  0
LINE
  5
3AD
330
1B
100
AcDbEntity
 67
     1
  8
7_ALL_FEATURES
  6
Continuous
 62
     3
100
AcDbLine
 10
306.6799778294
 20
253.9373574747
 30
0.0
 11
306.6799778294
 21
252.9373574747
 31
0.0
  0
LINE
  5
3AE
330
1B
100
AcDbEntity
 67
     1
  8
7_ALL_FEATURES
  6
Continuous
 62
     3
100
AcDbLine
 10
306.6799778294
 20
245.9373574747
 30
0.0
 11
306.6799778294
 21
246.6373574747
 31
0.0
  0
LINE
  5
3AF
330
1B
100
AcDbEntity
 67
     1
  8
7_ALL_FEATURES
  6
Continuous
 62
     3
100
AcDbLine
 10
306.6799778294
 20
246.6373574747
 30
0.0
 11
306.6799778294
 21
249.0373574747
 31
0.0
  0
LINE
  5
3B0
330
1B
100
AcDbEntity
 67
     1
  8
7_ALL_FEATURES
  6
Continuous
 62
     3
100
AcDbLine
 10
306.6799778294
 20
249.0373574747
 30
0.0
 11
306.6799778294
 21
252.7373574747
 31
0.0
  0
LINE
  5
3B1
330
1B
100
AcDbEntity
 67
     1
  8
3_ALL_AXES
  6
Continuous
 62
     7
100
AcDbLine
 10
152.8299778294
 20
164.3477916996
 30
0.0
 11
152.8299778294
 21
165.0536618702
 31
0.0
  0
LINE
  5
3B2
330
1B
100
AcDbEntity
 67
     1
  8
3_ALL_AXES
  6
Continuous
 62
     7
100
AcDbLine
 10
147.0299778294
 20
164.3477916996
 30
0.0
 11
147.0299778294
 21
165.0536618702
 31
0.0
  0
ARC
  5
3B3
330
1B
100
AcDbEntity
 67
     1
  8
3_ALL_AXES
  6
Continuous
 62
     7
100
AcDbCircle
 10
149.9299778294
 20
157.5977916996
 30
0.0
 40
8.0
100
AcDbArc
 50
68.7461908146
 51
90.0
  0
ARC
  5
3B4
330
1B
100
AcDbEntity
 67
     1
  8
3_ALL_AXES
  6
Continuous
 62
     7
100
AcDbCircle
 10
149.9299778294
 20
157.5977916996
 30
0.0
 40
8.0
100
AcDbArc
 50
90.0
 51
111.2538091854
  0
LINE
  5
3B5
330
1B
100
AcDbEntity
 67
     1
  8
3_ALL_AXES
  6
Continuous
 62
     7
100
AcDbLine
 10
152.8299778294
 20
165.0536618702
 30
0.0
 11
152.8299778294
 21
164.3477916996
 31
0.0
  0
LINE
  5
3B6
330
1B
100
AcDbEntity
 67
     1
  8
3_ALL_AXES
  6
Continuous
 62
     7
100
AcDbLine
 10
147.0299778294
 20
165.0536618702
 30
0.0
 11
147.0299778294
 21
164.3477916996
 31
0.0
  0
LINE
  5
3B7
330
1B
100
AcDbEntity
 67
     1
  8
3_ALL_AXES
  6
Continuous
 62
     7
100
AcDbLine
 10
152.8299778294
 20
165.0536618702
 30
0.0
 11
147.0299778294
 21
165.0536618702
 31
0.0
  0
LINE
  5
3B8
330
1B
100
AcDbEntity
 67
     1
  8
3_ALL_AXES
  6
Continuous
 62
     7
100
AcDbLine
 10
70.8299778294
 20
164.3477916996
 30
0.0
 11
70.8299778294
 21
165.0536618702
 31
0.0
  0
LINE
  5
3B9
330
1B
100
AcDbEntity
 67
     1
  8
3_ALL_AXES
  6
Continuous
 62
     7
100
AcDbLine
 10
65.0299778294
 20
164.3477916996
 30
0.0
 11
65.0299778294
 21
165.0536618702
 31
0.0
  0
ARC
  5
3BA
330
1B
100
AcDbEntity
 67
     1
  8
3_ALL_AXES
  6
Continuous
 62
     7
100
AcDbCircle
 10
67.9299778294
 20
157.5977916996
 30
0.0
 40
8.0
100
AcDbArc
 50
68.7461908146
 51
90.0
  0
ARC
  5
3BB
330
1B
100
AcDbEntity
 67
     1
  8
3_ALL_AXES
  6
Continuous
 62
     7
100
AcDbCircle
 10
67.9299778294
 20
157.5977916996
 30
0.0
 40
8.0
100
AcDbArc
 50
90.0
 51
111.2538091854
  0
LINE
  5
3BC
330
1B
100
AcDbEntity
 67
     1
  8
3_ALL_AXES
  6
Continuous
 62
     7
100
AcDbLine
 10
70.8299778294
 20
165.0536618702
 30
0.0
 11
70.8299778294
 21
164.3477916996
 31
0.0
  0
LINE
  5
3BD
330
1B
100
AcDbEntity
 67
     1
  8
3_ALL_AXES
  6
Continuous
 62
     7
100
AcDbLine
 10
65.0299778294
 20
165.0536618702
 30
0.0
 11
65.0299778294
 21
164.3477916996
 31
0.0
  0
LINE
  5
3BE
330
1B
100
AcDbEntity
 67
     1
  8
3_ALL_AXES
  6
Continuous
 62
     7
100
AcDbLine
 10
70.8299778294
 20
165.0536618702
 30
0.0
 11
65.0299778294
 21
165.0536618702
 31
0.0
  0
LINE
  5
3BF
330
1B
100
AcDbEntity
 67
     1
  8
3_ALL_AXES
  6
Continuous
 62
     7
100
AcDbLine
 10
282.0299778294
 20
123.9477916996
 30
0.0
 11
282.0299778294
 21
123.2419215291
 31
0.0
  0
LINE
  5
3C0
330
1B
100
AcDbEntity
 67
     1
  8
3_ALL_AXES
  6
Continuous
 62
     7
100
AcDbLine
 10
287.8299778294
 20
123.9477916996
 30
0.0
 11
287.8299778294
 21
123.2419215291
 31
0.0
  0
ARC
  5
3C1
330
1B
100
AcDbEntity
 67
     1
  8
3_ALL_AXES
  6
Continuous
 62
     7
100
AcDbCircle
 10
284.9299778294
 20
130.6977916996
 30
0.0
 40
8.0
100
AcDbArc
 50
248.7461908146
 51
270.0
  0
ARC
  5
3C2
330
1B
100
AcDbEntity
 67
     1
  8
3_ALL_AXES
  6
Continuous
 62
     7
100
AcDbCircle
 10
284.9299778294
 20
130.6977916996
 30
0.0
 40
8.0
100
AcDbArc
 50
270.0
 51
291.2538091854
  0
LINE
  5
3C3
330
1B
100
AcDbEntity
 67
     1
  8
3_ALL_AXES
  6
Continuous
 62
     7
100
AcDbLine
 10
282.0299778294
 20
123.2419215291
 30
0.0
 11
282.0299778294
 21
123.9477916996
 31
0.0
  0
LINE
  5
3C4
330
1B
100
AcDbEntity
 67
     1
  8
3_ALL_AXES
  6
Continuous
 62
     7
100
AcDbLine
 10
287.8299778294
 20
123.2419215291
 30
0.0
 11
287.8299778294
 21
123.9477916996
 31
0.0
  0
LINE
  5
3C5
330
1B
100
AcDbEntity
 67
     1
  8
3_ALL_AXES
  6
Continuous
 62
     7
100
AcDbLine
 10
282.0299778294
 20
123.2419215291
 30
0.0
 11
287.8299778294
 21
123.2419215291
 31
0.0
  0
LINE
  5
3C6
330
1B
100
AcDbEntity
 67
     1
  8
3_ALL_AXES
  6
Continuous
 62
     7
100
AcDbLine
 10
200.0299778294
 20
123.9477916996
 30
0.0
 11
200.0299778294
 21
123.2419215291
 31
0.0
  0
LINE
  5
3C7
330
1B
100
AcDbEntity
 67
     1
  8
3_ALL_AXES
  6
Continuous
 62
     7
100
AcDbLine
 10
205.8299778294
 20
123.9477916996
 30
0.0
 11
205.8299778294
 21
123.2419215291
 31
0.0
  0
ARC
  5
3C8
330
1B
100
AcDbEntity
 67
     1
  8
3_ALL_AXES
  6
Continuous
 62
     7
100
AcDbCircle
 10
202.9299778294
 20
130.6977916996
 30
0.0
 40
8.0
100
AcDbArc
 50
248.7461908146
 51
270.0
  0
ARC
  5
3C9
330
1B
100
AcDbEntity
 67
     1
  8
3_ALL_AXES
  6
Continuous
 62
     7
100
AcDbCircle
 10
202.9299778294
 20
130.6977916996
 30
0.0
 40
8.0
100
AcDbArc
 50
270.0
 51
291.2538091854
  0
LINE
  5
3CA
330
1B
100
AcDbEntity
 67
     1
  8
3_ALL_AXES
  6
Continuous
 62
     7
100
AcDbLine
 10
200.0299778294
 20
123.2419215291
 30
0.0
 11
200.0299778294
 21
123.9477916996
 31
0.0
  0
LINE
  5
3CB
330
1B
100
AcDbEntity
 67
     1
  8
3_ALL_AXES
  6
Continuous
 62
     7
100
AcDbLine
 10
205.8299778294
 20
123.2419215291
 30
0.0
 11
205.8299778294
 21
123.9477916996
 31
0.0
  0
LINE
  5
3CC
330
1B
100
AcDbEntity
 67
     1
  8
3_ALL_AXES
  6
Continuous
 62
     7
100
AcDbLine
 10
200.0299778294
 20
123.2419215291
 30
0.0
 11
205.8299778294
 21
123.2419215291
 31
0.0
  0
LINE
  5
3CD
330
1B
100
AcDbEntity
 67
     1
  8
3_ALL_AXES
  6
Continuous
 62
     7
100
AcDbLine
 10
65.0299778294
 20
123.9477916996
 30
0.0
 11
65.0299778294
 21
123.2419215291
 31
0.0
  0
LINE
  5
3CE
330
1B
100
AcDbEntity
 67
     1
  8
3_ALL_AXES
  6
Continuous
 62
     7
100
AcDbLine
 10
70.8299778294
 20
123.9477916996
 30
0.0
 11
70.8299778294
 21
123.2419215291
 31
0.0
  0
ARC
  5
3CF
330
1B
100
AcDbEntity
 67
     1
  8
3_ALL_AXES
  6
Continuous
 62
     7
100
AcDbCircle
 10
67.9299778294
 20
130.6977916996
 30
0.0
 40
8.0
100
AcDbArc
 50
248.7461908146
 51
270.0
  0
ARC
  5
3D0
330
1B
100
AcDbEntity
 67
     1
  8
3_ALL_AXES
  6
Continuous
 62
     7
100
AcDbCircle
 10
67.9299778294
 20
130.6977916996
 30
0.0
 40
8.0
100
AcDbArc
 50
270.0
 51
291.2538091854
  0
LINE
  5
3D1
330
1B
100
AcDbEntity
 67
     1
  8
3_ALL_AXES
  6
Continuous
 62
     7
100
AcDbLine
 10
65.0299778294
 20
123.2419215291
 30
0.0
 11
65.0299778294
 21
123.9477916996
 31
0.0
  0
LINE
  5
3D2
330
1B
100
AcDbEntity
 67
     1
  8
3_ALL_AXES
  6
Continuous
 62
     7
100
AcDbLine
 10
70.8299778294
 20
123.2419215291
 30
0.0
 11
70.8299778294
 21
123.9477916996
 31
0.0
  0
LINE
  5
3D3
330
1B
100
AcDbEntity
 67
     1
  8
3_ALL_AXES
  6
Continuous
 62
     7
100
AcDbLine
 10
65.0299778294
 20
123.2419215291
 30
0.0
 11
70.8299778294
 21
123.2419215291
 31
0.0
  0
LINE
  5
3D4
330
1B
100
AcDbEntity
 67
     1
  8
3_ALL_AXES
  6
Continuous
 62
     7
100
AcDbLine
 10
147.0299778294
 20
123.9477916996
 30
0.0
 11
147.0299778294
 21
123.2419215291
 31
0.0
  0
LINE
  5
3D5
330
1B
100
AcDbEntity
 67
     1
  8
3_ALL_AXES
  6
Continuous
 62
     7
100
AcDbLine
 10
152.8299778294
 20
123.9477916996
 30
0.0
 11
152.8299778294
 21
123.2419215291
 31
0.0
  0
ARC
  5
3D6
330
1B
100
AcDbEntity
 67
     1
  8
3_ALL_AXES
  6
Continuous
 62
     7
100
AcDbCircle
 10
149.9299778294
 20
130.6977916996
 30
0.0
 40
8.0
100
AcDbArc
 50
248.7461908146
 51
270.0
  0
ARC
  5
3D7
330
1B
100
AcDbEntity
 67
     1
  8
3_ALL_AXES
  6
Continuous
 62
     7
100
AcDbCircle
 10
149.9299778294
 20
130.6977916996
 30
0.0
 40
8.0
100
AcDbArc
 50
270.0
 51
291.2538091854
  0
LINE
  5
3D8
330
1B
100
AcDbEntity
 67
     1
  8
3_ALL_AXES
  6
Continuous
 62
     7
100
AcDbLine
 10
147.0299778294
 20
123.2419215291
 30
0.0
 11
147.0299778294
 21
123.9477916996
 31
0.0
  0
LINE
  5
3D9
330
1B
100
AcDbEntity
 67
     1
  8
3_ALL_AXES
  6
Continuous
 62
     7
100
AcDbLine
 10
152.8299778294
 20
123.2419215291
 30
0.0
 11
152.8299778294
 21
123.9477916996
 31
0.0
  0
LINE
  5
3DA
330
1B
100
AcDbEntity
 67
     1
  8
3_ALL_AXES
  6
Continuous
 62
     7
100
AcDbLine
 10
147.0299778294
 20
123.2419215291
 30
0.0
 11
152.8299778294
 21
123.2419215291
 31
0.0
  0
LINE
  5
3DB
330
1B
100
AcDbEntity
 67
     1
  8
3_ALL_AXES
  6
Continuous
 62
     7
100
AcDbLine
 10
205.8299778294
 20
164.3477916996
 30
0.0
 11
205.8299778294
 21
165.0536618702
 31
0.0
  0
LINE
  5
3DC
330
1B
100
AcDbEntity
 67
     1
  8
3_ALL_AXES
  6
Continuous
 62
     7
100
AcDbLine
 10
200.0299778294
 20
164.3477916996
 30
0.0
 11
200.0299778294
 21
165.0536618702
 31
0.0
  0
ARC
  5
3DD
330
1B
100
AcDbEntity
 67
     1
  8
3_ALL_AXES
  6
Continuous
 62
     7
100
AcDbCircle
 10
202.9299778294
 20
157.5977916996
 30
0.0
 40
8.0
100
AcDbArc
 50
68.7461908146
 51
90.0
  0
ARC
  5
3DE
330
1B
100
AcDbEntity
 67
     1
  8
3_ALL_AXES
  6
Continuous
 62
     7
100
AcDbCircle
 10
202.9299778294
 20
157.5977916996
 30
0.0
 40
8.0
100
AcDbArc
 50
90.0
 51
111.2538091854
  0
LINE
  5
3DF
330
1B
100
AcDbEntity
 67
     1
  8
3_ALL_AXES
  6
Continuous
 62
     7
100
AcDbLine
 10
205.8299778294
 20
165.0536618702
 30
0.0
 11
205.8299778294
 21
164.3477916996
 31
0.0
  0
LINE
  5
3E0
330
1B
100
AcDbEntity
 67
     1
  8
3_ALL_AXES
  6
Continuous
 62
     7
100
AcDbLine
 10
200.0299778294
 20
165.0536618702
 30
0.0
 11
200.0299778294
 21
164.3477916996
 31
0.0
  0
LINE
  5
3E1
330
1B
100
AcDbEntity
 67
     1
  8
3_ALL_AXES
  6
Continuous
 62
     7
100
AcDbLine
 10
205.8299778294
 20
165.0536618702
 30
0.0
 11
200.0299778294
 21
165.0536618702
 31
0.0
  0
LINE
  5
3E2
330
1B
100
AcDbEntity
 67
     1
  8
3_ALL_AXES
  6
Continuous
 62
     7
100
AcDbLine
 10
287.8299778294
 20
164.3477916996
 30
0.0
 11
287.8299778294
 21
165.0536618702
 31
0.0
  0
LINE
  5
3E3
330
1B
100
AcDbEntity
 67
     1
  8
3_ALL_AXES
  6
Continuous
 62
     7
100
AcDbLine
 10
282.0299778294
 20
164.3477916996
 30
0.0
 11
282.0299778294
 21
165.0536618702
 31
0.0
  0
ARC
  5
3E4
330
1B
100
AcDbEntity
 67
     1
  8
3_ALL_AXES
  6
Continuous
 62
     7
100
AcDbCircle
 10
284.9299778294
 20
157.5977916996
 30
0.0
 40
8.0
100
AcDbArc
 50
68.7461908146
 51
90.0
  0
ARC
  5
3E5
330
1B
100
AcDbEntity
 67
     1
  8
3_ALL_AXES
  6
Continuous
 62
     7
100
AcDbCircle
 10
284.9299778294
 20
157.5977916996
 30
0.0
 40
8.0
100
AcDbArc
 50
90.0
 51
111.2538091854
  0
LINE
  5
3E6
330
1B
100
AcDbEntity
 67
     1
  8
3_ALL_AXES
  6
Continuous
 62
     7
100
AcDbLine
 10
287.8299778294
 20
165.0536618702
 30
0.0
 11
287.8299778294
 21
164.3477916996
 31
0.0
  0
LINE
  5
3E7
330
1B
100
AcDbEntity
 67
     1
  8
3_ALL_AXES
  6
Continuous
 62
     7
100
AcDbLine
 10
282.0299778294
 20
165.0536618702
 30
0.0
 11
282.0299778294
 21
164.3477916996
 31
0.0
  0
LINE
  5
3E8
330
1B
100
AcDbEntity
 67
     1
  8
3_ALL_AXES
  6
Continuous
 62
     7
100
AcDbLine
 10
287.8299778294
 20
165.0536618702
 30
0.0
 11
282.0299778294
 21
165.0536618702
 31
0.0
  0
ARC
  5
3E9
330
1B
100
AcDbEntity
 67
     1
  8
3_ALL_AXES
  6
Continuous
 62
     7
100
AcDbCircle
 10
54.0724206267
 20
123.7704317913
 30
0.0
 40
4.1
100
AcDbArc
 50
296.3930257743
 51
298.8426038472999
  0
ARC
  5
3EA
330
1B
100
AcDbEntity
 67
     1
  8
3_ALL_AXES
  6
Continuous
 62
     7
100
AcDbCircle
 10
54.0724206267
 20
123.7704317913
 30
0.0
 40
4.1
100
AcDbArc
 50
298.8426038472999
 51
330.6871187969
  0
ARC
  5
3EB
330
1B
100
AcDbEntity
 67
     1
  8
3_ALL_AXES
  6
Continuous
 62
     7
100
AcDbCircle
 10
54.0724206267
 20
123.7704317913
 30
0.0
 40
4.1
100
AcDbArc
 50
330.6871187969
 51
333.1366968699
  0
ARC
  5
3EC
330
1B
100
AcDbEntity
 67
     1
  8
3_ALL_AXES
  6
Continuous
 62
     7
100
AcDbCircle
 10
53.787535032
 20
123.7704317913
 30
0.0
 40
4.1
100
AcDbArc
 50
206.8633031301
 51
243.6069742257
  0
LINE
  5
3ED
330
1B
100
AcDbEntity
 67
     1
  8
3_ALL_AXES
  6
Continuous
 62
     7
100
AcDbLine
 10
57.7299778294
 20
121.9177916996
 30
0.0
 11
57.7299778294
 21
122.2977916996
 31
0.0
  0
LINE
  5
3EE
330
1B
100
AcDbEntity
 67
     1
  8
3_ALL_AXES
  6
Continuous
 62
     7
100
AcDbLine
 10
50.1299778294
 20
121.9177916996
 30
0.0
 11
50.1299778294
 21
122.2977916996
 31
0.0
  0
LINE
  5
3EF
330
1B
100
AcDbEntity
 67
     1
  8
7_ALL_FEATURES
  6
Continuous
 62
     7
100
AcDbLine
 10
55.9299778294
 20
123.2977916996
 30
0.0
 11
55.9299778294
 21
123.9477916996
 31
0.0
  0
LINE
  5
3F0
330
1B
100
AcDbEntity
 67
     1
  8
7_ALL_FEATURES
  6
Continuous
 62
     7
100
AcDbLine
 10
51.9299778294
 20
123.2977916996
 30
0.0
 11
51.9299778294
 21
123.9477916996
 31
0.0
  0
ARC
  5
3F1
330
1B
100
AcDbEntity
 67
     1
  8
3_ALL_AXES
  6
Continuous
 62
     7
100
AcDbCircle
 10
54.0724206267
 20
123.7704317913
 30
0.0
 40
4.1
100
AcDbArc
 50
330.6871187969
 51
333.1366968699
  0
ARC
  5
3F2
330
1B
100
AcDbEntity
 67
     1
  8
3_ALL_AXES
  6
Continuous
 62
     7
100
AcDbCircle
 10
54.0724206267
 20
123.7704317913
 30
0.0
 40
4.1
100
AcDbArc
 50
298.8426038472999
 51
330.6871187969
  0
ARC
  5
3F3
330
1B
100
AcDbEntity
 67
     1
  8
3_ALL_AXES
  6
Continuous
 62
     7
100
AcDbCircle
 10
54.0724206267
 20
123.7704317913
 30
0.0
 40
4.1
100
AcDbArc
 50
296.3930257743
 51
298.8426038472999
  0
LINE
  5
3F4
330
1B
100
AcDbEntity
 67
     1
  8
3_ALL_AXES
  6
Continuous
 62
     7
100
AcDbLine
 10
55.8949778294
 20
120.0977916996
 30
0.0
 11
55.3733535024
 21
120.0977916996
 31
0.0
  0
LINE
  5
3F5
330
1B
100
AcDbEntity
 67
     1
  8
3_ALL_AXES
  6
Continuous
 62
     7
100
AcDbLine
 10
55.3733535024
 20
120.0977916996
 30
0.0
 11
54.6516656659
 21
120.0977916996
 31
0.0
  0
LINE
  5
3F6
330
1B
100
AcDbEntity
 67
     1
  8
3_ALL_AXES
  6
Continuous
 62
     7
100
AcDbLine
 10
54.6516656659
 20
120.0977916996
 30
0.0
 11
53.2082899929
 21
120.0977916996
 31
0.0
  0
LINE
  5
3F7
330
1B
100
AcDbEntity
 67
     1
  8
3_ALL_AXES
  6
Continuous
 62
     7
100
AcDbLine
 10
53.2082899929
 20
120.0977916996
 30
0.0
 11
52.4866021564
 21
120.0977916996
 31
0.0
  0
LINE
  5
3F8
330
1B
100
AcDbEntity
 67
     1
  8
3_ALL_AXES
  6
Continuous
 62
     7
100
AcDbLine
 10
52.4866021564
 20
120.0977916996
 30
0.0
 11
51.9649778294
 21
120.0977916996
 31
0.0
  0
LINE
  5
3F9
330
1B
100
AcDbEntity
 67
     1
  8
3_ALL_AXES
  6
Continuous
 62
     7
100
AcDbLine
 10
57.7299778294
 20
122.2977916996
 30
0.0
 11
57.7299778294
 21
121.9177916996
 31
0.0
  0
LINE
  5
3FA
330
1B
100
AcDbEntity
 67
     1
  8
3_ALL_AXES
  6
Continuous
 62
     7
100
AcDbLine
 10
57.7299778294
 20
122.2977916996
 30
0.0
 11
57.6799778294
 21
122.2977916996
 31
0.0
  0
LINE
  5
3FB
330
1B
100
AcDbEntity
 67
     1
  8
3_ALL_AXES
  6
Continuous
 62
     7
100
AcDbLine
 10
55.9299778294
 20
123.9477916996
 30
0.0
 11
55.9299778294
 21
123.2977916996
 31
0.0
  0
ARC
  5
3FC
330
1B
100
AcDbEntity
 67
     1
  8
3_ALL_AXES
  6
Continuous
 62
     7
100
AcDbCircle
 10
53.787535032
 20
123.7704317913
 30
0.0
 40
4.1
100
AcDbArc
 50
206.8633031301
 51
243.6069742257
  0
LINE
  5
3FD
330
1B
100
AcDbEntity
 67
     1
  8
3_ALL_AXES
  6
Continuous
 62
     7
100
AcDbLine
 10
50.1299778294
 20
122.2977916996
 30
0.0
 11
50.1299778294
 21
121.9177916996
 31
0.0
  0
LINE
  5
3FE
330
1B
100
AcDbEntity
 67
     1
  8
3_ALL_AXES
  6
Continuous
 62
     7
100
AcDbLine
 10
51.9299778294
 20
123.9477916996
 30
0.0
 11
51.9299778294
 21
123.2977916996
 31
0.0
  0
LINE
  5
3FF
330
1B
100
AcDbEntity
 67
     1
  8
3_ALL_AXES
  6
Continuous
 62
     7
100
AcDbLine
 10
57.7299778294
 20
121.9177916996
 30
0.0
 11
50.1299778294
 21
121.9177916996
 31
0.0
  0
ARC
  5
400
330
1B
100
AcDbEntity
 67
     1
  8
3_ALL_AXES
  6
Continuous
 62
     7
100
AcDbCircle
 10
53.787535032
 20
164.5251516079
 30
0.0
 40
4.1
100
AcDbArc
 50
116.3930257743
 51
118.8426038473
  0
ARC
  5
401
330
1B
100
AcDbEntity
 67
     1
  8
3_ALL_AXES
  6
Continuous
 62
     7
100
AcDbCircle
 10
53.787535032
 20
164.5251516079
 30
0.0
 40
4.1
100
AcDbArc
 50
118.8426038473
 51
150.6871187969
  0
ARC
  5
402
330
1B
100
AcDbEntity
 67
     1
  8
3_ALL_AXES
  6
Continuous
 62
     7
100
AcDbCircle
 10
53.787535032
 20
164.5251516079
 30
0.0
 40
4.1
100
AcDbArc
 50
150.6871187969
 51
153.1366968699
  0
ARC
  5
403
330
1B
100
AcDbEntity
 67
     1
  8
3_ALL_AXES
  6
Continuous
 62
     7
100
AcDbCircle
 10
54.0724206267
 20
164.5251516079
 30
0.0
 40
4.1
100
AcDbArc
 50
26.8633031301
 51
63.6069742257
  0
LINE
  5
404
330
1B
100
AcDbEntity
 67
     1
  8
3_ALL_AXES
  6
Continuous
 62
     7
100
AcDbLine
 10
50.1299778294
 20
166.3777916996
 30
0.0
 11
50.1299778294
 21
165.9977916996
 31
0.0
  0
LINE
  5
405
330
1B
100
AcDbEntity
 67
     1
  8
3_ALL_AXES
  6
Continuous
 62
     7
100
AcDbLine
 10
57.7299778294
 20
166.3777916996
 30
0.0
 11
57.7299778294
 21
165.9977916996
 31
0.0
  0
LINE
  5
406
330
1B
100
AcDbEntity
 67
     1
  8
7_ALL_FEATURES
  6
Continuous
 62
     7
100
AcDbLine
 10
51.9299778294
 20
164.9977916996
 30
0.0
 11
51.9299778294
 21
164.3477916996
 31
0.0
  0
LINE
  5
407
330
1B
100
AcDbEntity
 67
     1
  8
7_ALL_FEATURES
  6
Continuous
 62
     7
100
AcDbLine
 10
55.9299778294
 20
164.9977916996
 30
0.0
 11
55.9299778294
 21
164.3477916996
 31
0.0
  0
ARC
  5
408
330
1B
100
AcDbEntity
 67
     1
  8
3_ALL_AXES
  6
Continuous
 62
     7
100
AcDbCircle
 10
53.787535032
 20
164.5251516079
 30
0.0
 40
4.1
100
AcDbArc
 50
150.6871187969
 51
153.1366968699
  0
ARC
  5
409
330
1B
100
AcDbEntity
 67
     1
  8
3_ALL_AXES
  6
Continuous
 62
     7
100
AcDbCircle
 10
53.787535032
 20
164.5251516079
 30
0.0
 40
4.1
100
AcDbArc
 50
118.8426038473
 51
150.6871187969
  0
ARC
  5
40A
330
1B
100
AcDbEntity
 67
     1
  8
3_ALL_AXES
  6
Continuous
 62
     7
100
AcDbCircle
 10
53.787535032
 20
164.5251516079
 30
0.0
 40
4.1
100
AcDbArc
 50
116.3930257743
 51
118.8426038473
  0
LINE
  5
40B
330
1B
100
AcDbEntity
 67
     1
  8
3_ALL_AXES
  6
Continuous
 62
     7
100
AcDbLine
 10
51.9649778294
 20
168.1977916996
 30
0.0
 11
52.4866021564
 21
168.1977916996
 31
0.0
  0
LINE
  5
40C
330
1B
100
AcDbEntity
 67
     1
  8
3_ALL_AXES
  6
Continuous
 62
     7
100
AcDbLine
 10
52.4866021564
 20
168.1977916996
 30
0.0
 11
53.2082899929
 21
168.1977916996
 31
0.0
  0
LINE
  5
40D
330
1B
100
AcDbEntity
 67
     1
  8
3_ALL_AXES
  6
Continuous
 62
     7
100
AcDbLine
 10
53.2082899929
 20
168.1977916996
 30
0.0
 11
54.6516656659
 21
168.1977916996
 31
0.0
  0
LINE
  5
40E
330
1B
100
AcDbEntity
 67
     1
  8
3_ALL_AXES
  6
Continuous
 62
     7
100
AcDbLine
 10
54.6516656659
 20
168.1977916996
 30
0.0
 11
55.3733535024
 21
168.1977916996
 31
0.0
  0
LINE
  5
40F
330
1B
100
AcDbEntity
 67
     1
  8
3_ALL_AXES
  6
Continuous
 62
     7
100
AcDbLine
 10
55.3733535024
 20
168.1977916996
 30
0.0
 11
55.8949778294
 21
168.1977916996
 31
0.0
  0
LINE
  5
410
330
1B
100
AcDbEntity
 67
     1
  8
3_ALL_AXES
  6
Continuous
 62
     7
100
AcDbLine
 10
50.1299778294
 20
165.9977916996
 30
0.0
 11
50.1299778294
 21
166.3777916996
 31
0.0
  0
LINE
  5
411
330
1B
100
AcDbEntity
 67
     1
  8
3_ALL_AXES
  6
Continuous
 62
     7
100
AcDbLine
 10
57.6799778294
 20
165.9977916996
 30
0.0
 11
57.7299778294
 21
165.9977916996
 31
0.0
  0
LINE
  5
412
330
1B
100
AcDbEntity
 67
     1
  8
3_ALL_AXES
  6
Continuous
 62
     7
100
AcDbLine
 10
51.9299778294
 20
164.3477916996
 30
0.0
 11
51.9299778294
 21
164.9977916996
 31
0.0
  0
ARC
  5
413
330
1B
100
AcDbEntity
 67
     1
  8
3_ALL_AXES
  6
Continuous
 62
     7
100
AcDbCircle
 10
54.0724206267
 20
164.5251516079
 30
0.0
 40
4.1
100
AcDbArc
 50
26.8633031301
 51
63.6069742257
  0
LINE
  5
414
330
1B
100
AcDbEntity
 67
     1
  8
3_ALL_AXES
  6
Continuous
 62
     7
100
AcDbLine
 10
57.7299778294
 20
165.9977916996
 30
0.0
 11
57.7299778294
 21
166.3777916996
 31
0.0
  0
LINE
  5
415
330
1B
100
AcDbEntity
 67
     1
  8
3_ALL_AXES
  6
Continuous
 62
     7
100
AcDbLine
 10
55.9299778294
 20
164.3477916996
 30
0.0
 11
55.9299778294
 21
164.9977916996
 31
0.0
  0
LINE
  5
416
330
1B
100
AcDbEntity
 67
     1
  8
3_ALL_AXES
  6
Continuous
 62
     7
100
AcDbLine
 10
50.1299778294
 20
166.3777916996
 30
0.0
 11
57.7299778294
 21
166.3777916996
 31
0.0
  0
ARC
  5
417
330
1B
100
AcDbEntity
 67
     1
  8
3_ALL_AXES
  6
Continuous
 62
     7
100
AcDbCircle
 10
298.787535032
 20
164.5251516079
 30
0.0
 40
4.1
100
AcDbArc
 50
116.3930257743
 51
118.8426038473
  0
ARC
  5
418
330
1B
100
AcDbEntity
 67
     1
  8
3_ALL_AXES
  6
Continuous
 62
     7
100
AcDbCircle
 10
298.787535032
 20
164.5251516079
 30
0.0
 40
4.1
100
AcDbArc
 50
118.8426038473
 51
150.6871187969
  0
ARC
  5
419
330
1B
100
AcDbEntity
 67
     1
  8
3_ALL_AXES
  6
Continuous
 62
     7
100
AcDbCircle
 10
298.787535032
 20
164.5251516079
 30
0.0
 40
4.1
100
AcDbArc
 50
150.6871187969
 51
153.1366968699
  0
ARC
  5
41A
330
1B
100
AcDbEntity
 67
     1
  8
3_ALL_AXES
  6
Continuous
 62
     7
100
AcDbCircle
 10
299.0724206267
 20
164.5251516079
 30
0.0
 40
4.1
100
AcDbArc
 50
26.8633031301
 51
63.6069742257
  0
LINE
  5
41B
330
1B
100
AcDbEntity
 67
     1
  8
3_ALL_AXES
  6
Continuous
 62
     7
100
AcDbLine
 10
295.1299778294
 20
166.3777916996
 30
0.0
 11
295.1299778294
 21
165.9977916996
 31
0.0
  0
LINE
  5
41C
330
1B
100
AcDbEntity
 67
     1
  8
3_ALL_AXES
  6
Continuous
 62
     7
100
AcDbLine
 10
302.7299778294
 20
166.3777916996
 30
0.0
 11
302.7299778294
 21
165.9977916996
 31
0.0
  0
LINE
  5
41D
330
1B
100
AcDbEntity
 67
     1
  8
7_ALL_FEATURES
  6
Continuous
 62
     7
100
AcDbLine
 10
296.9299778294
 20
164.9977916996
 30
0.0
 11
296.9299778294
 21
164.3477916996
 31
0.0
  0
LINE
  5
41E
330
1B
100
AcDbEntity
 67
     1
  8
7_ALL_FEATURES
  6
Continuous
 62
     7
100
AcDbLine
 10
300.9299778294
 20
164.9977916996
 30
0.0
 11
300.9299778294
 21
164.3477916996
 31
0.0
  0
ARC
  5
41F
330
1B
100
AcDbEntity
 67
     1
  8
3_ALL_AXES
  6
Continuous
 62
     7
100
AcDbCircle
 10
298.787535032
 20
164.5251516079
 30
0.0
 40
4.1
100
AcDbArc
 50
150.6871187969
 51
153.1366968699
  0
ARC
  5
420
330
1B
100
AcDbEntity
 67
     1
  8
3_ALL_AXES
  6
Continuous
 62
     7
100
AcDbCircle
 10
298.787535032
 20
164.5251516079
 30
0.0
 40
4.1
100
AcDbArc
 50
118.8426038473
 51
150.6871187969
  0
ARC
  5
421
330
1B
100
AcDbEntity
 67
     1
  8
3_ALL_AXES
  6
Continuous
 62
     7
100
AcDbCircle
 10
298.787535032
 20
164.5251516079
 30
0.0
 40
4.1
100
AcDbArc
 50
116.3930257743
 51
118.8426038473
  0
LINE
  5
422
330
1B
100
AcDbEntity
 67
     1
  8
3_ALL_AXES
  6
Continuous
 62
     7
100
AcDbLine
 10
296.9649778294
 20
168.1977916996
 30
0.0
 11
297.4866021564
 21
168.1977916996
 31
0.0
  0
LINE
  5
423
330
1B
100
AcDbEntity
 67
     1
  8
3_ALL_AXES
  6
Continuous
 62
     7
100
AcDbLine
 10
297.4866021564
 20
168.1977916996
 30
0.0
 11
298.2082899929
 21
168.1977916996
 31
0.0
  0
LINE
  5
424
330
1B
100
AcDbEntity
 67
     1
  8
3_ALL_AXES
  6
Continuous
 62
     7
100
AcDbLine
 10
298.2082899929
 20
168.1977916996
 30
0.0
 11
299.6516656659
 21
168.1977916996
 31
0.0
  0
LINE
  5
425
330
1B
100
AcDbEntity
 67
     1
  8
3_ALL_AXES
  6
Continuous
 62
     7
100
AcDbLine
 10
299.6516656659
 20
168.1977916996
 30
0.0
 11
300.3733535024
 21
168.1977916996
 31
0.0
  0
LINE
  5
426
330
1B
100
AcDbEntity
 67
     1
  8
3_ALL_AXES
  6
Continuous
 62
     7
100
AcDbLine
 10
300.3733535024
 20
168.1977916996
 30
0.0
 11
300.8949778294
 21
168.1977916996
 31
0.0
  0
LINE
  5
427
330
1B
100
AcDbEntity
 67
     1
  8
3_ALL_AXES
  6
Continuous
 62
     7
100
AcDbLine
 10
295.1299778294
 20
165.9977916996
 30
0.0
 11
295.1299778294
 21
166.3777916996
 31
0.0
  0
LINE
  5
428
330
1B
100
AcDbEntity
 67
     1
  8
3_ALL_AXES
  6
Continuous
 62
     7
100
AcDbLine
 10
295.1299778294
 20
165.9977916996
 30
0.0
 11
295.1799778294
 21
165.9977916996
 31
0.0
  0
LINE
  5
429
330
1B
100
AcDbEntity
 67
     1
  8
3_ALL_AXES
  6
Continuous
 62
     7
100
AcDbLine
 10
296.9299778294
 20
164.3477916996
 30
0.0
 11
296.9299778294
 21
164.9977916996
 31
0.0
  0
ARC
  5
42A
330
1B
100
AcDbEntity
 67
     1
  8
3_ALL_AXES
  6
Continuous
 62
     7
100
AcDbCircle
 10
299.0724206267
 20
164.5251516079
 30
0.0
 40
4.1
100
AcDbArc
 50
26.8633031301
 51
63.6069742257
  0
LINE
  5
42B
330
1B
100
AcDbEntity
 67
     1
  8
3_ALL_AXES
  6
Continuous
 62
     7
100
AcDbLine
 10
302.7299778294
 20
165.9977916996
 30
0.0
 11
302.7299778294
 21
166.3777916996
 31
0.0
  0
LINE
  5
42C
330
1B
100
AcDbEntity
 67
     1
  8
3_ALL_AXES
  6
Continuous
 62
     7
100
AcDbLine
 10
300.9299778294
 20
164.3477916996
 30
0.0
 11
300.9299778294
 21
164.9977916996
 31
0.0
  0
LINE
  5
42D
330
1B
100
AcDbEntity
 67
     1
  8
3_ALL_AXES
  6
Continuous
 62
     7
100
AcDbLine
 10
295.1299778294
 20
166.3777916996
 30
0.0
 11
302.7299778294
 21
166.3777916996
 31
0.0
  0
ARC
  5
42E
330
1B
100
AcDbEntity
 67
     1
  8
3_ALL_AXES
  6
Continuous
 62
     7
100
AcDbCircle
 10
299.0724206267
 20
123.7704317913
 30
0.0
 40
4.1
100
AcDbArc
 50
296.3930257743
 51
298.8426038472999
  0
ARC
  5
42F
330
1B
100
AcDbEntity
 67
     1
  8
3_ALL_AXES
  6
Continuous
 62
     7
100
AcDbCircle
 10
299.0724206267
 20
123.7704317913
 30
0.0
 40
4.1
100
AcDbArc
 50
298.8426038472999
 51
330.6871187969
  0
ARC
  5
430
330
1B
100
AcDbEntity
 67
     1
  8
3_ALL_AXES
  6
Continuous
 62
     7
100
AcDbCircle
 10
299.0724206267
 20
123.7704317913
 30
0.0
 40
4.1
100
AcDbArc
 50
330.6871187969
 51
333.1366968699
  0
ARC
  5
431
330
1B
100
AcDbEntity
 67
     1
  8
3_ALL_AXES
  6
Continuous
 62
     7
100
AcDbCircle
 10
298.787535032
 20
123.7704317913
 30
0.0
 40
4.1
100
AcDbArc
 50
206.8633031301
 51
243.6069742257
  0
LINE
  5
432
330
1B
100
AcDbEntity
 67
     1
  8
3_ALL_AXES
  6
Continuous
 62
     7
100
AcDbLine
 10
302.7299778294
 20
121.9177916996
 30
0.0
 11
302.7299778294
 21
122.2977916996
 31
0.0
  0
LINE
  5
433
330
1B
100
AcDbEntity
 67
     1
  8
3_ALL_AXES
  6
Continuous
 62
     7
100
AcDbLine
 10
295.1299778294
 20
121.9177916996
 30
0.0
 11
295.1299778294
 21
122.2977916996
 31
0.0
  0
LINE
  5
434
330
1B
100
AcDbEntity
 67
     1
  8
7_ALL_FEATURES
  6
Continuous
 62
     7
100
AcDbLine
 10
300.9299778294
 20
123.2977916996
 30
0.0
 11
300.9299778294
 21
123.9477916996
 31
0.0
  0
LINE
  5
435
330
1B
100
AcDbEntity
 67
     1
  8
7_ALL_FEATURES
  6
Continuous
 62
     7
100
AcDbLine
 10
296.9299778294
 20
123.2977916996
 30
0.0
 11
296.9299778294
 21
123.9477916996
 31
0.0
  0
ARC
  5
436
330
1B
100
AcDbEntity
 67
     1
  8
3_ALL_AXES
  6
Continuous
 62
     7
100
AcDbCircle
 10
299.0724206267
 20
123.7704317913
 30
0.0
 40
4.1
100
AcDbArc
 50
330.6871187969
 51
333.1366968699
  0
ARC
  5
437
330
1B
100
AcDbEntity
 67
     1
  8
3_ALL_AXES
  6
Continuous
 62
     7
100
AcDbCircle
 10
299.0724206267
 20
123.7704317913
 30
0.0
 40
4.1
100
AcDbArc
 50
298.8426038472999
 51
330.6871187969
  0
ARC
  5
438
330
1B
100
AcDbEntity
 67
     1
  8
3_ALL_AXES
  6
Continuous
 62
     7
100
AcDbCircle
 10
299.0724206267
 20
123.7704317913
 30
0.0
 40
4.1
100
AcDbArc
 50
296.3930257743
 51
298.8426038472999
  0
LINE
  5
439
330
1B
100
AcDbEntity
 67
     1
  8
3_ALL_AXES
  6
Continuous
 62
     7
100
AcDbLine
 10
300.8949778294
 20
120.0977916996
 30
0.0
 11
300.3733535024
 21
120.0977916996
 31
0.0
  0
LINE
  5
43A
330
1B
100
AcDbEntity
 67
     1
  8
3_ALL_AXES
  6
Continuous
 62
     7
100
AcDbLine
 10
300.3733535024
 20
120.0977916996
 30
0.0
 11
299.6516656659
 21
120.0977916996
 31
0.0
  0
LINE
  5
43B
330
1B
100
AcDbEntity
 67
     1
  8
3_ALL_AXES
  6
Continuous
 62
     7
100
AcDbLine
 10
299.6516656659
 20
120.0977916996
 30
0.0
 11
298.2082899929
 21
120.0977916996
 31
0.0
  0
LINE
  5
43C
330
1B
100
AcDbEntity
 67
     1
  8
3_ALL_AXES
  6
Continuous
 62
     7
100
AcDbLine
 10
298.2082899929
 20
120.0977916996
 30
0.0
 11
297.4866021564
 21
120.0977916996
 31
0.0
  0
LINE
  5
43D
330
1B
100
AcDbEntity
 67
     1
  8
3_ALL_AXES
  6
Continuous
 62
     7
100
AcDbLine
 10
297.4866021564
 20
120.0977916996
 30
0.0
 11
296.9649778294
 21
120.0977916996
 31
0.0
  0
LINE
  5
43E
330
1B
100
AcDbEntity
 67
     1
  8
3_ALL_AXES
  6
Continuous
 62
     7
100
AcDbLine
 10
302.7299778294
 20
122.2977916996
 30
0.0
 11
302.7299778294
 21
121.9177916996
 31
0.0
  0
LINE
  5
43F
330
1B
100
AcDbEntity
 67
     1
  8
3_ALL_AXES
  6
Continuous
 62
     7
100
AcDbLine
 10
295.1799778294
 20
122.2977916996
 30
0.0
 11
295.1299778294
 21
122.2977916996
 31
0.0
  0
LINE
  5
440
330
1B
100
AcDbEntity
 67
     1
  8
3_ALL_AXES
  6
Continuous
 62
     7
100
AcDbLine
 10
300.9299778294
 20
123.9477916996
 30
0.0
 11
300.9299778294
 21
123.2977916996
 31
0.0
  0
ARC
  5
441
330
1B
100
AcDbEntity
 67
     1
  8
3_ALL_AXES
  6
Continuous
 62
     7
100
AcDbCircle
 10
298.787535032
 20
123.7704317913
 30
0.0
 40
4.1
100
AcDbArc
 50
206.8633031301
 51
243.6069742257
  0
LINE
  5
442
330
1B
100
AcDbEntity
 67
     1
  8
3_ALL_AXES
  6
Continuous
 62
     7
100
AcDbLine
 10
295.1299778294
 20
122.2977916996
 30
0.0
 11
295.1299778294
 21
121.9177916996
 31
0.0
  0
LINE
  5
443
330
1B
100
AcDbEntity
 67
     1
  8
3_ALL_AXES
  6
Continuous
 62
     7
100
AcDbLine
 10
296.9299778294
 20
123.9477916996
 30
0.0
 11
296.9299778294
 21
123.2977916996
 31
0.0
  0
LINE
  5
444
330
1B
100
AcDbEntity
 67
     1
  8
3_ALL_AXES
  6
Continuous
 62
     7
100
AcDbLine
 10
302.7299778294
 20
121.9177916996
 30
0.0
 11
295.1299778294
 21
121.9177916996
 31
0.0
  0
LINE
  5
445
330
1B
100
AcDbEntity
 67
     1
  8
7_ALL_FEATURES
  6
Continuous
 62
     7
100
AcDbLine
 10
57.6799778294
 20
123.2977916996
 30
0.0
 11
57.6799778294
 21
122.2977916996
 31
0.0
  0
LINE
  5
446
330
1B
100
AcDbEntity
 67
     1
  8
7_ALL_FEATURES
  6
Continuous
 62
     7
100
AcDbLine
 10
57.6799778294
 20
164.9977916996
 30
0.0
 11
57.6799778294
 21
165.9977916996
 31
0.0
  0
LINE
  5
447
330
1B
100
AcDbEntity
 67
     1
  8
7_ALL_FEATURES
  6
Continuous
 62
     7
100
AcDbLine
 10
56.6799778294
 20
122.2977916996
 30
0.0
 11
47.1799778294
 21
122.2977916996
 31
0.0
  0
ARC
  5
448
330
1B
100
AcDbEntity
 67
     1
  8
7_ALL_FEATURES
  6
Continuous
 62
     7
100
AcDbCircle
 10
47.1799778294
 20
124.2977916996
 30
0.0
 40
2.0
100
AcDbArc
 50
190.0792345963
 51
193.9331436567
  0
ARC
  5
449
330
1B
100
AcDbEntity
 67
     1
  8
7_ALL_FEATURES
  6
Continuous
 62
     7
100
AcDbCircle
 10
47.1799778294
 20
124.2977916996
 30
0.0
 40
2.0
100
AcDbArc
 50
193.9331436567
 51
270.0
  0
LINE
  5
44A
330
1B
100
AcDbEntity
 67
     1
  8
7_ALL_FEATURES
  6
Continuous
 62
     7
100
AcDbLine
 10
56.6799778294
 20
165.9977916996
 30
0.0
 11
57.6799778294
 21
165.9977916996
 31
0.0
  0
LINE
  5
44B
330
1B
100
AcDbEntity
 67
     1
  8
7_ALL_FEATURES
  6
Continuous
 62
     7
100
AcDbLine
 10
47.1799778294
 20
165.9977916996
 30
0.0
 11
56.6799778294
 21
165.9977916996
 31
0.0
  0
ARC
  5
44C
330
1B
100
AcDbEntity
 67
     1
  8
7_ALL_FEATURES
  6
Continuous
 62
     7
100
AcDbCircle
 10
47.1799778294
 20
163.9977916996
 30
0.0
 40
2.0
100
AcDbArc
 50
90.0
 51
166.0668563433
  0
ARC
  5
44D
330
1B
100
AcDbEntity
 67
     1
  8
7_ALL_FEATURES
  6
Continuous
 62
     7
100
AcDbCircle
 10
47.1799778294
 20
163.9977916996
 30
0.0
 40
2.0
100
AcDbArc
 50
166.0668563433
 51
169.9207654037
  0
LINE
  5
44E
330
1B
100
AcDbEntity
 67
     1
  8
7_ALL_FEATURES
  6
Continuous
 62
     7
100
AcDbLine
 10
45.1799778294
 20
123.9477916996
 30
0.0
 11
46.1799778294
 21
123.9477916996
 31
0.0
  0
LINE
  5
44F
330
1B
100
AcDbEntity
 67
     1
  8
7_ALL_FEATURES
  6
Continuous
 62
     7
100
AcDbLine
 10
45.1799778294
 20
164.3477916996
 30
0.0
 11
46.1799778294
 21
164.3477916996
 31
0.0
  0
LINE
  5
450
330
1B
100
AcDbEntity
 67
     1
  8
7_ALL_FEATURES
  6
Continuous
 62
     7
100
AcDbLine
 10
45.1799778294
 20
163.8477916996
 30
0.0
 11
45.1799778294
 21
164.3477916996
 31
0.0
  0
LINE
  5
451
330
1B
100
AcDbEntity
 67
     1
  8
7_ALL_FEATURES
  6
Continuous
 62
     7
100
AcDbLine
 10
45.1799778294
 20
163.8477916996
 30
0.0
 11
45.1799778294
 21
124.4477916996
 31
0.0
  0
LINE
  5
452
330
1B
100
AcDbEntity
 67
     1
  8
7_ALL_FEATURES
  6
Continuous
 62
     7
100
AcDbLine
 10
45.1799778294
 20
123.9477916996
 30
0.0
 11
45.1799778294
 21
124.4477916996
 31
0.0
  0
LINE
  5
453
330
1B
100
AcDbEntity
 67
     1
  8
7_ALL_FEATURES
  6
Continuous
 62
     7
100
AcDbLine
 10
57.6799778294
 20
123.2977916996
 30
0.0
 11
57.6799778294
 21
122.2977916996
 31
0.0
  0
LINE
  5
454
330
1B
100
AcDbEntity
 67
     1
  8
7_ALL_FEATURES
  6
Continuous
 62
     7
100
AcDbLine
 10
57.6799778294
 20
122.2977916996
 30
0.0
 11
56.6799778294
 21
122.2977916996
 31
0.0
  0
LINE
  5
455
330
1B
100
AcDbEntity
 67
     1
  8
7_ALL_FEATURES
  6
Continuous
 62
     7
100
AcDbLine
 10
45.1799778294
 20
164.3477916996
 30
0.0
 11
46.1799778294
 21
164.3477916996
 31
0.0
  0
LINE
  5
456
330
1B
100
AcDbEntity
 67
     1
  8
7_ALL_FEATURES
  6
Continuous
 62
     9
100
AcDbLine
 10
45.2388231185
 20
164.479370757
 30
0.0
 11
45.7691935803
 21
164.3477916996
 31
0.0
  0
LINE
  5
457
330
1B
100
AcDbEntity
 67
     1
  8
7_ALL_FEATURES
  6
Continuous
 62
     9
100
AcDbLine
 10
47.1799778294
 20
165.9977916996
 30
0.0
 11
47.1799778294
 21
164.9977916996
 31
0.0
  0
LINE
  5
458
330
1B
100
AcDbEntity
 67
     1
  8
7_ALL_FEATURES
  6
Continuous
 62
     9
100
AcDbLine
 10
45.1799778294
 20
124.4477916996
 30
0.0
 11
46.1799778294
 21
124.4477916996
 31
0.0
  0
LINE
  5
459
330
1B
100
AcDbEntity
 67
     1
  8
7_ALL_FEATURES
  6
Continuous
 62
     9
100
AcDbLine
 10
45.1799778294
 20
163.8477916996
 30
0.0
 11
46.1799778294
 21
163.8477916996
 31
0.0
  0
LINE
  5
45A
330
1B
100
AcDbEntity
 67
     1
  8
7_ALL_FEATURES
  6
Continuous
 62
     9
100
AcDbLine
 10
56.6799778294
 20
123.2977916996
 30
0.0
 11
56.6799778294
 21
122.2977916996
 31
0.0
  0
LINE
  5
45B
330
1B
100
AcDbEntity
 67
     1
  8
7_ALL_FEATURES
  6
Continuous
 62
     9
100
AcDbLine
 10
47.1799778294
 20
122.2977916996
 30
0.0
 11
47.1799778294
 21
123.2977916996
 31
0.0
  0
LINE
  5
45C
330
1B
100
AcDbEntity
 67
     1
  8
7_ALL_FEATURES
  6
Continuous
 62
     9
100
AcDbLine
 10
45.2388231185
 20
123.8162126423
 30
0.0
 11
45.7691935803
 21
123.9477916996
 31
0.0
  0
LINE
  5
45D
330
1B
100
AcDbEntity
 67
     1
  8
7_ALL_FEATURES
  6
Continuous
 62
     9
100
AcDbLine
 10
56.6799778294
 20
164.9977916996
 30
0.0
 11
56.6799778294
 21
165.9977916996
 31
0.0
  0
LINE
  5
45E
330
1B
100
AcDbEntity
 67
     1
  8
7_ALL_FEATURES
  6
Continuous
 62
     7
100
AcDbLine
 10
295.1799778294
 20
164.9977916996
 30
0.0
 11
295.1799778294
 21
165.9977916996
 31
0.0
  0
LINE
  5
45F
330
1B
100
AcDbEntity
 67
     1
  8
7_ALL_FEATURES
  6
Continuous
 62
     7
100
AcDbLine
 10
295.1799778294
 20
123.2977916996
 30
0.0
 11
295.1799778294
 21
122.2977916996
 31
0.0
  0
LINE
  5
460
330
1B
100
AcDbEntity
 67
     1
  8
7_ALL_FEATURES
  6
Continuous
 62
     7
100
AcDbLine
 10
296.1799778294
 20
165.9977916996
 30
0.0
 11
305.6799778294
 21
165.9977916996
 31
0.0
  0
ARC
  5
461
330
1B
100
AcDbEntity
 67
     1
  8
7_ALL_FEATURES
  6
Continuous
 62
     7
100
AcDbCircle
 10
305.6799778294
 20
163.9977916996
 30
0.0
 40
2.0
100
AcDbArc
 50
10.0792345963
 51
13.9331436567
  0
ARC
  5
462
330
1B
100
AcDbEntity
 67
     1
  8
7_ALL_FEATURES
  6
Continuous
 62
     7
100
AcDbCircle
 10
305.6799778294
 20
163.9977916996
 30
0.0
 40
2.0
100
AcDbArc
 50
13.9331436567
 51
90.0
  0
LINE
  5
463
330
1B
100
AcDbEntity
 67
     1
  8
7_ALL_FEATURES
  6
Continuous
 62
     7
100
AcDbLine
 10
296.1799778294
 20
122.2977916996
 30
0.0
 11
295.1799778294
 21
122.2977916996
 31
0.0
  0
LINE
  5
464
330
1B
100
AcDbEntity
 67
     1
  8
7_ALL_FEATURES
  6
Continuous
 62
     7
100
AcDbLine
 10
305.6799778294
 20
122.2977916996
 30
0.0
 11
296.1799778294
 21
122.2977916996
 31
0.0
  0
ARC
  5
465
330
1B
100
AcDbEntity
 67
     1
  8
7_ALL_FEATURES
  6
Continuous
 62
     7
100
AcDbCircle
 10
305.6799778294
 20
124.2977916996
 30
0.0
 40
2.0
100
AcDbArc
 50
270.0
 51
346.0668563433
  0
ARC
  5
466
330
1B
100
AcDbEntity
 67
     1
  8
7_ALL_FEATURES
  6
Continuous
 62
     7
100
AcDbCircle
 10
305.6799778294
 20
124.2977916996
 30
0.0
 40
2.0
100
AcDbArc
 50
346.0668563433
 51
349.9207654037
  0
LINE
  5
467
330
1B
100
AcDbEntity
 67
     1
  8
7_ALL_FEATURES
  6
Continuous
 62
     7
100
AcDbLine
 10
307.6799778294
 20
164.3477916996
 30
0.0
 11
306.6799778294
 21
164.3477916996
 31
0.0
  0
LINE
  5
468
330
1B
100
AcDbEntity
 67
     1
  8
7_ALL_FEATURES
  6
Continuous
 62
     7
100
AcDbLine
 10
307.6799778294
 20
123.9477916996
 30
0.0
 11
306.6799778294
 21
123.9477916996
 31
0.0
  0
LINE
  5
469
330
1B
100
AcDbEntity
 67
     1
  8
7_ALL_FEATURES
  6
Continuous
 62
     7
100
AcDbLine
 10
307.6799778294
 20
124.4477916996
 30
0.0
 11
307.6799778294
 21
123.9477916996
 31
0.0
  0
LINE
  5
46A
330
1B
100
AcDbEntity
 67
     1
  8
7_ALL_FEATURES
  6
Continuous
 62
     7
100
AcDbLine
 10
307.6799778294
 20
124.4477916996
 30
0.0
 11
307.6799778294
 21
163.8477916996
 31
0.0
  0
LINE
  5
46B
330
1B
100
AcDbEntity
 67
     1
  8
7_ALL_FEATURES
  6
Continuous
 62
     7
100
AcDbLine
 10
307.6799778294
 20
164.3477916996
 30
0.0
 11
307.6799778294
 21
163.8477916996
 31
0.0
  0
LINE
  5
46C
330
1B
100
AcDbEntity
 67
     1
  8
7_ALL_FEATURES
  6
Continuous
 62
     7
100
AcDbLine
 10
295.1799778294
 20
164.9977916996
 30
0.0
 11
295.1799778294
 21
165.9977916996
 31
0.0
  0
LINE
  5
46D
330
1B
100
AcDbEntity
 67
     1
  8
7_ALL_FEATURES
  6
Continuous
 62
     7
100
AcDbLine
 10
295.1799778294
 20
165.9977916996
 30
0.0
 11
296.1799778294
 21
165.9977916996
 31
0.0
  0
LINE
  5
46E
330
1B
100
AcDbEntity
 67
     1
  8
7_ALL_FEATURES
  6
Continuous
 62
     7
100
AcDbLine
 10
307.6799778294
 20
123.9477916996
 30
0.0
 11
306.6799778294
 21
123.9477916996
 31
0.0
  0
LINE
  5
46F
330
1B
100
AcDbEntity
 67
     1
  8
7_ALL_FEATURES
  6
Continuous
 62
     9
100
AcDbLine
 10
307.6211325403
 20
123.8162126423
 30
0.0
 11
307.0907620785
 21
123.9477916996
 31
0.0
  0
LINE
  5
470
330
1B
100
AcDbEntity
 67
     1
  8
7_ALL_FEATURES
  6
Continuous
 62
     9
100
AcDbLine
 10
305.6799778294
 20
122.2977916996
 30
0.0
 11
305.6799778294
 21
123.2977916996
 31
0.0
  0
LINE
  5
471
330
1B
100
AcDbEntity
 67
     1
  8
7_ALL_FEATURES
  6
Continuous
 62
     9
100
AcDbLine
 10
307.6799778294
 20
163.8477916996
 30
0.0
 11
306.6799778294
 21
163.8477916996
 31
0.0
  0
LINE
  5
472
330
1B
100
AcDbEntity
 67
     1
  8
7_ALL_FEATURES
  6
Continuous
 62
     9
100
AcDbLine
 10
307.6799778294
 20
124.4477916996
 30
0.0
 11
306.6799778294
 21
124.4477916996
 31
0.0
  0
LINE
  5
473
330
1B
100
AcDbEntity
 67
     1
  8
7_ALL_FEATURES
  6
Continuous
 62
     9
100
AcDbLine
 10
296.1799778294
 20
164.9977916996
 30
0.0
 11
296.1799778294
 21
165.9977916996
 31
0.0
  0
LINE
  5
474
330
1B
100
AcDbEntity
 67
     1
  8
7_ALL_FEATURES
  6
Continuous
 62
     9
100
AcDbLine
 10
305.6799778294
 20
165.9977916996
 30
0.0
 11
305.6799778294
 21
164.9977916996
 31
0.0
  0
LINE
  5
475
330
1B
100
AcDbEntity
 67
     1
  8
7_ALL_FEATURES
  6
Continuous
 62
     9
100
AcDbLine
 10
307.6211325403
 20
164.479370757
 30
0.0
 11
307.0907620785
 21
164.3477916996
 31
0.0
  0
LINE
  5
476
330
1B
100
AcDbEntity
 67
     1
  8
7_ALL_FEATURES
  6
Continuous
 62
     9
100
AcDbLine
 10
296.1799778294
 20
123.2977916996
 30
0.0
 11
296.1799778294
 21
122.2977916996
 31
0.0
  0
LINE
  5
477
330
1B
100
AcDbEntity
 67
     1
  8
7_ALL_FEATURES
  6
Continuous
 62
     7
100
AcDbLine
 10
306.6799778294
 20
123.9477916996
 30
0.0
 11
46.1799778294
 21
123.9477916996
 31
0.0
  0
LINE
  5
478
330
1B
100
AcDbEntity
 67
     1
  8
7_ALL_FEATURES
  6
Continuous
 62
     7
100
AcDbLine
 10
306.6799778294
 20
164.3477916996
 30
0.0
 11
46.1799778294
 21
164.3477916996
 31
0.0
  0
LINE
  5
479
330
1B
100
AcDbEntity
 67
     1
  8
7_ALL_FEATURES
  6
Continuous
 62
     7
100
AcDbLine
 10
46.1799778294
 20
163.1477916996
 30
0.0
 11
46.1799778294
 21
163.8477916996
 31
0.0
  0
LINE
  5
47A
330
1B
100
AcDbEntity
 67
     1
  8
7_ALL_FEATURES
  6
Continuous
 62
     7
100
AcDbLine
 10
46.1799778294
 20
163.8477916996
 30
0.0
 11
46.1799778294
 21
164.3477916996
 31
0.0
  0
LINE
  5
47B
330
1B
100
AcDbEntity
 67
     1
  8
7_ALL_FEATURES
  6
Continuous
 62
     7
100
AcDbLine
 10
306.6799778294
 20
163.1477916996
 30
0.0
 11
306.6799778294
 21
163.8477916996
 31
0.0
  0
LINE
  5
47C
330
1B
100
AcDbEntity
 67
     1
  8
7_ALL_FEATURES
  6
Continuous
 62
     7
100
AcDbLine
 10
306.6799778294
 20
163.8477916996
 30
0.0
 11
306.6799778294
 21
164.3477916996
 31
0.0
  0
LINE
  5
47D
330
1B
100
AcDbEntity
 67
     1
  8
7_ALL_FEATURES
  6
Continuous
 62
     7
100
AcDbLine
 10
46.1799778294
 20
123.9477916996
 30
0.0
 11
46.1799778294
 21
124.4477916996
 31
0.0
  0
LINE
  5
47E
330
1B
100
AcDbEntity
 67
     1
  8
7_ALL_FEATURES
  6
Continuous
 62
     7
100
AcDbLine
 10
46.1799778294
 20
124.4477916996
 30
0.0
 11
46.1799778294
 21
125.1477916996
 31
0.0
  0
LINE
  5
47F
330
1B
100
AcDbEntity
 67
     1
  8
7_ALL_FEATURES
  6
Continuous
 62
     7
100
AcDbLine
 10
306.6799778294
 20
123.9477916996
 30
0.0
 11
306.6799778294
 21
124.4477916996
 31
0.0
  0
LINE
  5
480
330
1B
100
AcDbEntity
 67
     1
  8
7_ALL_FEATURES
  6
Continuous
 62
     7
100
AcDbLine
 10
306.6799778294
 20
124.4477916996
 30
0.0
 11
306.6799778294
 21
125.1477916996
 31
0.0
  0
LINE
  5
481
330
1B
100
AcDbEntity
 67
     1
  8
7_ALL_FEATURES
  6
Continuous
 62
     3
100
AcDbLine
 10
46.1799778294
 20
163.8477916996
 30
0.0
 11
46.1799778294
 21
163.1477916996
 31
0.0
  0
LINE
  5
482
330
1B
100
AcDbEntity
 67
     1
  8
7_ALL_FEATURES
  6
Continuous
 62
     3
100
AcDbLine
 10
46.1799778294
 20
163.1477916996
 30
0.0
 11
46.1799778294
 21
125.1477916996
 31
0.0
  0
LINE
  5
483
330
1B
100
AcDbEntity
 67
     1
  8
7_ALL_FEATURES
  6
Continuous
 62
     3
100
AcDbLine
 10
46.1799778294
 20
125.1477916996
 30
0.0
 11
46.1799778294
 21
124.4477916996
 31
0.0
  0
LINE
  5
484
330
1B
100
AcDbEntity
 67
     1
  8
7_ALL_FEATURES
  6
Continuous
 62
     3
100
AcDbLine
 10
56.6799778294
 20
123.2977916996
 30
0.0
 11
57.6799778294
 21
123.2977916996
 31
0.0
  0
LINE
  5
485
330
1B
100
AcDbEntity
 67
     1
  8
7_ALL_FEATURES
  6
Continuous
 62
     3
100
AcDbLine
 10
56.6799778294
 20
123.2977916996
 30
0.0
 11
47.1799778294
 21
123.2977916996
 31
0.0
  0
ARC
  5
486
330
1B
100
AcDbEntity
 67
     1
  8
7_ALL_FEATURES
  6
Continuous
 62
     3
100
AcDbCircle
 10
47.1799778294
 20
124.2977916996
 30
0.0
 40
1.0
100
AcDbArc
 50
200.489042011
 51
270.0
  0
LINE
  5
487
330
1B
100
AcDbEntity
 67
     1
  8
7_ALL_FEATURES
  6
Continuous
 62
     3
100
AcDbLine
 10
57.6799778294
 20
164.9977916996
 30
0.0
 11
56.6799778294
 21
164.9977916996
 31
0.0
  0
LINE
  5
488
330
1B
100
AcDbEntity
 67
     1
  8
7_ALL_FEATURES
  6
Continuous
 62
     3
100
AcDbLine
 10
47.1799778294
 20
164.9977916996
 30
0.0
 11
56.6799778294
 21
164.9977916996
 31
0.0
  0
ARC
  5
489
330
1B
100
AcDbEntity
 67
     1
  8
7_ALL_FEATURES
  6
Continuous
 62
     3
100
AcDbCircle
 10
47.1799778294
 20
163.9977916996
 30
0.0
 40
1.0
100
AcDbArc
 50
90.0
 51
159.510957989
  0
LINE
  5
48A
330
1B
100
AcDbEntity
 67
     1
  8
7_ALL_FEATURES
  6
Continuous
 62
     3
100
AcDbLine
 10
306.6799778294
 20
124.4477916996
 30
0.0
 11
306.6799778294
 21
125.1477916996
 31
0.0
  0
LINE
  5
48B
330
1B
100
AcDbEntity
 67
     1
  8
7_ALL_FEATURES
  6
Continuous
 62
     3
100
AcDbLine
 10
306.6799778294
 20
125.1477916996
 30
0.0
 11
306.6799778294
 21
163.1477916996
 31
0.0
  0
LINE
  5
48C
330
1B
100
AcDbEntity
 67
     1
  8
7_ALL_FEATURES
  6
Continuous
 62
     3
100
AcDbLine
 10
306.6799778294
 20
163.1477916996
 30
0.0
 11
306.6799778294
 21
163.8477916996
 31
0.0
  0
LINE
  5
48D
330
1B
100
AcDbEntity
 67
     1
  8
7_ALL_FEATURES
  6
Continuous
 62
     3
100
AcDbLine
 10
296.1799778294
 20
164.9977916996
 30
0.0
 11
295.1799778294
 21
164.9977916996
 31
0.0
  0
LINE
  5
48E
330
1B
100
AcDbEntity
 67
     1
  8
7_ALL_FEATURES
  6
Continuous
 62
     3
100
AcDbLine
 10
296.1799778294
 20
164.9977916996
 30
0.0
 11
305.6799778294
 21
164.9977916996
 31
0.0
  0
ARC
  5
48F
330
1B
100
AcDbEntity
 67
     1
  8
7_ALL_FEATURES
  6
Continuous
 62
     3
100
AcDbCircle
 10
305.6799778294
 20
163.9977916996
 30
0.0
 40
1.0
100
AcDbArc
 50
20.489042011
 51
90.0
  0
LINE
  5
490
330
1B
100
AcDbEntity
 67
     1
  8
7_ALL_FEATURES
  6
Continuous
 62
     3
100
AcDbLine
 10
295.1799778294
 20
123.2977916996
 30
0.0
 11
296.1799778294
 21
123.2977916996
 31
0.0
  0
LINE
  5
491
330
1B
100
AcDbEntity
 67
     1
  8
7_ALL_FEATURES
  6
Continuous
 62
     3
100
AcDbLine
 10
305.6799778294
 20
123.2977916996
 30
0.0
 11
296.1799778294
 21
123.2977916996
 31
0.0
  0
ARC
  5
492
330
1B
100
AcDbEntity
 67
     1
  8
7_ALL_FEATURES
  6
Continuous
 62
     3
100
AcDbCircle
 10
305.6799778294
 20
124.2977916996
 30
0.0
 40
1.0
100
AcDbArc
 50
270.0
 51
339.510957989
  0
ARC
  5
493
330
1B
100
AcDbEntity
 67
     1
  8
02___PRT_ALL_AXES
  6
Continuous
 62
     3
100
AcDbCircle
 10
59.9299778294
 20
109.1477916996
 30
0.0
 40
3.25
100
AcDbArc
 50
180.0
 51
360.0
  0
ARC
  5
494
330
1B
100
AcDbEntity
 67
     1
  8
02___PRT_ALL_AXES
  6
Continuous
 62
     3
100
AcDbCircle
 10
59.9299778294
 20
109.1477916996
 30
0.0
 40
3.25
100
AcDbArc
 50
0.0
 51
180.0
  0
ARC
  5
495
330
1B
100
AcDbEntity
 67
     1
  8
02___PRT_ALL_AXES
  6
Continuous
 62
     3
100
AcDbCircle
 10
59.9299778294
 20
179.1477916996
 30
0.0
 40
3.25
100
AcDbArc
 50
180.0
 51
360.0
  0
ARC
  5
496
330
1B
100
AcDbEntity
 67
     1
  8
02___PRT_ALL_AXES
  6
Continuous
 62
     3
100
AcDbCircle
 10
59.9299778294
 20
179.1477916996
 30
0.0
 40
3.25
100
AcDbArc
 50
0.0
 51
180.0
  0
LINE
  5
497
330
1B
100
AcDbEntity
 67
     1
  8
02___PRT_ALL_AXES
  6
Continuous
 62
     3
100
AcDbLine
 10
73.1799778294
 20
106.1477916996
 30
0.0
 11
73.1799778294
 21
112.1477916996
 31
0.0
  0
ARC
  5
498
330
1B
100
AcDbEntity
 67
     1
  8
02___PRT_ALL_AXES
  6
Continuous
 62
     3
100
AcDbCircle
 10
76.4299778294
 20
106.1477916996
 30
0.0
 40
3.25
100
AcDbArc
 50
180.0
 51
360.0
  0
LINE
  5
499
330
1B
100
AcDbEntity
 67
     1
  8
02___PRT_ALL_AXES
  6
Continuous
 62
     3
100
AcDbLine
 10
79.6799778294
 20
112.1477916996
 30
0.0
 11
79.6799778294
 21
106.1477916996
 31
0.0
  0
ARC
  5
49A
330
1B
100
AcDbEntity
 67
     1
  8
02___PRT_ALL_AXES
  6
Continuous
 62
     3
100
AcDbCircle
 10
76.4299778294
 20
112.1477916996
 30
0.0
 40
3.25
100
AcDbArc
 50
0.0
 51
180.0
  0
ARC
  5
49B
330
1B
100
AcDbEntity
 67
     1
  8
02___PRT_ALL_AXES
  6
Continuous
 62
     3
100
AcDbCircle
 10
76.4299778294
 20
182.1477916996
 30
0.0
 40
3.25
100
AcDbArc
 50
0.0
 51
180.0
  0
LINE
  5
49C
330
1B
100
AcDbEntity
 67
     1
  8
02___PRT_ALL_AXES
  6
Continuous
 62
     3
100
AcDbLine
 10
73.1799778294
 20
176.1477916996
 30
0.0
 11
73.1799778294
 21
182.1477916996
 31
0.0
  0
ARC
  5
49D
330
1B
100
AcDbEntity
 67
     1
  8
02___PRT_ALL_AXES
  6
Continuous
 62
     3
100
AcDbCircle
 10
76.4299778294
 20
176.1477916996
 30
0.0
 40
3.25
100
AcDbArc
 50
180.0
 51
360.0
  0
LINE
  5
49E
330
1B
100
AcDbEntity
 67
     1
  8
02___PRT_ALL_AXES
  6
Continuous
 62
     3
100
AcDbLine
 10
79.6799778294
 20
182.1477916996
 30
0.0
 11
79.6799778294
 21
176.1477916996
 31
0.0
  0
ARC
  5
49F
330
1B
100
AcDbEntity
 67
     1
  8
02___PRT_ALL_AXES
  6
Continuous
 62
     3
100
AcDbCircle
 10
92.9299778294
 20
109.1477916996
 30
0.0
 40
3.25
100
AcDbArc
 50
180.0
 51
360.0
  0
ARC
  5
4A0
330
1B
100
AcDbEntity
 67
     1
  8
02___PRT_ALL_AXES
  6
Continuous
 62
     3
100
AcDbCircle
 10
92.9299778294
 20
109.1477916996
 30
0.0
 40
3.25
100
AcDbArc
 50
0.0
 51
180.0
  0
ARC
  5
4A1
330
1B
100
AcDbEntity
 67
     1
  8
02___PRT_ALL_AXES
  6
Continuous
 62
     3
100
AcDbCircle
 10
92.9299778294
 20
179.1477916996
 30
0.0
 40
3.25
100
AcDbArc
 50
180.0
 51
360.0
  0
ARC
  5
4A2
330
1B
100
AcDbEntity
 67
     1
  8
02___PRT_ALL_AXES
  6
Continuous
 62
     3
100
AcDbCircle
 10
92.9299778294
 20
179.1477916996
 30
0.0
 40
3.25
100
AcDbArc
 50
0.0
 51
180.0
  0
ARC
  5
4A3
330
1B
100
AcDbEntity
 67
     1
  8
7_ALL_FEATURES
  6
Continuous
 62
     3
100
AcDbCircle
 10
91.4299778294
 20
109.6477916996
 30
0.0
 40
10.0
100
AcDbArc
 50
270.0
 51
360.0
  0
LINE
  5
4A4
330
1B
100
AcDbEntity
 67
     1
  8
7_ALL_FEATURES
  6
Continuous
 62
     3
100
AcDbLine
 10
61.4299778294
 20
99.6477916996
 30
0.0
 11
91.4299778294
 21
99.6477916996
 31
0.0
  0
ARC
  5
4A5
330
1B
100
AcDbEntity
 67
     1
  8
7_ALL_FEATURES
  6
Continuous
 62
     3
100
AcDbCircle
 10
61.4299778294
 20
109.6477916996
 30
0.0
 40
10.0
100
AcDbArc
 50
180.0
 51
270.0
  0
LINE
  5
4A6
330
1B
100
AcDbEntity
 67
     1
  8
7_ALL_FEATURES
  6
Continuous
 62
     3
100
AcDbLine
 10
51.4299778294
 20
178.6477916996
 30
0.0
 11
51.4299778294
 21
167.8784110058
 31
0.0
  0
LINE
  5
4A7
330
1B
100
AcDbEntity
 67
     1
  8
7_ALL_FEATURES
  6
Continuous
 62
     3
100
AcDbLine
 10
51.4299778294
 20
164.9977916996
 30
0.0
 11
51.4299778294
 21
164.3477916996
 31
0.0
  0
LINE
  5
4A8
330
1B
100
AcDbEntity
 67
     1
  8
7_ALL_FEATURES
  6
Continuous
 62
     3
100
AcDbLine
 10
51.4299778294
 20
123.9477916996
 30
0.0
 11
51.4299778294
 21
123.2977916996
 31
0.0
  0
LINE
  5
4A9
330
1B
100
AcDbEntity
 67
     1
  8
7_ALL_FEATURES
  6
Continuous
 62
     3
100
AcDbLine
 10
51.4299778294
 20
120.4171723934
 30
0.0
 11
51.4299778294
 21
109.6477916996
 31
0.0
  0
ARC
  5
4AA
330
1B
100
AcDbEntity
 67
     1
  8
7_ALL_FEATURES
  6
Continuous
 62
     3
100
AcDbCircle
 10
61.4299778294
 20
178.6477916996
 30
0.0
 40
10.0
100
AcDbArc
 50
90.0
 51
180.0
  0
LINE
  5
4AB
330
1B
100
AcDbEntity
 67
     1
  8
7_ALL_FEATURES
  6
Continuous
 62
     3
100
AcDbLine
 10
91.4299778294
 20
188.6477916996
 30
0.0
 11
61.4299778294
 21
188.6477916996
 31
0.0
  0
ARC
  5
4AC
330
1B
100
AcDbEntity
 67
     1
  8
7_ALL_FEATURES
  6
Continuous
 62
     3
100
AcDbCircle
 10
91.4299778294
 20
178.6477916996
 30
0.0
 40
10.0
100
AcDbArc
 50
0.0
 51
90.0
  0
LINE
  5
4AD
330
1B
100
AcDbEntity
 67
     1
  8
7_ALL_FEATURES
  6
Continuous
 62
     3
100
AcDbLine
 10
101.4299778294
 20
109.6477916996
 30
0.0
 11
101.4299778294
 21
123.9477916996
 31
0.0
  0
LINE
  5
4AE
330
1B
100
AcDbEntity
 67
     1
  8
7_ALL_FEATURES
  6
Continuous
 62
     3
100
AcDbLine
 10
101.4299778294
 20
164.3477916996
 30
0.0
 11
101.4299778294
 21
178.6477916996
 31
0.0
  0
ARC
  5
4AF
330
1B
100
AcDbEntity
 67
     1
  8
02___PRT_ALL_AXES
  6
Continuous
 62
     3
100
AcDbCircle
 10
259.9299778294
 20
109.1477916996
 30
0.0
 40
3.25
100
AcDbArc
 50
180.0
 51
360.0
  0
ARC
  5
4B0
330
1B
100
AcDbEntity
 67
     1
  8
02___PRT_ALL_AXES
  6
Continuous
 62
     3
100
AcDbCircle
 10
259.9299778294
 20
109.1477916996
 30
0.0
 40
3.25
100
AcDbArc
 50
0.0
 51
180.0
  0
ARC
  5
4B1
330
1B
100
AcDbEntity
 67
     1
  8
02___PRT_ALL_AXES
  6
Continuous
 62
     3
100
AcDbCircle
 10
259.9299778294
 20
179.1477916996
 30
0.0
 40
3.25
100
AcDbArc
 50
180.0
 51
360.0
  0
ARC
  5
4B2
330
1B
100
AcDbEntity
 67
     1
  8
02___PRT_ALL_AXES
  6
Continuous
 62
     3
100
AcDbCircle
 10
259.9299778294
 20
179.1477916996
 30
0.0
 40
3.25
100
AcDbArc
 50
0.0
 51
180.0
  0
LINE
  5
4B3
330
1B
100
AcDbEntity
 67
     1
  8
02___PRT_ALL_AXES
  6
Continuous
 62
     3
100
AcDbLine
 10
273.1799778294
 20
106.1477916996
 30
0.0
 11
273.1799778294
 21
112.1477916996
 31
0.0
  0
ARC
  5
4B4
330
1B
100
AcDbEntity
 67
     1
  8
02___PRT_ALL_AXES
  6
Continuous
 62
     3
100
AcDbCircle
 10
276.4299778294
 20
106.1477916996
 30
0.0
 40
3.25
100
AcDbArc
 50
180.0
 51
360.0
  0
LINE
  5
4B5
330
1B
100
AcDbEntity
 67
     1
  8
02___PRT_ALL_AXES
  6
Continuous
 62
     3
100
AcDbLine
 10
279.6799778294
 20
112.1477916996
 30
0.0
 11
279.6799778294
 21
106.1477916996
 31
0.0
  0
ARC
  5
4B6
330
1B
100
AcDbEntity
 67
     1
  8
02___PRT_ALL_AXES
  6
Continuous
 62
     3
100
AcDbCircle
 10
276.4299778294
 20
112.1477916996
 30
0.0
 40
3.25
100
AcDbArc
 50
0.0
 51
180.0
  0
ARC
  5
4B7
330
1B
100
AcDbEntity
 67
     1
  8
02___PRT_ALL_AXES
  6
Continuous
 62
     3
100
AcDbCircle
 10
276.4299778294
 20
182.1477916996
 30
0.0
 40
3.25
100
AcDbArc
 50
0.0
 51
180.0
  0
LINE
  5
4B8
330
1B
100
AcDbEntity
 67
     1
  8
02___PRT_ALL_AXES
  6
Continuous
 62
     3
100
AcDbLine
 10
273.1799778294
 20
176.1477916996
 30
0.0
 11
273.1799778294
 21
182.1477916996
 31
0.0
  0
ARC
  5
4B9
330
1B
100
AcDbEntity
 67
     1
  8
02___PRT_ALL_AXES
  6
Continuous
 62
     3
100
AcDbCircle
 10
276.4299778294
 20
176.1477916996
 30
0.0
 40
3.25
100
AcDbArc
 50
180.0
 51
360.0
  0
LINE
  5
4BA
330
1B
100
AcDbEntity
 67
     1
  8
02___PRT_ALL_AXES
  6
Continuous
 62
     3
100
AcDbLine
 10
279.6799778294
 20
182.1477916996
 30
0.0
 11
279.6799778294
 21
176.1477916996
 31
0.0
  0
ARC
  5
4BB
330
1B
100
AcDbEntity
 67
     1
  8
02___PRT_ALL_AXES
  6
Continuous
 62
     3
100
AcDbCircle
 10
292.9299778294
 20
109.1477916996
 30
0.0
 40
3.25
100
AcDbArc
 50
180.0
 51
360.0
  0
ARC
  5
4BC
330
1B
100
AcDbEntity
 67
     1
  8
02___PRT_ALL_AXES
  6
Continuous
 62
     3
100
AcDbCircle
 10
292.9299778294
 20
109.1477916996
 30
0.0
 40
3.25
100
AcDbArc
 50
0.0
 51
180.0
  0
ARC
  5
4BD
330
1B
100
AcDbEntity
 67
     1
  8
02___PRT_ALL_AXES
  6
Continuous
 62
     3
100
AcDbCircle
 10
292.9299778294
 20
179.1477916996
 30
0.0
 40
3.25
100
AcDbArc
 50
180.0
 51
360.0
  0
ARC
  5
4BE
330
1B
100
AcDbEntity
 67
     1
  8
02___PRT_ALL_AXES
  6
Continuous
 62
     3
100
AcDbCircle
 10
292.9299778294
 20
179.1477916996
 30
0.0
 40
3.25
100
AcDbArc
 50
0.0
 51
180.0
  0
ARC
  5
4BF
330
1B
100
AcDbEntity
 67
     1
  8
7_ALL_FEATURES
  6
Continuous
 62
     3
100
AcDbCircle
 10
291.4299778294
 20
109.6477916996
 30
0.0
 40
10.0
100
AcDbArc
 50
270.0
 51
360.0
  0
LINE
  5
4C0
330
1B
100
AcDbEntity
 67
     1
  8
7_ALL_FEATURES
  6
Continuous
 62
     3
100
AcDbLine
 10
261.4299778294
 20
99.6477916996
 30
0.0
 11
291.4299778294
 21
99.6477916996
 31
0.0
  0
ARC
  5
4C1
330
1B
100
AcDbEntity
 67
     1
  8
7_ALL_FEATURES
  6
Continuous
 62
     3
100
AcDbCircle
 10
261.4299778294
 20
109.6477916996
 30
0.0
 40
10.0
100
AcDbArc
 50
180.0
 51
270.0
  0
LINE
  5
4C2
330
1B
100
AcDbEntity
 67
     1
  8
7_ALL_FEATURES
  6
Continuous
 62
     3
100
AcDbLine
 10
251.4299778294
 20
178.6477916996
 30
0.0
 11
251.4299778294
 21
164.3477916996
 31
0.0
  0
LINE
  5
4C3
330
1B
100
AcDbEntity
 67
     1
  8
7_ALL_FEATURES
  6
Continuous
 62
     3
100
AcDbLine
 10
251.4299778294
 20
123.9477916996
 30
0.0
 11
251.4299778294
 21
109.6477916996
 31
0.0
  0
ARC
  5
4C4
330
1B
100
AcDbEntity
 67
     1
  8
7_ALL_FEATURES
  6
Continuous
 62
     3
100
AcDbCircle
 10
261.4299778294
 20
178.6477916996
 30
0.0
 40
10.0
100
AcDbArc
 50
90.0
 51
180.0
  0
LINE
  5
4C5
330
1B
100
AcDbEntity
 67
     1
  8
7_ALL_FEATURES
  6
Continuous
 62
     3
100
AcDbLine
 10
291.4299778294
 20
188.6477916996
 30
0.0
 11
261.4299778294
 21
188.6477916996
 31
0.0
  0
ARC
  5
4C6
330
1B
100
AcDbEntity
 67
     1
  8
7_ALL_FEATURES
  6
Continuous
 62
     3
100
AcDbCircle
 10
291.4299778294
 20
178.6477916996
 30
0.0
 40
10.0
100
AcDbArc
 50
0.0
 51
90.0
  0
LINE
  5
4C7
330
1B
100
AcDbEntity
 67
     1
  8
7_ALL_FEATURES
  6
Continuous
 62
     3
100
AcDbLine
 10
301.4299778294
 20
109.6477916996
 30
0.0
 11
301.4299778294
 21
120.4171723934
 31
0.0
  0
LINE
  5
4C8
330
1B
100
AcDbEntity
 67
     1
  8
7_ALL_FEATURES
  6
Continuous
 62
     3
100
AcDbLine
 10
301.4299778294
 20
123.2977916996
 30
0.0
 11
301.4299778294
 21
123.9477916996
 31
0.0
  0
LINE
  5
4C9
330
1B
100
AcDbEntity
 67
     1
  8
7_ALL_FEATURES
  6
Continuous
 62
     3
100
AcDbLine
 10
301.4299778294
 20
164.3477916996
 30
0.0
 11
301.4299778294
 21
164.9977916996
 31
0.0
  0
LINE
  5
4CA
330
1B
100
AcDbEntity
 67
     1
  8
7_ALL_FEATURES
  6
Continuous
 62
     3
100
AcDbLine
 10
301.4299778294
 20
167.8784110058
 30
0.0
 11
301.4299778294
 21
178.6477916996
 31
0.0
  0
LINE
  5
4CB
330
1B
100
AcDbEntity
 67
     1
  8
7_ALL_FEATURES
  6
Continuous
 62
     3
100
AcDbLine
 10
46.9299778294
 20
162.026662828
 30
0.0
 11
46.9299778294
 21
126.2689205712
 31
0.0
  0
LINE
  5
4CC
330
1B
100
AcDbEntity
 67
     1
  8
7_ALL_FEATURES
  6
Continuous
 62
     3
100
AcDbLine
 10
305.9299778294
 20
126.2689205712
 30
0.0
 11
305.9299778294
 21
162.026662828
 31
0.0
  0
ARC
  5
4CD
330
1B
100
AcDbEntity
 67
     1
  8
02___PRT_ALL_AXES
  6
Continuous
 62
     3
100
AcDbCircle
 10
296.4299778294
 20
144.1477916996
 30
0.0
 40
2.5
100
AcDbArc
 50
0.0
 51
180.0
  0
ARC
  5
4CE
330
1B
100
AcDbEntity
 67
     1
  8
02___PRT_ALL_AXES
  6
Continuous
 62
     3
100
AcDbCircle
 10
296.4299778294
 20
144.1477916996
 30
0.0
 40
2.5
100
AcDbArc
 50
180.0
 51
360.0
  0
ARC
  5
4CF
330
1B
100
AcDbEntity
 67
     1
  8
02___PRT_ALL_AXES
  6
Continuous
 62
     3
100
AcDbCircle
 10
56.4299778294
 20
144.1477916996
 30
0.0
 40
2.5
100
AcDbArc
 50
0.0
 51
180.0
  0
ARC
  5
4D0
330
1B
100
AcDbEntity
 67
     1
  8
02___PRT_ALL_AXES
  6
Continuous
 62
     3
100
AcDbCircle
 10
56.4299778294
 20
144.1477916996
 30
0.0
 40
2.5
100
AcDbArc
 50
180.0
 51
360.0
  0
LINE
  5
4D1
330
1B
100
AcDbEntity
 67
     1
  8
7_ALL_FEATURES
  6
Continuous
 62
     3
100
AcDbLine
 10
305.9299778294
 20
163.1477916996
 30
0.0
 11
305.9299778294
 21
162.6265714451
 31
0.0
  0
LINE
  5
4D2
330
1B
100
AcDbEntity
 67
     1
  8
7_ALL_FEATURES
  6
Continuous
 62
     3
100
AcDbLine
 10
305.9299778294
 20
162.6265714451
 30
0.0
 11
305.9299778294
 21
162.5932087308
 31
0.0
  0
LINE
  5
4D3
330
1B
100
AcDbEntity
 67
     1
  8
7_ALL_FEATURES
  6
Continuous
 62
     3
100
AcDbLine
 10
305.9299778294
 20
162.5932087308
 30
0.0
 11
305.9299778294
 21
162.0721926172
 31
0.0
  0
LINE
  5
4D4
330
1B
100
AcDbEntity
 67
     1
  8
7_ALL_FEATURES
  6
Continuous
 62
     3
100
AcDbLine
 10
305.9299778294
 20
162.0721926172
 30
0.0
 11
305.9299778294
 21
162.026662828
 31
0.0
  0
LINE
  5
4D5
330
1B
100
AcDbEntity
 67
     1
  8
7_ALL_FEATURES
  6
Continuous
 62
     3
100
AcDbLine
 10
46.9299778294
 20
163.1477916996
 30
0.0
 11
46.9299778294
 21
162.6716209389
 31
0.0
  0
LINE
  5
4D6
330
1B
100
AcDbEntity
 67
     1
  8
7_ALL_FEATURES
  6
Continuous
 62
     3
100
AcDbLine
 10
46.9299778294
 20
162.6716209389
 30
0.0
 11
46.9299778294
 21
162.6265714451
 31
0.0
  0
LINE
  5
4D7
330
1B
100
AcDbEntity
 67
     1
  8
7_ALL_FEATURES
  6
Continuous
 62
     3
100
AcDbLine
 10
46.9299778294
 20
162.6265714451
 30
0.0
 11
46.9299778294
 21
162.5932087308
 31
0.0
  0
LINE
  5
4D8
330
1B
100
AcDbEntity
 67
     1
  8
7_ALL_FEATURES
  6
Continuous
 62
     3
100
AcDbLine
 10
46.9299778294
 20
162.5932087308
 30
0.0
 11
46.9299778294
 21
162.0721926172
 31
0.0
  0
LINE
  5
4D9
330
1B
100
AcDbEntity
 67
     1
  8
7_ALL_FEATURES
  6
Continuous
 62
     3
100
AcDbLine
 10
46.9299778294
 20
162.0721926172
 30
0.0
 11
46.9299778294
 21
162.026662828
 31
0.0
  0
LINE
  5
4DA
330
1B
100
AcDbEntity
 67
     1
  8
7_ALL_FEATURES
  6
Continuous
 62
     3
100
AcDbLine
 10
46.9299778294
 20
125.1477916996
 30
0.0
 11
46.9299778294
 21
125.6690119541
 31
0.0
  0
LINE
  5
4DB
330
1B
100
AcDbEntity
 67
     1
  8
7_ALL_FEATURES
  6
Continuous
 62
     3
100
AcDbLine
 10
46.9299778294
 20
125.6690119541
 30
0.0
 11
46.9299778294
 21
125.7023829329
 31
0.0
  0
LINE
  5
4DC
330
1B
100
AcDbEntity
 67
     1
  8
7_ALL_FEATURES
  6
Continuous
 62
     3
100
AcDbLine
 10
46.9299778294
 20
125.7023829329
 30
0.0
 11
46.9299778294
 21
126.2233906505
 31
0.0
  0
LINE
  5
4DD
330
1B
100
AcDbEntity
 67
     1
  8
7_ALL_FEATURES
  6
Continuous
 62
     3
100
AcDbLine
 10
46.9299778294
 20
126.2233906505
 30
0.0
 11
46.9299778294
 21
126.2689205712
 31
0.0
  0
LINE
  5
4DE
330
1B
100
AcDbEntity
 67
     1
  8
7_ALL_FEATURES
  6
Continuous
 62
     3
100
AcDbLine
 10
305.9299778294
 20
125.1477916996
 30
0.0
 11
305.9299778294
 21
125.6239692092
 31
0.0
  0
LINE
  5
4DF
330
1B
100
AcDbEntity
 67
     1
  8
7_ALL_FEATURES
  6
Continuous
 62
     3
100
AcDbLine
 10
305.9299778294
 20
125.6239692092
 30
0.0
 11
305.9299778294
 21
125.6690119541
 31
0.0
  0
LINE
  5
4E0
330
1B
100
AcDbEntity
 67
     1
  8
7_ALL_FEATURES
  6
Continuous
 62
     3
100
AcDbLine
 10
305.9299778294
 20
125.6690119541
 30
0.0
 11
305.9299778294
 21
125.7023829329
 31
0.0
  0
LINE
  5
4E1
330
1B
100
AcDbEntity
 67
     1
  8
7_ALL_FEATURES
  6
Continuous
 62
     3
100
AcDbLine
 10
305.9299778294
 20
125.7023829329
 30
0.0
 11
305.9299778294
 21
126.2233906505
 31
0.0
  0
LINE
  5
4E2
330
1B
100
AcDbEntity
 67
     1
  8
7_ALL_FEATURES
  6
Continuous
 62
     3
100
AcDbLine
 10
305.9299778294
 20
126.2233906505
 30
0.0
 11
305.9299778294
 21
126.2689205712
 31
0.0
  0
LINE
  5
4E3
330
1B
100
AcDbEntity
 67
     1
  8
7_ALL_FEATURES
  6
Continuous
 62
     9
100
AcDbLine
 10
305.9299778294
 20
126.2689205712
 30
0.0
 11
46.9299778294
 21
126.2689205712
 31
0.0
  0
LINE
  5
4E4
330
1B
100
AcDbEntity
 67
     1
  8
7_ALL_FEATURES
  6
Continuous
 62
     9
100
AcDbLine
 10
46.9299778294
 20
162.026662828
 30
0.0
 11
305.9299778294
 21
162.026662828
 31
0.0
  0
LINE
  5
4E5
330
1B
100
AcDbEntity
 67
     1
  8
7_ALL_FEATURES
  6
Continuous
 62
     3
100
AcDbLine
 10
306.6799778294
 20
163.1477916996
 30
0.0
 11
46.1799778294
 21
163.1477916996
 31
0.0
  0
LINE
  5
4E6
330
1B
100
AcDbEntity
 67
     1
  8
7_ALL_FEATURES
  6
Continuous
 62
     3
100
AcDbLine
 10
306.6799778294
 20
125.1477916996
 30
0.0
 11
46.1799778294
 21
125.1477916996
 31
0.0
  0
LINE
  5
4E7
330
1B
100
AcDbEntity
 67
     1
  8
7_ALL_FEATURES
  6
Continuous
 62
     9
100
AcDbLine
 10
46.1799778294
 20
126.3477916996
 30
0.0
 11
46.9299778294
 21
126.3477916996
 31
0.0
  0
LINE
  5
4E8
330
1B
100
AcDbEntity
 67
     1
  8
7_ALL_FEATURES
  6
Continuous
 62
     9
100
AcDbLine
 10
305.9299778294
 20
126.3477916996
 30
0.0
 11
306.6799778294
 21
126.3477916996
 31
0.0
  0
LINE
  5
4E9
330
1B
100
AcDbEntity
 67
     1
  8
7_ALL_FEATURES
  6
Continuous
 62
     9
100
AcDbLine
 10
46.1799778294
 20
161.9477916996
 30
0.0
 11
46.9299778294
 21
161.9477916996
 31
0.0
  0
LINE
  5
4EA
330
1B
100
AcDbEntity
 67
     1
  8
7_ALL_FEATURES
  6
Continuous
 62
     9
100
AcDbLine
 10
305.9299778294
 20
161.9477916996
 30
0.0
 11
306.6799778294
 21
161.9477916996
 31
0.0
  0
LINE
  5
4EB
330
1B
100
AcDbEntity
 67
     1
  8
3_ALL_AXES
  6
Continuous
 62
     7
100
AcDbLine
 10
422.7502416978
 20
244.7314873041
 30
0.0
 11
422.7502416978
 21
245.4373574747
 31
0.0
  0
ARC
  5
4EC
330
1B
100
AcDbEntity
 67
     1
  8
3_ALL_AXES
  6
Continuous
 62
     7
100
AcDbCircle
 10
419.8502416978
 20
252.1873574747
 30
0.0
 40
8.0
100
AcDbArc
 50
270.0
 51
291.2538091854
  0
LINE
  5
4ED
330
1B
100
AcDbEntity
 67
     1
  8
3_ALL_AXES
  6
Continuous
 62
     7
100
AcDbLine
 10
416.9502416978
 20
244.7314873041
 30
0.0
 11
416.9502416978
 21
245.4373574747
 31
0.0
  0
ARC
  5
4EE
330
1B
100
AcDbEntity
 67
     1
  8
3_ALL_AXES
  6
Continuous
 62
     7
100
AcDbCircle
 10
419.8502416978
 20
252.1873574747
 30
0.0
 40
8.0
100
AcDbArc
 50
248.7461908146
 51
270.0
  0
LINE
  5
4EF
330
1B
100
AcDbEntity
 67
     1
  8
3_ALL_AXES
  6
Continuous
 62
     7
100
AcDbLine
 10
419.8502416978
 20
244.7314873041
 30
0.0
 11
422.7502416978
 21
244.7314873041
 31
0.0
  0
LINE
  5
4F0
330
1B
100
AcDbEntity
 67
     1
  8
3_ALL_AXES
  6
Continuous
 62
     7
100
AcDbLine
 10
419.8502416978
 20
244.7314873041
 30
0.0
 11
416.9502416978
 21
244.7314873041
 31
0.0
  0
LINE
  5
4F1
330
1B
100
AcDbEntity
 67
     1
  8
3_ALL_AXES
  6
Continuous
 62
     7
100
AcDbLine
 10
430.7561118684
 20
287.3373574747
 30
0.0
 11
430.0502416978
 21
287.3373574747
 31
0.0
  0
ARC
  5
4F2
330
1B
100
AcDbEntity
 67
     1
  8
3_ALL_AXES
  6
Continuous
 62
     7
100
AcDbCircle
 10
423.3002416978
 20
284.4373574747
 30
0.0
 40
8.0
100
AcDbArc
 50
0.0
 51
21.2538091854
  0
LINE
  5
4F3
330
1B
100
AcDbEntity
 67
     1
  8
3_ALL_AXES
  6
Continuous
 62
     7
100
AcDbLine
 10
430.7561118684
 20
281.5373574747
 30
0.0
 11
430.0502416978
 21
281.5373574747
 31
0.0
  0
ARC
  5
4F4
330
1B
100
AcDbEntity
 67
     1
  8
3_ALL_AXES
  6
Continuous
 62
     7
100
AcDbCircle
 10
423.3002416978
 20
284.4373574747
 30
0.0
 40
8.0
100
AcDbArc
 50
338.7461908146
 51
360.0
  0
LINE
  5
4F5
330
1B
100
AcDbEntity
 67
     1
  8
3_ALL_AXES
  6
Continuous
 62
     7
100
AcDbLine
 10
430.7561118684
 20
284.4373574747
 30
0.0
 11
430.7561118684
 21
287.3373574747
 31
0.0
  0
LINE
  5
4F6
330
1B
100
AcDbEntity
 67
     1
  8
3_ALL_AXES
  6
Continuous
 62
     7
100
AcDbLine
 10
430.7561118684
 20
284.4373574747
 30
0.0
 11
430.7561118684
 21
281.5373574747
 31
0.0
  0
ARC
  5
4F7
330
1B
100
AcDbEntity
 67
     1
  8
3_ALL_AXES
  6
Continuous
 62
     7
100
AcDbCircle
 10
396.4002416978
 20
284.4373574747
 30
0.0
 40
8.0
100
AcDbArc
 50
180.0
 51
201.2538091854
  0
LINE
  5
4F8
330
1B
100
AcDbEntity
 67
     1
  8
3_ALL_AXES
  6
Continuous
 62
     7
100
AcDbLine
 10
388.9443715273
 20
281.5373574747
 30
0.0
 11
389.6502416978
 21
281.5373574747
 31
0.0
  0
LINE
  5
4F9
330
1B
100
AcDbEntity
 67
     1
  8
3_ALL_AXES
  6
Continuous
 62
     7
100
AcDbLine
 10
388.9443715273
 20
287.3373574747
 30
0.0
 11
389.6502416978
 21
287.3373574747
 31
0.0
  0
ARC
  5
4FA
330
1B
100
AcDbEntity
 67
     1
  8
3_ALL_AXES
  6
Continuous
 62
     7
100
AcDbCircle
 10
396.4002416978
 20
284.4373574747
 30
0.0
 40
8.0
100
AcDbArc
 50
158.7461908146
 51
180.0
  0
LINE
  5
4FB
330
1B
100
AcDbEntity
 67
     1
  8
3_ALL_AXES
  6
Continuous
 62
     7
100
AcDbLine
 10
388.9443715273
 20
281.5373574747
 30
0.0
 11
388.9443715273
 21
284.4373574747
 31
0.0
  0
LINE
  5
4FC
330
1B
100
AcDbEntity
 67
     1
  8
3_ALL_AXES
  6
Continuous
 62
     7
100
AcDbLine
 10
388.9443715273
 20
287.3373574747
 30
0.0
 11
388.9443715273
 21
284.4373574747
 31
0.0
  0
LINE
  5
4FD
330
1B
100
AcDbEntity
 67
     1
  8
3_ALL_AXES
  6
Continuous
 62
     7
100
AcDbLine
 10
402.7502416978
 20
244.7314873041
 30
0.0
 11
402.7502416978
 21
245.4373574747
 31
0.0
  0
ARC
  5
4FE
330
1B
100
AcDbEntity
 67
     1
  8
3_ALL_AXES
  6
Continuous
 62
     7
100
AcDbCircle
 10
399.8502416978
 20
252.1873574747
 30
0.0
 40
8.0
100
AcDbArc
 50
270.0
 51
291.2538091854
  0
LINE
  5
4FF
330
1B
100
AcDbEntity
 67
     1
  8
3_ALL_AXES
  6
Continuous
 62
     7
100
AcDbLine
 10
396.9502416978
 20
244.7314873041
 30
0.0
 11
396.9502416978
 21
245.4373574747
 31
0.0
  0
ARC
  5
500
330
1B
100
AcDbEntity
 67
     1
  8
3_ALL_AXES
  6
Continuous
 62
     7
100
AcDbCircle
 10
399.8502416978
 20
252.1873574747
 30
0.0
 40
8.0
100
AcDbArc
 50
248.7461908146
 51
270.0
  0
LINE
  5
501
330
1B
100
AcDbEntity
 67
     1
  8
3_ALL_AXES
  6
Continuous
 62
     7
100
AcDbLine
 10
399.8502416978
 20
244.7314873041
 30
0.0
 11
402.7502416978
 21
244.7314873041
 31
0.0
  0
LINE
  5
502
330
1B
100
AcDbEntity
 67
     1
  8
3_ALL_AXES
  6
Continuous
 62
     7
100
AcDbLine
 10
399.8502416978
 20
244.7314873041
 30
0.0
 11
396.9502416978
 21
244.7314873041
 31
0.0
  0
ARC
  5
503
330
1B
100
AcDbEntity
 67
     1
  8
3_ALL_AXES
  6
Continuous
 62
     7
100
AcDbCircle
 10
430.2276016061
 20
258.079800272
 30
0.0
 40
4.1
100
AcDbArc
 50
26.3930257743
 51
63.13669686989999
  0
LINE
  5
504
330
1B
100
AcDbEntity
 67
     1
  8
3_ALL_AXES
  6
Continuous
 62
     7
100
AcDbLine
 10
433.9002416978
 20
259.9023231292
 30
0.0
 11
433.9002416978
 21
257.9373574747
 31
0.0
  0
LINE
  5
505
330
1B
100
AcDbEntity
 67
     1
  8
3_ALL_AXES
  6
Continuous
 62
     7
100
AcDbLine
 10
431.7002416978
 20
261.7373574747
 30
0.0
 11
432.0802416978
 21
261.7373574747
 31
0.0
  0
ARC
  5
506
330
1B
100
AcDbEntity
 67
     1
  8
3_ALL_AXES
  6
Continuous
 62
     7
100
AcDbCircle
 10
430.2276016061
 20
257.7949146773
 30
0.0
 40
4.1
100
AcDbArc
 50
296.8633031301
 51
333.6069742257001
  0
LINE
  5
507
330
1B
100
AcDbEntity
 67
     1
  8
3_ALL_AXES
  6
Continuous
 62
     7
100
AcDbLine
 10
433.9002416978
 20
255.9723918201
 30
0.0
 11
433.9002416978
 21
257.9373574747
 31
0.0
  0
LINE
  5
508
330
1B
100
AcDbEntity
 67
     1
  8
3_ALL_AXES
  6
Continuous
 62
     7
100
AcDbLine
 10
431.7002416978
 20
254.1373574747
 30
0.0
 11
432.0802416978
 21
254.1373574747
 31
0.0
  0
LINE
  5
509
330
1B
100
AcDbEntity
 67
     1
  8
3_ALL_AXES
  6
Continuous
 62
     7
100
AcDbLine
 10
432.0802416978
 20
254.1373574747
 30
0.0
 11
432.0802416978
 21
257.9373574747
 31
0.0
  0
LINE
  5
50A
330
1B
100
AcDbEntity
 67
     1
  8
3_ALL_AXES
  6
Continuous
 62
     7
100
AcDbLine
 10
432.0802416978
 20
261.7373574747
 30
0.0
 11
432.0802416978
 21
257.9373574747
 31
0.0
  0
ARC
  5
50B
330
1B
100
AcDbEntity
 67
     1
  8
3_ALL_AXES
  6
Continuous
 62
     7
100
AcDbCircle
 10
430.2276016061
 20
293.079800272
 30
0.0
 40
4.1
100
AcDbArc
 50
26.3930257743
 51
63.13669686989999
  0
LINE
  5
50C
330
1B
100
AcDbEntity
 67
     1
  8
3_ALL_AXES
  6
Continuous
 62
     7
100
AcDbLine
 10
433.9002416978
 20
294.9023231292
 30
0.0
 11
433.9002416978
 21
292.9373574747
 31
0.0
  0
LINE
  5
50D
330
1B
100
AcDbEntity
 67
     1
  8
3_ALL_AXES
  6
Continuous
 62
     7
100
AcDbLine
 10
431.7002416978
 20
296.7373574747
 30
0.0
 11
432.0802416978
 21
296.7373574747
 31
0.0
  0
ARC
  5
50E
330
1B
100
AcDbEntity
 67
     1
  8
3_ALL_AXES
  6
Continuous
 62
     7
100
AcDbCircle
 10
430.2276016061
 20
292.7949146773
 30
0.0
 40
4.1
100
AcDbArc
 50
296.8633031301
 51
333.6069742257001
  0
LINE
  5
50F
330
1B
100
AcDbEntity
 67
     1
  8
3_ALL_AXES
  6
Continuous
 62
     7
100
AcDbLine
 10
433.9002416978
 20
290.9723918201
 30
0.0
 11
433.9002416978
 21
292.9373574747
 31
0.0
  0
LINE
  5
510
330
1B
100
AcDbEntity
 67
     1
  8
3_ALL_AXES
  6
Continuous
 62
     7
100
AcDbLine
 10
431.7002416978
 20
289.1373574747
 30
0.0
 11
432.0802416978
 21
289.1373574747
 31
0.0
  0
LINE
  5
511
330
1B
100
AcDbEntity
 67
     1
  8
3_ALL_AXES
  6
Continuous
 62
     7
100
AcDbLine
 10
432.0802416978
 20
289.1373574747
 30
0.0
 11
432.0802416978
 21
292.9373574747
 31
0.0
  0
LINE
  5
512
330
1B
100
AcDbEntity
 67
     1
  8
3_ALL_AXES
  6
Continuous
 62
     7
100
AcDbLine
 10
432.0802416978
 20
296.7373574747
 30
0.0
 11
432.0802416978
 21
292.9373574747
 31
0.0
  0
LINE
  5
513
330
1B
100
AcDbEntity
 67
     1
  8
3_ALL_AXES
  6
Continuous
 62
     7
100
AcDbLine
 10
385.8002416978
 20
292.9373574747
 30
0.0
 11
385.8002416978
 21
294.9023231292
 31
0.0
  0
LINE
  5
514
330
1B
100
AcDbEntity
 67
     1
  8
3_ALL_AXES
  6
Continuous
 62
     7
100
AcDbLine
 10
385.8002416978
 20
292.9373574747
 30
0.0
 11
385.8002416978
 21
290.9723918201
 31
0.0
  0
ARC
  5
515
330
1B
100
AcDbEntity
 67
     1
  8
3_ALL_AXES
  6
Continuous
 62
     7
100
AcDbCircle
 10
389.4728817895
 20
293.079800272
 30
0.0
 40
4.1
100
AcDbArc
 50
116.8633031301
 51
153.6069742257
  0
LINE
  5
516
330
1B
100
AcDbEntity
 67
     1
  8
3_ALL_AXES
  6
Continuous
 62
     7
100
AcDbLine
 10
388.0002416978
 20
296.7373574747
 30
0.0
 11
387.6202416978
 21
296.7373574747
 31
0.0
  0
ARC
  5
517
330
1B
100
AcDbEntity
 67
     1
  8
3_ALL_AXES
  6
Continuous
 62
     7
100
AcDbCircle
 10
389.4728817895
 20
292.7949146773
 30
0.0
 40
4.1
100
AcDbArc
 50
206.3930257743
 51
243.1366968699
  0
LINE
  5
518
330
1B
100
AcDbEntity
 67
     1
  8
3_ALL_AXES
  6
Continuous
 62
     7
100
AcDbLine
 10
388.0002416978
 20
289.1373574747
 30
0.0
 11
387.6202416978
 21
289.1373574747
 31
0.0
  0
LINE
  5
519
330
1B
100
AcDbEntity
 67
     1
  8
3_ALL_AXES
  6
Continuous
 62
     7
100
AcDbLine
 10
387.6202416978
 20
292.9373574747
 30
0.0
 11
387.6202416978
 21
296.7373574747
 31
0.0
  0
LINE
  5
51A
330
1B
100
AcDbEntity
 67
     1
  8
3_ALL_AXES
  6
Continuous
 62
     7
100
AcDbLine
 10
387.6202416978
 20
292.9373574747
 30
0.0
 11
387.6202416978
 21
289.1373574747
 31
0.0
  0
LINE
  5
51B
330
1B
100
AcDbEntity
 67
     1
  8
3_ALL_AXES
  6
Continuous
 62
     7
100
AcDbLine
 10
385.8002416978
 20
257.9373574747
 30
0.0
 11
385.8002416978
 21
259.9023231292
 31
0.0
  0
LINE
  5
51C
330
1B
100
AcDbEntity
 67
     1
  8
3_ALL_AXES
  6
Continuous
 62
     7
100
AcDbLine
 10
385.8002416978
 20
257.9373574747
 30
0.0
 11
385.8002416978
 21
255.9723918201
 31
0.0
  0
ARC
  5
51D
330
1B
100
AcDbEntity
 67
     1
  8
3_ALL_AXES
  6
Continuous
 62
     7
100
AcDbCircle
 10
389.4728817895
 20
258.079800272
 30
0.0
 40
4.1
100
AcDbArc
 50
116.8633031301
 51
153.6069742257
  0
LINE
  5
51E
330
1B
100
AcDbEntity
 67
     1
  8
3_ALL_AXES
  6
Continuous
 62
     7
100
AcDbLine
 10
388.0002416978
 20
261.7373574747
 30
0.0
 11
387.6202416978
 21
261.7373574747
 31
0.0
  0
ARC
  5
51F
330
1B
100
AcDbEntity
 67
     1
  8
3_ALL_AXES
  6
Continuous
 62
     7
100
AcDbCircle
 10
389.4728817895
 20
257.7949146773
 30
0.0
 40
4.1
100
AcDbArc
 50
206.3930257743
 51
243.1366968699
  0
LINE
  5
520
330
1B
100
AcDbEntity
 67
     1
  8
3_ALL_AXES
  6
Continuous
 62
     7
100
AcDbLine
 10
388.0002416978
 20
254.1373574747
 30
0.0
 11
387.6202416978
 21
254.1373574747
 31
0.0
  0
LINE
  5
521
330
1B
100
AcDbEntity
 67
     1
  8
3_ALL_AXES
  6
Continuous
 62
     7
100
AcDbLine
 10
387.6202416978
 20
257.9373574747
 30
0.0
 11
387.6202416978
 21
261.7373574747
 31
0.0
  0
LINE
  5
522
330
1B
100
AcDbEntity
 67
     1
  8
3_ALL_AXES
  6
Continuous
 62
     7
100
AcDbLine
 10
387.6202416978
 20
257.9373574747
 30
0.0
 11
387.6202416978
 21
254.1373574747
 31
0.0
  0
LINE
  5
523
330
1B
100
AcDbEntity
 67
     1
  8
7_ALL_FEATURES
  6
Continuous
 62
     7
100
AcDbLine
 10
365.3502416978
 20
245.4373574747
 30
0.0
 11
365.3502416978
 21
246.6373574747
 31
0.0
  0
LINE
  5
524
330
1B
100
AcDbEntity
 67
     1
  8
7_ALL_FEATURES
  6
Continuous
 62
     7
100
AcDbLine
 10
454.3502416978
 20
245.4373574747
 30
0.0
 11
454.3502416978
 21
246.6373574747
 31
0.0
  0
LINE
  5
525
330
1B
100
AcDbEntity
 67
     1
  8
7_ALL_FEATURES
  6
Continuous
 62
     7
100
AcDbLine
 10
365.3502416978
 20
245.4373574747
 30
0.0
 11
365.3502416978
 21
246.6373574747
 31
0.0
  0
LINE
  5
526
330
1B
100
AcDbEntity
 67
     1
  8
7_ALL_FEATURES
  6
Continuous
 62
     7
100
AcDbLine
 10
454.3502416978
 20
245.4373574747
 30
0.0
 11
448.1002416978
 21
245.4373574747
 31
0.0
  0
LINE
  5
527
330
1B
100
AcDbEntity
 67
     1
  8
7_ALL_FEATURES
  6
Continuous
 62
     7
100
AcDbLine
 10
448.1002416978
 20
245.4373574747
 30
0.0
 11
444.8502416978
 21
245.4373574747
 31
0.0
  0
LINE
  5
528
330
1B
100
AcDbEntity
 67
     1
  8
7_ALL_FEATURES
  6
Continuous
 62
     7
100
AcDbLine
 10
444.8502416978
 20
245.4373574747
 30
0.0
 11
444.3502416978
 21
245.4373574747
 31
0.0
  0
LINE
  5
529
330
1B
100
AcDbEntity
 67
     1
  8
7_ALL_FEATURES
  6
Continuous
 62
     7
100
AcDbLine
 10
375.3502416978
 20
245.4373574747
 30
0.0
 11
390.1502416978
 21
245.4373574747
 31
0.0
  0
LINE
  5
52A
330
1B
100
AcDbEntity
 67
     1
  8
7_ALL_FEATURES
  6
Continuous
 62
     7
100
AcDbLine
 10
407.5050338179
 20
245.4373574747
 30
0.0
 11
412.1954495777
 21
245.4373574747
 31
0.0
  0
LINE
  5
52B
330
1B
100
AcDbEntity
 67
     1
  8
7_ALL_FEATURES
  6
Continuous
 62
     7
100
AcDbLine
 10
429.5502416978
 20
245.4373574747
 30
0.0
 11
444.3502416978
 21
245.4373574747
 31
0.0
  0
LINE
  5
52C
330
1B
100
AcDbEntity
 67
     1
  8
7_ALL_FEATURES
  6
Continuous
 62
     7
100
AcDbLine
 10
375.3502416978
 20
245.4373574747
 30
0.0
 11
374.8502416978
 21
245.4373574747
 31
0.0
  0
LINE
  5
52D
330
1B
100
AcDbEntity
 67
     1
  8
7_ALL_FEATURES
  6
Continuous
 62
     7
100
AcDbLine
 10
374.8502416978
 20
245.4373574747
 30
0.0
 11
371.6002416978
 21
245.4373574747
 31
0.0
  0
LINE
  5
52E
330
1B
100
AcDbEntity
 67
     1
  8
7_ALL_FEATURES
  6
Continuous
 62
     7
100
AcDbLine
 10
371.6002416978
 20
245.4373574747
 30
0.0
 11
365.3502416978
 21
245.4373574747
 31
0.0
  0
LINE
  5
52F
330
1B
100
AcDbEntity
 67
     1
  8
7_ALL_FEATURES
  6
Continuous
 62
     9
100
AcDbLine
 10
444.3502416978
 20
245.4373574747
 30
0.0
 11
444.3502416978
 21
246.6373574747
 31
0.0
  0
LINE
  5
530
330
1B
100
AcDbEntity
 67
     1
  8
7_ALL_FEATURES
  6
Continuous
 62
     9
100
AcDbLine
 10
375.3502416978
 20
245.4373574747
 30
0.0
 11
375.3502416978
 21
246.6373574747
 31
0.0
  0
LINE
  5
531
330
1B
100
AcDbEntity
 67
     1
  8
7_ALL_FEATURES
  6
Continuous
 62
     7
100
AcDbLine
 10
390.0002416978
 20
252.9373574747
 30
0.0
 11
389.6502416978
 21
252.9373574747
 31
0.0
  0
LINE
  5
532
330
1B
100
AcDbEntity
 67
     1
  8
7_ALL_FEATURES
  6
Continuous
 62
     7
100
AcDbLine
 10
390.0002416978
 20
262.9373574747
 30
0.0
 11
389.6502416978
 21
262.9373574747
 31
0.0
  0
LINE
  5
533
330
1B
100
AcDbEntity
 67
     1
  8
7_ALL_FEATURES
  6
Continuous
 62
     7
100
AcDbLine
 10
390.1502416978
 20
334.4373574747
 30
0.0
 11
389.6502416978
 21
334.4373574747
 31
0.0
  0
LINE
  5
534
330
1B
100
AcDbEntity
 67
     1
  8
7_ALL_FEATURES
  6
Continuous
 62
     7
100
AcDbLine
 10
430.0502416978
 20
334.4373574747
 30
0.0
 11
429.5502416978
 21
334.4373574747
 31
0.0
  0
LINE
  5
535
330
1B
100
AcDbEntity
 67
     1
  8
7_ALL_FEATURES
  6
Continuous
 62
     7
100
AcDbLine
 10
429.7002416978
 20
297.9373574747
 30
0.0
 11
430.0502416978
 21
297.9373574747
 31
0.0
  0
LINE
  5
536
330
1B
100
AcDbEntity
 67
     1
  8
7_ALL_FEATURES
  6
Continuous
 62
     7
100
AcDbLine
 10
429.7002416978
 20
287.9373574747
 30
0.0
 11
430.0502416978
 21
287.9373574747
 31
0.0
  0
LINE
  5
537
330
1B
100
AcDbEntity
 67
     1
  8
7_ALL_FEATURES
  6
Continuous
 62
     7
100
AcDbLine
 10
429.7002416978
 20
262.9373574747
 30
0.0
 11
430.0502416978
 21
262.9373574747
 31
0.0
  0
LINE
  5
538
330
1B
100
AcDbEntity
 67
     1
  8
7_ALL_FEATURES
  6
Continuous
 62
     7
100
AcDbLine
 10
429.7002416978
 20
252.9373574747
 30
0.0
 11
430.0502416978
 21
252.9373574747
 31
0.0
  0
LINE
  5
539
330
1B
100
AcDbEntity
 67
     1
  8
7_ALL_FEATURES
  6
Continuous
 62
     7
100
AcDbLine
 10
389.6502416978
 20
334.4373574747
 30
0.0
 11
389.6502416978
 21
333.9373574747
 31
0.0
  0
LINE
  5
53A
330
1B
100
AcDbEntity
 67
     1
  8
7_ALL_FEATURES
  6
Continuous
 62
     7
100
AcDbLine
 10
389.6502416978
 20
297.9373574747
 30
0.0
 11
389.6502416978
 21
296.9373574747
 31
0.0
  0
LINE
  5
53B
330
1B
100
AcDbEntity
 67
     1
  8
7_ALL_FEATURES
  6
Continuous
 62
     7
100
AcDbLine
 10
389.6502416978
 20
288.9373574747
 30
0.0
 11
389.6502416978
 21
287.9373574747
 31
0.0
  0
LINE
  5
53C
330
1B
100
AcDbEntity
 67
     1
  8
7_ALL_FEATURES
  6
Continuous
 62
     7
100
AcDbLine
 10
389.6502416978
 20
263.1373574747
 30
0.0
 11
389.6502416978
 21
262.9373574747
 31
0.0
  0
LINE
  5
53D
330
1B
100
AcDbEntity
 67
     1
  8
7_ALL_FEATURES
  6
Continuous
 62
     7
100
AcDbLine
 10
389.6502416978
 20
262.9373574747
 30
0.0
 11
389.6502416978
 21
261.9373574747
 31
0.0
  0
LINE
  5
53E
330
1B
100
AcDbEntity
 67
     1
  8
7_ALL_FEATURES
  6
Continuous
 62
     7
100
AcDbLine
 10
389.6502416978
 20
253.9373574747
 30
0.0
 11
389.6502416978
 21
252.9373574747
 31
0.0
  0
LINE
  5
53F
330
1B
100
AcDbEntity
 67
     1
  8
7_ALL_FEATURES
  6
Continuous
 62
     7
100
AcDbLine
 10
389.6502416978
 20
252.9373574747
 30
0.0
 11
389.6502416978
 21
252.7373574747
 31
0.0
  0
LINE
  5
540
330
1B
100
AcDbEntity
 67
     1
  8
7_ALL_FEATURES
  6
Continuous
 62
     7
100
AcDbLine
 10
430.0502416978
 20
334.4373574747
 30
0.0
 11
430.0502416978
 21
333.9373574747
 31
0.0
  0
LINE
  5
541
330
1B
100
AcDbEntity
 67
     1
  8
7_ALL_FEATURES
  6
Continuous
 62
     7
100
AcDbLine
 10
430.0502416978
 20
298.1373574747
 30
0.0
 11
430.0502416978
 21
297.9373574747
 31
0.0
  0
LINE
  5
542
330
1B
100
AcDbEntity
 67
     1
  8
7_ALL_FEATURES
  6
Continuous
 62
     7
100
AcDbLine
 10
430.0502416978
 20
297.9373574747
 30
0.0
 11
430.0502416978
 21
296.9373574747
 31
0.0
  0
LINE
  5
543
330
1B
100
AcDbEntity
 67
     1
  8
7_ALL_FEATURES
  6
Continuous
 62
     7
100
AcDbLine
 10
430.0502416978
 20
288.9373574747
 30
0.0
 11
430.0502416978
 21
287.9373574747
 31
0.0
  0
LINE
  5
544
330
1B
100
AcDbEntity
 67
     1
  8
7_ALL_FEATURES
  6
Continuous
 62
     7
100
AcDbLine
 10
430.0502416978
 20
287.9373574747
 30
0.0
 11
430.0502416978
 21
287.7373574747
 31
0.0
  0
LINE
  5
545
330
1B
100
AcDbEntity
 67
     1
  8
7_ALL_FEATURES
  6
Continuous
 62
     7
100
AcDbLine
 10
430.0502416978
 20
263.1373574747
 30
0.0
 11
430.0502416978
 21
262.9373574747
 31
0.0
  0
LINE
  5
546
330
1B
100
AcDbEntity
 67
     1
  8
7_ALL_FEATURES
  6
Continuous
 62
     7
100
AcDbLine
 10
430.0502416978
 20
252.9373574747
 30
0.0
 11
430.0502416978
 21
253.9373574747
 31
0.0
  0
LINE
  5
547
330
1B
100
AcDbEntity
 67
     1
  8
7_ALL_FEATURES
  6
Continuous
 62
     7
100
AcDbLine
 10
430.0502416978
 20
261.9373574747
 30
0.0
 11
430.0502416978
 21
262.9373574747
 31
0.0
  0
LINE
  5
548
330
1B
100
AcDbEntity
 67
     1
  8
7_ALL_FEATURES
  6
Continuous
 62
     7
100
AcDbLine
 10
430.0502416978
 20
252.9373574747
 30
0.0
 11
430.0502416978
 21
252.7373574747
 31
0.0
  0
LINE
  5
549
330
1B
100
AcDbEntity
 67
     1
  8
7_ALL_FEATURES
  6
Continuous
 62
     7
100
AcDbLine
 10
388.0002416978
 20
296.9373574747
 30
0.0
 11
389.0002416978
 21
296.9373574747
 31
0.0
  0
LINE
  5
54A
330
1B
100
AcDbEntity
 67
     1
  8
7_ALL_FEATURES
  6
Continuous
 62
     7
100
AcDbLine
 10
389.0002416978
 20
296.9373574747
 30
0.0
 11
389.5186626405
 21
296.9373574747
 31
0.0
  0
LINE
  5
54B
330
1B
100
AcDbEntity
 67
     1
  8
7_ALL_FEATURES
  6
Continuous
 62
     7
100
AcDbLine
 10
388.0002416978
 20
288.9373574747
 30
0.0
 11
388.9901029355
 21
288.9373574747
 31
0.0
  0
LINE
  5
54C
330
1B
100
AcDbEntity
 67
     1
  8
7_ALL_FEATURES
  6
Continuous
 62
     7
100
AcDbLine
 10
388.9901029355
 20
288.9373574747
 30
0.0
 11
389.0002416978
 21
288.9373574747
 31
0.0
  0
LINE
  5
54D
330
1B
100
AcDbEntity
 67
     1
  8
7_ALL_FEATURES
  6
Continuous
 62
     7
100
AcDbLine
 10
389.0002416978
 20
288.9373574747
 30
0.0
 11
389.5186626405
 21
288.9373574747
 31
0.0
  0
LINE
  5
54E
330
1B
100
AcDbEntity
 67
     1
  8
7_ALL_FEATURES
  6
Continuous
 62
     7
100
AcDbLine
 10
388.0002416978
 20
288.9373574747
 30
0.0
 11
388.0002416978
 21
296.9373574747
 31
0.0
  0
LINE
  5
54F
330
1B
100
AcDbEntity
 67
     1
  8
7_ALL_FEATURES
  6
Continuous
 62
     7
100
AcDbLine
 10
431.7002416978
 20
288.9373574747
 30
0.0
 11
430.7002416978
 21
288.9373574747
 31
0.0
  0
LINE
  5
550
330
1B
100
AcDbEntity
 67
     1
  8
7_ALL_FEATURES
  6
Continuous
 62
     7
100
AcDbLine
 10
430.7002416978
 20
288.9373574747
 30
0.0
 11
430.1818207552
 21
288.9373574747
 31
0.0
  0
LINE
  5
551
330
1B
100
AcDbEntity
 67
     1
  8
7_ALL_FEATURES
  6
Continuous
 62
     7
100
AcDbLine
 10
431.7002416978
 20
296.9373574747
 30
0.0
 11
430.7103804602
 21
296.9373574747
 31
0.0
  0
LINE
  5
552
330
1B
100
AcDbEntity
 67
     1
  8
7_ALL_FEATURES
  6
Continuous
 62
     7
100
AcDbLine
 10
430.7103804602
 20
296.9373574747
 30
0.0
 11
430.7002416978
 21
296.9373574747
 31
0.0
  0
LINE
  5
553
330
1B
100
AcDbEntity
 67
     1
  8
7_ALL_FEATURES
  6
Continuous
 62
     7
100
AcDbLine
 10
430.7002416978
 20
296.9373574747
 30
0.0
 11
430.1818207552
 21
296.9373574747
 31
0.0
  0
LINE
  5
554
330
1B
100
AcDbEntity
 67
     1
  8
7_ALL_FEATURES
  6
Continuous
 62
     7
100
AcDbLine
 10
431.7002416978
 20
296.9373574747
 30
0.0
 11
431.7002416978
 21
288.9373574747
 31
0.0
  0
LINE
  5
555
330
1B
100
AcDbEntity
 67
     1
  8
7_ALL_FEATURES
  6
Continuous
 62
     7
100
AcDbLine
 10
431.7002416978
 20
253.9373574747
 30
0.0
 11
430.7002416978
 21
253.9373574747
 31
0.0
  0
LINE
  5
556
330
1B
100
AcDbEntity
 67
     1
  8
7_ALL_FEATURES
  6
Continuous
 62
     7
100
AcDbLine
 10
430.7002416978
 20
253.9373574747
 30
0.0
 11
430.1818207552
 21
253.9373574747
 31
0.0
  0
LINE
  5
557
330
1B
100
AcDbEntity
 67
     1
  8
7_ALL_FEATURES
  6
Continuous
 62
     7
100
AcDbLine
 10
431.7002416978
 20
261.9373574747
 30
0.0
 11
430.7103777707
 21
261.9373574747
 31
0.0
  0
LINE
  5
558
330
1B
100
AcDbEntity
 67
     1
  8
7_ALL_FEATURES
  6
Continuous
 62
     7
100
AcDbLine
 10
430.7103777707
 20
261.9373574747
 30
0.0
 11
430.7002416978
 21
261.9373574747
 31
0.0
  0
LINE
  5
559
330
1B
100
AcDbEntity
 67
     1
  8
7_ALL_FEATURES
  6
Continuous
 62
     7
100
AcDbLine
 10
430.7002416978
 20
261.9373574747
 30
0.0
 11
430.1818207552
 21
261.9373574747
 31
0.0
  0
LINE
  5
55A
330
1B
100
AcDbEntity
 67
     1
  8
7_ALL_FEATURES
  6
Continuous
 62
     7
100
AcDbLine
 10
431.7002416978
 20
261.9373574747
 30
0.0
 11
431.7002416978
 21
253.9373574747
 31
0.0
  0
ARC
  5
55B
330
1B
100
AcDbEntity
 67
     1
  8
7_ALL_FEATURES
  6
Continuous
 62
     7
100
AcDbCircle
 10
409.8502416978
 20
244.4373574747
 30
0.0
 40
2.0
100
AcDbArc
 50
43.81306146040001
 51
136.1869385396
  0
ARC
  5
55C
330
1B
100
AcDbEntity
 67
     1
  8
7_ALL_FEATURES
  6
Continuous
 62
     7
100
AcDbCircle
 10
412.1954495777
 20
246.6873574747
 30
0.0
 40
1.25
100
AcDbArc
 50
223.8130614604
 51
270.0
  0
LINE
  5
55D
330
1B
100
AcDbEntity
 67
     1
  8
7_ALL_FEATURES
  6
Continuous
 62
     7
100
AcDbLine
 10
429.5502416978
 20
245.4373574747
 30
0.0
 11
412.1954495777
 21
245.4373574747
 31
0.0
  0
ARC
  5
55E
330
1B
100
AcDbEntity
 67
     1
  8
7_ALL_FEATURES
  6
Continuous
 62
     7
100
AcDbCircle
 10
429.5502416978
 20
245.9373574747
 30
0.0
 40
0.5
100
AcDbArc
 50
270.0
 51
360.0
  0
LINE
  5
55F
330
1B
100
AcDbEntity
 67
     1
  8
7_ALL_FEATURES
  6
Continuous
 62
     7
100
AcDbLine
 10
430.0502416978
 20
252.7373574747
 30
0.0
 11
430.0502416978
 21
245.9373574747
 31
0.0
  0
LINE
  5
560
330
1B
100
AcDbEntity
 67
     1
  8
7_ALL_FEATURES
  6
Continuous
 62
     7
100
AcDbLine
 10
430.0502416978
 20
252.7373574747
 30
0.0
 11
429.7002416978
 21
252.7373574747
 31
0.0
  0
LINE
  5
561
330
1B
100
AcDbEntity
 67
     1
  8
7_ALL_FEATURES
  6
Continuous
 62
     7
100
AcDbLine
 10
429.7002416978
 20
253.9373574747
 30
0.0
 11
429.7002416978
 21
252.7373574747
 31
0.0
  0
LINE
  5
562
330
1B
100
AcDbEntity
 67
     1
  8
7_ALL_FEATURES
  6
Continuous
 62
     7
100
AcDbLine
 10
429.7002416978
 20
261.9373574747
 30
0.0
 11
429.7002416978
 21
263.1373574747
 31
0.0
  0
LINE
  5
563
330
1B
100
AcDbEntity
 67
     1
  8
7_ALL_FEATURES
  6
Continuous
 62
     7
100
AcDbLine
 10
430.0502416978
 20
263.1373574747
 30
0.0
 11
429.7002416978
 21
263.1373574747
 31
0.0
  0
LINE
  5
564
330
1B
100
AcDbEntity
 67
     1
  8
7_ALL_FEATURES
  6
Continuous
 62
     7
100
AcDbLine
 10
430.0502416978
 20
287.7373574747
 30
0.0
 11
430.0502416978
 21
263.1373574747
 31
0.0
  0
LINE
  5
565
330
1B
100
AcDbEntity
 67
     1
  8
7_ALL_FEATURES
  6
Continuous
 62
     7
100
AcDbLine
 10
430.0502416978
 20
287.7373574747
 30
0.0
 11
429.7002416978
 21
287.7373574747
 31
0.0
  0
LINE
  5
566
330
1B
100
AcDbEntity
 67
     1
  8
7_ALL_FEATURES
  6
Continuous
 62
     7
100
AcDbLine
 10
429.7002416978
 20
288.9373574747
 30
0.0
 11
429.7002416978
 21
287.7373574747
 31
0.0
  0
LINE
  5
567
330
1B
100
AcDbEntity
 67
     1
  8
7_ALL_FEATURES
  6
Continuous
 62
     7
100
AcDbLine
 10
429.7002416978
 20
296.9373574747
 30
0.0
 11
429.7002416978
 21
298.1373574747
 31
0.0
  0
LINE
  5
568
330
1B
100
AcDbEntity
 67
     1
  8
7_ALL_FEATURES
  6
Continuous
 62
     7
100
AcDbLine
 10
430.0502416978
 20
298.1373574747
 30
0.0
 11
429.7002416978
 21
298.1373574747
 31
0.0
  0
LINE
  5
569
330
1B
100
AcDbEntity
 67
     1
  8
7_ALL_FEATURES
  6
Continuous
 62
     7
100
AcDbLine
 10
430.0502416978
 20
333.9373574747
 30
0.0
 11
430.0502416978
 21
298.1373574747
 31
0.0
  0
ARC
  5
56A
330
1B
100
AcDbEntity
 67
     1
  8
7_ALL_FEATURES
  6
Continuous
 62
     7
100
AcDbCircle
 10
429.5502416978
 20
333.9373574747
 30
0.0
 40
0.5
100
AcDbArc
 50
0.0
 51
90.0
  0
LINE
  5
56B
330
1B
100
AcDbEntity
 67
     1
  8
7_ALL_FEATURES
  6
Continuous
 62
     7
100
AcDbLine
 10
390.1502416978
 20
334.4373574747
 30
0.0
 11
429.5502416978
 21
334.4373574747
 31
0.0
  0
ARC
  5
56C
330
1B
100
AcDbEntity
 67
     1
  8
7_ALL_FEATURES
  6
Continuous
 62
     7
100
AcDbCircle
 10
390.1502416978
 20
333.9373574747
 30
0.0
 40
0.5
100
AcDbArc
 50
90.0
 51
180.0
  0
LINE
  5
56D
330
1B
100
AcDbEntity
 67
     1
  8
7_ALL_FEATURES
  6
Continuous
 62
     7
100
AcDbLine
 10
389.6502416978
 20
297.9373574747
 30
0.0
 11
389.6502416978
 21
333.9373574747
 31
0.0
  0
LINE
  5
56E
330
1B
100
AcDbEntity
 67
     1
  8
7_ALL_FEATURES
  6
Continuous
 62
     7
100
AcDbLine
 10
389.6502416978
 20
297.9373574747
 30
0.0
 11
390.0002416978
 21
297.9373574747
 31
0.0
  0
LINE
  5
56F
330
1B
100
AcDbEntity
 67
     1
  8
7_ALL_FEATURES
  6
Continuous
 62
     7
100
AcDbLine
 10
390.0002416978
 20
296.9373574747
 30
0.0
 11
390.0002416978
 21
297.9373574747
 31
0.0
  0
LINE
  5
570
330
1B
100
AcDbEntity
 67
     1
  8
7_ALL_FEATURES
  6
Continuous
 62
     7
100
AcDbLine
 10
390.0002416978
 20
288.9373574747
 30
0.0
 11
390.0002416978
 21
287.9373574747
 31
0.0
  0
LINE
  5
571
330
1B
100
AcDbEntity
 67
     1
  8
7_ALL_FEATURES
  6
Continuous
 62
     7
100
AcDbLine
 10
389.6502416978
 20
287.9373574747
 30
0.0
 11
390.0002416978
 21
287.9373574747
 31
0.0
  0
LINE
  5
572
330
1B
100
AcDbEntity
 67
     1
  8
7_ALL_FEATURES
  6
Continuous
 62
     7
100
AcDbLine
 10
389.6502416978
 20
263.1373574747
 30
0.0
 11
389.6502416978
 21
287.9373574747
 31
0.0
  0
LINE
  5
573
330
1B
100
AcDbEntity
 67
     1
  8
7_ALL_FEATURES
  6
Continuous
 62
     7
100
AcDbLine
 10
389.6502416978
 20
263.1373574747
 30
0.0
 11
390.0002416978
 21
263.1373574747
 31
0.0
  0
LINE
  5
574
330
1B
100
AcDbEntity
 67
     1
  8
7_ALL_FEATURES
  6
Continuous
 62
     7
100
AcDbLine
 10
390.0002416978
 20
261.9373574747
 30
0.0
 11
390.0002416978
 21
263.1373574747
 31
0.0
  0
LINE
  5
575
330
1B
100
AcDbEntity
 67
     1
  8
7_ALL_FEATURES
  6
Continuous
 62
     7
100
AcDbLine
 10
390.0002416978
 20
253.9373574747
 30
0.0
 11
390.0002416978
 21
252.7373574747
 31
0.0
  0
LINE
  5
576
330
1B
100
AcDbEntity
 67
     1
  8
7_ALL_FEATURES
  6
Continuous
 62
     7
100
AcDbLine
 10
389.6502416978
 20
252.7373574747
 30
0.0
 11
390.0002416978
 21
252.7373574747
 31
0.0
  0
LINE
  5
577
330
1B
100
AcDbEntity
 67
     1
  8
7_ALL_FEATURES
  6
Continuous
 62
     7
100
AcDbLine
 10
389.6502416978
 20
245.9373574747
 30
0.0
 11
389.6502416978
 21
252.7373574747
 31
0.0
  0
ARC
  5
578
330
1B
100
AcDbEntity
 67
     1
  8
7_ALL_FEATURES
  6
Continuous
 62
     7
100
AcDbCircle
 10
390.1502416978
 20
245.9373574747
 30
0.0
 40
0.5
100
AcDbArc
 50
180.0
 51
270.0
  0
LINE
  5
579
330
1B
100
AcDbEntity
 67
     1
  8
7_ALL_FEATURES
  6
Continuous
 62
     7
100
AcDbLine
 10
407.5050338179
 20
245.4373574747
 30
0.0
 11
390.1502416978
 21
245.4373574747
 31
0.0
  0
ARC
  5
57A
330
1B
100
AcDbEntity
 67
     1
  8
7_ALL_FEATURES
  6
Continuous
 62
     7
100
AcDbCircle
 10
407.5050338179
 20
246.6873574747
 30
0.0
 40
1.25
100
AcDbArc
 50
270.0
 51
316.1869385396
  0
ARC
  5
57B
330
1B
100
AcDbEntity
 67
     1
  8
02___PRT_ALL_AXES
  6
Continuous
 62
     7
100
AcDbCircle
 10
409.8502416978
 20
271.9373574747
 30
0.0
 40
9.5
100
AcDbArc
 50
182.0
 51
358.0
  0
LINE
  5
57C
330
1B
100
AcDbEntity
 67
     1
  8
02___PRT_ALL_AXES
  6
Continuous
 62
     7
100
AcDbLine
 10
419.844149968
 20
271.5883625076
 30
0.0
 11
419.3444545545
 21
271.605812256
 31
0.0
  0
ARC
  5
57D
330
1B
100
AcDbEntity
 67
     1
  8
02___PRT_ALL_AXES
  6
Continuous
 62
     7
100
AcDbCircle
 10
409.8502416978
 20
271.9373574747
 30
0.0
 40
10.0
100
AcDbArc
 50
182.0
 51
358.0
  0
LINE
  5
57E
330
1B
100
AcDbEntity
 67
     1
  8
02___PRT_ALL_AXES
  6
Continuous
 62
     7
100
AcDbLine
 10
400.3560288411
 20
271.605812256
 30
0.0
 11
399.8563334276
 21
271.5883625076
 31
0.0
  0
LINE
  5
57F
330
1B
100
AcDbEntity
 67
     1
  8
02___PRT_ALL_AXES
  6
Continuous
 62
     7
100
AcDbLine
 10
399.8563334276
 20
272.2863524417
 30
0.0
 11
400.3560288411
 21
272.2689026933
 31
0.0
  0
ARC
  5
580
330
1B
100
AcDbEntity
 67
     1
  8
02___PRT_ALL_AXES
  6
Continuous
 62
     7
100
AcDbCircle
 10
409.8502416978
 20
271.9373574747
 30
0.0
 40
10.0
100
AcDbArc
 50
2.0
 51
178.0
  0
LINE
  5
581
330
1B
100
AcDbEntity
 67
     1
  8
02___PRT_ALL_AXES
  6
Continuous
 62
     7
100
AcDbLine
 10
419.3444545545
 20
272.2689026933
 30
0.0
 11
419.844149968
 21
272.2863524417
 31
0.0
  0
ARC
  5
582
330
1B
100
AcDbEntity
 67
     1
  8
02___PRT_ALL_AXES
  6
Continuous
 62
     7
100
AcDbCircle
 10
409.8502416978
 20
271.9373574747
 30
0.0
 40
9.5
100
AcDbArc
 50
2.0
 51
178.0
  0
LINE
  5
583
330
1B
100
AcDbEntity
 67
     1
  8
7_ALL_FEATURES
  6
Continuous
 62
     7
100
AcDbLine
 10
389.5186626405
 20
296.9373574747
 30
0.0
 11
390.0002416978
 21
296.9373574747
 31
0.0
  0
LINE
  5
584
330
1B
100
AcDbEntity
 67
     1
  8
7_ALL_FEATURES
  6
Continuous
 62
     7
100
AcDbLine
 10
388.0002416978
 20
288.9373574747
 30
0.0
 11
388.0002416978
 21
296.9373574747
 31
0.0
  0
LINE
  5
585
330
1B
100
AcDbEntity
 67
     1
  8
7_ALL_FEATURES
  6
Continuous
 62
     7
100
AcDbLine
 10
389.5186626405
 20
288.9373574747
 30
0.0
 11
390.0002416978
 21
288.9373574747
 31
0.0
  0
LINE
  5
586
330
1B
100
AcDbEntity
 67
     1
  8
7_ALL_FEATURES
  6
Continuous
 62
     7
100
AcDbLine
 10
430.1818207552
 20
288.9373574747
 30
0.0
 11
429.7002416978
 21
288.9373574747
 31
0.0
  0
LINE
  5
587
330
1B
100
AcDbEntity
 67
     1
  8
7_ALL_FEATURES
  6
Continuous
 62
     7
100
AcDbLine
 10
431.7002416978
 20
296.9373574747
 30
0.0
 11
431.7002416978
 21
288.9373574747
 31
0.0
  0
LINE
  5
588
330
1B
100
AcDbEntity
 67
     1
  8
7_ALL_FEATURES
  6
Continuous
 62
     7
100
AcDbLine
 10
430.1818207552
 20
296.9373574747
 30
0.0
 11
429.7002416978
 21
296.9373574747
 31
0.0
  0
LINE
  5
589
330
1B
100
AcDbEntity
 67
     1
  8
7_ALL_FEATURES
  6
Continuous
 62
     7
100
AcDbLine
 10
389.5186626405
 20
261.9373574747
 30
0.0
 11
390.0002416978
 21
261.9373574747
 31
0.0
  0
LINE
  5
58A
330
1B
100
AcDbEntity
 67
     1
  8
7_ALL_FEATURES
  6
Continuous
 62
     7
100
AcDbLine
 10
388.0002416978
 20
261.9373574747
 30
0.0
 11
389.0002416978
 21
261.9373574747
 31
0.0
  0
LINE
  5
58B
330
1B
100
AcDbEntity
 67
     1
  8
7_ALL_FEATURES
  6
Continuous
 62
     7
100
AcDbLine
 10
389.0002416978
 20
261.9373574747
 30
0.0
 11
389.5186626405
 21
261.9373574747
 31
0.0
  0
LINE
  5
58C
330
1B
100
AcDbEntity
 67
     1
  8
7_ALL_FEATURES
  6
Continuous
 62
     7
100
AcDbLine
 10
388.0002416978
 20
253.9373574747
 30
0.0
 11
388.0002416978
 21
261.9373574747
 31
0.0
  0
LINE
  5
58D
330
1B
100
AcDbEntity
 67
     1
  8
7_ALL_FEATURES
  6
Continuous
 62
     7
100
AcDbLine
 10
388.0002416978
 20
253.9373574747
 30
0.0
 11
389.0002416978
 21
253.9373574747
 31
0.0
  0
LINE
  5
58E
330
1B
100
AcDbEntity
 67
     1
  8
7_ALL_FEATURES
  6
Continuous
 62
     7
100
AcDbLine
 10
389.0002416978
 20
253.9373574747
 30
0.0
 11
389.5186626405
 21
253.9373574747
 31
0.0
  0
LINE
  5
58F
330
1B
100
AcDbEntity
 67
     1
  8
7_ALL_FEATURES
  6
Continuous
 62
     7
100
AcDbLine
 10
389.5186626405
 20
253.9373574747
 30
0.0
 11
390.0002416978
 21
253.9373574747
 31
0.0
  0
LINE
  5
590
330
1B
100
AcDbEntity
 67
     1
  8
7_ALL_FEATURES
  6
Continuous
 62
     7
100
AcDbLine
 10
430.1818207552
 20
253.9373574747
 30
0.0
 11
429.7002416978
 21
253.9373574747
 31
0.0
  0
LINE
  5
591
330
1B
100
AcDbEntity
 67
     1
  8
7_ALL_FEATURES
  6
Continuous
 62
     7
100
AcDbLine
 10
431.7002416978
 20
261.9373574747
 30
0.0
 11
431.7002416978
 21
253.9373574747
 31
0.0
  0
LINE
  5
592
330
1B
100
AcDbEntity
 67
     1
  8
7_ALL_FEATURES
  6
Continuous
 62
     7
100
AcDbLine
 10
430.1818207552
 20
261.9373574747
 30
0.0
 11
429.7002416978
 21
261.9373574747
 31
0.0
  0
LINE
  5
593
330
1B
100
AcDbEntity
 67
     1
  8
7_ALL_FEATURES
  6
Continuous
 62
     9
100
AcDbLine
 10
390.0002416978
 20
253.9373574747
 30
0.0
 11
390.0002416978
 21
261.9373574747
 31
0.0
  0
LINE
  5
594
330
1B
100
AcDbEntity
 67
     1
  8
7_ALL_FEATURES
  6
Continuous
 62
     9
100
AcDbLine
 10
390.0002416978
 20
288.9373574747
 30
0.0
 11
390.0002416978
 21
296.9373574747
 31
0.0
  0
LINE
  5
595
330
1B
100
AcDbEntity
 67
     1
  8
7_ALL_FEATURES
  6
Continuous
 62
     9
100
AcDbLine
 10
429.7002416978
 20
261.9373574747
 30
0.0
 11
429.7002416978
 21
253.9373574747
 31
0.0
  0
LINE
  5
596
330
1B
100
AcDbEntity
 67
     1
  8
7_ALL_FEATURES
  6
Continuous
 62
     9
100
AcDbLine
 10
429.7002416978
 20
296.9373574747
 30
0.0
 11
429.7002416978
 21
288.9373574747
 31
0.0
  0
LINE
  5
597
330
1B
100
AcDbEntity
 67
     1
  8
7_ALL_FEATURES
  6
Continuous
 62
     3
100
AcDbLine
 10
365.3502416978
 20
246.6373574747
 30
0.0
 11
371.6002416978
 21
246.6373574747
 31
0.0
  0
LINE
  5
598
330
1B
100
AcDbEntity
 67
     1
  8
7_ALL_FEATURES
  6
Continuous
 62
     3
100
AcDbLine
 10
371.6002416978
 20
246.6373574747
 30
0.0
 11
374.8502416978
 21
246.6373574747
 31
0.0
  0
LINE
  5
599
330
1B
100
AcDbEntity
 67
     1
  8
7_ALL_FEATURES
  6
Continuous
 62
     3
100
AcDbLine
 10
374.8502416978
 20
246.6373574747
 30
0.0
 11
375.3502416978
 21
246.6373574747
 31
0.0
  0
LINE
  5
59A
330
1B
100
AcDbEntity
 67
     1
  8
7_ALL_FEATURES
  6
Continuous
 62
     3
100
AcDbLine
 10
444.3502416978
 20
246.6373574747
 30
0.0
 11
444.8502416978
 21
246.6373574747
 31
0.0
  0
LINE
  5
59B
330
1B
100
AcDbEntity
 67
     1
  8
7_ALL_FEATURES
  6
Continuous
 62
     3
100
AcDbLine
 10
444.8502416978
 20
246.6373574747
 30
0.0
 11
448.1002416978
 21
246.6373574747
 31
0.0
  0
LINE
  5
59C
330
1B
100
AcDbEntity
 67
     1
  8
7_ALL_FEATURES
  6
Continuous
 62
     3
100
AcDbLine
 10
448.1002416978
 20
246.6373574747
 30
0.0
 11
454.3502416978
 21
246.6373574747
 31
0.0
  0
LINE
  5
59D
330
1B
100
AcDbEntity
 67
     1
  8
7_ALL_FEATURES
  6
Continuous
 62
     3
100
AcDbLine
 10
375.3502416978
 20
246.6373574747
 30
0.0
 11
389.6502416978
 21
246.6373574747
 31
0.0
  0
LINE
  5
59E
330
1B
100
AcDbEntity
 67
     1
  8
7_ALL_FEATURES
  6
Continuous
 62
     3
100
AcDbLine
 10
430.0502416978
 20
246.6373574747
 30
0.0
 11
444.3502416978
 21
246.6373574747
 31
0.0
  0
DIMENSION
  5
59F
330
1B
100
AcDbEntity
 67
     1
  8
0
  6
Continuous
 62
     2
100
AcDbDimension
280
     0
  2
*D1
 10
321.4246961867
 20
244.1873574747
 30
0.0
 11
321.4246961867
 21
288.8837891828
 31
0.0
 70
   160
 71
     5
 42
-1.0
 73
     0
 74
     0
 75
     0
  3
DIMSTYLE_1
100
AcDbAlignedDimension
 13
319.0960191225
 23
334.4373574747
 33
0.0
 14
319.6546138186
 24
244.1873574747
 34
0.0
 50
270.0
100
AcDbRotatedDimension
  0
DIMENSION
  5
5A0
330
1B
100
AcDbEntity
 67
     1
  8
0
  6
Continuous
 62
     2
100
AcDbDimension
280
     0
  2
*D2
 10
321.4246961867
 20
165.9977916996
 30
0.0
 11
321.4246961867
 21
143.7192234078
 31
0.0
 70
   160
 71
     5
 42
-1.0
 73
     0
 74
     0
 75
     0
  3
DIMSTYLE_1
100
AcDbAlignedDimension
 13
319.5584131718
 23
122.2977916996
 33
0.0
 14
319.5584131718
 24
165.9977916996
 34
0.0
 50
90.0
100
AcDbRotatedDimension
  0
DIMENSION
  5
5A1
330
1B
100
AcDbEntity
 67
     1
  8
0
  6
Continuous
 62
     2
100
AcDbDimension
280
     0
  2
*D3
 10
328.9589342803
 20
99.6477916996
 30
0.0
 11
328.9589342803
 21
143.7192212761
 31
0.0
 70
   160
 71
     5
 42
-1.0
 73
     0
 74
     0
 75
     0
  3
DIMSTYLE_2
100
AcDbAlignedDimension
 13
319.5169471838
 23
188.6477916996
 33
0.0
 14
319.9122547582
 24
99.6477916996
 34
0.0
 50
270.0
100
AcDbRotatedDimension
  0
DIMENSION
  5
5A2
330
1B
100
AcDbEntity
 67
     1
  8
0
  6
Continuous
 62
     2
100
AcDbDimension
280
     0
  2
*D4
 10
307.6799778294
 20
82.3927011563
 30
0.0
 11
176.001413269
 21
82.3927011563
 31
0.0
 70
   160
 71
     5
 42
-1.0
 73
     0
 74
     0
 75
     0
  3
DIMSTYLE_3
100
AcDbAlignedDimension
 13
45.1799778294
 23
91.138325881
 33
0.0
 14
307.6799778294
 24
91.138325881
 34
0.0
100
AcDbRotatedDimension
  0
LINE
  5
5A3
330
1B
100
AcDbEntity
 67
     1
  8
0
  6
Continuous
 62
     2
100
AcDbLine
 10
459.1477248733
 20
71.7011877111
 30
0.0
 11
589.1477248733
 21
71.7011877111
 31
0.0
  0
LINE
  5
5A4
330
1B
100
AcDbEntity
 67
     1
  8
0
  6
Continuous
 62
     2
100
AcDbLine
 10
459.1477248733
 20
71.7011877111
 30
0.0
 11
459.1477248733
 21
5.7011877111
 31
0.0
  0
LINE
  5
5A5
330
1B
100
AcDbEntity
 67
     1
  8
0
  6
Continuous
 62
     2
100
AcDbLine
 10
489.1477248733
 20
63.7011877111
 30
0.0
 11
589.1477248733
 21
63.7011877111
 31
0.0
  0
LINE
  5
5A6
330
1B
100
AcDbEntity
 67
     1
  8
0
  6
Continuous
 62
     2
100
AcDbLine
 10
459.1477248733
 20
55.7011877111
 30
0.0
 11
589.1477248733
 21
55.7011877111
 31
0.0
  0
LINE
  5
5A7
330
1B
100
AcDbEntity
 67
     1
  8
0
  6
Continuous
 62
     2
100
AcDbLine
 10
489.1477248733
 20
49.7011877111
 30
0.0
 11
589.1477248733
 21
49.7011877111
 31
0.0
  0
LINE
  5
5A8
330
1B
100
AcDbEntity
 67
     1
  8
0
  6
Continuous
 62
     2
100
AcDbLine
 10
489.1477248733
 20
43.7011877111
 30
0.0
 11
589.1477248733
 21
43.7011877111
 31
0.0
  0
LINE
  5
5A9
330
1B
100
AcDbEntity
 67
     1
  8
0
  6
Continuous
 62
     2
100
AcDbLine
 10
489.1477248733
 20
37.7011877111
 30
0.0
 11
589.1477248733
 21
37.7011877111
 31
0.0
  0
LINE
  5
5AA
330
1B
100
AcDbEntity
 67
     1
  8
0
  6
Continuous
 62
     2
100
AcDbLine
 10
489.1477248733
 20
31.7011877111
 30
0.0
 11
589.1477248733
 21
31.7011877111
 31
0.0
  0
LINE
  5
5AB
330
1B
100
AcDbEntity
 67
     1
  8
0
  6
Continuous
 62
     2
100
AcDbLine
 10
489.1477248733
 20
25.7011877111
 30
0.0
 11
589.1477248733
 21
25.7011877111
 31
0.0
  0
LINE
  5
5AC
330
1B
100
AcDbEntity
 67
     1
  8
0
  6
Continuous
 62
     2
100
AcDbLine
 10
459.1477248733
 20
19.7011877111
 30
0.0
 11
589.1477248733
 21
19.7011877111
 31
0.0
  0
LINE
  5
5AD
330
1B
100
AcDbEntity
 67
     1
  8
0
  6
Continuous
 62
     2
100
AcDbLine
 10
459.1477248733
 20
13.7011877111
 30
0.0
 11
589.1477248733
 21
13.7011877111
 31
0.0
  0
LINE
  5
5AE
330
1B
100
AcDbEntity
 67
     1
  8
0
  6
Continuous
 62
     2
100
AcDbLine
 10
459.1477248733
 20
9.7011877111
 30
0.0
 11
589.1477248733
 21
9.7011877111
 31
0.0
  0
LINE
  5
5AF
330
1B
100
AcDbEntity
 67
     1
  8
0
  6
Continuous
 62
     2
100
AcDbLine
 10
459.1477248733
 20
5.7011877111
 30
0.0
 11
589.1477248733
 21
5.7011877111
 31
0.0
  0
LINE
  5
5B0
330
1B
100
AcDbEntity
 67
     1
  8
0
  6
Continuous
 62
     2
100
AcDbLine
 10
489.1477248733
 20
71.7011877111
 30
0.0
 11
489.1477248733
 21
13.7011877111
 31
0.0
  0
LINE
  5
5B1
330
1B
100
AcDbEntity
 67
     1
  8
0
  6
Continuous
 62
     2
100
AcDbLine
 10
509.1477248733
 20
55.7011877111
 30
0.0
 11
509.1477248733
 21
49.7011877111
 31
0.0
  0
LINE
  5
5B2
330
1B
100
AcDbEntity
 67
     1
  8
0
  6
Continuous
 62
     2
100
AcDbLine
 10
539.1477248733
 20
25.7011877111
 30
0.0
 11
539.1477248733
 21
13.7011877111
 31
0.0
  0
LINE
  5
5B3
330
1B
100
AcDbEntity
 67
     1
  8
0
  6
Continuous
 62
     2
100
AcDbLine
 10
549.1477248733
 20
55.7011877111
 30
0.0
 11
549.1477248733
 21
49.7011877111
 31
0.0
  0
LINE
  5
5B4
330
1B
100
AcDbEntity
 67
     1
  8
0
  6
Continuous
 62
     2
100
AcDbLine
 10
549.1477248733
 20
43.7011877111
 30
0.0
 11
549.1477248733
 21
37.7011877111
 31
0.0
  0
LINE
  5
5B5
330
1B
100
AcDbEntity
 67
     1
  8
0
  6
Continuous
 62
     2
100
AcDbLine
 10
569.1477248733
 20
55.7011877111
 30
0.0
 11
569.1477248733
 21
49.7011877111
 31
0.0
  0
LINE
  5
5B6
330
1B
100
AcDbEntity
 67
     1
  8
0
  6
Continuous
 62
     2
100
AcDbLine
 10
579.1477248733
 20
43.7011877111
 30
0.0
 11
579.1477248733
 21
37.7011877111
 31
0.0
  0
LINE
  5
5B7
330
1B
100
AcDbEntity
 67
     1
  8
0
  6
Continuous
 62
     2
100
AcDbLine
 10
589.1477248733
 20
71.7011877111
 30
0.0
 11
589.1477248733
 21
5.7011877111
 31
0.0
  0
INSERT
  5
5B8
330
1B
100
AcDbEntity
 67
     1
  8
0
  6
Continuous
 62
     2
100
AcDbBlockReference
  2
PROIEZIONE_EU_BL0
 10
474.1477248733
 20
63.3261877111
 30
0.0
  0
MTEXT
  5
5B9
330
1B
100
AcDbEntity
 67
     1
  8
9_SOLID
  6
Continuous
 62
     2
100
AcDbMText
 10
490.6352248733
 20
70.0761877111
 30
0.0
 40
1.9
 41
142.3642857143
 46
0.0
 71
     1
 72
     1
  1
EN: Chamfer/radii unlisted 0.3x45°. Remove sharp edges.\PGen. tol.: hole H11, shaft h11, lenght Js12. UNI EN 22768 Medium Grande.
 73
     1
 44
1.0
  0
MTEXT
  5
5BA
330
1B
100
AcDbEntity
 67
     1
  8
9_SOLID
  6
Continuous
 62
     2
100
AcDbMText
 10
490.6352248733
 20
62.0761877111
 30
0.0
 40
1.9
 41
148.2678571429
 46
0.0
 71
     1
 72
     1
  1
IT: Sm./rac. non quotati 0.3x45°. Eliminare spigoli taglienti.\PToll. gen.: foro H11, albero h11, lunghezza Js12. UNI EN 22768 Grado Medio.
 73
     1
 44
1.0
  0
INSERT
  5
5BB
330
1B
100
AcDbEntity
 67
     1
  8
0
  6
Continuous
 62
     2
100
AcDbBlockReference
  2
LOGO2_BL1
 10
472.9737719181
 20
37.7011877111
 30
0.0
  0
MTEXT
  5
5BC
330
1B
100
AcDbEntity
 67
     1
  8
9_SOLID
  6
Continuous
 62
     2
100
AcDbMText
 10
490.6352248733
 20
53.9511877111
 30
0.0
 40
3.0
 41
21.1071428571
 46
0.0
 71
     1
 72
     1
  1
Pj: 571
 73
     1
 44
1.0
  0
MTEXT
  5
5BD
330
1B
100
AcDbEntity
 67
     1
  8
0
  6
Continuous
 62
     2
100
AcDbMText
 10
510.6352248733
 20
53.9511877111
 30
0.0
 40
3.0
 41
41.5714285714
 46
0.0
 71
     1
 72
     1
  1
% Check:  %
 73
     1
 44
1.0
  0
MTEXT
  5
5BE
330
1B
100
AcDbEntity
 67
     1
  8
9_SOLID
  6
Continuous
 62
     2
100
AcDbMText
 10
550.6352248733
 20
53.9511877111
 30
0.0
 40
3.0
 41
19.5
 46
0.0
 71
     1
 72
     1
  1
Rev:00
 73
     1
 44
1.0
  0
MTEXT
  5
5BF
330
1B
100
AcDbEntity
 67
     1
  8
9_SOLID
  6
Continuous
 62
     2
100
AcDbMText
 10
570.6352248733
 20
54.2011877111
 30
0.0
 40
3.0
 41
19.7142857143
 46
0.0
 71
     1
 72
     1
  1
Ver: A
 73
     1
 44
1.0
  0
MTEXT
  5
5C0
330
1B
100
AcDbEntity
 67
     1
  8
9_SOLID
  6
Continuous
 62
     2
100
AcDbMText
 10
490.6352248733
 20
47.9511877111
 30
0.0
 40
3.0
 41
73.3928571429
 46
0.0
 71
     1
 72
     1
  1
Neutral code: 571_C_456
 73
     1
 44
1.0
  0
MTEXT
  5
5C1
330
1B
100
AcDbEntity
 67
     1
  8
0
  6
Continuous
 62
     2
100
AcDbMText
 10
490.6352248733
 20
41.9511877111
 30
0.0
 40
3.0
 41
22.9285714286
 46
0.0
 71
     1
 72
     1
  1
Code:  
 73
     1
 44
1.0
  0
MTEXT
  5
5C2
330
1B
100
AcDbEntity
 67
     1
  8
9_SOLID
  6
Continuous
 62
     2
100
AcDbMText
 10
550.6352248733
 20
42.2011877111
 30
0.0
 40
3.0
 41
27.8571428571
 46
0.0
 71
     1
 72
     1
  1
Scale: 1:1
 73
     1
 44
1.0
  0
MTEXT
  5
5C3
330
1B
100
AcDbEntity
 67
     1
  8
9_SOLID
  6
Continuous
 62
     2
100
AcDbMText
 10
584.1477248733
 20
42.2011877111
 30
0.0
 40
3.0
 41
8.25
 46
0.0
 71
     2
 72
     1
  1
A2
 73
     1
 44
1.0
  0
MTEXT
  5
5C4
330
1B
100
AcDbEntity
 67
     1
  8
9_SOLID
  6
Continuous
 62
     2
100
AcDbMText
 10
490.6352248733
 20
36.2011877111
 30
0.0
 40
3.0
 41
92.8928571429
 46
0.0
 71
     1
 72
     1
  1
It descr.: Cassaforma WC8250
 73
     1
 44
1.0
  0
MTEXT
  5
5C5
330
1B
100
AcDbEntity
 67
     1
  8
0
  6
Continuous
 62
     2
100
AcDbMText
 10
490.6352248733
 20
30.2011877111
 30
0.0
 40
3.0
 41
37.5
 46
0.0
 71
     1
 72
     1
  1
En descr.:  
 73
     1
 44
1.0
  0
MTEXT
  5
5C6
330
1B
100
AcDbEntity
 67
     1
  8
9_SOLID
  6
Continuous
 62
     2
100
AcDbMText
 10
490.6352248733
 20
24.2011877111
 30
0.0
 40
3.0
 41
31.2857142857
 46
0.0
 71
     1
 72
     1
  1
Des.: S.Z.
 73
     1
 44
1.0
  0
MTEXT
  5
5C7
330
1B
100
AcDbEntity
 67
     1
  8
9_SOLID
  6
Continuous
 62
     2
100
AcDbMText
 10
540.6352248733
 20
24.2011877111
 30
0.0
 40
3.0
 41
22.2857142857
 46
0.0
 71
     1
 72
     1
  1
Check: 
 73
     1
 44
1.0
  0
MTEXT
  5
5C8
330
1B
100
AcDbEntity
 67
     1
  8
9_SOLID
  6
Continuous
 62
     2
100
AcDbMText
 10
460.6352248733
 20
18.2011877111
 30
0.0
 40
3.0
 41
43.5
 46
0.0
 71
     1
 72
     1
  1
Date: 06.12.18
 73
     1
 44
1.0
  0
MTEXT
  5
5C9
330
1B
100
AcDbEntity
 67
     1
  8
0
  6
Continuous
 62
     2
100
AcDbMText
 10
490.6352248733
 20
18.2011877111
 30
0.0
 40
3.0
 41
21.75
 46
0.0
 71
     1
 72
     1
  1
Mat.:  
 73
     1
 44
1.0
  0
MTEXT
  5
5CA
330
1B
100
AcDbEntity
 67
     1
  8
9_SOLID
  6
Continuous
 62
     2
100
AcDbMText
 10
540.6352248733
 20
17.7011877111
 30
0.0
 40
2.0
 41
42.3571428571
 46
0.0
 71
     1
 72
     1
  1
Disegno per catalogo
 73
     1
 44
1.0
  0
MTEXT
  5
5CB
330
1B
100
AcDbEntity
 67
     1
  8
9_SOLID
  6
Continuous
 62
     2
100
AcDbMText
 10
460.6352248733
 20
12.6011877111
 30
0.0
 40
1.8
 41
176.2071428571
 46
0.0
 71
     1
 72
     1
  1
It: A norma di legge si diffida da qualsiasi riproduzione senza nostra autorizzazione esplicita.
 73
     1
 44
1.0
  0
MTEXT
  5
5CC
330
1B
100
AcDbEntity
 67
     1
  8
9_SOLID
  6
Continuous
 62
     2
100
AcDbMText
 10
460.6352248733
 20
8.6011877111
 30
0.0
 40
1.8
 41
158.1428571429
 46
0.0
 71
     1
 72
     1
  1
En: According to the law, beware of any reproduction made without our authorization.
 73
     1
 44
1.0
  0
ENDSEC
  0
SECTION
  2
OBJECTS
  0
DICTIONARY
  5
5CD
330
0
100
AcDbDictionary
281
     1
  3
ACAD_DETAILVIEWSTYLE
350
623
  3
ACAD_GROUP
350
5CE
  3
ACAD_LAYOUT
350
5F6
  3
ACAD_MATERIAL
350
612
  3
ACAD_MLEADERSTYLE
350
618
  3
ACAD_MLINESTYLE
350
5CF
  3
ACAD_PLOTSETTINGS
350
5D1
  3
ACAD_PLOTSTYLENAME
350
5D2
  3
ACAD_SCALELIST
350
5D4
  3
ACAD_SECTIONVIEWSTYLE
350
624
  3
ACAD_TABLESTYLE
350
616
  3
ACAD_VISUALSTYLE
350
5F9
  3
ACDB_RECOMPOSE_DATA
350
627
  3
AcDbVariableDictionary
350
61B
  3
APPDATA
350
61A
  0
DICTIONARY
  5
623
102
{ACAD_REACTORS
330
5CD
102
}
330
5CD
100
AcDbDictionary
281
     1
  0
DICTIONARY
  5
5CE
102
{ACAD_REACTORS
330
5CD
102
}
330
5CD
100
AcDbDictionary
281
     1
  0
DICTIONARY
  5
5F6
102
{ACAD_REACTORS
330
5CD
102
}
330
5CD
100
AcDbDictionary
281
     1
  3
Foglio 1
350
5F8
  3
Model
350
5F7
  0
DICTIONARY
  5
612
102
{ACAD_REACTORS
330
5CD
102
}
330
5CD
100
AcDbDictionary
281
     1
  3
ByBlock
350
614
  3
ByLayer
350
613
  3
Global
350
615
  0
DICTIONARY
  5
618
102
{ACAD_REACTORS
330
5CD
102
}
330
5CD
100
AcDbDictionary
281
     1
  3
Standard
350
619
  0
DICTIONARY
  5
5CF
102
{ACAD_REACTORS
330
5CD
102
}
330
5CD
100
AcDbDictionary
281
     1
  3
STANDARD
350
5D0
  0
DICTIONARY
  5
5D1
102
{ACAD_REACTORS
330
5CD
102
}
330
5CD
100
AcDbDictionary
281
     1
  0
ACDBDICTIONARYWDFLT
  5
5D2
102
{ACAD_REACTORS
330
5CD
102
}
330
5CD
100
AcDbDictionary
281
     1
  3
Normal
350
5D3
100
AcDbDictionaryWithDefault
340
5D3
  0
DICTIONARY
  5
5D4
102
{ACAD_REACTORS
330
5CD
102
}
330
5CD
100
AcDbDictionary
281
     1
  3
A0
350
5D5
  3
A1
350
5D6
  3
A2
350
5D7
  3
A3
350
5D8
  3
A4
350
5D9
  3
A5
350
5DA
  3
A6
350
5DB
  3
A7
350
5DC
  3
A8
350
5DD
  3
A9
350
5DE
  3
B0
350
5DF
  3
B1
350
5E0
  3
B2
350
5E1
  3
B3
350
5E2
  3
B4
350
5E3
  3
B5
350
5E4
  3
B6
350
5E5
  3
B7
350
5E6
  3
B8
350
5E7
  3
B9
350
5E8
  3
C0
350
5E9
  3
C1
350
5EA
  3
C2
350
5EB
  3
C3
350
5EC
  3
C4
350
5ED
  3
C5
350
5EE
  3
C6
350
5EF
  3
C7
350
5F0
  3
C8
350
5F1
  3
C9
350
5F2
  3
D0
350
5F3
  3
D1
350
5F4
  3
D2
350
5F5
  0
DICTIONARY
  5
624
102
{ACAD_REACTORS
330
5CD
102
}
330
5CD
100
AcDbDictionary
281
     1
  0
DICTIONARY
  5
616
102
{ACAD_REACTORS
330
5CD
102
}
330
5CD
100
AcDbDictionary
281
     1
  3
Standard
350
617
  0
DICTIONARY
  5
5F9
102
{ACAD_REACTORS
330
5CD
102
}
330
5CD
100
AcDbDictionary
281
     1
  3
2dWireframe
350
5FE
  3
Basic
350
601
  3
Brighten
350
605
  3
ColorChange
350
609
  3
Conceptual
350
603
  3
Dim
350
604
  3
EdgeColorOff
350
60C
  3
Facepattern
350
608
  3
Flat
350
5FA
  3
FlatWithEdges
350
5FB
  3
Gouraud
350
5FC
  3
GouraudWithEdges
350
5FD
  3
Hidden
350
600
  3
JitterOff
350
60A
  3
Linepattern
350
607
  3
OverhangOff
350
60B
  3
Realistic
350
602
  3
Shaded
350
611
  3
Shaded with edges
350
610
  3
Shades of Gray
350
60D
  3
Sketchy
350
60E
  3
Thicken
350
606
  3
Wireframe
350
5FF
  3
X-Ray
350
60F
  0
XRECORD
  5
627
102
{ACAD_REACTORS
330
5CD
102
}
330
5CD
100
AcDbXrecord
280
     1
 90
        1
330
617
  0
DICTIONARY
  5
61B
102
{ACAD_REACTORS
330
5CD
102
}
330
5CD
100
AcDbDictionary
281
     1
  3
CANNOSCALE
350
61C
  3
CMLEADERSTYLE
350
621
  3
CTABLESTYLE
350
620
  3
MSLTSCALE
350
622
  0
DICTIONARY
  5
61A
102
{ACAD_REACTORS
330
5CD
102
}
330
5CD
100
AcDbDictionary
281
     1
  0
LAYOUT
  5
5F8
102
{ACAD_REACTORS
330
5F6
102
}
330
5F6
100
AcDbPlotSettings
  1

  2
none_device
  4
ISO_A3_(420.00_x_297.00_MM)
  6

 40
7.5
 41
20.0
 42
7.5
 43
20.0
 44
420.0
 45
297.0
 46
0.0
 47
0.0
 48
0.0
 49
0.0
140
0.0
141
0.0
142
1.0
143
1.634241245136187
 70
   688
 72
     1
 73
     0
 74
     1
  7

 75
     0
 76
     0
 77
     2
 78
   300
147
0.611904761904762
148
0.0
149
0.0
100
AcDbLayout
  1
Foglio 1
 70
     1
 71
     1
 10
0.0
 20
0.0
 11
412.5
 21
277.0
 12
0.0
 22
0.0
 32
0.0
 14
0.0
 24
0.0
 34
0.0
 15
596.6868915399666
 25
420.0
 35
0.0
146
0.0
 13
0.0
 23
0.0
 33
0.0
 16
1.0
 26
0.0
 36
0.0
 17
0.0
 27
1.0
 37
0.0
 76
     0
330
1B
331
29F
  0
LAYOUT
  5
5F7
102
{ACAD_REACTORS
330
5F6
102
}
330
5F6
100
AcDbPlotSettings
  1

  2
none_device
  4
Letter_(8.50_x_11.00_Inches)
  6

 40
6.35
 41
6.35
 42
6.35
 43
6.35
 44
215.9
 45
279.4
 46
0.0
 47
0.0
 48
0.0
 49
0.0
140
0.0
141
0.0
142
1.0
143
74.25000000075
 70
  1712
 72
     0
 73
     0
 74
     0
  7

 75
     0
 76
     0
 77
     2
 78
   300
147
0.0134680134678774
148
0.000000076200638
149
0.0
100
AcDbLayout
  1
Model
 70
     1
 71
     0
 10
0.0
 20
0.0
 11
594.0
 21
420.0
 12
0.0
 22
0.0
 32
0.0
 14
0.0
 24
0.0
 34
0.0
 15
594.0
 25
420.0
 35
0.0
146
0.0
 13
0.0
 23
0.0
 33
0.0
 16
1.0
 26
0.0
 36
0.0
 17
0.0
 27
1.0
 37
0.0
 76
     0
330
1F
331
1F4
  0
MATERIAL
  5
614
102
{ACAD_REACTORS
330
612
102
}
330
612
100
AcDbMaterial
  1
ByBlock
 72
     1
 94
      127
  0
MATERIAL
  5
613
102
{ACAD_REACTORS
330
612
102
}
330
612
100
AcDbMaterial
  1
ByLayer
 72
     1
 94
      127
  0
MATERIAL
  5
615
102
{ACAD_REACTORS
330
612
102
}
330
612
100
AcDbMaterial
  1
Global
 72
     1
 94
      127
  0
MLEADERSTYLE
  5
619
102
{ACAD_REACTORS
330
618
102
}
330
618
100
AcDbMLeaderStyle
179
     2
170
     2
171
     1
172
     0
 90
        2
 40
0.0
 41
0.0
173
     1
 91
-1056964608
340
14
 92
       -2
290
     1
 42
2.0
291
     1
 43
8.0
  3
Standard
341
0
 44
4.0
300

342
11
174
     1
178
     1
175
     1
176
     0
 93
-1056964608
 45
4.0
292
     0
297
     0
 46
4.0
343
0
 94
-1056964608
 47
1.0
 49
1.0
140
1.0
293
     1
141
0.0
294
     1
177
     0
142
1.0
295
     0
296
     0
143
3.75
271
     0
272
     9
273
     9
298
     0
  0
MLINESTYLE
  5
5D0
102
{ACAD_REACTORS
330
5CF
102
}
330
5CF
100
AcDbMlineStyle
  2
STANDARD
 70
     0
  3

 62
   256
 51
90.0
 52
90.0
 71
     2
 49
0.5
 62
   256
  6
BYLAYER
 49
-0.5
 62
   256
  6
BYLAYER
  0
ACDBPLACEHOLDER
  5
5D3
102
{ACAD_REACTORS
330
5D2
102
}
330
5D2
  0
SCALE
  5
5D5
102
{ACAD_REACTORS
330
5D4
102
}
330
5D4
100
AcDbScale
 70
     0
300
1:1
140
1.0
141
1.0
290
     1
  0
SCALE
  5
5D6
102
{ACAD_REACTORS
330
5D4
102
}
330
5D4
100
AcDbScale
 70
     0
300
1:2
140
1.0
141
2.0
290
     0
  0
SCALE
  5
5D7
102
{ACAD_REACTORS
330
5D4
102
}
330
5D4
100
AcDbScale
 70
     0
300
1:4
140
1.0
141
4.0
290
     0
  0
SCALE
  5
5D8
102
{ACAD_REACTORS
330
5D4
102
}
330
5D4
100
AcDbScale
 70
     0
300
1:5
140
1.0
141
5.0
290
     0
  0
SCALE
  5
5D9
102
{ACAD_REACTORS
330
5D4
102
}
330
5D4
100
AcDbScale
 70
     0
300
1:8
140
1.0
141
8.0
290
     0
  0
SCALE
  5
5DA
102
{ACAD_REACTORS
330
5D4
102
}
330
5D4
100
AcDbScale
 70
     0
300
1:10
140
1.0
141
10.0
290
     0
  0
SCALE
  5
5DB
102
{ACAD_REACTORS
330
5D4
102
}
330
5D4
100
AcDbScale
 70
     0
300
1:16
140
1.0
141
16.0
290
     0
  0
SCALE
  5
5DC
102
{ACAD_REACTORS
330
5D4
102
}
330
5D4
100
AcDbScale
 70
     0
300
1:20
140
1.0
141
20.0
290
     0
  0
SCALE
  5
5DD
102
{ACAD_REACTORS
330
5D4
102
}
330
5D4
100
AcDbScale
 70
     0
300
1:30
140
1.0
141
30.0
290
     0
  0
SCALE
  5
5DE
102
{ACAD_REACTORS
330
5D4
102
}
330
5D4
100
AcDbScale
 70
     0
300
1:40
140
1.0
141
40.0
290
     0
  0
SCALE
  5
5DF
102
{ACAD_REACTORS
330
5D4
102
}
330
5D4
100
AcDbScale
 70
     0
300
1:50
140
1.0
141
50.0
290
     0
  0
SCALE
  5
5E0
102
{ACAD_REACTORS
330
5D4
102
}
330
5D4
100
AcDbScale
 70
     0
300
1:100
140
1.0
141
100.0
290
     0
  0
SCALE
  5
5E1
102
{ACAD_REACTORS
330
5D4
102
}
330
5D4
100
AcDbScale
 70
     0
300
2:1
140
2.0
141
1.0
290
     0
  0
SCALE
  5
5E2
102
{ACAD_REACTORS
330
5D4
102
}
330
5D4
100
AcDbScale
 70
     0
300
4:1
140
4.0
141
1.0
290
     0
  0
SCALE
  5
5E3
102
{ACAD_REACTORS
330
5D4
102
}
330
5D4
100
AcDbScale
 70
     0
300
8:1
140
8.0
141
1.0
290
     0
  0
SCALE
  5
5E4
102
{ACAD_REACTORS
330
5D4
102
}
330
5D4
100
AcDbScale
 70
     0
300
10:1
140
10.0
141
1.0
290
     0
  0
SCALE
  5
5E5
102
{ACAD_REACTORS
330
5D4
102
}
330
5D4
100
AcDbScale
 70
     0
300
100:1
140
100.0
141
1.0
290
     0
  0
SCALE
  5
5E6
102
{ACAD_REACTORS
330
5D4
102
}
330
5D4
100
AcDbScale
 70
     0
300
1/128" = 1'-0"
140
0.0078125
141
12.0
290
     0
  0
SCALE
  5
5E7
102
{ACAD_REACTORS
330
5D4
102
}
330
5D4
100
AcDbScale
 70
     0
300
1/64" = 1'-0"
140
0.015625
141
12.0
290
     0
  0
SCALE
  5
5E8
102
{ACAD_REACTORS
330
5D4
102
}
330
5D4
100
AcDbScale
 70
     0
300
1/32" = 1'-0"
140
0.03125
141
12.0
290
     0
  0
SCALE
  5
5E9
102
{ACAD_REACTORS
330
5D4
102
}
330
5D4
100
AcDbScale
 70
     0
300
1/16" = 1'-0"
140
0.0625
141
12.0
290
     0
  0
SCALE
  5
5EA
102
{ACAD_REACTORS
330
5D4
102
}
330
5D4
100
AcDbScale
 70
     0
300
3/32" = 1'-0"
140
0.09375
141
12.0
290
     0
  0
SCALE
  5
5EB
102
{ACAD_REACTORS
330
5D4
102
}
330
5D4
100
AcDbScale
 70
     0
300
1/8" = 1'-0"
140
0.125
141
12.0
290
     0
  0
SCALE
  5
5EC
102
{ACAD_REACTORS
330
5D4
102
}
330
5D4
100
AcDbScale
 70
     0
300
3/16" = 1'-0"
140
0.1875
141
12.0
290
     0
  0
SCALE
  5
5ED
102
{ACAD_REACTORS
330
5D4
102
}
330
5D4
100
AcDbScale
 70
     0
300
1/4" = 1'-0"
140
0.25
141
12.0
290
     0
  0
SCALE
  5
5EE
102
{ACAD_REACTORS
330
5D4
102
}
330
5D4
100
AcDbScale
 70
     0
300
3/8" = 1'-0"
140
0.375
141
12.0
290
     0
  0
SCALE
  5
5EF
102
{ACAD_REACTORS
330
5D4
102
}
330
5D4
100
AcDbScale
 70
     0
300
1/2" = 1'-0"
140
0.5
141
12.0
290
     0
  0
SCALE
  5
5F0
102
{ACAD_REACTORS
330
5D4
102
}
330
5D4
100
AcDbScale
 70
     0
300
3/4" = 1'-0"
140
0.75
141
12.0
290
     0
  0
SCALE
  5
5F1
102
{ACAD_REACTORS
330
5D4
102
}
330
5D4
100
AcDbScale
 70
     0
300
1" = 1'-0"
140
1.0
141
12.0
290
     0
  0
SCALE
  5
5F2
102
{ACAD_REACTORS
330
5D4
102
}
330
5D4
100
AcDbScale
 70
     0
300
1-1/2" = 1'-0"
140
1.5
141
12.0
290
     0
  0
SCALE
  5
5F3
102
{ACAD_REACTORS
330
5D4
102
}
330
5D4
100
AcDbScale
 70
     0
300
3" = 1'-0"
140
3.0
141
12.0
290
     0
  0
SCALE
  5
5F4
102
{ACAD_REACTORS
330
5D4
102
}
330
5D4
100
AcDbScale
 70
     0
300
6" = 1'-0"
140
6.0
141
12.0
290
     0
  0
SCALE
  5
5F5
102
{ACAD_REACTORS
330
5D4
102
}
330
5D4
100
AcDbScale
 70
     0
300
1'-0" = 1'-0"
140
12.0
141
12.0
290
     0
  0
TABLESTYLE
  5
617
102
{ACAD_REACTORS
330
616
102
}
102
{ACAD_XDICTIONARY
360
625
102
}
330
616
100
AcDbTableStyle
  3
Standard
 70
     0
 71
     0
 40
0.06
 41
0.06
280
     0
281
     0
  7
STANDARD
140
4.5
170
     2
 62
     0
 63
   257
283
     0
 90
        4
 91
        0
  1

274
    -2
284
     1
 64
     0
275
    -2
285
     1
 65
     0
276
    -2
286
     1
 66
     0
277
    -2
287
     1
 67
     0
278
    -2
288
     1
 68
     0
279
    -2
289
     1
 69
     0
  7
STANDARD
140
6.0
170
     5
 62
     0
 63
   257
283
     0
 90
        4
 91
        0
  1

274
    -2
284
     1
 64
     0
275
    -2
285
     1
 65
     0
276
    -2
286
     1
 66
     0
277
    -2
287
     1
 67
     0
278
    -2
288
     1
 68
     0
279
    -2
289
     1
 69
     0
  7
STANDARD
140
4.5
170
     5
 62
     0
 63
   257
283
     0
 90
        4
 91
        0
  1

274
    -2
284
     1
 64
     0
275
    -2
285
     1
 65
     0
276
    -2
286
     1
 66
     0
277
    -2
287
     1
 67
     0
278
    -2
288
     1
 68
     0
279
    -2
289
     1
 69
     0
  0
VISUALSTYLE
  5
5FE
102
{ACAD_REACTORS
330
5F9
102
}
330
5F9
100
AcDbVisualStyle
  2
2dWireframe
 70
     4
177
     3
291
     0
 70
    58
 90
        0
176
     1
 90
        2
176
     1
 90
        0
176
     1
 90
        0
176
     1
 40
0.6
176
     1
 40
30.0
176
     1
 62
     7
420
 16777215
176
     1
 90
        1
176
     1
 90
        4
176
     1
 62
     7
176
     1
 62
   257
176
     1
 90
        1
176
     1
 90
        1
176
     1
 40
1.0
176
     1
 90
        0
176
     1
 62
   257
176
     1
 40
1.0
176
     1
 90
        1
176
     1
 90
        6
176
     1
 90
        2
176
     1
 62
     7
176
     1
 90
        5
176
     1
 90
        0
176
     1
 90
        0
176
     1
290
     0
176
     1
 90
        1
176
     1
 40
0.0
176
     1
 90
        0
176
     1
290
     1
176
     1
290
     1
176
     1
290
     0
176
     1
290
     0
176
     1
290
     0
176
     1
290
     0
176
     1
290
     0
176
     1
290
     0
176
     1
290
     0
176
     1
 90
       50
176
     1
 40
0.0
176
     1
 40
1.0
176
     1
 90
        0
176
     1
 62
    18
420
        0
176
     1
 90
       50
176
     1
 90
        3
176
     1
 62
     5
420
      255
176
     1
290
     0
176
     1
 90
       50
176
     1
 90
       50
176
     1
 90
       50
176
     1
290
     0
176
     1
 90
       50
176
     1
 62
   256
176
     0
 40
1.0
176
     0
 90
        2
176
     1
  1
strokes_ogs.tif
176
     1
290
     0
176
     1
 40
1.0
176
     1
 40
1.0
176
     1
  0
VISUALSTYLE
  5
601
102
{ACAD_REACTORS
330
5F9
102
}
330
5F9
100
AcDbVisualStyle
  2
Basic
 70
     7
177
     3
291
     1
 70
    58
 90
        1
176
     1
 90
        0
176
     1
 90
        1
176
     1
 90
        0
176
     1
 40
0.6
176
     1
 40
30.0
176
     1
 62
     7
420
 16777215
176
     1
 90
        0
176
     1
 90
        4
176
     1
 62
     7
176
     1
 62
   257
176
     1
 90
        1
176
     1
 90
        1
176
     1
 40
1.0
176
     1
 90
        8
176
     1
 62
     7
176
     1
 40
1.0
176
     1
 90
        1
176
     1
 90
        6
176
     1
 90
        2
176
     1
 62
     7
176
     1
 90
        5
176
     1
 90
        0
176
     1
 90
        0
176
     1
290
     0
176
     1
 90
        1
176
     1
 40
0.0
176
     1
 90
        0
176
     1
290
     0
176
     1
290
     1
176
     1
290
     1
176
     1
290
     0
176
     1
290
     0
176
     1
290
     0
176
     1
290
     0
176
     1
290
     0
176
     1
290
     0
176
     1
 90
       50
176
     1
 40
0.0
176
     1
 40
1.0
176
     1
 90
        0
176
     1
 62
    18
420
        0
176
     1
 90
       50
176
     1
 90
        3
176
     1
 62
     5
420
      255
176
     1
290
     0
176
     1
 90
       50
176
     1
 90
       50
176
     1
 90
       50
176
     1
290
     0
176
     1
 90
       50
176
     1
 62
   256
176
     0
 40
1.0
176
     0
 90
        2
176
     1
  1
strokes_ogs.tif
176
     1
290
     0
176
     1
 40
1.0
176
     1
 40
1.0
176
     1
  0
VISUALSTYLE
  5
605
102
{ACAD_REACTORS
330
5F9
102
}
330
5F9
100
AcDbVisualStyle
  2
Brighten
 70
    12
177
     3
291
     1
 70
    58
 90
        2
176
     1
 90
        2
176
     1
 90
        0
176
     1
 90
        0
176
     1
 40
0.6
176
     1
 40
30.0
176
     1
 62
     7
420
 16777215
176
     1
 90
        1
176
     1
 90
        4
176
     1
 62
     7
176
     1
 62
   257
176
     1
 90
        1
176
     1
 90
        1
176
     1
 40
1.0
176
     1
 90
        8
176
     1
 62
     7
176
     1
 40
1.0
176
     1
 90
        1
176
     1
 90
        6
176
     1
 90
        2
176
     1
 62
     7
176
     1
 90
        5
176
     1
 90
        0
176
     1
 90
        0
176
     1
290
     0
176
     1
 90
        1
176
     1
 40
50.0
176
     1
 90
        0
176
     1
290
     0
176
     1
290
     1
176
     1
290
     1
176
     1
290
     0
176
     1
290
     0
176
     1
290
     0
176
     1
290
     0
176
     1
290
     0
176
     1
290
     0
176
     1
 90
       50
176
     1
 40
0.0
176
     1
 40
1.0
176
     1
 90
        0
176
     1
 62
    18
420
        0
176
     1
 90
       50
176
     1
 90
        3
176
     1
 62
     5
420
      255
176
     1
290
     0
176
     1
 90
       50
176
     1
 90
       50
176
     1
 90
       50
176
     1
290
     0
176
     1
 90
       50
176
     1
 62
   256
176
     0
 40
1.0
176
     0
 90
        2
176
     1
  1
strokes_ogs.tif
176
     1
290
     0
176
     1
 40
1.0
176
     1
 40
1.0
176
     1
  0
VISUALSTYLE
  5
609
102
{ACAD_REACTORS
330
5F9
102
}
330
5F9
100
AcDbVisualStyle
  2
ColorChange
 70
    16
177
     3
291
     1
 70
    58
 90
        2
176
     1
 90
        2
176
     1
 90
        3
176
     1
 90
        0
176
     1
 40
0.6
176
     1
 40
30.0
176
     1
 62
     8
420
  8421504
176
     1
 90
        1
176
     1
 90
        4
176
     1
 62
     7
176
     1
 62
   257
176
     1
 90
        1
176
     1
 90
        1
176
     1
 40
1.0
176
     1
 90
        8
176
     1
 62
     8
420
  8421504
176
     1
 40
1.0
176
     1
 90
        1
176
     1
 90
        6
176
     1
 90
        2
176
     1
 62
     7
176
     1
 90
        5
176
     1
 90
        0
176
     1
 90
        0
176
     1
290
     0
176
     1
 90
        1
176
     1
 40
0.0
176
     1
 90
        0
176
     1
290
     0
176
     1
290
     1
176
     1
290
     1
176
     1
290
     0
176
     1
290
     0
176
     1
290
     0
176
     1
290
     0
176
     1
290
     0
176
     1
290
     0
176
     1
 90
       50
176
     1
 40
0.0
176
     1
 40
1.0
176
     1
 90
        0
176
     1
 62
    18
420
        0
176
     1
 90
       50
176
     1
 90
        3
176
     1
 62
     5
420
      255
176
     1
290
     0
176
     1
 90
       50
176
     1
 90
       50
176
     1
 90
       50
176
     1
290
     0
176
     1
 90
       50
176
     1
 62
   256
176
     0
 40
1.0
176
     0
 90
        2
176
     1
  1
strokes_ogs.tif
176
     1
290
     0
176
     1
 40
1.0
176
     1
 40
1.0
176
     1
  0
VISUALSTYLE
  5
603
102
{ACAD_REACTORS
330
5F9
102
}
330
5F9
100
AcDbVisualStyle
  2
Conceptual
 70
     9
177
     3
291
     0
 70
    58
 90
        3
176
     1
 90
        2
176
     1
 90
        0
176
     1
 90
        0
176
     1
 40
0.6
176
     1
 40
30.0
176
     1
 62
     7
420
 16777215
176
     1
 90
        2
176
     1
 90
        2
176
     1
 62
     7
176
     1
 62
   257
176
     1
 90
        1
176
     1
 90
        1
176
     1
 40
179.0
176
     1
 90
        8
176
     1
 62
     7
176
     1
 40
1.0
176
     1
 90
        1
176
     1
 90
        6
176
     1
 90
        2
176
     1
 62
     7
176
     1
 90
        3
176
     1
 90
        0
176
     1
 90
        0
176
     1
290
     0
176
     1
 90
        1
176
     1
 40
0.0
176
     1
 90
        0
176
     1
290
     0
176
     1
290
     1
176
     1
290
     1
176
     1
290
     0
176
     1
290
     0
176
     1
290
     0
176
     1
290
     0
176
     1
290
     0
176
     1
290
     0
176
     1
 90
       50
176
     1
 40
0.0
176
     1
 40
1.0
176
     1
 90
        0
176
     1
 62
    18
420
        0
176
     1
 90
       50
176
     1
 90
        3
176
     1
 62
     5
420
      255
176
     1
290
     0
176
     1
 90
       50
176
     1
 90
       50
176
     1
 90
       50
176
     1
290
     0
176
     1
 90
       50
176
     1
 62
   256
176
     0
 40
1.0
176
     0
 90
        2
176
     1
  1
strokes_ogs.tif
176
     1
290
     0
176
     1
 40
1.0
176
     1
 40
1.0
176
     1
  0
VISUALSTYLE
  5
604
102
{ACAD_REACTORS
330
5F9
102
}
330
5F9
100
AcDbVisualStyle
  2
Dim
 70
    11
177
     3
291
     1
 70
    58
 90
        2
176
     1
 90
        2
176
     1
 90
        0
176
     1
 90
        0
176
     1
 40
0.6
176
     1
 40
30.0
176
     1
 62
     7
420
 16777215
176
     1
 90
        1
176
     1
 90
        4
176
     1
 62
     7
176
     1
 62
   257
176
     1
 90
        1
176
     1
 90
        1
176
     1
 40
1.0
176
     1
 90
        8
176
     1
 62
     7
176
     1
 40
1.0
176
     1
 90
        1
176
     1
 90
        6
176
     1
 90
        2
176
     1
 62
     7
176
     1
 90
        5
176
     1
 90
        0
176
     1
 90
        0
176
     1
290
     0
176
     1
 90
        1
176
     1
 40
-50.0
176
     1
 90
        0
176
     1
290
     0
176
     1
290
     1
176
     1
290
     1
176
     1
290
     0
176
     1
290
     0
176
     1
290
     0
176
     1
290
     0
176
     1
290
     0
176
     1
290
     0
176
     1
 90
       50
176
     1
 40
0.0
176
     1
 40
1.0
176
     1
 90
        0
176
     1
 62
    18
420
        0
176
     1
 90
       50
176
     1
 90
        3
176
     1
 62
     5
420
      255
176
     1
290
     0
176
     1
 90
       50
176
     1
 90
       50
176
     1
 90
       50
176
     1
290
     0
176
     1
 90
       50
176
     1
 62
   256
176
     0
 40
1.0
176
     0
 90
        2
176
     1
  1
strokes_ogs.tif
176
     1
290
     0
176
     1
 40
1.0
176
     1
 40
1.0
176
     1
  0
VISUALSTYLE
  5
60C
102
{ACAD_REACTORS
330
5F9
102
}
330
5F9
100
AcDbVisualStyle
  2
EdgeColorOff
 70
    22
177
     3
291
     1
 70
    58
 90
        2
176
     0
 90
        2
176
     0
 90
        0
176
     0
 90
        0
176
     0
 40
0.6
176
     0
 40
30.0
176
     0
 62
     7
420
 16777215
176
     0
 90
        1
176
     0
 90
        4
176
     0
 62
     7
176
     0
 62
   257
176
     0
 90
        1
176
     0
 90
        1
176
     0
 40
1.0
176
     0
 90
        8
176
     2
 62
     7
176
     0
 40
1.0
176
     0
 90
        1
176
     0
 90
        6
176
     0
 90
        2
176
     0
 62
     7
176
     0
 90
        5
176
     0
 90
        0
176
     0
 90
        0
176
     0
290
     0
176
     0
 90
        1
176
     0
 40
0.0
176
     0
 90
        0
176
     0
290
     0
176
     0
290
     1
176
     0
290
     1
176
     0
290
     0
176
     0
290
     0
176
     0
290
     0
176
     0
290
     0
176
     0
290
     0
176
     0
290
     0
176
     0
 90
       50
176
     0
 40
0.0
176
     0
 40
1.0
176
     0
 90
        0
176
     0
 62
    18
420
        0
176
     0
 90
       50
176
     0
 90
        3
176
     0
 62
     5
420
      255
176
     0
290
     0
176
     0
 90
       50
176
     0
 90
       50
176
     0
 90
       50
176
     0
290
     0
176
     0
 90
       50
176
     0
 62
   256
176
     0
 40
1.0
176
     0
 90
        2
176
     0
  1
strokes_ogs.tif
176
     0
290
     0
176
     0
 40
1.0
176
     0
 40
1.0
176
     0
  0
VISUALSTYLE
  5
608
102
{ACAD_REACTORS
330
5F9
102
}
330
5F9
100
AcDbVisualStyle
  2
Facepattern
 70
    15
177
     3
291
     1
 70
    58
 90
        2
176
     1
 90
        2
176
     1
 90
        0
176
     1
 90
        0
176
     1
 40
0.6
176
     1
 40
30.0
176
     1
 62
     7
420
 16777215
176
     1
 90
        1
176
     1
 90
        4
176
     1
 62
     7
176
     1
 62
   257
176
     1
 90
        1
176
     1
 90
        1
176
     1
 40
1.0
176
     1
 90
        8
176
     1
 62
     7
176
     1
 40
1.0
176
     1
 90
        1
176
     1
 90
        6
176
     1
 90
        2
176
     1
 62
     7
176
     1
 90
        5
176
     1
 90
        0
176
     1
 90
        0
176
     1
290
     0
176
     1
 90
        1
176
     1
 40
0.0
176
     1
 90
        0
176
     1
290
     0
176
     1
290
     1
176
     1
290
     1
176
     1
290
     0
176
     1
290
     0
176
     1
290
     0
176
     1
290
     0
176
     1
290
     0
176
     1
290
     0
176
     1
 90
       50
176
     1
 40
0.0
176
     1
 40
1.0
176
     1
 90
        0
176
     1
 62
    18
420
        0
176
     1
 90
       50
176
     1
 90
        3
176
     1
 62
     5
420
      255
176
     1
290
     0
176
     1
 90
       50
176
     1
 90
       50
176
     1
 90
       50
176
     1
290
     0
176
     1
 90
       50
176
     1
 62
   256
176
     0
 40
1.0
176
     0
 90
        2
176
     1
  1
strokes_ogs.tif
176
     1
290
     0
176
     1
 40
1.0
176
     1
 40
1.0
176
     1
  0
VISUALSTYLE
  5
5FA
102
{ACAD_REACTORS
330
5F9
102
}
330
5F9
100
AcDbVisualStyle
  2
Flat
 70
     0
177
     3
291
     1
 70
    58
 90
        2
176
     1
 90
        1
176
     1
 90
        1
176
     1
 90
        2
176
     1
 40
0.6
176
     1
 40
30.0
176
     1
 62
     7
420
 16777215
176
     1
 90
        0
176
     1
 90
        0
176
     1
 62
     7
176
     1
 62
   257
176
     1
 90
        1
176
     1
 90
        1
176
     1
 40
1.0
176
     1
 90
        8
176
     1
 62
     7
176
     1
 40
1.0
176
     1
 90
        1
176
     1
 90
        6
176
     1
 90
        2
176
     1
 62
     7
176
     1
 90
        5
176
     1
 90
        0
176
     1
 90
        0
176
     1
290
     0
176
     1
 90
       13
176
     1
 40
0.0
176
     1
 90
        0
176
     1
290
     0
176
     1
290
     1
176
     1
290
     1
176
     1
290
     0
176
     1
290
     0
176
     1
290
     0
176
     1
290
     0
176
     1
290
     0
176
     1
290
     0
176
     1
 90
       50
176
     1
 40
0.0
176
     1
 40
1.0
176
     1
 90
        0
176
     1
 62
    18
420
        0
176
     1
 90
       50
176
     1
 90
        3
176
     1
 62
     5
420
      255
176
     1
290
     0
176
     1
 90
       50
176
     1
 90
       50
176
     1
 90
       50
176
     1
290
     0
176
     1
 90
       50
176
     1
 62
   256
176
     0
 40
1.0
176
     0
 90
        2
176
     1
  1
strokes_ogs.tif
176
     1
290
     0
176
     1
 40
1.0
176
     1
 40
1.0
176
     1
  0
VISUALSTYLE
  5
5FB
102
{ACAD_REACTORS
330
5F9
102
}
330
5F9
100
AcDbVisualStyle
  2
FlatWithEdges
 70
     1
177
     3
291
     1
 70
    58
 90
        2
176
     1
 90
        1
176
     1
 90
        1
176
     1
 90
        2
176
     1
 40
0.6
176
     1
 40
30.0
176
     1
 62
     7
420
 16777215
176
     1
 90
        1
176
     1
 90
        0
176
     1
 62
     7
176
     1
 62
   257
176
     1
 90
        1
176
     1
 90
        1
176
     1
 40
1.0
176
     1
 90
        0
176
     1
 62
   257
176
     1
 40
1.0
176
     1
 90
        1
176
     1
 90
        6
176
     1
 90
        2
176
     1
 62
     7
176
     1
 90
        5
176
     1
 90
        0
176
     1
 90
        0
176
     1
290
     0
176
     1
 90
       13
176
     1
 40
0.0
176
     1
 90
        0
176
     1
290
     0
176
     1
290
     1
176
     1
290
     1
176
     1
290
     0
176
     1
290
     0
176
     1
290
     0
176
     1
290
     0
176
     1
290
     0
176
     1
290
     0
176
     1
 90
       50
176
     1
 40
0.0
176
     1
 40
1.0
176
     1
 90
        0
176
     1
 62
    18
420
        0
176
     1
 90
       50
176
     1
 90
        3
176
     1
 62
     5
420
      255
176
     1
290
     0
176
     1
 90
       50
176
     1
 90
       50
176
     1
 90
       50
176
     1
290
     0
176
     1
 90
       50
176
     1
 62
   256
176
     0
 40
1.0
176
     0
 90
        2
176
     1
  1
strokes_ogs.tif
176
     1
290
     0
176
     1
 40
1.0
176
     1
 40
1.0
176
     1
  0
VISUALSTYLE
  5
5FC
102
{ACAD_REACTORS
330
5F9
102
}
330
5F9
100
AcDbVisualStyle
  2
Gouraud
 70
     2
177
     3
291
     1
 70
    58
 90
        2
176
     1
 90
        2
176
     1
 90
        1
176
     1
 90
        2
176
     1
 40
0.6
176
     1
 40
30.0
176
     1
 62
     7
420
 16777215
176
     1
 90
        0
176
     1
 90
        0
176
     1
 62
     7
176
     1
 62
   257
176
     1
 90
        1
176
     1
 90
        1
176
     1
 40
1.0
176
     1
 90
        0
176
     1
 62
     7
176
     1
 40
1.0
176
     1
 90
        1
176
     1
 90
        6
176
     1
 90
        2
176
     1
 62
     7
176
     1
 90
        5
176
     1
 90
        0
176
     1
 90
        0
176
     1
290
     0
176
     1
 90
       13
176
     1
 40
0.0
176
     1
 90
        0
176
     1
290
     0
176
     1
290
     1
176
     1
290
     1
176
     1
290
     0
176
     1
290
     0
176
     1
290
     0
176
     1
290
     0
176
     1
290
     0
176
     1
290
     0
176
     1
 90
       50
176
     1
 40
0.0
176
     1
 40
1.0
176
     1
 90
        0
176
     1
 62
    18
420
        0
176
     1
 90
       50
176
     1
 90
        3
176
     1
 62
     5
420
      255
176
     1
290
     0
176
     1
 90
       50
176
     1
 90
       50
176
     1
 90
       50
176
     1
290
     0
176
     1
 90
       50
176
     1
 62
   256
176
     0
 40
1.0
176
     0
 90
        2
176
     1
  1
strokes_ogs.tif
176
     1
290
     0
176
     1
 40
1.0
176
     1
 40
1.0
176
     1
  0
VISUALSTYLE
  5
5FD
102
{ACAD_REACTORS
330
5F9
102
}
330
5F9
100
AcDbVisualStyle
  2
GouraudWithEdges
 70
     3
177
     3
291
     1
 70
    58
 90
        2
176
     1
 90
        2
176
     1
 90
        1
176
     1
 90
        2
176
     1
 40
0.6
176
     1
 40
30.0
176
     1
 62
     7
420
 16777215
176
     1
 90
        1
176
     1
 90
        0
176
     1
 62
     7
176
     1
 62
   257
176
     1
 90
        1
176
     1
 90
        1
176
     1
 40
1.0
176
     1
 90
        0
176
     1
 62
   257
176
     1
 40
1.0
176
     1
 90
        1
176
     1
 90
        6
176
     1
 90
        2
176
     1
 62
     7
176
     1
 90
        5
176
     1
 90
        0
176
     1
 90
        0
176
     1
290
     0
176
     1
 90
       13
176
     1
 40
0.0
176
     1
 90
        0
176
     1
290
     0
176
     1
290
     1
176
     1
290
     1
176
     1
290
     0
176
     1
290
     0
176
     1
290
     0
176
     1
290
     0
176
     1
290
     0
176
     1
290
     0
176
     1
 90
       50
176
     1
 40
0.0
176
     1
 40
1.0
176
     1
 90
        0
176
     1
 62
    18
420
        0
176
     1
 90
       50
176
     1
 90
        3
176
     1
 62
     5
420
      255
176
     1
290
     0
176
     1
 90
       50
176
     1
 90
       50
176
     1
 90
       50
176
     1
290
     0
176
     1
 90
       50
176
     1
 62
   256
176
     0
 40
1.0
176
     0
 90
        2
176
     1
  1
strokes_ogs.tif
176
     1
290
     0
176
     1
 40
1.0
176
     1
 40
1.0
176
     1
  0
VISUALSTYLE
  5
600
102
{ACAD_REACTORS
330
5F9
102
}
330
5F9
100
AcDbVisualStyle
  2
Hidden
 70
     6
177
     3
291
     0
 70
    58
 90
        1
176
     1
 90
        2
176
     1
 90
        2
176
     1
 90
        0
176
     1
 40
0.6
176
     1
 40
30.0
176
     1
 62
     7
420
 16777215
176
     1
 90
        2
176
     1
 90
        2
176
     1
 62
     7
176
     1
 62
   257
176
     1
 90
        2
176
     1
 90
        1
176
     1
 40
40.0
176
     1
 90
        0
176
     1
 62
   257
176
     1
 40
1.0
176
     1
 90
        1
176
     1
 90
        6
176
     1
 90
        2
176
     1
 62
     7
176
     1
 90
        3
176
     1
 90
        0
176
     1
 90
        0
176
     1
290
     0
176
     1
 90
        1
176
     1
 40
0.0
176
     1
 90
        0
176
     1
290
     0
176
     1
290
     1
176
     1
290
     1
176
     1
290
     0
176
     1
290
     0
176
     1
290
     0
176
     1
290
     0
176
     1
290
     0
176
     1
290
     0
176
     1
 90
       50
176
     1
 40
0.0
176
     1
 40
1.0
176
     1
 90
        0
176
     1
 62
    18
420
        0
176
     1
 90
       50
176
     1
 90
        3
176
     1
 62
     5
420
      255
176
     1
290
     0
176
     1
 90
       50
176
     1
 90
       50
176
     1
 90
       50
176
     1
290
     0
176
     1
 90
       50
176
     1
 62
   256
176
     0
 40
1.0
176
     0
 90
        2
176
     1
  1
strokes_ogs.tif
176
     1
290
     0
176
     1
 40
1.0
176
     1
 40
1.0
176
     1
  0
VISUALSTYLE
  5
60A
102
{ACAD_REACTORS
330
5F9
102
}
330
5F9
100
AcDbVisualStyle
  2
JitterOff
 70
    20
177
     3
291
     1
 70
    58
 90
        2
176
     0
 90
        2
176
     0
 90
        0
176
     0
 90
        0
176
     0
 40
0.6
176
     0
 40
30.0
176
     0
 62
     7
420
 16777215
176
     0
 90
        1
176
     0
 90
        4
176
     0
 62
     7
176
     0
 62
   257
176
     0
 90
        1
176
     0
 90
        1
176
     0
 40
1.0
176
     0
 90
       10
176
     2
 62
     7
176
     0
 40
1.0
176
     0
 90
        1
176
     0
 90
        6
176
     0
 90
        2
176
     0
 62
     7
176
     0
 90
        5
176
     0
 90
        0
176
     0
 90
        0
176
     0
290
     0
176
     0
 90
        1
176
     0
 40
0.0
176
     0
 90
        0
176
     0
290
     0
176
     0
290
     1
176
     0
290
     1
176
     0
290
     0
176
     0
290
     0
176
     0
290
     0
176
     0
290
     0
176
     0
290
     0
176
     0
290
     0
176
     0
 90
       50
176
     0
 40
0.0
176
     0
 40
1.0
176
     0
 90
        0
176
     0
 62
    18
420
        0
176
     0
 90
       50
176
     0
 90
        3
176
     0
 62
     5
420
      255
176
     0
290
     0
176
     0
 90
       50
176
     0
 90
       50
176
     0
 90
       50
176
     0
290
     0
176
     0
 90
       50
176
     0
 62
   256
176
     0
 40
1.0
176
     0
 90
        2
176
     0
  1
strokes_ogs.tif
176
     0
290
     0
176
     0
 40
1.0
176
     0
 40
1.0
176
     0
  0
VISUALSTYLE
  5
607
102
{ACAD_REACTORS
330
5F9
102
}
330
5F9
100
AcDbVisualStyle
  2
Linepattern
 70
    14
177
     3
291
     1
 70
    58
 90
        2
176
     1
 90
        2
176
     1
 90
        0
176
     1
 90
        0
176
     1
 40
0.6
176
     1
 40
30.0
176
     1
 62
     7
420
 16777215
176
     1
 90
        1
176
     1
 90
        4
176
     1
 62
     7
176
     1
 62
   257
176
     1
 90
        7
176
     1
 90
        7
176
     1
 40
1.0
176
     1
 90
        8
176
     1
 62
     7
176
     1
 40
1.0
176
     1
 90
        1
176
     1
 90
        6
176
     1
 90
        2
176
     1
 62
     7
176
     1
 90
        5
176
     1
 90
        0
176
     1
 90
        0
176
     1
290
     0
176
     1
 90
        1
176
     1
 40
0.0
176
     1
 90
        0
176
     1
290
     0
176
     1
290
     1
176
     1
290
     1
176
     1
290
     0
176
     1
290
     0
176
     1
290
     0
176
     1
290
     0
176
     1
290
     0
176
     1
290
     0
176
     1
 90
       50
176
     1
 40
0.0
176
     1
 40
1.0
176
     1
 90
        0
176
     1
 62
    18
420
        0
176
     1
 90
       50
176
     1
 90
        3
176
     1
 62
     5
420
      255
176
     1
290
     0
176
     1
 90
       50
176
     1
 90
       50
176
     1
 90
       50
176
     1
290
     0
176
     1
 90
       50
176
     1
 62
   256
176
     0
 40
1.0
176
     0
 90
        2
176
     1
  1
strokes_ogs.tif
176
     1
290
     0
176
     1
 40
1.0
176
     1
 40
1.0
176
     1
  0
VISUALSTYLE
  5
60B
102
{ACAD_REACTORS
330
5F9
102
}
330
5F9
100
AcDbVisualStyle
  2
OverhangOff
 70
    21
177
     3
291
     1
 70
    58
 90
        2
176
     0
 90
        2
176
     0
 90
        0
176
     0
 90
        0
176
     0
 40
0.6
176
     0
 40
30.0
176
     0
 62
     7
420
 16777215
176
     0
 90
        1
176
     0
 90
        4
176
     0
 62
     7
176
     0
 62
   257
176
     0
 90
        1
176
     0
 90
        1
176
     0
 40
1.0
176
     0
 90
        9
176
     2
 62
     7
176
     0
 40
1.0
176
     0
 90
        1
176
     0
 90
        6
176
     0
 90
        2
176
     0
 62
     7
176
     0
 90
        5
176
     0
 90
        0
176
     0
 90
        0
176
     0
290
     0
176
     0
 90
        1
176
     0
 40
0.0
176
     0
 90
        0
176
     0
290
     0
176
     0
290
     1
176
     0
290
     1
176
     0
290
     0
176
     0
290
     0
176
     0
290
     0
176
     0
290
     0
176
     0
290
     0
176
     0
290
     0
176
     0
 90
       50
176
     0
 40
0.0
176
     0
 40
1.0
176
     0
 90
        0
176
     0
 62
    18
420
        0
176
     0
 90
       50
176
     0
 90
        3
176
     0
 62
     5
420
      255
176
     0
290
     0
176
     0
 90
       50
176
     0
 90
       50
176
     0
 90
       50
176
     0
290
     0
176
     0
 90
       50
176
     0
 62
   256
176
     0
 40
1.0
176
     0
 90
        2
176
     0
  1
strokes_ogs.tif
176
     0
290
     0
176
     0
 40
1.0
176
     0
 40
1.0
176
     0
  0
VISUALSTYLE
  5
602
102
{ACAD_REACTORS
330
5F9
102
}
330
5F9
100
AcDbVisualStyle
  2
Realistic
 70
     8
177
     3
291
     0
 70
    58
 90
        2
176
     1
 90
        3
176
     1
 90
        0
176
     1
 90
        2
176
     1
 40
0.6
176
     1
 40
30.0
176
     1
 62
     7
420
 16777215
176
     1
 90
        0
176
     1
 90
        0
176
     1
 62
     7
176
     1
 62
   257
176
     1
 90
        1
176
     1
 90
        1
176
     1
 40
1.0
176
     1
 90
        8
176
     1
 62
   257
176
     1
 40
1.0
176
     1
 90
        1
176
     1
 90
        6
176
     1
 90
        2
176
     1
 62
     7
176
     1
 90
        3
176
     1
 90
        0
176
     1
 90
        0
176
     1
290
     0
176
     1
 90
       13
176
     1
 40
0.0
176
     1
 90
        0
176
     1
290
     0
176
     1
290
     1
176
     1
290
     1
176
     1
290
     0
176
     1
290
     0
176
     1
290
     0
176
     1
290
     0
176
     1
290
     0
176
     1
290
     0
176
     1
 90
       50
176
     1
 40
0.0
176
     1
 40
1.0
176
     1
 90
        0
176
     1
 62
    18
420
        0
176
     1
 90
       50
176
     1
 90
        3
176
     1
 62
     5
420
      255
176
     1
290
     0
176
     1
 90
       50
176
     1
 90
       50
176
     1
 90
       50
176
     1
290
     0
176
     1
 90
       50
176
     1
 62
   256
176
     0
 40
1.0
176
     0
 90
        2
176
     1
  1
strokes_ogs.tif
176
     1
290
     0
176
     1
 40
1.0
176
     1
 40
1.0
176
     1
  0
VISUALSTYLE
  5
611
102
{ACAD_REACTORS
330
5F9
102
}
330
5F9
100
AcDbVisualStyle
  2
Shaded
 70
    27
177
     3
291
     0
 70
    58
 90
        2
176
     1
 90
        2
176
     1
 90
        1
176
     1
 90
        2
176
     1
 40
0.6
176
     1
 40
30.0
176
     1
 62
     7
420
 16777215
176
     1
 90
        0
176
     1
 90
        4
176
     1
 62
     7
176
     1
 62
   257
176
     1
 90
        1
176
     1
 90
        1
176
     1
 40
1.0
176
     1
 90
        8
176
     1
 62
   257
176
     1
 40
1.0
176
     1
 90
        1
176
     1
 90
        6
176
     1
 90
        2
176
     1
 62
     8
420
  7895160
176
     1
 90
        3
176
     1
 90
        0
176
     1
 90
        0
176
     1
290
     0
176
     1
 90
        5
176
     1
 40
0.0
176
     1
 90
        0
176
     1
290
     0
176
     1
290
     1
176
     1
290
     1
176
     1
290
     0
176
     1
290
     0
176
     1
290
     0
176
     1
290
     0
176
     1
290
     0
176
     1
290
     0
176
     1
 90
       50
176
     1
 40
0.0
176
     1
 40
1.0
176
     1
 90
        0
176
     1
 62
    18
420
        0
176
     1
 90
       50
176
     1
 90
        3
176
     1
 62
     5
420
      255
176
     1
290
     0
176
     1
 90
       50
176
     1
 90
       50
176
     1
 90
       50
176
     1
290
     0
176
     1
 90
       50
176
     1
 62
   256
176
     0
 40
1.0
176
     0
 90
        2
176
     1
  1
strokes_ogs.tif
176
     1
290
     0
176
     1
 40
1.0
176
     1
 40
1.0
176
     1
  0
VISUALSTYLE
  5
610
102
{ACAD_REACTORS
330
5F9
102
}
330
5F9
100
AcDbVisualStyle
  2
Shaded with edges
 70
    26
177
     3
291
     0
 70
    58
 90
        2
176
     1
 90
        2
176
     1
 90
        1
176
     1
 90
        2
176
     1
 40
0.6
176
     1
 40
30.0
176
     1
 62
     7
420
 16777215
176
     1
 90
        1
176
     1
 90
       10
176
     1
 62
     7
176
     1
 62
   257
176
     1
 90
        2
176
     1
 90
        1
176
     1
 40
1.0
176
     1
 90
        8
176
     1
 62
   257
176
     1
 40
1.0
176
     1
 90
        1
176
     1
 90
        6
176
     1
 90
        2
176
     1
 62
     7
176
     1
 90
        3
176
     1
 90
        0
176
     1
 90
        0
176
     1
290
     0
176
     1
 90
        5
176
     1
 40
0.0
176
     1
 90
        0
176
     1
290
     0
176
     1
290
     1
176
     1
290
     1
176
     1
290
     0
176
     1
290
     0
176
     1
290
     0
176
     1
290
     0
176
     1
290
     0
176
     1
290
     0
176
     1
 90
       50
176
     1
 40
0.0
176
     1
 40
1.0
176
     1
 90
        0
176
     1
 62
    18
420
        0
176
     1
 90
       50
176
     1
 90
        3
176
     1
 62
     5
420
      255
176
     1
290
     0
176
     1
 90
       50
176
     1
 90
       50
176
     1
 90
       50
176
     1
290
     0
176
     1
 90
       50
176
     1
 62
   256
176
     0
 40
1.0
176
     0
 90
        2
176
     1
  1
strokes_ogs.tif
176
     1
290
     0
176
     1
 40
1.0
176
     1
 40
1.0
176
     1
  0
VISUALSTYLE
  5
60D
102
{ACAD_REACTORS
330
5F9
102
}
330
5F9
100
AcDbVisualStyle
  2
Shades of Gray
 70
    23
177
     3
291
     0
 70
    58
 90
        2
176
     1
 90
        2
176
     1
 90
        3
176
     1
 90
        0
176
     1
 40
0.6
176
     1
 40
30.0
176
     1
 62
     7
420
 16777215
176
     1
 90
        2
176
     1
 90
        2
176
     1
 62
     7
176
     1
 62
     7
176
     1
 90
        1
176
     1
 90
        1
176
     1
 40
40.0
176
     1
 90
        8
176
     1
 62
     7
176
     1
 40
1.0
176
     1
 90
        1
176
     1
 90
        6
176
     1
 90
        2
176
     1
 62
     7
176
     1
 90
        3
176
     1
 90
        0
176
     1
 90
        0
176
     1
290
     0
176
     1
 90
        1
176
     1
 40
0.0
176
     1
 90
        0
176
     1
290
     0
176
     1
290
     1
176
     1
290
     1
176
     1
290
     0
176
     1
290
     0
176
     1
290
     0
176
     1
290
     0
176
     1
290
     0
176
     1
290
     0
176
     1
 90
       50
176
     1
 40
0.0
176
     1
 40
1.0
176
     1
 90
        0
176
     1
 62
    18
420
        0
176
     1
 90
       50
176
     1
 90
        3
176
     1
 62
     5
420
      255
176
     1
290
     0
176
     1
 90
       50
176
     1
 90
       50
176
     1
 90
       50
176
     1
290
     0
176
     1
 90
       50
176
     1
 62
   256
176
     0
 40
1.0
176
     0
 90
        2
176
     1
  1
strokes_ogs.tif
176
     1
290
     0
176
     1
 40
1.0
176
     1
 40
1.0
176
     1
  0
VISUALSTYLE
  5
60E
102
{ACAD_REACTORS
330
5F9
102
}
330
5F9
100
AcDbVisualStyle
  2
Sketchy
 70
    24
177
     3
291
     0
 70
    58
 90
        1
176
     1
 90
        2
176
     1
 90
        2
176
     1
 90
        0
176
     1
 40
0.6
176
     1
 40
30.0
176
     1
 62
     7
420
 16777215
176
     1
 90
        2
176
     1
 90
        2
176
     1
 62
     7
176
     1
 62
     7
176
     1
 90
        1
176
     1
 90
        1
176
     1
 40
40.0
176
     1
 90
       11
176
     1
 62
     7
176
     1
 40
1.0
176
     1
 90
        1
176
     1
 90
        6
176
     1
 90
        2
176
     1
 62
     7
176
     1
 90
        6
176
     1
 90
        0
176
     1
 90
        0
176
     1
290
     0
176
     1
 90
        1
176
     1
 40
0.0
176
     1
 90
        0
176
     1
290
     0
176
     1
290
     1
176
     1
290
     1
176
     1
290
     0
176
     1
290
     0
176
     1
290
     0
176
     1
290
     0
176
     1
290
     0
176
     1
290
     0
176
     1
 90
       50
176
     1
 40
0.0
176
     1
 40
1.0
176
     1
 90
        0
176
     1
 62
    18
420
        0
176
     1
 90
       50
176
     1
 90
        3
176
     1
 62
     5
420
      255
176
     1
290
     0
176
     1
 90
       50
176
     1
 90
       50
176
     1
 90
       50
176
     1
290
     0
176
     1
 90
       50
176
     1
 62
   256
176
     0
 40
1.0
176
     0
 90
        2
176
     1
  1
strokes_ogs.tif
176
     1
290
     0
176
     1
 40
1.0
176
     1
 40
1.0
176
     1
  0
VISUALSTYLE
  5
606
102
{ACAD_REACTORS
330
5F9
102
}
330
5F9
100
AcDbVisualStyle
  2
Thicken
 70
    13
177
     3
291
     1
 70
    58
 90
        2
176
     1
 90
        2
176
     1
 90
        0
176
     1
 90
        0
176
     1
 40
0.6
176
     1
 40
30.0
176
     1
 62
     7
420
 16777215
176
     1
 90
        1
176
     1
 90
        4
176
     1
 62
     7
176
     1
 62
   257
176
     1
 90
        1
176
     1
 90
        1
176
     1
 40
1.0
176
     1
 90
       12
176
     1
 62
     7
176
     1
 40
1.0
176
     1
 90
        1
176
     1
 90
        6
176
     1
 90
        2
176
     1
 62
     7
176
     1
 90
        5
176
     1
 90
        0
176
     1
 90
        0
176
     1
290
     0
176
     1
 90
        1
176
     1
 40
0.0
176
     1
 90
        0
176
     1
290
     0
176
     1
290
     1
176
     1
290
     1
176
     1
290
     0
176
     1
290
     0
176
     1
290
     0
176
     1
290
     0
176
     1
290
     0
176
     1
290
     0
176
     1
 90
       50
176
     1
 40
0.0
176
     1
 40
1.0
176
     1
 90
        0
176
     1
 62
    18
420
        0
176
     1
 90
       50
176
     1
 90
        3
176
     1
 62
     5
420
      255
176
     1
290
     0
176
     1
 90
       50
176
     1
 90
       50
176
     1
 90
       50
176
     1
290
     0
176
     1
 90
       50
176
     1
 62
   256
176
     0
 40
1.0
176
     0
 90
        2
176
     1
  1
strokes_ogs.tif
176
     1
290
     0
176
     1
 40
1.0
176
     1
 40
1.0
176
     1
  0
VISUALSTYLE
  5
5FF
102
{ACAD_REACTORS
330
5F9
102
}
330
5F9
100
AcDbVisualStyle
  2
Wireframe
 70
     5
177
     3
291
     0
 70
    58
 90
        0
176
     1
 90
        2
176
     1
 90
        0
176
     1
 90
        0
176
     1
 40
0.6
176
     1
 40
30.0
176
     1
 62
     7
420
 16777215
176
     1
 90
        1
176
     1
 90
        4
176
     1
 62
     7
176
     1
 62
   257
176
     1
 90
        1
176
     1
 90
        1
176
     1
 40
1.0
176
     1
 90
        0
176
     1
 62
   257
176
     1
 40
1.0
176
     1
 90
        1
176
     1
 90
        6
176
     1
 90
        2
176
     1
 62
     7
176
     1
 90
        3
176
     1
 90
        0
176
     1
 90
        0
176
     1
290
     0
176
     1
 90
        1
176
     1
 40
0.0
176
     1
 90
        0
176
     1
290
     0
176
     1
290
     1
176
     1
290
     1
176
     1
290
     0
176
     1
290
     0
176
     1
290
     0
176
     1
290
     0
176
     1
290
     0
176
     1
290
     0
176
     1
 90
       50
176
     1
 40
0.0
176
     1
 40
1.0
176
     1
 90
        0
176
     1
 62
    18
420
        0
176
     1
 90
       50
176
     1
 90
        3
176
     1
 62
     5
420
      255
176
     1
290
     0
176
     1
 90
       50
176
     1
 90
       50
176
     1
 90
       50
176
     1
290
     0
176
     1
 90
       50
176
     1
 62
   256
176
     0
 40
1.0
176
     0
 90
        2
176
     1
  1
strokes_ogs.tif
176
     1
290
     0
176
     1
 40
1.0
176
     1
 40
1.0
176
     1
  0
VISUALSTYLE
  5
60F
102
{ACAD_REACTORS
330
5F9
102
}
330
5F9
100
AcDbVisualStyle
  2
X-Ray
 70
    25
177
     3
291
     0
 70
    58
 90
        2
176
     1
 90
        2
176
     1
 90
        1
176
     1
 90
        1
176
     1
 40
0.5
176
     1
 40
30.0
176
     1
 62
     7
420
 16777215
176
     1
 90
        1
176
     1
 90
        0
176
     1
 62
     7
176
     1
 62
   257
176
     1
 90
        1
176
     1
 90
        1
176
     1
 40
1.0
176
     1
 90
        8
176
     1
 62
     7
176
     1
 40
1.0
176
     1
 90
        1
176
     1
 90
        6
176
     1
 90
        2
176
     1
 62
     7
176
     1
 90
        3
176
     1
 90
        0
176
     1
 90
        0
176
     1
290
     0
176
     1
 90
       13
176
     1
 40
0.0
176
     1
 90
        0
176
     1
290
     0
176
     1
290
     1
176
     1
290
     1
176
     1
290
     0
176
     1
290
     0
176
     1
290
     0
176
     1
290
     0
176
     1
290
     0
176
     1
290
     0
176
     1
 90
       50
176
     1
 40
0.0
176
     1
 40
1.0
176
     1
 90
        0
176
     1
 62
    18
420
        0
176
     1
 90
       50
176
     1
 90
        3
176
     1
 62
     5
420
      255
176
     1
290
     0
176
     1
 90
       50
176
     1
 90
       50
176
     1
 90
       50
176
     1
290
     0
176
     1
 90
       50
176
     1
 62
   256
176
     0
 40
1.0
176
     0
 90
        2
176
     1
  1
strokes_ogs.tif
176
     1
290
     0
176
     1
 40
1.0
176
     1
 40
1.0
176
     1
  0
DICTIONARYVAR
  5
61C
102
{ACAD_REACTORS
330
61B
102
}
330
61B
100
DictionaryVariables
280
     0
  1
1:1
  0
DICTIONARYVAR
  5
621
102
{ACAD_REACTORS
330
61B
102
}
330
61B
100
DictionaryVariables
280
     0
  1
Standard
  0
DICTIONARYVAR
  5
620
102
{ACAD_REACTORS
330
61B
102
}
330
61B
100
DictionaryVariables
280
     0
  1
Standard
  0
DICTIONARYVAR
  5
622
102
{ACAD_REACTORS
330
61B
102
}
330
61B
100
DictionaryVariables
280
     0
  1
0
  0
DICTIONARY
  5
625
330
617
100
AcDbDictionary
280
     1
281
     1
  3
ACAD_ROUNDTRIP_2008_TABLESTYLE_CELLSTYLEMAP
360
626
  0
CELLSTYLEMAP
  5
626
102
{ACAD_REACTORS
330
625
102
}
330
625
100
AcDbCellStyleMap
 90
        3
300
CELLSTYLE
  1
TABLEFORMAT_BEGIN
 90
        5
170
     1
 91
        0
 92
    32768
 62
   257
 93
        1
300
CONTENTFORMAT
  1
CONTENTFORMAT_BEGIN
 90
        0
 91
        0
 92
        4
 93
        0
300

 40
0.0
140
1.0
 94
        5
 62
     0
340
11
144
6.0
309
CONTENTFORMAT_END
171
     1
301
MARGIN
  1
CELLMARGIN_BEGIN
 40
1.5
 40
1.5
 40
1.5
 40
1.5
 40
1.5
 40
1.5
309
CELLMARGIN_END
 94
        6
 95
        1
302
GRIDFORMAT
  1
GRIDFORMAT_BEGIN
 90
        0
 91
        1
 62
     0
 92
       -2
340
14
 93
        0
 40
0.045
309
GRIDFORMAT_END
 95
        2
302
GRIDFORMAT
  1
GRIDFORMAT_BEGIN
 90
        0
 91
        1
 62
     0
 92
       -2
340
14
 93
        0
 40
0.045
309
GRIDFORMAT_END
 95
        4
302
GRIDFORMAT
  1
GRIDFORMAT_BEGIN
 90
        0
 91
        1
 62
     0
 92
       -2
340
14
 93
        0
 40
0.045
309
GRIDFORMAT_END
 95
        8
302
GRIDFORMAT
  1
GRIDFORMAT_BEGIN
 90
        0
 91
        1
 62
     0
 92
       -2
340
14
 93
        0
 40
0.045
309
GRIDFORMAT_END
 95
       16
302
GRIDFORMAT
  1
GRIDFORMAT_BEGIN
 90
        0
 91
        1
 62
     0
 92
       -2
340
14
 93
        0
 40
0.045
309
GRIDFORMAT_END
 95
       32
302
GRIDFORMAT
  1
GRIDFORMAT_BEGIN
 90
        0
 91
        1
 62
     0
 92
       -2
340
14
 93
        0
 40
0.045
309
GRIDFORMAT_END
309
TABLEFORMAT_END
  1
CELLSTYLE_BEGIN
 90
        1
 91
        1
300
_TITLE
309
CELLSTYLE_END
300
CELLSTYLE
  1
TABLEFORMAT_BEGIN
 90
        5
170
     1
 91
        0
 92
        0
 62
   257
 93
        1
300
CONTENTFORMAT
  1
CONTENTFORMAT_BEGIN
 90
        0
 91
        0
 92
        4
 93
        0
300

 40
0.0
140
1.0
 94
        5
 62
     0
340
11
144
4.5
309
CONTENTFORMAT_END
171
     1
301
MARGIN
  1
CELLMARGIN_BEGIN
 40
1.5
 40
1.5
 40
1.5
 40
1.5
 40
1.5
 40
1.5
309
CELLMARGIN_END
 94
        6
 95
        1
302
GRIDFORMAT
  1
GRIDFORMAT_BEGIN
 90
        0
 91
        1
 62
     0
 92
       -2
340
14
 93
        0
 40
0.045
309
GRIDFORMAT_END
 95
        2
302
GRIDFORMAT
  1
GRIDFORMAT_BEGIN
 90
        0
 91
        1
 62
     0
 92
       -2
340
14
 93
        0
 40
0.045
309
GRIDFORMAT_END
 95
        4
302
GRIDFORMAT
  1
GRIDFORMAT_BEGIN
 90
        0
 91
        1
 62
     0
 92
       -2
340
14
 93
        0
 40
0.045
309
GRIDFORMAT_END
 95
        8
302
GRIDFORMAT
  1
GRIDFORMAT_BEGIN
 90
        0
 91
        1
 62
     0
 92
       -2
340
14
 93
        0
 40
0.045
309
GRIDFORMAT_END
 95
       16
302
GRIDFORMAT
  1
GRIDFORMAT_BEGIN
 90
        0
 91
        1
 62
     0
 92
       -2
340
14
 93
        0
 40
0.045
309
GRIDFORMAT_END
 95
       32
302
GRIDFORMAT
  1
GRIDFORMAT_BEGIN
 90
        0
 91
        1
 62
     0
 92
       -2
340
14
 93
        0
 40
0.045
309
GRIDFORMAT_END
309
TABLEFORMAT_END
  1
CELLSTYLE_BEGIN
 90
        2
 91
        1
300
_HEADER
309
CELLSTYLE_END
300
CELLSTYLE
  1
TABLEFORMAT_BEGIN
 90
        5
170
     1
 91
        0
 92
        0
 62
   257
 93
        1
300
CONTENTFORMAT
  1
CONTENTFORMAT_BEGIN
 90
        0
 91
        0
 92
        4
 93
        0
300

 40
0.0
140
1.0
 94
        2
 62
     0
340
11
144
4.5
309
CONTENTFORMAT_END
171
     1
301
MARGIN
  1
CELLMARGIN_BEGIN
 40
1.5
 40
1.5
 40
1.5
 40
1.5
 40
1.5
 40
1.5
309
CELLMARGIN_END
 94
        6
 95
        1
302
GRIDFORMAT
  1
GRIDFORMAT_BEGIN
 90
        0
 91
        1
 62
     0
 92
       -2
340
14
 93
        0
 40
0.045
309
GRIDFORMAT_END
 95
        2
302
GRIDFORMAT
  1
GRIDFORMAT_BEGIN
 90
        0
 91
        1
 62
     0
 92
       -2
340
14
 93
        0
 40
0.045
309
GRIDFORMAT_END
 95
        4
302
GRIDFORMAT
  1
GRIDFORMAT_BEGIN
 90
        0
 91
        1
 62
     0
 92
       -2
340
14
 93
        0
 40
0.045
309
GRIDFORMAT_END
 95
        8
302
GRIDFORMAT
  1
GRIDFORMAT_BEGIN
 90
        0
 91
        1
 62
     0
 92
       -2
340
14
 93
        0
 40
0.045
309
GRIDFORMAT_END
 95
       16
302
GRIDFORMAT
  1
GRIDFORMAT_BEGIN
 90
        0
 91
        1
 62
     0
 92
       -2
340
14
 93
        0
 40
0.045
309
GRIDFORMAT_END
 95
       32
302
GRIDFORMAT
  1
GRIDFORMAT_BEGIN
 90
        0
 91
        1
 62
     0
 92
       -2
340
14
 93
        0
 40
0.045
309
GRIDFORMAT_END
309
TABLEFORMAT_END
  1
CELLSTYLE_BEGIN
 90
        3
 91
        2
300
_DATA
309
CELLSTYLE_END
  0
ENDSEC
  0
EOF
