  0
SECTION
  2
HEADER
  9
$ACADVER
  1
AC1027
  9
$ACADMAINTVER
 70
   105
  9
$DWGCODEPAGE
  3
ANSI_1252
  9
$REQUIREDVERSIONS
160
                 0
  9
$LASTSAVEDBY
  1
andrea.zolin
  9
$INSBASE
 10
0.0
 20
0.0
 30
0.0
  9
$EXTMIN
 10
0.0
 20
0.0
 30
0.0
  9
$EXTMAX
 10
3200.0
 20
2500.0
 30
0.0
  9
$LIMMIN
 10
0.0
 20
0.0
  9
$LIMMAX
 10
3200.0
 20
2500.0
  9
$ORTHOMODE
 70
     0
  9
$REGENMODE
 70
     1
  9
$FILLMODE
 70
     1
  9
$QTEXTMODE
 70
     0
  9
$MIRRTEXT
 70
     1
  9
$LTSCALE
 40
176.0
  9
$ATTMODE
 70
     1
  9
$TEXTSIZE
 40
0.2
  9
$TRACEWID
 40
0.05
  9
$TEXTSTYLE
  7
STANDARD
  9
$CLAYER
  8
0
  9
$CELTYPE
  6
BYLAYER
  9
$CECOLOR
 62
   256
  9
$CELTSCALE
 40
1.0
  9
$DISPSILH
 70
     0
  9
$DIMSCALE
 40
1.0
  9
$DIMASZ
 40
2.5
  9
$DIMEXO
 40
0.75
  9
$DIMDLI
 40
121.6
  9
$DIMRND
 40
0.0
  9
$DIMDLE
 40
0.0
  9
$DIMEXE
 40
0.75
  9
$DIMTP
 40
0.01
  9
$DIMTM
 40
0.01
  9
$DIMTXT
 40
3.0
  9
$DIMCEN
 40
28.8
  9
$DIMTSZ
 40
0.0
  9
$DIMTOL
 70
     1
  9
$DIMLIM
 70
     0
  9
$DIMTIH
 70
     1
  9
$DIMTOH
 70
     1
  9
$DIMSE1
 70
     0
  9
$DIMSE2
 70
     0
  9
$DIMTAD
 70
     0
  9
$DIMZIN
 70
     0
  9
$DIMBLK
  1
CLOSED
  9
$DIMASO
 70
     1
  9
$DIMSHO
 70
     1
  9
$DIMPOST
  1

  9
$DIMAPOST
  1

  9
$DIMALT
 70
     0
  9
$DIMALTD
 70
     2
  9
$DIMALTF
 40
25.4
  9
$DIMLFAC
 40
1.0
  9
$DIMTOFL
 70
     0
  9
$DIMTVP
 40
0.0
  9
$DIMTIX
 70
     0
  9
$DIMSOXD
 70
     0
  9
$DIMSAH
 70
     0
  9
$DIMBLK1
  1

  9
$DIMBLK2
  1

  9
$DIMSTYLE
  2
STANDARD
  9
$DIMCLRD
 70
     0
  9
$DIMCLRE
 70
     0
  9
$DIMCLRT
 70
     0
  9
$DIMTFAC
 40
1.0
  9
$DIMGAP
 40
0.625
  9
$DIMJUST
 70
     0
  9
$DIMSD1
 70
     0
  9
$DIMSD2
 70
     0
  9
$DIMTOLJ
 70
     1
  9
$DIMTZIN
 70
     0
  9
$DIMALTZ
 70
     0
  9
$DIMALTTZ
 70
     0
  9
$DIMUPT
 70
     0
  9
$DIMDEC
 70
     4
  9
$DIMTDEC
 70
     4
  9
$DIMALTU
 70
     2
  9
$DIMALTTD
 70
     2
  9
$DIMTXSTY
  7
STANDARD
  9
$DIMAUNIT
 70
     0
  9
$DIMADEC
 70
     0
  9
$DIMALTRND
 40
0.0
  9
$DIMAZIN
 70
     0
  9
$DIMDSEP
 70
    46
  9
$DIMATFIT
 70
     3
  9
$DIMFRAC
 70
     0
  9
$DIMLDRBLK
  1

  9
$DIMLUNIT
 70
     2
  9
$DIMLWD
 70
    -2
  9
$DIMLWE
 70
    -2
  9
$DIMTMOVE
 70
     2
  9
$DIMFXL
 40
1.0
  9
$DIMFXLON
 70
     0
  9
$DIMJOGANG
 40
0.7853981633974483
  9
$DIMTFILL
 70
     0
  9
$DIMTFILLCLR
 70
     0
  9
$DIMARCSYM
 70
     0
  9
$DIMLTYPE
  6

  9
$DIMLTEX1
  6

  9
$DIMLTEX2
  6

  9
$DIMTXTDIRECTION
 70
     0
  9
$LUNITS
 70
     2
  9
$LUPREC
 70
     4
  9
$SKETCHINC
 40
0.1
  9
$FILLETRAD
 40
0.5
  9
$AUNITS
 70
     0
  9
$AUPREC
 70
     0
  9
$MENU
  1
.
  9
$ELEVATION
 40
0.0
  9
$PELEVATION
 40
0.0
  9
$THICKNESS
 40
0.0
  9
$LIMCHECK
 70
     0
  9
$CHAMFERA
 40
0.0
  9
$CHAMFERB
 40
0.0
  9
$CHAMFERC
 40
0.0
  9
$CHAMFERD
 40
0.0
  9
$SKPOLY
 70
     0
  9
$TDCREATE
 40
2447893.041666667
  9
$TDUCREATE
 40
0.0
  9
$TDUPDATE
 40
2458466.619370046
  9
$TDUUPDATE
 40
2458466.57770338
  9
$TDINDWG
 40
0.0002552083
  9
$TDUSRTIMER
 40
0.0002552083
  9
$USRTIMER
 70
     1
  9
$ANGBASE
 50
0.0
  9
$ANGDIR
 70
     0
  9
$PDMODE
 70
     3
  9
$PDSIZE
 40
0.3125
  9
$PLINEWID
 40
0.0
  9
$SPLFRAME
 70
     0
  9
$SPLINETYPE
 70
     6
  9
$SPLINESEGS
 70
     8
  9
$HANDSEED
  5
48F
  9
$SURFTAB1
 70
     6
  9
$SURFTAB2
 70
     6
  9
$SURFTYPE
 70
     6
  9
$SURFU
 70
     6
  9
$SURFV
 70
     6
  9
$UCSBASE
  2

  9
$UCSNAME
  2

  9
$UCSORG
 10
0.0
 20
0.0
 30
0.0
  9
$UCSXDIR
 10
1.0
 20
0.0
 30
0.0
  9
$UCSYDIR
 10
0.0
 20
1.0
 30
0.0
  9
$UCSORTHOREF
  2

  9
$UCSORTHOVIEW
 70
     0
  9
$UCSORGTOP
 10
0.0
 20
0.0
 30
0.0
  9
$UCSORGBOTTOM
 10
0.0
 20
0.0
 30
0.0
  9
$UCSORGLEFT
 10
0.0
 20
0.0
 30
0.0
  9
$UCSORGRIGHT
 10
0.0
 20
0.0
 30
0.0
  9
$UCSORGFRONT
 10
0.0
 20
0.0
 30
0.0
  9
$UCSORGBACK
 10
0.0
 20
0.0
 30
0.0
  9
$PUCSBASE
  2

  9
$PUCSNAME
  2

  9
$PUCSORG
 10
0.0
 20
0.0
 30
0.0
  9
$PUCSXDIR
 10
1.0
 20
0.0
 30
0.0
  9
$PUCSYDIR
 10
0.0
 20
1.0
 30
0.0
  9
$PUCSORTHOREF
  2

  9
$PUCSORTHOVIEW
 70
     0
  9
$PUCSORGTOP
 10
0.0
 20
0.0
 30
0.0
  9
$PUCSORGBOTTOM
 10
0.0
 20
0.0
 30
0.0
  9
$PUCSORGLEFT
 10
0.0
 20
0.0
 30
0.0
  9
$PUCSORGRIGHT
 10
0.0
 20
0.0
 30
0.0
  9
$PUCSORGFRONT
 10
0.0
 20
0.0
 30
0.0
  9
$PUCSORGBACK
 10
0.0
 20
0.0
 30
0.0
  9
$USERI1
 70
     0
  9
$USERI2
 70
     0
  9
$USERI3
 70
     0
  9
$USERI4
 70
     0
  9
$USERI5
 70
     0
  9
$USERR1
 40
0.0
  9
$USERR2
 40
0.0
  9
$USERR3
 40
0.0
  9
$USERR4
 40
0.0
  9
$USERR5
 40
0.0
  9
$WORLDVIEW
 70
     1
  9
$SHADEDGE
 70
     3
  9
$SHADEDIF
 70
    70
  9
$TILEMODE
 70
     0
  9
$MAXACTVP
 70
    64
  9
$PINSBASE
 10
0.0
 20
0.0
 30
0.0
  9
$PLIMCHECK
 70
     0
  9
$PEXTMIN
 10
0.0
 20
0.0
 30
0.0
  9
$PEXTMAX
 10
3206.3647416778
 20
2500.0
 30
0.0
  9
$PLIMMIN
 10
-72.95719844357977
 20
-194.5525291828794
  9
$PLIMMAX
 10
4012.645914396887
 20
2694.552529182879
  9
$UNITMODE
 70
     0
  9
$VISRETAIN
 70
     1
  9
$PLINEGEN
 70
     0
  9
$PSLTSCALE
 70
     1
  9
$TREEDEPTH
 70
  3020
  9
$CMLSTYLE
  2
STANDARD
  9
$CMLJUST
 70
     0
  9
$CMLSCALE
 40
1.0
  9
$PROXYGRAPHICS
 70
     1
  9
$MEASUREMENT
 70
     1
  9
$CELWEIGHT
370
    -1
  9
$ENDCAPS
280
     0
  9
$JOINSTYLE
280
     0
  9
$LWDISPLAY
290
     0
  9
$INSUNITS
 70
     0
  9
$HYPERLINKBASE
  1

  9
$STYLESHEET
  1

  9
$XEDIT
290
     1
  9
$CEPSNTYPE
380
     0
  9
$PSTYLEMODE
290
     1
  9
$FINGERPRINTGUID
  2
{B1E63769-EBEE-4DD8-965B-F9586EA7DDB8}
  9
$VERSIONGUID
  2
{FAEB1C32-E019-11D5-929B-00C0DF256EC4}
  9
$EXTNAMES
290
     1
  9
$PSVPSCALE
 40
0.0
  9
$OLESTARTUP
290
     0
  9
$SORTENTS
280
   127
  9
$INDEXCTL
280
     0
  9
$HIDETEXT
280
     1
  9
$XCLIPFRAME
280
     2
  9
$HALOGAP
280
     0
  9
$OBSCOLOR
 70
   257
  9
$OBSLTYPE
280
     0
  9
$INTERSECTIONDISPLAY
280
     0
  9
$INTERSECTIONCOLOR
 70
   257
  9
$DIMASSOC
280
     2
  9
$PROJECTNAME
  1

  9
$CAMERADISPLAY
290
     0
  9
$LENSLENGTH
 40
50.0
  9
$CAMERAHEIGHT
 40
0.0
  9
$STEPSPERSEC
 40
2.0
  9
$STEPSIZE
 40
6.0
  9
$3DDWFPREC
 40
2.0
  9
$PSOLWIDTH
 40
0.25
  9
$PSOLHEIGHT
 40
4.0
  9
$LOFTANG1
 40
1.570796326794897
  9
$LOFTANG2
 40
1.570796326794897
  9
$LOFTMAG1
 40
0.0
  9
$LOFTMAG2
 40
0.0
  9
$LOFTPARAM
 70
     7
  9
$LOFTNORMALS
280
     1
  9
$LATITUDE
 40
37.795
  9
$LONGITUDE
 40
-122.394
  9
$NORTHDIRECTION
 40
0.0
  9
$TIMEZONE
 70
 -8000
  9
$LIGHTGLYPHDISPLAY
280
     1
  9
$TILEMODELIGHTSYNCH
280
     1
  9
$SOLIDHIST
280
     0
  9
$SHOWHIST
280
     1
  9
$DWFFRAME
280
     2
  9
$DGNFRAME
280
     2
  9
$REALWORLDSCALE
290
     1
  9
$INTERFERECOLOR
 62
   256
  9
$CSHADOW
280
     0
  9
$SHADOWPLANELOCATION
 40
0.0
  0
ENDSEC
  0
SECTION
  2
CLASSES
  0
CLASS
  1
ACDBDICTIONARYWDFLT
  2
AcDbDictionaryWithDefault
  3
ObjectDBX Classes
 90
        0
 91
        4
280
     0
281
     0
  0
CLASS
  1
SCALE
  2
AcDbScale
  3
ObjectDBX Classes
 90
     1153
 91
        4
280
     0
281
     0
  0
CLASS
  1
VISUALSTYLE
  2
AcDbVisualStyle
  3
ObjectDBX Classes
 90
     4095
 91
        4
280
     0
281
     0
  0
CLASS
  1
MATERIAL
  2
AcDbMaterial
  3
ObjectDBX Classes
 90
     1153
 91
        4
280
     0
281
     0
  0
CLASS
  1
TABLESTYLE
  2
AcDbTableStyle
  3
ObjectDBX Classes
 90
     4095
 91
        4
280
     0
281
     0
  0
CLASS
  1
MLEADERSTYLE
  2
AcDbMLeaderStyle
  3
ACDB_MLEADERSTYLE_CLASS
 90
     4095
 91
        4
280
     0
281
     0
  0
CLASS
  1
DICTIONARYVAR
  2
AcDbDictionaryVar
  3
ObjectDBX Classes
 90
        0
 91
        4
280
     0
281
     0
  0
CLASS
  1
CELLSTYLEMAP
  2
AcDbCellStyleMap
  3
ObjectDBX Classes
 90
     1152
 91
        4
280
     0
281
     0
  0
ENDSEC
  0
SECTION
  2
TABLES
  0
TABLE
  2
VPORT
  5
8
330
0
100
AcDbSymbolTable
 70
     1
  0
VPORT
  5
1F4
330
8
100
AcDbSymbolTableRecord
100
AcDbViewportTableRecord
  2
*ACTIVE
 70
     0
 10
0.0
 20
0.0
 11
1.0
 21
1.0
 12
1600.0
 22
1250.0
 13
0.0
 23
0.0
 14
1.0
 24
1.0
 15
0.0
 25
0.0
 16
0.0
 26
0.0
 36
1.0
 17
0.0
 27
0.0
 37
0.0
 40
2500.0
 41
1.28
 42
50.0
 43
0.0
 44
0.0
 50
0.0
 51
0.0
 71
     0
 72
   100
 73
     1
 74
     1
 75
     0
 76
     0
 77
     0
 78
     0
281
     0
 65
     1
110
0.0
120
0.0
130
0.0
111
1.0
121
0.0
131
0.0
112
0.0
122
1.0
132
0.0
 79
     0
146
0.0
348
468
 60
     3
 61
     5
292
     1
282
     1
141
0.0
142
0.0
 63
   256
  0
ENDTAB
  0
TABLE
  2
LTYPE
  5
5
330
0
100
AcDbSymbolTable
 70
     6
  0
LTYPE
  5
14
330
5
100
AcDbSymbolTableRecord
100
AcDbLinetypeTableRecord
  2
BYBLOCK
 70
     0
  3

 72
    65
 73
     0
 40
0.0
  0
LTYPE
  5
15
330
5
100
AcDbSymbolTableRecord
100
AcDbLinetypeTableRecord
  2
BYLAYER
 70
     0
  3

 72
    65
 73
     0
 40
0.0
  0
LTYPE
  5
16
330
5
100
AcDbSymbolTableRecord
100
AcDbLinetypeTableRecord
  2
CONTINUOUS
 70
     0
  3
Solid line
 72
    65
 73
     0
 40
0.0
  0
LTYPE
  5
1F5
330
5
100
AcDbSymbolTableRecord
100
AcDbLinetypeTableRecord
  2
CENTER
 70
     0
  3
____ _ ____ _ ____ _ ____ _ ____ _ ____ _ ____
 72
    65
 73
     4
 40
0.6
 49
0.375
 74
     0
 49
-0.075
 74
     0
 49
0.075
 74
     0
 49
-0.075
 74
     0
  0
LTYPE
  5
1F6
330
5
100
AcDbSymbolTableRecord
100
AcDbLinetypeTableRecord
  2
HIDDEN
 70
     0
  3
- - - - - - - - - - - - - - - - - - - -
 72
    65
 73
     2
 40
0.2
 49
0.1
 74
     0
 49
-0.1
 74
     0
  0
LTYPE
  5
1F7
330
5
100
AcDbSymbolTableRecord
100
AcDbLinetypeTableRecord
  2
PHANTOM
 70
     0
  3
_____ _ _ _____ _ _ _____ _ _ _____
 72
    65
 73
     6
 40
0.8
 49
0.45
 74
     0
 49
-0.05
 74
     0
 49
0.1
 74
     0
 49
-0.05
 74
     0
 49
0.1
 74
     0
 49
-0.05
 74
     0
  0
LTYPE
  5
1F8
330
5
100
AcDbSymbolTableRecord
100
AcDbLinetypeTableRecord
  2
DOT
 70
     0
  3
. . . . . . . . . . . . . . . . . . . .
 72
    65
 73
     2
 40
0.2
 49
0.1
 74
     0
 49
-0.1
 74
     0
  0
LTYPE
  5
1F9
330
5
100
AcDbSymbolTableRecord
100
AcDbLinetypeTableRecord
  2
DASHED
 70
     0
  3
- - - - - - - - - - - - - - - - - - - -
 72
    65
 73
     2
 40
0.2
 49
0.1
 74
     0
 49
-0.1
 74
     0
  0
ENDTAB
  0
TABLE
  2
LAYER
  5
2
330
0
100
AcDbSymbolTable
 70
    40
  0
LAYER
  5
10
330
2
100
AcDbSymbolTableRecord
100
AcDbLayerTableRecord
  2
0
 70
     0
 62
     7
  6
CONTINUOUS
370
    -3
390
43D
347
47F
348
0
  0
LAYER
  5
1FA
330
2
100
AcDbSymbolTableRecord
100
AcDbLayerTableRecord
  2
DEFAULT_1
 70
     0
 62
     7
  6
CENTER
370
    -3
390
43D
347
47F
348
0
  0
LAYER
  5
1FB
330
2
100
AcDbSymbolTableRecord
100
AcDbLayerTableRecord
  2
DEFAULT_2
 70
     0
 62
     8
  6
HIDDEN
370
    -3
390
43D
347
47F
348
0
  0
LAYER
  5
1FC
330
2
100
AcDbSymbolTableRecord
100
AcDbLayerTableRecord
  2
DEFAULT_3
 70
     0
 62
     7
  6
PHANTOM
370
    -3
390
43D
347
47F
348
0
  0
LAYER
  5
1FD
330
2
100
AcDbSymbolTableRecord
100
AcDbLayerTableRecord
  2
01_ALL_DTM_PLN
 70
     0
 62
     7
  6
CONTINUOUS
370
    -3
390
43D
347
47F
348
0
  0
LAYER
  5
1FE
330
2
100
AcDbSymbolTableRecord
100
AcDbLayerTableRecord
  2
01__ASM_ALL_DTM_PLN
 70
     0
 62
     7
  6
CONTINUOUS
370
    -3
390
43D
347
47F
348
0
  0
LAYER
  5
1FF
330
2
100
AcDbSymbolTableRecord
100
AcDbLayerTableRecord
  2
01__ASM_DEF_DTM_PLN
 70
     0
 62
     7
  6
CONTINUOUS
370
    -3
390
43D
347
47F
348
0
  0
LAYER
  5
200
330
2
100
AcDbSymbolTableRecord
100
AcDbLayerTableRecord
  2
01___PRT_ALL_DTM_PLN
 70
     0
 62
     7
  6
CONTINUOUS
370
    -3
390
43D
347
47F
348
0
  0
LAYER
  5
201
330
2
100
AcDbSymbolTableRecord
100
AcDbLayerTableRecord
  2
01___PRT_DEF_DTM_PLN
 70
     0
 62
     7
  6
CONTINUOUS
370
    -3
390
43D
347
47F
348
0
  0
LAYER
  5
202
330
2
100
AcDbSymbolTableRecord
100
AcDbLayerTableRecord
  2
02_ALL_AXES
 70
     0
 62
     7
  6
CONTINUOUS
370
    -3
390
43D
347
47F
348
0
  0
LAYER
  5
203
330
2
100
AcDbSymbolTableRecord
100
AcDbLayerTableRecord
  2
02__ASM_ALL_AXES
 70
     0
 62
     7
  6
CONTINUOUS
370
    -3
390
43D
347
47F
348
0
  0
LAYER
  5
204
330
2
100
AcDbSymbolTableRecord
100
AcDbLayerTableRecord
  2
02___PRT_ALL_AXES
 70
     0
 62
     7
  6
CONTINUOUS
370
    -3
390
43D
347
47F
348
0
  0
LAYER
  5
205
330
2
100
AcDbSymbolTableRecord
100
AcDbLayerTableRecord
  2
03_ALL_CURVES
 70
     0
 62
     7
  6
CONTINUOUS
370
    -3
390
43D
347
47F
348
0
  0
LAYER
  5
206
330
2
100
AcDbSymbolTableRecord
100
AcDbLayerTableRecord
  2
03__ASM_ALL_CURVES
 70
     0
 62
     7
  6
CONTINUOUS
370
    -3
390
43D
347
47F
348
0
  0
LAYER
  5
207
330
2
100
AcDbSymbolTableRecord
100
AcDbLayerTableRecord
  2
03___PRT_ALL_CURVES
 70
     0
 62
     7
  6
CONTINUOUS
370
    -3
390
43D
347
47F
348
0
  0
LAYER
  5
208
330
2
100
AcDbSymbolTableRecord
100
AcDbLayerTableRecord
  2
04_ALL_DTM_PNT
 70
     0
 62
     7
  6
CONTINUOUS
370
    -3
390
43D
347
47F
348
0
  0
LAYER
  5
209
330
2
100
AcDbSymbolTableRecord
100
AcDbLayerTableRecord
  2
04__ASM_ALL_DTM_PNT
 70
     0
 62
     7
  6
CONTINUOUS
370
    -3
390
43D
347
47F
348
0
  0
LAYER
  5
20A
330
2
100
AcDbSymbolTableRecord
100
AcDbLayerTableRecord
  2
04___PRT_ALL_DTM_PNT
 70
     0
 62
     7
  6
CONTINUOUS
370
    -3
390
43D
347
47F
348
0
  0
LAYER
  5
20B
330
2
100
AcDbSymbolTableRecord
100
AcDbLayerTableRecord
  2
05_ALL_DTM_CSYS
 70
     0
 62
     7
  6
CONTINUOUS
370
    -3
390
43D
347
47F
348
0
  0
LAYER
  5
20C
330
2
100
AcDbSymbolTableRecord
100
AcDbLayerTableRecord
  2
05__ASM_ALL_DTM_CSYS
 70
     0
 62
     7
  6
CONTINUOUS
370
    -3
390
43D
347
47F
348
0
  0
LAYER
  5
20D
330
2
100
AcDbSymbolTableRecord
100
AcDbLayerTableRecord
  2
05__ASM_DEF_DTM_CSYS
 70
     0
 62
     7
  6
CONTINUOUS
370
    -3
390
43D
347
47F
348
0
  0
LAYER
  5
20E
330
2
100
AcDbSymbolTableRecord
100
AcDbLayerTableRecord
  2
05___PRT_ALL_DTM_CSYS
 70
     0
 62
     7
  6
CONTINUOUS
370
    -3
390
43D
347
47F
348
0
  0
LAYER
  5
20F
330
2
100
AcDbSymbolTableRecord
100
AcDbLayerTableRecord
  2
05___PRT_DEF_DTM_CSYS
 70
     0
 62
     7
  6
CONTINUOUS
370
    -3
390
43D
347
47F
348
0
  0
LAYER
  5
210
330
2
100
AcDbSymbolTableRecord
100
AcDbLayerTableRecord
  2
06_ALL_SURFS
 70
     0
 62
     7
  6
CONTINUOUS
370
    -3
390
43D
347
47F
348
0
  0
LAYER
  5
211
330
2
100
AcDbSymbolTableRecord
100
AcDbLayerTableRecord
  2
06__ASM_ALL_SURFS
 70
     0
 62
     7
  6
CONTINUOUS
370
    -3
390
43D
347
47F
348
0
  0
LAYER
  5
212
330
2
100
AcDbSymbolTableRecord
100
AcDbLayerTableRecord
  2
06___PRT_ALL_SURFS
 70
     0
 62
     7
  6
CONTINUOUS
370
    -3
390
43D
347
47F
348
0
  0
LAYER
  5
213
330
2
100
AcDbSymbolTableRecord
100
AcDbLayerTableRecord
  2
07__ASM_ALL_SKELETONS
 70
     0
 62
     7
  6
CONTINUOUS
370
    -3
390
43D
347
47F
348
0
  0
LAYER
  5
214
330
2
100
AcDbSymbolTableRecord
100
AcDbLayerTableRecord
  2
1_ALL_PLANES
 70
     0
 62
     7
  6
CONTINUOUS
370
    -3
390
43D
347
47F
348
0
  0
LAYER
  5
215
330
2
100
AcDbSymbolTableRecord
100
AcDbLayerTableRecord
  2
2_ALL_CSYS
 70
     0
 62
     7
  6
CONTINUOUS
370
    -3
390
43D
347
47F
348
0
  0
LAYER
  5
216
330
2
100
AcDbSymbolTableRecord
100
AcDbLayerTableRecord
  2
3_ALL_AXES
 70
     0
 62
     7
  6
CONTINUOUS
370
    -3
390
43D
347
47F
348
0
  0
LAYER
  5
217
330
2
100
AcDbSymbolTableRecord
100
AcDbLayerTableRecord
  2
4_ALL_POINTS
 70
     0
 62
     7
  6
CONTINUOUS
370
    -3
390
43D
347
47F
348
0
  0
LAYER
  5
218
330
2
100
AcDbSymbolTableRecord
100
AcDbLayerTableRecord
  2
5_ALL_CURVES
 70
     0
 62
     7
  6
CONTINUOUS
370
    -3
390
43D
347
47F
348
0
  0
LAYER
  5
219
330
2
100
AcDbSymbolTableRecord
100
AcDbLayerTableRecord
  2
5__COSTRUZIONE
 70
     0
 62
     7
  6
CONTINUOUS
370
    -3
390
43D
347
47F
348
0
  0
LAYER
  5
21A
330
2
100
AcDbSymbolTableRecord
100
AcDbLayerTableRecord
  2
6_ALL_SURFS
 70
     0
 62
     7
  6
CONTINUOUS
370
    -3
390
43D
347
47F
348
0
  0
LAYER
  5
21B
330
2
100
AcDbSymbolTableRecord
100
AcDbLayerTableRecord
  2
7_ALL_FEATURES
 70
     0
 62
     7
  6
CONTINUOUS
370
    -3
390
43D
347
47F
348
0
  0
LAYER
  5
21C
330
2
100
AcDbSymbolTableRecord
100
AcDbLayerTableRecord
  2
8_ALL_NOTES_BALLOONS_SYMBOLS_GT
 70
     0
 62
     7
  6
CONTINUOUS
370
    -3
390
43D
347
47F
348
0
  0
LAYER
  5
21D
330
2
100
AcDbSymbolTableRecord
100
AcDbLayerTableRecord
  2
9_SOLID
 70
     0
 62
     7
  6
CONTINUOUS
370
    -3
390
43D
347
47F
348
0
  0
LAYER
  5
21E
330
2
100
AcDbSymbolTableRecord
100
AcDbLayerTableRecord
  2
INTFCLR_4
 70
     0
 62
     7
  6
CONTINUOUS
370
    -3
390
43D
347
47F
348
0
  0
LAYER
  5
21F
330
2
100
AcDbSymbolTableRecord
100
AcDbLayerTableRecord
  2
INTF_RED
 70
     0
 62
     7
  6
CONTINUOUS
370
    -3
390
43D
347
47F
348
0
  0
LAYER
  5
220
330
2
100
AcDbSymbolTableRecord
100
AcDbLayerTableRecord
  2
XXX_SOLIDO
 70
     0
 62
     7
  6
CONTINUOUS
370
    -3
390
43D
347
47F
348
0
  0
ENDTAB
  0
TABLE
  2
STYLE
  5
3
330
0
100
AcDbSymbolTable
 70
     3
  0
STYLE
  5
11
330
3
100
AcDbSymbolTableRecord
100
AcDbTextStyleTableRecord
  2
STANDARD
 70
     0
 40
0.0
 41
0.85
 50
0.0
 71
     0
 42
0.2
  3
txt
  4

  0
STYLE
  5
221
330
3
100
AcDbSymbolTableRecord
100
AcDbTextStyleTableRecord
  2
TEXTSTYLE_1
 70
     0
 40
0.0
 41
0.8
 50
0.0
 71
     0
 42
0.2
  3
gdt
  4

  0
STYLE
  5
222
330
3
100
AcDbSymbolTableRecord
100
AcDbTextStyleTableRecord
  2
TEXTSTYLE_2
 70
     0
 40
0.0
 41
2.0
 50
0.0
 71
     0
 42
0.2
  3
txt
  4

  0
ENDTAB
  0
TABLE
  2
VIEW
  5
6
330
0
100
AcDbSymbolTable
 70
     0
  0
ENDTAB
  0
TABLE
  2
UCS
  5
7
330
0
100
AcDbSymbolTable
 70
     0
  0
ENDTAB
  0
TABLE
  2
APPID
  5
9
330
0
100
AcDbSymbolTable
 70
     1
  0
APPID
  5
223
330
9
100
AcDbSymbolTableRecord
100
AcDbRegAppTableRecord
  2
ACAD
 70
     0
  0
ENDTAB
  0
TABLE
  2
DIMSTYLE
  5
A
330
0
100
AcDbSymbolTable
 70
     3
100
AcDbDimStyleTable
  0
DIMSTYLE
105
22A
330
A
100
AcDbSymbolTableRecord
100
AcDbDimStyleTableRecord
  2
STANDARD
 70
     0
 41
2.5
 42
0.75
 44
0.75
 47
0.01
 48
0.01
 71
     1
 73
     0
 74
     0
 77
     1
 78
     8
 79
     2
140
3.0
147
0.625
171
     1
178
     0
179
     2
271
     2
272
     2
284
     8
340
11
341
224
342
224
343
224
344
224
  0
DIMSTYLE
105
22B
330
A
100
AcDbSymbolTableRecord
100
AcDbDimStyleTableRecord
  2
DIMSTYLE_1
 70
     0
 41
2.5
 42
0.75
 44
0.75
 47
2.0
 48
2.0
 73
     0
 74
     0
 77
     1
 78
     8
 79
     2
140
3.0
147
0.75
171
     1
178
     0
271
     0
272
     0
284
     8
340
11
341
224
342
224
343
224
344
224
  0
DIMSTYLE
105
22C
330
A
100
AcDbSymbolTableRecord
100
AcDbDimStyleTableRecord
  2
DIMSTYLE_2
 70
     0
 41
2.5
 42
0.75
 44
0.75
 47
0.3
 48
0.3
 73
     0
 74
     0
 77
     1
 78
     8
 79
     2
140
3.0
147
0.75
171
     1
178
     0
271
     0
272
     0
284
     8
340
11
341
224
342
224
343
224
344
224
  0
ENDTAB
  0
TABLE
  2
BLOCK_RECORD
  5
1
330
0
100
AcDbSymbolTable
 70
     6
  0
BLOCK_RECORD
  5
1F
330
1
100
AcDbSymbolTableRecord
100
AcDbBlockTableRecord
  2
*MODEL_SPACE
340
461
 70
     0
280
     1
281
     0
  0
BLOCK_RECORD
  5
1B
330
1
100
AcDbSymbolTableRecord
100
AcDbBlockTableRecord
  2
*PAPER_SPACE
340
462
 70
     0
280
     1
281
     0
  0
BLOCK_RECORD
  5
224
330
1
100
AcDbSymbolTableRecord
100
AcDbBlockTableRecord
  2
_CLOSED
340
0
102
{BLKREFS
331
27F
331
280
331
288
331
289
331
291
331
292
102
}
 70
     0
280
     1
281
     0
  0
BLOCK_RECORD
  5
225
330
1
100
AcDbSymbolTableRecord
100
AcDbBlockTableRecord
  2
*D1
340
0
 70
     0
280
     1
281
     0
  0
BLOCK_RECORD
  5
226
330
1
100
AcDbSymbolTableRecord
100
AcDbBlockTableRecord
  2
*D2
340
0
 70
     0
280
     1
281
     0
  0
BLOCK_RECORD
  5
227
330
1
100
AcDbSymbolTableRecord
100
AcDbBlockTableRecord
  2
*D3
340
0
 70
     0
280
     1
281
     0
  0
BLOCK_RECORD
  5
228
330
1
100
AcDbSymbolTableRecord
100
AcDbBlockTableRecord
  2
LOGO2_BL1
340
0
102
{BLKREFS
331
425
102
}
 70
     0
280
     1
281
     0
  0
BLOCK_RECORD
  5
229
330
1
100
AcDbSymbolTableRecord
100
AcDbBlockTableRecord
  2
PROIEZIONE_EU_BL0
340
0
102
{BLKREFS
331
422
102
}
 70
     0
280
     1
281
     0
  0
ENDTAB
  0
ENDSEC
  0
SECTION
  2
BLOCKS
  0
BLOCK
  5
20
330
1F
100
AcDbEntity
  8
0
100
AcDbBlockBegin
  2
*MODEL_SPACE
 70
     0
 10
0.0
 20
0.0
 30
0.0
  3
*MODEL_SPACE
  1

  0
ENDBLK
  5
21
330
1F
100
AcDbEntity
  8
0
100
AcDbBlockEnd
  0
BLOCK
  5
1C
330
1B
100
AcDbEntity
 67
     1
  8
0
100
AcDbBlockBegin
  2
*PAPER_SPACE
 70
     0
 10
0.0
 20
0.0
 30
0.0
  3
*PAPER_SPACE
  1

  0
ENDBLK
  5
1D
330
1B
100
AcDbEntity
 67
     1
  8
0
100
AcDbBlockEnd
  0
BLOCK
  5
273
330
224
100
AcDbEntity
  8
0
100
AcDbBlockBegin
  2
_CLOSED
 70
     0
 10
0.0
 20
0.0
 30
0.0
  3
_CLOSED
  1

  0
LINE
  5
274
330
224
100
AcDbEntity
  8
0
  6
ByBlock
 62
     0
100
AcDbLine
 10
0.0
 20
0.0
 30
0.0
 11
-1.0
 21
0.2
 31
0.0
  0
LINE
  5
275
330
224
100
AcDbEntity
  8
0
  6
ByBlock
 62
     0
100
AcDbLine
 10
-1.0
 20
0.2
 30
0.0
 11
-1.0
 21
-0.2
 31
0.0
  0
LINE
  5
276
330
224
100
AcDbEntity
  8
0
  6
ByBlock
 62
     0
100
AcDbLine
 10
-1.0
 20
-0.2
 30
0.0
 11
0.0
 21
0.0
 31
0.0
  0
LINE
  5
277
330
224
100
AcDbEntity
  8
0
  6
ByBlock
 62
     0
100
AcDbLine
 10
-1.0
 20
0.0
 30
0.0
 11
0.0
 21
0.0
 31
0.0
  0
ENDBLK
  5
278
330
224
100
AcDbEntity
  8
0
  6
ByBlock
 62
     0
100
AcDbBlockEnd
  0
BLOCK
  5
279
330
225
100
AcDbEntity
  8
0
100
AcDbBlockBegin
  2
*D1
 70
     1
 10
0.0
 20
0.0
 30
0.0
  3
*D1
  1

  0
MTEXT
  5
27A
330
225
100
AcDbEntity
  8
0
  6
Continuous
 62
     2
100
AcDbMText
 10
1816.574418867
 20
485.1505515901
 30
0.0
 40
3.0
 41
12.8571428571
 46
0.0
 71
     2
 72
     1
  1
2015
 73
     1
 44
1.0
  0
LINE
  5
27B
330
225
100
AcDbEntity
  8
0
  6
Continuous
 62
     2
100
AcDbLine
 10
2823.824418867
 20
462.0381448076
 30
0.0
 11
2823.824418867
 21
482.1505515901
 31
0.0
  0
LINE
  5
27C
330
225
100
AcDbEntity
  8
0
  6
Continuous
 62
     2
100
AcDbLine
 10
809.324418867
 20
462.0381448076
 30
0.0
 11
809.324418867
 21
482.1505515901
 31
0.0
  0
LINE
  5
27D
330
225
100
AcDbEntity
  8
0
  6
Continuous
 62
     2
100
AcDbLine
 10
2823.824418867
 20
481.4005515901
 30
0.0
 11
1816.574418867
 21
481.4005515901
 31
0.0
  0
LINE
  5
27E
330
225
100
AcDbEntity
  8
0
  6
Continuous
 62
     2
100
AcDbLine
 10
809.324418867
 20
481.4005515901
 30
0.0
 11
1816.574418867
 21
481.4005515901
 31
0.0
  0
INSERT
  5
27F
330
225
100
AcDbEntity
  8
0
  6
Continuous
 62
     2
100
AcDbBlockReference
  2
_CLOSED
 10
2823.824418867
 20
481.4005515901
 30
0.0
 41
2.5
 42
2.5
 43
2.5
  0
INSERT
  5
280
330
225
100
AcDbEntity
  8
0
  6
Continuous
 62
     2
100
AcDbBlockReference
  2
_CLOSED
 10
809.324418867
 20
481.4005515901
 30
0.0
 41
2.5
 42
2.5
 43
2.5
 50
180.0
  0
ENDBLK
  5
281
330
225
100
AcDbEntity
  8
0
  6
ByBlock
 62
     0
100
AcDbBlockEnd
  0
BLOCK
  5
282
330
226
100
AcDbEntity
  8
0
100
AcDbBlockBegin
  2
*D2
 70
     1
 10
0.0
 20
0.0
 30
0.0
  3
*D2
  1

  0
MTEXT
  5
283
330
226
100
AcDbEntity
  8
0
  6
Continuous
 62
     2
100
AcDbMText
 10
3031.2252026223
 20
419.5381448076
 30
0.0
 40
3.0
 41
7.0714285714
 46
0.0
 71
     2
 72
     1
  1
84
 11
0.0
 21
1.0
 31
0.0
 73
     1
 44
1.0
  0
LINE
  5
284
330
226
100
AcDbEntity
  8
0
  6
Continuous
 62
     2
100
AcDbLine
 10
3028.1249962805
 20
461.2881448076
 30
0.0
 11
3035.7252026223
 21
461.2881448076
 31
0.0
  0
LINE
  5
285
330
226
100
AcDbEntity
  8
0
  6
Continuous
 62
     2
100
AcDbLine
 10
3028.2238231741
 20
377.7881448076
 30
0.0
 11
3035.7252026223
 21
377.7881448076
 31
0.0
  0
LINE
  5
286
330
226
100
AcDbEntity
  8
0
  6
Continuous
 62
     2
100
AcDbLine
 10
3034.9752026223
 20
461.2881448076
 30
0.0
 11
3034.9752026223
 21
419.5381448076
 31
0.0
  0
LINE
  5
287
330
226
100
AcDbEntity
  8
0
  6
Continuous
 62
     2
100
AcDbLine
 10
3034.9752026223
 20
377.7881448076
 30
0.0
 11
3034.9752026223
 21
419.5381448076
 31
0.0
  0
INSERT
  5
288
330
226
100
AcDbEntity
  8
0
  6
Continuous
 62
     2
100
AcDbBlockReference
  2
_CLOSED
 10
3034.9752026223
 20
461.2881448076
 30
0.0
 41
2.5
 42
2.5
 43
2.5
 50
90.0
  0
INSERT
  5
289
330
226
100
AcDbEntity
  8
0
  6
Continuous
 62
     2
100
AcDbBlockReference
  2
_CLOSED
 10
3034.9752026223
 20
377.7881448076
 30
0.0
 41
2.5
 42
2.5
 43
2.5
 50
270.0
  0
ENDBLK
  5
28A
330
226
100
AcDbEntity
  8
0
  6
ByBlock
 62
     0
100
AcDbBlockEnd
  0
BLOCK
  5
28B
330
227
100
AcDbEntity
  8
0
100
AcDbBlockBegin
  2
*D3
 70
     1
 10
0.0
 20
0.0
 30
0.0
  3
*D3
  1

  0
MTEXT
  5
28C
330
227
100
AcDbEntity
  8
0
  6
Continuous
 62
     2
100
AcDbMText
 10
2834.726930158
 20
164.8928745373
 30
0.0
 40
3.0
 41
7.0714285714
 46
0.0
 71
     2
 72
     1
  1
42
 11
0.0
 21
1.0
 31
0.0
 73
     1
 44
1.0
  0
LINE
  5
28D
330
227
100
AcDbEntity
  8
0
  6
Continuous
 62
     2
100
AcDbLine
 10
2823.074418867
 20
186.0928745373
 30
0.0
 11
2839.226930158
 21
186.0928745373
 31
0.0
  0
LINE
  5
28E
330
227
100
AcDbEntity
  8
0
  6
Continuous
 62
     2
100
AcDbLine
 10
2823.074418867
 20
143.6928745373
 30
0.0
 11
2839.226930158
 21
143.6928745373
 31
0.0
  0
LINE
  5
28F
330
227
100
AcDbEntity
  8
0
  6
Continuous
 62
     2
100
AcDbLine
 10
2838.476930158
 20
186.0928745373
 30
0.0
 11
2838.476930158
 21
164.8928745373
 31
0.0
  0
LINE
  5
290
330
227
100
AcDbEntity
  8
0
  6
Continuous
 62
     2
100
AcDbLine
 10
2838.476930158
 20
143.6928745373
 30
0.0
 11
2838.476930158
 21
164.8928745373
 31
0.0
  0
INSERT
  5
291
330
227
100
AcDbEntity
  8
0
  6
Continuous
 62
     2
100
AcDbBlockReference
  2
_CLOSED
 10
2838.476930158
 20
186.0928745373
 30
0.0
 41
2.5
 42
2.5
 43
2.5
 50
90.0
  0
INSERT
  5
292
330
227
100
AcDbEntity
  8
0
  6
Continuous
 62
     2
100
AcDbBlockReference
  2
_CLOSED
 10
2838.476930158
 20
143.6928745373
 30
0.0
 41
2.5
 42
2.5
 43
2.5
 50
270.0
  0
ENDBLK
  5
293
330
227
100
AcDbEntity
  8
0
  6
ByBlock
 62
     0
100
AcDbBlockEnd
  0
BLOCK
  5
22D
330
228
100
AcDbEntity
  8
0
100
AcDbBlockBegin
  2
LOGO2_BL1
 70
     0
 10
3081.1657887226
 20
33.8640021913
 30
0.0
  3
LOGO2_BL1
  1

  0
LINE
  5
22E
330
228
100
AcDbEntity
  8
0
  6
Continuous
 62
     7
100
AcDbLine
 10
3072.9087139508
 20
37.0594935301
 30
0.0
 11
3071.6043730214
 21
37.0594935301
 31
0.0
  0
LINE
  5
22F
330
228
100
AcDbEntity
  8
0
  6
Continuous
 62
     7
100
AcDbLine
 10
3071.6043730214
 20
37.0594935301
 30
0.0
 11
3071.6043730214
 21
26.6004274703
 31
0.0
  0
LINE
  5
230
330
228
100
AcDbEntity
  8
0
  6
Continuous
 62
     7
100
AcDbLine
 10
3071.6043730214
 20
26.6004274703
 30
0.0
 11
3076.0854279097
 21
26.6004274703
 31
0.0
  0
LINE
  5
231
330
228
100
AcDbEntity
  8
0
  6
Continuous
 62
     7
100
AcDbLine
 10
3076.0854279097
 20
26.6004274703
 30
0.0
 11
3076.0854279097
 21
27.7932817953
 31
0.0
  0
LINE
  5
232
330
228
100
AcDbEntity
  8
0
  6
Continuous
 62
     7
100
AcDbLine
 10
3076.0854279097
 20
27.7932817953
 30
0.0
 11
3072.9087139508
 21
27.7932817953
 31
0.0
  0
LINE
  5
233
330
228
100
AcDbEntity
  8
0
  6
Continuous
 62
     7
100
AcDbLine
 10
3072.9087139508
 20
27.7932817953
 30
0.0
 11
3072.9087139508
 21
37.0594935301
 31
0.0
  0
LINE
  5
234
330
228
100
AcDbEntity
  8
0
  6
Continuous
 62
     7
100
AcDbLine
 10
3087.8450401671
 20
37.0594935301
 30
0.0
 11
3086.541222649
 21
37.0594935301
 31
0.0
  0
LINE
  5
235
330
228
100
AcDbEntity
  8
0
  6
Continuous
 62
     7
100
AcDbLine
 10
3086.541222649
 20
37.0594935301
 30
0.0
 11
3086.541222649
 21
26.6004274703
 31
0.0
  0
LINE
  5
236
330
228
100
AcDbEntity
  8
0
  6
Continuous
 62
     7
100
AcDbLine
 10
3086.541222649
 20
26.6004274703
 30
0.0
 11
3091.0224083901
 21
26.6004274703
 31
0.0
  0
LINE
  5
237
330
228
100
AcDbEntity
  8
0
  6
Continuous
 62
     7
100
AcDbLine
 10
3091.0224083901
 20
26.6004274703
 30
0.0
 11
3091.0224083901
 21
27.7932817953
 31
0.0
  0
LINE
  5
238
330
228
100
AcDbEntity
  8
0
  6
Continuous
 62
     7
100
AcDbLine
 10
3091.0224083901
 20
27.7932817953
 30
0.0
 11
3087.8450401671
 21
27.7932817953
 31
0.0
  0
LINE
  5
239
330
228
100
AcDbEntity
  8
0
  6
Continuous
 62
     7
100
AcDbLine
 10
3087.8450401671
 20
27.7932817953
 30
0.0
 11
3087.8450401671
 21
37.0594935301
 31
0.0
  0
LWPOLYLINE
  5
23A
330
228
100
AcDbEntity
  8
0
  6
Continuous
 62
     7
100
AcDbPolyline
 90
        2
 70
     0
 43
0.2
 10
3069.9587679323
 20
23.2568761634
 10
3069.9587679323
 20
21.399812914
  0
LWPOLYLINE
  5
23B
330
228
100
AcDbEntity
  8
0
  6
Continuous
 62
     7
100
AcDbPolyline
 90
        2
 70
     0
 43
0.2
 10
3069.9587679323
 20
21.399812914
 10
3070.7544839427
 20
21.399812914
  0
LWPOLYLINE
  5
23C
330
228
100
AcDbEntity
  8
0
  6
Continuous
 62
     7
100
AcDbPolyline
 90
        2
 70
     0
 43
0.2
 10
3070.7544839427
 20
21.399812914
 10
3070.7544839427
 20
21.6117944856
  0
LWPOLYLINE
  5
23D
330
228
100
AcDbEntity
  8
0
  6
Continuous
 62
     7
100
AcDbPolyline
 90
        2
 70
     0
 43
0.2
 10
3070.7544839427
 20
21.6117944856
 10
3070.1903774272
 20
21.6117944856
  0
LWPOLYLINE
  5
23E
330
228
100
AcDbEntity
  8
0
  6
Continuous
 62
     7
100
AcDbPolyline
 90
        2
 70
     0
 43
0.2
 10
3070.1903774272
 20
21.6117944856
 10
3070.1903774272
 20
23.2568761634
  0
LWPOLYLINE
  5
23F
330
228
100
AcDbEntity
  8
0
  6
Continuous
 62
     7
100
AcDbPolyline
 90
        2
 70
     0
 43
0.2
 10
3070.1903774272
 20
23.2568761634
 10
3069.9587679323
 20
23.2568761634
  0
SPLINE
  5
240
330
228
100
AcDbEntity
  8
0
  6
Continuous
 62
     7
100
AcDbSpline
 70
     3
 71
     3
 72
    35
 73
    31
 74
     0
 42
0.000000001
 43
0.0000001
 40
0.0
 40
0.0
 40
0.0
 40
0.0
 40
1.0
 40
1.0
 40
1.0
 40
2.0
 40
2.0
 40
2.0
 40
3.0
 40
3.0
 40
3.0
 40
4.0
 40
4.0
 40
4.0
 40
5.0
 40
5.0
 40
5.0
 40
6.0
 40
6.0
 40
6.0
 40
7.0
 40
7.0
 40
7.0
 40
8.0
 40
8.0
 40
8.0
 40
9.0
 40
9.0
 40
9.0
 40
10.0
 40
10.0
 40
10.0
 40
10.0
 10
3072.1527771983
 20
22.5523645699
 30
0.0
 10
3072.1527771983
 20
22.5523645699
 30
0.0
 10
3072.1527771983
 20
21.8902492907
 30
0.0
 10
3072.1527771983
 20
21.8902492907
 30
0.0
 10
3072.1527771983
 20
21.5751556954
 30
0.0
 10
3072.3006408871
 20
21.3605570674
 30
0.0
 10
3072.6407273714
 20
21.3605570674
 30
0.0
 10
3072.9802904444
 20
21.3605570674
 30
0.0
 10
3073.1284158389
 20
21.5751556954
 30
0.0
 10
3073.1284158389
 20
21.8902492907
 30
0.0
 10
3073.1284158389
 20
21.8902492907
 30
0.0
 10
3073.1284158389
 20
22.5523645699
 30
0.0
 10
3073.1284158389
 20
22.5523645699
 30
0.0
 10
3073.1284158389
 20
22.5523645699
 30
0.0
 10
3072.9063586
 20
22.5523645699
 30
0.0
 10
3072.9063586
 20
22.5523645699
 30
0.0
 10
3072.9063586
 20
22.5523645699
 30
0.0
 10
3072.9063586
 20
21.9153730325
 30
0.0
 10
3072.9063586
 20
21.9153730325
 30
0.0
 10
3072.9063586
 20
21.7295620253
 30
0.0
 10
3072.8596441425
 20
21.5667811148
 30
0.0
 10
3072.6407273714
 20
21.5667811148
 30
0.0
 10
3072.4212871889
 20
21.5667811148
 30
0.0
 10
3072.3745727315
 20
21.7295620253
 30
0.0
 10
3072.3745727315
 20
21.9153730325
 30
0.0
 10
3072.3745727315
 20
21.9153730325
 30
0.0
 10
3072.3745727315
 20
22.5523645699
 30
0.0
 10
3072.3745727315
 20
22.5523645699
 30
0.0
 10
3072.3745727315
 20
22.5523645699
 30
0.0
 10
3072.1527771983
 20
22.5523645699
 30
0.0
 10
3072.1527771983
 20
22.5523645699
 30
0.0
  0
SPLINE
  5
241
330
228
100
AcDbEntity
  8
0
  6
Continuous
 62
     7
100
AcDbSpline
 70
     3
 71
     3
 72
    35
 73
    31
 74
     0
 42
0.000000001
 43
0.0000001
 40
0.0
 40
0.0
 40
0.0
 40
0.0
 40
1.0
 40
1.0
 40
1.0
 40
2.0
 40
2.0
 40
2.0
 40
3.0
 40
3.0
 40
3.0
 40
4.0
 40
4.0
 40
4.0
 40
5.0
 40
5.0
 40
5.0
 40
6.0
 40
6.0
 40
6.0
 40
7.0
 40
7.0
 40
7.0
 40
8.0
 40
8.0
 40
8.0
 40
9.0
 40
9.0
 40
9.0
 40
10.0
 40
10.0
 40
10.0
 40
10.0
 10
3075.5515483961
 20
22.5110150781
 30
0.0
 10
3075.4630918884
 20
22.5623093844
 30
0.0
 10
3075.3496424918
 20
22.5874331262
 30
0.0
 10
3075.2460070568
 20
22.5874331262
 30
0.0
 10
3074.8911342036
 20
22.5874331262
 30
0.0
 10
3074.6156890133
 20
22.3236338371
 30
0.0
 10
3074.6156890133
 20
21.9661439275
 30
0.0
 10
3074.6156890133
 20
21.6212158888
 30
0.0
 10
3074.8941438185
 20
21.3610804787
 30
0.0
 10
3075.2337068915
 20
21.3610804787
 30
0.0
 10
3075.3496424918
 20
21.3610804787
 30
0.0
 10
3075.4503991647
 20
21.3830637528
 30
0.0
 10
3075.5515483961
 20
21.4369751154
 30
0.0
 10
3075.5515483961
 20
21.4369751154
 30
0.0
 10
3075.5515483961
 20
21.7196172109
 30
0.0
 10
3075.5515483961
 20
21.7196172109
 30
0.0
 10
3075.4676717372
 20
21.6264500016
 30
0.0
 10
3075.364167155
 20
21.5673045261
 30
0.0
 10
3075.2360622423
 20
21.5673045261
 30
0.0
 10
3075.0023591023
 20
21.5673045261
 30
0.0
 10
3074.8370919881
 20
21.7395068398
 30
0.0
 10
3074.8370919881
 20
21.9760887419
 30
0.0
 10
3074.8370919881
 20
22.1880703135
 30
0.0
 10
3075.0048453059
 20
22.3801622562
 30
0.0
 10
3075.2216684319
 20
22.3801622562
 30
0.0
 10
3075.3544840462
 20
22.3801622562
 30
0.0
 10
3075.4630918884
 20
22.3262508935
 30
0.0
 10
3075.5515483961
 20
22.225232515
 30
0.0
 10
3075.5515483961
 20
22.225232515
 30
0.0
 10
3075.5515483961
 20
22.5110150781
 30
0.0
 10
3075.5515483961
 20
22.5110150781
 30
0.0
  0
SPLINE
  5
242
330
228
100
AcDbEntity
  8
0
  6
Continuous
 62
     7
100
AcDbSpline
 70
     3
 71
     3
 72
    32
 73
    28
 74
     0
 42
0.000000001
 43
0.0000001
 40
0.0
 40
0.0
 40
0.0
 40
0.0
 40
1.0
 40
1.0
 40
1.0
 40
2.0
 40
2.0
 40
2.0
 40
3.0
 40
3.0
 40
3.0
 40
4.0
 40
4.0
 40
4.0
 40
5.0
 40
5.0
 40
5.0
 40
6.0
 40
6.0
 40
6.0
 40
7.0
 40
7.0
 40
7.0
 40
8.0
 40
8.0
 40
8.0
 40
9.0
 40
9.0
 40
9.0
 40
9.0
 10
3078.0834196483
 20
21.9394499518
 30
0.0
 10
3078.0834196483
 20
21.9394499518
 30
0.0
 10
3078.0834196483
 20
21.9734716855
 30
0.0
 10
3078.0834196483
 20
21.9734716855
 30
0.0
 10
3078.0834196483
 20
22.3157826678
 30
0.0
 10
3077.9105630705
 20
22.5874331262
 30
0.0
 10
3077.5439134633
 20
22.5874331262
 30
0.0
 10
3077.1722914489
 20
22.5874331262
 30
0.0
 10
3076.9825548571
 20
22.3210167806
 30
0.0
 10
3076.9825548571
 20
21.9661439275
 30
0.0
 10
3076.9825548571
 20
21.6264500016
 30
0.0
 10
3077.1966300738
 20
21.3605570674
 30
0.0
 10
3077.5487550177
 20
21.3605570674
 30
0.0
 10
3077.772775049
 20
21.3605570674
 30
0.0
 10
3077.9749426589
 20
21.476230962
 30
0.0
 10
3078.0834196483
 20
21.6756506627
 30
0.0
 10
3078.0834196483
 20
21.6756506627
 30
0.0
 10
3077.8957767016
 20
21.7824265654
 30
0.0
 10
3077.8957767016
 20
21.7824265654
 30
0.0
 10
3077.8122926012
 20
21.6437225741
 30
0.0
 10
3077.7210881843
 20
21.5578831229
 30
0.0
 10
3077.551502927
 20
21.5578831229
 30
0.0
 10
3077.3395213554
 20
21.5578831229
 30
0.0
 10
3077.2065748883
 20
21.7426473075
 30
0.0
 10
3077.2042195375
 20
21.9394499518
 30
0.0
 10
3077.2042195375
 20
21.9394499518
 30
0.0
 10
3078.0834196483
 20
21.9394499518
 30
0.0
 10
3078.0834196483
 20
21.9394499518
 30
0.0
  0
SPLINE
  5
243
330
228
100
AcDbEntity
  8
0
  6
Continuous
 62
     7
100
AcDbSpline
 70
     3
 71
     3
 72
    14
 73
    10
 74
     0
 42
0.000000001
 43
0.0000001
 40
0.0
 40
0.0
 40
0.0
 40
0.0
 40
1.0
 40
1.0
 40
1.0
 40
2.0
 40
2.0
 40
2.0
 40
3.0
 40
3.0
 40
3.0
 40
3.0
 10
3077.2162579971
 20
22.1069415639
 30
0.0
 10
3077.2438679426
 20
22.2718161196
 30
0.0
 10
3077.3717111496
 20
22.3948177722
 30
0.0
 10
3077.5439134633
 20
22.3948177722
 30
0.0
 10
3077.7210881843
 20
22.3948177722
 30
0.0
 10
3077.8345375809
 20
22.2791438776
 30
0.0
 10
3077.8617549679
 20
22.1069415639
 30
0.0
 10
3077.8617549679
 20
22.1069415639
 30
0.0
 10
3077.2162579971
 20
22.1069415639
 30
0.0
 10
3077.2162579971
 20
22.1069415639
 30
0.0
  0
SPLINE
  5
244
330
228
100
AcDbEntity
  8
0
  6
Continuous
 62
     7
100
AcDbSpline
 70
     3
 71
     3
 72
    20
 73
    16
 74
     0
 42
0.000000001
 43
0.0000001
 40
0.0
 40
0.0
 40
0.0
 40
0.0
 40
1.0
 40
1.0
 40
1.0
 40
2.0
 40
2.0
 40
2.0
 40
3.0
 40
3.0
 40
3.0
 40
4.0
 40
4.0
 40
4.0
 40
5.0
 40
5.0
 40
5.0
 40
5.0
 10
3080.1074510985
 20
22.3163060791
 30
0.0
 10
3080.1074510985
 20
22.3163060791
 30
0.0
 10
3080.5185906651
 20
21.8138312427
 30
0.0
 10
3080.5185906651
 20
21.8138312427
 30
0.0
 10
3080.402524212
 20
21.6981573481
 30
0.0
 10
3080.2647361905
 20
21.5678279374
 30
0.0
 10
3080.0927955824
 20
21.5678279374
 30
0.0
 10
3079.9153591558
 20
21.5678279374
 30
0.0
 10
3079.7478675437
 20
21.7321790818
 30
0.0
 10
3079.7478675437
 20
21.9090920971
 30
0.0
 10
3079.7478675437
 20
22.087051935
 30
0.0
 10
3079.9576246173
 20
22.2131940553
 30
0.0
 10
3080.0852061188
 20
22.3011271517
 30
0.0
 10
3080.0852061188
 20
22.3011271517
 30
0.0
 10
3080.1074510985
 20
22.3163060791
 30
0.0
 10
3080.1074510985
 20
22.3163060791
 30
0.0
  0
SPLINE
  5
245
330
228
100
AcDbEntity
  8
0
  6
Continuous
 62
     7
100
AcDbSpline
 70
     3
 71
     3
 72
    23
 73
    19
 74
     0
 42
0.000000001
 43
0.0000001
 40
0.0
 40
0.0
 40
0.0
 40
0.0
 40
1.0
 40
1.0
 40
1.0
 40
2.0
 40
2.0
 40
2.0
 40
3.0
 40
3.0
 40
3.0
 40
4.0
 40
4.0
 40
4.0
 40
5.0
 40
5.0
 40
5.0
 40
6.0
 40
6.0
 40
6.0
 40
6.0
 10
3080.1567826124
 20
22.6073227551
 30
0.0
 10
3080.1567826124
 20
22.6073227551
 30
0.0
 10
3080.0951509332
 20
22.6858344483
 30
0.0
 10
3080.0951509332
 20
22.6858344483
 30
0.0
 10
3080.0412395706
 20
22.754401327
 30
0.0
 10
3079.9844494458
 20
22.823491617
 30
0.0
 10
3079.9844494458
 20
22.9171822375
 30
0.0
 10
3079.9844494458
 20
23.0359965999
 30
0.0
 10
3080.0803645643
 20
23.1134614705
 30
0.0
 10
3080.1913277574
 20
23.1134614705
 30
0.0
 10
3080.3145911157
 20
23.1134614705
 30
0.0
 10
3080.4078891777
 20
23.0422775353
 30
0.0
 10
3080.4078891777
 20
22.9119481246
 30
0.0
 10
3080.4078891777
 20
22.7769080124
 30
0.0
 10
3080.279784265
 20
22.7004899643
 30
0.0
 10
3080.1862244973
 20
22.6266889728
 30
0.0
 10
3080.1862244973
 20
22.6266889728
 30
0.0
 10
3080.1567826124
 20
22.6073227551
 30
0.0
 10
3080.1567826124
 20
22.6073227551
 30
0.0
  0
SPLINE
  5
246
330
228
100
AcDbEntity
  8
0
  6
Continuous
 62
     7
100
AcDbSpline
 70
     3
 71
     3
 72
    50
 73
    46
 74
     0
 42
0.000000001
 43
0.0000001
 40
0.0
 40
0.0
 40
0.0
 40
0.0
 40
1.0
 40
1.0
 40
1.0
 40
2.0
 40
2.0
 40
2.0
 40
3.0
 40
3.0
 40
3.0
 40
4.0
 40
4.0
 40
4.0
 40
5.0
 40
5.0
 40
5.0
 40
6.0
 40
6.0
 40
6.0
 40
7.0
 40
7.0
 40
7.0
 40
8.0
 40
8.0
 40
8.0
 40
9.0
 40
9.0
 40
9.0
 40
10.0
 40
10.0
 40
10.0
 40
11.0
 40
11.0
 40
11.0
 40
12.0
 40
12.0
 40
12.0
 40
13.0
 40
13.0
 40
13.0
 40
14.0
 40
14.0
 40
14.0
 40
15.0
 40
15.0
 40
15.0
 40
15.0
 10
3080.8589388551
 20
21.4003363253
 30
0.0
 10
3080.8589388551
 20
21.4003363253
 30
0.0
 10
3081.1443288598
 20
21.4003363253
 30
0.0
 10
3081.1443288598
 20
21.4003363253
 30
0.0
 10
3081.1443288598
 20
21.4003363253
 30
0.0
 10
3080.811962692
 20
21.8112141863
 30
0.0
 10
3080.811962692
 20
21.8112141863
 30
0.0
 10
3080.811962692
 20
21.8112141863
 30
0.0
 10
3081.0384689268
 20
22.0771071205
 30
0.0
 10
3081.0384689268
 20
22.0771071205
 30
0.0
 10
3081.0384689268
 20
22.0771071205
 30
0.0
 10
3080.8902126795
 20
22.2299432166
 30
0.0
 10
3080.8902126795
 20
22.2299432166
 30
0.0
 10
3080.8902126795
 20
22.2299432166
 30
0.0
 10
3080.6743055233
 20
21.9787057984
 30
0.0
 10
3080.6743055233
 20
21.9787057984
 30
0.0
 10
3080.6743055233
 20
21.9787057984
 30
0.0
 10
3080.2872428759
 20
22.4466354897
 30
0.0
 10
3080.2872428759
 20
22.4466354897
 30
0.0
 10
3080.4426960284
 20
22.5607391505
 30
0.0
 10
3080.6249740094
 20
22.7004899643
 30
0.0
 10
3080.6249740094
 20
22.9098544795
 30
0.0
 10
3080.6249740094
 20
23.1537641396
 30
0.0
 10
3080.4229372523
 20
23.2971788325
 30
0.0
 10
3080.1964310174
 20
23.2971788325
 30
0.0
 10
3079.9522596516
 20
23.2971788325
 30
0.0
 10
3079.7678880255
 20
23.1464363816
 30
0.0
 10
3079.7678880255
 20
22.8899648506
 30
0.0
 10
3079.7678880255
 20
22.7324180529
 30
0.0
 10
3079.8665510533
 20
22.5947608842
 30
0.0
 10
3079.9718875749
 20
22.4837976912
 30
0.0
 10
3079.9718875749
 20
22.4837976912
 30
0.0
 10
3079.8563445331
 20
22.4000518851
 30
0.0
 10
3079.8563445331
 20
22.4000518851
 30
0.0
 10
3079.6786464009
 20
22.2718161196
 30
0.0
 10
3079.5313061234
 20
22.1441037653
 30
0.0
 10
3079.5313061234
 20
21.9069984519
 30
0.0
 10
3079.5313061234
 20
21.5866707438
 30
0.0
 10
3079.7898712996
 20
21.3605570674
 30
0.0
 10
3080.1002541933
 20
21.3605570674
 30
0.0
 10
3080.3191709644
 20
21.3605570674
 30
0.0
 10
3080.5163661671
 20
21.4856523652
 30
0.0
 10
3080.6566403923
 20
21.6515737435
 30
0.0
 10
3080.6566403923
 20
21.6515737435
 30
0.0
 10
3080.8589388551
 20
21.4003363253
 30
0.0
 10
3080.8589388551
 20
21.4003363253
 30
0.0
  0
LWPOLYLINE
  5
247
330
228
100
AcDbEntity
  8
0
  6
Continuous
 62
     7
100
AcDbPolyline
 90
        2
 70
     0
 43
0.2
 10
3082.7943829448
 20
23.2568761634
 10
3082.5630351555
 20
23.2568761634
  0
LWPOLYLINE
  5
248
330
228
100
AcDbEntity
  8
0
  6
Continuous
 62
     7
100
AcDbPolyline
 90
        2
 70
     0
 43
0.2
 10
3082.5630351555
 20
23.2568761634
 10
3082.5630351555
 20
21.399812914
  0
LWPOLYLINE
  5
249
330
228
100
AcDbEntity
  8
0
  6
Continuous
 62
     7
100
AcDbPolyline
 90
        2
 70
     0
 43
0.2
 10
3082.5630351555
 20
21.399812914
 10
3083.3583586075
 20
21.399812914
  0
LWPOLYLINE
  5
24A
330
228
100
AcDbEntity
  8
0
  6
Continuous
 62
     7
100
AcDbPolyline
 90
        2
 70
     0
 43
0.2
 10
3083.3583586075
 20
21.399812914
 10
3083.3583586075
 20
21.6117944856
  0
LWPOLYLINE
  5
24B
330
228
100
AcDbEntity
  8
0
  6
Continuous
 62
     7
100
AcDbPolyline
 90
        2
 70
     0
 43
0.2
 10
3083.3583586075
 20
21.6117944856
 10
3082.7943829448
 20
21.6117944856
  0
LWPOLYLINE
  5
24C
330
228
100
AcDbEntity
  8
0
  6
Continuous
 62
     7
100
AcDbPolyline
 90
        2
 70
     0
 43
0.2
 10
3082.7943829448
 20
21.6117944856
 10
3082.7943829448
 20
23.2568761634
  0
LWPOLYLINE
  5
24D
330
228
100
AcDbEntity
  8
0
  6
Continuous
 62
     7
100
AcDbPolyline
 90
        2
 70
     0
 43
0.2
 10
3085.0374620189
 20
22.5523645699
 10
3084.8163207498
 20
22.5523645699
  0
LWPOLYLINE
  5
24E
330
228
100
AcDbEntity
  8
0
  6
Continuous
 62
     7
100
AcDbPolyline
 90
        2
 70
     0
 43
0.2
 10
3084.8163207498
 20
22.5523645699
 10
3084.8163207498
 20
21.4003363253
  0
LWPOLYLINE
  5
24F
330
228
100
AcDbEntity
  8
0
  6
Continuous
 62
     7
100
AcDbPolyline
 90
        2
 70
     0
 43
0.2
 10
3084.8163207498
 20
21.4003363253
 10
3085.0374620189
 20
21.4003363253
  0
LWPOLYLINE
  5
250
330
228
100
AcDbEntity
  8
0
  6
Continuous
 62
     7
100
AcDbPolyline
 90
        2
 70
     0
 43
0.2
 10
3085.0374620189
 20
21.4003363253
 10
3085.0374620189
 20
22.5523645699
  0
LWPOLYLINE
  5
251
330
228
100
AcDbEntity
  8
0
  6
Continuous
 62
     7
100
AcDbPolyline
 90
        2
 70
     1
 43
0.2
 10
3084.7744387417
 20
23.0823184989
 42
1.0
 10
3085.0796057327
 20
23.0823184989
 42
1.0
  0
SPLINE
  5
252
330
228
100
AcDbEntity
  8
0
  6
Continuous
 62
     7
100
AcDbSpline
 70
     3
 71
     3
 72
    17
 73
    13
 74
     0
 42
0.000000001
 43
0.0000001
 40
0.0
 40
0.0
 40
0.0
 40
0.0
 40
1.0
 40
1.0
 40
1.0
 40
2.0
 40
2.0
 40
2.0
 40
3.0
 40
3.0
 40
3.0
 40
4.0
 40
4.0
 40
4.0
 40
4.0
 10
3087.1677459606
 20
21.5578831229
 30
0.0
 10
3086.9337811149
 20
21.5578831229
 30
0.0
 10
3086.8034517042
 20
21.75991988
 30
0.0
 10
3086.8034517042
 20
21.9760887419
 30
0.0
 10
3086.8034517042
 20
22.19068737
 30
0.0
 10
3086.9392769334
 20
22.3895836594
 30
0.0
 10
3087.1677459606
 20
22.3895836594
 30
0.0
 10
3087.4072066248
 20
22.3895836594
 30
0.0
 10
3087.5427701483
 20
22.2006321844
 30
0.0
 10
3087.5427701483
 20
21.9760887419
 30
0.0
 10
3087.5427701483
 20
21.7499750656
 30
0.0
 10
3087.4095619756
 20
21.5578831229
 30
0.0
 10
3087.1677459606
 20
21.5578831229
 30
0.0
  0
SPLINE
  5
253
330
228
100
AcDbEntity
  8
0
  6
Continuous
 62
     7
100
AcDbSpline
 70
     3
 71
     3
 72
    50
 73
    46
 74
     0
 42
0.000000001
 43
0.0000001
 40
0.0
 40
0.0
 40
0.0
 40
0.0
 40
1.0
 40
1.0
 40
1.0
 40
2.0
 40
2.0
 40
2.0
 40
3.0
 40
3.0
 40
3.0
 40
4.0
 40
4.0
 40
4.0
 40
5.0
 40
5.0
 40
5.0
 40
6.0
 40
6.0
 40
6.0
 40
7.0
 40
7.0
 40
7.0
 40
8.0
 40
8.0
 40
8.0
 40
9.0
 40
9.0
 40
9.0
 40
10.0
 40
10.0
 40
10.0
 40
11.0
 40
11.0
 40
11.0
 40
12.0
 40
12.0
 40
12.0
 40
13.0
 40
13.0
 40
13.0
 40
14.0
 40
14.0
 40
14.0
 40
15.0
 40
15.0
 40
15.0
 40
15.0
 10
3087.7518729578
 20
22.5528879812
 30
0.0
 10
3087.7518729578
 20
22.5528879812
 30
0.0
 10
3087.5302082774
 20
22.5528879812
 30
0.0
 10
3087.5302082774
 20
22.5528879812
 30
0.0
 10
3087.5302082774
 20
22.5528879812
 30
0.0
 10
3087.5302082774
 20
22.3555619256
 30
0.0
 10
3087.5302082774
 20
22.3555619256
 30
0.0
 10
3087.5302082774
 20
22.3555619256
 30
0.0
 10
3087.5254975758
 20
22.3555619256
 30
0.0
 10
3087.5254975758
 20
22.3555619256
 30
0.0
 10
3087.4341623061
 20
22.4984532072
 30
0.0
 10
3087.2962434317
 20
22.5869097149
 30
0.0
 10
3087.1235177067
 20
22.5869097149
 30
0.0
 10
3086.791151539
 20
22.5869097149
 30
0.0
 10
3086.5820487294
 20
22.2990335066
 30
0.0
 10
3086.5820487294
 20
21.9834165
 30
0.0
 10
3086.5820487294
 20
21.6536673886
 30
0.0
 10
3086.7791130793
 20
21.3605570674
 30
0.0
 10
3087.1339859325
 20
21.3605570674
 30
0.0
 10
3087.2962434317
 20
21.3605570674
 30
0.0
 10
3087.4362559513
 20
21.4490135751
 30
0.0
 10
3087.5254975758
 20
21.579866397
 30
0.0
 10
3087.5254975758
 20
21.579866397
 30
0.0
 10
3087.5302082774
 20
21.579866397
 30
0.0
 10
3087.5302082774
 20
21.579866397
 30
0.0
 10
3087.5302082774
 20
21.579866397
 30
0.0
 10
3087.5302082774
 20
21.3605570674
 30
0.0
 10
3087.5302082774
 20
21.3605570674
 30
0.0
 10
3087.5302082774
 20
21.1239751653
 30
0.0
 10
3087.4736798583
 20
20.9371173355
 30
0.0
 10
3087.2004591661
 20
20.9371173355
 30
0.0
 10
3086.9981607033
 20
20.9371173355
 30
0.0
 10
3086.8555311274
 20
21.0554082866
 30
0.0
 10
3086.8555311274
 20
21.261632334
 30
0.0
 10
3086.8555311274
 20
21.261632334
 30
0.0
 10
3086.6338664469
 20
21.261632334
 30
0.0
 10
3086.6338664469
 20
21.261632334
 30
0.0
 10
3086.6388388542
 20
20.9371173355
 30
0.0
 10
3086.8699249378
 20
20.7403146913
 30
0.0
 10
3087.190252646
 20
20.7403146913
 30
0.0
 10
3087.6382927084
 20
20.7403146913
 30
0.0
 10
3087.7518729578
 20
21.0255738432
 30
0.0
 10
3087.7518729578
 20
21.4223195994
 30
0.0
 10
3087.7518729578
 20
21.4223195994
 30
0.0
 10
3087.7518729578
 20
22.5528879812
 30
0.0
 10
3087.7518729578
 20
22.5528879812
 30
0.0
  0
SPLINE
  5
254
330
228
100
AcDbEntity
  8
0
  6
Continuous
 62
     7
100
AcDbSpline
 70
     3
 71
     3
 72
    44
 73
    40
 74
     0
 42
0.000000001
 43
0.0000001
 40
0.0
 40
0.0
 40
0.0
 40
0.0
 40
1.0
 40
1.0
 40
1.0
 40
2.0
 40
2.0
 40
2.0
 40
3.0
 40
3.0
 40
3.0
 40
4.0
 40
4.0
 40
4.0
 40
5.0
 40
5.0
 40
5.0
 40
6.0
 40
6.0
 40
6.0
 40
7.0
 40
7.0
 40
7.0
 40
8.0
 40
8.0
 40
8.0
 40
9.0
 40
9.0
 40
9.0
 40
10.0
 40
10.0
 40
10.0
 40
11.0
 40
11.0
 40
11.0
 40
12.0
 40
12.0
 40
12.0
 40
13.0
 40
13.0
 40
13.0
 40
13.0
 10
3089.3207982932
 20
23.5379480249
 30
0.0
 10
3089.3207982932
 20
23.5379480249
 30
0.0
 10
3089.3207982932
 20
21.399812914
 30
0.0
 10
3089.3207982932
 20
21.399812914
 30
0.0
 10
3089.3207982932
 20
21.399812914
 30
0.0
 10
3089.542201268
 20
21.399812914
 30
0.0
 10
3089.542201268
 20
21.399812914
 30
0.0
 10
3089.542201268
 20
21.399812914
 30
0.0
 10
3089.542201268
 20
21.9295051373
 30
0.0
 10
3089.542201268
 20
21.9295051373
 30
0.0
 10
3089.542201268
 20
22.1393930638
 30
0.0
 10
3089.542201268
 20
22.3901070706
 30
0.0
 10
3089.8274604199
 20
22.3901070706
 30
0.0
 10
3090.0543592132
 20
22.3901070706
 30
0.0
 10
3090.0813148945
 20
22.2571606035
 30
0.0
 10
3090.0813148945
 20
22.0608813706
 30
0.0
 10
3090.0813148945
 20
22.0608813706
 30
0.0
 10
3090.0813148945
 20
21.399812914
 30
0.0
 10
3090.0813148945
 20
21.399812914
 30
0.0
 10
3090.0813148945
 20
21.399812914
 30
0.0
 10
3090.3032412806
 20
21.399812914
 30
0.0
 10
3090.3032412806
 20
21.399812914
 30
0.0
 10
3090.3032412806
 20
21.399812914
 30
0.0
 10
3090.3032412806
 20
22.087051935
 30
0.0
 10
3090.3032412806
 20
22.087051935
 30
0.0
 10
3090.3032412806
 20
22.3676003853
 30
0.0
 10
3090.2192337689
 20
22.5874331262
 30
0.0
 10
3089.8941953591
 20
22.5874331262
 30
0.0
 10
3089.7544445452
 20
22.5874331262
 30
0.0
 10
3089.6162639652
 20
22.5209598926
 30
0.0
 10
3089.5469119696
 20
22.39795824
 30
0.0
 10
3089.5469119696
 20
22.39795824
 30
0.0
 10
3089.542201268
 20
22.39795824
 30
0.0
 10
3089.542201268
 20
22.39795824
 30
0.0
 10
3089.542201268
 20
22.39795824
 30
0.0
 10
3089.542201268
 20
23.5379480249
 30
0.0
 10
3089.542201268
 20
23.5379480249
 30
0.0
 10
3089.542201268
 20
23.5379480249
 30
0.0
 10
3089.3207982932
 20
23.5379480249
 30
0.0
 10
3089.3207982932
 20
23.5379480249
 30
0.0
  0
LWPOLYLINE
  5
255
330
228
100
AcDbEntity
  8
0
  6
Continuous
 62
     7
100
AcDbPolyline
 90
        2
 70
     0
 43
0.2
 10
3092.1430319574
 20
22.3456171112
 10
3092.359462525
 20
22.3456171112
  0
LWPOLYLINE
  5
256
330
228
100
AcDbEntity
  8
0
  6
Continuous
 62
     7
100
AcDbPolyline
 90
        2
 70
     0
 43
0.2
 10
3092.359462525
 20
22.3456171112
 10
3092.359462525
 20
22.5523645699
  0
LWPOLYLINE
  5
257
330
228
100
AcDbEntity
  8
0
  6
Continuous
 62
     7
100
AcDbPolyline
 90
        2
 70
     0
 43
0.2
 10
3092.359462525
 20
22.5523645699
 10
3092.1430319574
 20
22.5523645699
  0
LWPOLYLINE
  5
258
330
228
100
AcDbEntity
  8
0
  6
Continuous
 62
     7
100
AcDbPolyline
 90
        2
 70
     0
 43
0.2
 10
3092.1430319574
 20
22.5523645699
 10
3092.1430319574
 20
22.9930768743
  0
LWPOLYLINE
  5
259
330
228
100
AcDbEntity
  8
0
  6
Continuous
 62
     7
100
AcDbPolyline
 90
        2
 70
     0
 43
0.2
 10
3092.1430319574
 20
22.9930768743
 10
3091.921367277
 20
22.9930768743
  0
LWPOLYLINE
  5
25A
330
228
100
AcDbEntity
  8
0
  6
Continuous
 62
     7
100
AcDbPolyline
 90
        2
 70
     0
 43
0.2
 10
3091.921367277
 20
22.9930768743
 10
3091.921367277
 20
22.5523645699
  0
LWPOLYLINE
  5
25B
330
228
100
AcDbEntity
  8
0
  6
Continuous
 62
     7
100
AcDbPolyline
 90
        2
 70
     0
 43
0.2
 10
3091.921367277
 20
22.5523645699
 10
3091.8007209752
 20
22.5523645699
  0
LWPOLYLINE
  5
25C
330
228
100
AcDbEntity
  8
0
  6
Continuous
 62
     7
100
AcDbPolyline
 90
        2
 70
     0
 43
0.2
 10
3091.8007209752
 20
22.5523645699
 10
3091.8007209752
 20
22.3456171112
  0
LWPOLYLINE
  5
25D
330
228
100
AcDbEntity
  8
0
  6
Continuous
 62
     7
100
AcDbPolyline
 90
        2
 70
     0
 43
0.2
 10
3091.8007209752
 20
22.3456171112
 10
3091.921367277
 20
22.3456171112
  0
LWPOLYLINE
  5
25E
330
228
100
AcDbEntity
  8
0
  6
Continuous
 62
     7
100
AcDbPolyline
 90
        2
 70
     0
 43
0.2
 10
3091.921367277
 20
22.3456171112
 10
3091.921367277
 20
21.399812914
  0
LWPOLYLINE
  5
25F
330
228
100
AcDbEntity
  8
0
  6
Continuous
 62
     7
100
AcDbPolyline
 90
        2
 70
     0
 43
0.2
 10
3091.921367277
 20
21.399812914
 10
3092.1430319574
 20
21.399812914
  0
LWPOLYLINE
  5
260
330
228
100
AcDbEntity
  8
0
  6
Continuous
 62
     7
100
AcDbPolyline
 90
        2
 70
     0
 43
0.2
 10
3092.1430319574
 20
21.399812914
 10
3092.1430319574
 20
22.3456171112
  0
SPLINE
  5
261
330
228
100
AcDbEntity
  8
0
  6
Continuous
 62
     7
100
AcDbSpline
 70
     3
 71
     3
 72
    20
 73
    16
 74
     0
 42
0.000000001
 43
0.0000001
 40
0.0
 40
0.0
 40
0.0
 40
0.0
 40
1.0
 40
1.0
 40
1.0
 40
2.0
 40
2.0
 40
2.0
 40
3.0
 40
3.0
 40
3.0
 40
4.0
 40
4.0
 40
4.0
 40
5.0
 40
5.0
 40
5.0
 40
5.0
 10
3079.9250422647
 20
31.7607393574
 30
0.0
 10
3079.9250422647
 20
31.7607393574
 30
0.0
 10
3082.2413989191
 20
28.9311779352
 30
0.0
 10
3082.2413989191
 20
28.9311779352
 30
0.0
 10
3081.5897518657
 20
28.2790074705
 30
0.0
 10
3080.8128786617
 20
27.5430911997
 30
0.0
 10
3079.8416890171
 20
27.5430911997
 30
0.0
 10
3078.8431511326
 20
27.5430911997
 30
0.0
 10
3077.8998331391
 20
28.472669647
 30
0.0
 10
3077.8998331391
 20
29.4718617955
 30
0.0
 10
3077.8998331391
 20
30.4710539441
 30
0.0
 10
3079.0786862122
 20
31.1776591827
 30
0.0
 10
3079.8002086725
 20
31.6775169626
 30
0.0
 10
3079.8002086725
 20
31.6775169626
 30
0.0
 10
3079.9250422647
 20
31.7607393574
 30
0.0
 10
3079.9250422647
 20
31.7607393574
 30
0.0
  0
SPLINE
  5
262
330
228
100
AcDbEntity
  8
0
  6
Continuous
 62
     7
100
AcDbSpline
 70
     3
 71
     3
 72
    23
 73
    19
 74
     0
 42
0.000000001
 43
0.0000001
 40
0.0
 40
0.0
 40
0.0
 40
0.0
 40
1.0
 40
1.0
 40
1.0
 40
2.0
 40
2.0
 40
2.0
 40
3.0
 40
3.0
 40
3.0
 40
4.0
 40
4.0
 40
4.0
 40
5.0
 40
5.0
 40
5.0
 40
6.0
 40
6.0
 40
6.0
 40
6.0
 10
3080.2024502472
 20
33.3984932771
 30
0.0
 10
3080.2024502472
 20
33.3984932771
 30
0.0
 10
3079.8559519747
 20
33.841822638
 30
0.0
 10
3079.8559519747
 20
33.841822638
 30
0.0
 10
3079.5501489297
 20
34.2299321079
 30
0.0
 10
3079.2312606026
 20
34.6184341363
 30
0.0
 10
3079.2312606026
 20
35.1453784504
 30
0.0
 10
3079.2312606026
 20
35.811550167
 30
0.0
 10
3079.7725987271
 20
36.2552720863
 30
0.0
 10
3080.3965049822
 20
36.2552720863
 30
0.0
 10
3081.0902866443
 20
36.2552720863
 30
0.0
 10
3081.617492664
 20
35.8530305116
 30
0.0
 10
3081.617492664
 20
35.1180302106
 30
0.0
 10
3081.617492664
 20
34.3547657001
 30
0.0
 10
3080.8962319093
 20
33.9246524743
 30
0.0
 10
3080.3691567424
 20
33.5089330589
 30
0.0
 10
3080.3691567424
 20
33.5089330589
 30
0.0
 10
3080.2024502472
 20
33.3984932771
 30
0.0
 10
3080.2024502472
 20
33.3984932771
 30
0.0
  0
SPLINE
  5
263
330
228
100
AcDbEntity
  8
0
  6
Continuous
 62
     7
100
AcDbSpline
 70
     3
 71
     3
 72
    50
 73
    46
 74
     0
 42
0.000000001
 43
0.0000001
 40
0.0
 40
0.0
 40
0.0
 40
0.0
 40
1.0
 40
1.0
 40
1.0
 40
2.0
 40
2.0
 40
2.0
 40
3.0
 40
3.0
 40
3.0
 40
4.0
 40
4.0
 40
4.0
 40
5.0
 40
5.0
 40
5.0
 40
6.0
 40
6.0
 40
6.0
 40
7.0
 40
7.0
 40
7.0
 40
8.0
 40
8.0
 40
8.0
 40
9.0
 40
9.0
 40
9.0
 40
10.0
 40
10.0
 40
10.0
 40
11.0
 40
11.0
 40
11.0
 40
12.0
 40
12.0
 40
12.0
 40
13.0
 40
13.0
 40
13.0
 40
14.0
 40
14.0
 40
14.0
 40
15.0
 40
15.0
 40
15.0
 40
15.0
 10
3084.1560374102
 20
26.599904059
 30
0.0
 10
3084.1560374102
 20
26.599904059
 30
0.0
 10
3085.7652654147
 20
26.599904059
 30
0.0
 10
3085.7652654147
 20
26.599904059
 30
0.0
 10
3085.7652654147
 20
26.599904059
 30
0.0
 10
3083.8922381211
 20
28.9170458304
 30
0.0
 10
3083.8922381211
 20
28.9170458304
 30
0.0
 10
3083.8922381211
 20
28.9170458304
 30
0.0
 10
3085.1685765466
 20
30.414525525
 30
0.0
 10
3085.1685765466
 20
30.414525525
 30
0.0
 10
3085.1685765466
 20
30.414525525
 30
0.0
 10
3084.3363525988
 20
31.2755370935
 30
0.0
 10
3084.3363525988
 20
31.2755370935
 30
0.0
 10
3084.3363525988
 20
31.2755370935
 30
0.0
 10
3083.1157574755
 20
29.8602329711
 30
0.0
 10
3083.1157574755
 20
29.8602329711
 30
0.0
 10
3083.1157574755
 20
29.8602329711
 30
0.0
 10
3080.9378431067
 20
32.4956088056
 30
0.0
 10
3080.9378431067
 20
32.4956088056
 30
0.0
 10
3081.8114165462
 20
33.1336471655
 30
0.0
 10
3082.8380877873
 20
33.9246524743
 30
0.0
 10
3082.8380877873
 20
35.1035055474
 30
0.0
 10
3082.8380877873
 20
36.4771984724
 30
0.0
 10
3081.7001916475
 20
37.2816816218
 30
0.0
 10
3080.4249000446
 20
37.2816816218
 30
0.0
 10
3079.0514688252
 20
37.2816816218
 30
0.0
 10
3078.0105346265
 20
36.4354564222
 30
0.0
 10
3078.0105346265
 20
34.99280406
 30
0.0
 10
3078.0105346265
 20
34.1052293686
 30
0.0
 10
3078.5658740029
 20
33.3283561646
 30
0.0
 10
3079.1620394598
 20
32.7039264981
 30
0.0
 10
3079.1620394598
 20
32.7039264981
 30
0.0
 10
3078.5101307007
 20
32.2323329278
 30
0.0
 10
3078.5101307007
 20
32.2323329278
 30
0.0
 10
3077.5115928163
 20
31.5110721731
 30
0.0
 10
3076.6787146045
 20
30.7898114184
 30
0.0
 10
3076.6787146045
 20
29.458253102
 30
0.0
 10
3076.6787146045
 20
27.654577804
 30
0.0
 10
3078.1357607771
 20
26.3779776729
 30
0.0
 10
3079.8833002145
 20
26.3779776729
 30
0.0
 10
3081.1181582954
 20
26.3779776729
 30
0.0
 10
3082.22752852
 20
27.0861531454
 30
0.0
 10
3083.018402976
 20
28.0146847701
 30
0.0
 10
3083.018402976
 20
28.0146847701
 30
0.0
 10
3084.1560374102
 20
26.599904059
 30
0.0
 10
3084.1560374102
 20
26.599904059
 30
0.0
  0
LINE
  5
264
330
228
100
AcDbEntity
  8
0
  6
Continuous
 62
     7
100
AcDbLine
 10
3069.9588987852
 20
24.5737789636
 30
0.0
 11
3092.3728095128
 21
24.5737789636
 31
0.0
  0
LINE
  5
265
330
228
100
AcDbEntity
  8
0
  6
Continuous
 62
     7
100
AcDbLine
 10
3092.3728095128
 20
24.5737789636
 30
0.0
 11
3092.3728095128
 21
46.9876896913
 31
0.0
  0
LINE
  5
266
330
228
100
AcDbEntity
  8
0
  6
Continuous
 62
     7
100
AcDbLine
 10
3092.3728095128
 20
46.9876896913
 30
0.0
 11
3069.9588987852
 21
46.9876896913
 31
0.0
  0
LINE
  5
267
330
228
100
AcDbEntity
  8
0
  6
Continuous
 62
     7
100
AcDbLine
 10
3069.9588987852
 20
46.9876896913
 30
0.0
 11
3069.9588987852
 21
24.5737789636
 31
0.0
  0
ENDBLK
  5
268
330
228
100
AcDbEntity
  8
0
  6
ByBlock
 62
     0
100
AcDbBlockEnd
  0
BLOCK
  5
269
330
229
100
AcDbEntity
  8
0
100
AcDbBlockBegin
  2
PROIEZIONE_EU_BL0
 70
     0
 10
3082.3397416778
 20
59.4890021913
 30
0.0
  3
PROIEZIONE_EU_BL0
  1

  0
LWPOLYLINE
  5
26A
330
229
100
AcDbEntity
  8
DEFAULT_1
  6
CENTER
 62
     7
100
AcDbPolyline
 90
        2
 70
     0
 43
0.25
 10
3088.4663623395
 20
64.4886963232
 10
3088.4664033218
 20
54.4893080594
  0
LWPOLYLINE
  5
26B
330
229
100
AcDbEntity
  8
DEFAULT_1
  6
CENTER
 62
     7
100
AcDbPolyline
 90
        2
 70
     0
 43
0.25
 10
3094.4663921645
 20
59.4892733264
 10
3070.2130911911
 20
59.489002666
  0
LWPOLYLINE
  5
26C
330
229
100
AcDbEntity
  8
0
  6
Continuous
 62
     7
100
AcDbPolyline
 90
        2
 70
     1
 43
0.25
 10
3084.9192521637
 20
59.4704544371
 42
1.0
 10
3092.0255812623
 20
59.4704544371
 42
1.0
  0
LWPOLYLINE
  5
26D
330
229
100
AcDbEntity
  8
0
  6
Continuous
 62
     7
100
AcDbPolyline
 90
        2
 70
     1
 43
0.25
 10
3086.468995992
 20
59.4883524817
 42
1.0
 10
3090.4807477421
 20
59.4883524817
 42
1.0
  0
LWPOLYLINE
  5
26E
330
229
100
AcDbEntity
  8
0
  6
Continuous
 62
     7
100
AcDbPolyline
 90
        2
 70
     0
 43
0.25
 10
3082.4663899585
 20
63.0642056865
 10
3082.4663896039
 20
55.9640027782
  0
LWPOLYLINE
  5
26F
330
229
100
AcDbEntity
  8
0
  6
Continuous
 62
     7
100
AcDbPolyline
 90
        2
 70
     0
 43
0.25
 10
3082.4664180403
 20
55.9639743418
 10
3072.4718607692
 20
57.4840677547
  0
LWPOLYLINE
  5
270
330
229
100
AcDbEntity
  8
0
  6
Continuous
 62
     7
100
AcDbPolyline
 90
        2
 70
     0
 43
0.25
 10
3072.4695507835
 20
57.4833902131
 10
3072.4668838795
 20
61.4890288246
  0
LWPOLYLINE
  5
271
330
229
100
AcDbEntity
  8
0
  6
Continuous
 62
     7
100
AcDbPolyline
 90
        2
 70
     0
 43
0.25
 10
3072.4668756034
 20
61.4890205485
 10
3082.4666188407
 20
63.0641777686
  0
ENDBLK
  5
272
330
229
100
AcDbEntity
  8
0
  6
ByBlock
 62
     0
100
AcDbBlockEnd
  0
ENDSEC
  0
SECTION
  2
ENTITIES
  0
LINE
  5
294
330
1B
100
AcDbEntity
 67
     1
  8
0
  6
Continuous
 62
     7
100
AcDbLine
 10
0.0
 20
0.0
 30
0.0
 11
3200.0
 21
0.0
 31
0.0
  0
LINE
  5
295
330
1B
100
AcDbEntity
 67
     1
  8
0
  6
Continuous
 62
     7
100
AcDbLine
 10
3200.0
 20
0.0
 30
0.0
 11
3200.0
 21
2500.0
 31
0.0
  0
LINE
  5
296
330
1B
100
AcDbEntity
 67
     1
  8
0
  6
Continuous
 62
     7
100
AcDbLine
 10
0.0
 20
2500.0
 30
0.0
 11
3200.0
 21
2500.0
 31
0.0
  0
LINE
  5
297
330
1B
100
AcDbEntity
 67
     1
  8
0
  6
Continuous
 62
     7
100
AcDbLine
 10
0.0
 20
0.0
 30
0.0
 11
0.0
 21
2500.0
 31
0.0
  0
VIEWPORT
  5
298
330
1B
100
AcDbEntity
 67
     1
  8
0
100
AcDbViewport
 10
0.0
 20
0.0
 30
0.0
 40
4167.315175097277
 41
2946.887159533074
 68
     1
 69
     1
 12
1969.844357976654
 22
1250.0
 13
0.0
 23
0.0
 14
1.0
 24
1.0
 15
0.0
 25
0.0
 16
0.0
 26
0.0
 36
1.0
 17
0.0
 27
0.0
 37
0.0
 42
50.0
 43
0.0
 44
0.0
 45
2946.887159533074
 50
0.0
 51
0.0
 72
   100
 90
   557216
  1

281
     0
 71
     1
 74
     0
110
0.0
120
0.0
130
0.0
111
1.0
121
0.0
131
0.0
112
0.0
122
1.0
132
0.0
 79
     0
146
0.0
170
     0
 61
     5
348
468
292
     1
282
     1
141
0.0
142
0.0
 63
   256
  0
LINE
  5
299
330
1B
100
AcDbEntity
 67
     1
  8
3_ALL_AXES
  6
Continuous
 62
     7
100
AcDbLine
 10
2824.324418867
 20
180.3428745373
 30
0.0
 11
2824.1736985373
 21
180.3428745373
 31
0.0
  0
LINE
  5
29A
330
1B
100
AcDbEntity
 67
     1
  8
3_ALL_AXES
  6
Continuous
 62
     7
100
AcDbLine
 10
2824.324418867
 20
185.8428745373
 30
0.0
 11
2824.1736985373
 21
185.8428745373
 31
0.0
  0
LINE
  5
29B
330
1B
100
AcDbEntity
 67
     1
  8
3_ALL_AXES
  6
Continuous
 62
     7
100
AcDbLine
 10
2824.324418867
 20
180.3428745373
 30
0.0
 11
2824.324418867
 21
185.8428745373
 31
0.0
  0
LINE
  5
29C
330
1B
100
AcDbEntity
 67
     1
  8
3_ALL_AXES
  6
Continuous
 62
     7
100
AcDbLine
 10
2824.1736985373
 20
180.3428745373
 30
0.0
 11
2823.824418867
 21
180.6359549799
 31
0.0
  0
LINE
  5
29D
330
1B
100
AcDbEntity
 67
     1
  8
3_ALL_AXES
  6
Continuous
 62
     7
100
AcDbLine
 10
2824.1736985373
 20
185.8428745373
 30
0.0
 11
2823.824418867
 21
185.5497940947
 31
0.0
  0
LINE
  5
29E
330
1B
100
AcDbEntity
 67
     1
  8
3_ALL_AXES
  6
Continuous
 62
     7
100
AcDbLine
 10
2824.1736985373
 20
180.3428745373
 30
0.0
 11
2824.324418867
 21
180.3428745373
 31
0.0
  0
LINE
  5
29F
330
1B
100
AcDbEntity
 67
     1
  8
3_ALL_AXES
  6
Continuous
 62
     7
100
AcDbLine
 10
2823.824418867
 20
180.6359549799
 30
0.0
 11
2824.1736985373
 21
180.3428745373
 31
0.0
  0
LINE
  5
2A0
330
1B
100
AcDbEntity
 67
     1
  8
3_ALL_AXES
  6
Continuous
 62
     7
100
AcDbLine
 10
2824.1736985373
 20
185.8428745373
 30
0.0
 11
2824.324418867
 21
185.8428745373
 31
0.0
  0
LINE
  5
2A1
330
1B
100
AcDbEntity
 67
     1
  8
3_ALL_AXES
  6
Continuous
 62
     7
100
AcDbLine
 10
2823.824418867
 20
185.5497940947
 30
0.0
 11
2824.1736985373
 21
185.8428745373
 31
0.0
  0
LINE
  5
2A2
330
1B
100
AcDbEntity
 67
     1
  8
3_ALL_AXES
  6
Continuous
 62
     7
100
AcDbLine
 10
2824.1736985373
 20
180.3428745373
 30
0.0
 11
2824.1736985373
 21
185.8428745373
 31
0.0
  0
LINE
  5
2A3
330
1B
100
AcDbEntity
 67
     1
  8
3_ALL_AXES
  6
Continuous
 62
     7
100
AcDbLine
 10
2824.324418867
 20
143.9428745373
 30
0.0
 11
2824.1736985373
 21
143.9428745373
 31
0.0
  0
LINE
  5
2A4
330
1B
100
AcDbEntity
 67
     1
  8
3_ALL_AXES
  6
Continuous
 62
     7
100
AcDbLine
 10
2824.324418867
 20
149.4428745373
 30
0.0
 11
2824.1736985373
 21
149.4428745373
 31
0.0
  0
LINE
  5
2A5
330
1B
100
AcDbEntity
 67
     1
  8
3_ALL_AXES
  6
Continuous
 62
     7
100
AcDbLine
 10
2824.324418867
 20
143.9428745373
 30
0.0
 11
2824.324418867
 21
149.4428745373
 31
0.0
  0
LINE
  5
2A6
330
1B
100
AcDbEntity
 67
     1
  8
3_ALL_AXES
  6
Continuous
 62
     7
100
AcDbLine
 10
2824.1736985373
 20
143.9428745373
 30
0.0
 11
2823.824418867
 21
144.2359549799
 31
0.0
  0
LINE
  5
2A7
330
1B
100
AcDbEntity
 67
     1
  8
3_ALL_AXES
  6
Continuous
 62
     7
100
AcDbLine
 10
2824.1736985373
 20
149.4428745373
 30
0.0
 11
2823.824418867
 21
149.1497940947
 31
0.0
  0
LINE
  5
2A8
330
1B
100
AcDbEntity
 67
     1
  8
3_ALL_AXES
  6
Continuous
 62
     7
100
AcDbLine
 10
2824.1736985373
 20
143.9428745373
 30
0.0
 11
2824.324418867
 21
143.9428745373
 31
0.0
  0
LINE
  5
2A9
330
1B
100
AcDbEntity
 67
     1
  8
3_ALL_AXES
  6
Continuous
 62
     7
100
AcDbLine
 10
2823.824418867
 20
144.2359549799
 30
0.0
 11
2824.1736985373
 21
143.9428745373
 31
0.0
  0
LINE
  5
2AA
330
1B
100
AcDbEntity
 67
     1
  8
3_ALL_AXES
  6
Continuous
 62
     7
100
AcDbLine
 10
2824.1736985373
 20
149.4428745373
 30
0.0
 11
2824.324418867
 21
149.4428745373
 31
0.0
  0
LINE
  5
2AB
330
1B
100
AcDbEntity
 67
     1
  8
3_ALL_AXES
  6
Continuous
 62
     7
100
AcDbLine
 10
2823.824418867
 20
149.1497940947
 30
0.0
 11
2824.1736985373
 21
149.4428745373
 31
0.0
  0
LINE
  5
2AC
330
1B
100
AcDbEntity
 67
     1
  8
3_ALL_AXES
  6
Continuous
 62
     7
100
AcDbLine
 10
2824.1736985373
 20
143.9428745373
 30
0.0
 11
2824.1736985373
 21
149.4428745373
 31
0.0
  0
LINE
  5
2AD
330
1B
100
AcDbEntity
 67
     1
  8
3_ALL_AXES
  6
Continuous
 62
     7
100
AcDbLine
 10
808.824418867
 20
185.8428745373
 30
0.0
 11
808.9751391966
 21
185.8428745373
 31
0.0
  0
LINE
  5
2AE
330
1B
100
AcDbEntity
 67
     1
  8
3_ALL_AXES
  6
Continuous
 62
     7
100
AcDbLine
 10
808.824418867
 20
180.3428745373
 30
0.0
 11
808.9751391966
 21
180.3428745373
 31
0.0
  0
LINE
  5
2AF
330
1B
100
AcDbEntity
 67
     1
  8
3_ALL_AXES
  6
Continuous
 62
     7
100
AcDbLine
 10
808.824418867
 20
185.8428745373
 30
0.0
 11
808.824418867
 21
180.3428745373
 31
0.0
  0
LINE
  5
2B0
330
1B
100
AcDbEntity
 67
     1
  8
3_ALL_AXES
  6
Continuous
 62
     7
100
AcDbLine
 10
808.9751391966
 20
185.8428745373
 30
0.0
 11
809.324418867
 21
185.5497940947
 31
0.0
  0
LINE
  5
2B1
330
1B
100
AcDbEntity
 67
     1
  8
3_ALL_AXES
  6
Continuous
 62
     7
100
AcDbLine
 10
808.9751391966
 20
180.3428745373
 30
0.0
 11
809.324418867
 21
180.6359549799
 31
0.0
  0
LINE
  5
2B2
330
1B
100
AcDbEntity
 67
     1
  8
3_ALL_AXES
  6
Continuous
 62
     7
100
AcDbLine
 10
808.9751391966
 20
185.8428745373
 30
0.0
 11
808.824418867
 21
185.8428745373
 31
0.0
  0
LINE
  5
2B3
330
1B
100
AcDbEntity
 67
     1
  8
3_ALL_AXES
  6
Continuous
 62
     7
100
AcDbLine
 10
809.324418867
 20
185.5497940947
 30
0.0
 11
808.9751391966
 21
185.8428745373
 31
0.0
  0
LINE
  5
2B4
330
1B
100
AcDbEntity
 67
     1
  8
3_ALL_AXES
  6
Continuous
 62
     7
100
AcDbLine
 10
808.9751391966
 20
180.3428745373
 30
0.0
 11
808.824418867
 21
180.3428745373
 31
0.0
  0
LINE
  5
2B5
330
1B
100
AcDbEntity
 67
     1
  8
3_ALL_AXES
  6
Continuous
 62
     7
100
AcDbLine
 10
809.324418867
 20
180.6359549799
 30
0.0
 11
808.9751391966
 21
180.3428745373
 31
0.0
  0
LINE
  5
2B6
330
1B
100
AcDbEntity
 67
     1
  8
3_ALL_AXES
  6
Continuous
 62
     7
100
AcDbLine
 10
808.9751391966
 20
185.8428745373
 30
0.0
 11
808.9751391966
 21
180.3428745373
 31
0.0
  0
LINE
  5
2B7
330
1B
100
AcDbEntity
 67
     1
  8
3_ALL_AXES
  6
Continuous
 62
     7
100
AcDbLine
 10
808.824418867
 20
149.4428745373
 30
0.0
 11
808.9751391966
 21
149.4428745373
 31
0.0
  0
LINE
  5
2B8
330
1B
100
AcDbEntity
 67
     1
  8
3_ALL_AXES
  6
Continuous
 62
     7
100
AcDbLine
 10
808.824418867
 20
143.9428745373
 30
0.0
 11
808.9751391966
 21
143.9428745373
 31
0.0
  0
LINE
  5
2B9
330
1B
100
AcDbEntity
 67
     1
  8
3_ALL_AXES
  6
Continuous
 62
     7
100
AcDbLine
 10
808.824418867
 20
149.4428745373
 30
0.0
 11
808.824418867
 21
143.9428745373
 31
0.0
  0
LINE
  5
2BA
330
1B
100
AcDbEntity
 67
     1
  8
3_ALL_AXES
  6
Continuous
 62
     7
100
AcDbLine
 10
808.9751391966
 20
149.4428745373
 30
0.0
 11
809.324418867
 21
149.1497940947
 31
0.0
  0
LINE
  5
2BB
330
1B
100
AcDbEntity
 67
     1
  8
3_ALL_AXES
  6
Continuous
 62
     7
100
AcDbLine
 10
808.9751391966
 20
143.9428745373
 30
0.0
 11
809.324418867
 21
144.2359549799
 31
0.0
  0
LINE
  5
2BC
330
1B
100
AcDbEntity
 67
     1
  8
3_ALL_AXES
  6
Continuous
 62
     7
100
AcDbLine
 10
808.9751391966
 20
149.4428745373
 30
0.0
 11
808.824418867
 21
149.4428745373
 31
0.0
  0
LINE
  5
2BD
330
1B
100
AcDbEntity
 67
     1
  8
3_ALL_AXES
  6
Continuous
 62
     7
100
AcDbLine
 10
809.324418867
 20
149.1497940947
 30
0.0
 11
808.9751391966
 21
149.4428745373
 31
0.0
  0
LINE
  5
2BE
330
1B
100
AcDbEntity
 67
     1
  8
3_ALL_AXES
  6
Continuous
 62
     7
100
AcDbLine
 10
808.9751391966
 20
143.9428745373
 30
0.0
 11
808.824418867
 21
143.9428745373
 31
0.0
  0
LINE
  5
2BF
330
1B
100
AcDbEntity
 67
     1
  8
3_ALL_AXES
  6
Continuous
 62
     7
100
AcDbLine
 10
809.324418867
 20
144.2359549799
 30
0.0
 11
808.9751391966
 21
143.9428745373
 31
0.0
  0
LINE
  5
2C0
330
1B
100
AcDbEntity
 67
     1
  8
3_ALL_AXES
  6
Continuous
 62
     7
100
AcDbLine
 10
808.9751391966
 20
149.4428745373
 30
0.0
 11
808.9751391966
 21
143.9428745373
 31
0.0
  0
LINE
  5
2C1
330
1B
100
AcDbEntity
 67
     1
  8
7_ALL_FEATURES
  6
Continuous
 62
     7
100
AcDbLine
 10
2823.824418867
 20
144.8928745373
 30
0.0
 11
2823.824418867
 21
143.8928745373
 31
0.0
  0
LINE
  5
2C2
330
1B
100
AcDbEntity
 67
     1
  8
7_ALL_FEATURES
  6
Continuous
 62
     7
100
AcDbLine
 10
2823.824418867
 20
144.8928745373
 30
0.0
 11
2823.824418867
 21
184.8928745373
 31
0.0
  0
LINE
  5
2C3
330
1B
100
AcDbEntity
 67
     1
  8
7_ALL_FEATURES
  6
Continuous
 62
     7
100
AcDbLine
 10
2823.824418867
 20
185.8928745373
 30
0.0
 11
2823.824418867
 21
184.8928745373
 31
0.0
  0
LINE
  5
2C4
330
1B
100
AcDbEntity
 67
     1
  8
7_ALL_FEATURES
  6
Continuous
 62
     7
100
AcDbLine
 10
2823.824418867
 20
143.8928745373
 30
0.0
 11
2822.324418867
 21
143.8928745373
 31
0.0
  0
LINE
  5
2C5
330
1B
100
AcDbEntity
 67
     1
  8
7_ALL_FEATURES
  6
Continuous
 62
     7
100
AcDbLine
 10
2823.824418867
 20
185.8928745373
 30
0.0
 11
2822.324418867
 21
185.8928745373
 31
0.0
  0
LINE
  5
2C6
330
1B
100
AcDbEntity
 67
     1
  8
7_ALL_FEATURES
  6
Continuous
 62
     7
100
AcDbLine
 10
2823.824418867
 20
143.8928745373
 30
0.0
 11
2822.324418867
 21
143.8928745373
 31
0.0
  0
LINE
  5
2C7
330
1B
100
AcDbEntity
 67
     1
  8
7_ALL_FEATURES
  6
Continuous
 62
     9
100
AcDbLine
 10
2823.824418867
 20
184.8928745373
 30
0.0
 11
2822.324418867
 21
184.8928745373
 31
0.0
  0
LINE
  5
2C8
330
1B
100
AcDbEntity
 67
     1
  8
7_ALL_FEATURES
  6
Continuous
 62
     9
100
AcDbLine
 10
2823.824418867
 20
144.8928745373
 30
0.0
 11
2822.324418867
 21
144.8928745373
 31
0.0
  0
LINE
  5
2C9
330
1B
100
AcDbEntity
 67
     1
  8
7_ALL_FEATURES
  6
Continuous
 62
     7
100
AcDbLine
 10
809.324418867
 20
184.8928745373
 30
0.0
 11
809.324418867
 21
185.8928745373
 31
0.0
  0
LINE
  5
2CA
330
1B
100
AcDbEntity
 67
     1
  8
7_ALL_FEATURES
  6
Continuous
 62
     7
100
AcDbLine
 10
809.324418867
 20
184.8928745373
 30
0.0
 11
809.324418867
 21
144.8928745373
 31
0.0
  0
LINE
  5
2CB
330
1B
100
AcDbEntity
 67
     1
  8
7_ALL_FEATURES
  6
Continuous
 62
     7
100
AcDbLine
 10
809.324418867
 20
143.8928745373
 30
0.0
 11
809.324418867
 21
144.8928745373
 31
0.0
  0
LINE
  5
2CC
330
1B
100
AcDbEntity
 67
     1
  8
7_ALL_FEATURES
  6
Continuous
 62
     7
100
AcDbLine
 10
809.324418867
 20
185.8928745373
 30
0.0
 11
810.824418867
 21
185.8928745373
 31
0.0
  0
LINE
  5
2CD
330
1B
100
AcDbEntity
 67
     1
  8
7_ALL_FEATURES
  6
Continuous
 62
     7
100
AcDbLine
 10
809.324418867
 20
143.8928745373
 30
0.0
 11
810.824418867
 21
143.8928745373
 31
0.0
  0
LINE
  5
2CE
330
1B
100
AcDbEntity
 67
     1
  8
7_ALL_FEATURES
  6
Continuous
 62
     7
100
AcDbLine
 10
809.324418867
 20
185.8928745373
 30
0.0
 11
810.824418867
 21
185.8928745373
 31
0.0
  0
LINE
  5
2CF
330
1B
100
AcDbEntity
 67
     1
  8
7_ALL_FEATURES
  6
Continuous
 62
     9
100
AcDbLine
 10
809.324418867
 20
144.8928745373
 30
0.0
 11
810.824418867
 21
144.8928745373
 31
0.0
  0
LINE
  5
2D0
330
1B
100
AcDbEntity
 67
     1
  8
7_ALL_FEATURES
  6
Continuous
 62
     9
100
AcDbLine
 10
809.324418867
 20
184.8928745373
 30
0.0
 11
810.824418867
 21
184.8928745373
 31
0.0
  0
LINE
  5
2D1
330
1B
100
AcDbEntity
 67
     1
  8
7_ALL_FEATURES
  6
Continuous
 62
     7
100
AcDbLine
 10
2822.324418867
 20
184.1928745373
 30
0.0
 11
2822.324418867
 21
183.8928745373
 31
0.0
  0
LINE
  5
2D2
330
1B
100
AcDbEntity
 67
     1
  8
7_ALL_FEATURES
  6
Continuous
 62
     7
100
AcDbLine
 10
2822.324418867
 20
184.1928745373
 30
0.0
 11
2822.324418867
 21
184.8928745373
 31
0.0
  0
LINE
  5
2D3
330
1B
100
AcDbEntity
 67
     1
  8
7_ALL_FEATURES
  6
Continuous
 62
     7
100
AcDbLine
 10
2822.324418867
 20
184.8928745373
 30
0.0
 11
2822.324418867
 21
185.0797815984
 31
0.0
  0
LINE
  5
2D4
330
1B
100
AcDbEntity
 67
     1
  8
7_ALL_FEATURES
  6
Continuous
 62
     7
100
AcDbLine
 10
2822.324418867
 20
185.2826930395
 30
0.0
 11
2822.324418867
 21
185.0797815984
 31
0.0
  0
LINE
  5
2D5
330
1B
100
AcDbEntity
 67
     1
  8
7_ALL_FEATURES
  6
Continuous
 62
     7
100
AcDbLine
 10
2822.324418867
 20
185.8928745373
 30
0.0
 11
2822.324418867
 21
186.0287109976
 31
0.0
  0
LINE
  5
2D6
330
1B
100
AcDbEntity
 67
     1
  8
7_ALL_FEATURES
  6
Continuous
 62
     7
100
AcDbLine
 10
2822.324418867
 20
186.0928745373
 30
0.0
 11
2822.324418867
 21
186.0287109976
 31
0.0
  0
LINE
  5
2D7
330
1B
100
AcDbEntity
 67
     1
  8
7_ALL_FEATURES
  6
Continuous
 62
     7
100
AcDbLine
 10
810.824418867
 20
145.8928745373
 30
0.0
 11
2822.324418867
 21
145.8928745373
 31
0.0
  0
LINE
  5
2D8
330
1B
100
AcDbEntity
 67
     1
  8
7_ALL_FEATURES
  6
Continuous
 62
     7
100
AcDbLine
 10
810.824418867
 20
183.8928745373
 30
0.0
 11
2822.324418867
 21
183.8928745373
 31
0.0
  0
LINE
  5
2D9
330
1B
100
AcDbEntity
 67
     1
  8
7_ALL_FEATURES
  6
Continuous
 62
     7
100
AcDbLine
 10
2822.324418867
 20
143.757038077
 30
0.0
 11
2822.324418867
 21
143.6928745373
 31
0.0
  0
LINE
  5
2DA
330
1B
100
AcDbEntity
 67
     1
  8
7_ALL_FEATURES
  6
Continuous
 62
     7
100
AcDbLine
 10
2822.324418867
 20
143.757038077
 30
0.0
 11
2822.324418867
 21
143.8928745373
 31
0.0
  0
LINE
  5
2DB
330
1B
100
AcDbEntity
 67
     1
  8
7_ALL_FEATURES
  6
Continuous
 62
     7
100
AcDbLine
 10
2822.324418867
 20
144.7059674762
 30
0.0
 11
2822.324418867
 21
144.5030560351
 31
0.0
  0
LINE
  5
2DC
330
1B
100
AcDbEntity
 67
     1
  8
7_ALL_FEATURES
  6
Continuous
 62
     7
100
AcDbLine
 10
2822.324418867
 20
144.5030560351
 30
0.0
 11
2822.324418867
 21
144.4085340178
 31
0.0
  0
LINE
  5
2DD
330
1B
100
AcDbEntity
 67
     1
  8
7_ALL_FEATURES
  6
Continuous
 62
     7
100
AcDbLine
 10
2822.324418867
 20
144.7059674762
 30
0.0
 11
2822.324418867
 21
144.8928745373
 31
0.0
  0
LINE
  5
2DE
330
1B
100
AcDbEntity
 67
     1
  8
7_ALL_FEATURES
  6
Continuous
 62
     7
100
AcDbLine
 10
2822.324418867
 20
144.8928745373
 30
0.0
 11
2822.324418867
 21
145.5928745373
 31
0.0
  0
ARC
  5
2DF
330
1B
100
AcDbEntity
 67
     1
  8
02___PRT_ALL_AXES
  6
Continuous
 62
     7
100
AcDbCircle
 10
820.824418867
 20
164.8928745373
 30
0.0
 40
5.0
100
AcDbArc
 50
270.0
 51
90.0
  0
ARC
  5
2E0
330
1B
100
AcDbEntity
 67
     1
  8
02___PRT_ALL_AXES
  6
Continuous
 62
     7
100
AcDbCircle
 10
820.824418867
 20
164.8928745373
 30
0.0
 40
5.0
100
AcDbArc
 50
90.0
 51
270.0
  0
LINE
  5
2E1
330
1B
100
AcDbEntity
 67
     1
  8
7_ALL_FEATURES
  6
Continuous
 62
     7
100
AcDbLine
 10
810.824418867
 20
145.5928745373
 30
0.0
 11
810.824418867
 21
145.8928745373
 31
0.0
  0
LINE
  5
2E2
330
1B
100
AcDbEntity
 67
     1
  8
7_ALL_FEATURES
  6
Continuous
 62
     7
100
AcDbLine
 10
810.824418867
 20
144.7059674762
 30
0.0
 11
810.824418867
 21
144.8928745373
 31
0.0
  0
LINE
  5
2E3
330
1B
100
AcDbEntity
 67
     1
  8
7_ALL_FEATURES
  6
Continuous
 62
     7
100
AcDbLine
 10
810.824418867
 20
144.8928745373
 30
0.0
 11
810.824418867
 21
145.5928745373
 31
0.0
  0
LINE
  5
2E4
330
1B
100
AcDbEntity
 67
     1
  8
7_ALL_FEATURES
  6
Continuous
 62
     7
100
AcDbLine
 10
810.824418867
 20
144.5030560351
 30
0.0
 11
810.824418867
 21
144.7059674762
 31
0.0
  0
LINE
  5
2E5
330
1B
100
AcDbEntity
 67
     1
  8
7_ALL_FEATURES
  6
Continuous
 62
     7
100
AcDbLine
 10
810.824418867
 20
143.757038077
 30
0.0
 11
810.824418867
 21
143.8928745373
 31
0.0
  0
LINE
  5
2E6
330
1B
100
AcDbEntity
 67
     1
  8
7_ALL_FEATURES
  6
Continuous
 62
     7
100
AcDbLine
 10
810.824418867
 20
143.6928745373
 30
0.0
 11
810.824418867
 21
143.757038077
 31
0.0
  0
LINE
  5
2E7
330
1B
100
AcDbEntity
 67
     1
  8
7_ALL_FEATURES
  6
Continuous
 62
     7
100
AcDbLine
 10
810.824418867
 20
186.0287109976
 30
0.0
 11
810.824418867
 21
186.0928745373
 31
0.0
  0
LINE
  5
2E8
330
1B
100
AcDbEntity
 67
     1
  8
7_ALL_FEATURES
  6
Continuous
 62
     7
100
AcDbLine
 10
810.824418867
 20
185.8928745373
 30
0.0
 11
810.824418867
 21
186.0287109976
 31
0.0
  0
LINE
  5
2E9
330
1B
100
AcDbEntity
 67
     1
  8
7_ALL_FEATURES
  6
Continuous
 62
     7
100
AcDbLine
 10
810.824418867
 20
185.0797815984
 30
0.0
 11
810.824418867
 21
185.2826930395
 31
0.0
  0
LINE
  5
2EA
330
1B
100
AcDbEntity
 67
     1
  8
7_ALL_FEATURES
  6
Continuous
 62
     7
100
AcDbLine
 10
810.824418867
 20
185.2826930395
 30
0.0
 11
810.824418867
 21
185.3772150568
 31
0.0
  0
LINE
  5
2EB
330
1B
100
AcDbEntity
 67
     1
  8
7_ALL_FEATURES
  6
Continuous
 62
     7
100
AcDbLine
 10
810.824418867
 20
184.1928745373
 30
0.0
 11
810.824418867
 21
184.8928745373
 31
0.0
  0
LINE
  5
2EC
330
1B
100
AcDbEntity
 67
     1
  8
7_ALL_FEATURES
  6
Continuous
 62
     7
100
AcDbLine
 10
810.824418867
 20
184.8928745373
 30
0.0
 11
810.824418867
 21
185.0797815984
 31
0.0
  0
LINE
  5
2ED
330
1B
100
AcDbEntity
 67
     1
  8
7_ALL_FEATURES
  6
Continuous
 62
     7
100
AcDbLine
 10
810.824418867
 20
145.8928745373
 30
0.0
 11
2822.324418867
 21
145.8928745373
 31
0.0
  0
LINE
  5
2EE
330
1B
100
AcDbEntity
 67
     1
  8
7_ALL_FEATURES
  6
Continuous
 62
     7
100
AcDbLine
 10
810.824418867
 20
143.6928745373
 30
0.0
 11
2822.324418867
 21
143.6928745373
 31
0.0
  0
LINE
  5
2EF
330
1B
100
AcDbEntity
 67
     1
  8
7_ALL_FEATURES
  6
Continuous
 62
     7
100
AcDbLine
 10
810.824418867
 20
186.0928745373
 30
0.0
 11
2822.324418867
 21
186.0928745373
 31
0.0
  0
LINE
  5
2F0
330
1B
100
AcDbEntity
 67
     1
  8
7_ALL_FEATURES
  6
Continuous
 62
     7
100
AcDbLine
 10
810.824418867
 20
183.8928745373
 30
0.0
 11
2822.324418867
 21
183.8928745373
 31
0.0
  0
LINE
  5
2F1
330
1B
100
AcDbEntity
 67
     1
  8
7_ALL_FEATURES
  6
Continuous
 62
     9
100
AcDbLine
 10
2822.324418867
 20
183.2768491335
 30
0.0
 11
810.824418867
 21
183.2768491335
 31
0.0
  0
LINE
  5
2F2
330
1B
100
AcDbEntity
 67
     1
  8
7_ALL_FEATURES
  6
Continuous
 62
     9
100
AcDbLine
 10
810.824418867
 20
144.7059674762
 30
0.0
 11
2822.324418867
 21
144.7059674762
 31
0.0
  0
LINE
  5
2F3
330
1B
100
AcDbEntity
 67
     1
  8
7_ALL_FEATURES
  6
Continuous
 62
     9
100
AcDbLine
 10
810.824418867
 20
145.5928745373
 30
0.0
 11
2822.324418867
 21
145.5928745373
 31
0.0
  0
LINE
  5
2F4
330
1B
100
AcDbEntity
 67
     1
  8
7_ALL_FEATURES
  6
Continuous
 62
     9
100
AcDbLine
 10
810.824418867
 20
143.757038077
 30
0.0
 11
2822.324418867
 21
143.757038077
 31
0.0
  0
LINE
  5
2F5
330
1B
100
AcDbEntity
 67
     1
  8
7_ALL_FEATURES
  6
Continuous
 62
     9
100
AcDbLine
 10
810.824418867
 20
144.4085340178
 30
0.0
 11
2822.324418867
 21
144.4085340178
 31
0.0
  0
LINE
  5
2F6
330
1B
100
AcDbEntity
 67
     1
  8
7_ALL_FEATURES
  6
Continuous
 62
     9
100
AcDbLine
 10
810.824418867
 20
182.123259295
 30
0.0
 11
2822.324418867
 21
182.123259295
 31
0.0
  0
LINE
  5
2F7
330
1B
100
AcDbEntity
 67
     1
  8
7_ALL_FEATURES
  6
Continuous
 62
     9
100
AcDbLine
 10
825.383770784
 20
162.8686462893
 30
0.0
 11
816.2650669499
 21
162.8686462893
 31
0.0
  0
LINE
  5
2F8
330
1B
100
AcDbEntity
 67
     1
  8
7_ALL_FEATURES
  6
Continuous
 62
     9
100
AcDbLine
 10
825.5794961951
 20
163.3747033513
 30
0.0
 11
816.0693415389
 21
163.3747033513
 31
0.0
  0
LINE
  5
2F9
330
1B
100
AcDbEntity
 67
     1
  8
7_ALL_FEATURES
  6
Continuous
 62
     9
100
AcDbLine
 10
825.5794961951
 20
166.4110457233
 30
0.0
 11
816.0693415389
 21
166.4110457233
 31
0.0
  0
LINE
  5
2FA
330
1B
100
AcDbEntity
 67
     1
  8
7_ALL_FEATURES
  6
Continuous
 62
     9
100
AcDbLine
 10
825.383770784
 20
166.9171027853
 30
0.0
 11
816.2650669499
 21
166.9171027853
 31
0.0
  0
LINE
  5
2FB
330
1B
100
AcDbEntity
 67
     1
  8
7_ALL_FEATURES
  6
Continuous
 62
     9
100
AcDbLine
 10
2822.324418867
 20
183.5268491335
 30
0.0
 11
810.824418867
 21
183.5268491335
 31
0.0
  0
LINE
  5
2FC
330
1B
100
AcDbEntity
 67
     1
  8
7_ALL_FEATURES
  6
Continuous
 62
     9
100
AcDbLine
 10
810.824418867
 20
147.9124897796
 30
0.0
 11
2822.324418867
 21
147.9124897796
 31
0.0
  0
LINE
  5
2FD
330
1B
100
AcDbEntity
 67
     1
  8
7_ALL_FEATURES
  6
Continuous
 62
     9
100
AcDbLine
 10
810.824418867
 20
181.873259295
 30
0.0
 11
2822.324418867
 21
181.873259295
 31
0.0
  0
LINE
  5
2FE
330
1B
100
AcDbEntity
 67
     1
  8
7_ALL_FEATURES
  6
Continuous
 62
     9
100
AcDbLine
 10
2822.324418867
 20
146.5088999411
 30
0.0
 11
810.824418867
 21
146.5088999411
 31
0.0
  0
LINE
  5
2FF
330
1B
100
AcDbEntity
 67
     1
  8
7_ALL_FEATURES
  6
Continuous
 62
     9
100
AcDbLine
 10
810.824418867
 20
147.6624897796
 30
0.0
 11
2822.324418867
 21
147.6624897796
 31
0.0
  0
LINE
  5
300
330
1B
100
AcDbEntity
 67
     1
  8
7_ALL_FEATURES
  6
Continuous
 62
     9
100
AcDbLine
 10
2822.324418867
 20
146.2588999411
 30
0.0
 11
810.824418867
 21
146.2588999411
 31
0.0
  0
LINE
  5
301
330
1B
100
AcDbEntity
 67
     1
  8
7_ALL_FEATURES
  6
Continuous
 62
     9
100
AcDbLine
 10
810.824418867
 20
184.1928745373
 30
0.0
 11
2822.324418867
 21
184.1928745373
 31
0.0
  0
LINE
  5
302
330
1B
100
AcDbEntity
 67
     1
  8
7_ALL_FEATURES
  6
Continuous
 62
     9
100
AcDbLine
 10
810.824418867
 20
185.0797815984
 30
0.0
 11
2822.324418867
 21
185.0797815984
 31
0.0
  0
LINE
  5
303
330
1B
100
AcDbEntity
 67
     1
  8
7_ALL_FEATURES
  6
Continuous
 62
     9
100
AcDbLine
 10
810.824418867
 20
185.3772150568
 30
0.0
 11
2822.324418867
 21
185.3772150568
 31
0.0
  0
LINE
  5
304
330
1B
100
AcDbEntity
 67
     1
  8
7_ALL_FEATURES
  6
Continuous
 62
     9
100
AcDbLine
 10
810.824418867
 20
186.0287109976
 30
0.0
 11
2822.324418867
 21
186.0287109976
 31
0.0
  0
LINE
  5
305
330
1B
100
AcDbEntity
 67
     1
  8
7_ALL_FEATURES
  6
Continuous
 62
     3
100
AcDbLine
 10
2822.324418867
 20
185.2826930395
 30
0.0
 11
2822.324418867
 21
185.5665701809
 31
0.0
  0
LINE
  5
306
330
1B
100
AcDbEntity
 67
     1
  8
7_ALL_FEATURES
  6
Continuous
 62
     3
100
AcDbLine
 10
2822.324418867
 20
185.5665701809
 30
0.0
 11
2822.324418867
 21
185.8928745373
 31
0.0
  0
LINE
  5
307
330
1B
100
AcDbEntity
 67
     1
  8
7_ALL_FEATURES
  6
Continuous
 62
     3
100
AcDbLine
 10
2822.324418867
 20
144.8928745373
 30
0.0
 11
2822.324418867
 21
145.5928745373
 31
0.0
  0
LINE
  5
308
330
1B
100
AcDbEntity
 67
     1
  8
7_ALL_FEATURES
  6
Continuous
 62
     3
100
AcDbLine
 10
2822.324418867
 20
145.5928745373
 30
0.0
 11
2822.324418867
 21
145.8928745373
 31
0.0
  0
LINE
  5
309
330
1B
100
AcDbEntity
 67
     1
  8
7_ALL_FEATURES
  6
Continuous
 62
     3
100
AcDbLine
 10
2822.324418867
 20
145.8928745373
 30
0.0
 11
2822.324418867
 21
183.8928745373
 31
0.0
  0
LINE
  5
30A
330
1B
100
AcDbEntity
 67
     1
  8
7_ALL_FEATURES
  6
Continuous
 62
     3
100
AcDbLine
 10
2822.324418867
 20
183.8928745373
 30
0.0
 11
2822.324418867
 21
184.1928745373
 31
0.0
  0
LINE
  5
30B
330
1B
100
AcDbEntity
 67
     1
  8
7_ALL_FEATURES
  6
Continuous
 62
     3
100
AcDbLine
 10
2822.324418867
 20
184.1928745373
 30
0.0
 11
2822.324418867
 21
184.8928745373
 31
0.0
  0
LINE
  5
30C
330
1B
100
AcDbEntity
 67
     1
  8
7_ALL_FEATURES
  6
Continuous
 62
     3
100
AcDbLine
 10
2822.324418867
 20
143.8928745373
 30
0.0
 11
2822.324418867
 21
144.2191788936
 31
0.0
  0
LINE
  5
30D
330
1B
100
AcDbEntity
 67
     1
  8
7_ALL_FEATURES
  6
Continuous
 62
     3
100
AcDbLine
 10
2822.324418867
 20
144.2191788936
 30
0.0
 11
2822.324418867
 21
144.5030560351
 31
0.0
  0
LINE
  5
30E
330
1B
100
AcDbEntity
 67
     1
  8
7_ALL_FEATURES
  6
Continuous
 62
     3
100
AcDbLine
 10
2822.324418867
 20
144.8006061778
 30
0.0
 11
2822.324418867
 21
144.8928745373
 31
0.0
  0
LINE
  5
30F
330
1B
100
AcDbEntity
 67
     1
  8
7_ALL_FEATURES
  6
Continuous
 62
     3
100
AcDbLine
 10
810.824418867
 20
144.5030560351
 30
0.0
 11
810.824418867
 21
144.2191788936
 31
0.0
  0
LINE
  5
310
330
1B
100
AcDbEntity
 67
     1
  8
7_ALL_FEATURES
  6
Continuous
 62
     3
100
AcDbLine
 10
810.824418867
 20
144.2191788936
 30
0.0
 11
810.824418867
 21
143.8928745373
 31
0.0
  0
LINE
  5
311
330
1B
100
AcDbEntity
 67
     1
  8
7_ALL_FEATURES
  6
Continuous
 62
     3
100
AcDbLine
 10
810.824418867
 20
184.8928745373
 30
0.0
 11
810.824418867
 21
184.1928745373
 31
0.0
  0
LINE
  5
312
330
1B
100
AcDbEntity
 67
     1
  8
7_ALL_FEATURES
  6
Continuous
 62
     3
100
AcDbLine
 10
810.824418867
 20
184.1928745373
 30
0.0
 11
810.824418867
 21
183.8928745373
 31
0.0
  0
LINE
  5
313
330
1B
100
AcDbEntity
 67
     1
  8
7_ALL_FEATURES
  6
Continuous
 62
     3
100
AcDbLine
 10
810.824418867
 20
183.8928745373
 30
0.0
 11
810.824418867
 21
145.8928745373
 31
0.0
  0
LINE
  5
314
330
1B
100
AcDbEntity
 67
     1
  8
7_ALL_FEATURES
  6
Continuous
 62
     3
100
AcDbLine
 10
810.824418867
 20
145.8928745373
 30
0.0
 11
810.824418867
 21
145.5928745373
 31
0.0
  0
LINE
  5
315
330
1B
100
AcDbEntity
 67
     1
  8
7_ALL_FEATURES
  6
Continuous
 62
     3
100
AcDbLine
 10
810.824418867
 20
145.5928745373
 30
0.0
 11
810.824418867
 21
144.8928745373
 31
0.0
  0
LINE
  5
316
330
1B
100
AcDbEntity
 67
     1
  8
7_ALL_FEATURES
  6
Continuous
 62
     3
100
AcDbLine
 10
810.824418867
 20
185.8928745373
 30
0.0
 11
810.824418867
 21
185.5665701809
 31
0.0
  0
LINE
  5
317
330
1B
100
AcDbEntity
 67
     1
  8
7_ALL_FEATURES
  6
Continuous
 62
     3
100
AcDbLine
 10
810.824418867
 20
185.5665701809
 30
0.0
 11
810.824418867
 21
185.2826930395
 31
0.0
  0
LINE
  5
318
330
1B
100
AcDbEntity
 67
     1
  8
7_ALL_FEATURES
  6
Continuous
 62
     3
100
AcDbLine
 10
810.824418867
 20
184.9851428968
 30
0.0
 11
810.824418867
 21
184.8928745373
 31
0.0
  0
LINE
  5
319
330
1B
100
AcDbEntity
 67
     1
  8
3_ALL_AXES
  6
Continuous
 62
     7
100
AcDbLine
 10
2824.324418867
 20
429.5381448076
 30
0.0
 11
2824.324418867
 21
426.7881928737
 31
0.0
  0
LINE
  5
31A
330
1B
100
AcDbEntity
 67
     1
  8
3_ALL_AXES
  6
Continuous
 62
     7
100
AcDbLine
 10
2824.324418867
 20
429.5381448076
 30
0.0
 11
2824.324418867
 21
432.2880967414
 31
0.0
  0
LINE
  5
31B
330
1B
100
AcDbEntity
 67
     1
  8
3_ALL_AXES
  6
Continuous
 62
     7
100
AcDbLine
 10
2824.1736985373
 20
426.7881448076
 30
0.0
 11
2824.324418867
 21
426.7881448076
 31
0.0
  0
LINE
  5
31C
330
1B
100
AcDbEntity
 67
     1
  8
3_ALL_AXES
  6
Continuous
 62
     7
100
AcDbLine
 10
2823.824418867
 20
427.0812252501
 30
0.0
 11
2824.1736985373
 21
426.7881448076
 31
0.0
  0
LINE
  5
31D
330
1B
100
AcDbEntity
 67
     1
  8
3_ALL_AXES
  6
Continuous
 62
     7
100
AcDbLine
 10
2824.1736985373
 20
432.2881448076
 30
0.0
 11
2824.324418867
 21
432.2881448076
 31
0.0
  0
LINE
  5
31E
330
1B
100
AcDbEntity
 67
     1
  8
3_ALL_AXES
  6
Continuous
 62
     7
100
AcDbLine
 10
2823.824418867
 20
431.995064365
 30
0.0
 11
2824.1736985373
 21
432.2881448076
 31
0.0
  0
LINE
  5
31F
330
1B
100
AcDbEntity
 67
     1
  8
3_ALL_AXES
  6
Continuous
 62
     7
100
AcDbLine
 10
2824.1736985373
 20
429.5381448076
 30
0.0
 11
2824.1736985373
 21
426.7881448076
 31
0.0
  0
LINE
  5
320
330
1B
100
AcDbEntity
 67
     1
  8
3_ALL_AXES
  6
Continuous
 62
     7
100
AcDbLine
 10
2824.1736985373
 20
429.5381448076
 30
0.0
 11
2824.1736985373
 21
432.2881448076
 31
0.0
  0
LINE
  5
321
330
1B
100
AcDbEntity
 67
     1
  8
3_ALL_AXES
  6
Continuous
 62
     7
100
AcDbLine
 10
2824.324418867
 20
380.7881448076
 30
0.0
 11
2824.324418867
 21
378.0381928737
 31
0.0
  0
LINE
  5
322
330
1B
100
AcDbEntity
 67
     1
  8
3_ALL_AXES
  6
Continuous
 62
     7
100
AcDbLine
 10
2824.324418867
 20
380.7881448076
 30
0.0
 11
2824.324418867
 21
383.5380967414
 31
0.0
  0
LINE
  5
323
330
1B
100
AcDbEntity
 67
     1
  8
3_ALL_AXES
  6
Continuous
 62
     7
100
AcDbLine
 10
2824.1736985373
 20
378.0381448076
 30
0.0
 11
2824.324418867
 21
378.0381448076
 31
0.0
  0
LINE
  5
324
330
1B
100
AcDbEntity
 67
     1
  8
3_ALL_AXES
  6
Continuous
 62
     7
100
AcDbLine
 10
2823.824418867
 20
378.3312252501
 30
0.0
 11
2824.1736985373
 21
378.0381448076
 31
0.0
  0
LINE
  5
325
330
1B
100
AcDbEntity
 67
     1
  8
3_ALL_AXES
  6
Continuous
 62
     7
100
AcDbLine
 10
2824.1736985373
 20
383.5381448076
 30
0.0
 11
2824.324418867
 21
383.5381448076
 31
0.0
  0
LINE
  5
326
330
1B
100
AcDbEntity
 67
     1
  8
3_ALL_AXES
  6
Continuous
 62
     7
100
AcDbLine
 10
2823.824418867
 20
383.245064365
 30
0.0
 11
2824.1736985373
 21
383.5381448076
 31
0.0
  0
LINE
  5
327
330
1B
100
AcDbEntity
 67
     1
  8
3_ALL_AXES
  6
Continuous
 62
     7
100
AcDbLine
 10
2824.1736985373
 20
380.7881448076
 30
0.0
 11
2824.1736985373
 21
378.0381448076
 31
0.0
  0
LINE
  5
328
330
1B
100
AcDbEntity
 67
     1
  8
3_ALL_AXES
  6
Continuous
 62
     7
100
AcDbLine
 10
2824.1736985373
 20
380.7881448076
 30
0.0
 11
2824.1736985373
 21
383.5381448076
 31
0.0
  0
LINE
  5
329
330
1B
100
AcDbEntity
 67
     1
  8
3_ALL_AXES
  6
Continuous
 62
     7
100
AcDbLine
 10
808.9751391966
 20
426.7881448076
 30
0.0
 11
808.824418867
 21
426.7881448076
 31
0.0
  0
LINE
  5
32A
330
1B
100
AcDbEntity
 67
     1
  8
3_ALL_AXES
  6
Continuous
 62
     7
100
AcDbLine
 10
808.824418867
 20
426.7881928737
 30
0.0
 11
808.824418867
 21
429.5381448076
 31
0.0
  0
LINE
  5
32B
330
1B
100
AcDbEntity
 67
     1
  8
3_ALL_AXES
  6
Continuous
 62
     7
100
AcDbLine
 10
809.324418867
 20
427.0812252501
 30
0.0
 11
808.9751391966
 21
426.7881448076
 31
0.0
  0
LINE
  5
32C
330
1B
100
AcDbEntity
 67
     1
  8
3_ALL_AXES
  6
Continuous
 62
     7
100
AcDbLine
 10
808.9751391966
 20
432.2881448076
 30
0.0
 11
808.824418867
 21
432.2881448076
 31
0.0
  0
LINE
  5
32D
330
1B
100
AcDbEntity
 67
     1
  8
3_ALL_AXES
  6
Continuous
 62
     7
100
AcDbLine
 10
808.824418867
 20
432.2880967414
 30
0.0
 11
808.824418867
 21
429.5381448076
 31
0.0
  0
LINE
  5
32E
330
1B
100
AcDbEntity
 67
     1
  8
3_ALL_AXES
  6
Continuous
 62
     7
100
AcDbLine
 10
809.324418867
 20
431.995064365
 30
0.0
 11
808.9751391966
 21
432.2881448076
 31
0.0
  0
LINE
  5
32F
330
1B
100
AcDbEntity
 67
     1
  8
3_ALL_AXES
  6
Continuous
 62
     7
100
AcDbLine
 10
808.9751391966
 20
432.2881448076
 30
0.0
 11
808.9751391966
 21
429.5381448076
 31
0.0
  0
LINE
  5
330
330
1B
100
AcDbEntity
 67
     1
  8
3_ALL_AXES
  6
Continuous
 62
     7
100
AcDbLine
 10
808.9751391966
 20
426.7881448076
 30
0.0
 11
808.9751391966
 21
429.5381448076
 31
0.0
  0
LINE
  5
331
330
1B
100
AcDbEntity
 67
     1
  8
3_ALL_AXES
  6
Continuous
 62
     7
100
AcDbLine
 10
808.9751391966
 20
378.0381448076
 30
0.0
 11
808.824418867
 21
378.0381448076
 31
0.0
  0
LINE
  5
332
330
1B
100
AcDbEntity
 67
     1
  8
3_ALL_AXES
  6
Continuous
 62
     7
100
AcDbLine
 10
808.824418867
 20
378.0381928737
 30
0.0
 11
808.824418867
 21
380.7881448076
 31
0.0
  0
LINE
  5
333
330
1B
100
AcDbEntity
 67
     1
  8
3_ALL_AXES
  6
Continuous
 62
     7
100
AcDbLine
 10
809.324418867
 20
378.3312252501
 30
0.0
 11
808.9751391966
 21
378.0381448076
 31
0.0
  0
LINE
  5
334
330
1B
100
AcDbEntity
 67
     1
  8
3_ALL_AXES
  6
Continuous
 62
     7
100
AcDbLine
 10
808.9751391966
 20
383.5381448076
 30
0.0
 11
808.824418867
 21
383.5381448076
 31
0.0
  0
LINE
  5
335
330
1B
100
AcDbEntity
 67
     1
  8
3_ALL_AXES
  6
Continuous
 62
     7
100
AcDbLine
 10
808.824418867
 20
383.5380967414
 30
0.0
 11
808.824418867
 21
380.7881448076
 31
0.0
  0
LINE
  5
336
330
1B
100
AcDbEntity
 67
     1
  8
3_ALL_AXES
  6
Continuous
 62
     7
100
AcDbLine
 10
809.324418867
 20
383.245064365
 30
0.0
 11
808.9751391966
 21
383.5381448076
 31
0.0
  0
LINE
  5
337
330
1B
100
AcDbEntity
 67
     1
  8
3_ALL_AXES
  6
Continuous
 62
     7
100
AcDbLine
 10
808.9751391966
 20
383.5381448076
 30
0.0
 11
808.9751391966
 21
380.7881448076
 31
0.0
  0
LINE
  5
338
330
1B
100
AcDbEntity
 67
     1
  8
3_ALL_AXES
  6
Continuous
 62
     7
100
AcDbLine
 10
808.9751391966
 20
378.0381448076
 30
0.0
 11
808.9751391966
 21
380.7881448076
 31
0.0
  0
LINE
  5
339
330
1B
100
AcDbEntity
 67
     1
  8
7_ALL_FEATURES
  6
Continuous
 62
     7
100
AcDbLine
 10
809.324418867
 20
461.2881448076
 30
0.0
 11
810.824418867
 21
461.2881448076
 31
0.0
  0
LINE
  5
33A
330
1B
100
AcDbEntity
 67
     1
  8
7_ALL_FEATURES
  6
Continuous
 62
     7
100
AcDbLine
 10
809.324418867
 20
377.7881448076
 30
0.0
 11
809.324418867
 21
378.7881448076
 31
0.0
  0
LINE
  5
33B
330
1B
100
AcDbEntity
 67
     1
  8
7_ALL_FEATURES
  6
Continuous
 62
     7
100
AcDbLine
 10
809.324418867
 20
389.2881448076
 30
0.0
 11
809.324418867
 21
378.7881448076
 31
0.0
  0
LINE
  5
33C
330
1B
100
AcDbEntity
 67
     1
  8
7_ALL_FEATURES
  6
Continuous
 62
     7
100
AcDbLine
 10
809.324418867
 20
389.2881448076
 30
0.0
 11
809.324418867
 21
390.0881448076
 31
0.0
  0
LINE
  5
33D
330
1B
100
AcDbEntity
 67
     1
  8
7_ALL_FEATURES
  6
Continuous
 62
     7
100
AcDbLine
 10
809.324418867
 20
390.0881448076
 30
0.0
 11
809.324418867
 21
392.4881448076
 31
0.0
  0
LINE
  5
33E
330
1B
100
AcDbEntity
 67
     1
  8
7_ALL_FEATURES
  6
Continuous
 62
     7
100
AcDbLine
 10
809.324418867
 20
392.4881448076
 30
0.0
 11
809.324418867
 21
393.2881448076
 31
0.0
  0
LINE
  5
33F
330
1B
100
AcDbEntity
 67
     1
  8
7_ALL_FEATURES
  6
Continuous
 62
     7
100
AcDbLine
 10
809.324418867
 20
377.7881448076
 30
0.0
 11
810.824418867
 21
377.7881448076
 31
0.0
  0
LINE
  5
340
330
1B
100
AcDbEntity
 67
     1
  8
7_ALL_FEATURES
  6
Continuous
 62
     7
100
AcDbLine
 10
809.324418867
 20
460.2881448076
 30
0.0
 11
809.324418867
 21
393.2881448076
 31
0.0
  0
LINE
  5
341
330
1B
100
AcDbEntity
 67
     1
  8
7_ALL_FEATURES
  6
Continuous
 62
     7
100
AcDbLine
 10
809.324418867
 20
461.2881448076
 30
0.0
 11
810.824418867
 21
461.2881448076
 31
0.0
  0
LINE
  5
342
330
1B
100
AcDbEntity
 67
     1
  8
7_ALL_FEATURES
  6
Continuous
 62
     7
100
AcDbLine
 10
809.324418867
 20
460.2881448076
 30
0.0
 11
809.324418867
 21
461.2881448076
 31
0.0
  0
LINE
  5
343
330
1B
100
AcDbEntity
 67
     1
  8
7_ALL_FEATURES
  6
Continuous
 62
     9
100
AcDbLine
 10
809.324418867
 20
393.2881448076
 30
0.0
 11
810.824418867
 21
393.2881448076
 31
0.0
  0
LINE
  5
344
330
1B
100
AcDbEntity
 67
     1
  8
7_ALL_FEATURES
  6
Continuous
 62
     9
100
AcDbLine
 10
809.324418867
 20
390.0881448076
 30
0.0
 11
810.824418867
 21
390.0881448076
 31
0.0
  0
LINE
  5
345
330
1B
100
AcDbEntity
 67
     1
  8
7_ALL_FEATURES
  6
Continuous
 62
     9
100
AcDbLine
 10
809.324418867
 20
392.4881448076
 30
0.0
 11
810.824418867
 21
392.4881448076
 31
0.0
  0
LINE
  5
346
330
1B
100
AcDbEntity
 67
     1
  8
7_ALL_FEATURES
  6
Continuous
 62
     9
100
AcDbLine
 10
809.324418867
 20
378.7881448076
 30
0.0
 11
810.824418867
 21
378.7881448076
 31
0.0
  0
LINE
  5
347
330
1B
100
AcDbEntity
 67
     1
  8
7_ALL_FEATURES
  6
Continuous
 62
     9
100
AcDbLine
 10
809.324418867
 20
389.2881448076
 30
0.0
 11
810.824418867
 21
389.2881448076
 31
0.0
  0
LINE
  5
348
330
1B
100
AcDbEntity
 67
     1
  8
7_ALL_FEATURES
  6
Continuous
 62
     9
100
AcDbLine
 10
809.324418867
 20
460.2881448076
 30
0.0
 11
810.824418867
 21
460.2881448076
 31
0.0
  0
LINE
  5
349
330
1B
100
AcDbEntity
 67
     1
  8
7_ALL_FEATURES
  6
Continuous
 62
     7
100
AcDbLine
 10
2823.824418867
 20
377.7881448076
 30
0.0
 11
2822.324418867
 21
377.7881448076
 31
0.0
  0
LINE
  5
34A
330
1B
100
AcDbEntity
 67
     1
  8
7_ALL_FEATURES
  6
Continuous
 62
     7
100
AcDbLine
 10
2823.824418867
 20
452.4881448076
 30
0.0
 11
2823.824418867
 21
450.0881448076
 31
0.0
  0
LINE
  5
34B
330
1B
100
AcDbEntity
 67
     1
  8
7_ALL_FEATURES
  6
Continuous
 62
     7
100
AcDbLine
 10
2823.824418867
 20
450.0881448076
 30
0.0
 11
2823.824418867
 21
449.2881448076
 31
0.0
  0
LINE
  5
34C
330
1B
100
AcDbEntity
 67
     1
  8
7_ALL_FEATURES
  6
Continuous
 62
     7
100
AcDbLine
 10
2823.824418867
 20
378.7881448076
 30
0.0
 11
2823.824418867
 21
449.2881448076
 31
0.0
  0
LINE
  5
34D
330
1B
100
AcDbEntity
 67
     1
  8
7_ALL_FEATURES
  6
Continuous
 62
     7
100
AcDbLine
 10
2823.824418867
 20
378.7881448076
 30
0.0
 11
2823.824418867
 21
377.7881448076
 31
0.0
  0
LINE
  5
34E
330
1B
100
AcDbEntity
 67
     1
  8
7_ALL_FEATURES
  6
Continuous
 62
     7
100
AcDbLine
 10
2823.824418867
 20
461.2881448076
 30
0.0
 11
2823.824418867
 21
460.2881448076
 31
0.0
  0
LINE
  5
34F
330
1B
100
AcDbEntity
 67
     1
  8
7_ALL_FEATURES
  6
Continuous
 62
     7
100
AcDbLine
 10
2823.824418867
 20
377.7881448076
 30
0.0
 11
2822.324418867
 21
377.7881448076
 31
0.0
  0
LINE
  5
350
330
1B
100
AcDbEntity
 67
     1
  8
7_ALL_FEATURES
  6
Continuous
 62
     7
100
AcDbLine
 10
2823.824418867
 20
461.2881448076
 30
0.0
 11
2822.324418867
 21
461.2881448076
 31
0.0
  0
LINE
  5
351
330
1B
100
AcDbEntity
 67
     1
  8
7_ALL_FEATURES
  6
Continuous
 62
     7
100
AcDbLine
 10
2823.824418867
 20
453.2881448076
 30
0.0
 11
2823.824418867
 21
460.2881448076
 31
0.0
  0
LINE
  5
352
330
1B
100
AcDbEntity
 67
     1
  8
7_ALL_FEATURES
  6
Continuous
 62
     7
100
AcDbLine
 10
2823.824418867
 20
453.2881448076
 30
0.0
 11
2823.824418867
 21
452.4881448076
 31
0.0
  0
LINE
  5
353
330
1B
100
AcDbEntity
 67
     1
  8
7_ALL_FEATURES
  6
Continuous
 62
     9
100
AcDbLine
 10
2823.824418867
 20
453.2881448076
 30
0.0
 11
2822.324418867
 21
453.2881448076
 31
0.0
  0
LINE
  5
354
330
1B
100
AcDbEntity
 67
     1
  8
7_ALL_FEATURES
  6
Continuous
 62
     9
100
AcDbLine
 10
2823.824418867
 20
450.0881448076
 30
0.0
 11
2822.324418867
 21
450.0881448076
 31
0.0
  0
LINE
  5
355
330
1B
100
AcDbEntity
 67
     1
  8
7_ALL_FEATURES
  6
Continuous
 62
     9
100
AcDbLine
 10
2823.824418867
 20
452.4881448076
 30
0.0
 11
2822.324418867
 21
452.4881448076
 31
0.0
  0
LINE
  5
356
330
1B
100
AcDbEntity
 67
     1
  8
7_ALL_FEATURES
  6
Continuous
 62
     9
100
AcDbLine
 10
2823.824418867
 20
378.7881448076
 30
0.0
 11
2822.324418867
 21
378.7881448076
 31
0.0
  0
LINE
  5
357
330
1B
100
AcDbEntity
 67
     1
  8
7_ALL_FEATURES
  6
Continuous
 62
     9
100
AcDbLine
 10
2823.824418867
 20
449.2881448076
 30
0.0
 11
2822.324418867
 21
449.2881448076
 31
0.0
  0
LINE
  5
358
330
1B
100
AcDbEntity
 67
     1
  8
7_ALL_FEATURES
  6
Continuous
 62
     9
100
AcDbLine
 10
2823.824418867
 20
460.2881448076
 30
0.0
 11
2822.324418867
 21
460.2881448076
 31
0.0
  0
LINE
  5
359
330
1B
100
AcDbEntity
 67
     1
  8
7_ALL_FEATURES
  6
Continuous
 62
     7
100
AcDbLine
 10
2822.324418867
 20
378.7881448076
 30
0.0
 11
2822.324418867
 21
377.7881448076
 31
0.0
  0
LINE
  5
35A
330
1B
100
AcDbEntity
 67
     1
  8
7_ALL_FEATURES
  6
Continuous
 62
     7
100
AcDbLine
 10
2822.324418867
 20
378.7881448076
 30
0.0
 11
2822.324418867
 21
402.4881448076
 31
0.0
  0
LINE
  5
35B
330
1B
100
AcDbEntity
 67
     1
  8
7_ALL_FEATURES
  6
Continuous
 62
     7
100
AcDbLine
 10
2822.324418867
 20
402.7881448076
 30
0.0
 11
2822.324418867
 21
402.7686631068
 31
0.0
  0
LINE
  5
35C
330
1B
100
AcDbEntity
 67
     1
  8
7_ALL_FEATURES
  6
Continuous
 62
     7
100
AcDbLine
 10
2822.324418867
 20
402.7686631068
 30
0.0
 11
2822.324418867
 21
402.4881448076
 31
0.0
  0
LINE
  5
35D
330
1B
100
AcDbEntity
 67
     1
  8
7_ALL_FEATURES
  6
Continuous
 62
     7
100
AcDbLine
 10
2822.324418867
 20
407.5881448076
 30
0.0
 11
2822.324418867
 21
407.3076265083
 31
0.0
  0
LINE
  5
35E
330
1B
100
AcDbEntity
 67
     1
  8
7_ALL_FEATURES
  6
Continuous
 62
     7
100
AcDbLine
 10
2822.324418867
 20
407.3076265083
 30
0.0
 11
2822.324418867
 21
407.2881448076
 31
0.0
  0
LINE
  5
35F
330
1B
100
AcDbEntity
 67
     1
  8
7_ALL_FEATURES
  6
Continuous
 62
     7
100
AcDbLine
 10
2822.324418867
 20
407.5881448076
 30
0.0
 11
2822.324418867
 21
420.5881448076
 31
0.0
  0
LINE
  5
360
330
1B
100
AcDbEntity
 67
     1
  8
7_ALL_FEATURES
  6
Continuous
 62
     7
100
AcDbLine
 10
2822.324418867
 20
420.7881448076
 30
0.0
 11
2822.324418867
 21
420.5881448076
 31
0.0
  0
LINE
  5
361
330
1B
100
AcDbEntity
 67
     1
  8
7_ALL_FEATURES
  6
Continuous
 62
     7
100
AcDbLine
 10
2822.324418867
 20
461.2881448076
 30
0.0
 11
2822.324418867
 21
461.2079991296
 31
0.0
  0
LINE
  5
362
330
1B
100
AcDbEntity
 67
     1
  8
7_ALL_FEATURES
  6
Continuous
 62
     7
100
AcDbLine
 10
810.824418867
 20
461.2881448076
 30
0.0
 11
2822.324418867
 21
461.2881448076
 31
0.0
  0
LINE
  5
363
330
1B
100
AcDbEntity
 67
     1
  8
7_ALL_FEATURES
  6
Continuous
 62
     7
100
AcDbLine
 10
2822.324418867
 20
425.4881448076
 30
0.0
 11
2822.324418867
 21
425.2881448076
 31
0.0
  0
LINE
  5
364
330
1B
100
AcDbEntity
 67
     1
  8
7_ALL_FEATURES
  6
Continuous
 62
     7
100
AcDbLine
 10
2822.324418867
 20
425.4881448076
 30
0.0
 11
2822.324418867
 21
455.0997532519
 31
0.0
  0
LINE
  5
365
330
1B
100
AcDbEntity
 67
     1
  8
7_ALL_FEATURES
  6
Continuous
 62
     7
100
AcDbLine
 10
2822.324418867
 20
456.0786996936
 30
0.0
 11
2822.324418867
 21
455.0997532519
 31
0.0
  0
LINE
  5
366
330
1B
100
AcDbEntity
 67
     1
  8
7_ALL_FEATURES
  6
Continuous
 62
     7
100
AcDbLine
 10
2822.324418867
 20
456.0786996936
 30
0.0
 11
2822.324418867
 21
457.1104800456
 31
0.0
  0
ARC
  5
367
330
1B
100
AcDbEntity
 67
     1
  8
02___PRT_ALL_AXES
  6
Continuous
 62
     7
100
AcDbCircle
 10
910.824418867
 20
395.2881448076
 30
0.0
 40
13.0
100
AcDbArc
 50
108.8878819509
 51
112.619864948
  0
ARC
  5
368
330
1B
100
AcDbEntity
 67
     1
  8
02___PRT_ALL_AXES
  6
Continuous
 62
     7
100
AcDbCircle
 10
910.824418867
 20
395.2881448076
 30
0.0
 40
13.0
100
AcDbArc
 50
67.380135052
 51
71.11211804909999
  0
ARC
  5
369
330
1B
100
AcDbEntity
 67
     1
  8
02___PRT_ALL_AXES
  6
Continuous
 62
     7
100
AcDbCircle
 10
910.824418867
 20
395.2881448076
 30
0.0
 40
13.0
100
AcDbArc
 50
33.6312774479
 51
35.2344179846
  0
ARC
  5
36A
330
1B
100
AcDbEntity
 67
     1
  8
02___PRT_ALL_AXES
  6
Continuous
 62
     7
100
AcDbCircle
 10
910.824418867
 20
395.2881448076
 30
0.0
 40
13.0
100
AcDbArc
 50
144.7655820154
 51
146.3687225521
  0
LINE
  5
36B
330
1B
100
AcDbEntity
 67
     1
  8
7_ALL_FEATURES
  6
Continuous
 62
     7
100
AcDbLine
 10
810.824418867
 20
461.2079991296
 30
0.0
 11
810.824418867
 21
461.2881448076
 31
0.0
  0
LINE
  5
36C
330
1B
100
AcDbEntity
 67
     1
  8
7_ALL_FEATURES
  6
Continuous
 62
     7
100
AcDbLine
 10
810.824418867
 20
456.0786996936
 30
0.0
 11
810.824418867
 21
457.1104800456
 31
0.0
  0
LINE
  5
36D
330
1B
100
AcDbEntity
 67
     1
  8
7_ALL_FEATURES
  6
Continuous
 62
     7
100
AcDbLine
 10
810.824418867
 20
455.0997532519
 30
0.0
 11
810.824418867
 21
456.0786996936
 31
0.0
  0
LINE
  5
36E
330
1B
100
AcDbEntity
 67
     1
  8
7_ALL_FEATURES
  6
Continuous
 62
     7
100
AcDbLine
 10
810.824418867
 20
425.4881448076
 30
0.0
 11
810.824418867
 21
455.0997532519
 31
0.0
  0
LINE
  5
36F
330
1B
100
AcDbEntity
 67
     1
  8
7_ALL_FEATURES
  6
Continuous
 62
     7
100
AcDbLine
 10
810.824418867
 20
425.2881448076
 30
0.0
 11
810.824418867
 21
425.4881448076
 31
0.0
  0
LINE
  5
370
330
1B
100
AcDbEntity
 67
     1
  8
7_ALL_FEATURES
  6
Continuous
 62
     7
100
AcDbLine
 10
810.824418867
 20
420.5881448076
 30
0.0
 11
810.824418867
 21
420.7881448076
 31
0.0
  0
LINE
  5
371
330
1B
100
AcDbEntity
 67
     1
  8
7_ALL_FEATURES
  6
Continuous
 62
     7
100
AcDbLine
 10
810.824418867
 20
407.5881448076
 30
0.0
 11
810.824418867
 21
420.5881448076
 31
0.0
  0
LINE
  5
372
330
1B
100
AcDbEntity
 67
     1
  8
7_ALL_FEATURES
  6
Continuous
 62
     7
100
AcDbLine
 10
810.824418867
 20
407.2881448076
 30
0.0
 11
810.824418867
 21
407.3076265083
 31
0.0
  0
LINE
  5
373
330
1B
100
AcDbEntity
 67
     1
  8
7_ALL_FEATURES
  6
Continuous
 62
     7
100
AcDbLine
 10
810.824418867
 20
407.3076265083
 30
0.0
 11
810.824418867
 21
407.5881448076
 31
0.0
  0
LINE
  5
374
330
1B
100
AcDbEntity
 67
     1
  8
7_ALL_FEATURES
  6
Continuous
 62
     7
100
AcDbLine
 10
810.824418867
 20
402.4881448076
 30
0.0
 11
810.824418867
 21
402.7686631068
 31
0.0
  0
LINE
  5
375
330
1B
100
AcDbEntity
 67
     1
  8
7_ALL_FEATURES
  6
Continuous
 62
     7
100
AcDbLine
 10
810.824418867
 20
402.7686631068
 30
0.0
 11
810.824418867
 21
402.7881448076
 31
0.0
  0
LINE
  5
376
330
1B
100
AcDbEntity
 67
     1
  8
7_ALL_FEATURES
  6
Continuous
 62
     7
100
AcDbLine
 10
810.824418867
 20
378.7881448076
 30
0.0
 11
810.824418867
 21
402.4881448076
 31
0.0
  0
LINE
  5
377
330
1B
100
AcDbEntity
 67
     1
  8
7_ALL_FEATURES
  6
Continuous
 62
     7
100
AcDbLine
 10
810.824418867
 20
377.7881448076
 30
0.0
 11
810.824418867
 21
378.7881448076
 31
0.0
  0
LINE
  5
378
330
1B
100
AcDbEntity
 67
     1
  8
02___PRT_ALL_AXES
  6
Continuous
 62
     7
100
AcDbLine
 10
915.824418867
 20
407.2881448076
 30
0.0
 11
2822.324418867
 21
407.2881448076
 31
0.0
  0
LINE
  5
379
330
1B
100
AcDbEntity
 67
     1
  8
02___PRT_ALL_AXES
  6
Continuous
 62
     7
100
AcDbLine
 10
810.824418867
 20
407.2881448076
 30
0.0
 11
905.824418867
 21
407.2881448076
 31
0.0
  0
LINE
  5
37A
330
1B
100
AcDbEntity
 67
     1
  8
02___PRT_ALL_AXES
  6
Continuous
 62
     7
100
AcDbLine
 10
2822.324418867
 20
402.7881448076
 30
0.0
 11
921.4427991578
 21
402.7881448076
 31
0.0
  0
LINE
  5
37B
330
1B
100
AcDbEntity
 67
     1
  8
02___PRT_ALL_AXES
  6
Continuous
 62
     7
100
AcDbLine
 10
900.2060385762
 20
402.7881448076
 30
0.0
 11
810.824418867
 21
402.7881448076
 31
0.0
  0
ARC
  5
37C
330
1B
100
AcDbEntity
 67
     1
  8
02___PRT_ALL_AXES
  6
Continuous
 62
     7
100
AcDbCircle
 10
910.824418867
 20
395.2881448076
 30
0.0
 40
13.0
100
AcDbArc
 50
114.4050848802
 51
144.7659660502
  0
ARC
  5
37D
330
1B
100
AcDbEntity
 67
     1
  8
02___PRT_ALL_AXES
  6
Continuous
 62
     7
100
AcDbCircle
 10
910.824418867
 20
395.2881448076
 30
0.0
 40
13.0
100
AcDbArc
 50
112.6213511628
 51
114.4050848802
  0
ARC
  5
37E
330
1B
100
AcDbEntity
 67
     1
  8
02___PRT_ALL_AXES
  6
Continuous
 62
     7
100
AcDbCircle
 10
910.824418867
 20
395.2881448076
 30
0.0
 40
13.0
100
AcDbArc
 50
65.5949151198
 51
67.3786488372
  0
ARC
  5
37F
330
1B
100
AcDbEntity
 67
     1
  8
02___PRT_ALL_AXES
  6
Continuous
 62
     7
100
AcDbCircle
 10
910.824418867
 20
395.2881448076
 30
0.0
 40
13.0
100
AcDbArc
 50
35.2340339498
 51
65.5949151198
  0
LINE
  5
380
330
1B
100
AcDbEntity
 67
     1
  8
7_ALL_FEATURES
  6
Continuous
 62
     7
100
AcDbLine
 10
810.824418867
 20
461.2881448076
 30
0.0
 11
2822.324418867
 21
461.2881448076
 31
0.0
  0
LINE
  5
381
330
1B
100
AcDbEntity
 67
     1
  8
7_ALL_FEATURES
  6
Continuous
 62
     7
100
AcDbLine
 10
810.824418867
 20
425.2881448076
 30
0.0
 11
2822.324418867
 21
425.2881448076
 31
0.0
  0
LINE
  5
382
330
1B
100
AcDbEntity
 67
     1
  8
7_ALL_FEATURES
  6
Continuous
 62
     7
100
AcDbLine
 10
810.824418867
 20
420.7881448076
 30
0.0
 11
2822.324418867
 21
420.7881448076
 31
0.0
  0
ARC
  5
383
330
1B
100
AcDbEntity
 67
     1
  8
02___PRT_ALL_AXES
  6
Continuous
 62
     7
100
AcDbCircle
 10
910.824418867
 20
395.2881448076
 30
0.0
 40
13.0
100
AcDbArc
 50
71.11211804909999
 51
108.8878819509
  0
ARC
  5
384
330
1B
100
AcDbEntity
 67
     1
  8
02___PRT_ALL_AXES
  6
Continuous
 62
     7
100
AcDbCircle
 10
910.824418867
 20
395.2881448076
 30
0.0
 40
13.0
100
AcDbArc
 50
146.3687225521
 51
180.0
  0
ARC
  5
385
330
1B
100
AcDbEntity
 67
     1
  8
02___PRT_ALL_AXES
  6
Continuous
 62
     7
100
AcDbCircle
 10
910.824418867
 20
395.2881448076
 30
0.0
 40
13.0
100
AcDbArc
 50
0.0
 51
33.6312774479
  0
ARC
  5
386
330
1B
100
AcDbEntity
 67
     1
  8
02___PRT_ALL_AXES
  6
Continuous
 62
     7
100
AcDbCircle
 10
910.824418867
 20
395.2881448076
 30
0.0
 40
13.0
100
AcDbArc
 50
180.0
 51
360.0
  0
LINE
  5
387
330
1B
100
AcDbEntity
 67
     1
  8
7_ALL_FEATURES
  6
Continuous
 62
     7
100
AcDbLine
 10
810.824418867
 20
377.7881448076
 30
0.0
 11
2822.324418867
 21
377.7881448076
 31
0.0
  0
LINE
  5
388
330
1B
100
AcDbEntity
 67
     1
  8
02___PRT_ALL_AXES
  6
Continuous
 62
     9
100
AcDbLine
 10
810.824418867
 20
407.5881448076
 30
0.0
 11
906.6160937845
 21
407.5881448076
 31
0.0
  0
LINE
  5
389
330
1B
100
AcDbEntity
 67
     1
  8
02___PRT_ALL_AXES
  6
Continuous
 62
     9
100
AcDbLine
 10
900.0003715648
 20
402.4881448076
 30
0.0
 11
810.824418867
 21
402.4881448076
 31
0.0
  0
LINE
  5
38A
330
1B
100
AcDbEntity
 67
     1
  8
7_ALL_FEATURES
  6
Continuous
 62
     9
100
AcDbLine
 10
810.824418867
 20
378.7881448076
 30
0.0
 11
2822.324418867
 21
378.7881448076
 31
0.0
  0
LINE
  5
38B
330
1B
100
AcDbEntity
 67
     1
  8
02___PRT_ALL_AXES
  6
Continuous
 62
     9
100
AcDbLine
 10
2822.324418867
 20
402.4881448076
 30
0.0
 11
921.6484661691
 21
402.4881448076
 31
0.0
  0
LINE
  5
38C
330
1B
100
AcDbEntity
 67
     1
  8
7_ALL_FEATURES
  6
Continuous
 62
     9
100
AcDbLine
 10
810.824418867
 20
456.0786996936
 30
0.0
 11
2822.324418867
 21
456.0786996936
 31
0.0
  0
LINE
  5
38D
330
1B
100
AcDbEntity
 67
     1
  8
7_ALL_FEATURES
  6
Continuous
 62
     9
100
AcDbLine
 10
810.824418867
 20
461.0273026652
 30
0.0
 11
2822.324418867
 21
461.0273026652
 31
0.0
  0
LINE
  5
38E
330
1B
100
AcDbEntity
 67
     1
  8
7_ALL_FEATURES
  6
Continuous
 62
     9
100
AcDbLine
 10
810.824418867
 20
455.0997532519
 30
0.0
 11
2822.324418867
 21
455.0997532519
 31
0.0
  0
LINE
  5
38F
330
1B
100
AcDbEntity
 67
     1
  8
7_ALL_FEATURES
  6
Continuous
 62
     9
100
AcDbLine
 10
810.824418867
 20
425.4881448076
 30
0.0
 11
2822.324418867
 21
425.4881448076
 31
0.0
  0
LINE
  5
390
330
1B
100
AcDbEntity
 67
     1
  8
02___PRT_ALL_AXES
  6
Continuous
 62
     9
100
AcDbLine
 10
915.0327439495
 20
407.5881448076
 30
0.0
 11
2822.324418867
 21
407.5881448076
 31
0.0
  0
LINE
  5
391
330
1B
100
AcDbEntity
 67
     1
  8
7_ALL_FEATURES
  6
Continuous
 62
     9
100
AcDbLine
 10
810.824418867
 20
420.5881448076
 30
0.0
 11
2822.324418867
 21
420.5881448076
 31
0.0
  0
LINE
  5
392
330
1B
100
AcDbEntity
 67
     1
  8
7_ALL_FEATURES
  6
Continuous
 62
     3
100
AcDbLine
 10
810.824418867
 20
461.2079991296
 30
0.0
 11
810.824418867
 21
460.8907794439
 31
0.0
  0
LINE
  5
393
330
1B
100
AcDbEntity
 67
     1
  8
7_ALL_FEATURES
  6
Continuous
 62
     3
100
AcDbLine
 10
810.824418867
 20
460.8907794439
 30
0.0
 11
810.824418867
 21
460.2881448076
 31
0.0
  0
LINE
  5
394
330
1B
100
AcDbEntity
 67
     1
  8
7_ALL_FEATURES
  6
Continuous
 62
     3
100
AcDbLine
 10
810.824418867
 20
460.2881448076
 30
0.0
 11
810.824418867
 21
457.1104800456
 31
0.0
  0
LINE
  5
395
330
1B
100
AcDbEntity
 67
     1
  8
7_ALL_FEATURES
  6
Continuous
 62
     3
100
AcDbLine
 10
810.824418867
 20
425.2881448076
 30
0.0
 11
810.824418867
 21
420.7881448076
 31
0.0
  0
LINE
  5
396
330
1B
100
AcDbEntity
 67
     1
  8
7_ALL_FEATURES
  6
Continuous
 62
     3
100
AcDbLine
 10
810.824418867
 20
407.3076265083
 30
0.0
 11
810.824418867
 21
407.2881448076
 31
0.0
  0
LINE
  5
397
330
1B
100
AcDbEntity
 67
     1
  8
7_ALL_FEATURES
  6
Continuous
 62
     3
100
AcDbLine
 10
810.824418867
 20
407.2881448076
 30
0.0
 11
810.824418867
 21
402.7881448076
 31
0.0
  0
LINE
  5
398
330
1B
100
AcDbEntity
 67
     1
  8
7_ALL_FEATURES
  6
Continuous
 62
     3
100
AcDbLine
 10
810.824418867
 20
402.7881448076
 30
0.0
 11
810.824418867
 21
402.7686631068
 31
0.0
  0
LINE
  5
399
330
1B
100
AcDbEntity
 67
     1
  8
7_ALL_FEATURES
  6
Continuous
 62
     3
100
AcDbLine
 10
2822.324418867
 20
402.7686631068
 30
0.0
 11
2822.324418867
 21
402.7881448076
 31
0.0
  0
LINE
  5
39A
330
1B
100
AcDbEntity
 67
     1
  8
7_ALL_FEATURES
  6
Continuous
 62
     3
100
AcDbLine
 10
2822.324418867
 20
402.7881448076
 30
0.0
 11
2822.324418867
 21
407.2881448076
 31
0.0
  0
LINE
  5
39B
330
1B
100
AcDbEntity
 67
     1
  8
7_ALL_FEATURES
  6
Continuous
 62
     3
100
AcDbLine
 10
2822.324418867
 20
407.2881448076
 30
0.0
 11
2822.324418867
 21
407.3076265083
 31
0.0
  0
LINE
  5
39C
330
1B
100
AcDbEntity
 67
     1
  8
7_ALL_FEATURES
  6
Continuous
 62
     3
100
AcDbLine
 10
2822.324418867
 20
420.7881448076
 30
0.0
 11
2822.324418867
 21
425.2881448076
 31
0.0
  0
LINE
  5
39D
330
1B
100
AcDbEntity
 67
     1
  8
7_ALL_FEATURES
  6
Continuous
 62
     3
100
AcDbLine
 10
2822.324418867
 20
460.2881448076
 30
0.0
 11
2822.324418867
 21
460.8907794439
 31
0.0
  0
LINE
  5
39E
330
1B
100
AcDbEntity
 67
     1
  8
7_ALL_FEATURES
  6
Continuous
 62
     3
100
AcDbLine
 10
2822.324418867
 20
460.8907794439
 30
0.0
 11
2822.324418867
 21
461.2079991296
 31
0.0
  0
LINE
  5
39F
330
1B
100
AcDbEntity
 67
     1
  8
7_ALL_FEATURES
  6
Continuous
 62
     3
100
AcDbLine
 10
2822.324418867
 20
457.1104800456
 30
0.0
 11
2822.324418867
 21
460.2881448076
 31
0.0
  0
LINE
  5
3A0
330
1B
100
AcDbEntity
 67
     1
  8
7_ALL_FEATURES
  6
Continuous
 62
     7
100
AcDbLine
 10
2974.8430105055
 20
430.7881448076
 30
0.0
 11
2974.8430105055
 21
429.9131448076
 31
0.0
  0
LINE
  5
3A1
330
1B
100
AcDbEntity
 67
     1
  8
7_ALL_FEATURES
  6
Continuous
 62
     7
100
AcDbLine
 10
2974.8430105055
 20
429.9131448076
 30
0.0
 11
2973.9680105055
 21
429.9131448076
 31
0.0
  0
LINE
  5
3A2
330
1B
100
AcDbEntity
 67
     1
  8
7_ALL_FEATURES
  6
Continuous
 62
     7
100
AcDbLine
 10
2973.9680105055
 20
429.1631448076
 30
0.0
 11
2974.8430105055
 21
429.1631448076
 31
0.0
  0
LINE
  5
3A3
330
1B
100
AcDbEntity
 67
     1
  8
7_ALL_FEATURES
  6
Continuous
 62
     7
100
AcDbLine
 10
2974.8430105055
 20
429.1631448076
 30
0.0
 11
2974.8430105055
 21
428.2881448076
 31
0.0
  0
LINE
  5
3A4
330
1B
100
AcDbEntity
 67
     1
  8
7_ALL_FEATURES
  6
Continuous
 62
     7
100
AcDbLine
 10
2975.5930105055
 20
428.2881448076
 30
0.0
 11
2975.5930105055
 21
429.1631448076
 31
0.0
  0
LINE
  5
3A5
330
1B
100
AcDbEntity
 67
     1
  8
7_ALL_FEATURES
  6
Continuous
 62
     7
100
AcDbLine
 10
2975.5930105055
 20
429.1631448076
 30
0.0
 11
2976.4680105055
 21
429.1631448076
 31
0.0
  0
LINE
  5
3A6
330
1B
100
AcDbEntity
 67
     1
  8
7_ALL_FEATURES
  6
Continuous
 62
     7
100
AcDbLine
 10
2976.4680105055
 20
429.9131448076
 30
0.0
 11
2975.5930105055
 21
429.9131448076
 31
0.0
  0
LINE
  5
3A7
330
1B
100
AcDbEntity
 67
     1
  8
7_ALL_FEATURES
  6
Continuous
 62
     7
100
AcDbLine
 10
2975.5930105055
 20
429.9131448076
 30
0.0
 11
2975.5930105055
 21
430.7881448076
 31
0.0
  0
ARC
  5
3A8
330
1B
100
AcDbEntity
 67
     1
  8
3_ALL_AXES
  6
Continuous
 62
     7
100
AcDbCircle
 10
2975.2180105055
 20
429.5381448076
 30
0.0
 40
2.75
100
AcDbArc
 50
180.0
 51
360.0
  0
ARC
  5
3A9
330
1B
100
AcDbEntity
 67
     1
  8
3_ALL_AXES
  6
Continuous
 62
     7
100
AcDbCircle
 10
2975.2180105055
 20
429.5381448076
 30
0.0
 40
2.75
100
AcDbArc
 50
0.0
 51
180.0
  0
LINE
  5
3AA
330
1B
100
AcDbEntity
 67
     1
  8
7_ALL_FEATURES
  6
Continuous
 62
     7
100
AcDbLine
 10
2976.4680105055
 20
429.9131448076
 30
0.0
 11
2976.4680105055
 21
429.1631448076
 31
0.0
  0
LINE
  5
3AB
330
1B
100
AcDbEntity
 67
     1
  8
7_ALL_FEATURES
  6
Continuous
 62
     7
100
AcDbLine
 10
2974.8430105055
 20
430.7881448076
 30
0.0
 11
2975.5930105055
 21
430.7881448076
 31
0.0
  0
LINE
  5
3AC
330
1B
100
AcDbEntity
 67
     1
  8
7_ALL_FEATURES
  6
Continuous
 62
     7
100
AcDbLine
 10
2973.9680105055
 20
429.1631448076
 30
0.0
 11
2973.9680105055
 21
429.9131448076
 31
0.0
  0
LINE
  5
3AD
330
1B
100
AcDbEntity
 67
     1
  8
7_ALL_FEATURES
  6
Continuous
 62
     7
100
AcDbLine
 10
2975.5930105055
 20
428.2881448076
 30
0.0
 11
2974.8430105055
 21
428.2881448076
 31
0.0
  0
LINE
  5
3AE
330
1B
100
AcDbEntity
 67
     1
  8
7_ALL_FEATURES
  6
Continuous
 62
     7
100
AcDbLine
 10
3011.2430105055
 20
430.7881448076
 30
0.0
 11
3011.2430105055
 21
429.9131448076
 31
0.0
  0
LINE
  5
3AF
330
1B
100
AcDbEntity
 67
     1
  8
7_ALL_FEATURES
  6
Continuous
 62
     7
100
AcDbLine
 10
3011.2430105055
 20
429.9131448076
 30
0.0
 11
3010.3680105055
 21
429.9131448076
 31
0.0
  0
LINE
  5
3B0
330
1B
100
AcDbEntity
 67
     1
  8
7_ALL_FEATURES
  6
Continuous
 62
     7
100
AcDbLine
 10
3010.3680105055
 20
429.1631448076
 30
0.0
 11
3011.2430105055
 21
429.1631448076
 31
0.0
  0
LINE
  5
3B1
330
1B
100
AcDbEntity
 67
     1
  8
7_ALL_FEATURES
  6
Continuous
 62
     7
100
AcDbLine
 10
3011.2430105055
 20
429.1631448076
 30
0.0
 11
3011.2430105055
 21
428.2881448076
 31
0.0
  0
LINE
  5
3B2
330
1B
100
AcDbEntity
 67
     1
  8
7_ALL_FEATURES
  6
Continuous
 62
     7
100
AcDbLine
 10
3011.9930105055
 20
428.2881448076
 30
0.0
 11
3011.9930105055
 21
429.1631448076
 31
0.0
  0
LINE
  5
3B3
330
1B
100
AcDbEntity
 67
     1
  8
7_ALL_FEATURES
  6
Continuous
 62
     7
100
AcDbLine
 10
3011.9930105055
 20
429.1631448076
 30
0.0
 11
3012.8680105055
 21
429.1631448076
 31
0.0
  0
LINE
  5
3B4
330
1B
100
AcDbEntity
 67
     1
  8
7_ALL_FEATURES
  6
Continuous
 62
     7
100
AcDbLine
 10
3012.8680105055
 20
429.9131448076
 30
0.0
 11
3011.9930105055
 21
429.9131448076
 31
0.0
  0
LINE
  5
3B5
330
1B
100
AcDbEntity
 67
     1
  8
7_ALL_FEATURES
  6
Continuous
 62
     7
100
AcDbLine
 10
3011.9930105055
 20
429.9131448076
 30
0.0
 11
3011.9930105055
 21
430.7881448076
 31
0.0
  0
ARC
  5
3B6
330
1B
100
AcDbEntity
 67
     1
  8
3_ALL_AXES
  6
Continuous
 62
     7
100
AcDbCircle
 10
3011.6180105055
 20
429.5381448076
 30
0.0
 40
2.75
100
AcDbArc
 50
180.0
 51
360.0
  0
ARC
  5
3B7
330
1B
100
AcDbEntity
 67
     1
  8
3_ALL_AXES
  6
Continuous
 62
     7
100
AcDbCircle
 10
3011.6180105055
 20
429.5381448076
 30
0.0
 40
2.75
100
AcDbArc
 50
0.0
 51
180.0
  0
LINE
  5
3B8
330
1B
100
AcDbEntity
 67
     1
  8
7_ALL_FEATURES
  6
Continuous
 62
     7
100
AcDbLine
 10
3012.8680105055
 20
429.9131448076
 30
0.0
 11
3012.8680105055
 21
429.1631448076
 31
0.0
  0
LINE
  5
3B9
330
1B
100
AcDbEntity
 67
     1
  8
7_ALL_FEATURES
  6
Continuous
 62
     7
100
AcDbLine
 10
3011.2430105055
 20
430.7881448076
 30
0.0
 11
3011.9930105055
 21
430.7881448076
 31
0.0
  0
LINE
  5
3BA
330
1B
100
AcDbEntity
 67
     1
  8
7_ALL_FEATURES
  6
Continuous
 62
     7
100
AcDbLine
 10
3010.3680105055
 20
429.1631448076
 30
0.0
 11
3010.3680105055
 21
429.9131448076
 31
0.0
  0
LINE
  5
3BB
330
1B
100
AcDbEntity
 67
     1
  8
7_ALL_FEATURES
  6
Continuous
 62
     7
100
AcDbLine
 10
3011.9930105055
 20
428.2881448076
 30
0.0
 11
3011.2430105055
 21
428.2881448076
 31
0.0
  0
LINE
  5
3BC
330
1B
100
AcDbEntity
 67
     1
  8
7_ALL_FEATURES
  6
Continuous
 62
     7
100
AcDbLine
 10
2974.8430105055
 20
382.0381448076
 30
0.0
 11
2974.8430105055
 21
381.1631448076
 31
0.0
  0
LINE
  5
3BD
330
1B
100
AcDbEntity
 67
     1
  8
7_ALL_FEATURES
  6
Continuous
 62
     7
100
AcDbLine
 10
2974.8430105055
 20
381.1631448076
 30
0.0
 11
2973.9680105055
 21
381.1631448076
 31
0.0
  0
LINE
  5
3BE
330
1B
100
AcDbEntity
 67
     1
  8
7_ALL_FEATURES
  6
Continuous
 62
     7
100
AcDbLine
 10
2973.9680105055
 20
380.4131448076
 30
0.0
 11
2974.8430105055
 21
380.4131448076
 31
0.0
  0
LINE
  5
3BF
330
1B
100
AcDbEntity
 67
     1
  8
7_ALL_FEATURES
  6
Continuous
 62
     7
100
AcDbLine
 10
2974.8430105055
 20
380.4131448076
 30
0.0
 11
2974.8430105055
 21
379.5381448076
 31
0.0
  0
LINE
  5
3C0
330
1B
100
AcDbEntity
 67
     1
  8
7_ALL_FEATURES
  6
Continuous
 62
     7
100
AcDbLine
 10
2975.5930105055
 20
379.5381448076
 30
0.0
 11
2975.5930105055
 21
380.4131448076
 31
0.0
  0
LINE
  5
3C1
330
1B
100
AcDbEntity
 67
     1
  8
7_ALL_FEATURES
  6
Continuous
 62
     7
100
AcDbLine
 10
2975.5930105055
 20
380.4131448076
 30
0.0
 11
2976.4680105055
 21
380.4131448076
 31
0.0
  0
LINE
  5
3C2
330
1B
100
AcDbEntity
 67
     1
  8
7_ALL_FEATURES
  6
Continuous
 62
     7
100
AcDbLine
 10
2976.4680105055
 20
381.1631448076
 30
0.0
 11
2975.5930105055
 21
381.1631448076
 31
0.0
  0
LINE
  5
3C3
330
1B
100
AcDbEntity
 67
     1
  8
7_ALL_FEATURES
  6
Continuous
 62
     7
100
AcDbLine
 10
2975.5930105055
 20
381.1631448076
 30
0.0
 11
2975.5930105055
 21
382.0381448076
 31
0.0
  0
ARC
  5
3C4
330
1B
100
AcDbEntity
 67
     1
  8
3_ALL_AXES
  6
Continuous
 62
     7
100
AcDbCircle
 10
2975.2180105055
 20
380.7881448076
 30
0.0
 40
2.75
100
AcDbArc
 50
180.0
 51
360.0
  0
ARC
  5
3C5
330
1B
100
AcDbEntity
 67
     1
  8
3_ALL_AXES
  6
Continuous
 62
     7
100
AcDbCircle
 10
2975.2180105055
 20
380.7881448076
 30
0.0
 40
2.75
100
AcDbArc
 50
0.0
 51
180.0
  0
LINE
  5
3C6
330
1B
100
AcDbEntity
 67
     1
  8
7_ALL_FEATURES
  6
Continuous
 62
     7
100
AcDbLine
 10
2976.4680105055
 20
381.1631448076
 30
0.0
 11
2976.4680105055
 21
380.4131448076
 31
0.0
  0
LINE
  5
3C7
330
1B
100
AcDbEntity
 67
     1
  8
7_ALL_FEATURES
  6
Continuous
 62
     7
100
AcDbLine
 10
2974.8430105055
 20
382.0381448076
 30
0.0
 11
2975.5930105055
 21
382.0381448076
 31
0.0
  0
LINE
  5
3C8
330
1B
100
AcDbEntity
 67
     1
  8
7_ALL_FEATURES
  6
Continuous
 62
     7
100
AcDbLine
 10
2973.9680105055
 20
380.4131448076
 30
0.0
 11
2973.9680105055
 21
381.1631448076
 31
0.0
  0
LINE
  5
3C9
330
1B
100
AcDbEntity
 67
     1
  8
7_ALL_FEATURES
  6
Continuous
 62
     7
100
AcDbLine
 10
2975.5930105055
 20
379.5381448076
 30
0.0
 11
2974.8430105055
 21
379.5381448076
 31
0.0
  0
LINE
  5
3CA
330
1B
100
AcDbEntity
 67
     1
  8
7_ALL_FEATURES
  6
Continuous
 62
     7
100
AcDbLine
 10
3011.2430105055
 20
382.0381448076
 30
0.0
 11
3011.2430105055
 21
381.1631448076
 31
0.0
  0
LINE
  5
3CB
330
1B
100
AcDbEntity
 67
     1
  8
7_ALL_FEATURES
  6
Continuous
 62
     7
100
AcDbLine
 10
3011.2430105055
 20
381.1631448076
 30
0.0
 11
3010.3680105055
 21
381.1631448076
 31
0.0
  0
LINE
  5
3CC
330
1B
100
AcDbEntity
 67
     1
  8
7_ALL_FEATURES
  6
Continuous
 62
     7
100
AcDbLine
 10
3010.3680105055
 20
380.4131448076
 30
0.0
 11
3011.2430105055
 21
380.4131448076
 31
0.0
  0
LINE
  5
3CD
330
1B
100
AcDbEntity
 67
     1
  8
7_ALL_FEATURES
  6
Continuous
 62
     7
100
AcDbLine
 10
3011.2430105055
 20
380.4131448076
 30
0.0
 11
3011.2430105055
 21
379.5381448076
 31
0.0
  0
LINE
  5
3CE
330
1B
100
AcDbEntity
 67
     1
  8
7_ALL_FEATURES
  6
Continuous
 62
     7
100
AcDbLine
 10
3011.9930105055
 20
379.5381448076
 30
0.0
 11
3011.9930105055
 21
380.4131448076
 31
0.0
  0
LINE
  5
3CF
330
1B
100
AcDbEntity
 67
     1
  8
7_ALL_FEATURES
  6
Continuous
 62
     7
100
AcDbLine
 10
3011.9930105055
 20
380.4131448076
 30
0.0
 11
3012.8680105055
 21
380.4131448076
 31
0.0
  0
LINE
  5
3D0
330
1B
100
AcDbEntity
 67
     1
  8
7_ALL_FEATURES
  6
Continuous
 62
     7
100
AcDbLine
 10
3012.8680105055
 20
381.1631448076
 30
0.0
 11
3011.9930105055
 21
381.1631448076
 31
0.0
  0
LINE
  5
3D1
330
1B
100
AcDbEntity
 67
     1
  8
7_ALL_FEATURES
  6
Continuous
 62
     7
100
AcDbLine
 10
3011.9930105055
 20
381.1631448076
 30
0.0
 11
3011.9930105055
 21
382.0381448076
 31
0.0
  0
ARC
  5
3D2
330
1B
100
AcDbEntity
 67
     1
  8
3_ALL_AXES
  6
Continuous
 62
     7
100
AcDbCircle
 10
3011.6180105055
 20
380.7881448076
 30
0.0
 40
2.75
100
AcDbArc
 50
180.0
 51
360.0
  0
ARC
  5
3D3
330
1B
100
AcDbEntity
 67
     1
  8
3_ALL_AXES
  6
Continuous
 62
     7
100
AcDbCircle
 10
3011.6180105055
 20
380.7881448076
 30
0.0
 40
2.75
100
AcDbArc
 50
0.0
 51
180.0
  0
LINE
  5
3D4
330
1B
100
AcDbEntity
 67
     1
  8
7_ALL_FEATURES
  6
Continuous
 62
     7
100
AcDbLine
 10
3012.8680105055
 20
381.1631448076
 30
0.0
 11
3012.8680105055
 21
380.4131448076
 31
0.0
  0
LINE
  5
3D5
330
1B
100
AcDbEntity
 67
     1
  8
7_ALL_FEATURES
  6
Continuous
 62
     7
100
AcDbLine
 10
3011.2430105055
 20
382.0381448076
 30
0.0
 11
3011.9930105055
 21
382.0381448076
 31
0.0
  0
LINE
  5
3D6
330
1B
100
AcDbEntity
 67
     1
  8
7_ALL_FEATURES
  6
Continuous
 62
     7
100
AcDbLine
 10
3010.3680105055
 20
380.4131448076
 30
0.0
 11
3010.3680105055
 21
381.1631448076
 31
0.0
  0
LINE
  5
3D7
330
1B
100
AcDbEntity
 67
     1
  8
7_ALL_FEATURES
  6
Continuous
 62
     7
100
AcDbLine
 10
3011.9930105055
 20
379.5381448076
 30
0.0
 11
3011.2430105055
 21
379.5381448076
 31
0.0
  0
ARC
  5
3D8
330
1B
100
AcDbEntity
 67
     1
  8
7_ALL_FEATURES
  6
Continuous
 62
     7
100
AcDbCircle
 10
2971.9180105055
 20
451.2881448076
 30
0.0
 40
1.5
100
AcDbArc
 50
306.8698976458
 51
53.1301023542
  0
ARC
  5
3D9
330
1B
100
AcDbEntity
 67
     1
  8
7_ALL_FEATURES
  6
Continuous
 62
     7
100
AcDbCircle
 10
2973.4180105055
 20
449.2881448076
 30
0.0
 40
1.0
100
AcDbArc
 50
126.8698976458
 51
180.0
  0
LINE
  5
3DA
330
1B
100
AcDbEntity
 67
     1
  8
7_ALL_FEATURES
  6
Continuous
 62
     7
100
AcDbLine
 10
2972.4180105055
 20
378.7881448076
 30
0.0
 11
2972.4180105055
 21
449.2881448076
 31
0.0
  0
ARC
  5
3DB
330
1B
100
AcDbEntity
 67
     1
  8
7_ALL_FEATURES
  6
Continuous
 62
     7
100
AcDbCircle
 10
2973.4180105055
 20
378.7881448076
 30
0.0
 40
1.0
100
AcDbArc
 50
180.0
 51
270.0
  0
LINE
  5
3DC
330
1B
100
AcDbEntity
 67
     1
  8
7_ALL_FEATURES
  6
Continuous
 62
     7
100
AcDbLine
 10
3013.4180105055
 20
377.7881448076
 30
0.0
 11
2973.4180105055
 21
377.7881448076
 31
0.0
  0
ARC
  5
3DD
330
1B
100
AcDbEntity
 67
     1
  8
7_ALL_FEATURES
  6
Continuous
 62
     7
100
AcDbCircle
 10
3013.4180105055
 20
378.7881448076
 30
0.0
 40
1.0
100
AcDbArc
 50
270.0
 51
360.0
  0
LINE
  5
3DE
330
1B
100
AcDbEntity
 67
     1
  8
7_ALL_FEATURES
  6
Continuous
 62
     7
100
AcDbLine
 10
3014.4180105055
 20
389.2881448076
 30
0.0
 11
3014.4180105055
 21
378.7881448076
 31
0.0
  0
ARC
  5
3DF
330
1B
100
AcDbEntity
 67
     1
  8
7_ALL_FEATURES
  6
Continuous
 62
     7
100
AcDbCircle
 10
3013.4180105055
 20
389.2881448076
 30
0.0
 40
1.0
100
AcDbArc
 50
0.0
 51
53.1301023542
  0
ARC
  5
3E0
330
1B
100
AcDbEntity
 67
     1
  8
7_ALL_FEATURES
  6
Continuous
 62
     7
100
AcDbCircle
 10
3014.9180105055
 20
391.2881448076
 30
0.0
 40
1.5
100
AcDbArc
 50
126.8698976458
 51
233.1301023542
  0
ARC
  5
3E1
330
1B
100
AcDbEntity
 67
     1
  8
7_ALL_FEATURES
  6
Continuous
 62
     7
100
AcDbCircle
 10
3013.4180105055
 20
393.2881448076
 30
0.0
 40
1.0
100
AcDbArc
 50
306.8698976458
 51
360.0
  0
LINE
  5
3E2
330
1B
100
AcDbEntity
 67
     1
  8
7_ALL_FEATURES
  6
Continuous
 62
     7
100
AcDbLine
 10
3014.4180105055
 20
460.2881448076
 30
0.0
 11
3014.4180105055
 21
393.2881448076
 31
0.0
  0
ARC
  5
3E3
330
1B
100
AcDbEntity
 67
     1
  8
7_ALL_FEATURES
  6
Continuous
 62
     7
100
AcDbCircle
 10
3013.4180105055
 20
460.2881448076
 30
0.0
 40
1.0
100
AcDbArc
 50
0.0
 51
90.0
  0
LINE
  5
3E4
330
1B
100
AcDbEntity
 67
     1
  8
7_ALL_FEATURES
  6
Continuous
 62
     7
100
AcDbLine
 10
2973.4180105055
 20
461.2881448076
 30
0.0
 11
3013.4180105055
 21
461.2881448076
 31
0.0
  0
ARC
  5
3E5
330
1B
100
AcDbEntity
 67
     1
  8
7_ALL_FEATURES
  6
Continuous
 62
     7
100
AcDbCircle
 10
2973.4180105055
 20
460.2881448076
 30
0.0
 40
1.0
100
AcDbArc
 50
90.0
 51
180.0
  0
LINE
  5
3E6
330
1B
100
AcDbEntity
 67
     1
  8
7_ALL_FEATURES
  6
Continuous
 62
     7
100
AcDbLine
 10
2972.4180105055
 20
453.2881448076
 30
0.0
 11
2972.4180105055
 21
460.2881448076
 31
0.0
  0
ARC
  5
3E7
330
1B
100
AcDbEntity
 67
     1
  8
7_ALL_FEATURES
  6
Continuous
 62
     7
100
AcDbCircle
 10
2973.4180105055
 20
453.2881448076
 30
0.0
 40
1.0
100
AcDbArc
 50
180.0
 51
233.1301023542
  0
ARC
  5
3E8
330
1B
100
AcDbEntity
 67
     1
  8
02___PRT_ALL_AXES
  6
Continuous
 62
     7
100
AcDbCircle
 10
2993.4180105055
 20
400.9565995889
 30
0.0
 40
9.5
100
AcDbArc
 50
182.0
 51
358.0
  0
LINE
  5
3E9
330
1B
100
AcDbEntity
 67
     1
  8
02___PRT_ALL_AXES
  6
Continuous
 62
     7
100
AcDbLine
 10
3003.4119187757
 20
400.6076046219
 30
0.0
 11
3002.9122233622
 21
400.6250543702
 31
0.0
  0
ARC
  5
3EA
330
1B
100
AcDbEntity
 67
     1
  8
02___PRT_ALL_AXES
  6
Continuous
 62
     7
100
AcDbCircle
 10
2993.4180105055
 20
400.9565995889
 30
0.0
 40
10.0
100
AcDbArc
 50
182.0
 51
358.0
  0
LINE
  5
3EB
330
1B
100
AcDbEntity
 67
     1
  8
02___PRT_ALL_AXES
  6
Continuous
 62
     7
100
AcDbLine
 10
2983.9237976488
 20
400.6250543702
 30
0.0
 11
2983.4241022353
 21
400.6076046219
 31
0.0
  0
LINE
  5
3EC
330
1B
100
AcDbEntity
 67
     1
  8
02___PRT_ALL_AXES
  6
Continuous
 62
     7
100
AcDbLine
 10
2983.4241022353
 20
401.3055945559
 30
0.0
 11
2983.9237976488
 21
401.2881448076
 31
0.0
  0
ARC
  5
3ED
330
1B
100
AcDbEntity
 67
     1
  8
02___PRT_ALL_AXES
  6
Continuous
 62
     7
100
AcDbCircle
 10
2993.4180105055
 20
400.9565995889
 30
0.0
 40
10.0
100
AcDbArc
 50
2.0
 51
178.0
  0
LINE
  5
3EE
330
1B
100
AcDbEntity
 67
     1
  8
02___PRT_ALL_AXES
  6
Continuous
 62
     7
100
AcDbLine
 10
3002.9122233622
 20
401.2881448076
 30
0.0
 11
3003.4119187757
 21
401.3055945559
 31
0.0
  0
ARC
  5
3EF
330
1B
100
AcDbEntity
 67
     1
  8
02___PRT_ALL_AXES
  6
Continuous
 62
     7
100
AcDbCircle
 10
2993.4180105055
 20
400.9565995889
 30
0.0
 40
9.5
100
AcDbArc
 50
2.0
 51
178.0
  0
LINE
  5
3F0
330
1B
100
AcDbEntity
 67
     1
  8
7_ALL_FEATURES
  6
Continuous
 62
     7
100
AcDbLine
 10
3013.6049175666
 20
461.2881448076
 30
0.0
 11
3013.4180105055
 21
461.2881448076
 31
0.0
  0
ARC
  5
3F1
330
1B
100
AcDbEntity
 67
     1
  8
7_ALL_FEATURES
  6
Continuous
 62
     7
100
AcDbCircle
 10
3013.6049175666
 20
460.9881448076
 30
0.0
 40
0.3
100
AcDbArc
 50
47.2949738222
 51
90.0
  0
LINE
  5
3F2
330
1B
100
AcDbEntity
 67
     1
  8
7_ALL_FEATURES
  6
Continuous
 62
     7
100
AcDbLine
 10
3014.5538469658
 20
456.0786996936
 30
0.0
 11
3014.4180105055
 21
457.1104800456
 31
0.0
  0
ARC
  5
3F3
330
1B
100
AcDbEntity
 67
     1
  8
7_ALL_FEATURES
  6
Continuous
 62
     7
100
AcDbCircle
 10
3007.1180105055
 20
455.0997532519
 30
0.0
 40
7.5
100
AcDbArc
 50
0.0
 51
7.5
  0
LINE
  5
3F4
330
1B
100
AcDbEntity
 67
     1
  8
7_ALL_FEATURES
  6
Continuous
 62
     7
100
AcDbLine
 10
3014.6180105055
 20
425.4881448076
 30
0.0
 11
3014.6180105055
 21
455.0997532519
 31
0.0
  0
ARC
  5
3F5
330
1B
100
AcDbEntity
 67
     1
  8
7_ALL_FEATURES
  6
Continuous
 62
     7
100
AcDbCircle
 10
3014.4180105055
 20
425.4881448076
 30
0.0
 40
0.2
100
AcDbArc
 50
270.0
 51
360.0
  0
ARC
  5
3F6
330
1B
100
AcDbEntity
 67
     1
  8
7_ALL_FEATURES
  6
Continuous
 62
     7
100
AcDbCircle
 10
3014.4180105055
 20
420.5881448076
 30
0.0
 40
0.2
100
AcDbArc
 50
0.0
 51
90.0
  0
LINE
  5
3F7
330
1B
100
AcDbEntity
 67
     1
  8
7_ALL_FEATURES
  6
Continuous
 62
     7
100
AcDbLine
 10
3014.6180105055
 20
407.5881448076
 30
0.0
 11
3014.6180105055
 21
420.5881448076
 31
0.0
  0
ARC
  5
3F8
330
1B
100
AcDbEntity
 67
     1
  8
7_ALL_FEATURES
  6
Continuous
 62
     7
100
AcDbCircle
 10
3014.3180105055
 20
407.5881448076
 30
0.0
 40
0.3
100
AcDbArc
 50
289.6202859532
 51
360.0
  0
ARC
  5
3F9
330
1B
100
AcDbEntity
 67
     1
  8
7_ALL_FEATURES
  6
Continuous
 62
     7
100
AcDbCircle
 10
3014.3180105055
 20
402.4881448076
 30
0.0
 40
0.3
100
AcDbArc
 50
0.0
 51
70.3797140468
  0
LINE
  5
3FA
330
1B
100
AcDbEntity
 67
     1
  8
7_ALL_FEATURES
  6
Continuous
 62
     7
100
AcDbLine
 10
3014.6180105055
 20
378.7881448076
 30
0.0
 11
3014.6180105055
 21
402.4881448076
 31
0.0
  0
ARC
  5
3FB
330
1B
100
AcDbEntity
 67
     1
  8
7_ALL_FEATURES
  6
Continuous
 62
     7
100
AcDbCircle
 10
3013.6180105055
 20
378.7881448076
 30
0.0
 40
1.0
100
AcDbArc
 50
270.0
 51
360.0
  0
LINE
  5
3FC
330
1B
100
AcDbEntity
 67
     1
  8
7_ALL_FEATURES
  6
Continuous
 62
     7
100
AcDbLine
 10
3013.4180105055
 20
377.7881448076
 30
0.0
 11
3013.6180105055
 21
377.7881448076
 31
0.0
  0
LINE
  5
3FD
330
1B
100
AcDbEntity
 67
     1
  8
7_ALL_FEATURES
  6
Continuous
 62
     7
100
AcDbLine
 10
2973.2180105055
 20
377.7881448076
 30
0.0
 11
2973.4180105055
 21
377.7881448076
 31
0.0
  0
ARC
  5
3FE
330
1B
100
AcDbEntity
 67
     1
  8
7_ALL_FEATURES
  6
Continuous
 62
     7
100
AcDbCircle
 10
2973.2180105055
 20
378.7881448076
 30
0.0
 40
1.0
100
AcDbArc
 50
180.0
 51
270.0
  0
LINE
  5
3FF
330
1B
100
AcDbEntity
 67
     1
  8
7_ALL_FEATURES
  6
Continuous
 62
     7
100
AcDbLine
 10
2972.2180105055
 20
402.4881448076
 30
0.0
 11
2972.2180105055
 21
378.7881448076
 31
0.0
  0
ARC
  5
400
330
1B
100
AcDbEntity
 67
     1
  8
7_ALL_FEATURES
  6
Continuous
 62
     7
100
AcDbCircle
 10
2972.5180105055
 20
402.4881448076
 30
0.0
 40
0.3
100
AcDbArc
 50
109.6202859534
 51
180.0
  0
ARC
  5
401
330
1B
100
AcDbEntity
 67
     1
  8
7_ALL_FEATURES
  6
Continuous
 62
     7
100
AcDbCircle
 10
2972.5180105055
 20
407.5881448076
 30
0.0
 40
0.3
100
AcDbArc
 50
180.0
 51
250.3797140466
  0
LINE
  5
402
330
1B
100
AcDbEntity
 67
     1
  8
7_ALL_FEATURES
  6
Continuous
 62
     7
100
AcDbLine
 10
2972.2180105055
 20
420.5881448076
 30
0.0
 11
2972.2180105055
 21
407.5881448076
 31
0.0
  0
ARC
  5
403
330
1B
100
AcDbEntity
 67
     1
  8
7_ALL_FEATURES
  6
Continuous
 62
     7
100
AcDbCircle
 10
2972.4180105055
 20
420.5881448076
 30
0.0
 40
0.2
100
AcDbArc
 50
90.0
 51
180.0
  0
ARC
  5
404
330
1B
100
AcDbEntity
 67
     1
  8
7_ALL_FEATURES
  6
Continuous
 62
     7
100
AcDbCircle
 10
2972.4180105055
 20
425.4881448076
 30
0.0
 40
0.2
100
AcDbArc
 50
180.0
 51
270.0
  0
LINE
  5
405
330
1B
100
AcDbEntity
 67
     1
  8
7_ALL_FEATURES
  6
Continuous
 62
     7
100
AcDbLine
 10
2972.2180105055
 20
455.0997532519
 30
0.0
 11
2972.2180105055
 21
425.4881448076
 31
0.0
  0
ARC
  5
406
330
1B
100
AcDbEntity
 67
     1
  8
7_ALL_FEATURES
  6
Continuous
 62
     7
100
AcDbCircle
 10
2979.7180105055
 20
455.0997532519
 30
0.0
 40
7.5
100
AcDbArc
 50
172.5
 51
180.0
  0
LINE
  5
407
330
1B
100
AcDbEntity
 67
     1
  8
7_ALL_FEATURES
  6
Continuous
 62
     7
100
AcDbLine
 10
2972.4180105055
 20
457.1104800456
 30
0.0
 11
2972.2821740452
 21
456.0786996936
 31
0.0
  0
ARC
  5
408
330
1B
100
AcDbEntity
 67
     1
  8
7_ALL_FEATURES
  6
Continuous
 62
     7
100
AcDbCircle
 10
2973.2311034444
 20
460.9881448076
 30
0.0
 40
0.3
100
AcDbArc
 50
90.0
 51
132.7050261776
  0
LINE
  5
409
330
1B
100
AcDbEntity
 67
     1
  8
7_ALL_FEATURES
  6
Continuous
 62
     7
100
AcDbLine
 10
2973.4180105055
 20
461.2881448076
 30
0.0
 11
2973.2311034444
 21
461.2881448076
 31
0.0
  0
DIMENSION
  5
40A
330
1B
100
AcDbEntity
 67
     1
  8
0
  6
Continuous
 62
     2
100
AcDbDimension
280
     0
  2
*D1
 10
809.324418867
 20
481.4005515901
 30
0.0
 11
1816.1458007813
 21
481.4005515901
 31
0.0
 70
   160
 71
     5
 42
-1.0
 73
     0
 74
     0
 75
     0
  3
DIMSTYLE_1
100
AcDbAlignedDimension
 13
2823.824418867
 23
461.2881448076
 33
0.0
 14
809.324418867
 24
461.2881448076
 34
0.0
 50
180.0
100
AcDbRotatedDimension
  0
DIMENSION
  5
40B
330
1B
100
AcDbEntity
 67
     1
  8
0
  6
Continuous
 62
     2
100
AcDbDimension
280
     0
  2
*D2
 10
3034.9752026223
 20
377.7881448076
 30
0.0
 11
3034.9752026223
 21
419.1096079219
 31
0.0
 70
   160
 71
     5
 42
-1.0
 73
     0
 74
     0
 75
     0
  3
DIMSTYLE_2
100
AcDbAlignedDimension
 13
3027.3749962805
 23
461.2881448076
 33
0.0
 14
3027.4738231741
 24
377.7881448076
 34
0.0
 50
270.0
100
AcDbRotatedDimension
  0
DIMENSION
  5
40C
330
1B
100
AcDbEntity
 67
     1
  8
0
  6
Continuous
 62
     2
100
AcDbDimension
280
     0
  2
*D3
 10
2838.476930158
 20
143.6928745373
 30
0.0
 11
2838.476930158
 21
164.4642702722
 31
0.0
 70
   160
 71
     5
 42
-1.0
 73
     0
 74
     0
 75
     0
  3
DIMSTYLE_2
100
AcDbAlignedDimension
 13
2822.324418867
 23
186.0928745373
 33
0.0
 14
2822.324418867
 24
143.6928745373
 34
0.0
 50
270.0
100
AcDbRotatedDimension
  0
LINE
  5
40D
330
1B
100
AcDbEntity
 67
     1
  8
0
  6
Continuous
 62
     2
100
AcDbLine
 10
3067.3397416778
 20
67.8640021913
 30
0.0
 11
3197.3397416778
 21
67.8640021913
 31
0.0
  0
LINE
  5
40E
330
1B
100
AcDbEntity
 67
     1
  8
0
  6
Continuous
 62
     2
100
AcDbLine
 10
3067.3397416778
 20
67.8640021913
 30
0.0
 11
3067.3397416778
 21
1.8640021913
 31
0.0
  0
LINE
  5
40F
330
1B
100
AcDbEntity
 67
     1
  8
0
  6
Continuous
 62
     2
100
AcDbLine
 10
3097.3397416778
 20
59.8640021913
 30
0.0
 11
3197.3397416778
 21
59.8640021913
 31
0.0
  0
LINE
  5
410
330
1B
100
AcDbEntity
 67
     1
  8
0
  6
Continuous
 62
     2
100
AcDbLine
 10
3067.3397416778
 20
51.8640021913
 30
0.0
 11
3197.3397416778
 21
51.8640021913
 31
0.0
  0
LINE
  5
411
330
1B
100
AcDbEntity
 67
     1
  8
0
  6
Continuous
 62
     2
100
AcDbLine
 10
3097.3397416778
 20
45.8640021913
 30
0.0
 11
3197.3397416778
 21
45.8640021913
 31
0.0
  0
LINE
  5
412
330
1B
100
AcDbEntity
 67
     1
  8
0
  6
Continuous
 62
     2
100
AcDbLine
 10
3097.3397416778
 20
39.8640021913
 30
0.0
 11
3197.3397416778
 21
39.8640021913
 31
0.0
  0
LINE
  5
413
330
1B
100
AcDbEntity
 67
     1
  8
0
  6
Continuous
 62
     2
100
AcDbLine
 10
3097.3397416778
 20
33.8640021913
 30
0.0
 11
3197.3397416778
 21
33.8640021913
 31
0.0
  0
LINE
  5
414
330
1B
100
AcDbEntity
 67
     1
  8
0
  6
Continuous
 62
     2
100
AcDbLine
 10
3097.3397416778
 20
27.8640021913
 30
0.0
 11
3197.3397416778
 21
27.8640021913
 31
0.0
  0
LINE
  5
415
330
1B
100
AcDbEntity
 67
     1
  8
0
  6
Continuous
 62
     2
100
AcDbLine
 10
3097.3397416778
 20
21.8640021913
 30
0.0
 11
3197.3397416778
 21
21.8640021913
 31
0.0
  0
LINE
  5
416
330
1B
100
AcDbEntity
 67
     1
  8
0
  6
Continuous
 62
     2
100
AcDbLine
 10
3067.3397416778
 20
15.8640021913
 30
0.0
 11
3197.3397416778
 21
15.8640021913
 31
0.0
  0
LINE
  5
417
330
1B
100
AcDbEntity
 67
     1
  8
0
  6
Continuous
 62
     2
100
AcDbLine
 10
3067.3397416778
 20
9.8640021913
 30
0.0
 11
3197.3397416778
 21
9.8640021913
 31
0.0
  0
LINE
  5
418
330
1B
100
AcDbEntity
 67
     1
  8
0
  6
Continuous
 62
     2
100
AcDbLine
 10
3067.3397416778
 20
5.8640021913
 30
0.0
 11
3197.3397416778
 21
5.8640021913
 31
0.0
  0
LINE
  5
419
330
1B
100
AcDbEntity
 67
     1
  8
0
  6
Continuous
 62
     2
100
AcDbLine
 10
3067.3397416778
 20
1.8640021913
 30
0.0
 11
3197.3397416778
 21
1.8640021913
 31
0.0
  0
LINE
  5
41A
330
1B
100
AcDbEntity
 67
     1
  8
0
  6
Continuous
 62
     2
100
AcDbLine
 10
3097.3397416778
 20
67.8640021913
 30
0.0
 11
3097.3397416778
 21
9.8640021913
 31
0.0
  0
LINE
  5
41B
330
1B
100
AcDbEntity
 67
     1
  8
0
  6
Continuous
 62
     2
100
AcDbLine
 10
3117.3397416778
 20
51.8640021913
 30
0.0
 11
3117.3397416778
 21
45.8640021913
 31
0.0
  0
LINE
  5
41C
330
1B
100
AcDbEntity
 67
     1
  8
0
  6
Continuous
 62
     2
100
AcDbLine
 10
3147.3397416778
 20
21.8640021913
 30
0.0
 11
3147.3397416778
 21
9.8640021913
 31
0.0
  0
LINE
  5
41D
330
1B
100
AcDbEntity
 67
     1
  8
0
  6
Continuous
 62
     2
100
AcDbLine
 10
3157.3397416778
 20
51.8640021913
 30
0.0
 11
3157.3397416778
 21
45.8640021913
 31
0.0
  0
LINE
  5
41E
330
1B
100
AcDbEntity
 67
     1
  8
0
  6
Continuous
 62
     2
100
AcDbLine
 10
3157.3397416778
 20
39.8640021913
 30
0.0
 11
3157.3397416778
 21
33.8640021913
 31
0.0
  0
LINE
  5
41F
330
1B
100
AcDbEntity
 67
     1
  8
0
  6
Continuous
 62
     2
100
AcDbLine
 10
3177.3397416778
 20
51.8640021913
 30
0.0
 11
3177.3397416778
 21
45.8640021913
 31
0.0
  0
LINE
  5
420
330
1B
100
AcDbEntity
 67
     1
  8
0
  6
Continuous
 62
     2
100
AcDbLine
 10
3187.3397416778
 20
39.8640021913
 30
0.0
 11
3187.3397416778
 21
33.8640021913
 31
0.0
  0
LINE
  5
421
330
1B
100
AcDbEntity
 67
     1
  8
0
  6
Continuous
 62
     2
100
AcDbLine
 10
3197.3397416778
 20
67.8640021913
 30
0.0
 11
3197.3397416778
 21
1.8640021913
 31
0.0
  0
INSERT
  5
422
330
1B
100
AcDbEntity
 67
     1
  8
0
  6
Continuous
 62
     2
100
AcDbBlockReference
  2
PROIEZIONE_EU_BL0
 10
3082.3397416778
 20
59.4890021913
 30
0.0
  0
MTEXT
  5
423
330
1B
100
AcDbEntity
 67
     1
  8
9_SOLID
  6
Continuous
 62
     2
100
AcDbMText
 10
3098.8272416778
 20
66.2390021913
 30
0.0
 40
1.9
 41
142.3642857143
 46
0.0
 71
     1
 72
     1
  1
EN: Chamfer/radii unlisted 0.3x45°. Remove sharp edges.\PGen. tol.: hole H11, shaft h11, lenght Js12. UNI EN 22768 Medium Grande.
 73
     1
 44
1.0
  0
MTEXT
  5
424
330
1B
100
AcDbEntity
 67
     1
  8
9_SOLID
  6
Continuous
 62
     2
100
AcDbMText
 10
3098.8272416778
 20
58.2390021913
 30
0.0
 40
1.9
 41
148.2678571429
 46
0.0
 71
     1
 72
     1
  1
IT: Sm./rac. non quotati 0.3x45°. Eliminare spigoli taglienti.\PToll. gen.: foro H11, albero h11, lunghezza Js12. UNI EN 22768 Grado Medio.
 73
     1
 44
1.0
  0
INSERT
  5
425
330
1B
100
AcDbEntity
 67
     1
  8
0
  6
Continuous
 62
     2
100
AcDbBlockReference
  2
LOGO2_BL1
 10
3081.1657887226
 20
33.8640021913
 30
0.0
  0
MTEXT
  5
426
330
1B
100
AcDbEntity
 67
     1
  8
9_SOLID
  6
Continuous
 62
     2
100
AcDbMText
 10
3098.8272416778
 20
50.1140021913
 30
0.0
 40
3.0
 41
21.1071428571
 46
0.0
 71
     1
 72
     1
  1
Pj: 571
 73
     1
 44
1.0
  0
MTEXT
  5
427
330
1B
100
AcDbEntity
 67
     1
  8
0
  6
Continuous
 62
     2
100
AcDbMText
 10
3118.8272416778
 20
50.1140021913
 30
0.0
 40
3.0
 41
41.5714285714
 46
0.0
 71
     1
 72
     1
  1
% Check:  %
 73
     1
 44
1.0
  0
MTEXT
  5
428
330
1B
100
AcDbEntity
 67
     1
  8
9_SOLID
  6
Continuous
 62
     2
100
AcDbMText
 10
3158.8272416778
 20
50.1140021913
 30
0.0
 40
3.0
 41
19.5
 46
0.0
 71
     1
 72
     1
  1
Rev:00
 73
     1
 44
1.0
  0
MTEXT
  5
429
330
1B
100
AcDbEntity
 67
     1
  8
9_SOLID
  6
Continuous
 62
     2
100
AcDbMText
 10
3178.8272416778
 20
50.3640021913
 30
0.0
 40
3.0
 41
19.7142857143
 46
0.0
 71
     1
 72
     1
  1
Ver: A
 73
     1
 44
1.0
  0
MTEXT
  5
42A
330
1B
100
AcDbEntity
 67
     1
  8
9_SOLID
  6
Continuous
 62
     2
100
AcDbMText
 10
3098.8272416778
 20
44.1140021913
 30
0.0
 40
3.0
 41
73.3928571429
 46
0.0
 71
     1
 72
     1
  1
Neutral code: 571_C_063
 73
     1
 44
1.0
  0
MTEXT
  5
42B
330
1B
100
AcDbEntity
 67
     1
  8
0
  6
Continuous
 62
     2
100
AcDbMText
 10
3098.8272416778
 20
38.1140021913
 30
0.0
 40
3.0
 41
22.9285714286
 46
0.0
 71
     1
 72
     1
  1
Code:  
 73
     1
 44
1.0
  0
MTEXT
  5
42C
330
1B
100
AcDbEntity
 67
     1
  8
9_SOLID
  6
Continuous
 62
     2
100
AcDbMText
 10
3158.8272416778
 20
38.3640021913
 30
0.0
 40
3.0
 41
27.8571428571
 46
0.0
 71
     1
 72
     1
  1
Scale: 1:1
 73
     1
 44
1.0
  0
MTEXT
  5
42D
330
1B
100
AcDbEntity
 67
     1
  8
9_SOLID
  6
Continuous
 62
     2
100
AcDbMText
 10
3192.3397416778
 20
38.3640021913
 30
0.0
 40
3.0
 41
41.5714285714
 46
0.0
 71
     2
 72
     1
  1
3200 by 2500
 73
     1
 44
1.0
  0
MTEXT
  5
42E
330
1B
100
AcDbEntity
 67
     1
  8
9_SOLID
  6
Continuous
 62
     2
100
AcDbMText
 10
3098.8272416778
 20
32.3640021913
 30
0.0
 40
3.0
 41
139.2857142857
 46
0.0
 71
     1
 72
     1
  1
It descr.: CASSAFORMA RIO2.4 mm.2014.5 ALL
 73
     1
 44
1.0
  0
MTEXT
  5
42F
330
1B
100
AcDbEntity
 67
     1
  8
0
  6
Continuous
 62
     2
100
AcDbMText
 10
3098.8272416778
 20
26.3640021913
 30
0.0
 40
3.0
 41
37.5
 46
0.0
 71
     1
 72
     1
  1
En descr.:  
 73
     1
 44
1.0
  0
MTEXT
  5
430
330
1B
100
AcDbEntity
 67
     1
  8
9_SOLID
  6
Continuous
 62
     2
100
AcDbMText
 10
3098.8272416778
 20
20.3640021913
 30
0.0
 40
3.0
 41
31.2857142857
 46
0.0
 71
     1
 72
     1
  1
Des.: S.Z.
 73
     1
 44
1.0
  0
MTEXT
  5
431
330
1B
100
AcDbEntity
 67
     1
  8
9_SOLID
  6
Continuous
 62
     2
100
AcDbMText
 10
3148.8272416778
 20
20.3640021913
 30
0.0
 40
3.0
 41
22.2857142857
 46
0.0
 71
     1
 72
     1
  1
Check: 
 73
     1
 44
1.0
  0
MTEXT
  5
432
330
1B
100
AcDbEntity
 67
     1
  8
9_SOLID
  6
Continuous
 62
     2
100
AcDbMText
 10
3068.8272416778
 20
14.3640021913
 30
0.0
 40
3.0
 41
43.5
 46
0.0
 71
     1
 72
     1
  1
Date: 06.12.18
 73
     1
 44
1.0
  0
MTEXT
  5
433
330
1B
100
AcDbEntity
 67
     1
  8
0
  6
Continuous
 62
     2
100
AcDbMText
 10
3098.8272416778
 20
14.3640021913
 30
0.0
 40
3.0
 41
21.75
 46
0.0
 71
     1
 72
     1
  1
Mat.:  
 73
     1
 44
1.0
  0
MTEXT
  5
434
330
1B
100
AcDbEntity
 67
     1
  8
9_SOLID
  6
Continuous
 62
     2
100
AcDbMText
 10
3148.8272416778
 20
13.8640021913
 30
0.0
 40
2.0
 41
42.3571428571
 46
0.0
 71
     1
 72
     1
  1
Disegno per catalogo
 73
     1
 44
1.0
  0
MTEXT
  5
435
330
1B
100
AcDbEntity
 67
     1
  8
9_SOLID
  6
Continuous
 62
     2
100
AcDbMText
 10
3068.8272416778
 20
8.7640021913
 30
0.0
 40
1.8
 41
176.2071428571
 46
0.0
 71
     1
 72
     1
  1
It: A norma di legge si diffida da qualsiasi riproduzione senza nostra autorizzazione esplicita.
 73
     1
 44
1.0
  0
MTEXT
  5
436
330
1B
100
AcDbEntity
 67
     1
  8
9_SOLID
  6
Continuous
 62
     2
100
AcDbMText
 10
3068.8272416778
 20
4.7640021913
 30
0.0
 40
1.8
 41
158.1428571429
 46
0.0
 71
     1
 72
     1
  1
En: According to the law, beware of any reproduction made without our authorization.
 73
     1
 44
1.0
  0
ENDSEC
  0
SECTION
  2
OBJECTS
  0
DICTIONARY
  5
437
330
0
100
AcDbDictionary
281
     1
  3
ACAD_DETAILVIEWSTYLE
350
48D
  3
ACAD_GROUP
350
438
  3
ACAD_LAYOUT
350
460
  3
ACAD_MATERIAL
350
47C
  3
ACAD_MLEADERSTYLE
350
482
  3
ACAD_MLINESTYLE
350
439
  3
ACAD_PLOTSETTINGS
350
43B
  3
ACAD_PLOTSTYLENAME
350
43C
  3
ACAD_SCALELIST
350
43E
  3
ACAD_SECTIONVIEWSTYLE
350
48E
  3
ACAD_TABLESTYLE
350
480
  3
ACAD_VISUALSTYLE
350
463
  3
ACDB_RECOMPOSE_DATA
350
489
  3
AcDbVariableDictionary
350
485
  3
APPDATA
350
484
  0
DICTIONARY
  5
48D
102
{ACAD_REACTORS
330
437
102
}
330
437
100
AcDbDictionary
281
     1
  0
DICTIONARY
  5
438
102
{ACAD_REACTORS
330
437
102
}
330
437
100
AcDbDictionary
281
     1
  0
DICTIONARY
  5
460
102
{ACAD_REACTORS
330
437
102
}
330
437
100
AcDbDictionary
281
     1
  3
Foglio 1
350
462
  3
Model
350
461
  0
DICTIONARY
  5
47C
102
{ACAD_REACTORS
330
437
102
}
330
437
100
AcDbDictionary
281
     1
  3
ByBlock
350
47E
  3
ByLayer
350
47D
  3
Global
350
47F
  0
DICTIONARY
  5
482
102
{ACAD_REACTORS
330
437
102
}
330
437
100
AcDbDictionary
281
     1
  3
Standard
350
483
  0
DICTIONARY
  5
439
102
{ACAD_REACTORS
330
437
102
}
330
437
100
AcDbDictionary
281
     1
  3
STANDARD
350
43A
  0
DICTIONARY
  5
43B
102
{ACAD_REACTORS
330
437
102
}
330
437
100
AcDbDictionary
281
     1
  0
ACDBDICTIONARYWDFLT
  5
43C
102
{ACAD_REACTORS
330
437
102
}
330
437
100
AcDbDictionary
281
     1
  3
Normal
350
43D
100
AcDbDictionaryWithDefault
340
43D
  0
DICTIONARY
  5
43E
102
{ACAD_REACTORS
330
437
102
}
330
437
100
AcDbDictionary
281
     1
  3
A0
350
43F
  3
A1
350
440
  3
A2
350
441
  3
A3
350
442
  3
A4
350
443
  3
A5
350
444
  3
A6
350
445
  3
A7
350
446
  3
A8
350
447
  3
A9
350
448
  3
B0
350
449
  3
B1
350
44A
  3
B2
350
44B
  3
B3
350
44C
  3
B4
350
44D
  3
B5
350
44E
  3
B6
350
44F
  3
B7
350
450
  3
B8
350
451
  3
B9
350
452
  3
C0
350
453
  3
C1
350
454
  3
C2
350
455
  3
C3
350
456
  3
C4
350
457
  3
C5
350
458
  3
C6
350
459
  3
C7
350
45A
  3
C8
350
45B
  3
C9
350
45C
  3
D0
350
45D
  3
D1
350
45E
  3
D2
350
45F
  0
DICTIONARY
  5
48E
102
{ACAD_REACTORS
330
437
102
}
330
437
100
AcDbDictionary
281
     1
  0
DICTIONARY
  5
480
102
{ACAD_REACTORS
330
437
102
}
330
437
100
AcDbDictionary
281
     1
  3
Standard
350
481
  0
DICTIONARY
  5
463
102
{ACAD_REACTORS
330
437
102
}
330
437
100
AcDbDictionary
281
     1
  3
2dWireframe
350
468
  3
Basic
350
46B
  3
Brighten
350
46F
  3
ColorChange
350
473
  3
Conceptual
350
46D
  3
Dim
350
46E
  3
EdgeColorOff
350
476
  3
Facepattern
350
472
  3
Flat
350
464
  3
FlatWithEdges
350
465
  3
Gouraud
350
466
  3
GouraudWithEdges
350
467
  3
Hidden
350
46A
  3
JitterOff
350
474
  3
Linepattern
350
471
  3
OverhangOff
350
475
  3
Realistic
350
46C
  3
Shaded
350
47B
  3
Shaded with edges
350
47A
  3
Shades of Gray
350
477
  3
Sketchy
350
478
  3
Thicken
350
470
  3
Wireframe
350
469
  3
X-Ray
350
479
  0
XRECORD
  5
489
102
{ACAD_REACTORS
330
437
102
}
330
437
100
AcDbXrecord
280
     1
 90
        1
330
481
  0
DICTIONARY
  5
485
102
{ACAD_REACTORS
330
437
102
}
330
437
100
AcDbDictionary
281
     1
  3
CANNOSCALE
350
486
  3
CMLEADERSTYLE
350
48B
  3
CTABLESTYLE
350
48A
  3
MSLTSCALE
350
48C
  0
DICTIONARY
  5
484
102
{ACAD_REACTORS
330
437
102
}
330
437
100
AcDbDictionary
281
     1
  0
LAYOUT
  5
462
102
{ACAD_REACTORS
330
460
102
}
330
460
100
AcDbPlotSettings
  1

  2
none_device
  4
ISO_A3_(420.00_x_297.00_MM)
  6

 40
7.5
 41
20.0
 42
7.5
 43
20.0
 44
420.0
 45
297.0
 46
0.0
 47
0.0
 48
0.0
 49
0.0
140
0.0
141
0.0
142
1.0
143
9.727626459143968
 70
   688
 72
     1
 73
     0
 74
     1
  7

 75
     0
 76
     0
 77
     2
 78
   300
147
0.1028
148
0.0
149
0.0
100
AcDbLayout
  1
Foglio 1
 70
     1
 71
     1
 10
0.0
 20
0.0
 11
412.5
 21
277.0
 12
0.0
 22
0.0
 32
0.0
 14
0.0
 24
0.0
 34
0.0
 15
3206.3647416778
 25
2500.0
 35
0.0
146
0.0
 13
0.0
 23
0.0
 33
0.0
 16
1.0
 26
0.0
 36
0.0
 17
0.0
 27
1.0
 37
0.0
 76
     0
330
1B
331
298
  0
LAYOUT
  5
461
102
{ACAD_REACTORS
330
460
102
}
330
460
100
AcDbPlotSettings
  1

  2
none_device
  4
Letter_(8.50_x_11.00_Inches)
  6

 40
6.35
 41
6.35
 42
6.35
 43
6.35
 44
215.9
 45
279.4
 46
0.0
 47
0.0
 48
0.0
 49
0.0
140
0.0
141
0.0
142
1.0
143
400.0
 70
  1712
 72
     0
 73
     0
 74
     0
  7

 75
     0
 76
     0
 77
     2
 78
   300
147
0.0025
148
0.0
149
0.0
100
AcDbLayout
  1
Model
 70
     1
 71
     0
 10
0.0
 20
0.0
 11
3200.0
 21
2500.0
 12
0.0
 22
0.0
 32
0.0
 14
0.0
 24
0.0
 34
0.0
 15
3200.0
 25
2500.0
 35
0.0
146
0.0
 13
0.0
 23
0.0
 33
0.0
 16
1.0
 26
0.0
 36
0.0
 17
0.0
 27
1.0
 37
0.0
 76
     0
330
1F
331
1F4
  0
MATERIAL
  5
47E
102
{ACAD_REACTORS
330
47C
102
}
330
47C
100
AcDbMaterial
  1
ByBlock
 72
     1
 94
      127
  0
MATERIAL
  5
47D
102
{ACAD_REACTORS
330
47C
102
}
330
47C
100
AcDbMaterial
  1
ByLayer
 72
     1
 94
      127
  0
MATERIAL
  5
47F
102
{ACAD_REACTORS
330
47C
102
}
330
47C
100
AcDbMaterial
  1
Global
 72
     1
 94
      127
  0
MLEADERSTYLE
  5
483
102
{ACAD_REACTORS
330
482
102
}
330
482
100
AcDbMLeaderStyle
179
     2
170
     2
171
     1
172
     0
 90
        2
 40
0.0
 41
0.0
173
     1
 91
-1056964608
340
14
 92
       -2
290
     1
 42
2.0
291
     1
 43
8.0
  3
Standard
341
0
 44
4.0
300

342
11
174
     1
178
     1
175
     1
176
     0
 93
-1056964608
 45
4.0
292
     0
297
     0
 46
4.0
343
0
 94
-1056964608
 47
1.0
 49
1.0
140
1.0
293
     1
141
0.0
294
     1
177
     0
142
1.0
295
     0
296
     0
143
3.75
271
     0
272
     9
273
     9
298
     0
  0
MLINESTYLE
  5
43A
102
{ACAD_REACTORS
330
439
102
}
330
439
100
AcDbMlineStyle
  2
STANDARD
 70
     0
  3

 62
   256
 51
90.0
 52
90.0
 71
     2
 49
0.5
 62
   256
  6
BYLAYER
 49
-0.5
 62
   256
  6
BYLAYER
  0
ACDBPLACEHOLDER
  5
43D
102
{ACAD_REACTORS
330
43C
102
}
330
43C
  0
SCALE
  5
43F
102
{ACAD_REACTORS
330
43E
102
}
330
43E
100
AcDbScale
 70
     0
300
1:1
140
1.0
141
1.0
290
     1
  0
SCALE
  5
440
102
{ACAD_REACTORS
330
43E
102
}
330
43E
100
AcDbScale
 70
     0
300
1:2
140
1.0
141
2.0
290
     0
  0
SCALE
  5
441
102
{ACAD_REACTORS
330
43E
102
}
330
43E
100
AcDbScale
 70
     0
300
1:4
140
1.0
141
4.0
290
     0
  0
SCALE
  5
442
102
{ACAD_REACTORS
330
43E
102
}
330
43E
100
AcDbScale
 70
     0
300
1:5
140
1.0
141
5.0
290
     0
  0
SCALE
  5
443
102
{ACAD_REACTORS
330
43E
102
}
330
43E
100
AcDbScale
 70
     0
300
1:8
140
1.0
141
8.0
290
     0
  0
SCALE
  5
444
102
{ACAD_REACTORS
330
43E
102
}
330
43E
100
AcDbScale
 70
     0
300
1:10
140
1.0
141
10.0
290
     0
  0
SCALE
  5
445
102
{ACAD_REACTORS
330
43E
102
}
330
43E
100
AcDbScale
 70
     0
300
1:16
140
1.0
141
16.0
290
     0
  0
SCALE
  5
446
102
{ACAD_REACTORS
330
43E
102
}
330
43E
100
AcDbScale
 70
     0
300
1:20
140
1.0
141
20.0
290
     0
  0
SCALE
  5
447
102
{ACAD_REACTORS
330
43E
102
}
330
43E
100
AcDbScale
 70
     0
300
1:30
140
1.0
141
30.0
290
     0
  0
SCALE
  5
448
102
{ACAD_REACTORS
330
43E
102
}
330
43E
100
AcDbScale
 70
     0
300
1:40
140
1.0
141
40.0
290
     0
  0
SCALE
  5
449
102
{ACAD_REACTORS
330
43E
102
}
330
43E
100
AcDbScale
 70
     0
300
1:50
140
1.0
141
50.0
290
     0
  0
SCALE
  5
44A
102
{ACAD_REACTORS
330
43E
102
}
330
43E
100
AcDbScale
 70
     0
300
1:100
140
1.0
141
100.0
290
     0
  0
SCALE
  5
44B
102
{ACAD_REACTORS
330
43E
102
}
330
43E
100
AcDbScale
 70
     0
300
2:1
140
2.0
141
1.0
290
     0
  0
SCALE
  5
44C
102
{ACAD_REACTORS
330
43E
102
}
330
43E
100
AcDbScale
 70
     0
300
4:1
140
4.0
141
1.0
290
     0
  0
SCALE
  5
44D
102
{ACAD_REACTORS
330
43E
102
}
330
43E
100
AcDbScale
 70
     0
300
8:1
140
8.0
141
1.0
290
     0
  0
SCALE
  5
44E
102
{ACAD_REACTORS
330
43E
102
}
330
43E
100
AcDbScale
 70
     0
300
10:1
140
10.0
141
1.0
290
     0
  0
SCALE
  5
44F
102
{ACAD_REACTORS
330
43E
102
}
330
43E
100
AcDbScale
 70
     0
300
100:1
140
100.0
141
1.0
290
     0
  0
SCALE
  5
450
102
{ACAD_REACTORS
330
43E
102
}
330
43E
100
AcDbScale
 70
     0
300
1/128" = 1'-0"
140
0.0078125
141
12.0
290
     0
  0
SCALE
  5
451
102
{ACAD_REACTORS
330
43E
102
}
330
43E
100
AcDbScale
 70
     0
300
1/64" = 1'-0"
140
0.015625
141
12.0
290
     0
  0
SCALE
  5
452
102
{ACAD_REACTORS
330
43E
102
}
330
43E
100
AcDbScale
 70
     0
300
1/32" = 1'-0"
140
0.03125
141
12.0
290
     0
  0
SCALE
  5
453
102
{ACAD_REACTORS
330
43E
102
}
330
43E
100
AcDbScale
 70
     0
300
1/16" = 1'-0"
140
0.0625
141
12.0
290
     0
  0
SCALE
  5
454
102
{ACAD_REACTORS
330
43E
102
}
330
43E
100
AcDbScale
 70
     0
300
3/32" = 1'-0"
140
0.09375
141
12.0
290
     0
  0
SCALE
  5
455
102
{ACAD_REACTORS
330
43E
102
}
330
43E
100
AcDbScale
 70
     0
300
1/8" = 1'-0"
140
0.125
141
12.0
290
     0
  0
SCALE
  5
456
102
{ACAD_REACTORS
330
43E
102
}
330
43E
100
AcDbScale
 70
     0
300
3/16" = 1'-0"
140
0.1875
141
12.0
290
     0
  0
SCALE
  5
457
102
{ACAD_REACTORS
330
43E
102
}
330
43E
100
AcDbScale
 70
     0
300
1/4" = 1'-0"
140
0.25
141
12.0
290
     0
  0
SCALE
  5
458
102
{ACAD_REACTORS
330
43E
102
}
330
43E
100
AcDbScale
 70
     0
300
3/8" = 1'-0"
140
0.375
141
12.0
290
     0
  0
SCALE
  5
459
102
{ACAD_REACTORS
330
43E
102
}
330
43E
100
AcDbScale
 70
     0
300
1/2" = 1'-0"
140
0.5
141
12.0
290
     0
  0
SCALE
  5
45A
102
{ACAD_REACTORS
330
43E
102
}
330
43E
100
AcDbScale
 70
     0
300
3/4" = 1'-0"
140
0.75
141
12.0
290
     0
  0
SCALE
  5
45B
102
{ACAD_REACTORS
330
43E
102
}
330
43E
100
AcDbScale
 70
     0
300
1" = 1'-0"
140
1.0
141
12.0
290
     0
  0
SCALE
  5
45C
102
{ACAD_REACTORS
330
43E
102
}
330
43E
100
AcDbScale
 70
     0
300
1-1/2" = 1'-0"
140
1.5
141
12.0
290
     0
  0
SCALE
  5
45D
102
{ACAD_REACTORS
330
43E
102
}
330
43E
100
AcDbScale
 70
     0
300
3" = 1'-0"
140
3.0
141
12.0
290
     0
  0
SCALE
  5
45E
102
{ACAD_REACTORS
330
43E
102
}
330
43E
100
AcDbScale
 70
     0
300
6" = 1'-0"
140
6.0
141
12.0
290
     0
  0
SCALE
  5
45F
102
{ACAD_REACTORS
330
43E
102
}
330
43E
100
AcDbScale
 70
     0
300
1'-0" = 1'-0"
140
12.0
141
12.0
290
     0
  0
TABLESTYLE
  5
481
102
{ACAD_REACTORS
330
480
102
}
102
{ACAD_XDICTIONARY
360
487
102
}
330
480
100
AcDbTableStyle
  3
Standard
 70
     0
 71
     0
 40
0.06
 41
0.06
280
     0
281
     0
  7
STANDARD
140
4.5
170
     2
 62
     0
 63
   257
283
     0
 90
        4
 91
        0
  1

274
    -2
284
     1
 64
     0
275
    -2
285
     1
 65
     0
276
    -2
286
     1
 66
     0
277
    -2
287
     1
 67
     0
278
    -2
288
     1
 68
     0
279
    -2
289
     1
 69
     0
  7
STANDARD
140
6.0
170
     5
 62
     0
 63
   257
283
     0
 90
        4
 91
        0
  1

274
    -2
284
     1
 64
     0
275
    -2
285
     1
 65
     0
276
    -2
286
     1
 66
     0
277
    -2
287
     1
 67
     0
278
    -2
288
     1
 68
     0
279
    -2
289
     1
 69
     0
  7
STANDARD
140
4.5
170
     5
 62
     0
 63
   257
283
     0
 90
        4
 91
        0
  1

274
    -2
284
     1
 64
     0
275
    -2
285
     1
 65
     0
276
    -2
286
     1
 66
     0
277
    -2
287
     1
 67
     0
278
    -2
288
     1
 68
     0
279
    -2
289
     1
 69
     0
  0
VISUALSTYLE
  5
468
102
{ACAD_REACTORS
330
463
102
}
330
463
100
AcDbVisualStyle
  2
2dWireframe
 70
     4
177
     3
291
     0
 70
    58
 90
        0
176
     1
 90
        2
176
     1
 90
        0
176
     1
 90
        0
176
     1
 40
0.6
176
     1
 40
30.0
176
     1
 62
     7
420
 16777215
176
     1
 90
        1
176
     1
 90
        4
176
     1
 62
     7
176
     1
 62
   257
176
     1
 90
        1
176
     1
 90
        1
176
     1
 40
1.0
176
     1
 90
        0
176
     1
 62
   257
176
     1
 40
1.0
176
     1
 90
        1
176
     1
 90
        6
176
     1
 90
        2
176
     1
 62
     7
176
     1
 90
        5
176
     1
 90
        0
176
     1
 90
        0
176
     1
290
     0
176
     1
 90
        1
176
     1
 40
0.0
176
     1
 90
        0
176
     1
290
     1
176
     1
290
     1
176
     1
290
     0
176
     1
290
     0
176
     1
290
     0
176
     1
290
     0
176
     1
290
     0
176
     1
290
     0
176
     1
290
     0
176
     1
 90
       50
176
     1
 40
0.0
176
     1
 40
1.0
176
     1
 90
        0
176
     1
 62
    18
420
        0
176
     1
 90
       50
176
     1
 90
        3
176
     1
 62
     5
420
      255
176
     1
290
     0
176
     1
 90
       50
176
     1
 90
       50
176
     1
 90
       50
176
     1
290
     0
176
     1
 90
       50
176
     1
 62
   256
176
     0
 40
1.0
176
     0
 90
        2
176
     1
  1
strokes_ogs.tif
176
     1
290
     0
176
     1
 40
1.0
176
     1
 40
1.0
176
     1
  0
VISUALSTYLE
  5
46B
102
{ACAD_REACTORS
330
463
102
}
330
463
100
AcDbVisualStyle
  2
Basic
 70
     7
177
     3
291
     1
 70
    58
 90
        1
176
     1
 90
        0
176
     1
 90
        1
176
     1
 90
        0
176
     1
 40
0.6
176
     1
 40
30.0
176
     1
 62
     7
420
 16777215
176
     1
 90
        0
176
     1
 90
        4
176
     1
 62
     7
176
     1
 62
   257
176
     1
 90
        1
176
     1
 90
        1
176
     1
 40
1.0
176
     1
 90
        8
176
     1
 62
     7
176
     1
 40
1.0
176
     1
 90
        1
176
     1
 90
        6
176
     1
 90
        2
176
     1
 62
     7
176
     1
 90
        5
176
     1
 90
        0
176
     1
 90
        0
176
     1
290
     0
176
     1
 90
        1
176
     1
 40
0.0
176
     1
 90
        0
176
     1
290
     0
176
     1
290
     1
176
     1
290
     1
176
     1
290
     0
176
     1
290
     0
176
     1
290
     0
176
     1
290
     0
176
     1
290
     0
176
     1
290
     0
176
     1
 90
       50
176
     1
 40
0.0
176
     1
 40
1.0
176
     1
 90
        0
176
     1
 62
    18
420
        0
176
     1
 90
       50
176
     1
 90
        3
176
     1
 62
     5
420
      255
176
     1
290
     0
176
     1
 90
       50
176
     1
 90
       50
176
     1
 90
       50
176
     1
290
     0
176
     1
 90
       50
176
     1
 62
   256
176
     0
 40
1.0
176
     0
 90
        2
176
     1
  1
strokes_ogs.tif
176
     1
290
     0
176
     1
 40
1.0
176
     1
 40
1.0
176
     1
  0
VISUALSTYLE
  5
46F
102
{ACAD_REACTORS
330
463
102
}
330
463
100
AcDbVisualStyle
  2
Brighten
 70
    12
177
     3
291
     1
 70
    58
 90
        2
176
     1
 90
        2
176
     1
 90
        0
176
     1
 90
        0
176
     1
 40
0.6
176
     1
 40
30.0
176
     1
 62
     7
420
 16777215
176
     1
 90
        1
176
     1
 90
        4
176
     1
 62
     7
176
     1
 62
   257
176
     1
 90
        1
176
     1
 90
        1
176
     1
 40
1.0
176
     1
 90
        8
176
     1
 62
     7
176
     1
 40
1.0
176
     1
 90
        1
176
     1
 90
        6
176
     1
 90
        2
176
     1
 62
     7
176
     1
 90
        5
176
     1
 90
        0
176
     1
 90
        0
176
     1
290
     0
176
     1
 90
        1
176
     1
 40
50.0
176
     1
 90
        0
176
     1
290
     0
176
     1
290
     1
176
     1
290
     1
176
     1
290
     0
176
     1
290
     0
176
     1
290
     0
176
     1
290
     0
176
     1
290
     0
176
     1
290
     0
176
     1
 90
       50
176
     1
 40
0.0
176
     1
 40
1.0
176
     1
 90
        0
176
     1
 62
    18
420
        0
176
     1
 90
       50
176
     1
 90
        3
176
     1
 62
     5
420
      255
176
     1
290
     0
176
     1
 90
       50
176
     1
 90
       50
176
     1
 90
       50
176
     1
290
     0
176
     1
 90
       50
176
     1
 62
   256
176
     0
 40
1.0
176
     0
 90
        2
176
     1
  1
strokes_ogs.tif
176
     1
290
     0
176
     1
 40
1.0
176
     1
 40
1.0
176
     1
  0
VISUALSTYLE
  5
473
102
{ACAD_REACTORS
330
463
102
}
330
463
100
AcDbVisualStyle
  2
ColorChange
 70
    16
177
     3
291
     1
 70
    58
 90
        2
176
     1
 90
        2
176
     1
 90
        3
176
     1
 90
        0
176
     1
 40
0.6
176
     1
 40
30.0
176
     1
 62
     8
420
  8421504
176
     1
 90
        1
176
     1
 90
        4
176
     1
 62
     7
176
     1
 62
   257
176
     1
 90
        1
176
     1
 90
        1
176
     1
 40
1.0
176
     1
 90
        8
176
     1
 62
     8
420
  8421504
176
     1
 40
1.0
176
     1
 90
        1
176
     1
 90
        6
176
     1
 90
        2
176
     1
 62
     7
176
     1
 90
        5
176
     1
 90
        0
176
     1
 90
        0
176
     1
290
     0
176
     1
 90
        1
176
     1
 40
0.0
176
     1
 90
        0
176
     1
290
     0
176
     1
290
     1
176
     1
290
     1
176
     1
290
     0
176
     1
290
     0
176
     1
290
     0
176
     1
290
     0
176
     1
290
     0
176
     1
290
     0
176
     1
 90
       50
176
     1
 40
0.0
176
     1
 40
1.0
176
     1
 90
        0
176
     1
 62
    18
420
        0
176
     1
 90
       50
176
     1
 90
        3
176
     1
 62
     5
420
      255
176
     1
290
     0
176
     1
 90
       50
176
     1
 90
       50
176
     1
 90
       50
176
     1
290
     0
176
     1
 90
       50
176
     1
 62
   256
176
     0
 40
1.0
176
     0
 90
        2
176
     1
  1
strokes_ogs.tif
176
     1
290
     0
176
     1
 40
1.0
176
     1
 40
1.0
176
     1
  0
VISUALSTYLE
  5
46D
102
{ACAD_REACTORS
330
463
102
}
330
463
100
AcDbVisualStyle
  2
Conceptual
 70
     9
177
     3
291
     0
 70
    58
 90
        3
176
     1
 90
        2
176
     1
 90
        0
176
     1
 90
        0
176
     1
 40
0.6
176
     1
 40
30.0
176
     1
 62
     7
420
 16777215
176
     1
 90
        2
176
     1
 90
        2
176
     1
 62
     7
176
     1
 62
   257
176
     1
 90
        1
176
     1
 90
        1
176
     1
 40
179.0
176
     1
 90
        8
176
     1
 62
     7
176
     1
 40
1.0
176
     1
 90
        1
176
     1
 90
        6
176
     1
 90
        2
176
     1
 62
     7
176
     1
 90
        3
176
     1
 90
        0
176
     1
 90
        0
176
     1
290
     0
176
     1
 90
        1
176
     1
 40
0.0
176
     1
 90
        0
176
     1
290
     0
176
     1
290
     1
176
     1
290
     1
176
     1
290
     0
176
     1
290
     0
176
     1
290
     0
176
     1
290
     0
176
     1
290
     0
176
     1
290
     0
176
     1
 90
       50
176
     1
 40
0.0
176
     1
 40
1.0
176
     1
 90
        0
176
     1
 62
    18
420
        0
176
     1
 90
       50
176
     1
 90
        3
176
     1
 62
     5
420
      255
176
     1
290
     0
176
     1
 90
       50
176
     1
 90
       50
176
     1
 90
       50
176
     1
290
     0
176
     1
 90
       50
176
     1
 62
   256
176
     0
 40
1.0
176
     0
 90
        2
176
     1
  1
strokes_ogs.tif
176
     1
290
     0
176
     1
 40
1.0
176
     1
 40
1.0
176
     1
  0
VISUALSTYLE
  5
46E
102
{ACAD_REACTORS
330
463
102
}
330
463
100
AcDbVisualStyle
  2
Dim
 70
    11
177
     3
291
     1
 70
    58
 90
        2
176
     1
 90
        2
176
     1
 90
        0
176
     1
 90
        0
176
     1
 40
0.6
176
     1
 40
30.0
176
     1
 62
     7
420
 16777215
176
     1
 90
        1
176
     1
 90
        4
176
     1
 62
     7
176
     1
 62
   257
176
     1
 90
        1
176
     1
 90
        1
176
     1
 40
1.0
176
     1
 90
        8
176
     1
 62
     7
176
     1
 40
1.0
176
     1
 90
        1
176
     1
 90
        6
176
     1
 90
        2
176
     1
 62
     7
176
     1
 90
        5
176
     1
 90
        0
176
     1
 90
        0
176
     1
290
     0
176
     1
 90
        1
176
     1
 40
-50.0
176
     1
 90
        0
176
     1
290
     0
176
     1
290
     1
176
     1
290
     1
176
     1
290
     0
176
     1
290
     0
176
     1
290
     0
176
     1
290
     0
176
     1
290
     0
176
     1
290
     0
176
     1
 90
       50
176
     1
 40
0.0
176
     1
 40
1.0
176
     1
 90
        0
176
     1
 62
    18
420
        0
176
     1
 90
       50
176
     1
 90
        3
176
     1
 62
     5
420
      255
176
     1
290
     0
176
     1
 90
       50
176
     1
 90
       50
176
     1
 90
       50
176
     1
290
     0
176
     1
 90
       50
176
     1
 62
   256
176
     0
 40
1.0
176
     0
 90
        2
176
     1
  1
strokes_ogs.tif
176
     1
290
     0
176
     1
 40
1.0
176
     1
 40
1.0
176
     1
  0
VISUALSTYLE
  5
476
102
{ACAD_REACTORS
330
463
102
}
330
463
100
AcDbVisualStyle
  2
EdgeColorOff
 70
    22
177
     3
291
     1
 70
    58
 90
        2
176
     0
 90
        2
176
     0
 90
        0
176
     0
 90
        0
176
     0
 40
0.6
176
     0
 40
30.0
176
     0
 62
     7
420
 16777215
176
     0
 90
        1
176
     0
 90
        4
176
     0
 62
     7
176
     0
 62
   257
176
     0
 90
        1
176
     0
 90
        1
176
     0
 40
1.0
176
     0
 90
        8
176
     2
 62
     7
176
     0
 40
1.0
176
     0
 90
        1
176
     0
 90
        6
176
     0
 90
        2
176
     0
 62
     7
176
     0
 90
        5
176
     0
 90
        0
176
     0
 90
        0
176
     0
290
     0
176
     0
 90
        1
176
     0
 40
0.0
176
     0
 90
        0
176
     0
290
     0
176
     0
290
     1
176
     0
290
     1
176
     0
290
     0
176
     0
290
     0
176
     0
290
     0
176
     0
290
     0
176
     0
290
     0
176
     0
290
     0
176
     0
 90
       50
176
     0
 40
0.0
176
     0
 40
1.0
176
     0
 90
        0
176
     0
 62
    18
420
        0
176
     0
 90
       50
176
     0
 90
        3
176
     0
 62
     5
420
      255
176
     0
290
     0
176
     0
 90
       50
176
     0
 90
       50
176
     0
 90
       50
176
     0
290
     0
176
     0
 90
       50
176
     0
 62
   256
176
     0
 40
1.0
176
     0
 90
        2
176
     0
  1
strokes_ogs.tif
176
     0
290
     0
176
     0
 40
1.0
176
     0
 40
1.0
176
     0
  0
VISUALSTYLE
  5
472
102
{ACAD_REACTORS
330
463
102
}
330
463
100
AcDbVisualStyle
  2
Facepattern
 70
    15
177
     3
291
     1
 70
    58
 90
        2
176
     1
 90
        2
176
     1
 90
        0
176
     1
 90
        0
176
     1
 40
0.6
176
     1
 40
30.0
176
     1
 62
     7
420
 16777215
176
     1
 90
        1
176
     1
 90
        4
176
     1
 62
     7
176
     1
 62
   257
176
     1
 90
        1
176
     1
 90
        1
176
     1
 40
1.0
176
     1
 90
        8
176
     1
 62
     7
176
     1
 40
1.0
176
     1
 90
        1
176
     1
 90
        6
176
     1
 90
        2
176
     1
 62
     7
176
     1
 90
        5
176
     1
 90
        0
176
     1
 90
        0
176
     1
290
     0
176
     1
 90
        1
176
     1
 40
0.0
176
     1
 90
        0
176
     1
290
     0
176
     1
290
     1
176
     1
290
     1
176
     1
290
     0
176
     1
290
     0
176
     1
290
     0
176
     1
290
     0
176
     1
290
     0
176
     1
290
     0
176
     1
 90
       50
176
     1
 40
0.0
176
     1
 40
1.0
176
     1
 90
        0
176
     1
 62
    18
420
        0
176
     1
 90
       50
176
     1
 90
        3
176
     1
 62
     5
420
      255
176
     1
290
     0
176
     1
 90
       50
176
     1
 90
       50
176
     1
 90
       50
176
     1
290
     0
176
     1
 90
       50
176
     1
 62
   256
176
     0
 40
1.0
176
     0
 90
        2
176
     1
  1
strokes_ogs.tif
176
     1
290
     0
176
     1
 40
1.0
176
     1
 40
1.0
176
     1
  0
VISUALSTYLE
  5
464
102
{ACAD_REACTORS
330
463
102
}
330
463
100
AcDbVisualStyle
  2
Flat
 70
     0
177
     3
291
     1
 70
    58
 90
        2
176
     1
 90
        1
176
     1
 90
        1
176
     1
 90
        2
176
     1
 40
0.6
176
     1
 40
30.0
176
     1
 62
     7
420
 16777215
176
     1
 90
        0
176
     1
 90
        0
176
     1
 62
     7
176
     1
 62
   257
176
     1
 90
        1
176
     1
 90
        1
176
     1
 40
1.0
176
     1
 90
        8
176
     1
 62
     7
176
     1
 40
1.0
176
     1
 90
        1
176
     1
 90
        6
176
     1
 90
        2
176
     1
 62
     7
176
     1
 90
        5
176
     1
 90
        0
176
     1
 90
        0
176
     1
290
     0
176
     1
 90
       13
176
     1
 40
0.0
176
     1
 90
        0
176
     1
290
     0
176
     1
290
     1
176
     1
290
     1
176
     1
290
     0
176
     1
290
     0
176
     1
290
     0
176
     1
290
     0
176
     1
290
     0
176
     1
290
     0
176
     1
 90
       50
176
     1
 40
0.0
176
     1
 40
1.0
176
     1
 90
        0
176
     1
 62
    18
420
        0
176
     1
 90
       50
176
     1
 90
        3
176
     1
 62
     5
420
      255
176
     1
290
     0
176
     1
 90
       50
176
     1
 90
       50
176
     1
 90
       50
176
     1
290
     0
176
     1
 90
       50
176
     1
 62
   256
176
     0
 40
1.0
176
     0
 90
        2
176
     1
  1
strokes_ogs.tif
176
     1
290
     0
176
     1
 40
1.0
176
     1
 40
1.0
176
     1
  0
VISUALSTYLE
  5
465
102
{ACAD_REACTORS
330
463
102
}
330
463
100
AcDbVisualStyle
  2
FlatWithEdges
 70
     1
177
     3
291
     1
 70
    58
 90
        2
176
     1
 90
        1
176
     1
 90
        1
176
     1
 90
        2
176
     1
 40
0.6
176
     1
 40
30.0
176
     1
 62
     7
420
 16777215
176
     1
 90
        1
176
     1
 90
        0
176
     1
 62
     7
176
     1
 62
   257
176
     1
 90
        1
176
     1
 90
        1
176
     1
 40
1.0
176
     1
 90
        0
176
     1
 62
   257
176
     1
 40
1.0
176
     1
 90
        1
176
     1
 90
        6
176
     1
 90
        2
176
     1
 62
     7
176
     1
 90
        5
176
     1
 90
        0
176
     1
 90
        0
176
     1
290
     0
176
     1
 90
       13
176
     1
 40
0.0
176
     1
 90
        0
176
     1
290
     0
176
     1
290
     1
176
     1
290
     1
176
     1
290
     0
176
     1
290
     0
176
     1
290
     0
176
     1
290
     0
176
     1
290
     0
176
     1
290
     0
176
     1
 90
       50
176
     1
 40
0.0
176
     1
 40
1.0
176
     1
 90
        0
176
     1
 62
    18
420
        0
176
     1
 90
       50
176
     1
 90
        3
176
     1
 62
     5
420
      255
176
     1
290
     0
176
     1
 90
       50
176
     1
 90
       50
176
     1
 90
       50
176
     1
290
     0
176
     1
 90
       50
176
     1
 62
   256
176
     0
 40
1.0
176
     0
 90
        2
176
     1
  1
strokes_ogs.tif
176
     1
290
     0
176
     1
 40
1.0
176
     1
 40
1.0
176
     1
  0
VISUALSTYLE
  5
466
102
{ACAD_REACTORS
330
463
102
}
330
463
100
AcDbVisualStyle
  2
Gouraud
 70
     2
177
     3
291
     1
 70
    58
 90
        2
176
     1
 90
        2
176
     1
 90
        1
176
     1
 90
        2
176
     1
 40
0.6
176
     1
 40
30.0
176
     1
 62
     7
420
 16777215
176
     1
 90
        0
176
     1
 90
        0
176
     1
 62
     7
176
     1
 62
   257
176
     1
 90
        1
176
     1
 90
        1
176
     1
 40
1.0
176
     1
 90
        0
176
     1
 62
     7
176
     1
 40
1.0
176
     1
 90
        1
176
     1
 90
        6
176
     1
 90
        2
176
     1
 62
     7
176
     1
 90
        5
176
     1
 90
        0
176
     1
 90
        0
176
     1
290
     0
176
     1
 90
       13
176
     1
 40
0.0
176
     1
 90
        0
176
     1
290
     0
176
     1
290
     1
176
     1
290
     1
176
     1
290
     0
176
     1
290
     0
176
     1
290
     0
176
     1
290
     0
176
     1
290
     0
176
     1
290
     0
176
     1
 90
       50
176
     1
 40
0.0
176
     1
 40
1.0
176
     1
 90
        0
176
     1
 62
    18
420
        0
176
     1
 90
       50
176
     1
 90
        3
176
     1
 62
     5
420
      255
176
     1
290
     0
176
     1
 90
       50
176
     1
 90
       50
176
     1
 90
       50
176
     1
290
     0
176
     1
 90
       50
176
     1
 62
   256
176
     0
 40
1.0
176
     0
 90
        2
176
     1
  1
strokes_ogs.tif
176
     1
290
     0
176
     1
 40
1.0
176
     1
 40
1.0
176
     1
  0
VISUALSTYLE
  5
467
102
{ACAD_REACTORS
330
463
102
}
330
463
100
AcDbVisualStyle
  2
GouraudWithEdges
 70
     3
177
     3
291
     1
 70
    58
 90
        2
176
     1
 90
        2
176
     1
 90
        1
176
     1
 90
        2
176
     1
 40
0.6
176
     1
 40
30.0
176
     1
 62
     7
420
 16777215
176
     1
 90
        1
176
     1
 90
        0
176
     1
 62
     7
176
     1
 62
   257
176
     1
 90
        1
176
     1
 90
        1
176
     1
 40
1.0
176
     1
 90
        0
176
     1
 62
   257
176
     1
 40
1.0
176
     1
 90
        1
176
     1
 90
        6
176
     1
 90
        2
176
     1
 62
     7
176
     1
 90
        5
176
     1
 90
        0
176
     1
 90
        0
176
     1
290
     0
176
     1
 90
       13
176
     1
 40
0.0
176
     1
 90
        0
176
     1
290
     0
176
     1
290
     1
176
     1
290
     1
176
     1
290
     0
176
     1
290
     0
176
     1
290
     0
176
     1
290
     0
176
     1
290
     0
176
     1
290
     0
176
     1
 90
       50
176
     1
 40
0.0
176
     1
 40
1.0
176
     1
 90
        0
176
     1
 62
    18
420
        0
176
     1
 90
       50
176
     1
 90
        3
176
     1
 62
     5
420
      255
176
     1
290
     0
176
     1
 90
       50
176
     1
 90
       50
176
     1
 90
       50
176
     1
290
     0
176
     1
 90
       50
176
     1
 62
   256
176
     0
 40
1.0
176
     0
 90
        2
176
     1
  1
strokes_ogs.tif
176
     1
290
     0
176
     1
 40
1.0
176
     1
 40
1.0
176
     1
  0
VISUALSTYLE
  5
46A
102
{ACAD_REACTORS
330
463
102
}
330
463
100
AcDbVisualStyle
  2
Hidden
 70
     6
177
     3
291
     0
 70
    58
 90
        1
176
     1
 90
        2
176
     1
 90
        2
176
     1
 90
        0
176
     1
 40
0.6
176
     1
 40
30.0
176
     1
 62
     7
420
 16777215
176
     1
 90
        2
176
     1
 90
        2
176
     1
 62
     7
176
     1
 62
   257
176
     1
 90
        2
176
     1
 90
        1
176
     1
 40
40.0
176
     1
 90
        0
176
     1
 62
   257
176
     1
 40
1.0
176
     1
 90
        1
176
     1
 90
        6
176
     1
 90
        2
176
     1
 62
     7
176
     1
 90
        3
176
     1
 90
        0
176
     1
 90
        0
176
     1
290
     0
176
     1
 90
        1
176
     1
 40
0.0
176
     1
 90
        0
176
     1
290
     0
176
     1
290
     1
176
     1
290
     1
176
     1
290
     0
176
     1
290
     0
176
     1
290
     0
176
     1
290
     0
176
     1
290
     0
176
     1
290
     0
176
     1
 90
       50
176
     1
 40
0.0
176
     1
 40
1.0
176
     1
 90
        0
176
     1
 62
    18
420
        0
176
     1
 90
       50
176
     1
 90
        3
176
     1
 62
     5
420
      255
176
     1
290
     0
176
     1
 90
       50
176
     1
 90
       50
176
     1
 90
       50
176
     1
290
     0
176
     1
 90
       50
176
     1
 62
   256
176
     0
 40
1.0
176
     0
 90
        2
176
     1
  1
strokes_ogs.tif
176
     1
290
     0
176
     1
 40
1.0
176
     1
 40
1.0
176
     1
  0
VISUALSTYLE
  5
474
102
{ACAD_REACTORS
330
463
102
}
330
463
100
AcDbVisualStyle
  2
JitterOff
 70
    20
177
     3
291
     1
 70
    58
 90
        2
176
     0
 90
        2
176
     0
 90
        0
176
     0
 90
        0
176
     0
 40
0.6
176
     0
 40
30.0
176
     0
 62
     7
420
 16777215
176
     0
 90
        1
176
     0
 90
        4
176
     0
 62
     7
176
     0
 62
   257
176
     0
 90
        1
176
     0
 90
        1
176
     0
 40
1.0
176
     0
 90
       10
176
     2
 62
     7
176
     0
 40
1.0
176
     0
 90
        1
176
     0
 90
        6
176
     0
 90
        2
176
     0
 62
     7
176
     0
 90
        5
176
     0
 90
        0
176
     0
 90
        0
176
     0
290
     0
176
     0
 90
        1
176
     0
 40
0.0
176
     0
 90
        0
176
     0
290
     0
176
     0
290
     1
176
     0
290
     1
176
     0
290
     0
176
     0
290
     0
176
     0
290
     0
176
     0
290
     0
176
     0
290
     0
176
     0
290
     0
176
     0
 90
       50
176
     0
 40
0.0
176
     0
 40
1.0
176
     0
 90
        0
176
     0
 62
    18
420
        0
176
     0
 90
       50
176
     0
 90
        3
176
     0
 62
     5
420
      255
176
     0
290
     0
176
     0
 90
       50
176
     0
 90
       50
176
     0
 90
       50
176
     0
290
     0
176
     0
 90
       50
176
     0
 62
   256
176
     0
 40
1.0
176
     0
 90
        2
176
     0
  1
strokes_ogs.tif
176
     0
290
     0
176
     0
 40
1.0
176
     0
 40
1.0
176
     0
  0
VISUALSTYLE
  5
471
102
{ACAD_REACTORS
330
463
102
}
330
463
100
AcDbVisualStyle
  2
Linepattern
 70
    14
177
     3
291
     1
 70
    58
 90
        2
176
     1
 90
        2
176
     1
 90
        0
176
     1
 90
        0
176
     1
 40
0.6
176
     1
 40
30.0
176
     1
 62
     7
420
 16777215
176
     1
 90
        1
176
     1
 90
        4
176
     1
 62
     7
176
     1
 62
   257
176
     1
 90
        7
176
     1
 90
        7
176
     1
 40
1.0
176
     1
 90
        8
176
     1
 62
     7
176
     1
 40
1.0
176
     1
 90
        1
176
     1
 90
        6
176
     1
 90
        2
176
     1
 62
     7
176
     1
 90
        5
176
     1
 90
        0
176
     1
 90
        0
176
     1
290
     0
176
     1
 90
        1
176
     1
 40
0.0
176
     1
 90
        0
176
     1
290
     0
176
     1
290
     1
176
     1
290
     1
176
     1
290
     0
176
     1
290
     0
176
     1
290
     0
176
     1
290
     0
176
     1
290
     0
176
     1
290
     0
176
     1
 90
       50
176
     1
 40
0.0
176
     1
 40
1.0
176
     1
 90
        0
176
     1
 62
    18
420
        0
176
     1
 90
       50
176
     1
 90
        3
176
     1
 62
     5
420
      255
176
     1
290
     0
176
     1
 90
       50
176
     1
 90
       50
176
     1
 90
       50
176
     1
290
     0
176
     1
 90
       50
176
     1
 62
   256
176
     0
 40
1.0
176
     0
 90
        2
176
     1
  1
strokes_ogs.tif
176
     1
290
     0
176
     1
 40
1.0
176
     1
 40
1.0
176
     1
  0
VISUALSTYLE
  5
475
102
{ACAD_REACTORS
330
463
102
}
330
463
100
AcDbVisualStyle
  2
OverhangOff
 70
    21
177
     3
291
     1
 70
    58
 90
        2
176
     0
 90
        2
176
     0
 90
        0
176
     0
 90
        0
176
     0
 40
0.6
176
     0
 40
30.0
176
     0
 62
     7
420
 16777215
176
     0
 90
        1
176
     0
 90
        4
176
     0
 62
     7
176
     0
 62
   257
176
     0
 90
        1
176
     0
 90
        1
176
     0
 40
1.0
176
     0
 90
        9
176
     2
 62
     7
176
     0
 40
1.0
176
     0
 90
        1
176
     0
 90
        6
176
     0
 90
        2
176
     0
 62
     7
176
     0
 90
        5
176
     0
 90
        0
176
     0
 90
        0
176
     0
290
     0
176
     0
 90
        1
176
     0
 40
0.0
176
     0
 90
        0
176
     0
290
     0
176
     0
290
     1
176
     0
290
     1
176
     0
290
     0
176
     0
290
     0
176
     0
290
     0
176
     0
290
     0
176
     0
290
     0
176
     0
290
     0
176
     0
 90
       50
176
     0
 40
0.0
176
     0
 40
1.0
176
     0
 90
        0
176
     0
 62
    18
420
        0
176
     0
 90
       50
176
     0
 90
        3
176
     0
 62
     5
420
      255
176
     0
290
     0
176
     0
 90
       50
176
     0
 90
       50
176
     0
 90
       50
176
     0
290
     0
176
     0
 90
       50
176
     0
 62
   256
176
     0
 40
1.0
176
     0
 90
        2
176
     0
  1
strokes_ogs.tif
176
     0
290
     0
176
     0
 40
1.0
176
     0
 40
1.0
176
     0
  0
VISUALSTYLE
  5
46C
102
{ACAD_REACTORS
330
463
102
}
330
463
100
AcDbVisualStyle
  2
Realistic
 70
     8
177
     3
291
     0
 70
    58
 90
        2
176
     1
 90
        3
176
     1
 90
        0
176
     1
 90
        2
176
     1
 40
0.6
176
     1
 40
30.0
176
     1
 62
     7
420
 16777215
176
     1
 90
        0
176
     1
 90
        0
176
     1
 62
     7
176
     1
 62
   257
176
     1
 90
        1
176
     1
 90
        1
176
     1
 40
1.0
176
     1
 90
        8
176
     1
 62
   257
176
     1
 40
1.0
176
     1
 90
        1
176
     1
 90
        6
176
     1
 90
        2
176
     1
 62
     7
176
     1
 90
        3
176
     1
 90
        0
176
     1
 90
        0
176
     1
290
     0
176
     1
 90
       13
176
     1
 40
0.0
176
     1
 90
        0
176
     1
290
     0
176
     1
290
     1
176
     1
290
     1
176
     1
290
     0
176
     1
290
     0
176
     1
290
     0
176
     1
290
     0
176
     1
290
     0
176
     1
290
     0
176
     1
 90
       50
176
     1
 40
0.0
176
     1
 40
1.0
176
     1
 90
        0
176
     1
 62
    18
420
        0
176
     1
 90
       50
176
     1
 90
        3
176
     1
 62
     5
420
      255
176
     1
290
     0
176
     1
 90
       50
176
     1
 90
       50
176
     1
 90
       50
176
     1
290
     0
176
     1
 90
       50
176
     1
 62
   256
176
     0
 40
1.0
176
     0
 90
        2
176
     1
  1
strokes_ogs.tif
176
     1
290
     0
176
     1
 40
1.0
176
     1
 40
1.0
176
     1
  0
VISUALSTYLE
  5
47B
102
{ACAD_REACTORS
330
463
102
}
330
463
100
AcDbVisualStyle
  2
Shaded
 70
    27
177
     3
291
     0
 70
    58
 90
        2
176
     1
 90
        2
176
     1
 90
        1
176
     1
 90
        2
176
     1
 40
0.6
176
     1
 40
30.0
176
     1
 62
     7
420
 16777215
176
     1
 90
        0
176
     1
 90
        4
176
     1
 62
     7
176
     1
 62
   257
176
     1
 90
        1
176
     1
 90
        1
176
     1
 40
1.0
176
     1
 90
        8
176
     1
 62
   257
176
     1
 40
1.0
176
     1
 90
        1
176
     1
 90
        6
176
     1
 90
        2
176
     1
 62
     8
420
  7895160
176
     1
 90
        3
176
     1
 90
        0
176
     1
 90
        0
176
     1
290
     0
176
     1
 90
        5
176
     1
 40
0.0
176
     1
 90
        0
176
     1
290
     0
176
     1
290
     1
176
     1
290
     1
176
     1
290
     0
176
     1
290
     0
176
     1
290
     0
176
     1
290
     0
176
     1
290
     0
176
     1
290
     0
176
     1
 90
       50
176
     1
 40
0.0
176
     1
 40
1.0
176
     1
 90
        0
176
     1
 62
    18
420
        0
176
     1
 90
       50
176
     1
 90
        3
176
     1
 62
     5
420
      255
176
     1
290
     0
176
     1
 90
       50
176
     1
 90
       50
176
     1
 90
       50
176
     1
290
     0
176
     1
 90
       50
176
     1
 62
   256
176
     0
 40
1.0
176
     0
 90
        2
176
     1
  1
strokes_ogs.tif
176
     1
290
     0
176
     1
 40
1.0
176
     1
 40
1.0
176
     1
  0
VISUALSTYLE
  5
47A
102
{ACAD_REACTORS
330
463
102
}
330
463
100
AcDbVisualStyle
  2
Shaded with edges
 70
    26
177
     3
291
     0
 70
    58
 90
        2
176
     1
 90
        2
176
     1
 90
        1
176
     1
 90
        2
176
     1
 40
0.6
176
     1
 40
30.0
176
     1
 62
     7
420
 16777215
176
     1
 90
        1
176
     1
 90
       10
176
     1
 62
     7
176
     1
 62
   257
176
     1
 90
        2
176
     1
 90
        1
176
     1
 40
1.0
176
     1
 90
        8
176
     1
 62
   257
176
     1
 40
1.0
176
     1
 90
        1
176
     1
 90
        6
176
     1
 90
        2
176
     1
 62
     7
176
     1
 90
        3
176
     1
 90
        0
176
     1
 90
        0
176
     1
290
     0
176
     1
 90
        5
176
     1
 40
0.0
176
     1
 90
        0
176
     1
290
     0
176
     1
290
     1
176
     1
290
     1
176
     1
290
     0
176
     1
290
     0
176
     1
290
     0
176
     1
290
     0
176
     1
290
     0
176
     1
290
     0
176
     1
 90
       50
176
     1
 40
0.0
176
     1
 40
1.0
176
     1
 90
        0
176
     1
 62
    18
420
        0
176
     1
 90
       50
176
     1
 90
        3
176
     1
 62
     5
420
      255
176
     1
290
     0
176
     1
 90
       50
176
     1
 90
       50
176
     1
 90
       50
176
     1
290
     0
176
     1
 90
       50
176
     1
 62
   256
176
     0
 40
1.0
176
     0
 90
        2
176
     1
  1
strokes_ogs.tif
176
     1
290
     0
176
     1
 40
1.0
176
     1
 40
1.0
176
     1
  0
VISUALSTYLE
  5
477
102
{ACAD_REACTORS
330
463
102
}
330
463
100
AcDbVisualStyle
  2
Shades of Gray
 70
    23
177
     3
291
     0
 70
    58
 90
        2
176
     1
 90
        2
176
     1
 90
        3
176
     1
 90
        0
176
     1
 40
0.6
176
     1
 40
30.0
176
     1
 62
     7
420
 16777215
176
     1
 90
        2
176
     1
 90
        2
176
     1
 62
     7
176
     1
 62
     7
176
     1
 90
        1
176
     1
 90
        1
176
     1
 40
40.0
176
     1
 90
        8
176
     1
 62
     7
176
     1
 40
1.0
176
     1
 90
        1
176
     1
 90
        6
176
     1
 90
        2
176
     1
 62
     7
176
     1
 90
        3
176
     1
 90
        0
176
     1
 90
        0
176
     1
290
     0
176
     1
 90
        1
176
     1
 40
0.0
176
     1
 90
        0
176
     1
290
     0
176
     1
290
     1
176
     1
290
     1
176
     1
290
     0
176
     1
290
     0
176
     1
290
     0
176
     1
290
     0
176
     1
290
     0
176
     1
290
     0
176
     1
 90
       50
176
     1
 40
0.0
176
     1
 40
1.0
176
     1
 90
        0
176
     1
 62
    18
420
        0
176
     1
 90
       50
176
     1
 90
        3
176
     1
 62
     5
420
      255
176
     1
290
     0
176
     1
 90
       50
176
     1
 90
       50
176
     1
 90
       50
176
     1
290
     0
176
     1
 90
       50
176
     1
 62
   256
176
     0
 40
1.0
176
     0
 90
        2
176
     1
  1
strokes_ogs.tif
176
     1
290
     0
176
     1
 40
1.0
176
     1
 40
1.0
176
     1
  0
VISUALSTYLE
  5
478
102
{ACAD_REACTORS
330
463
102
}
330
463
100
AcDbVisualStyle
  2
Sketchy
 70
    24
177
     3
291
     0
 70
    58
 90
        1
176
     1
 90
        2
176
     1
 90
        2
176
     1
 90
        0
176
     1
 40
0.6
176
     1
 40
30.0
176
     1
 62
     7
420
 16777215
176
     1
 90
        2
176
     1
 90
        2
176
     1
 62
     7
176
     1
 62
     7
176
     1
 90
        1
176
     1
 90
        1
176
     1
 40
40.0
176
     1
 90
       11
176
     1
 62
     7
176
     1
 40
1.0
176
     1
 90
        1
176
     1
 90
        6
176
     1
 90
        2
176
     1
 62
     7
176
     1
 90
        6
176
     1
 90
        0
176
     1
 90
        0
176
     1
290
     0
176
     1
 90
        1
176
     1
 40
0.0
176
     1
 90
        0
176
     1
290
     0
176
     1
290
     1
176
     1
290
     1
176
     1
290
     0
176
     1
290
     0
176
     1
290
     0
176
     1
290
     0
176
     1
290
     0
176
     1
290
     0
176
     1
 90
       50
176
     1
 40
0.0
176
     1
 40
1.0
176
     1
 90
        0
176
     1
 62
    18
420
        0
176
     1
 90
       50
176
     1
 90
        3
176
     1
 62
     5
420
      255
176
     1
290
     0
176
     1
 90
       50
176
     1
 90
       50
176
     1
 90
       50
176
     1
290
     0
176
     1
 90
       50
176
     1
 62
   256
176
     0
 40
1.0
176
     0
 90
        2
176
     1
  1
strokes_ogs.tif
176
     1
290
     0
176
     1
 40
1.0
176
     1
 40
1.0
176
     1
  0
VISUALSTYLE
  5
470
102
{ACAD_REACTORS
330
463
102
}
330
463
100
AcDbVisualStyle
  2
Thicken
 70
    13
177
     3
291
     1
 70
    58
 90
        2
176
     1
 90
        2
176
     1
 90
        0
176
     1
 90
        0
176
     1
 40
0.6
176
     1
 40
30.0
176
     1
 62
     7
420
 16777215
176
     1
 90
        1
176
     1
 90
        4
176
     1
 62
     7
176
     1
 62
   257
176
     1
 90
        1
176
     1
 90
        1
176
     1
 40
1.0
176
     1
 90
       12
176
     1
 62
     7
176
     1
 40
1.0
176
     1
 90
        1
176
     1
 90
        6
176
     1
 90
        2
176
     1
 62
     7
176
     1
 90
        5
176
     1
 90
        0
176
     1
 90
        0
176
     1
290
     0
176
     1
 90
        1
176
     1
 40
0.0
176
     1
 90
        0
176
     1
290
     0
176
     1
290
     1
176
     1
290
     1
176
     1
290
     0
176
     1
290
     0
176
     1
290
     0
176
     1
290
     0
176
     1
290
     0
176
     1
290
     0
176
     1
 90
       50
176
     1
 40
0.0
176
     1
 40
1.0
176
     1
 90
        0
176
     1
 62
    18
420
        0
176
     1
 90
       50
176
     1
 90
        3
176
     1
 62
     5
420
      255
176
     1
290
     0
176
     1
 90
       50
176
     1
 90
       50
176
     1
 90
       50
176
     1
290
     0
176
     1
 90
       50
176
     1
 62
   256
176
     0
 40
1.0
176
     0
 90
        2
176
     1
  1
strokes_ogs.tif
176
     1
290
     0
176
     1
 40
1.0
176
     1
 40
1.0
176
     1
  0
VISUALSTYLE
  5
469
102
{ACAD_REACTORS
330
463
102
}
330
463
100
AcDbVisualStyle
  2
Wireframe
 70
     5
177
     3
291
     0
 70
    58
 90
        0
176
     1
 90
        2
176
     1
 90
        0
176
     1
 90
        0
176
     1
 40
0.6
176
     1
 40
30.0
176
     1
 62
     7
420
 16777215
176
     1
 90
        1
176
     1
 90
        4
176
     1
 62
     7
176
     1
 62
   257
176
     1
 90
        1
176
     1
 90
        1
176
     1
 40
1.0
176
     1
 90
        0
176
     1
 62
   257
176
     1
 40
1.0
176
     1
 90
        1
176
     1
 90
        6
176
     1
 90
        2
176
     1
 62
     7
176
     1
 90
        3
176
     1
 90
        0
176
     1
 90
        0
176
     1
290
     0
176
     1
 90
        1
176
     1
 40
0.0
176
     1
 90
        0
176
     1
290
     0
176
     1
290
     1
176
     1
290
     1
176
     1
290
     0
176
     1
290
     0
176
     1
290
     0
176
     1
290
     0
176
     1
290
     0
176
     1
290
     0
176
     1
 90
       50
176
     1
 40
0.0
176
     1
 40
1.0
176
     1
 90
        0
176
     1
 62
    18
420
        0
176
     1
 90
       50
176
     1
 90
        3
176
     1
 62
     5
420
      255
176
     1
290
     0
176
     1
 90
       50
176
     1
 90
       50
176
     1
 90
       50
176
     1
290
     0
176
     1
 90
       50
176
     1
 62
   256
176
     0
 40
1.0
176
     0
 90
        2
176
     1
  1
strokes_ogs.tif
176
     1
290
     0
176
     1
 40
1.0
176
     1
 40
1.0
176
     1
  0
VISUALSTYLE
  5
479
102
{ACAD_REACTORS
330
463
102
}
330
463
100
AcDbVisualStyle
  2
X-Ray
 70
    25
177
     3
291
     0
 70
    58
 90
        2
176
     1
 90
        2
176
     1
 90
        1
176
     1
 90
        1
176
     1
 40
0.5
176
     1
 40
30.0
176
     1
 62
     7
420
 16777215
176
     1
 90
        1
176
     1
 90
        0
176
     1
 62
     7
176
     1
 62
   257
176
     1
 90
        1
176
     1
 90
        1
176
     1
 40
1.0
176
     1
 90
        8
176
     1
 62
     7
176
     1
 40
1.0
176
     1
 90
        1
176
     1
 90
        6
176
     1
 90
        2
176
     1
 62
     7
176
     1
 90
        3
176
     1
 90
        0
176
     1
 90
        0
176
     1
290
     0
176
     1
 90
       13
176
     1
 40
0.0
176
     1
 90
        0
176
     1
290
     0
176
     1
290
     1
176
     1
290
     1
176
     1
290
     0
176
     1
290
     0
176
     1
290
     0
176
     1
290
     0
176
     1
290
     0
176
     1
290
     0
176
     1
 90
       50
176
     1
 40
0.0
176
     1
 40
1.0
176
     1
 90
        0
176
     1
 62
    18
420
        0
176
     1
 90
       50
176
     1
 90
        3
176
     1
 62
     5
420
      255
176
     1
290
     0
176
     1
 90
       50
176
     1
 90
       50
176
     1
 90
       50
176
     1
290
     0
176
     1
 90
       50
176
     1
 62
   256
176
     0
 40
1.0
176
     0
 90
        2
176
     1
  1
strokes_ogs.tif
176
     1
290
     0
176
     1
 40
1.0
176
     1
 40
1.0
176
     1
  0
DICTIONARYVAR
  5
486
102
{ACAD_REACTORS
330
485
102
}
330
485
100
DictionaryVariables
280
     0
  1
1:1
  0
DICTIONARYVAR
  5
48B
102
{ACAD_REACTORS
330
485
102
}
330
485
100
DictionaryVariables
280
     0
  1
Standard
  0
DICTIONARYVAR
  5
48A
102
{ACAD_REACTORS
330
485
102
}
330
485
100
DictionaryVariables
280
     0
  1
Standard
  0
DICTIONARYVAR
  5
48C
102
{ACAD_REACTORS
330
485
102
}
330
485
100
DictionaryVariables
280
     0
  1
0
  0
DICTIONARY
  5
487
330
481
100
AcDbDictionary
280
     1
281
     1
  3
ACAD_ROUNDTRIP_2008_TABLESTYLE_CELLSTYLEMAP
360
488
  0
CELLSTYLEMAP
  5
488
102
{ACAD_REACTORS
330
487
102
}
330
487
100
AcDbCellStyleMap
 90
        3
300
CELLSTYLE
  1
TABLEFORMAT_BEGIN
 90
        5
170
     1
 91
        0
 92
    32768
 62
   257
 93
        1
300
CONTENTFORMAT
  1
CONTENTFORMAT_BEGIN
 90
        0
 91
        0
 92
        4
 93
        0
300

 40
0.0
140
1.0
 94
        5
 62
     0
340
11
144
6.0
309
CONTENTFORMAT_END
171
     1
301
MARGIN
  1
CELLMARGIN_BEGIN
 40
1.5
 40
1.5
 40
1.5
 40
1.5
 40
1.5
 40
1.5
309
CELLMARGIN_END
 94
        6
 95
        1
302
GRIDFORMAT
  1
GRIDFORMAT_BEGIN
 90
        0
 91
        1
 62
     0
 92
       -2
340
14
 93
        0
 40
0.045
309
GRIDFORMAT_END
 95
        2
302
GRIDFORMAT
  1
GRIDFORMAT_BEGIN
 90
        0
 91
        1
 62
     0
 92
       -2
340
14
 93
        0
 40
0.045
309
GRIDFORMAT_END
 95
        4
302
GRIDFORMAT
  1
GRIDFORMAT_BEGIN
 90
        0
 91
        1
 62
     0
 92
       -2
340
14
 93
        0
 40
0.045
309
GRIDFORMAT_END
 95
        8
302
GRIDFORMAT
  1
GRIDFORMAT_BEGIN
 90
        0
 91
        1
 62
     0
 92
       -2
340
14
 93
        0
 40
0.045
309
GRIDFORMAT_END
 95
       16
302
GRIDFORMAT
  1
GRIDFORMAT_BEGIN
 90
        0
 91
        1
 62
     0
 92
       -2
340
14
 93
        0
 40
0.045
309
GRIDFORMAT_END
 95
       32
302
GRIDFORMAT
  1
GRIDFORMAT_BEGIN
 90
        0
 91
        1
 62
     0
 92
       -2
340
14
 93
        0
 40
0.045
309
GRIDFORMAT_END
309
TABLEFORMAT_END
  1
CELLSTYLE_BEGIN
 90
        1
 91
        1
300
_TITLE
309
CELLSTYLE_END
300
CELLSTYLE
  1
TABLEFORMAT_BEGIN
 90
        5
170
     1
 91
        0
 92
        0
 62
   257
 93
        1
300
CONTENTFORMAT
  1
CONTENTFORMAT_BEGIN
 90
        0
 91
        0
 92
        4
 93
        0
300

 40
0.0
140
1.0
 94
        5
 62
     0
340
11
144
4.5
309
CONTENTFORMAT_END
171
     1
301
MARGIN
  1
CELLMARGIN_BEGIN
 40
1.5
 40
1.5
 40
1.5
 40
1.5
 40
1.5
 40
1.5
309
CELLMARGIN_END
 94
        6
 95
        1
302
GRIDFORMAT
  1
GRIDFORMAT_BEGIN
 90
        0
 91
        1
 62
     0
 92
       -2
340
14
 93
        0
 40
0.045
309
GRIDFORMAT_END
 95
        2
302
GRIDFORMAT
  1
GRIDFORMAT_BEGIN
 90
        0
 91
        1
 62
     0
 92
       -2
340
14
 93
        0
 40
0.045
309
GRIDFORMAT_END
 95
        4
302
GRIDFORMAT
  1
GRIDFORMAT_BEGIN
 90
        0
 91
        1
 62
     0
 92
       -2
340
14
 93
        0
 40
0.045
309
GRIDFORMAT_END
 95
        8
302
GRIDFORMAT
  1
GRIDFORMAT_BEGIN
 90
        0
 91
        1
 62
     0
 92
       -2
340
14
 93
        0
 40
0.045
309
GRIDFORMAT_END
 95
       16
302
GRIDFORMAT
  1
GRIDFORMAT_BEGIN
 90
        0
 91
        1
 62
     0
 92
       -2
340
14
 93
        0
 40
0.045
309
GRIDFORMAT_END
 95
       32
302
GRIDFORMAT
  1
GRIDFORMAT_BEGIN
 90
        0
 91
        1
 62
     0
 92
       -2
340
14
 93
        0
 40
0.045
309
GRIDFORMAT_END
309
TABLEFORMAT_END
  1
CELLSTYLE_BEGIN
 90
        2
 91
        1
300
_HEADER
309
CELLSTYLE_END
300
CELLSTYLE
  1
TABLEFORMAT_BEGIN
 90
        5
170
     1
 91
        0
 92
        0
 62
   257
 93
        1
300
CONTENTFORMAT
  1
CONTENTFORMAT_BEGIN
 90
        0
 91
        0
 92
        4
 93
        0
300

 40
0.0
140
1.0
 94
        2
 62
     0
340
11
144
4.5
309
CONTENTFORMAT_END
171
     1
301
MARGIN
  1
CELLMARGIN_BEGIN
 40
1.5
 40
1.5
 40
1.5
 40
1.5
 40
1.5
 40
1.5
309
CELLMARGIN_END
 94
        6
 95
        1
302
GRIDFORMAT
  1
GRIDFORMAT_BEGIN
 90
        0
 91
        1
 62
     0
 92
       -2
340
14
 93
        0
 40
0.045
309
GRIDFORMAT_END
 95
        2
302
GRIDFORMAT
  1
GRIDFORMAT_BEGIN
 90
        0
 91
        1
 62
     0
 92
       -2
340
14
 93
        0
 40
0.045
309
GRIDFORMAT_END
 95
        4
302
GRIDFORMAT
  1
GRIDFORMAT_BEGIN
 90
        0
 91
        1
 62
     0
 92
       -2
340
14
 93
        0
 40
0.045
309
GRIDFORMAT_END
 95
        8
302
GRIDFORMAT
  1
GRIDFORMAT_BEGIN
 90
        0
 91
        1
 62
     0
 92
       -2
340
14
 93
        0
 40
0.045
309
GRIDFORMAT_END
 95
       16
302
GRIDFORMAT
  1
GRIDFORMAT_BEGIN
 90
        0
 91
        1
 62
     0
 92
       -2
340
14
 93
        0
 40
0.045
309
GRIDFORMAT_END
 95
       32
302
GRIDFORMAT
  1
GRIDFORMAT_BEGIN
 90
        0
 91
        1
 62
     0
 92
       -2
340
14
 93
        0
 40
0.045
309
GRIDFORMAT_END
309
TABLEFORMAT_END
  1
CELLSTYLE_BEGIN
 90
        3
 91
        2
300
_DATA
309
CELLSTYLE_END
  0
ENDSEC
  0
EOF
