  0
SECTION
  2
HEADER
  9
$ACADVER
  1
AC1027
  9
$ACADMAINTVER
 70
   105
  9
$DWGCODEPAGE
  3
ANSI_1252
  9
$REQUIREDVERSIONS
160
                 0
  9
$LASTSAVEDBY
  1
andrea.zolin
  9
$INSBASE
 10
0.0
 20
0.0
 30
0.0
  9
$EXTMIN
 10
0.0
 20
0.0
 30
0.0
  9
$EXTMAX
 10
1189.0
 20
841.0
 30
0.0
  9
$LIMMIN
 10
0.0
 20
0.0
  9
$LIMMAX
 10
1189.0
 20
841.0
  9
$ORTHOMODE
 70
     0
  9
$REGENMODE
 70
     1
  9
$FILLMODE
 70
     1
  9
$QTEXTMODE
 70
     0
  9
$MIRRTEXT
 70
     1
  9
$LTSCALE
 40
65.395
  9
$ATTMODE
 70
     1
  9
$TEXTSIZE
 40
0.2
  9
$TRACEWID
 40
0.05
  9
$TEXTSTYLE
  7
STANDARD
  9
$CLAYER
  8
0
  9
$CELTYPE
  6
BYLAYER
  9
$CECOLOR
 62
   256
  9
$CELTSCALE
 40
1.0
  9
$DISPSILH
 70
     0
  9
$DIMSCALE
 40
1.0
  9
$DIMASZ
 40
2.5
  9
$DIMEXO
 40
0.75
  9
$DIMDLI
 40
45.182
  9
$DIMRND
 40
0.0
  9
$DIMDLE
 40
0.0
  9
$DIMEXE
 40
0.75
  9
$DIMTP
 40
0.01
  9
$DIMTM
 40
0.01
  9
$DIMTXT
 40
3.0
  9
$DIMCEN
 40
10.701
  9
$DIMTSZ
 40
0.0
  9
$DIMTOL
 70
     1
  9
$DIMLIM
 70
     0
  9
$DIMTIH
 70
     1
  9
$DIMTOH
 70
     1
  9
$DIMSE1
 70
     0
  9
$DIMSE2
 70
     0
  9
$DIMTAD
 70
     0
  9
$DIMZIN
 70
     0
  9
$DIMBLK
  1
CLOSED
  9
$DIMASO
 70
     1
  9
$DIMSHO
 70
     1
  9
$DIMPOST
  1

  9
$DIMAPOST
  1

  9
$DIMALT
 70
     0
  9
$DIMALTD
 70
     2
  9
$DIMALTF
 40
25.4
  9
$DIMLFAC
 40
1.0
  9
$DIMTOFL
 70
     0
  9
$DIMTVP
 40
0.0
  9
$DIMTIX
 70
     0
  9
$DIMSOXD
 70
     0
  9
$DIMSAH
 70
     0
  9
$DIMBLK1
  1

  9
$DIMBLK2
  1

  9
$DIMSTYLE
  2
STANDARD
  9
$DIMCLRD
 70
     0
  9
$DIMCLRE
 70
     0
  9
$DIMCLRT
 70
     0
  9
$DIMTFAC
 40
1.0
  9
$DIMGAP
 40
0.625
  9
$DIMJUST
 70
     0
  9
$DIMSD1
 70
     0
  9
$DIMSD2
 70
     0
  9
$DIMTOLJ
 70
     1
  9
$DIMTZIN
 70
     0
  9
$DIMALTZ
 70
     0
  9
$DIMALTTZ
 70
     0
  9
$DIMUPT
 70
     0
  9
$DIMDEC
 70
     4
  9
$DIMTDEC
 70
     4
  9
$DIMALTU
 70
     2
  9
$DIMALTTD
 70
     2
  9
$DIMTXSTY
  7
STANDARD
  9
$DIMAUNIT
 70
     0
  9
$DIMADEC
 70
     0
  9
$DIMALTRND
 40
0.0
  9
$DIMAZIN
 70
     0
  9
$DIMDSEP
 70
    46
  9
$DIMATFIT
 70
     3
  9
$DIMFRAC
 70
     0
  9
$DIMLDRBLK
  1

  9
$DIMLUNIT
 70
     2
  9
$DIMLWD
 70
    -2
  9
$DIMLWE
 70
    -2
  9
$DIMTMOVE
 70
     2
  9
$DIMFXL
 40
1.0
  9
$DIMFXLON
 70
     0
  9
$DIMJOGANG
 40
0.7853981633974483
  9
$DIMTFILL
 70
     0
  9
$DIMTFILLCLR
 70
     0
  9
$DIMARCSYM
 70
     0
  9
$DIMLTYPE
  6

  9
$DIMLTEX1
  6

  9
$DIMLTEX2
  6

  9
$DIMTXTDIRECTION
 70
     0
  9
$LUNITS
 70
     2
  9
$LUPREC
 70
     4
  9
$SKETCHINC
 40
0.1
  9
$FILLETRAD
 40
0.5
  9
$AUNITS
 70
     0
  9
$AUPREC
 70
     0
  9
$MENU
  1
.
  9
$ELEVATION
 40
0.0
  9
$PELEVATION
 40
0.0
  9
$THICKNESS
 40
0.0
  9
$LIMCHECK
 70
     0
  9
$CHAMFERA
 40
0.0
  9
$CHAMFERB
 40
0.0
  9
$CHAMFERC
 40
0.0
  9
$CHAMFERD
 40
0.0
  9
$SKPOLY
 70
     0
  9
$TDCREATE
 40
2447893.041666667
  9
$TDUCREATE
 40
0.0
  9
$TDUPDATE
 40
2458466.604131585
  9
$TDUUPDATE
 40
2458466.562464919
  9
$TDINDWG
 40
0.0002091435
  9
$TDUSRTIMER
 40
0.0002091435
  9
$USRTIMER
 70
     1
  9
$ANGBASE
 50
0.0
  9
$ANGDIR
 70
     0
  9
$PDMODE
 70
     3
  9
$PDSIZE
 40
0.3125
  9
$PLINEWID
 40
0.0
  9
$SPLFRAME
 70
     0
  9
$SPLINETYPE
 70
     6
  9
$SPLINESEGS
 70
     8
  9
$HANDSEED
  5
6F3
  9
$SURFTAB1
 70
     6
  9
$SURFTAB2
 70
     6
  9
$SURFTYPE
 70
     6
  9
$SURFU
 70
     6
  9
$SURFV
 70
     6
  9
$UCSBASE
  2

  9
$UCSNAME
  2

  9
$UCSORG
 10
0.0
 20
0.0
 30
0.0
  9
$UCSXDIR
 10
1.0
 20
0.0
 30
0.0
  9
$UCSYDIR
 10
0.0
 20
1.0
 30
0.0
  9
$UCSORTHOREF
  2

  9
$UCSORTHOVIEW
 70
     0
  9
$UCSORGTOP
 10
0.0
 20
0.0
 30
0.0
  9
$UCSORGBOTTOM
 10
0.0
 20
0.0
 30
0.0
  9
$UCSORGLEFT
 10
0.0
 20
0.0
 30
0.0
  9
$UCSORGRIGHT
 10
0.0
 20
0.0
 30
0.0
  9
$UCSORGFRONT
 10
0.0
 20
0.0
 30
0.0
  9
$UCSORGBACK
 10
0.0
 20
0.0
 30
0.0
  9
$PUCSBASE
  2

  9
$PUCSNAME
  2

  9
$PUCSORG
 10
0.0
 20
0.0
 30
0.0
  9
$PUCSXDIR
 10
1.0
 20
0.0
 30
0.0
  9
$PUCSYDIR
 10
0.0
 20
1.0
 30
0.0
  9
$PUCSORTHOREF
  2

  9
$PUCSORTHOVIEW
 70
     0
  9
$PUCSORGTOP
 10
0.0
 20
0.0
 30
0.0
  9
$PUCSORGBOTTOM
 10
0.0
 20
0.0
 30
0.0
  9
$PUCSORGLEFT
 10
0.0
 20
0.0
 30
0.0
  9
$PUCSORGRIGHT
 10
0.0
 20
0.0
 30
0.0
  9
$PUCSORGFRONT
 10
0.0
 20
0.0
 30
0.0
  9
$PUCSORGBACK
 10
0.0
 20
0.0
 30
0.0
  9
$USERI1
 70
     0
  9
$USERI2
 70
     0
  9
$USERI3
 70
     0
  9
$USERI4
 70
     0
  9
$USERI5
 70
     0
  9
$USERR1
 40
0.0
  9
$USERR2
 40
0.0
  9
$USERR3
 40
0.0
  9
$USERR4
 40
0.0
  9
$USERR5
 40
0.0
  9
$WORLDVIEW
 70
     1
  9
$SHADEDGE
 70
     3
  9
$SHADEDIF
 70
    70
  9
$TILEMODE
 70
     0
  9
$MAXACTVP
 70
    64
  9
$PINSBASE
 10
0.0
 20
0.0
 30
0.0
  9
$PLIMCHECK
 70
     0
  9
$PEXTMIN
 10
0.0
 20
0.0
 30
0.0
  9
$PEXTMAX
 10
1189.0
 20
841.0
 30
0.0
  9
$PLIMMIN
 10
-24.54280155642023
 20
-65.44747081712062
  9
$PLIMMAX
 10
1349.854085603113
 20
906.4474708171206
  9
$UNITMODE
 70
     0
  9
$VISRETAIN
 70
     1
  9
$PLINEGEN
 70
     0
  9
$PSLTSCALE
 70
     1
  9
$TREEDEPTH
 70
  3020
  9
$CMLSTYLE
  2
STANDARD
  9
$CMLJUST
 70
     0
  9
$CMLSCALE
 40
1.0
  9
$PROXYGRAPHICS
 70
     1
  9
$MEASUREMENT
 70
     1
  9
$CELWEIGHT
370
    -1
  9
$ENDCAPS
280
     0
  9
$JOINSTYLE
280
     0
  9
$LWDISPLAY
290
     0
  9
$INSUNITS
 70
     0
  9
$HYPERLINKBASE
  1

  9
$STYLESHEET
  1

  9
$XEDIT
290
     1
  9
$CEPSNTYPE
380
     0
  9
$PSTYLEMODE
290
     1
  9
$FINGERPRINTGUID
  2
{7E07466D-CCAE-476F-B8C4-AA73109B6CED}
  9
$VERSIONGUID
  2
{FAEB1C32-E019-11D5-929B-00C0DF256EC4}
  9
$EXTNAMES
290
     1
  9
$PSVPSCALE
 40
0.0
  9
$OLESTARTUP
290
     0
  9
$SORTENTS
280
   127
  9
$INDEXCTL
280
     0
  9
$HIDETEXT
280
     1
  9
$XCLIPFRAME
280
     2
  9
$HALOGAP
280
     0
  9
$OBSCOLOR
 70
   257
  9
$OBSLTYPE
280
     0
  9
$INTERSECTIONDISPLAY
280
     0
  9
$INTERSECTIONCOLOR
 70
   257
  9
$DIMASSOC
280
     2
  9
$PROJECTNAME
  1

  9
$CAMERADISPLAY
290
     0
  9
$LENSLENGTH
 40
50.0
  9
$CAMERAHEIGHT
 40
0.0
  9
$STEPSPERSEC
 40
2.0
  9
$STEPSIZE
 40
6.0
  9
$3DDWFPREC
 40
2.0
  9
$PSOLWIDTH
 40
0.25
  9
$PSOLHEIGHT
 40
4.0
  9
$LOFTANG1
 40
1.570796326794897
  9
$LOFTANG2
 40
1.570796326794897
  9
$LOFTMAG1
 40
0.0
  9
$LOFTMAG2
 40
0.0
  9
$LOFTPARAM
 70
     7
  9
$LOFTNORMALS
280
     1
  9
$LATITUDE
 40
37.795
  9
$LONGITUDE
 40
-122.394
  9
$NORTHDIRECTION
 40
0.0
  9
$TIMEZONE
 70
 -8000
  9
$LIGHTGLYPHDISPLAY
280
     1
  9
$TILEMODELIGHTSYNCH
280
     1
  9
$SOLIDHIST
280
     0
  9
$SHOWHIST
280
     1
  9
$DWFFRAME
280
     2
  9
$DGNFRAME
280
     2
  9
$REALWORLDSCALE
290
     1
  9
$INTERFERECOLOR
 62
   256
  9
$CSHADOW
280
     0
  9
$SHADOWPLANELOCATION
 40
0.0
  0
ENDSEC
  0
SECTION
  2
CLASSES
  0
CLASS
  1
ACDBDICTIONARYWDFLT
  2
AcDbDictionaryWithDefault
  3
ObjectDBX Classes
 90
        0
 91
        4
280
     0
281
     0
  0
CLASS
  1
SCALE
  2
AcDbScale
  3
ObjectDBX Classes
 90
     1153
 91
        4
280
     0
281
     0
  0
CLASS
  1
VISUALSTYLE
  2
AcDbVisualStyle
  3
ObjectDBX Classes
 90
     4095
 91
        4
280
     0
281
     0
  0
CLASS
  1
MATERIAL
  2
AcDbMaterial
  3
ObjectDBX Classes
 90
     1153
 91
        4
280
     0
281
     0
  0
CLASS
  1
TABLESTYLE
  2
AcDbTableStyle
  3
ObjectDBX Classes
 90
     4095
 91
        4
280
     0
281
     0
  0
CLASS
  1
MLEADERSTYLE
  2
AcDbMLeaderStyle
  3
ACDB_MLEADERSTYLE_CLASS
 90
     4095
 91
        4
280
     0
281
     0
  0
CLASS
  1
DICTIONARYVAR
  2
AcDbDictionaryVar
  3
ObjectDBX Classes
 90
        0
 91
        4
280
     0
281
     0
  0
CLASS
  1
CELLSTYLEMAP
  2
AcDbCellStyleMap
  3
ObjectDBX Classes
 90
     1152
 91
        4
280
     0
281
     0
  0
ENDSEC
  0
SECTION
  2
TABLES
  0
TABLE
  2
VPORT
  5
8
330
0
100
AcDbSymbolTable
 70
     1
  0
VPORT
  5
1F4
330
8
100
AcDbSymbolTableRecord
100
AcDbViewportTableRecord
  2
*ACTIVE
 70
     0
 10
0.0
 20
0.0
 11
1.0
 21
1.0
 12
594.5
 22
420.5
 13
0.0
 23
0.0
 14
1.0
 24
1.0
 15
0.0
 25
0.0
 16
0.0
 26
0.0
 36
1.0
 17
0.0
 27
0.0
 37
0.0
 40
841.0
 41
1.4137931034
 42
50.0
 43
0.0
 44
0.0
 50
0.0
 51
0.0
 71
     0
 72
   100
 73
     1
 74
     1
 75
     0
 76
     0
 77
     0
 78
     0
281
     0
 65
     1
110
0.0
120
0.0
130
0.0
111
1.0
121
0.0
131
0.0
112
0.0
122
1.0
132
0.0
 79
     0
146
0.0
348
6CC
 60
     3
 61
     5
292
     1
282
     1
141
0.0
142
0.0
 63
   256
  0
ENDTAB
  0
TABLE
  2
LTYPE
  5
5
330
0
100
AcDbSymbolTable
 70
     6
  0
LTYPE
  5
14
330
5
100
AcDbSymbolTableRecord
100
AcDbLinetypeTableRecord
  2
BYBLOCK
 70
     0
  3

 72
    65
 73
     0
 40
0.0
  0
LTYPE
  5
15
330
5
100
AcDbSymbolTableRecord
100
AcDbLinetypeTableRecord
  2
BYLAYER
 70
     0
  3

 72
    65
 73
     0
 40
0.0
  0
LTYPE
  5
16
330
5
100
AcDbSymbolTableRecord
100
AcDbLinetypeTableRecord
  2
CONTINUOUS
 70
     0
  3
Solid line
 72
    65
 73
     0
 40
0.0
  0
LTYPE
  5
1F5
330
5
100
AcDbSymbolTableRecord
100
AcDbLinetypeTableRecord
  2
CENTER
 70
     0
  3
____ _ ____ _ ____ _ ____ _ ____ _ ____ _ ____
 72
    65
 73
     4
 40
0.6
 49
0.375
 74
     0
 49
-0.075
 74
     0
 49
0.075
 74
     0
 49
-0.075
 74
     0
  0
LTYPE
  5
1F6
330
5
100
AcDbSymbolTableRecord
100
AcDbLinetypeTableRecord
  2
HIDDEN
 70
     0
  3
- - - - - - - - - - - - - - - - - - - -
 72
    65
 73
     2
 40
0.2
 49
0.1
 74
     0
 49
-0.1
 74
     0
  0
LTYPE
  5
1F7
330
5
100
AcDbSymbolTableRecord
100
AcDbLinetypeTableRecord
  2
PHANTOM
 70
     0
  3
_____ _ _ _____ _ _ _____ _ _ _____
 72
    65
 73
     6
 40
0.8
 49
0.45
 74
     0
 49
-0.05
 74
     0
 49
0.1
 74
     0
 49
-0.05
 74
     0
 49
0.1
 74
     0
 49
-0.05
 74
     0
  0
LTYPE
  5
1F8
330
5
100
AcDbSymbolTableRecord
100
AcDbLinetypeTableRecord
  2
DOT
 70
     0
  3
. . . . . . . . . . . . . . . . . . . .
 72
    65
 73
     2
 40
0.2
 49
0.1
 74
     0
 49
-0.1
 74
     0
  0
LTYPE
  5
1F9
330
5
100
AcDbSymbolTableRecord
100
AcDbLinetypeTableRecord
  2
DASHED
 70
     0
  3
- - - - - - - - - - - - - - - - - - - -
 72
    65
 73
     2
 40
0.2
 49
0.1
 74
     0
 49
-0.1
 74
     0
  0
ENDTAB
  0
TABLE
  2
LAYER
  5
2
330
0
100
AcDbSymbolTable
 70
    36
  0
LAYER
  5
10
330
2
100
AcDbSymbolTableRecord
100
AcDbLayerTableRecord
  2
0
 70
     0
 62
     7
  6
CONTINUOUS
370
    -3
390
6A1
347
6E3
348
0
  0
LAYER
  5
1FA
330
2
100
AcDbSymbolTableRecord
100
AcDbLayerTableRecord
  2
DEFAULT_1
 70
     0
 62
     7
  6
CENTER
370
    -3
390
6A1
347
6E3
348
0
  0
LAYER
  5
1FB
330
2
100
AcDbSymbolTableRecord
100
AcDbLayerTableRecord
  2
DEFAULT_2
 70
     0
 62
     8
  6
HIDDEN
370
    -3
390
6A1
347
6E3
348
0
  0
LAYER
  5
1FC
330
2
100
AcDbSymbolTableRecord
100
AcDbLayerTableRecord
  2
DEFAULT_3
 70
     0
 62
     7
  6
PHANTOM
370
    -3
390
6A1
347
6E3
348
0
  0
LAYER
  5
1FD
330
2
100
AcDbSymbolTableRecord
100
AcDbLayerTableRecord
  2
01_ALL_DTM_PLN
 70
     0
 62
     7
  6
CONTINUOUS
370
    -3
390
6A1
347
6E3
348
0
  0
LAYER
  5
1FE
330
2
100
AcDbSymbolTableRecord
100
AcDbLayerTableRecord
  2
01__ASM_ALL_DTM_PLN
 70
     0
 62
     7
  6
CONTINUOUS
370
    -3
390
6A1
347
6E3
348
0
  0
LAYER
  5
1FF
330
2
100
AcDbSymbolTableRecord
100
AcDbLayerTableRecord
  2
01__ASM_DEF_DTM_PLN
 70
     0
 62
     7
  6
CONTINUOUS
370
    -3
390
6A1
347
6E3
348
0
  0
LAYER
  5
200
330
2
100
AcDbSymbolTableRecord
100
AcDbLayerTableRecord
  2
01___PRT_ALL_DTM_PLN
 70
     0
 62
     7
  6
CONTINUOUS
370
    -3
390
6A1
347
6E3
348
0
  0
LAYER
  5
201
330
2
100
AcDbSymbolTableRecord
100
AcDbLayerTableRecord
  2
01___PRT_DEF_DTM_PLN
 70
     0
 62
     7
  6
CONTINUOUS
370
    -3
390
6A1
347
6E3
348
0
  0
LAYER
  5
202
330
2
100
AcDbSymbolTableRecord
100
AcDbLayerTableRecord
  2
02_ALL_AXES
 70
     0
 62
     7
  6
CONTINUOUS
370
    -3
390
6A1
347
6E3
348
0
  0
LAYER
  5
203
330
2
100
AcDbSymbolTableRecord
100
AcDbLayerTableRecord
  2
02__ASM_ALL_AXES
 70
     0
 62
     7
  6
CONTINUOUS
370
    -3
390
6A1
347
6E3
348
0
  0
LAYER
  5
204
330
2
100
AcDbSymbolTableRecord
100
AcDbLayerTableRecord
  2
02___PRT_ALL_AXES
 70
     0
 62
     7
  6
CONTINUOUS
370
    -3
390
6A1
347
6E3
348
0
  0
LAYER
  5
205
330
2
100
AcDbSymbolTableRecord
100
AcDbLayerTableRecord
  2
03_ALL_CURVES
 70
     0
 62
     7
  6
CONTINUOUS
370
    -3
390
6A1
347
6E3
348
0
  0
LAYER
  5
206
330
2
100
AcDbSymbolTableRecord
100
AcDbLayerTableRecord
  2
03__ASM_ALL_CURVES
 70
     0
 62
     7
  6
CONTINUOUS
370
    -3
390
6A1
347
6E3
348
0
  0
LAYER
  5
207
330
2
100
AcDbSymbolTableRecord
100
AcDbLayerTableRecord
  2
03___PRT_ALL_CURVES
 70
     0
 62
     7
  6
CONTINUOUS
370
    -3
390
6A1
347
6E3
348
0
  0
LAYER
  5
208
330
2
100
AcDbSymbolTableRecord
100
AcDbLayerTableRecord
  2
04_ALL_DTM_PNT
 70
     0
 62
     7
  6
CONTINUOUS
370
    -3
390
6A1
347
6E3
348
0
  0
LAYER
  5
209
330
2
100
AcDbSymbolTableRecord
100
AcDbLayerTableRecord
  2
04__ASM_ALL_DTM_PNT
 70
     0
 62
     7
  6
CONTINUOUS
370
    -3
390
6A1
347
6E3
348
0
  0
LAYER
  5
20A
330
2
100
AcDbSymbolTableRecord
100
AcDbLayerTableRecord
  2
04___PRT_ALL_DTM_PNT
 70
     0
 62
     7
  6
CONTINUOUS
370
    -3
390
6A1
347
6E3
348
0
  0
LAYER
  5
20B
330
2
100
AcDbSymbolTableRecord
100
AcDbLayerTableRecord
  2
05_ALL_DTM_CSYS
 70
     0
 62
     7
  6
CONTINUOUS
370
    -3
390
6A1
347
6E3
348
0
  0
LAYER
  5
20C
330
2
100
AcDbSymbolTableRecord
100
AcDbLayerTableRecord
  2
05__ASM_ALL_DTM_CSYS
 70
     0
 62
     7
  6
CONTINUOUS
370
    -3
390
6A1
347
6E3
348
0
  0
LAYER
  5
20D
330
2
100
AcDbSymbolTableRecord
100
AcDbLayerTableRecord
  2
05__ASM_DEF_DTM_CSYS
 70
     0
 62
     7
  6
CONTINUOUS
370
    -3
390
6A1
347
6E3
348
0
  0
LAYER
  5
20E
330
2
100
AcDbSymbolTableRecord
100
AcDbLayerTableRecord
  2
05___PRT_ALL_DTM_CSYS
 70
     0
 62
     7
  6
CONTINUOUS
370
    -3
390
6A1
347
6E3
348
0
  0
LAYER
  5
20F
330
2
100
AcDbSymbolTableRecord
100
AcDbLayerTableRecord
  2
05___PRT_DEF_DTM_CSYS
 70
     0
 62
     7
  6
CONTINUOUS
370
    -3
390
6A1
347
6E3
348
0
  0
LAYER
  5
210
330
2
100
AcDbSymbolTableRecord
100
AcDbLayerTableRecord
  2
06_ALL_SURFS
 70
     0
 62
     7
  6
CONTINUOUS
370
    -3
390
6A1
347
6E3
348
0
  0
LAYER
  5
211
330
2
100
AcDbSymbolTableRecord
100
AcDbLayerTableRecord
  2
06__ASM_ALL_SURFS
 70
     0
 62
     7
  6
CONTINUOUS
370
    -3
390
6A1
347
6E3
348
0
  0
LAYER
  5
212
330
2
100
AcDbSymbolTableRecord
100
AcDbLayerTableRecord
  2
06___PRT_ALL_SURFS
 70
     0
 62
     7
  6
CONTINUOUS
370
    -3
390
6A1
347
6E3
348
0
  0
LAYER
  5
213
330
2
100
AcDbSymbolTableRecord
100
AcDbLayerTableRecord
  2
07__ASM_ALL_SKELETONS
 70
     0
 62
     7
  6
CONTINUOUS
370
    -3
390
6A1
347
6E3
348
0
  0
LAYER
  5
214
330
2
100
AcDbSymbolTableRecord
100
AcDbLayerTableRecord
  2
1_ALL_PLANES
 70
     0
 62
     7
  6
CONTINUOUS
370
    -3
390
6A1
347
6E3
348
0
  0
LAYER
  5
215
330
2
100
AcDbSymbolTableRecord
100
AcDbLayerTableRecord
  2
2_ALL_CSYS
 70
     0
 62
     7
  6
CONTINUOUS
370
    -3
390
6A1
347
6E3
348
0
  0
LAYER
  5
216
330
2
100
AcDbSymbolTableRecord
100
AcDbLayerTableRecord
  2
3_ALL_AXES
 70
     0
 62
     7
  6
CONTINUOUS
370
    -3
390
6A1
347
6E3
348
0
  0
LAYER
  5
217
330
2
100
AcDbSymbolTableRecord
100
AcDbLayerTableRecord
  2
4_ALL_POINTS
 70
     0
 62
     7
  6
CONTINUOUS
370
    -3
390
6A1
347
6E3
348
0
  0
LAYER
  5
218
330
2
100
AcDbSymbolTableRecord
100
AcDbLayerTableRecord
  2
5_ALL_CURVES
 70
     0
 62
     7
  6
CONTINUOUS
370
    -3
390
6A1
347
6E3
348
0
  0
LAYER
  5
219
330
2
100
AcDbSymbolTableRecord
100
AcDbLayerTableRecord
  2
6_ALL_SURFS
 70
     0
 62
     7
  6
CONTINUOUS
370
    -3
390
6A1
347
6E3
348
0
  0
LAYER
  5
21A
330
2
100
AcDbSymbolTableRecord
100
AcDbLayerTableRecord
  2
7_ALL_FEATURES
 70
     0
 62
     7
  6
CONTINUOUS
370
    -3
390
6A1
347
6E3
348
0
  0
LAYER
  5
21B
330
2
100
AcDbSymbolTableRecord
100
AcDbLayerTableRecord
  2
8_ALL_NOTES_BALLOONS_SYMBOLS_GT
 70
     0
 62
     7
  6
CONTINUOUS
370
    -3
390
6A1
347
6E3
348
0
  0
LAYER
  5
21C
330
2
100
AcDbSymbolTableRecord
100
AcDbLayerTableRecord
  2
9_SOLID
 70
     0
 62
     7
  6
CONTINUOUS
370
    -3
390
6A1
347
6E3
348
0
  0
ENDTAB
  0
TABLE
  2
STYLE
  5
3
330
0
100
AcDbSymbolTable
 70
     3
  0
STYLE
  5
11
330
3
100
AcDbSymbolTableRecord
100
AcDbTextStyleTableRecord
  2
STANDARD
 70
     0
 40
0.0
 41
0.85
 50
0.0
 71
     0
 42
0.2
  3
txt
  4

  0
STYLE
  5
21D
330
3
100
AcDbSymbolTableRecord
100
AcDbTextStyleTableRecord
  2
TEXTSTYLE_1
 70
     0
 40
0.0
 41
0.8
 50
0.0
 71
     0
 42
0.2
  3
gdt
  4

  0
STYLE
  5
21E
330
3
100
AcDbSymbolTableRecord
100
AcDbTextStyleTableRecord
  2
TEXTSTYLE_2
 70
     0
 40
0.0
 41
2.0
 50
0.0
 71
     0
 42
0.2
  3
txt
  4

  0
ENDTAB
  0
TABLE
  2
VIEW
  5
6
330
0
100
AcDbSymbolTable
 70
     0
  0
ENDTAB
  0
TABLE
  2
UCS
  5
7
330
0
100
AcDbSymbolTable
 70
     0
  0
ENDTAB
  0
TABLE
  2
APPID
  5
9
330
0
100
AcDbSymbolTable
 70
     1
  0
APPID
  5
21F
330
9
100
AcDbSymbolTableRecord
100
AcDbRegAppTableRecord
  2
ACAD
 70
     0
  0
ENDTAB
  0
TABLE
  2
DIMSTYLE
  5
A
330
0
100
AcDbSymbolTable
 70
     6
100
AcDbDimStyleTable
  0
DIMSTYLE
105
229
330
A
100
AcDbSymbolTableRecord
100
AcDbDimStyleTableRecord
  2
STANDARD
 70
     0
 41
2.5
 42
0.75
 44
0.75
 47
0.01
 48
0.01
 71
     1
 73
     0
 74
     0
 77
     1
 78
     8
 79
     2
140
3.0
147
0.625
171
     1
178
     0
179
     2
271
     2
272
     2
284
     8
340
11
341
220
342
220
343
220
344
220
  0
DIMSTYLE
105
22A
330
A
100
AcDbSymbolTableRecord
100
AcDbDimStyleTableRecord
  2
DIMSTYLE_1
 70
     0
 41
2.5
 42
0.75
 44
0.75
 47
0.3
 48
0.3
 73
     0
 74
     0
 77
     1
 78
     8
 79
     2
140
3.0
147
0.75
171
     1
178
     0
271
     0
272
     0
284
     8
340
11
341
220
342
220
343
220
344
220
  0
DIMSTYLE
105
22B
330
A
100
AcDbSymbolTableRecord
100
AcDbDimStyleTableRecord
  2
DIMSTYLE_2
 70
     0
 41
2.5
 42
0.75
 44
0.75
 47
0.2
 48
0.2
 73
     0
 74
     0
 77
     1
 78
     8
 79
     2
140
3.0
147
0.75
171
     1
178
     0
271
     0
272
     0
284
     8
340
11
341
220
342
220
343
220
344
220
  0
DIMSTYLE
105
22C
330
A
100
AcDbSymbolTableRecord
100
AcDbDimStyleTableRecord
  2
DIMSTYLE_3
 70
     0
 41
2.5
 42
0.75
 44
0.75
 47
0.3
 48
0.3
 73
     0
 74
     0
 77
     1
 78
     8
 79
     2
140
3.0
147
0.75
171
     1
178
     0
179
     2
271
     2
272
     2
284
     8
340
11
341
220
342
220
343
220
344
220
  0
DIMSTYLE
105
22D
330
A
100
AcDbSymbolTableRecord
100
AcDbDimStyleTableRecord
  2
DIMSTYLE_4
 70
     0
 41
2.5
 42
0.75
 44
0.75
 47
1.2
 48
1.2
 73
     0
 74
     0
 77
     1
 78
     8
 79
     2
140
3.0
147
0.75
171
     1
178
     0
271
     0
272
     0
284
     8
340
11
341
220
342
220
343
220
344
220
  0
DIMSTYLE
105
22E
330
A
100
AcDbSymbolTableRecord
100
AcDbDimStyleTableRecord
  2
DIMSTYLE_5
 70
     0
 41
2.5
 42
0.75
 44
0.75
 47
0.2
 48
0.2
 73
     0
 74
     0
 77
     1
 78
     8
 79
     2
140
3.0
147
0.75
171
     1
178
     0
179
     2
271
     2
272
     2
284
     8
340
11
341
220
342
220
343
220
344
220
  0
ENDTAB
  0
TABLE
  2
BLOCK_RECORD
  5
1
330
0
100
AcDbSymbolTable
 70
     9
  0
BLOCK_RECORD
  5
1F
330
1
100
AcDbSymbolTableRecord
100
AcDbBlockTableRecord
  2
*MODEL_SPACE
340
6C5
 70
     0
280
     1
281
     0
  0
BLOCK_RECORD
  5
1B
330
1
100
AcDbSymbolTableRecord
100
AcDbBlockTableRecord
  2
*PAPER_SPACE
340
6C6
 70
     0
280
     1
281
     0
  0
BLOCK_RECORD
  5
220
330
1
100
AcDbSymbolTableRecord
100
AcDbBlockTableRecord
  2
_CLOSED
340
0
102
{BLKREFS
331
281
331
282
331
28A
331
28B
331
293
331
294
331
29C
331
29D
331
2A5
331
2A6
331
2AE
331
2AF
102
}
 70
     0
280
     1
281
     0
  0
BLOCK_RECORD
  5
221
330
1
100
AcDbSymbolTableRecord
100
AcDbBlockTableRecord
  2
*D1
340
0
 70
     0
280
     1
281
     0
  0
BLOCK_RECORD
  5
222
330
1
100
AcDbSymbolTableRecord
100
AcDbBlockTableRecord
  2
*D2
340
0
 70
     0
280
     1
281
     0
  0
BLOCK_RECORD
  5
223
330
1
100
AcDbSymbolTableRecord
100
AcDbBlockTableRecord
  2
*D3
340
0
 70
     0
280
     1
281
     0
  0
BLOCK_RECORD
  5
224
330
1
100
AcDbSymbolTableRecord
100
AcDbBlockTableRecord
  2
*D4
340
0
 70
     0
280
     1
281
     0
  0
BLOCK_RECORD
  5
225
330
1
100
AcDbSymbolTableRecord
100
AcDbBlockTableRecord
  2
*D5
340
0
 70
     0
280
     1
281
     0
  0
BLOCK_RECORD
  5
226
330
1
100
AcDbSymbolTableRecord
100
AcDbBlockTableRecord
  2
*D6
340
0
 70
     0
280
     1
281
     0
  0
BLOCK_RECORD
  5
227
330
1
100
AcDbSymbolTableRecord
100
AcDbBlockTableRecord
  2
LOGO2_BL1
340
0
102
{BLKREFS
331
689
102
}
 70
     0
280
     1
281
     0
  0
BLOCK_RECORD
  5
228
330
1
100
AcDbSymbolTableRecord
100
AcDbBlockTableRecord
  2
PROIEZIONE_EU_BL0
340
0
102
{BLKREFS
331
686
102
}
 70
     0
280
     1
281
     0
  0
ENDTAB
  0
ENDSEC
  0
SECTION
  2
BLOCKS
  0
BLOCK
  5
20
330
1F
100
AcDbEntity
  8
0
100
AcDbBlockBegin
  2
*MODEL_SPACE
 70
     0
 10
0.0
 20
0.0
 30
0.0
  3
*MODEL_SPACE
  1

  0
ENDBLK
  5
21
330
1F
100
AcDbEntity
  8
0
100
AcDbBlockEnd
  0
BLOCK
  5
1C
330
1B
100
AcDbEntity
 67
     1
  8
0
100
AcDbBlockBegin
  2
*PAPER_SPACE
 70
     0
 10
0.0
 20
0.0
 30
0.0
  3
*PAPER_SPACE
  1

  0
ENDBLK
  5
1D
330
1B
100
AcDbEntity
 67
     1
  8
0
100
AcDbBlockEnd
  0
BLOCK
  5
275
330
220
100
AcDbEntity
  8
0
100
AcDbBlockBegin
  2
_CLOSED
 70
     0
 10
0.0
 20
0.0
 30
0.0
  3
_CLOSED
  1

  0
LINE
  5
276
330
220
100
AcDbEntity
  8
0
  6
ByBlock
 62
     0
100
AcDbLine
 10
0.0
 20
0.0
 30
0.0
 11
-1.0
 21
0.2
 31
0.0
  0
LINE
  5
277
330
220
100
AcDbEntity
  8
0
  6
ByBlock
 62
     0
100
AcDbLine
 10
-1.0
 20
0.2
 30
0.0
 11
-1.0
 21
-0.2
 31
0.0
  0
LINE
  5
278
330
220
100
AcDbEntity
  8
0
  6
ByBlock
 62
     0
100
AcDbLine
 10
-1.0
 20
-0.2
 30
0.0
 11
0.0
 21
0.0
 31
0.0
  0
LINE
  5
279
330
220
100
AcDbEntity
  8
0
  6
ByBlock
 62
     0
100
AcDbLine
 10
-1.0
 20
0.0
 30
0.0
 11
0.0
 21
0.0
 31
0.0
  0
ENDBLK
  5
27A
330
220
100
AcDbEntity
  8
0
  6
ByBlock
 62
     0
100
AcDbBlockEnd
  0
BLOCK
  5
27B
330
221
100
AcDbEntity
  8
0
100
AcDbBlockBegin
  2
*D1
 70
     1
 10
0.0
 20
0.0
 30
0.0
  3
*D1
  1

  0
MTEXT
  5
27C
330
221
100
AcDbEntity
  8
0
  6
Continuous
 62
     2
100
AcDbMText
 10
1082.5115100203
 20
439.5641447703
 30
0.0
 40
3.0
 41
6.1071428571
 46
0.0
 71
     2
 72
     1
  1
91
 11
0.0
 21
1.0
 31
0.0
 73
     1
 44
1.0
  0
LINE
  5
27D
330
221
100
AcDbEntity
  8
0
  6
Continuous
 62
     2
100
AcDbLine
 10
1062.4784497865
 20
485.2891447703
 30
0.0
 11
1087.0115100203
 21
485.2891447703
 31
0.0
  0
LINE
  5
27E
330
221
100
AcDbEntity
  8
0
  6
Continuous
 62
     2
100
AcDbLine
 10
1022.4784497865
 20
393.8391447703
 30
0.0
 11
1087.0115100203
 21
393.8391447703
 31
0.0
  0
LINE
  5
27F
330
221
100
AcDbEntity
  8
0
  6
Continuous
 62
     2
100
AcDbLine
 10
1086.2615100203
 20
485.2891447703
 30
0.0
 11
1086.2615100203
 21
439.5641447703
 31
0.0
  0
LINE
  5
280
330
221
100
AcDbEntity
  8
0
  6
Continuous
 62
     2
100
AcDbLine
 10
1086.2615100203
 20
393.8391447703
 30
0.0
 11
1086.2615100203
 21
439.5641447703
 31
0.0
  0
INSERT
  5
281
330
221
100
AcDbEntity
  8
0
  6
Continuous
 62
     2
100
AcDbBlockReference
  2
_CLOSED
 10
1086.2615100203
 20
485.2891447703
 30
0.0
 41
2.5
 42
2.5
 43
2.5
 50
90.0
  0
INSERT
  5
282
330
221
100
AcDbEntity
  8
0
  6
Continuous
 62
     2
100
AcDbBlockReference
  2
_CLOSED
 10
1086.2615100203
 20
393.8391447703
 30
0.0
 41
2.5
 42
2.5
 43
2.5
 50
270.0
  0
ENDBLK
  5
283
330
221
100
AcDbEntity
  8
0
  6
ByBlock
 62
     0
100
AcDbBlockEnd
  0
BLOCK
  5
284
330
222
100
AcDbEntity
  8
0
100
AcDbBlockBegin
  2
*D2
 70
     1
 10
0.0
 20
0.0
 30
0.0
  3
*D2
  1

  0
MTEXT
  5
285
330
222
100
AcDbEntity
  8
0
  6
Continuous
 62
     2
100
AcDbMText
 10
1074.7943705898
 20
262.9501954996
 30
0.0
 40
3.0
 41
7.0714285714
 46
0.0
 71
     2
 72
     1
  1
26
 11
0.0
 21
1.0
 31
0.0
 73
     1
 44
1.0
  0
LINE
  5
286
330
222
100
AcDbEntity
  8
0
  6
Continuous
 62
     2
100
AcDbLine
 10
1060.4784497865
 20
275.8001954996
 30
0.0
 11
1079.2943705898
 21
275.8001954996
 31
0.0
  0
LINE
  5
287
330
222
100
AcDbEntity
  8
0
  6
Continuous
 62
     2
100
AcDbLine
 10
1060.4784497865
 20
250.1001954996
 30
0.0
 11
1079.2943705898
 21
250.1001954996
 31
0.0
  0
LINE
  5
288
330
222
100
AcDbEntity
  8
0
  6
Continuous
 62
     2
100
AcDbLine
 10
1078.5443705898
 20
275.8001954996
 30
0.0
 11
1078.5443705898
 21
262.9501954996
 31
0.0
  0
LINE
  5
289
330
222
100
AcDbEntity
  8
0
  6
Continuous
 62
     2
100
AcDbLine
 10
1078.5443705898
 20
250.1001954996
 30
0.0
 11
1078.5443705898
 21
262.9501954996
 31
0.0
  0
INSERT
  5
28A
330
222
100
AcDbEntity
  8
0
  6
Continuous
 62
     2
100
AcDbBlockReference
  2
_CLOSED
 10
1078.5443705898
 20
275.8001954996
 30
0.0
 41
2.5
 42
2.5
 43
2.5
 50
90.0
  0
INSERT
  5
28B
330
222
100
AcDbEntity
  8
0
  6
Continuous
 62
     2
100
AcDbBlockReference
  2
_CLOSED
 10
1078.5443705898
 20
250.1001954996
 30
0.0
 41
2.5
 42
2.5
 43
2.5
 50
270.0
  0
ENDBLK
  5
28C
330
222
100
AcDbEntity
  8
0
  6
ByBlock
 62
     0
100
AcDbBlockEnd
  0
BLOCK
  5
28D
330
223
100
AcDbEntity
  8
0
100
AcDbBlockBegin
  2
*D3
 70
     1
 10
0.0
 20
0.0
 30
0.0
  3
*D3
  1

  0
MTEXT
  5
28E
330
223
100
AcDbEntity
  8
0
  6
Continuous
 62
     2
100
AcDbMText
 10
1082.5115100203
 20
262.9501954996
 30
0.0
 40
3.0
 41
7.0714285714
 46
0.0
 71
     2
 72
     1
  1
72
 11
0.0
 21
1.0
 31
0.0
 73
     1
 44
1.0
  0
LINE
  5
28F
330
223
100
AcDbEntity
  8
0
  6
Continuous
 62
     2
100
AcDbLine
 10
1017.2284497865
 20
298.9501954996
 30
0.0
 11
1087.0115100203
 21
298.9501954996
 31
0.0
  0
LINE
  5
290
330
223
100
AcDbEntity
  8
0
  6
Continuous
 62
     2
100
AcDbLine
 10
1017.2284497865
 20
226.9501954996
 30
0.0
 11
1087.0115100203
 21
226.9501954996
 31
0.0
  0
LINE
  5
291
330
223
100
AcDbEntity
  8
0
  6
Continuous
 62
     2
100
AcDbLine
 10
1086.2615100203
 20
298.9501954996
 30
0.0
 11
1086.2615100203
 21
262.9501954996
 31
0.0
  0
LINE
  5
292
330
223
100
AcDbEntity
  8
0
  6
Continuous
 62
     2
100
AcDbLine
 10
1086.2615100203
 20
226.9501954996
 30
0.0
 11
1086.2615100203
 21
262.9501954996
 31
0.0
  0
INSERT
  5
293
330
223
100
AcDbEntity
  8
0
  6
Continuous
 62
     2
100
AcDbBlockReference
  2
_CLOSED
 10
1086.2615100203
 20
298.9501954996
 30
0.0
 41
2.5
 42
2.5
 43
2.5
 50
90.0
  0
INSERT
  5
294
330
223
100
AcDbEntity
  8
0
  6
Continuous
 62
     2
100
AcDbBlockReference
  2
_CLOSED
 10
1086.2615100203
 20
226.9501954996
 30
0.0
 41
2.5
 42
2.5
 43
2.5
 50
270.0
  0
ENDBLK
  5
295
330
223
100
AcDbEntity
  8
0
  6
ByBlock
 62
     0
100
AcDbBlockEnd
  0
BLOCK
  5
296
330
224
100
AcDbEntity
  8
0
100
AcDbBlockBegin
  2
*D4
 70
     1
 10
0.0
 20
0.0
 30
0.0
  3
*D4
  1

  0
MTEXT
  5
297
330
224
100
AcDbEntity
  8
0
  6
Continuous
 62
     2
100
AcDbMText
 10
555.2284497865
 20
219.3462701572
 30
0.0
 40
3.0
 41
11.8928571429
 46
0.0
 71
     2
 72
     1
  1
1013
 73
     1
 44
1.0
  0
LINE
  5
298
330
224
100
AcDbEntity
  8
0
  6
Continuous
 62
     2
100
AcDbLine
 10
48.7284497865
 20
250.6501954996
 30
0.0
 11
48.7284497865
 21
214.8462701572
 31
0.0
  0
LINE
  5
299
330
224
100
AcDbEntity
  8
0
  6
Continuous
 62
     2
100
AcDbLine
 10
1061.7284497865
 20
250.6501954996
 30
0.0
 11
1061.7284497865
 21
214.8462701572
 31
0.0
  0
LINE
  5
29A
330
224
100
AcDbEntity
  8
0
  6
Continuous
 62
     2
100
AcDbLine
 10
48.7284497865
 20
215.5962701572
 30
0.0
 11
555.2284497865
 21
215.5962701572
 31
0.0
  0
LINE
  5
29B
330
224
100
AcDbEntity
  8
0
  6
Continuous
 62
     2
100
AcDbLine
 10
1061.7284497865
 20
215.5962701572
 30
0.0
 11
555.2284497865
 21
215.5962701572
 31
0.0
  0
INSERT
  5
29C
330
224
100
AcDbEntity
  8
0
  6
Continuous
 62
     2
100
AcDbBlockReference
  2
_CLOSED
 10
48.7284497865
 20
215.5962701572
 30
0.0
 41
2.5
 42
2.5
 43
2.5
 50
180.0
  0
INSERT
  5
29D
330
224
100
AcDbEntity
  8
0
  6
Continuous
 62
     2
100
AcDbBlockReference
  2
_CLOSED
 10
1061.7284497865
 20
215.5962701572
 30
0.0
 41
2.5
 42
2.5
 43
2.5
  0
ENDBLK
  5
29E
330
224
100
AcDbEntity
  8
0
  6
ByBlock
 62
     0
100
AcDbBlockEnd
  0
BLOCK
  5
29F
330
225
100
AcDbEntity
  8
0
100
AcDbBlockBegin
  2
*D5
 70
     1
 10
0.0
 20
0.0
 30
0.0
  3
*D5
  1

  0
MTEXT
  5
2A0
330
225
100
AcDbEntity
  8
0
  6
Continuous
 62
     2
100
AcDbMText
 10
1130.1522439081
 20
387.2139257393
 30
0.0
 40
3.0
 41
7.0714285714
 46
0.0
 71
     2
 72
     1
  1
72
 73
     1
 44
1.0
  0
LINE
  5
2A1
330
225
100
AcDbEntity
  8
0
  6
Continuous
 62
     2
100
AcDbLine
 10
1094.1522439081
 20
384.9232931915
 30
0.0
 11
1094.1522439081
 21
382.7139257393
 31
0.0
  0
LINE
  5
2A2
330
225
100
AcDbEntity
  8
0
  6
Continuous
 62
     2
100
AcDbLine
 10
1166.1522439081
 20
384.9232931915
 30
0.0
 11
1166.1522439081
 21
382.7139257393
 31
0.0
  0
LINE
  5
2A3
330
225
100
AcDbEntity
  8
0
  6
Continuous
 62
     2
100
AcDbLine
 10
1094.1522439081
 20
383.4639257393
 30
0.0
 11
1130.1522439081
 21
383.4639257393
 31
0.0
  0
LINE
  5
2A4
330
225
100
AcDbEntity
  8
0
  6
Continuous
 62
     2
100
AcDbLine
 10
1166.1522439081
 20
383.4639257393
 30
0.0
 11
1130.1522439081
 21
383.4639257393
 31
0.0
  0
INSERT
  5
2A5
330
225
100
AcDbEntity
  8
0
  6
Continuous
 62
     2
100
AcDbBlockReference
  2
_CLOSED
 10
1094.1522439081
 20
383.4639257393
 30
0.0
 41
2.5
 42
2.5
 43
2.5
 50
180.0
  0
INSERT
  5
2A6
330
225
100
AcDbEntity
  8
0
  6
Continuous
 62
     2
100
AcDbBlockReference
  2
_CLOSED
 10
1166.1522439081
 20
383.4639257393
 30
0.0
 41
2.5
 42
2.5
 43
2.5
  0
ENDBLK
  5
2A7
330
225
100
AcDbEntity
  8
0
  6
ByBlock
 62
     0
100
AcDbBlockEnd
  0
BLOCK
  5
2A8
330
226
100
AcDbEntity
  8
0
100
AcDbBlockBegin
  2
*D6
 70
     1
 10
0.0
 20
0.0
 30
0.0
  3
*D6
  1

  0
MTEXT
  5
2A9
330
226
100
AcDbEntity
  8
0
  6
Continuous
 62
     2
100
AcDbMText
 10
1130.1522439081
 20
503.8554809301
 30
0.0
 40
3.0
 41
11.8928571429
 46
0.0
 71
     2
 72
     1
  1
23,1
 73
     1
 44
1.0
  0
LINE
  5
2AA
330
226
100
AcDbEntity
  8
0
  6
Continuous
 62
     2
100
AcDbLine
 10
1118.6022439081
 20
485.5391447703
 30
0.0
 11
1118.6022439081
 21
500.8554809301
 31
0.0
  0
LINE
  5
2AB
330
226
100
AcDbEntity
  8
0
  6
Continuous
 62
     2
100
AcDbLine
 10
1141.7022439081
 20
485.5391447703
 30
0.0
 11
1141.7022439081
 21
500.8554809301
 31
0.0
  0
LINE
  5
2AC
330
226
100
AcDbEntity
  8
0
  6
Continuous
 62
     2
100
AcDbLine
 10
1118.6022439081
 20
500.1054809301
 30
0.0
 11
1130.1522439081
 21
500.1054809301
 31
0.0
  0
LINE
  5
2AD
330
226
100
AcDbEntity
  8
0
  6
Continuous
 62
     2
100
AcDbLine
 10
1141.7022439081
 20
500.1054809301
 30
0.0
 11
1130.1522439081
 21
500.1054809301
 31
0.0
  0
INSERT
  5
2AE
330
226
100
AcDbEntity
  8
0
  6
Continuous
 62
     2
100
AcDbBlockReference
  2
_CLOSED
 10
1118.6022439081
 20
500.1054809301
 30
0.0
 41
2.5
 42
2.5
 43
2.5
 50
180.0
  0
INSERT
  5
2AF
330
226
100
AcDbEntity
  8
0
  6
Continuous
 62
     2
100
AcDbBlockReference
  2
_CLOSED
 10
1141.7022439081
 20
500.1054809301
 30
0.0
 41
2.5
 42
2.5
 43
2.5
  0
ENDBLK
  5
2B0
330
226
100
AcDbEntity
  8
0
  6
ByBlock
 62
     0
100
AcDbBlockEnd
  0
BLOCK
  5
22F
330
227
100
AcDbEntity
  8
0
100
AcDbBlockBegin
  2
LOGO2_BL1
 70
     0
 10
1056.2722569265
 20
43.0557432432
 30
0.0
  3
LOGO2_BL1
  1

  0
LINE
  5
230
330
227
100
AcDbEntity
  8
0
  6
Continuous
 62
     7
100
AcDbLine
 10
1048.0151821548
 20
46.2512345821
 30
0.0
 11
1046.7108412254
 21
46.2512345821
 31
0.0
  0
LINE
  5
231
330
227
100
AcDbEntity
  8
0
  6
Continuous
 62
     7
100
AcDbLine
 10
1046.7108412254
 20
46.2512345821
 30
0.0
 11
1046.7108412254
 21
35.7921685222
 31
0.0
  0
LINE
  5
232
330
227
100
AcDbEntity
  8
0
  6
Continuous
 62
     7
100
AcDbLine
 10
1046.7108412254
 20
35.7921685222
 30
0.0
 11
1051.1918961137
 21
35.7921685222
 31
0.0
  0
LINE
  5
233
330
227
100
AcDbEntity
  8
0
  6
Continuous
 62
     7
100
AcDbLine
 10
1051.1918961137
 20
35.7921685222
 30
0.0
 11
1051.1918961137
 21
36.9850228473
 31
0.0
  0
LINE
  5
234
330
227
100
AcDbEntity
  8
0
  6
Continuous
 62
     7
100
AcDbLine
 10
1051.1918961137
 20
36.9850228473
 30
0.0
 11
1048.0151821548
 21
36.9850228473
 31
0.0
  0
LINE
  5
235
330
227
100
AcDbEntity
  8
0
  6
Continuous
 62
     7
100
AcDbLine
 10
1048.0151821548
 20
36.9850228473
 30
0.0
 11
1048.0151821548
 21
46.2512345821
 31
0.0
  0
LINE
  5
236
330
227
100
AcDbEntity
  8
0
  6
Continuous
 62
     7
100
AcDbLine
 10
1062.9515083711
 20
46.2512345821
 30
0.0
 11
1061.647690853
 21
46.2512345821
 31
0.0
  0
LINE
  5
237
330
227
100
AcDbEntity
  8
0
  6
Continuous
 62
     7
100
AcDbLine
 10
1061.647690853
 20
46.2512345821
 30
0.0
 11
1061.647690853
 21
35.7921685222
 31
0.0
  0
LINE
  5
238
330
227
100
AcDbEntity
  8
0
  6
Continuous
 62
     7
100
AcDbLine
 10
1061.647690853
 20
35.7921685222
 30
0.0
 11
1066.1288765941
 21
35.7921685222
 31
0.0
  0
LINE
  5
239
330
227
100
AcDbEntity
  8
0
  6
Continuous
 62
     7
100
AcDbLine
 10
1066.1288765941
 20
35.7921685222
 30
0.0
 11
1066.1288765941
 21
36.9850228473
 31
0.0
  0
LINE
  5
23A
330
227
100
AcDbEntity
  8
0
  6
Continuous
 62
     7
100
AcDbLine
 10
1066.1288765941
 20
36.9850228473
 30
0.0
 11
1062.9515083711
 21
36.9850228473
 31
0.0
  0
LINE
  5
23B
330
227
100
AcDbEntity
  8
0
  6
Continuous
 62
     7
100
AcDbLine
 10
1062.9515083711
 20
36.9850228473
 30
0.0
 11
1062.9515083711
 21
46.2512345821
 31
0.0
  0
LWPOLYLINE
  5
23C
330
227
100
AcDbEntity
  8
0
  6
Continuous
 62
     7
100
AcDbPolyline
 90
        2
 70
     0
 43
0.2
 10
1045.0652361363
 20
32.4486172153
 10
1045.0652361363
 20
30.5915539659
  0
LWPOLYLINE
  5
23D
330
227
100
AcDbEntity
  8
0
  6
Continuous
 62
     7
100
AcDbPolyline
 90
        2
 70
     0
 43
0.2
 10
1045.0652361363
 20
30.5915539659
 10
1045.8609521467
 20
30.5915539659
  0
LWPOLYLINE
  5
23E
330
227
100
AcDbEntity
  8
0
  6
Continuous
 62
     7
100
AcDbPolyline
 90
        2
 70
     0
 43
0.2
 10
1045.8609521467
 20
30.5915539659
 10
1045.8609521467
 20
30.8035355375
  0
LWPOLYLINE
  5
23F
330
227
100
AcDbEntity
  8
0
  6
Continuous
 62
     7
100
AcDbPolyline
 90
        2
 70
     0
 43
0.2
 10
1045.8609521467
 20
30.8035355375
 10
1045.2968456312
 20
30.8035355375
  0
LWPOLYLINE
  5
240
330
227
100
AcDbEntity
  8
0
  6
Continuous
 62
     7
100
AcDbPolyline
 90
        2
 70
     0
 43
0.2
 10
1045.2968456312
 20
30.8035355375
 10
1045.2968456312
 20
32.4486172153
  0
LWPOLYLINE
  5
241
330
227
100
AcDbEntity
  8
0
  6
Continuous
 62
     7
100
AcDbPolyline
 90
        2
 70
     0
 43
0.2
 10
1045.2968456312
 20
32.4486172153
 10
1045.0652361363
 20
32.4486172153
  0
SPLINE
  5
242
330
227
100
AcDbEntity
  8
0
  6
Continuous
 62
     7
100
AcDbSpline
 70
     3
 71
     3
 72
    35
 73
    31
 74
     0
 42
0.000000001
 43
0.0000001
 40
0.0
 40
0.0
 40
0.0
 40
0.0
 40
1.0
 40
1.0
 40
1.0
 40
2.0
 40
2.0
 40
2.0
 40
3.0
 40
3.0
 40
3.0
 40
4.0
 40
4.0
 40
4.0
 40
5.0
 40
5.0
 40
5.0
 40
6.0
 40
6.0
 40
6.0
 40
7.0
 40
7.0
 40
7.0
 40
8.0
 40
8.0
 40
8.0
 40
9.0
 40
9.0
 40
9.0
 40
10.0
 40
10.0
 40
10.0
 40
10.0
 10
1047.2592454022
 20
31.7441056218
 30
0.0
 10
1047.2592454022
 20
31.7441056218
 30
0.0
 10
1047.2592454022
 20
31.0819903427
 30
0.0
 10
1047.2592454022
 20
31.0819903427
 30
0.0
 10
1047.2592454022
 20
30.7668967474
 30
0.0
 10
1047.4071090911
 20
30.5522981194
 30
0.0
 10
1047.7471955754
 20
30.5522981194
 30
0.0
 10
1048.0867586484
 20
30.5522981194
 30
0.0
 10
1048.2348840428
 20
30.7668967474
 30
0.0
 10
1048.2348840428
 20
31.0819903427
 30
0.0
 10
1048.2348840428
 20
31.0819903427
 30
0.0
 10
1048.2348840428
 20
31.7441056218
 30
0.0
 10
1048.2348840428
 20
31.7441056218
 30
0.0
 10
1048.2348840428
 20
31.7441056218
 30
0.0
 10
1048.012826804
 20
31.7441056218
 30
0.0
 10
1048.012826804
 20
31.7441056218
 30
0.0
 10
1048.012826804
 20
31.7441056218
 30
0.0
 10
1048.012826804
 20
31.1071140845
 30
0.0
 10
1048.012826804
 20
31.1071140845
 30
0.0
 10
1048.012826804
 20
30.9213030773
 30
0.0
 10
1047.9661123465
 20
30.7585221668
 30
0.0
 10
1047.7471955754
 20
30.7585221668
 30
0.0
 10
1047.5277553929
 20
30.7585221668
 30
0.0
 10
1047.4810409355
 20
30.9213030773
 30
0.0
 10
1047.4810409355
 20
31.1071140845
 30
0.0
 10
1047.4810409355
 20
31.1071140845
 30
0.0
 10
1047.4810409355
 20
31.7441056218
 30
0.0
 10
1047.4810409355
 20
31.7441056218
 30
0.0
 10
1047.4810409355
 20
31.7441056218
 30
0.0
 10
1047.2592454022
 20
31.7441056218
 30
0.0
 10
1047.2592454022
 20
31.7441056218
 30
0.0
  0
SPLINE
  5
243
330
227
100
AcDbEntity
  8
0
  6
Continuous
 62
     7
100
AcDbSpline
 70
     3
 71
     3
 72
    35
 73
    31
 74
     0
 42
0.000000001
 43
0.0000001
 40
0.0
 40
0.0
 40
0.0
 40
0.0
 40
1.0
 40
1.0
 40
1.0
 40
2.0
 40
2.0
 40
2.0
 40
3.0
 40
3.0
 40
3.0
 40
4.0
 40
4.0
 40
4.0
 40
5.0
 40
5.0
 40
5.0
 40
6.0
 40
6.0
 40
6.0
 40
7.0
 40
7.0
 40
7.0
 40
8.0
 40
8.0
 40
8.0
 40
9.0
 40
9.0
 40
9.0
 40
10.0
 40
10.0
 40
10.0
 40
10.0
 10
1050.6580166
 20
31.7027561301
 30
0.0
 10
1050.5695600924
 20
31.7540504363
 30
0.0
 10
1050.4561106957
 20
31.7791741781
 30
0.0
 10
1050.3524752607
 20
31.7791741781
 30
0.0
 10
1049.9976024076
 20
31.7791741781
 30
0.0
 10
1049.7221572173
 20
31.515374889
 30
0.0
 10
1049.7221572173
 20
31.1578849794
 30
0.0
 10
1049.7221572173
 20
30.8129569407
 30
0.0
 10
1050.0006120225
 20
30.5528215306
 30
0.0
 10
1050.3401750955
 20
30.5528215306
 30
0.0
 10
1050.4561106957
 20
30.5528215306
 30
0.0
 10
1050.5568673686
 20
30.5748048047
 30
0.0
 10
1050.6580166
 20
30.6287161674
 30
0.0
 10
1050.6580166
 20
30.6287161674
 30
0.0
 10
1050.6580166
 20
30.9113582628
 30
0.0
 10
1050.6580166
 20
30.9113582628
 30
0.0
 10
1050.5741399411
 20
30.8181910536
 30
0.0
 10
1050.470635359
 20
30.7590455781
 30
0.0
 10
1050.3425304463
 20
30.7590455781
 30
0.0
 10
1050.1088273062
 20
30.7590455781
 30
0.0
 10
1049.9435601921
 20
30.9312478918
 30
0.0
 10
1049.9435601921
 20
31.1678297939
 30
0.0
 10
1049.9435601921
 20
31.3798113655
 30
0.0
 10
1050.1113135098
 20
31.5719033081
 30
0.0
 10
1050.3281366358
 20
31.5719033081
 30
0.0
 10
1050.4609522501
 20
31.5719033081
 30
0.0
 10
1050.5695600924
 20
31.5179919455
 30
0.0
 10
1050.6580166
 20
31.4169735669
 30
0.0
 10
1050.6580166
 20
31.4169735669
 30
0.0
 10
1050.6580166
 20
31.7027561301
 30
0.0
 10
1050.6580166
 20
31.7027561301
 30
0.0
  0
SPLINE
  5
244
330
227
100
AcDbEntity
  8
0
  6
Continuous
 62
     7
100
AcDbSpline
 70
     3
 71
     3
 72
    32
 73
    28
 74
     0
 42
0.000000001
 43
0.0000001
 40
0.0
 40
0.0
 40
0.0
 40
0.0
 40
1.0
 40
1.0
 40
1.0
 40
2.0
 40
2.0
 40
2.0
 40
3.0
 40
3.0
 40
3.0
 40
4.0
 40
4.0
 40
4.0
 40
5.0
 40
5.0
 40
5.0
 40
6.0
 40
6.0
 40
6.0
 40
7.0
 40
7.0
 40
7.0
 40
8.0
 40
8.0
 40
8.0
 40
9.0
 40
9.0
 40
9.0
 40
9.0
 10
1053.1898878523
 20
31.1311910037
 30
0.0
 10
1053.1898878523
 20
31.1311910037
 30
0.0
 10
1053.1898878523
 20
31.1652127375
 30
0.0
 10
1053.1898878523
 20
31.1652127375
 30
0.0
 10
1053.1898878523
 20
31.5075237197
 30
0.0
 10
1053.0170312745
 20
31.7791741781
 30
0.0
 10
1052.6503816673
 20
31.7791741781
 30
0.0
 10
1052.2787596529
 20
31.7791741781
 30
0.0
 10
1052.0890230611
 20
31.5127578326
 30
0.0
 10
1052.0890230611
 20
31.1578849794
 30
0.0
 10
1052.0890230611
 20
30.8181910536
 30
0.0
 10
1052.3030982778
 20
30.5522981194
 30
0.0
 10
1052.6552232217
 20
30.5522981194
 30
0.0
 10
1052.8792432529
 20
30.5522981194
 30
0.0
 10
1053.0814108629
 20
30.667972014
 30
0.0
 10
1053.1898878523
 20
30.8673917147
 30
0.0
 10
1053.1898878523
 20
30.8673917147
 30
0.0
 10
1053.0022449056
 20
30.9741676174
 30
0.0
 10
1053.0022449056
 20
30.9741676174
 30
0.0
 10
1052.9187608052
 20
30.8354636261
 30
0.0
 10
1052.8275563883
 20
30.7496241749
 30
0.0
 10
1052.657971131
 20
30.7496241749
 30
0.0
 10
1052.4459895594
 20
30.7496241749
 30
0.0
 10
1052.3130430923
 20
30.9343883595
 30
0.0
 10
1052.3106877415
 20
31.1311910037
 30
0.0
 10
1052.3106877415
 20
31.1311910037
 30
0.0
 10
1053.1898878523
 20
31.1311910037
 30
0.0
 10
1053.1898878523
 20
31.1311910037
 30
0.0
  0
SPLINE
  5
245
330
227
100
AcDbEntity
  8
0
  6
Continuous
 62
     7
100
AcDbSpline
 70
     3
 71
     3
 72
    14
 73
    10
 74
     0
 42
0.000000001
 43
0.0000001
 40
0.0
 40
0.0
 40
0.0
 40
0.0
 40
1.0
 40
1.0
 40
1.0
 40
2.0
 40
2.0
 40
2.0
 40
3.0
 40
3.0
 40
3.0
 40
3.0
 10
1052.3227262011
 20
31.2986826159
 30
0.0
 10
1052.3503361465
 20
31.4635571715
 30
0.0
 10
1052.4781793536
 20
31.5865588242
 30
0.0
 10
1052.6503816673
 20
31.5865588242
 30
0.0
 10
1052.8275563883
 20
31.5865588242
 30
0.0
 10
1052.9410057849
 20
31.4708849296
 30
0.0
 10
1052.9682231719
 20
31.2986826159
 30
0.0
 10
1052.9682231719
 20
31.2986826159
 30
0.0
 10
1052.3227262011
 20
31.2986826159
 30
0.0
 10
1052.3227262011
 20
31.2986826159
 30
0.0
  0
SPLINE
  5
246
330
227
100
AcDbEntity
  8
0
  6
Continuous
 62
     7
100
AcDbSpline
 70
     3
 71
     3
 72
    20
 73
    16
 74
     0
 42
0.000000001
 43
0.0000001
 40
0.0
 40
0.0
 40
0.0
 40
0.0
 40
1.0
 40
1.0
 40
1.0
 40
2.0
 40
2.0
 40
2.0
 40
3.0
 40
3.0
 40
3.0
 40
4.0
 40
4.0
 40
4.0
 40
5.0
 40
5.0
 40
5.0
 40
5.0
 10
1055.2139193025
 20
31.508047131
 30
0.0
 10
1055.2139193025
 20
31.508047131
 30
0.0
 10
1055.6250588691
 20
31.0055722947
 30
0.0
 10
1055.6250588691
 20
31.0055722947
 30
0.0
 10
1055.508992416
 20
30.8898984
 30
0.0
 10
1055.3712043945
 20
30.7595689894
 30
0.0
 10
1055.1992637864
 20
30.7595689894
 30
0.0
 10
1055.0218273598
 20
30.7595689894
 30
0.0
 10
1054.8543357477
 20
30.9239201337
 30
0.0
 10
1054.8543357477
 20
31.100833149
 30
0.0
 10
1054.8543357477
 20
31.2787929869
 30
0.0
 10
1055.0640928213
 20
31.4049351073
 30
0.0
 10
1055.1916743227
 20
31.4928682037
 30
0.0
 10
1055.1916743227
 20
31.4928682037
 30
0.0
 10
1055.2139193025
 20
31.508047131
 30
0.0
 10
1055.2139193025
 20
31.508047131
 30
0.0
  0
SPLINE
  5
247
330
227
100
AcDbEntity
  8
0
  6
Continuous
 62
     7
100
AcDbSpline
 70
     3
 71
     3
 72
    23
 73
    19
 74
     0
 42
0.000000001
 43
0.0000001
 40
0.0
 40
0.0
 40
0.0
 40
0.0
 40
1.0
 40
1.0
 40
1.0
 40
2.0
 40
2.0
 40
2.0
 40
3.0
 40
3.0
 40
3.0
 40
4.0
 40
4.0
 40
4.0
 40
5.0
 40
5.0
 40
5.0
 40
6.0
 40
6.0
 40
6.0
 40
6.0
 10
1055.2632508164
 20
31.7990638071
 30
0.0
 10
1055.2632508164
 20
31.7990638071
 30
0.0
 10
1055.2016191372
 20
31.8775755002
 30
0.0
 10
1055.2016191372
 20
31.8775755002
 30
0.0
 10
1055.1477077746
 20
31.946142379
 30
0.0
 10
1055.0909176498
 20
32.015232669
 30
0.0
 10
1055.0909176498
 20
32.1089232895
 30
0.0
 10
1055.0909176498
 20
32.2277376518
 30
0.0
 10
1055.1868327683
 20
32.3052025224
 30
0.0
 10
1055.2977959614
 20
32.3052025224
 30
0.0
 10
1055.4210593196
 20
32.3052025224
 30
0.0
 10
1055.5143573817
 20
32.2340185873
 30
0.0
 10
1055.5143573817
 20
32.1036891766
 30
0.0
 10
1055.5143573817
 20
31.9686490643
 30
0.0
 10
1055.386252469
 20
31.8922310163
 30
0.0
 10
1055.2926927013
 20
31.8184300247
 30
0.0
 10
1055.2926927013
 20
31.8184300247
 30
0.0
 10
1055.2632508164
 20
31.7990638071
 30
0.0
 10
1055.2632508164
 20
31.7990638071
 30
0.0
  0
SPLINE
  5
248
330
227
100
AcDbEntity
  8
0
  6
Continuous
 62
     7
100
AcDbSpline
 70
     3
 71
     3
 72
    50
 73
    46
 74
     0
 42
0.000000001
 43
0.0000001
 40
0.0
 40
0.0
 40
0.0
 40
0.0
 40
1.0
 40
1.0
 40
1.0
 40
2.0
 40
2.0
 40
2.0
 40
3.0
 40
3.0
 40
3.0
 40
4.0
 40
4.0
 40
4.0
 40
5.0
 40
5.0
 40
5.0
 40
6.0
 40
6.0
 40
6.0
 40
7.0
 40
7.0
 40
7.0
 40
8.0
 40
8.0
 40
8.0
 40
9.0
 40
9.0
 40
9.0
 40
10.0
 40
10.0
 40
10.0
 40
11.0
 40
11.0
 40
11.0
 40
12.0
 40
12.0
 40
12.0
 40
13.0
 40
13.0
 40
13.0
 40
14.0
 40
14.0
 40
14.0
 40
15.0
 40
15.0
 40
15.0
 40
15.0
 10
1055.965407059
 20
30.5920773772
 30
0.0
 10
1055.965407059
 20
30.5920773772
 30
0.0
 10
1056.2507970637
 20
30.5920773772
 30
0.0
 10
1056.2507970637
 20
30.5920773772
 30
0.0
 10
1056.2507970637
 20
30.5920773772
 30
0.0
 10
1055.9184308959
 20
31.0029552382
 30
0.0
 10
1055.9184308959
 20
31.0029552382
 30
0.0
 10
1055.9184308959
 20
31.0029552382
 30
0.0
 10
1056.1449371308
 20
31.2688481725
 30
0.0
 10
1056.1449371308
 20
31.2688481725
 30
0.0
 10
1056.1449371308
 20
31.2688481725
 30
0.0
 10
1055.9966808835
 20
31.4216842685
 30
0.0
 10
1055.9966808835
 20
31.4216842685
 30
0.0
 10
1055.9966808835
 20
31.4216842685
 30
0.0
 10
1055.7807737272
 20
31.1704468503
 30
0.0
 10
1055.7807737272
 20
31.1704468503
 30
0.0
 10
1055.7807737272
 20
31.1704468503
 30
0.0
 10
1055.3937110799
 20
31.6383765417
 30
0.0
 10
1055.3937110799
 20
31.6383765417
 30
0.0
 10
1055.5491642324
 20
31.7524802024
 30
0.0
 10
1055.7314422134
 20
31.8922310163
 30
0.0
 10
1055.7314422134
 20
32.1015955315
 30
0.0
 10
1055.7314422134
 20
32.3455051916
 30
0.0
 10
1055.5294054562
 20
32.4889198845
 30
0.0
 10
1055.3028992214
 20
32.4889198845
 30
0.0
 10
1055.0587278556
 20
32.4889198845
 30
0.0
 10
1054.8743562295
 20
32.3381774336
 30
0.0
 10
1054.8743562295
 20
32.0817059025
 30
0.0
 10
1054.8743562295
 20
31.9241591049
 30
0.0
 10
1054.9730192572
 20
31.7865019362
 30
0.0
 10
1055.0783557789
 20
31.6755387431
 30
0.0
 10
1055.0783557789
 20
31.6755387431
 30
0.0
 10
1054.9628127371
 20
31.5917929371
 30
0.0
 10
1054.9628127371
 20
31.5917929371
 30
0.0
 10
1054.7851146049
 20
31.4635571715
 30
0.0
 10
1054.6377743273
 20
31.3358448173
 30
0.0
 10
1054.6377743273
 20
31.0987395039
 30
0.0
 10
1054.6377743273
 20
30.7784117957
 30
0.0
 10
1054.8963395036
 20
30.5522981194
 30
0.0
 10
1055.2067223973
 20
30.5522981194
 30
0.0
 10
1055.4256391684
 20
30.5522981194
 30
0.0
 10
1055.6228343711
 20
30.6773934172
 30
0.0
 10
1055.7631085963
 20
30.8433147954
 30
0.0
 10
1055.7631085963
 20
30.8433147954
 30
0.0
 10
1055.965407059
 20
30.5920773772
 30
0.0
 10
1055.965407059
 20
30.5920773772
 30
0.0
  0
LWPOLYLINE
  5
249
330
227
100
AcDbEntity
  8
0
  6
Continuous
 62
     7
100
AcDbPolyline
 90
        2
 70
     0
 43
0.2
 10
1057.9008511488
 20
32.4486172153
 10
1057.6695033595
 20
32.4486172153
  0
LWPOLYLINE
  5
24A
330
227
100
AcDbEntity
  8
0
  6
Continuous
 62
     7
100
AcDbPolyline
 90
        2
 70
     0
 43
0.2
 10
1057.6695033595
 20
32.4486172153
 10
1057.6695033595
 20
30.5915539659
  0
LWPOLYLINE
  5
24B
330
227
100
AcDbEntity
  8
0
  6
Continuous
 62
     7
100
AcDbPolyline
 90
        2
 70
     0
 43
0.2
 10
1057.6695033595
 20
30.5915539659
 10
1058.4648268114
 20
30.5915539659
  0
LWPOLYLINE
  5
24C
330
227
100
AcDbEntity
  8
0
  6
Continuous
 62
     7
100
AcDbPolyline
 90
        2
 70
     0
 43
0.2
 10
1058.4648268114
 20
30.5915539659
 10
1058.4648268114
 20
30.8035355375
  0
LWPOLYLINE
  5
24D
330
227
100
AcDbEntity
  8
0
  6
Continuous
 62
     7
100
AcDbPolyline
 90
        2
 70
     0
 43
0.2
 10
1058.4648268114
 20
30.8035355375
 10
1057.9008511488
 20
30.8035355375
  0
LWPOLYLINE
  5
24E
330
227
100
AcDbEntity
  8
0
  6
Continuous
 62
     7
100
AcDbPolyline
 90
        2
 70
     0
 43
0.2
 10
1057.9008511488
 20
30.8035355375
 10
1057.9008511488
 20
32.4486172153
  0
LWPOLYLINE
  5
24F
330
227
100
AcDbEntity
  8
0
  6
Continuous
 62
     7
100
AcDbPolyline
 90
        2
 70
     0
 43
0.2
 10
1060.1439302229
 20
31.7441056218
 10
1059.9227889538
 20
31.7441056218
  0
LWPOLYLINE
  5
250
330
227
100
AcDbEntity
  8
0
  6
Continuous
 62
     7
100
AcDbPolyline
 90
        2
 70
     0
 43
0.2
 10
1059.9227889538
 20
31.7441056218
 10
1059.9227889538
 20
30.5920773772
  0
LWPOLYLINE
  5
251
330
227
100
AcDbEntity
  8
0
  6
Continuous
 62
     7
100
AcDbPolyline
 90
        2
 70
     0
 43
0.2
 10
1059.9227889538
 20
30.5920773772
 10
1060.1439302229
 20
30.5920773772
  0
LWPOLYLINE
  5
252
330
227
100
AcDbEntity
  8
0
  6
Continuous
 62
     7
100
AcDbPolyline
 90
        2
 70
     0
 43
0.2
 10
1060.1439302229
 20
30.5920773772
 10
1060.1439302229
 20
31.7441056218
  0
LWPOLYLINE
  5
253
330
227
100
AcDbEntity
  8
0
  6
Continuous
 62
     7
100
AcDbPolyline
 90
        2
 70
     1
 43
0.2
 10
1059.8809069457
 20
32.2740595508
 42
1.0
 10
1060.1860739366
 20
32.2740595508
 42
1.0
  0
SPLINE
  5
254
330
227
100
AcDbEntity
  8
0
  6
Continuous
 62
     7
100
AcDbSpline
 70
     3
 71
     3
 72
    17
 73
    13
 74
     0
 42
0.000000001
 43
0.0000001
 40
0.0
 40
0.0
 40
0.0
 40
0.0
 40
1.0
 40
1.0
 40
1.0
 40
2.0
 40
2.0
 40
2.0
 40
3.0
 40
3.0
 40
3.0
 40
4.0
 40
4.0
 40
4.0
 40
4.0
 10
1062.2742141646
 20
30.7496241749
 30
0.0
 10
1062.0402493189
 20
30.7496241749
 30
0.0
 10
1061.9099199082
 20
30.951660932
 30
0.0
 10
1061.9099199082
 20
31.1678297939
 30
0.0
 10
1061.9099199082
 20
31.3824284219
 30
0.0
 10
1062.0457451374
 20
31.5813247113
 30
0.0
 10
1062.2742141646
 20
31.5813247113
 30
0.0
 10
1062.5136748288
 20
31.5813247113
 30
0.0
 10
1062.6492383523
 20
31.3923732364
 30
0.0
 10
1062.6492383523
 20
31.1678297939
 30
0.0
 10
1062.6492383523
 20
30.9417161175
 30
0.0
 10
1062.5160301795
 20
30.7496241749
 30
0.0
 10
1062.2742141646
 20
30.7496241749
 30
0.0
  0
SPLINE
  5
255
330
227
100
AcDbEntity
  8
0
  6
Continuous
 62
     7
100
AcDbSpline
 70
     3
 71
     3
 72
    50
 73
    46
 74
     0
 42
0.000000001
 43
0.0000001
 40
0.0
 40
0.0
 40
0.0
 40
0.0
 40
1.0
 40
1.0
 40
1.0
 40
2.0
 40
2.0
 40
2.0
 40
3.0
 40
3.0
 40
3.0
 40
4.0
 40
4.0
 40
4.0
 40
5.0
 40
5.0
 40
5.0
 40
6.0
 40
6.0
 40
6.0
 40
7.0
 40
7.0
 40
7.0
 40
8.0
 40
8.0
 40
8.0
 40
9.0
 40
9.0
 40
9.0
 40
10.0
 40
10.0
 40
10.0
 40
11.0
 40
11.0
 40
11.0
 40
12.0
 40
12.0
 40
12.0
 40
13.0
 40
13.0
 40
13.0
 40
14.0
 40
14.0
 40
14.0
 40
15.0
 40
15.0
 40
15.0
 40
15.0
 10
1062.8583411618
 20
31.7446290331
 30
0.0
 10
1062.8583411618
 20
31.7446290331
 30
0.0
 10
1062.6366764814
 20
31.7446290331
 30
0.0
 10
1062.6366764814
 20
31.7446290331
 30
0.0
 10
1062.6366764814
 20
31.7446290331
 30
0.0
 10
1062.6366764814
 20
31.5473029776
 30
0.0
 10
1062.6366764814
 20
31.5473029776
 30
0.0
 10
1062.6366764814
 20
31.5473029776
 30
0.0
 10
1062.6319657798
 20
31.5473029776
 30
0.0
 10
1062.6319657798
 20
31.5473029776
 30
0.0
 10
1062.5406305101
 20
31.6901942592
 30
0.0
 10
1062.4027116357
 20
31.7786507668
 30
0.0
 10
1062.2299859107
 20
31.7786507668
 30
0.0
 10
1061.8976197429
 20
31.7786507668
 30
0.0
 10
1061.6885169334
 20
31.4907745585
 30
0.0
 10
1061.6885169334
 20
31.1751575519
 30
0.0
 10
1061.6885169334
 20
30.8454084406
 30
0.0
 10
1061.8855812833
 20
30.5522981194
 30
0.0
 10
1062.2404541365
 20
30.5522981194
 30
0.0
 10
1062.4027116357
 20
30.5522981194
 30
0.0
 10
1062.5427241552
 20
30.640754627
 30
0.0
 10
1062.6319657798
 20
30.771607449
 30
0.0
 10
1062.6319657798
 20
30.771607449
 30
0.0
 10
1062.6366764814
 20
30.771607449
 30
0.0
 10
1062.6366764814
 20
30.771607449
 30
0.0
 10
1062.6366764814
 20
30.771607449
 30
0.0
 10
1062.6366764814
 20
30.5522981194
 30
0.0
 10
1062.6366764814
 20
30.5522981194
 30
0.0
 10
1062.6366764814
 20
30.3157162172
 30
0.0
 10
1062.5801480623
 20
30.1288583875
 30
0.0
 10
1062.30692737
 20
30.1288583875
 30
0.0
 10
1062.1046289073
 20
30.1288583875
 30
0.0
 10
1061.9619993313
 20
30.2471493385
 30
0.0
 10
1061.9619993313
 20
30.453373386
 30
0.0
 10
1061.9619993313
 20
30.453373386
 30
0.0
 10
1061.7403346509
 20
30.453373386
 30
0.0
 10
1061.7403346509
 20
30.453373386
 30
0.0
 10
1061.7453070582
 20
30.1288583875
 30
0.0
 10
1061.9763931418
 20
29.9320557432
 30
0.0
 10
1062.2967208499
 20
29.9320557432
 30
0.0
 10
1062.7447609123
 20
29.9320557432
 30
0.0
 10
1062.8583411618
 20
30.2173148951
 30
0.0
 10
1062.8583411618
 20
30.6140606513
 30
0.0
 10
1062.8583411618
 20
30.6140606513
 30
0.0
 10
1062.8583411618
 20
31.7446290331
 30
0.0
 10
1062.8583411618
 20
31.7446290331
 30
0.0
  0
SPLINE
  5
256
330
227
100
AcDbEntity
  8
0
  6
Continuous
 62
     7
100
AcDbSpline
 70
     3
 71
     3
 72
    44
 73
    40
 74
     0
 42
0.000000001
 43
0.0000001
 40
0.0
 40
0.0
 40
0.0
 40
0.0
 40
1.0
 40
1.0
 40
1.0
 40
2.0
 40
2.0
 40
2.0
 40
3.0
 40
3.0
 40
3.0
 40
4.0
 40
4.0
 40
4.0
 40
5.0
 40
5.0
 40
5.0
 40
6.0
 40
6.0
 40
6.0
 40
7.0
 40
7.0
 40
7.0
 40
8.0
 40
8.0
 40
8.0
 40
9.0
 40
9.0
 40
9.0
 40
10.0
 40
10.0
 40
10.0
 40
11.0
 40
11.0
 40
11.0
 40
12.0
 40
12.0
 40
12.0
 40
13.0
 40
13.0
 40
13.0
 40
13.0
 10
1064.4272664972
 20
32.7296890769
 30
0.0
 10
1064.4272664972
 20
32.7296890769
 30
0.0
 10
1064.4272664972
 20
30.5915539659
 30
0.0
 10
1064.4272664972
 20
30.5915539659
 30
0.0
 10
1064.4272664972
 20
30.5915539659
 30
0.0
 10
1064.648669472
 20
30.5915539659
 30
0.0
 10
1064.648669472
 20
30.5915539659
 30
0.0
 10
1064.648669472
 20
30.5915539659
 30
0.0
 10
1064.648669472
 20
31.1212461893
 30
0.0
 10
1064.648669472
 20
31.1212461893
 30
0.0
 10
1064.648669472
 20
31.3311341157
 30
0.0
 10
1064.648669472
 20
31.5818481226
 30
0.0
 10
1064.9339286239
 20
31.5818481226
 30
0.0
 10
1065.1608274172
 20
31.5818481226
 30
0.0
 10
1065.1877830985
 20
31.4489016555
 30
0.0
 10
1065.1877830985
 20
31.2526224225
 30
0.0
 10
1065.1877830985
 20
31.2526224225
 30
0.0
 10
1065.1877830985
 20
30.5915539659
 30
0.0
 10
1065.1877830985
 20
30.5915539659
 30
0.0
 10
1065.1877830985
 20
30.5915539659
 30
0.0
 10
1065.4097094845
 20
30.5915539659
 30
0.0
 10
1065.4097094845
 20
30.5915539659
 30
0.0
 10
1065.4097094845
 20
30.5915539659
 30
0.0
 10
1065.4097094845
 20
31.2787929869
 30
0.0
 10
1065.4097094845
 20
31.2787929869
 30
0.0
 10
1065.4097094845
 20
31.5593414372
 30
0.0
 10
1065.3257019728
 20
31.7791741781
 30
0.0
 10
1065.0006635631
 20
31.7791741781
 30
0.0
 10
1064.8609127492
 20
31.7791741781
 30
0.0
 10
1064.7227321692
 20
31.7127009446
 30
0.0
 10
1064.6533801736
 20
31.5896992919
 30
0.0
 10
1064.6533801736
 20
31.5896992919
 30
0.0
 10
1064.648669472
 20
31.5896992919
 30
0.0
 10
1064.648669472
 20
31.5896992919
 30
0.0
 10
1064.648669472
 20
31.5896992919
 30
0.0
 10
1064.648669472
 20
32.7296890769
 30
0.0
 10
1064.648669472
 20
32.7296890769
 30
0.0
 10
1064.648669472
 20
32.7296890769
 30
0.0
 10
1064.4272664972
 20
32.7296890769
 30
0.0
 10
1064.4272664972
 20
32.7296890769
 30
0.0
  0
LWPOLYLINE
  5
257
330
227
100
AcDbEntity
  8
0
  6
Continuous
 62
     7
100
AcDbPolyline
 90
        2
 70
     0
 43
0.2
 10
1067.2495001614
 20
31.5373581631
 10
1067.4659307289
 20
31.5373581631
  0
LWPOLYLINE
  5
258
330
227
100
AcDbEntity
  8
0
  6
Continuous
 62
     7
100
AcDbPolyline
 90
        2
 70
     0
 43
0.2
 10
1067.4659307289
 20
31.5373581631
 10
1067.4659307289
 20
31.7441056218
  0
LWPOLYLINE
  5
259
330
227
100
AcDbEntity
  8
0
  6
Continuous
 62
     7
100
AcDbPolyline
 90
        2
 70
     0
 43
0.2
 10
1067.4659307289
 20
31.7441056218
 10
1067.2495001614
 20
31.7441056218
  0
LWPOLYLINE
  5
25A
330
227
100
AcDbEntity
  8
0
  6
Continuous
 62
     7
100
AcDbPolyline
 90
        2
 70
     0
 43
0.2
 10
1067.2495001614
 20
31.7441056218
 10
1067.2495001614
 20
32.1848179262
  0
LWPOLYLINE
  5
25B
330
227
100
AcDbEntity
  8
0
  6
Continuous
 62
     7
100
AcDbPolyline
 90
        2
 70
     0
 43
0.2
 10
1067.2495001614
 20
32.1848179262
 10
1067.027835481
 20
32.1848179262
  0
LWPOLYLINE
  5
25C
330
227
100
AcDbEntity
  8
0
  6
Continuous
 62
     7
100
AcDbPolyline
 90
        2
 70
     0
 43
0.2
 10
1067.027835481
 20
32.1848179262
 10
1067.027835481
 20
31.7441056218
  0
LWPOLYLINE
  5
25D
330
227
100
AcDbEntity
  8
0
  6
Continuous
 62
     7
100
AcDbPolyline
 90
        2
 70
     0
 43
0.2
 10
1067.027835481
 20
31.7441056218
 10
1066.9071891791
 20
31.7441056218
  0
LWPOLYLINE
  5
25E
330
227
100
AcDbEntity
  8
0
  6
Continuous
 62
     7
100
AcDbPolyline
 90
        2
 70
     0
 43
0.2
 10
1066.9071891791
 20
31.7441056218
 10
1066.9071891791
 20
31.5373581631
  0
LWPOLYLINE
  5
25F
330
227
100
AcDbEntity
  8
0
  6
Continuous
 62
     7
100
AcDbPolyline
 90
        2
 70
     0
 43
0.2
 10
1066.9071891791
 20
31.5373581631
 10
1067.027835481
 20
31.5373581631
  0
LWPOLYLINE
  5
260
330
227
100
AcDbEntity
  8
0
  6
Continuous
 62
     7
100
AcDbPolyline
 90
        2
 70
     0
 43
0.2
 10
1067.027835481
 20
31.5373581631
 10
1067.027835481
 20
30.5915539659
  0
LWPOLYLINE
  5
261
330
227
100
AcDbEntity
  8
0
  6
Continuous
 62
     7
100
AcDbPolyline
 90
        2
 70
     0
 43
0.2
 10
1067.027835481
 20
30.5915539659
 10
1067.2495001614
 20
30.5915539659
  0
LWPOLYLINE
  5
262
330
227
100
AcDbEntity
  8
0
  6
Continuous
 62
     7
100
AcDbPolyline
 90
        2
 70
     0
 43
0.2
 10
1067.2495001614
 20
30.5915539659
 10
1067.2495001614
 20
31.5373581631
  0
SPLINE
  5
263
330
227
100
AcDbEntity
  8
0
  6
Continuous
 62
     7
100
AcDbSpline
 70
     3
 71
     3
 72
    20
 73
    16
 74
     0
 42
0.000000001
 43
0.0000001
 40
0.0
 40
0.0
 40
0.0
 40
0.0
 40
1.0
 40
1.0
 40
1.0
 40
2.0
 40
2.0
 40
2.0
 40
3.0
 40
3.0
 40
3.0
 40
4.0
 40
4.0
 40
4.0
 40
5.0
 40
5.0
 40
5.0
 40
5.0
 10
1055.0315104686
 20
40.9524804093
 30
0.0
 10
1055.0315104686
 20
40.9524804093
 30
0.0
 10
1057.3478671231
 20
38.1229189871
 30
0.0
 10
1057.3478671231
 20
38.1229189871
 30
0.0
 10
1056.6962200697
 20
37.4707485224
 30
0.0
 10
1055.9193468657
 20
36.7348322517
 30
0.0
 10
1054.9481572211
 20
36.7348322517
 30
0.0
 10
1053.9496193366
 20
36.7348322517
 30
0.0
 10
1053.0063013431
 20
37.6644106989
 30
0.0
 10
1053.0063013431
 20
38.6636028475
 30
0.0
 10
1053.0063013431
 20
39.662794996
 30
0.0
 10
1054.1851544162
 20
40.3694002346
 30
0.0
 10
1054.9066768765
 20
40.8692580146
 30
0.0
 10
1054.9066768765
 20
40.8692580146
 30
0.0
 10
1055.0315104686
 20
40.9524804093
 30
0.0
 10
1055.0315104686
 20
40.9524804093
 30
0.0
  0
SPLINE
  5
264
330
227
100
AcDbEntity
  8
0
  6
Continuous
 62
     7
100
AcDbSpline
 70
     3
 71
     3
 72
    23
 73
    19
 74
     0
 42
0.000000001
 43
0.0000001
 40
0.0
 40
0.0
 40
0.0
 40
0.0
 40
1.0
 40
1.0
 40
1.0
 40
2.0
 40
2.0
 40
2.0
 40
3.0
 40
3.0
 40
3.0
 40
4.0
 40
4.0
 40
4.0
 40
5.0
 40
5.0
 40
5.0
 40
6.0
 40
6.0
 40
6.0
 40
6.0
 10
1055.3089184512
 20
42.5902343291
 30
0.0
 10
1055.3089184512
 20
42.5902343291
 30
0.0
 10
1054.9624201787
 20
43.0335636899
 30
0.0
 10
1054.9624201787
 20
43.0335636899
 30
0.0
 10
1054.6566171337
 20
43.4216731599
 30
0.0
 10
1054.3377288066
 20
43.8101751883
 30
0.0
 10
1054.3377288066
 20
44.3371195023
 30
0.0
 10
1054.3377288066
 20
45.003291219
 30
0.0
 10
1054.8790669311
 20
45.4470131383
 30
0.0
 10
1055.5029731862
 20
45.4470131383
 30
0.0
 10
1056.1967548483
 20
45.4470131383
 30
0.0
 10
1056.723960868
 20
45.0447715635
 30
0.0
 10
1056.723960868
 20
44.3097712626
 30
0.0
 10
1056.723960868
 20
43.546506752
 30
0.0
 10
1056.0027001133
 20
43.1163935262
 30
0.0
 10
1055.4756249464
 20
42.7006741108
 30
0.0
 10
1055.4756249464
 20
42.7006741108
 30
0.0
 10
1055.3089184512
 20
42.5902343291
 30
0.0
 10
1055.3089184512
 20
42.5902343291
 30
0.0
  0
SPLINE
  5
265
330
227
100
AcDbEntity
  8
0
  6
Continuous
 62
     7
100
AcDbSpline
 70
     3
 71
     3
 72
    50
 73
    46
 74
     0
 42
0.000000001
 43
0.0000001
 40
0.0
 40
0.0
 40
0.0
 40
0.0
 40
1.0
 40
1.0
 40
1.0
 40
2.0
 40
2.0
 40
2.0
 40
3.0
 40
3.0
 40
3.0
 40
4.0
 40
4.0
 40
4.0
 40
5.0
 40
5.0
 40
5.0
 40
6.0
 40
6.0
 40
6.0
 40
7.0
 40
7.0
 40
7.0
 40
8.0
 40
8.0
 40
8.0
 40
9.0
 40
9.0
 40
9.0
 40
10.0
 40
10.0
 40
10.0
 40
11.0
 40
11.0
 40
11.0
 40
12.0
 40
12.0
 40
12.0
 40
13.0
 40
13.0
 40
13.0
 40
14.0
 40
14.0
 40
14.0
 40
15.0
 40
15.0
 40
15.0
 40
15.0
 10
1059.2625056141
 20
35.7916451109
 30
0.0
 10
1059.2625056141
 20
35.7916451109
 30
0.0
 10
1060.8717336187
 20
35.7916451109
 30
0.0
 10
1060.8717336187
 20
35.7916451109
 30
0.0
 10
1060.8717336187
 20
35.7916451109
 30
0.0
 10
1058.9987063251
 20
38.1087868823
 30
0.0
 10
1058.9987063251
 20
38.1087868823
 30
0.0
 10
1058.9987063251
 20
38.1087868823
 30
0.0
 10
1060.2750447505
 20
39.6062665769
 30
0.0
 10
1060.2750447505
 20
39.6062665769
 30
0.0
 10
1060.2750447505
 20
39.6062665769
 30
0.0
 10
1059.4428208028
 20
40.4672781455
 30
0.0
 10
1059.4428208028
 20
40.4672781455
 30
0.0
 10
1059.4428208028
 20
40.4672781455
 30
0.0
 10
1058.2222256795
 20
39.0519740231
 30
0.0
 10
1058.2222256795
 20
39.0519740231
 30
0.0
 10
1058.2222256795
 20
39.0519740231
 30
0.0
 10
1056.0443113107
 20
41.6873498575
 30
0.0
 10
1056.0443113107
 20
41.6873498575
 30
0.0
 10
1056.9178847501
 20
42.3253882174
 30
0.0
 10
1057.9445559913
 20
43.1163935262
 30
0.0
 10
1057.9445559913
 20
44.2952465993
 30
0.0
 10
1057.9445559913
 20
45.6689395243
 30
0.0
 10
1056.8066598515
 20
46.4734226738
 30
0.0
 10
1055.5313682486
 20
46.4734226738
 30
0.0
 10
1054.1579370292
 20
46.4734226738
 30
0.0
 10
1053.1170028304
 20
45.6271974741
 30
0.0
 10
1053.1170028304
 20
44.1845451119
 30
0.0
 10
1053.1170028304
 20
43.2969704205
 30
0.0
 10
1053.6723422069
 20
42.5200972165
 30
0.0
 10
1054.2685076638
 20
41.8956675501
 30
0.0
 10
1054.2685076638
 20
41.8956675501
 30
0.0
 10
1053.6165989047
 20
41.4240739797
 30
0.0
 10
1053.6165989047
 20
41.4240739797
 30
0.0
 10
1052.6180610203
 20
40.702813225
 30
0.0
 10
1051.7851828085
 20
39.9815524703
 30
0.0
 10
1051.7851828085
 20
38.649994154
 30
0.0
 10
1051.7851828085
 20
36.846318856
 30
0.0
 10
1053.2422289811
 20
35.5697187249
 30
0.0
 10
1054.9897684184
 20
35.5697187249
 30
0.0
 10
1056.2246264993
 20
35.5697187249
 30
0.0
 10
1057.333996724
 20
36.2778941974
 30
0.0
 10
1058.12487118
 20
37.2064258221
 30
0.0
 10
1058.12487118
 20
37.2064258221
 30
0.0
 10
1059.2625056141
 20
35.7916451109
 30
0.0
 10
1059.2625056141
 20
35.7916451109
 30
0.0
  0
LINE
  5
266
330
227
100
AcDbEntity
  8
0
  6
Continuous
 62
     7
100
AcDbLine
 10
1045.0653669891
 20
33.7655200156
 30
0.0
 11
1067.4792777168
 21
33.7655200156
 31
0.0
  0
LINE
  5
267
330
227
100
AcDbEntity
  8
0
  6
Continuous
 62
     7
100
AcDbLine
 10
1067.4792777168
 20
33.7655200156
 30
0.0
 11
1067.4792777168
 21
56.1794307432
 31
0.0
  0
LINE
  5
268
330
227
100
AcDbEntity
  8
0
  6
Continuous
 62
     7
100
AcDbLine
 10
1067.4792777168
 20
56.1794307432
 30
0.0
 11
1045.0653669891
 21
56.1794307432
 31
0.0
  0
LINE
  5
269
330
227
100
AcDbEntity
  8
0
  6
Continuous
 62
     7
100
AcDbLine
 10
1045.0653669891
 20
56.1794307432
 30
0.0
 11
1045.0653669891
 21
33.7655200156
 31
0.0
  0
ENDBLK
  5
26A
330
227
100
AcDbEntity
  8
0
  6
ByBlock
 62
     0
100
AcDbBlockEnd
  0
BLOCK
  5
26B
330
228
100
AcDbEntity
  8
0
100
AcDbBlockBegin
  2
PROIEZIONE_EU_BL0
 70
     0
 10
1057.4462098818
 20
68.6807432432
 30
0.0
  3
PROIEZIONE_EU_BL0
  1

  0
LWPOLYLINE
  5
26C
330
228
100
AcDbEntity
  8
DEFAULT_1
  6
CENTER
 62
     7
100
AcDbPolyline
 90
        2
 70
     0
 43
0.25
 10
1063.5728305434
 20
73.6804373751
 10
1063.5728715258
 20
63.6810491113
  0
LWPOLYLINE
  5
26D
330
228
100
AcDbEntity
  8
DEFAULT_1
  6
CENTER
 62
     7
100
AcDbPolyline
 90
        2
 70
     0
 43
0.25
 10
1069.5728603685
 20
68.6810143783
 10
1045.319559395
 20
68.6807437179
  0
LWPOLYLINE
  5
26E
330
228
100
AcDbEntity
  8
0
  6
Continuous
 62
     7
100
AcDbPolyline
 90
        2
 70
     1
 43
0.25
 10
1060.0257203676
 20
68.662195489
 42
1.0
 10
1067.1320494663
 20
68.662195489
 42
1.0
  0
LWPOLYLINE
  5
26F
330
228
100
AcDbEntity
  8
0
  6
Continuous
 62
     7
100
AcDbPolyline
 90
        2
 70
     1
 43
0.25
 10
1061.575464196
 20
68.6800935336
 42
1.0
 10
1065.5872159461
 20
68.6800935336
 42
1.0
  0
LWPOLYLINE
  5
270
330
228
100
AcDbEntity
  8
0
  6
Continuous
 62
     7
100
AcDbPolyline
 90
        2
 70
     0
 43
0.25
 10
1057.5728581625
 20
72.2559467384
 10
1057.5728578079
 20
65.1557438301
  0
LWPOLYLINE
  5
271
330
228
100
AcDbEntity
  8
0
  6
Continuous
 62
     7
100
AcDbPolyline
 90
        2
 70
     0
 43
0.25
 10
1057.5728862443
 20
65.1557153938
 10
1047.5783289731
 20
66.6758088066
  0
LWPOLYLINE
  5
272
330
228
100
AcDbEntity
  8
0
  6
Continuous
 62
     7
100
AcDbPolyline
 90
        2
 70
     0
 43
0.25
 10
1047.5760189875
 20
66.6751312651
 10
1047.5733520834
 20
70.6807698765
  0
LWPOLYLINE
  5
273
330
228
100
AcDbEntity
  8
0
  6
Continuous
 62
     7
100
AcDbPolyline
 90
        2
 70
     0
 43
0.25
 10
1047.5733438074
 20
70.6807616004
 10
1057.5730870446
 20
72.2559188205
  0
ENDBLK
  5
274
330
228
100
AcDbEntity
  8
0
  6
ByBlock
 62
     0
100
AcDbBlockEnd
  0
ENDSEC
  0
SECTION
  2
ENTITIES
  0
LINE
  5
2B1
330
1B
100
AcDbEntity
 67
     1
  8
0
  6
Continuous
 62
     7
100
AcDbLine
 10
0.0
 20
0.0
 30
0.0
 11
1189.0
 21
0.0
 31
0.0
  0
LINE
  5
2B2
330
1B
100
AcDbEntity
 67
     1
  8
0
  6
Continuous
 62
     7
100
AcDbLine
 10
1189.0
 20
0.0
 30
0.0
 11
1189.0
 21
841.0
 31
0.0
  0
LINE
  5
2B3
330
1B
100
AcDbEntity
 67
     1
  8
0
  6
Continuous
 62
     7
100
AcDbLine
 10
0.0
 20
841.0
 30
0.0
 11
1189.0
 21
841.0
 31
0.0
  0
LINE
  5
2B4
330
1B
100
AcDbEntity
 67
     1
  8
0
  6
Continuous
 62
     7
100
AcDbLine
 10
0.0
 20
0.0
 30
0.0
 11
0.0
 21
841.0
 31
0.0
  0
VIEWPORT
  5
2B5
330
1B
100
AcDbEntity
 67
     1
  8
0
100
AcDbViewport
 10
0.0
 20
0.0
 30
0.0
 40
1401.884824902724
 41
991.332840466926
 68
     1
 69
     1
 12
662.6556420233462
 22
420.4999999999999
 13
0.0
 23
0.0
 14
1.0
 24
1.0
 15
0.0
 25
0.0
 16
0.0
 26
0.0
 36
1.0
 17
0.0
 27
0.0
 37
0.0
 42
50.0
 43
0.0
 44
0.0
 45
991.332840466926
 50
0.0
 51
0.0
 72
   100
 90
   557216
  1

281
     0
 71
     1
 74
     0
110
0.0
120
0.0
130
0.0
111
1.0
121
0.0
131
0.0
112
0.0
122
1.0
132
0.0
 79
     0
146
0.0
170
     0
 61
     5
348
6CC
292
     1
282
     1
141
0.0
142
0.0
 63
   256
  0
ARC
  5
2B6
330
1B
100
AcDbEntity
 67
     1
  8
3_ALL_AXES
  6
Continuous
 62
     7
100
AcDbCircle
 10
955.2284497865
 20
443.8891447703
 30
0.0
 40
2.9
100
AcDbArc
 50
0.0
 51
180.0
  0
ARC
  5
2B7
330
1B
100
AcDbEntity
 67
     1
  8
3_ALL_AXES
  6
Continuous
 62
     7
100
AcDbCircle
 10
955.2284497865
 20
443.8891447703
 30
0.0
 40
2.9
100
AcDbArc
 50
180.0
 51
360.0
  0
ARC
  5
2B8
330
1B
100
AcDbEntity
 67
     1
  8
3_ALL_AXES
  6
Continuous
 62
     7
100
AcDbCircle
 10
836.0617831198
 20
443.8891447703
 30
0.0
 40
2.9
100
AcDbArc
 50
0.0
 51
180.0
  0
ARC
  5
2B9
330
1B
100
AcDbEntity
 67
     1
  8
3_ALL_AXES
  6
Continuous
 62
     7
100
AcDbCircle
 10
836.0617831198
 20
443.8891447703
 30
0.0
 40
2.9
100
AcDbArc
 50
180.0
 51
360.0
  0
ARC
  5
2BA
330
1B
100
AcDbEntity
 67
     1
  8
3_ALL_AXES
  6
Continuous
 62
     7
100
AcDbCircle
 10
716.8951164532
 20
443.8891447703
 30
0.0
 40
2.9
100
AcDbArc
 50
0.0
 51
180.0
  0
ARC
  5
2BB
330
1B
100
AcDbEntity
 67
     1
  8
3_ALL_AXES
  6
Continuous
 62
     7
100
AcDbCircle
 10
716.8951164532
 20
443.8891447703
 30
0.0
 40
2.9
100
AcDbArc
 50
180.0
 51
360.0
  0
ARC
  5
2BC
330
1B
100
AcDbEntity
 67
     1
  8
3_ALL_AXES
  6
Continuous
 62
     7
100
AcDbCircle
 10
597.7284497865
 20
443.8891447703
 30
0.0
 40
2.9
100
AcDbArc
 50
0.0
 51
180.0
  0
ARC
  5
2BD
330
1B
100
AcDbEntity
 67
     1
  8
3_ALL_AXES
  6
Continuous
 62
     7
100
AcDbCircle
 10
597.7284497865
 20
443.8891447703
 30
0.0
 40
2.9
100
AcDbArc
 50
180.0
 51
360.0
  0
ARC
  5
2BE
330
1B
100
AcDbEntity
 67
     1
  8
3_ALL_AXES
  6
Continuous
 62
     7
100
AcDbCircle
 10
512.7284497865
 20
443.8891447703
 30
0.0
 40
2.9
100
AcDbArc
 50
0.0
 51
180.0
  0
ARC
  5
2BF
330
1B
100
AcDbEntity
 67
     1
  8
3_ALL_AXES
  6
Continuous
 62
     7
100
AcDbCircle
 10
512.7284497865
 20
443.8891447703
 30
0.0
 40
2.9
100
AcDbArc
 50
180.0
 51
360.0
  0
ARC
  5
2C0
330
1B
100
AcDbEntity
 67
     1
  8
3_ALL_AXES
  6
Continuous
 62
     7
100
AcDbCircle
 10
393.5617831198
 20
443.8891447703
 30
0.0
 40
2.9
100
AcDbArc
 50
0.0
 51
180.0
  0
ARC
  5
2C1
330
1B
100
AcDbEntity
 67
     1
  8
3_ALL_AXES
  6
Continuous
 62
     7
100
AcDbCircle
 10
393.5617831198
 20
443.8891447703
 30
0.0
 40
2.9
100
AcDbArc
 50
180.0
 51
360.0
  0
ARC
  5
2C2
330
1B
100
AcDbEntity
 67
     1
  8
3_ALL_AXES
  6
Continuous
 62
     7
100
AcDbCircle
 10
274.3951164532
 20
443.8891447703
 30
0.0
 40
2.9
100
AcDbArc
 50
0.0
 51
180.0
  0
ARC
  5
2C3
330
1B
100
AcDbEntity
 67
     1
  8
3_ALL_AXES
  6
Continuous
 62
     7
100
AcDbCircle
 10
274.3951164532
 20
443.8891447703
 30
0.0
 40
2.9
100
AcDbArc
 50
180.0
 51
360.0
  0
ARC
  5
2C4
330
1B
100
AcDbEntity
 67
     1
  8
3_ALL_AXES
  6
Continuous
 62
     7
100
AcDbCircle
 10
1037.2284497865
 20
443.8891447703
 30
0.0
 40
2.9
100
AcDbArc
 50
0.0
 51
180.0
  0
ARC
  5
2C5
330
1B
100
AcDbEntity
 67
     1
  8
3_ALL_AXES
  6
Continuous
 62
     7
100
AcDbCircle
 10
1037.2284497865
 20
443.8891447703
 30
0.0
 40
2.9
100
AcDbArc
 50
180.0
 51
360.0
  0
ARC
  5
2C6
330
1B
100
AcDbEntity
 67
     1
  8
3_ALL_AXES
  6
Continuous
 62
     7
100
AcDbCircle
 10
155.2284497865
 20
443.8891447703
 30
0.0
 40
2.9
100
AcDbArc
 50
0.0
 51
180.0
  0
ARC
  5
2C7
330
1B
100
AcDbEntity
 67
     1
  8
3_ALL_AXES
  6
Continuous
 62
     7
100
AcDbCircle
 10
155.2284497865
 20
443.8891447703
 30
0.0
 40
2.9
100
AcDbArc
 50
180.0
 51
360.0
  0
ARC
  5
2C8
330
1B
100
AcDbEntity
 67
     1
  8
3_ALL_AXES
  6
Continuous
 62
     7
100
AcDbCircle
 10
73.2284497865
 20
443.8891447703
 30
0.0
 40
2.9
100
AcDbArc
 50
0.0
 51
180.0
  0
ARC
  5
2C9
330
1B
100
AcDbEntity
 67
     1
  8
3_ALL_AXES
  6
Continuous
 62
     7
100
AcDbCircle
 10
73.2284497865
 20
443.8891447703
 30
0.0
 40
2.9
100
AcDbArc
 50
180.0
 51
360.0
  0
LINE
  5
2CA
330
1B
100
AcDbEntity
 67
     1
  8
3_ALL_AXES
  6
Continuous
 62
     7
100
AcDbLine
 10
568.8284497865
 20
395.0891447703
 30
0.0
 11
568.8284497865
 21
394.3832745998
 31
0.0
  0
LINE
  5
2CB
330
1B
100
AcDbEntity
 67
     1
  8
3_ALL_AXES
  6
Continuous
 62
     7
100
AcDbLine
 10
574.6284497865
 20
395.0891447703
 30
0.0
 11
574.6284497865
 21
394.3832745998
 31
0.0
  0
ARC
  5
2CC
330
1B
100
AcDbEntity
 67
     1
  8
3_ALL_AXES
  6
Continuous
 62
     7
100
AcDbCircle
 10
571.7284497865
 20
401.8391447703
 30
0.0
 40
8.0
100
AcDbArc
 50
248.7461908146
 51
270.0
  0
ARC
  5
2CD
330
1B
100
AcDbEntity
 67
     1
  8
3_ALL_AXES
  6
Continuous
 62
     7
100
AcDbCircle
 10
571.7284497865
 20
401.8391447703
 30
0.0
 40
8.0
100
AcDbArc
 50
270.0
 51
291.2538091854
  0
LINE
  5
2CE
330
1B
100
AcDbEntity
 67
     1
  8
3_ALL_AXES
  6
Continuous
 62
     7
100
AcDbLine
 10
568.8284497865
 20
394.3832745998
 30
0.0
 11
568.8284497865
 21
395.0891447703
 31
0.0
  0
LINE
  5
2CF
330
1B
100
AcDbEntity
 67
     1
  8
3_ALL_AXES
  6
Continuous
 62
     7
100
AcDbLine
 10
574.6284497865
 20
394.3832745998
 30
0.0
 11
574.6284497865
 21
395.0891447703
 31
0.0
  0
LINE
  5
2D0
330
1B
100
AcDbEntity
 67
     1
  8
3_ALL_AXES
  6
Continuous
 62
     7
100
AcDbLine
 10
568.8284497865
 20
394.3832745998
 30
0.0
 11
574.6284497865
 21
394.3832745998
 31
0.0
  0
LINE
  5
2D1
330
1B
100
AcDbEntity
 67
     1
  8
3_ALL_AXES
  6
Continuous
 62
     7
100
AcDbLine
 10
118.8284497865
 20
395.0891447703
 30
0.0
 11
118.8284497865
 21
394.3832745998
 31
0.0
  0
LINE
  5
2D2
330
1B
100
AcDbEntity
 67
     1
  8
3_ALL_AXES
  6
Continuous
 62
     7
100
AcDbLine
 10
124.6284497865
 20
395.0891447703
 30
0.0
 11
124.6284497865
 21
394.3832745998
 31
0.0
  0
ARC
  5
2D3
330
1B
100
AcDbEntity
 67
     1
  8
3_ALL_AXES
  6
Continuous
 62
     7
100
AcDbCircle
 10
121.7284497865
 20
401.8391447703
 30
0.0
 40
8.0
100
AcDbArc
 50
248.7461908146
 51
270.0
  0
ARC
  5
2D4
330
1B
100
AcDbEntity
 67
     1
  8
3_ALL_AXES
  6
Continuous
 62
     7
100
AcDbCircle
 10
121.7284497865
 20
401.8391447703
 30
0.0
 40
8.0
100
AcDbArc
 50
270.0
 51
291.2538091854
  0
LINE
  5
2D5
330
1B
100
AcDbEntity
 67
     1
  8
3_ALL_AXES
  6
Continuous
 62
     7
100
AcDbLine
 10
118.8284497865
 20
394.3832745998
 30
0.0
 11
118.8284497865
 21
395.0891447703
 31
0.0
  0
LINE
  5
2D6
330
1B
100
AcDbEntity
 67
     1
  8
3_ALL_AXES
  6
Continuous
 62
     7
100
AcDbLine
 10
124.6284497865
 20
394.3832745998
 30
0.0
 11
124.6284497865
 21
395.0891447703
 31
0.0
  0
LINE
  5
2D7
330
1B
100
AcDbEntity
 67
     1
  8
3_ALL_AXES
  6
Continuous
 62
     7
100
AcDbLine
 10
118.8284497865
 20
394.3832745998
 30
0.0
 11
124.6284497865
 21
394.3832745998
 31
0.0
  0
LINE
  5
2D8
330
1B
100
AcDbEntity
 67
     1
  8
3_ALL_AXES
  6
Continuous
 62
     7
100
AcDbLine
 10
1018.8284497865
 20
395.0891447703
 30
0.0
 11
1018.8284497865
 21
394.3832745998
 31
0.0
  0
LINE
  5
2D9
330
1B
100
AcDbEntity
 67
     1
  8
3_ALL_AXES
  6
Continuous
 62
     7
100
AcDbLine
 10
1024.6284497865
 20
395.0891447703
 30
0.0
 11
1024.6284497865
 21
394.3832745998
 31
0.0
  0
ARC
  5
2DA
330
1B
100
AcDbEntity
 67
     1
  8
3_ALL_AXES
  6
Continuous
 62
     7
100
AcDbCircle
 10
1021.7284497865
 20
401.8391447703
 30
0.0
 40
8.0
100
AcDbArc
 50
248.7461908146
 51
270.0
  0
ARC
  5
2DB
330
1B
100
AcDbEntity
 67
     1
  8
3_ALL_AXES
  6
Continuous
 62
     7
100
AcDbCircle
 10
1021.7284497865
 20
401.8391447703
 30
0.0
 40
8.0
100
AcDbArc
 50
270.0
 51
291.2538091854
  0
LINE
  5
2DC
330
1B
100
AcDbEntity
 67
     1
  8
3_ALL_AXES
  6
Continuous
 62
     7
100
AcDbLine
 10
1018.8284497865
 20
394.3832745998
 30
0.0
 11
1018.8284497865
 21
395.0891447703
 31
0.0
  0
LINE
  5
2DD
330
1B
100
AcDbEntity
 67
     1
  8
3_ALL_AXES
  6
Continuous
 62
     7
100
AcDbLine
 10
1024.6284497865
 20
394.3832745998
 30
0.0
 11
1024.6284497865
 21
395.0891447703
 31
0.0
  0
LINE
  5
2DE
330
1B
100
AcDbEntity
 67
     1
  8
3_ALL_AXES
  6
Continuous
 62
     7
100
AcDbLine
 10
1018.8284497865
 20
394.3832745998
 30
0.0
 11
1024.6284497865
 21
394.3832745998
 31
0.0
  0
LINE
  5
2DF
330
1B
100
AcDbEntity
 67
     1
  8
3_ALL_AXES
  6
Continuous
 62
     7
100
AcDbLine
 10
985.8284497865
 20
395.0891447703
 30
0.0
 11
985.8284497865
 21
394.3832745998
 31
0.0
  0
LINE
  5
2E0
330
1B
100
AcDbEntity
 67
     1
  8
3_ALL_AXES
  6
Continuous
 62
     7
100
AcDbLine
 10
991.6284497865
 20
395.0891447703
 30
0.0
 11
991.6284497865
 21
394.3832745998
 31
0.0
  0
ARC
  5
2E1
330
1B
100
AcDbEntity
 67
     1
  8
3_ALL_AXES
  6
Continuous
 62
     7
100
AcDbCircle
 10
988.7284497865
 20
401.8391447703
 30
0.0
 40
8.0
100
AcDbArc
 50
248.7461908146
 51
270.0
  0
ARC
  5
2E2
330
1B
100
AcDbEntity
 67
     1
  8
3_ALL_AXES
  6
Continuous
 62
     7
100
AcDbCircle
 10
988.7284497865
 20
401.8391447703
 30
0.0
 40
8.0
100
AcDbArc
 50
270.0
 51
291.2538091854
  0
LINE
  5
2E3
330
1B
100
AcDbEntity
 67
     1
  8
3_ALL_AXES
  6
Continuous
 62
     7
100
AcDbLine
 10
985.8284497865
 20
394.3832745998
 30
0.0
 11
985.8284497865
 21
395.0891447703
 31
0.0
  0
LINE
  5
2E4
330
1B
100
AcDbEntity
 67
     1
  8
3_ALL_AXES
  6
Continuous
 62
     7
100
AcDbLine
 10
991.6284497865
 20
394.3832745998
 30
0.0
 11
991.6284497865
 21
395.0891447703
 31
0.0
  0
LINE
  5
2E5
330
1B
100
AcDbEntity
 67
     1
  8
3_ALL_AXES
  6
Continuous
 62
     7
100
AcDbLine
 10
985.8284497865
 20
394.3832745998
 30
0.0
 11
991.6284497865
 21
394.3832745998
 31
0.0
  0
LINE
  5
2E6
330
1B
100
AcDbEntity
 67
     1
  8
3_ALL_AXES
  6
Continuous
 62
     7
100
AcDbLine
 10
85.8284497865
 20
395.0891447703
 30
0.0
 11
85.8284497865
 21
394.3832745998
 31
0.0
  0
LINE
  5
2E7
330
1B
100
AcDbEntity
 67
     1
  8
3_ALL_AXES
  6
Continuous
 62
     7
100
AcDbLine
 10
91.6284497865
 20
395.0891447703
 30
0.0
 11
91.6284497865
 21
394.3832745998
 31
0.0
  0
ARC
  5
2E8
330
1B
100
AcDbEntity
 67
     1
  8
3_ALL_AXES
  6
Continuous
 62
     7
100
AcDbCircle
 10
88.7284497865
 20
401.8391447703
 30
0.0
 40
8.0
100
AcDbArc
 50
248.7461908146
 51
270.0
  0
ARC
  5
2E9
330
1B
100
AcDbEntity
 67
     1
  8
3_ALL_AXES
  6
Continuous
 62
     7
100
AcDbCircle
 10
88.7284497865
 20
401.8391447703
 30
0.0
 40
8.0
100
AcDbArc
 50
270.0
 51
291.2538091854
  0
LINE
  5
2EA
330
1B
100
AcDbEntity
 67
     1
  8
3_ALL_AXES
  6
Continuous
 62
     7
100
AcDbLine
 10
85.8284497865
 20
394.3832745998
 30
0.0
 11
85.8284497865
 21
395.0891447703
 31
0.0
  0
LINE
  5
2EB
330
1B
100
AcDbEntity
 67
     1
  8
3_ALL_AXES
  6
Continuous
 62
     7
100
AcDbLine
 10
91.6284497865
 20
394.3832745998
 30
0.0
 11
91.6284497865
 21
395.0891447703
 31
0.0
  0
LINE
  5
2EC
330
1B
100
AcDbEntity
 67
     1
  8
3_ALL_AXES
  6
Continuous
 62
     7
100
AcDbLine
 10
85.8284497865
 20
394.3832745998
 30
0.0
 11
91.6284497865
 21
394.3832745998
 31
0.0
  0
LINE
  5
2ED
330
1B
100
AcDbEntity
 67
     1
  8
3_ALL_AXES
  6
Continuous
 62
     7
100
AcDbLine
 10
535.8284497865
 20
395.0891447703
 30
0.0
 11
535.8284497865
 21
394.3832745998
 31
0.0
  0
LINE
  5
2EE
330
1B
100
AcDbEntity
 67
     1
  8
3_ALL_AXES
  6
Continuous
 62
     7
100
AcDbLine
 10
541.6284497865
 20
395.0891447703
 30
0.0
 11
541.6284497865
 21
394.3832745998
 31
0.0
  0
ARC
  5
2EF
330
1B
100
AcDbEntity
 67
     1
  8
3_ALL_AXES
  6
Continuous
 62
     7
100
AcDbCircle
 10
538.7284497865
 20
401.8391447703
 30
0.0
 40
8.0
100
AcDbArc
 50
248.7461908146
 51
270.0
  0
ARC
  5
2F0
330
1B
100
AcDbEntity
 67
     1
  8
3_ALL_AXES
  6
Continuous
 62
     7
100
AcDbCircle
 10
538.7284497865
 20
401.8391447703
 30
0.0
 40
8.0
100
AcDbArc
 50
270.0
 51
291.2538091854
  0
LINE
  5
2F1
330
1B
100
AcDbEntity
 67
     1
  8
3_ALL_AXES
  6
Continuous
 62
     7
100
AcDbLine
 10
535.8284497865
 20
394.3832745998
 30
0.0
 11
535.8284497865
 21
395.0891447703
 31
0.0
  0
LINE
  5
2F2
330
1B
100
AcDbEntity
 67
     1
  8
3_ALL_AXES
  6
Continuous
 62
     7
100
AcDbLine
 10
541.6284497865
 20
394.3832745998
 30
0.0
 11
541.6284497865
 21
395.0891447703
 31
0.0
  0
LINE
  5
2F3
330
1B
100
AcDbEntity
 67
     1
  8
3_ALL_AXES
  6
Continuous
 62
     7
100
AcDbLine
 10
535.8284497865
 20
394.3832745998
 30
0.0
 11
541.6284497865
 21
394.3832745998
 31
0.0
  0
LINE
  5
2F4
330
1B
100
AcDbEntity
 67
     1
  8
7_ALL_FEATURES
  6
Continuous
 62
     7
100
AcDbLine
 10
1054.00676195
 20
406.5391447703
 30
0.0
 11
1053.2850741135
 21
405.2891447703
 31
0.0
  0
LINE
  5
2F5
330
1B
100
AcDbEntity
 67
     1
  8
7_ALL_FEATURES
  6
Continuous
 62
     7
100
AcDbLine
 10
1053.2850741135
 20
405.2891447703
 30
0.0
 11
1054.00676195
 21
404.0391447703
 31
0.0
  0
LINE
  5
2F6
330
1B
100
AcDbEntity
 67
     1
  8
7_ALL_FEATURES
  6
Continuous
 62
     7
100
AcDbLine
 10
1054.00676195
 20
404.0391447703
 30
0.0
 11
1055.450137623
 21
404.0391447703
 31
0.0
  0
LINE
  5
2F7
330
1B
100
AcDbEntity
 67
     1
  8
7_ALL_FEATURES
  6
Continuous
 62
     7
100
AcDbLine
 10
1055.450137623
 20
404.0391447703
 30
0.0
 11
1056.1718254595
 21
405.2891447703
 31
0.0
  0
LINE
  5
2F8
330
1B
100
AcDbEntity
 67
     1
  8
7_ALL_FEATURES
  6
Continuous
 62
     7
100
AcDbLine
 10
1056.1718254595
 20
405.2891447703
 30
0.0
 11
1055.450137623
 21
406.5391447703
 31
0.0
  0
LINE
  5
2F9
330
1B
100
AcDbEntity
 67
     1
  8
7_ALL_FEATURES
  6
Continuous
 62
     7
100
AcDbLine
 10
1055.450137623
 20
406.5391447703
 30
0.0
 11
1054.00676195
 21
406.5391447703
 31
0.0
  0
ARC
  5
2FA
330
1B
100
AcDbEntity
 67
     1
  8
3_ALL_AXES
  6
Continuous
 62
     7
100
AcDbCircle
 10
1054.7284497865
 20
405.2891447703
 30
0.0
 40
3.8
100
AcDbArc
 50
0.0
 51
180.0
  0
ARC
  5
2FB
330
1B
100
AcDbEntity
 67
     1
  8
3_ALL_AXES
  6
Continuous
 62
     7
100
AcDbCircle
 10
1054.7284497865
 20
405.2891447703
 30
0.0
 40
3.8
100
AcDbArc
 50
180.0
 51
360.0
  0
ARC
  5
2FC
330
1B
100
AcDbEntity
 67
     1
  8
3_ALL_AXES
  6
Continuous
 62
     7
100
AcDbCircle
 10
1054.7284497865
 20
405.2891447703
 30
0.0
 40
1.965
100
AcDbArc
 50
180.0
 51
360.0
  0
ARC
  5
2FD
330
1B
100
AcDbEntity
 67
     1
  8
3_ALL_AXES
  6
Continuous
 62
     7
100
AcDbCircle
 10
1054.7284497865
 20
405.2891447703
 30
0.0
 40
1.965
100
AcDbArc
 50
0.0
 51
180.0
  0
LINE
  5
2FE
330
1B
100
AcDbEntity
 67
     1
  8
7_ALL_FEATURES
  6
Continuous
 62
     7
100
AcDbLine
 10
1054.00676195
 20
441.5391447703
 30
0.0
 11
1053.2850741135
 21
440.2891447703
 31
0.0
  0
LINE
  5
2FF
330
1B
100
AcDbEntity
 67
     1
  8
7_ALL_FEATURES
  6
Continuous
 62
     7
100
AcDbLine
 10
1053.2850741135
 20
440.2891447703
 30
0.0
 11
1054.00676195
 21
439.0391447703
 31
0.0
  0
LINE
  5
300
330
1B
100
AcDbEntity
 67
     1
  8
7_ALL_FEATURES
  6
Continuous
 62
     7
100
AcDbLine
 10
1054.00676195
 20
439.0391447703
 30
0.0
 11
1055.450137623
 21
439.0391447703
 31
0.0
  0
LINE
  5
301
330
1B
100
AcDbEntity
 67
     1
  8
7_ALL_FEATURES
  6
Continuous
 62
     7
100
AcDbLine
 10
1055.450137623
 20
439.0391447703
 30
0.0
 11
1056.1718254595
 21
440.2891447703
 31
0.0
  0
LINE
  5
302
330
1B
100
AcDbEntity
 67
     1
  8
7_ALL_FEATURES
  6
Continuous
 62
     7
100
AcDbLine
 10
1056.1718254595
 20
440.2891447703
 30
0.0
 11
1055.450137623
 21
441.5391447703
 31
0.0
  0
LINE
  5
303
330
1B
100
AcDbEntity
 67
     1
  8
7_ALL_FEATURES
  6
Continuous
 62
     7
100
AcDbLine
 10
1055.450137623
 20
441.5391447703
 30
0.0
 11
1054.00676195
 21
441.5391447703
 31
0.0
  0
ARC
  5
304
330
1B
100
AcDbEntity
 67
     1
  8
3_ALL_AXES
  6
Continuous
 62
     7
100
AcDbCircle
 10
1054.7284497865
 20
440.2891447703
 30
0.0
 40
3.8
100
AcDbArc
 50
0.0
 51
180.0
  0
ARC
  5
305
330
1B
100
AcDbEntity
 67
     1
  8
3_ALL_AXES
  6
Continuous
 62
     7
100
AcDbCircle
 10
1054.7284497865
 20
440.2891447703
 30
0.0
 40
3.8
100
AcDbArc
 50
180.0
 51
360.0
  0
ARC
  5
306
330
1B
100
AcDbEntity
 67
     1
  8
3_ALL_AXES
  6
Continuous
 62
     7
100
AcDbCircle
 10
1054.7284497865
 20
440.2891447703
 30
0.0
 40
1.965
100
AcDbArc
 50
180.0
 51
360.0
  0
ARC
  5
307
330
1B
100
AcDbEntity
 67
     1
  8
3_ALL_AXES
  6
Continuous
 62
     7
100
AcDbCircle
 10
1054.7284497865
 20
440.2891447703
 30
0.0
 40
1.965
100
AcDbArc
 50
0.0
 51
180.0
  0
LINE
  5
308
330
1B
100
AcDbEntity
 67
     1
  8
7_ALL_FEATURES
  6
Continuous
 62
     7
100
AcDbLine
 10
55.00676195
 20
406.5391447703
 30
0.0
 11
54.2850741135
 21
405.2891447703
 31
0.0
  0
LINE
  5
309
330
1B
100
AcDbEntity
 67
     1
  8
7_ALL_FEATURES
  6
Continuous
 62
     7
100
AcDbLine
 10
54.2850741135
 20
405.2891447703
 30
0.0
 11
55.00676195
 21
404.0391447703
 31
0.0
  0
LINE
  5
30A
330
1B
100
AcDbEntity
 67
     1
  8
7_ALL_FEATURES
  6
Continuous
 62
     7
100
AcDbLine
 10
55.00676195
 20
404.0391447703
 30
0.0
 11
56.450137623
 21
404.0391447703
 31
0.0
  0
LINE
  5
30B
330
1B
100
AcDbEntity
 67
     1
  8
7_ALL_FEATURES
  6
Continuous
 62
     7
100
AcDbLine
 10
56.450137623
 20
404.0391447703
 30
0.0
 11
57.1718254595
 21
405.2891447703
 31
0.0
  0
LINE
  5
30C
330
1B
100
AcDbEntity
 67
     1
  8
7_ALL_FEATURES
  6
Continuous
 62
     7
100
AcDbLine
 10
57.1718254595
 20
405.2891447703
 30
0.0
 11
56.450137623
 21
406.5391447703
 31
0.0
  0
LINE
  5
30D
330
1B
100
AcDbEntity
 67
     1
  8
7_ALL_FEATURES
  6
Continuous
 62
     7
100
AcDbLine
 10
56.450137623
 20
406.5391447703
 30
0.0
 11
55.00676195
 21
406.5391447703
 31
0.0
  0
ARC
  5
30E
330
1B
100
AcDbEntity
 67
     1
  8
3_ALL_AXES
  6
Continuous
 62
     7
100
AcDbCircle
 10
55.7284497865
 20
405.2891447703
 30
0.0
 40
3.8
100
AcDbArc
 50
0.0
 51
180.0
  0
ARC
  5
30F
330
1B
100
AcDbEntity
 67
     1
  8
3_ALL_AXES
  6
Continuous
 62
     7
100
AcDbCircle
 10
55.7284497865
 20
405.2891447703
 30
0.0
 40
3.8
100
AcDbArc
 50
180.0
 51
360.0
  0
ARC
  5
310
330
1B
100
AcDbEntity
 67
     1
  8
3_ALL_AXES
  6
Continuous
 62
     7
100
AcDbCircle
 10
55.7284497865
 20
405.2891447703
 30
0.0
 40
1.965
100
AcDbArc
 50
180.0
 51
360.0
  0
ARC
  5
311
330
1B
100
AcDbEntity
 67
     1
  8
3_ALL_AXES
  6
Continuous
 62
     7
100
AcDbCircle
 10
55.7284497865
 20
405.2891447703
 30
0.0
 40
1.965
100
AcDbArc
 50
0.0
 51
180.0
  0
LINE
  5
312
330
1B
100
AcDbEntity
 67
     1
  8
7_ALL_FEATURES
  6
Continuous
 62
     7
100
AcDbLine
 10
55.00676195
 20
441.5391447703
 30
0.0
 11
54.2850741135
 21
440.2891447703
 31
0.0
  0
LINE
  5
313
330
1B
100
AcDbEntity
 67
     1
  8
7_ALL_FEATURES
  6
Continuous
 62
     7
100
AcDbLine
 10
54.2850741135
 20
440.2891447703
 30
0.0
 11
55.00676195
 21
439.0391447703
 31
0.0
  0
LINE
  5
314
330
1B
100
AcDbEntity
 67
     1
  8
7_ALL_FEATURES
  6
Continuous
 62
     7
100
AcDbLine
 10
55.00676195
 20
439.0391447703
 30
0.0
 11
56.450137623
 21
439.0391447703
 31
0.0
  0
LINE
  5
315
330
1B
100
AcDbEntity
 67
     1
  8
7_ALL_FEATURES
  6
Continuous
 62
     7
100
AcDbLine
 10
56.450137623
 20
439.0391447703
 30
0.0
 11
57.1718254595
 21
440.2891447703
 31
0.0
  0
LINE
  5
316
330
1B
100
AcDbEntity
 67
     1
  8
7_ALL_FEATURES
  6
Continuous
 62
     7
100
AcDbLine
 10
57.1718254595
 20
440.2891447703
 30
0.0
 11
56.450137623
 21
441.5391447703
 31
0.0
  0
LINE
  5
317
330
1B
100
AcDbEntity
 67
     1
  8
7_ALL_FEATURES
  6
Continuous
 62
     7
100
AcDbLine
 10
56.450137623
 20
441.5391447703
 30
0.0
 11
55.00676195
 21
441.5391447703
 31
0.0
  0
ARC
  5
318
330
1B
100
AcDbEntity
 67
     1
  8
3_ALL_AXES
  6
Continuous
 62
     7
100
AcDbCircle
 10
55.7284497865
 20
440.2891447703
 30
0.0
 40
3.8
100
AcDbArc
 50
0.0
 51
180.0
  0
ARC
  5
319
330
1B
100
AcDbEntity
 67
     1
  8
3_ALL_AXES
  6
Continuous
 62
     7
100
AcDbCircle
 10
55.7284497865
 20
440.2891447703
 30
0.0
 40
3.8
100
AcDbArc
 50
180.0
 51
360.0
  0
ARC
  5
31A
330
1B
100
AcDbEntity
 67
     1
  8
3_ALL_AXES
  6
Continuous
 62
     7
100
AcDbCircle
 10
55.7284497865
 20
440.2891447703
 30
0.0
 40
1.965
100
AcDbArc
 50
180.0
 51
360.0
  0
ARC
  5
31B
330
1B
100
AcDbEntity
 67
     1
  8
3_ALL_AXES
  6
Continuous
 62
     7
100
AcDbCircle
 10
55.7284497865
 20
440.2891447703
 30
0.0
 40
1.965
100
AcDbArc
 50
0.0
 51
180.0
  0
LINE
  5
31C
330
1B
100
AcDbEntity
 67
     1
  8
7_ALL_FEATURES
  6
Continuous
 62
     7
100
AcDbLine
 10
533.9784497865
 20
396.2891447703
 30
0.0
 11
533.9784497865
 21
395.0891447703
 31
0.0
  0
LINE
  5
31D
330
1B
100
AcDbEntity
 67
     1
  8
7_ALL_FEATURES
  6
Continuous
 62
     7
100
AcDbLine
 10
576.4784497865
 20
396.2891447703
 30
0.0
 11
576.4784497865
 21
395.0891447703
 31
0.0
  0
LINE
  5
31E
330
1B
100
AcDbEntity
 67
     1
  8
7_ALL_FEATURES
  6
Continuous
 62
     7
100
AcDbLine
 10
566.4784497865
 20
396.2891447703
 30
0.0
 11
566.9784497865
 21
396.2891447703
 31
0.0
  0
LINE
  5
31F
330
1B
100
AcDbEntity
 67
     1
  8
7_ALL_FEATURES
  6
Continuous
 62
     7
100
AcDbLine
 10
566.9784497865
 20
396.2891447703
 30
0.0
 11
566.9849414749
 21
396.2891447703
 31
0.0
  0
LINE
  5
320
330
1B
100
AcDbEntity
 67
     1
  8
7_ALL_FEATURES
  6
Continuous
 62
     7
100
AcDbLine
 10
566.9849414749
 20
396.2891447703
 30
0.0
 11
573.4784497865
 21
396.2891447703
 31
0.0
  0
LINE
  5
321
330
1B
100
AcDbEntity
 67
     1
  8
7_ALL_FEATURES
  6
Continuous
 62
     7
100
AcDbLine
 10
573.4784497865
 20
396.2891447703
 30
0.0
 11
576.4784497865
 21
396.2891447703
 31
0.0
  0
LINE
  5
322
330
1B
100
AcDbEntity
 67
     1
  8
7_ALL_FEATURES
  6
Continuous
 62
     7
100
AcDbLine
 10
566.4784497865
 20
396.2891447703
 30
0.0
 11
543.9784497865
 21
396.2891447703
 31
0.0
  0
LINE
  5
323
330
1B
100
AcDbEntity
 67
     1
  8
7_ALL_FEATURES
  6
Continuous
 62
     7
100
AcDbLine
 10
533.9784497865
 20
396.2891447703
 30
0.0
 11
536.9784497865
 21
396.2891447703
 31
0.0
  0
LINE
  5
324
330
1B
100
AcDbEntity
 67
     1
  8
7_ALL_FEATURES
  6
Continuous
 62
     7
100
AcDbLine
 10
536.9784497865
 20
396.2891447703
 30
0.0
 11
543.4719580981
 21
396.2891447703
 31
0.0
  0
LINE
  5
325
330
1B
100
AcDbEntity
 67
     1
  8
7_ALL_FEATURES
  6
Continuous
 62
     7
100
AcDbLine
 10
543.4719580981
 20
396.2891447703
 30
0.0
 11
543.4784497865
 21
396.2891447703
 31
0.0
  0
LINE
  5
326
330
1B
100
AcDbEntity
 67
     1
  8
7_ALL_FEATURES
  6
Continuous
 62
     7
100
AcDbLine
 10
543.4784497865
 20
396.2891447703
 30
0.0
 11
543.9784497865
 21
396.2891447703
 31
0.0
  0
LINE
  5
327
330
1B
100
AcDbEntity
 67
     1
  8
7_ALL_FEATURES
  6
Continuous
 62
     7
100
AcDbLine
 10
576.4784497865
 20
396.2891447703
 30
0.0
 11
576.4784497865
 21
395.0891447703
 31
0.0
  0
LINE
  5
328
330
1B
100
AcDbEntity
 67
     1
  8
7_ALL_FEATURES
  6
Continuous
 62
     9
100
AcDbLine
 10
543.9784497865
 20
396.2891447703
 30
0.0
 11
543.9784497865
 21
395.0891447703
 31
0.0
  0
LINE
  5
329
330
1B
100
AcDbEntity
 67
     1
  8
7_ALL_FEATURES
  6
Continuous
 62
     9
100
AcDbLine
 10
566.4784497865
 20
396.2891447703
 30
0.0
 11
566.4784497865
 21
395.0891447703
 31
0.0
  0
LINE
  5
32A
330
1B
100
AcDbEntity
 67
     1
  8
7_ALL_FEATURES
  6
Continuous
 62
     7
100
AcDbLine
 10
83.9784497865
 20
396.2891447703
 30
0.0
 11
83.9784497865
 21
395.0891447703
 31
0.0
  0
LINE
  5
32B
330
1B
100
AcDbEntity
 67
     1
  8
7_ALL_FEATURES
  6
Continuous
 62
     7
100
AcDbLine
 10
126.4784497865
 20
396.2891447703
 30
0.0
 11
126.4784497865
 21
395.0891447703
 31
0.0
  0
LINE
  5
32C
330
1B
100
AcDbEntity
 67
     1
  8
7_ALL_FEATURES
  6
Continuous
 62
     7
100
AcDbLine
 10
116.4784497865
 20
396.2891447703
 30
0.0
 11
116.9784497865
 21
396.2891447703
 31
0.0
  0
LINE
  5
32D
330
1B
100
AcDbEntity
 67
     1
  8
7_ALL_FEATURES
  6
Continuous
 62
     7
100
AcDbLine
 10
116.9784497865
 20
396.2891447703
 30
0.0
 11
116.9849414749
 21
396.2891447703
 31
0.0
  0
LINE
  5
32E
330
1B
100
AcDbEntity
 67
     1
  8
7_ALL_FEATURES
  6
Continuous
 62
     7
100
AcDbLine
 10
116.9849414749
 20
396.2891447703
 30
0.0
 11
123.4784497865
 21
396.2891447703
 31
0.0
  0
LINE
  5
32F
330
1B
100
AcDbEntity
 67
     1
  8
7_ALL_FEATURES
  6
Continuous
 62
     7
100
AcDbLine
 10
123.4784497865
 20
396.2891447703
 30
0.0
 11
126.4784497865
 21
396.2891447703
 31
0.0
  0
LINE
  5
330
330
1B
100
AcDbEntity
 67
     1
  8
7_ALL_FEATURES
  6
Continuous
 62
     7
100
AcDbLine
 10
116.4784497865
 20
396.2891447703
 30
0.0
 11
93.9784497865
 21
396.2891447703
 31
0.0
  0
LINE
  5
331
330
1B
100
AcDbEntity
 67
     1
  8
7_ALL_FEATURES
  6
Continuous
 62
     7
100
AcDbLine
 10
83.9784497865
 20
396.2891447703
 30
0.0
 11
86.9784497865
 21
396.2891447703
 31
0.0
  0
LINE
  5
332
330
1B
100
AcDbEntity
 67
     1
  8
7_ALL_FEATURES
  6
Continuous
 62
     7
100
AcDbLine
 10
86.9784497865
 20
396.2891447703
 30
0.0
 11
93.4719580981
 21
396.2891447703
 31
0.0
  0
LINE
  5
333
330
1B
100
AcDbEntity
 67
     1
  8
7_ALL_FEATURES
  6
Continuous
 62
     7
100
AcDbLine
 10
93.4719580981
 20
396.2891447703
 30
0.0
 11
93.4784497865
 21
396.2891447703
 31
0.0
  0
LINE
  5
334
330
1B
100
AcDbEntity
 67
     1
  8
7_ALL_FEATURES
  6
Continuous
 62
     7
100
AcDbLine
 10
93.4784497865
 20
396.2891447703
 30
0.0
 11
93.9784497865
 21
396.2891447703
 31
0.0
  0
LINE
  5
335
330
1B
100
AcDbEntity
 67
     1
  8
7_ALL_FEATURES
  6
Continuous
 62
     7
100
AcDbLine
 10
126.4784497865
 20
396.2891447703
 30
0.0
 11
126.4784497865
 21
395.0891447703
 31
0.0
  0
LINE
  5
336
330
1B
100
AcDbEntity
 67
     1
  8
7_ALL_FEATURES
  6
Continuous
 62
     9
100
AcDbLine
 10
93.9784497865
 20
396.2891447703
 30
0.0
 11
93.9784497865
 21
395.0891447703
 31
0.0
  0
LINE
  5
337
330
1B
100
AcDbEntity
 67
     1
  8
7_ALL_FEATURES
  6
Continuous
 62
     9
100
AcDbLine
 10
116.4784497865
 20
396.2891447703
 30
0.0
 11
116.4784497865
 21
395.0891447703
 31
0.0
  0
LINE
  5
338
330
1B
100
AcDbEntity
 67
     1
  8
7_ALL_FEATURES
  6
Continuous
 62
     7
100
AcDbLine
 10
983.9784497865
 20
396.2891447703
 30
0.0
 11
983.9784497865
 21
395.0891447703
 31
0.0
  0
LINE
  5
339
330
1B
100
AcDbEntity
 67
     1
  8
7_ALL_FEATURES
  6
Continuous
 62
     7
100
AcDbLine
 10
1026.4784497865
 20
396.2891447703
 30
0.0
 11
1026.4784497865
 21
395.0891447703
 31
0.0
  0
LINE
  5
33A
330
1B
100
AcDbEntity
 67
     1
  8
7_ALL_FEATURES
  6
Continuous
 62
     7
100
AcDbLine
 10
1016.4784497865
 20
396.2891447703
 30
0.0
 11
1016.9784497865
 21
396.2891447703
 31
0.0
  0
LINE
  5
33B
330
1B
100
AcDbEntity
 67
     1
  8
7_ALL_FEATURES
  6
Continuous
 62
     7
100
AcDbLine
 10
1016.9784497865
 20
396.2891447703
 30
0.0
 11
1016.9849414749
 21
396.2891447703
 31
0.0
  0
LINE
  5
33C
330
1B
100
AcDbEntity
 67
     1
  8
7_ALL_FEATURES
  6
Continuous
 62
     7
100
AcDbLine
 10
1016.9849414749
 20
396.2891447703
 30
0.0
 11
1023.4784497865
 21
396.2891447703
 31
0.0
  0
LINE
  5
33D
330
1B
100
AcDbEntity
 67
     1
  8
7_ALL_FEATURES
  6
Continuous
 62
     7
100
AcDbLine
 10
1023.4784497865
 20
396.2891447703
 30
0.0
 11
1026.4784497865
 21
396.2891447703
 31
0.0
  0
LINE
  5
33E
330
1B
100
AcDbEntity
 67
     1
  8
7_ALL_FEATURES
  6
Continuous
 62
     7
100
AcDbLine
 10
1016.4784497865
 20
396.2891447703
 30
0.0
 11
993.9784497865
 21
396.2891447703
 31
0.0
  0
LINE
  5
33F
330
1B
100
AcDbEntity
 67
     1
  8
7_ALL_FEATURES
  6
Continuous
 62
     7
100
AcDbLine
 10
983.9784497865
 20
396.2891447703
 30
0.0
 11
986.9784497865
 21
396.2891447703
 31
0.0
  0
LINE
  5
340
330
1B
100
AcDbEntity
 67
     1
  8
7_ALL_FEATURES
  6
Continuous
 62
     7
100
AcDbLine
 10
986.9784497865
 20
396.2891447703
 30
0.0
 11
993.4719580981
 21
396.2891447703
 31
0.0
  0
LINE
  5
341
330
1B
100
AcDbEntity
 67
     1
  8
7_ALL_FEATURES
  6
Continuous
 62
     7
100
AcDbLine
 10
993.4719580981
 20
396.2891447703
 30
0.0
 11
993.4784497865
 21
396.2891447703
 31
0.0
  0
LINE
  5
342
330
1B
100
AcDbEntity
 67
     1
  8
7_ALL_FEATURES
  6
Continuous
 62
     7
100
AcDbLine
 10
993.4784497865
 20
396.2891447703
 30
0.0
 11
993.9784497865
 21
396.2891447703
 31
0.0
  0
LINE
  5
343
330
1B
100
AcDbEntity
 67
     1
  8
7_ALL_FEATURES
  6
Continuous
 62
     7
100
AcDbLine
 10
1026.4784497865
 20
396.2891447703
 30
0.0
 11
1026.4784497865
 21
395.0891447703
 31
0.0
  0
LINE
  5
344
330
1B
100
AcDbEntity
 67
     1
  8
7_ALL_FEATURES
  6
Continuous
 62
     9
100
AcDbLine
 10
993.9784497865
 20
396.2891447703
 30
0.0
 11
993.9784497865
 21
395.0891447703
 31
0.0
  0
LINE
  5
345
330
1B
100
AcDbEntity
 67
     1
  8
7_ALL_FEATURES
  6
Continuous
 62
     9
100
AcDbLine
 10
1016.4784497865
 20
396.2891447703
 30
0.0
 11
1016.4784497865
 21
395.0891447703
 31
0.0
  0
LINE
  5
346
330
1B
100
AcDbEntity
 67
     1
  8
7_ALL_FEATURES
  6
Continuous
 62
     7
100
AcDbLine
 10
1061.7284497865
 20
396.2891447703
 30
0.0
 11
1060.7284497865
 21
396.2891447703
 31
0.0
  0
LINE
  5
347
330
1B
100
AcDbEntity
 67
     1
  8
7_ALL_FEATURES
  6
Continuous
 62
     7
100
AcDbLine
 10
1061.7284497865
 20
396.2891447703
 30
0.0
 11
1060.7284497865
 21
396.2891447703
 31
0.0
  0
LINE
  5
348
330
1B
100
AcDbEntity
 67
     1
  8
7_ALL_FEATURES
  6
Continuous
 62
     7
100
AcDbLine
 10
1061.7284497865
 20
485.2891447703
 30
0.0
 11
1061.7284497865
 21
484.7891447703
 31
0.0
  0
LINE
  5
349
330
1B
100
AcDbEntity
 67
     1
  8
7_ALL_FEATURES
  6
Continuous
 62
     7
100
AcDbLine
 10
1061.7284497865
 20
445.7891447703
 30
0.0
 11
1061.7284497865
 21
484.7891447703
 31
0.0
  0
LINE
  5
34A
330
1B
100
AcDbEntity
 67
     1
  8
7_ALL_FEATURES
  6
Continuous
 62
     7
100
AcDbLine
 10
1061.7284497865
 20
444.7891447703
 30
0.0
 11
1061.7284497865
 21
445.7891447703
 31
0.0
  0
LINE
  5
34B
330
1B
100
AcDbEntity
 67
     1
  8
7_ALL_FEATURES
  6
Continuous
 62
     7
100
AcDbLine
 10
1061.7284497865
 20
435.7891447703
 30
0.0
 11
1061.7284497865
 21
434.7891447703
 31
0.0
  0
LINE
  5
34C
330
1B
100
AcDbEntity
 67
     1
  8
7_ALL_FEATURES
  6
Continuous
 62
     7
100
AcDbLine
 10
1061.7284497865
 20
410.9891447703
 30
0.0
 11
1061.7284497865
 21
434.7891447703
 31
0.0
  0
LINE
  5
34D
330
1B
100
AcDbEntity
 67
     1
  8
7_ALL_FEATURES
  6
Continuous
 62
     7
100
AcDbLine
 10
1061.7284497865
 20
409.7891447703
 30
0.0
 11
1061.7284497865
 21
410.9891447703
 31
0.0
  0
LINE
  5
34E
330
1B
100
AcDbEntity
 67
     1
  8
7_ALL_FEATURES
  6
Continuous
 62
     7
100
AcDbLine
 10
1061.7284497865
 20
400.7891447703
 30
0.0
 11
1061.7284497865
 21
399.5891447703
 31
0.0
  0
LINE
  5
34F
330
1B
100
AcDbEntity
 67
     1
  8
7_ALL_FEATURES
  6
Continuous
 62
     7
100
AcDbLine
 10
1061.7284497865
 20
396.7891447703
 30
0.0
 11
1061.7284497865
 21
399.5891447703
 31
0.0
  0
LINE
  5
350
330
1B
100
AcDbEntity
 67
     1
  8
7_ALL_FEATURES
  6
Continuous
 62
     7
100
AcDbLine
 10
1061.7284497865
 20
396.7891447703
 30
0.0
 11
1061.7284497865
 21
396.2891447703
 31
0.0
  0
LINE
  5
351
330
1B
100
AcDbEntity
 67
     1
  8
7_ALL_FEATURES
  6
Continuous
 62
     7
100
AcDbLine
 10
1061.7284497865
 20
445.7891447703
 30
0.0
 11
1060.7284497865
 21
445.7891447703
 31
0.0
  0
LINE
  5
352
330
1B
100
AcDbEntity
 67
     1
  8
7_ALL_FEATURES
  6
Continuous
 62
     7
100
AcDbLine
 10
1061.7284497865
 20
399.5891447703
 30
0.0
 11
1060.7284497865
 21
399.5891447703
 31
0.0
  0
LINE
  5
353
330
1B
100
AcDbEntity
 67
     1
  8
7_ALL_FEATURES
  6
Continuous
 62
     7
100
AcDbLine
 10
1061.7284497865
 20
410.9891447703
 30
0.0
 11
1060.7284497865
 21
410.9891447703
 31
0.0
  0
LINE
  5
354
330
1B
100
AcDbEntity
 67
     1
  8
7_ALL_FEATURES
  6
Continuous
 62
     7
100
AcDbLine
 10
1061.7284497865
 20
434.7891447703
 30
0.0
 11
1060.7284497865
 21
434.7891447703
 31
0.0
  0
LINE
  5
355
330
1B
100
AcDbEntity
 67
     1
  8
7_ALL_FEATURES
  6
Continuous
 62
     7
100
AcDbLine
 10
1061.7284497865
 20
485.2891447703
 30
0.0
 11
1060.7284497865
 21
485.2891447703
 31
0.0
  0
LINE
  5
356
330
1B
100
AcDbEntity
 67
     1
  8
7_ALL_FEATURES
  6
Continuous
 62
     7
100
AcDbLine
 10
1061.7284497865
 20
435.7891447703
 30
0.0
 11
1061.7284497865
 21
444.7891447703
 31
0.0
  0
LINE
  5
357
330
1B
100
AcDbEntity
 67
     1
  8
7_ALL_FEATURES
  6
Continuous
 62
     7
100
AcDbLine
 10
1061.496531398
 20
444.7891447703
 30
0.0
 11
1061.7284497865
 21
444.7891447703
 31
0.0
  0
LINE
  5
358
330
1B
100
AcDbEntity
 67
     1
  8
7_ALL_FEATURES
  6
Continuous
 62
     7
100
AcDbLine
 10
1059.7284497865
 20
444.7891447703
 30
0.0
 11
1061.496531398
 21
444.7891447703
 31
0.0
  0
LINE
  5
359
330
1B
100
AcDbEntity
 67
     1
  8
7_ALL_FEATURES
  6
Continuous
 62
     7
100
AcDbLine
 10
1059.7284497865
 20
435.7891447703
 30
0.0
 11
1061.496531398
 21
435.7891447703
 31
0.0
  0
LINE
  5
35A
330
1B
100
AcDbEntity
 67
     1
  8
7_ALL_FEATURES
  6
Continuous
 62
     7
100
AcDbLine
 10
1061.496531398
 20
435.7891447703
 30
0.0
 11
1061.7284497865
 21
435.7891447703
 31
0.0
  0
LINE
  5
35B
330
1B
100
AcDbEntity
 67
     1
  8
7_ALL_FEATURES
  6
Continuous
 62
     7
100
AcDbLine
 10
1049.2284497865
 20
440.7891447703
 30
0.0
 11
1049.2284497865
 21
439.7891447703
 31
0.0
  0
ARC
  5
35C
330
1B
100
AcDbEntity
 67
     1
  8
7_ALL_FEATURES
  6
Continuous
 62
     7
100
AcDbCircle
 10
1053.2284497865
 20
439.7891447703
 30
0.0
 40
4.0
100
AcDbArc
 50
180.0
 51
270.0
  0
LINE
  5
35D
330
1B
100
AcDbEntity
 67
     1
  8
7_ALL_FEATURES
  6
Continuous
 62
     7
100
AcDbLine
 10
1053.2284497865
 20
435.7891447703
 30
0.0
 11
1059.7284497865
 21
435.7891447703
 31
0.0
  0
LINE
  5
35E
330
1B
100
AcDbEntity
 67
     1
  8
7_ALL_FEATURES
  6
Continuous
 62
     7
100
AcDbLine
 10
1059.7284497865
 20
444.7891447703
 30
0.0
 11
1053.2284497865
 21
444.7891447703
 31
0.0
  0
ARC
  5
35F
330
1B
100
AcDbEntity
 67
     1
  8
7_ALL_FEATURES
  6
Continuous
 62
     7
100
AcDbCircle
 10
1053.2284497865
 20
440.7891447703
 30
0.0
 40
4.0
100
AcDbArc
 50
90.0
 51
180.0
  0
ARC
  5
360
330
1B
100
AcDbEntity
 67
     1
  8
02___PRT_ALL_AXES
  6
Continuous
 62
     7
100
AcDbCircle
 10
1056.4784497865
 20
440.2891447703
 30
0.0
 40
2.25
100
AcDbArc
 50
323.3082967531
 51
36.6917032469
  0
ARC
  5
361
330
1B
100
AcDbEntity
 67
     1
  8
02___PRT_ALL_AXES
  6
Continuous
 62
     7
100
AcDbCircle
 10
1052.9784497865
 20
440.2891447703
 30
0.0
 40
2.25
100
AcDbArc
 50
143.3082967531
 51
216.6917032469
  0
LINE
  5
362
330
1B
100
AcDbEntity
 67
     1
  8
7_ALL_FEATURES
  6
Continuous
 62
     7
100
AcDbLine
 10
1061.7284497865
 20
400.7891447703
 30
0.0
 11
1061.7284497865
 21
409.7891447703
 31
0.0
  0
LINE
  5
363
330
1B
100
AcDbEntity
 67
     1
  8
7_ALL_FEATURES
  6
Continuous
 62
     7
100
AcDbLine
 10
1061.496531398
 20
409.7891447703
 30
0.0
 11
1061.7284497865
 21
409.7891447703
 31
0.0
  0
LINE
  5
364
330
1B
100
AcDbEntity
 67
     1
  8
7_ALL_FEATURES
  6
Continuous
 62
     7
100
AcDbLine
 10
1059.7284497865
 20
409.7891447703
 30
0.0
 11
1061.496531398
 21
409.7891447703
 31
0.0
  0
LINE
  5
365
330
1B
100
AcDbEntity
 67
     1
  8
7_ALL_FEATURES
  6
Continuous
 62
     7
100
AcDbLine
 10
1059.7284497865
 20
400.7891447703
 30
0.0
 11
1061.496531398
 21
400.7891447703
 31
0.0
  0
LINE
  5
366
330
1B
100
AcDbEntity
 67
     1
  8
7_ALL_FEATURES
  6
Continuous
 62
     7
100
AcDbLine
 10
1061.496531398
 20
400.7891447703
 30
0.0
 11
1061.7284497865
 21
400.7891447703
 31
0.0
  0
LINE
  5
367
330
1B
100
AcDbEntity
 67
     1
  8
7_ALL_FEATURES
  6
Continuous
 62
     7
100
AcDbLine
 10
1049.2284497865
 20
405.7891447703
 30
0.0
 11
1049.2284497865
 21
404.7891447703
 31
0.0
  0
ARC
  5
368
330
1B
100
AcDbEntity
 67
     1
  8
7_ALL_FEATURES
  6
Continuous
 62
     7
100
AcDbCircle
 10
1053.2284497865
 20
404.7891447703
 30
0.0
 40
4.0
100
AcDbArc
 50
180.0
 51
270.0
  0
LINE
  5
369
330
1B
100
AcDbEntity
 67
     1
  8
7_ALL_FEATURES
  6
Continuous
 62
     7
100
AcDbLine
 10
1053.2284497865
 20
400.7891447703
 30
0.0
 11
1059.7284497865
 21
400.7891447703
 31
0.0
  0
LINE
  5
36A
330
1B
100
AcDbEntity
 67
     1
  8
7_ALL_FEATURES
  6
Continuous
 62
     7
100
AcDbLine
 10
1059.7284497865
 20
409.7891447703
 30
0.0
 11
1053.2284497865
 21
409.7891447703
 31
0.0
  0
ARC
  5
36B
330
1B
100
AcDbEntity
 67
     1
  8
7_ALL_FEATURES
  6
Continuous
 62
     7
100
AcDbCircle
 10
1053.2284497865
 20
405.7891447703
 30
0.0
 40
4.0
100
AcDbArc
 50
90.0
 51
180.0
  0
ARC
  5
36C
330
1B
100
AcDbEntity
 67
     1
  8
02___PRT_ALL_AXES
  6
Continuous
 62
     7
100
AcDbCircle
 10
1052.9784497865
 20
405.2891447703
 30
0.0
 40
2.25
100
AcDbArc
 50
143.3082967531
 51
216.6917032469
  0
ARC
  5
36D
330
1B
100
AcDbEntity
 67
     1
  8
02___PRT_ALL_AXES
  6
Continuous
 62
     7
100
AcDbCircle
 10
1056.4784497865
 20
405.2891447703
 30
0.0
 40
2.25
100
AcDbArc
 50
323.3082967531
 51
36.6917032469
  0
LINE
  5
36E
330
1B
100
AcDbEntity
 67
     1
  8
7_ALL_FEATURES
  6
Continuous
 62
     9
100
AcDbLine
 10
1059.7284497865
 20
435.7891447703
 30
0.0
 11
1059.7284497865
 21
444.7891447703
 31
0.0
  0
LINE
  5
36F
330
1B
100
AcDbEntity
 67
     1
  8
7_ALL_FEATURES
  6
Continuous
 62
     9
100
AcDbLine
 10
1059.7284497865
 20
400.7891447703
 30
0.0
 11
1059.7284497865
 21
409.7891447703
 31
0.0
  0
LINE
  5
370
330
1B
100
AcDbEntity
 67
     1
  8
7_ALL_FEATURES
  6
Continuous
 62
     9
100
AcDbLine
 10
1061.7284497865
 20
396.7891447703
 30
0.0
 11
1060.7284497865
 21
396.7891447703
 31
0.0
  0
LINE
  5
371
330
1B
100
AcDbEntity
 67
     1
  8
7_ALL_FEATURES
  6
Continuous
 62
     9
100
AcDbLine
 10
1061.7284497865
 20
484.7891447703
 30
0.0
 11
1060.7284497865
 21
484.7891447703
 31
0.0
  0
LINE
  5
372
330
1B
100
AcDbEntity
 67
     1
  8
7_ALL_FEATURES
  6
Continuous
 62
     7
100
AcDbLine
 10
48.7284497865
 20
485.2891447703
 30
0.0
 11
49.7284497865
 21
485.2891447703
 31
0.0
  0
LINE
  5
373
330
1B
100
AcDbEntity
 67
     1
  8
7_ALL_FEATURES
  6
Continuous
 62
     7
100
AcDbLine
 10
48.7284497865
 20
396.2891447703
 30
0.0
 11
49.7284497865
 21
396.2891447703
 31
0.0
  0
LINE
  5
374
330
1B
100
AcDbEntity
 67
     1
  8
7_ALL_FEATURES
  6
Continuous
 62
     7
100
AcDbLine
 10
48.7284497865
 20
396.2891447703
 30
0.0
 11
48.7284497865
 21
396.7891447703
 31
0.0
  0
LINE
  5
375
330
1B
100
AcDbEntity
 67
     1
  8
7_ALL_FEATURES
  6
Continuous
 62
     7
100
AcDbLine
 10
48.7284497865
 20
399.5891447703
 30
0.0
 11
48.7284497865
 21
396.7891447703
 31
0.0
  0
LINE
  5
376
330
1B
100
AcDbEntity
 67
     1
  8
7_ALL_FEATURES
  6
Continuous
 62
     7
100
AcDbLine
 10
48.7284497865
 20
400.7891447703
 30
0.0
 11
48.7284497865
 21
399.5891447703
 31
0.0
  0
LINE
  5
377
330
1B
100
AcDbEntity
 67
     1
  8
7_ALL_FEATURES
  6
Continuous
 62
     7
100
AcDbLine
 10
48.7284497865
 20
409.7891447703
 30
0.0
 11
48.7284497865
 21
410.9891447703
 31
0.0
  0
LINE
  5
378
330
1B
100
AcDbEntity
 67
     1
  8
7_ALL_FEATURES
  6
Continuous
 62
     7
100
AcDbLine
 10
48.7284497865
 20
434.5891447703
 30
0.0
 11
48.7284497865
 21
410.9891447703
 31
0.0
  0
LINE
  5
379
330
1B
100
AcDbEntity
 67
     1
  8
7_ALL_FEATURES
  6
Continuous
 62
     7
100
AcDbLine
 10
48.7284497865
 20
435.7891447703
 30
0.0
 11
48.7284497865
 21
434.5891447703
 31
0.0
  0
LINE
  5
37A
330
1B
100
AcDbEntity
 67
     1
  8
7_ALL_FEATURES
  6
Continuous
 62
     7
100
AcDbLine
 10
48.7284497865
 20
444.7891447703
 30
0.0
 11
48.7284497865
 21
445.9891447703
 31
0.0
  0
LINE
  5
37B
330
1B
100
AcDbEntity
 67
     1
  8
7_ALL_FEATURES
  6
Continuous
 62
     7
100
AcDbLine
 10
48.7284497865
 20
484.7891447703
 30
0.0
 11
48.7284497865
 21
445.9891447703
 31
0.0
  0
LINE
  5
37C
330
1B
100
AcDbEntity
 67
     1
  8
7_ALL_FEATURES
  6
Continuous
 62
     7
100
AcDbLine
 10
48.7284497865
 20
484.7891447703
 30
0.0
 11
48.7284497865
 21
485.2891447703
 31
0.0
  0
LINE
  5
37D
330
1B
100
AcDbEntity
 67
     1
  8
7_ALL_FEATURES
  6
Continuous
 62
     7
100
AcDbLine
 10
48.7284497865
 20
485.2891447703
 30
0.0
 11
49.7284497865
 21
485.2891447703
 31
0.0
  0
LINE
  5
37E
330
1B
100
AcDbEntity
 67
     1
  8
7_ALL_FEATURES
  6
Continuous
 62
     7
100
AcDbLine
 10
48.7284497865
 20
445.9891447703
 30
0.0
 11
49.7284497865
 21
445.9891447703
 31
0.0
  0
LINE
  5
37F
330
1B
100
AcDbEntity
 67
     1
  8
7_ALL_FEATURES
  6
Continuous
 62
     7
100
AcDbLine
 10
48.7284497865
 20
399.5891447703
 30
0.0
 11
49.7284497865
 21
399.5891447703
 31
0.0
  0
LINE
  5
380
330
1B
100
AcDbEntity
 67
     1
  8
7_ALL_FEATURES
  6
Continuous
 62
     7
100
AcDbLine
 10
48.7284497865
 20
410.9891447703
 30
0.0
 11
49.7284497865
 21
410.9891447703
 31
0.0
  0
LINE
  5
381
330
1B
100
AcDbEntity
 67
     1
  8
7_ALL_FEATURES
  6
Continuous
 62
     7
100
AcDbLine
 10
48.7284497865
 20
434.5891447703
 30
0.0
 11
49.7284497865
 21
434.5891447703
 31
0.0
  0
LINE
  5
382
330
1B
100
AcDbEntity
 67
     1
  8
7_ALL_FEATURES
  6
Continuous
 62
     7
100
AcDbLine
 10
48.7284497865
 20
444.7891447703
 30
0.0
 11
48.7284497865
 21
435.7891447703
 31
0.0
  0
LINE
  5
383
330
1B
100
AcDbEntity
 67
     1
  8
7_ALL_FEATURES
  6
Continuous
 62
     7
100
AcDbLine
 10
48.960368175
 20
435.7891447703
 30
0.0
 11
48.7284497865
 21
435.7891447703
 31
0.0
  0
LINE
  5
384
330
1B
100
AcDbEntity
 67
     1
  8
7_ALL_FEATURES
  6
Continuous
 62
     7
100
AcDbLine
 10
50.7284497865
 20
435.7891447703
 30
0.0
 11
48.960368175
 21
435.7891447703
 31
0.0
  0
LINE
  5
385
330
1B
100
AcDbEntity
 67
     1
  8
7_ALL_FEATURES
  6
Continuous
 62
     7
100
AcDbLine
 10
50.7284497865
 20
444.7891447703
 30
0.0
 11
48.960368175
 21
444.7891447703
 31
0.0
  0
LINE
  5
386
330
1B
100
AcDbEntity
 67
     1
  8
7_ALL_FEATURES
  6
Continuous
 62
     7
100
AcDbLine
 10
48.960368175
 20
444.7891447703
 30
0.0
 11
48.7284497865
 21
444.7891447703
 31
0.0
  0
LINE
  5
387
330
1B
100
AcDbEntity
 67
     1
  8
7_ALL_FEATURES
  6
Continuous
 62
     7
100
AcDbLine
 10
57.2284497865
 20
444.7891447703
 30
0.0
 11
50.7284497865
 21
444.7891447703
 31
0.0
  0
LINE
  5
388
330
1B
100
AcDbEntity
 67
     1
  8
7_ALL_FEATURES
  6
Continuous
 62
     7
100
AcDbLine
 10
50.7284497865
 20
435.7891447703
 30
0.0
 11
57.2284497865
 21
435.7891447703
 31
0.0
  0
ARC
  5
389
330
1B
100
AcDbEntity
 67
     1
  8
7_ALL_FEATURES
  6
Continuous
 62
     7
100
AcDbCircle
 10
57.2284497865
 20
439.7891447703
 30
0.0
 40
4.0
100
AcDbArc
 50
270.0
 51
360.0
  0
LINE
  5
38A
330
1B
100
AcDbEntity
 67
     1
  8
7_ALL_FEATURES
  6
Continuous
 62
     7
100
AcDbLine
 10
61.2284497865
 20
439.7891447703
 30
0.0
 11
61.2284497865
 21
440.7891447703
 31
0.0
  0
ARC
  5
38B
330
1B
100
AcDbEntity
 67
     1
  8
7_ALL_FEATURES
  6
Continuous
 62
     7
100
AcDbCircle
 10
57.2284497865
 20
440.7891447703
 30
0.0
 40
4.0
100
AcDbArc
 50
0.0
 51
90.0
  0
ARC
  5
38C
330
1B
100
AcDbEntity
 67
     1
  8
02___PRT_ALL_AXES
  6
Continuous
 62
     7
100
AcDbCircle
 10
57.4784497865
 20
440.2891447703
 30
0.0
 40
2.25
100
AcDbArc
 50
323.3082967531
 51
36.6917032469
  0
ARC
  5
38D
330
1B
100
AcDbEntity
 67
     1
  8
02___PRT_ALL_AXES
  6
Continuous
 62
     7
100
AcDbCircle
 10
53.9784497865
 20
440.2891447703
 30
0.0
 40
2.25
100
AcDbArc
 50
143.3082967531
 51
216.6917032469
  0
LINE
  5
38E
330
1B
100
AcDbEntity
 67
     1
  8
7_ALL_FEATURES
  6
Continuous
 62
     7
100
AcDbLine
 10
48.7284497865
 20
409.7891447703
 30
0.0
 11
48.7284497865
 21
400.7891447703
 31
0.0
  0
LINE
  5
38F
330
1B
100
AcDbEntity
 67
     1
  8
7_ALL_FEATURES
  6
Continuous
 62
     7
100
AcDbLine
 10
48.960368175
 20
400.7891447703
 30
0.0
 11
48.7284497865
 21
400.7891447703
 31
0.0
  0
LINE
  5
390
330
1B
100
AcDbEntity
 67
     1
  8
7_ALL_FEATURES
  6
Continuous
 62
     7
100
AcDbLine
 10
50.7284497865
 20
400.7891447703
 30
0.0
 11
48.960368175
 21
400.7891447703
 31
0.0
  0
LINE
  5
391
330
1B
100
AcDbEntity
 67
     1
  8
7_ALL_FEATURES
  6
Continuous
 62
     7
100
AcDbLine
 10
50.7284497865
 20
409.7891447703
 30
0.0
 11
48.960368175
 21
409.7891447703
 31
0.0
  0
LINE
  5
392
330
1B
100
AcDbEntity
 67
     1
  8
7_ALL_FEATURES
  6
Continuous
 62
     7
100
AcDbLine
 10
48.960368175
 20
409.7891447703
 30
0.0
 11
48.7284497865
 21
409.7891447703
 31
0.0
  0
LINE
  5
393
330
1B
100
AcDbEntity
 67
     1
  8
7_ALL_FEATURES
  6
Continuous
 62
     7
100
AcDbLine
 10
57.2284497865
 20
409.7891447703
 30
0.0
 11
50.7284497865
 21
409.7891447703
 31
0.0
  0
LINE
  5
394
330
1B
100
AcDbEntity
 67
     1
  8
7_ALL_FEATURES
  6
Continuous
 62
     7
100
AcDbLine
 10
50.7284497865
 20
400.7891447703
 30
0.0
 11
57.2284497865
 21
400.7891447703
 31
0.0
  0
ARC
  5
395
330
1B
100
AcDbEntity
 67
     1
  8
7_ALL_FEATURES
  6
Continuous
 62
     7
100
AcDbCircle
 10
57.2284497865
 20
404.7891447703
 30
0.0
 40
4.0
100
AcDbArc
 50
270.0
 51
360.0
  0
LINE
  5
396
330
1B
100
AcDbEntity
 67
     1
  8
7_ALL_FEATURES
  6
Continuous
 62
     7
100
AcDbLine
 10
61.2284497865
 20
404.7891447703
 30
0.0
 11
61.2284497865
 21
405.7891447703
 31
0.0
  0
ARC
  5
397
330
1B
100
AcDbEntity
 67
     1
  8
7_ALL_FEATURES
  6
Continuous
 62
     7
100
AcDbCircle
 10
57.2284497865
 20
405.7891447703
 30
0.0
 40
4.0
100
AcDbArc
 50
0.0
 51
90.0
  0
ARC
  5
398
330
1B
100
AcDbEntity
 67
     1
  8
02___PRT_ALL_AXES
  6
Continuous
 62
     7
100
AcDbCircle
 10
57.4784497865
 20
405.2891447703
 30
0.0
 40
2.25
100
AcDbArc
 50
323.3082967531
 51
36.6917032469
  0
ARC
  5
399
330
1B
100
AcDbEntity
 67
     1
  8
02___PRT_ALL_AXES
  6
Continuous
 62
     7
100
AcDbCircle
 10
53.9784497865
 20
405.2891447703
 30
0.0
 40
2.25
100
AcDbArc
 50
143.3082967531
 51
216.6917032469
  0
LINE
  5
39A
330
1B
100
AcDbEntity
 67
     1
  8
7_ALL_FEATURES
  6
Continuous
 62
     9
100
AcDbLine
 10
50.7284497865
 20
444.7891447703
 30
0.0
 11
50.7284497865
 21
435.7891447703
 31
0.0
  0
LINE
  5
39B
330
1B
100
AcDbEntity
 67
     1
  8
7_ALL_FEATURES
  6
Continuous
 62
     9
100
AcDbLine
 10
50.7284497865
 20
409.7891447703
 30
0.0
 11
50.7284497865
 21
400.7891447703
 31
0.0
  0
LINE
  5
39C
330
1B
100
AcDbEntity
 67
     1
  8
7_ALL_FEATURES
  6
Continuous
 62
     9
100
AcDbLine
 10
48.7284497865
 20
396.7891447703
 30
0.0
 11
49.7284497865
 21
396.7891447703
 31
0.0
  0
LINE
  5
39D
330
1B
100
AcDbEntity
 67
     1
  8
7_ALL_FEATURES
  6
Continuous
 62
     9
100
AcDbLine
 10
48.7284497865
 20
484.7891447703
 30
0.0
 11
49.7284497865
 21
484.7891447703
 31
0.0
  0
LINE
  5
39E
330
1B
100
AcDbEntity
 67
     1
  8
7_ALL_FEATURES
  6
Continuous
 62
     3
100
AcDbLine
 10
543.9784497865
 20
395.0891447703
 30
0.0
 11
543.4784497865
 21
395.0891447703
 31
0.0
  0
LINE
  5
39F
330
1B
100
AcDbEntity
 67
     1
  8
7_ALL_FEATURES
  6
Continuous
 62
     3
100
AcDbLine
 10
543.4784497865
 20
395.0891447703
 30
0.0
 11
543.4719580981
 21
395.0891447703
 31
0.0
  0
LINE
  5
3A0
330
1B
100
AcDbEntity
 67
     1
  8
7_ALL_FEATURES
  6
Continuous
 62
     3
100
AcDbLine
 10
543.4719580981
 20
395.0891447703
 30
0.0
 11
536.9784497865
 21
395.0891447703
 31
0.0
  0
LINE
  5
3A1
330
1B
100
AcDbEntity
 67
     1
  8
7_ALL_FEATURES
  6
Continuous
 62
     3
100
AcDbLine
 10
536.9784497865
 20
395.0891447703
 30
0.0
 11
533.9784497865
 21
395.0891447703
 31
0.0
  0
LINE
  5
3A2
330
1B
100
AcDbEntity
 67
     1
  8
7_ALL_FEATURES
  6
Continuous
 62
     3
100
AcDbLine
 10
566.4784497865
 20
395.0891447703
 30
0.0
 11
543.9784497865
 21
395.0891447703
 31
0.0
  0
LINE
  5
3A3
330
1B
100
AcDbEntity
 67
     1
  8
7_ALL_FEATURES
  6
Continuous
 62
     3
100
AcDbLine
 10
576.4784497865
 20
395.0891447703
 30
0.0
 11
573.4784497865
 21
395.0891447703
 31
0.0
  0
LINE
  5
3A4
330
1B
100
AcDbEntity
 67
     1
  8
7_ALL_FEATURES
  6
Continuous
 62
     3
100
AcDbLine
 10
573.4784497865
 20
395.0891447703
 30
0.0
 11
566.9849414749
 21
395.0891447703
 31
0.0
  0
LINE
  5
3A5
330
1B
100
AcDbEntity
 67
     1
  8
7_ALL_FEATURES
  6
Continuous
 62
     3
100
AcDbLine
 10
566.9849414749
 20
395.0891447703
 30
0.0
 11
566.9784497865
 21
395.0891447703
 31
0.0
  0
LINE
  5
3A6
330
1B
100
AcDbEntity
 67
     1
  8
7_ALL_FEATURES
  6
Continuous
 62
     3
100
AcDbLine
 10
566.9784497865
 20
395.0891447703
 30
0.0
 11
566.4784497865
 21
395.0891447703
 31
0.0
  0
LINE
  5
3A7
330
1B
100
AcDbEntity
 67
     1
  8
7_ALL_FEATURES
  6
Continuous
 62
     3
100
AcDbLine
 10
93.9784497865
 20
395.0891447703
 30
0.0
 11
93.4784497865
 21
395.0891447703
 31
0.0
  0
LINE
  5
3A8
330
1B
100
AcDbEntity
 67
     1
  8
7_ALL_FEATURES
  6
Continuous
 62
     3
100
AcDbLine
 10
93.4784497865
 20
395.0891447703
 30
0.0
 11
93.4719580981
 21
395.0891447703
 31
0.0
  0
LINE
  5
3A9
330
1B
100
AcDbEntity
 67
     1
  8
7_ALL_FEATURES
  6
Continuous
 62
     3
100
AcDbLine
 10
93.4719580981
 20
395.0891447703
 30
0.0
 11
86.9784497865
 21
395.0891447703
 31
0.0
  0
LINE
  5
3AA
330
1B
100
AcDbEntity
 67
     1
  8
7_ALL_FEATURES
  6
Continuous
 62
     3
100
AcDbLine
 10
86.9784497865
 20
395.0891447703
 30
0.0
 11
83.9784497865
 21
395.0891447703
 31
0.0
  0
LINE
  5
3AB
330
1B
100
AcDbEntity
 67
     1
  8
7_ALL_FEATURES
  6
Continuous
 62
     3
100
AcDbLine
 10
116.4784497865
 20
395.0891447703
 30
0.0
 11
93.9784497865
 21
395.0891447703
 31
0.0
  0
LINE
  5
3AC
330
1B
100
AcDbEntity
 67
     1
  8
7_ALL_FEATURES
  6
Continuous
 62
     3
100
AcDbLine
 10
126.4784497865
 20
395.0891447703
 30
0.0
 11
123.4784497865
 21
395.0891447703
 31
0.0
  0
LINE
  5
3AD
330
1B
100
AcDbEntity
 67
     1
  8
7_ALL_FEATURES
  6
Continuous
 62
     3
100
AcDbLine
 10
123.4784497865
 20
395.0891447703
 30
0.0
 11
116.9849414749
 21
395.0891447703
 31
0.0
  0
LINE
  5
3AE
330
1B
100
AcDbEntity
 67
     1
  8
7_ALL_FEATURES
  6
Continuous
 62
     3
100
AcDbLine
 10
116.9849414749
 20
395.0891447703
 30
0.0
 11
116.9784497865
 21
395.0891447703
 31
0.0
  0
LINE
  5
3AF
330
1B
100
AcDbEntity
 67
     1
  8
7_ALL_FEATURES
  6
Continuous
 62
     3
100
AcDbLine
 10
116.9784497865
 20
395.0891447703
 30
0.0
 11
116.4784497865
 21
395.0891447703
 31
0.0
  0
LINE
  5
3B0
330
1B
100
AcDbEntity
 67
     1
  8
7_ALL_FEATURES
  6
Continuous
 62
     3
100
AcDbLine
 10
993.9784497865
 20
395.0891447703
 30
0.0
 11
993.4784497865
 21
395.0891447703
 31
0.0
  0
LINE
  5
3B1
330
1B
100
AcDbEntity
 67
     1
  8
7_ALL_FEATURES
  6
Continuous
 62
     3
100
AcDbLine
 10
993.4784497865
 20
395.0891447703
 30
0.0
 11
993.4719580981
 21
395.0891447703
 31
0.0
  0
LINE
  5
3B2
330
1B
100
AcDbEntity
 67
     1
  8
7_ALL_FEATURES
  6
Continuous
 62
     3
100
AcDbLine
 10
993.4719580981
 20
395.0891447703
 30
0.0
 11
986.9784497865
 21
395.0891447703
 31
0.0
  0
LINE
  5
3B3
330
1B
100
AcDbEntity
 67
     1
  8
7_ALL_FEATURES
  6
Continuous
 62
     3
100
AcDbLine
 10
986.9784497865
 20
395.0891447703
 30
0.0
 11
983.9784497865
 21
395.0891447703
 31
0.0
  0
LINE
  5
3B4
330
1B
100
AcDbEntity
 67
     1
  8
7_ALL_FEATURES
  6
Continuous
 62
     3
100
AcDbLine
 10
1016.4784497865
 20
395.0891447703
 30
0.0
 11
993.9784497865
 21
395.0891447703
 31
0.0
  0
LINE
  5
3B5
330
1B
100
AcDbEntity
 67
     1
  8
7_ALL_FEATURES
  6
Continuous
 62
     3
100
AcDbLine
 10
1026.4784497865
 20
395.0891447703
 30
0.0
 11
1023.4784497865
 21
395.0891447703
 31
0.0
  0
LINE
  5
3B6
330
1B
100
AcDbEntity
 67
     1
  8
7_ALL_FEATURES
  6
Continuous
 62
     3
100
AcDbLine
 10
1023.4784497865
 20
395.0891447703
 30
0.0
 11
1016.9849414749
 21
395.0891447703
 31
0.0
  0
LINE
  5
3B7
330
1B
100
AcDbEntity
 67
     1
  8
7_ALL_FEATURES
  6
Continuous
 62
     3
100
AcDbLine
 10
1016.9849414749
 20
395.0891447703
 30
0.0
 11
1016.9784497865
 21
395.0891447703
 31
0.0
  0
LINE
  5
3B8
330
1B
100
AcDbEntity
 67
     1
  8
7_ALL_FEATURES
  6
Continuous
 62
     3
100
AcDbLine
 10
1016.9784497865
 20
395.0891447703
 30
0.0
 11
1016.4784497865
 21
395.0891447703
 31
0.0
  0
LINE
  5
3B9
330
1B
100
AcDbEntity
 67
     1
  8
7_ALL_FEATURES
  6
Continuous
 62
     3
100
AcDbLine
 10
1060.7284497865
 20
396.2891447703
 30
0.0
 11
1060.7284497865
 21
396.7891447703
 31
0.0
  0
LINE
  5
3BA
330
1B
100
AcDbEntity
 67
     1
  8
7_ALL_FEATURES
  6
Continuous
 62
     3
100
AcDbLine
 10
1060.7284497865
 20
445.7891447703
 30
0.0
 11
1060.7284497865
 21
484.7891447703
 31
0.0
  0
LINE
  5
3BB
330
1B
100
AcDbEntity
 67
     1
  8
7_ALL_FEATURES
  6
Continuous
 62
     3
100
AcDbLine
 10
1060.7284497865
 20
444.7891447703
 30
0.0
 11
1060.7284497865
 21
445.2891447703
 31
0.0
  0
LINE
  5
3BC
330
1B
100
AcDbEntity
 67
     1
  8
7_ALL_FEATURES
  6
Continuous
 62
     3
100
AcDbLine
 10
1060.7284497865
 20
435.7891447703
 30
0.0
 11
1060.7284497865
 21
435.2891447703
 31
0.0
  0
LINE
  5
3BD
330
1B
100
AcDbEntity
 67
     1
  8
7_ALL_FEATURES
  6
Continuous
 62
     3
100
AcDbLine
 10
1060.7284497865
 20
410.9891447703
 30
0.0
 11
1060.7284497865
 21
434.7891447703
 31
0.0
  0
LINE
  5
3BE
330
1B
100
AcDbEntity
 67
     1
  8
7_ALL_FEATURES
  6
Continuous
 62
     3
100
AcDbLine
 10
1060.7284497865
 20
409.7891447703
 30
0.0
 11
1060.7284497865
 21
410.7891447703
 31
0.0
  0
LINE
  5
3BF
330
1B
100
AcDbEntity
 67
     1
  8
7_ALL_FEATURES
  6
Continuous
 62
     3
100
AcDbLine
 10
1060.7284497865
 20
400.7891447703
 30
0.0
 11
1060.7284497865
 21
399.7891447703
 31
0.0
  0
LINE
  5
3C0
330
1B
100
AcDbEntity
 67
     1
  8
7_ALL_FEATURES
  6
Continuous
 62
     3
100
AcDbLine
 10
1060.7284497865
 20
396.7891447703
 30
0.0
 11
1060.7284497865
 21
398.6891447703
 31
0.0
  0
LINE
  5
3C1
330
1B
100
AcDbEntity
 67
     1
  8
7_ALL_FEATURES
  6
Continuous
 62
     3
100
AcDbLine
 10
1060.7284497865
 20
398.6891447703
 30
0.0
 11
1060.7284497865
 21
399.5891447703
 31
0.0
  0
LINE
  5
3C2
330
1B
100
AcDbEntity
 67
     1
  8
7_ALL_FEATURES
  6
Continuous
 62
     3
100
AcDbLine
 10
49.7284497865
 20
396.7891447703
 30
0.0
 11
49.7284497865
 21
396.2891447703
 31
0.0
  0
LINE
  5
3C3
330
1B
100
AcDbEntity
 67
     1
  8
7_ALL_FEATURES
  6
Continuous
 62
     3
100
AcDbLine
 10
49.7284497865
 20
399.5891447703
 30
0.0
 11
49.7284497865
 21
398.6891447703
 31
0.0
  0
LINE
  5
3C4
330
1B
100
AcDbEntity
 67
     1
  8
7_ALL_FEATURES
  6
Continuous
 62
     3
100
AcDbLine
 10
49.7284497865
 20
398.6891447703
 30
0.0
 11
49.7284497865
 21
396.7891447703
 31
0.0
  0
LINE
  5
3C5
330
1B
100
AcDbEntity
 67
     1
  8
7_ALL_FEATURES
  6
Continuous
 62
     3
100
AcDbLine
 10
49.7284497865
 20
400.7891447703
 30
0.0
 11
49.7284497865
 21
399.7891447703
 31
0.0
  0
LINE
  5
3C6
330
1B
100
AcDbEntity
 67
     1
  8
7_ALL_FEATURES
  6
Continuous
 62
     3
100
AcDbLine
 10
49.7284497865
 20
409.7891447703
 30
0.0
 11
49.7284497865
 21
410.7891447703
 31
0.0
  0
LINE
  5
3C7
330
1B
100
AcDbEntity
 67
     1
  8
7_ALL_FEATURES
  6
Continuous
 62
     3
100
AcDbLine
 10
49.7284497865
 20
434.5891447703
 30
0.0
 11
49.7284497865
 21
410.9891447703
 31
0.0
  0
LINE
  5
3C8
330
1B
100
AcDbEntity
 67
     1
  8
7_ALL_FEATURES
  6
Continuous
 62
     3
100
AcDbLine
 10
49.7284497865
 20
435.7891447703
 30
0.0
 11
49.7284497865
 21
435.2891447703
 31
0.0
  0
LINE
  5
3C9
330
1B
100
AcDbEntity
 67
     1
  8
7_ALL_FEATURES
  6
Continuous
 62
     3
100
AcDbLine
 10
49.7284497865
 20
444.7891447703
 30
0.0
 11
49.7284497865
 21
445.2891447703
 31
0.0
  0
LINE
  5
3CA
330
1B
100
AcDbEntity
 67
     1
  8
7_ALL_FEATURES
  6
Continuous
 62
     3
100
AcDbLine
 10
49.7284497865
 20
484.7891447703
 30
0.0
 11
49.7284497865
 21
445.9891447703
 31
0.0
  0
ARC
  5
3CB
330
1B
100
AcDbEntity
 67
     1
  8
02___PRT_ALL_AXES
  6
Continuous
 62
     3
100
AcDbCircle
 10
702.7284497865
 20
424.9575995517
 30
0.0
 40
9.5
100
AcDbArc
 50
2.0
 51
178.0
  0
LINE
  5
3CC
330
1B
100
AcDbEntity
 67
     1
  8
02___PRT_ALL_AXES
  6
Continuous
 62
     3
100
AcDbLine
 10
712.7223580567
 20
425.3065945187
 30
0.0
 11
712.2226626432
 21
425.2891447703
 31
0.0
  0
ARC
  5
3CD
330
1B
100
AcDbEntity
 67
     1
  8
02___PRT_ALL_AXES
  6
Continuous
 62
     3
100
AcDbCircle
 10
702.7284497865
 20
424.9575995517
 30
0.0
 40
10.0
100
AcDbArc
 50
2.0
 51
178.0
  0
LINE
  5
3CE
330
1B
100
AcDbEntity
 67
     1
  8
02___PRT_ALL_AXES
  6
Continuous
 62
     3
100
AcDbLine
 10
693.2342369298
 20
425.2891447703
 30
0.0
 11
692.7345415163
 21
425.3065945187
 31
0.0
  0
LINE
  5
3CF
330
1B
100
AcDbEntity
 67
     1
  8
02___PRT_ALL_AXES
  6
Continuous
 62
     3
100
AcDbLine
 10
712.2226626432
 20
424.626054333
 30
0.0
 11
712.7223580567
 21
424.6086045846
 31
0.0
  0
ARC
  5
3D0
330
1B
100
AcDbEntity
 67
     1
  8
02___PRT_ALL_AXES
  6
Continuous
 62
     3
100
AcDbCircle
 10
702.7284497865
 20
424.9575995517
 30
0.0
 40
9.5
100
AcDbArc
 50
182.0
 51
358.0
  0
LINE
  5
3D1
330
1B
100
AcDbEntity
 67
     1
  8
02___PRT_ALL_AXES
  6
Continuous
 62
     3
100
AcDbLine
 10
692.7345415163
 20
424.6086045846
 30
0.0
 11
693.2342369298
 21
424.626054333
 31
0.0
  0
ARC
  5
3D2
330
1B
100
AcDbEntity
 67
     1
  8
02___PRT_ALL_AXES
  6
Continuous
 62
     3
100
AcDbCircle
 10
702.7284497865
 20
424.9575995517
 30
0.0
 40
10.0
100
AcDbArc
 50
182.0
 51
358.0
  0
LINE
  5
3D3
330
1B
100
AcDbEntity
 67
     1
  8
02___PRT_ALL_AXES
  6
Continuous
 62
     3
100
AcDbLine
 10
398.2342369298
 20
425.2891447703
 30
0.0
 11
397.7345415163
 21
425.3065945187
 31
0.0
  0
ARC
  5
3D4
330
1B
100
AcDbEntity
 67
     1
  8
02___PRT_ALL_AXES
  6
Continuous
 62
     3
100
AcDbCircle
 10
407.7284497865
 20
424.9575995517
 30
0.0
 40
9.5
100
AcDbArc
 50
2.0
 51
178.0
  0
LINE
  5
3D5
330
1B
100
AcDbEntity
 67
     1
  8
02___PRT_ALL_AXES
  6
Continuous
 62
     3
100
AcDbLine
 10
417.7223580567
 20
425.3065945187
 30
0.0
 11
417.2226626432
 21
425.2891447703
 31
0.0
  0
ARC
  5
3D6
330
1B
100
AcDbEntity
 67
     1
  8
02___PRT_ALL_AXES
  6
Continuous
 62
     3
100
AcDbCircle
 10
407.7284497865
 20
424.9575995517
 30
0.0
 40
10.0
100
AcDbArc
 50
2.0
 51
178.0
  0
ARC
  5
3D7
330
1B
100
AcDbEntity
 67
     1
  8
02___PRT_ALL_AXES
  6
Continuous
 62
     3
100
AcDbCircle
 10
407.7284497865
 20
424.9575995517
 30
0.0
 40
9.5
100
AcDbArc
 50
182.0
 51
358.0
  0
LINE
  5
3D8
330
1B
100
AcDbEntity
 67
     1
  8
02___PRT_ALL_AXES
  6
Continuous
 62
     3
100
AcDbLine
 10
397.7345415163
 20
424.6086045846
 30
0.0
 11
398.2342369298
 21
424.626054333
 31
0.0
  0
ARC
  5
3D9
330
1B
100
AcDbEntity
 67
     1
  8
02___PRT_ALL_AXES
  6
Continuous
 62
     3
100
AcDbCircle
 10
407.7284497865
 20
424.9575995517
 30
0.0
 40
10.0
100
AcDbArc
 50
182.0
 51
358.0
  0
LINE
  5
3DA
330
1B
100
AcDbEntity
 67
     1
  8
02___PRT_ALL_AXES
  6
Continuous
 62
     3
100
AcDbLine
 10
417.2226626432
 20
424.626054333
 30
0.0
 11
417.7223580567
 21
424.6086045846
 31
0.0
  0
LINE
  5
3DB
330
1B
100
AcDbEntity
 67
     1
  8
02___PRT_ALL_AXES
  6
Continuous
 62
     3
100
AcDbLine
 10
888.2342369298
 20
425.2891447703
 30
0.0
 11
887.7345415163
 21
425.3065945187
 31
0.0
  0
ARC
  5
3DC
330
1B
100
AcDbEntity
 67
     1
  8
02___PRT_ALL_AXES
  6
Continuous
 62
     3
100
AcDbCircle
 10
897.7284497865
 20
424.9575995517
 30
0.0
 40
9.5
100
AcDbArc
 50
2.0
 51
178.0
  0
LINE
  5
3DD
330
1B
100
AcDbEntity
 67
     1
  8
02___PRT_ALL_AXES
  6
Continuous
 62
     3
100
AcDbLine
 10
907.7223580567
 20
425.3065945187
 30
0.0
 11
907.2226626432
 21
425.2891447703
 31
0.0
  0
ARC
  5
3DE
330
1B
100
AcDbEntity
 67
     1
  8
02___PRT_ALL_AXES
  6
Continuous
 62
     3
100
AcDbCircle
 10
897.7284497865
 20
424.9575995517
 30
0.0
 40
10.0
100
AcDbArc
 50
2.0
 51
178.0
  0
ARC
  5
3DF
330
1B
100
AcDbEntity
 67
     1
  8
02___PRT_ALL_AXES
  6
Continuous
 62
     3
100
AcDbCircle
 10
897.7284497865
 20
424.9575995517
 30
0.0
 40
9.5
100
AcDbArc
 50
182.0
 51
358.0
  0
LINE
  5
3E0
330
1B
100
AcDbEntity
 67
     1
  8
02___PRT_ALL_AXES
  6
Continuous
 62
     3
100
AcDbLine
 10
887.7345415163
 20
424.6086045846
 30
0.0
 11
888.2342369298
 21
424.626054333
 31
0.0
  0
ARC
  5
3E1
330
1B
100
AcDbEntity
 67
     1
  8
02___PRT_ALL_AXES
  6
Continuous
 62
     3
100
AcDbCircle
 10
897.7284497865
 20
424.9575995517
 30
0.0
 40
10.0
100
AcDbArc
 50
182.0
 51
358.0
  0
LINE
  5
3E2
330
1B
100
AcDbEntity
 67
     1
  8
02___PRT_ALL_AXES
  6
Continuous
 62
     3
100
AcDbLine
 10
907.2226626432
 20
424.626054333
 30
0.0
 11
907.7223580567
 21
424.6086045846
 31
0.0
  0
ARC
  5
3E3
330
1B
100
AcDbEntity
 67
     1
  8
02___PRT_ALL_AXES
  6
Continuous
 62
     3
100
AcDbCircle
 10
212.7284497865
 20
424.9575995517
 30
0.0
 40
9.5
100
AcDbArc
 50
2.0
 51
178.0
  0
LINE
  5
3E4
330
1B
100
AcDbEntity
 67
     1
  8
02___PRT_ALL_AXES
  6
Continuous
 62
     3
100
AcDbLine
 10
222.7223580567
 20
425.3065945187
 30
0.0
 11
222.2226626432
 21
425.2891447703
 31
0.0
  0
ARC
  5
3E5
330
1B
100
AcDbEntity
 67
     1
  8
02___PRT_ALL_AXES
  6
Continuous
 62
     3
100
AcDbCircle
 10
212.7284497865
 20
424.9575995517
 30
0.0
 40
10.0
100
AcDbArc
 50
2.0
 51
178.0
  0
LINE
  5
3E6
330
1B
100
AcDbEntity
 67
     1
  8
02___PRT_ALL_AXES
  6
Continuous
 62
     3
100
AcDbLine
 10
203.2342369298
 20
425.2891447703
 30
0.0
 11
202.7345415163
 21
425.3065945187
 31
0.0
  0
LINE
  5
3E7
330
1B
100
AcDbEntity
 67
     1
  8
02___PRT_ALL_AXES
  6
Continuous
 62
     3
100
AcDbLine
 10
222.2226626432
 20
424.626054333
 30
0.0
 11
222.7223580567
 21
424.6086045846
 31
0.0
  0
ARC
  5
3E8
330
1B
100
AcDbEntity
 67
     1
  8
02___PRT_ALL_AXES
  6
Continuous
 62
     3
100
AcDbCircle
 10
212.7284497865
 20
424.9575995517
 30
0.0
 40
9.5
100
AcDbArc
 50
182.0
 51
358.0
  0
LINE
  5
3E9
330
1B
100
AcDbEntity
 67
     1
  8
02___PRT_ALL_AXES
  6
Continuous
 62
     3
100
AcDbLine
 10
202.7345415163
 20
424.6086045846
 30
0.0
 11
203.2342369298
 21
424.626054333
 31
0.0
  0
ARC
  5
3EA
330
1B
100
AcDbEntity
 67
     1
  8
02___PRT_ALL_AXES
  6
Continuous
 62
     3
100
AcDbCircle
 10
212.7284497865
 20
424.9575995517
 30
0.0
 40
10.0
100
AcDbArc
 50
182.0
 51
358.0
  0
LINE
  5
3EB
330
1B
100
AcDbEntity
 67
     1
  8
7_ALL_FEATURES
  6
Continuous
 62
     3
100
AcDbLine
 10
49.7284497865
 20
485.2891447703
 30
0.0
 11
49.7284497865
 21
484.7891447703
 31
0.0
  0
LINE
  5
3EC
330
1B
100
AcDbEntity
 67
     1
  8
7_ALL_FEATURES
  6
Continuous
 62
     3
100
AcDbLine
 10
49.7284497865
 20
484.7891447703
 30
0.0
 11
49.7284497865
 21
445.9891447703
 31
0.0
  0
LINE
  5
3ED
330
1B
100
AcDbEntity
 67
     1
  8
7_ALL_FEATURES
  6
Continuous
 62
     3
100
AcDbLine
 10
49.7284497865
 20
445.9891447703
 30
0.0
 11
49.7284497865
 21
445.2891447703
 31
0.0
  0
LINE
  5
3EE
330
1B
100
AcDbEntity
 67
     1
  8
7_ALL_FEATURES
  6
Continuous
 62
     3
100
AcDbLine
 10
1060.7284497865
 20
485.2891447703
 30
0.0
 11
49.7284497865
 21
485.2891447703
 31
0.0
  0
LINE
  5
3EF
330
1B
100
AcDbEntity
 67
     1
  8
7_ALL_FEATURES
  6
Continuous
 62
     3
100
AcDbLine
 10
1060.7284497865
 20
445.2891447703
 30
0.0
 11
1060.7284497865
 21
445.7891447703
 31
0.0
  0
LINE
  5
3F0
330
1B
100
AcDbEntity
 67
     1
  8
7_ALL_FEATURES
  6
Continuous
 62
     3
100
AcDbLine
 10
1060.7284497865
 20
445.7891447703
 30
0.0
 11
1060.7284497865
 21
484.7891447703
 31
0.0
  0
LINE
  5
3F1
330
1B
100
AcDbEntity
 67
     1
  8
7_ALL_FEATURES
  6
Continuous
 62
     3
100
AcDbLine
 10
1060.7284497865
 20
484.7891447703
 30
0.0
 11
1060.7284497865
 21
485.2891447703
 31
0.0
  0
LINE
  5
3F2
330
1B
100
AcDbEntity
 67
     1
  8
7_ALL_FEATURES
  6
Continuous
 62
     3
100
AcDbLine
 10
1060.7284497865
 20
445.2891447703
 30
0.0
 11
1058.2284497865
 21
445.2891447703
 31
0.0
  0
LINE
  5
3F3
330
1B
100
AcDbEntity
 67
     1
  8
7_ALL_FEATURES
  6
Continuous
 62
     3
100
AcDbLine
 10
1058.2284497865
 20
435.2891447703
 30
0.0
 11
1058.2284497865
 21
435.7891447703
 31
0.0
  0
LINE
  5
3F4
330
1B
100
AcDbEntity
 67
     1
  8
7_ALL_FEATURES
  6
Continuous
 62
     3
100
AcDbLine
 10
1058.2284497865
 20
444.7891447703
 30
0.0
 11
1058.2284497865
 21
445.2891447703
 31
0.0
  0
LINE
  5
3F5
330
1B
100
AcDbEntity
 67
     1
  8
7_ALL_FEATURES
  6
Continuous
 62
     3
100
AcDbLine
 10
1060.7284497865
 20
435.2891447703
 30
0.0
 11
1058.2284497865
 21
435.2891447703
 31
0.0
  0
LINE
  5
3F6
330
1B
100
AcDbEntity
 67
     1
  8
7_ALL_FEATURES
  6
Continuous
 62
     3
100
AcDbLine
 10
1060.7284497865
 20
410.7891447703
 30
0.0
 11
1060.7284497865
 21
410.9891447703
 31
0.0
  0
LINE
  5
3F7
330
1B
100
AcDbEntity
 67
     1
  8
7_ALL_FEATURES
  6
Continuous
 62
     3
100
AcDbLine
 10
1060.7284497865
 20
410.9891447703
 30
0.0
 11
1060.7284497865
 21
434.7891447703
 31
0.0
  0
LINE
  5
3F8
330
1B
100
AcDbEntity
 67
     1
  8
7_ALL_FEATURES
  6
Continuous
 62
     3
100
AcDbLine
 10
1060.7284497865
 20
434.7891447703
 30
0.0
 11
1060.7284497865
 21
435.2891447703
 31
0.0
  0
LINE
  5
3F9
330
1B
100
AcDbEntity
 67
     1
  8
7_ALL_FEATURES
  6
Continuous
 62
     3
100
AcDbLine
 10
1060.7284497865
 20
410.7891447703
 30
0.0
 11
1058.2284497865
 21
410.7891447703
 31
0.0
  0
LINE
  5
3FA
330
1B
100
AcDbEntity
 67
     1
  8
7_ALL_FEATURES
  6
Continuous
 62
     3
100
AcDbLine
 10
1058.2284497865
 20
399.7891447703
 30
0.0
 11
1058.2284497865
 21
400.7891447703
 31
0.0
  0
LINE
  5
3FB
330
1B
100
AcDbEntity
 67
     1
  8
7_ALL_FEATURES
  6
Continuous
 62
     3
100
AcDbLine
 10
1058.2284497865
 20
409.7891447703
 30
0.0
 11
1058.2284497865
 21
410.7891447703
 31
0.0
  0
LINE
  5
3FC
330
1B
100
AcDbEntity
 67
     1
  8
7_ALL_FEATURES
  6
Continuous
 62
     3
100
AcDbLine
 10
1060.7284497865
 20
399.7891447703
 30
0.0
 11
1058.2284497865
 21
399.7891447703
 31
0.0
  0
LINE
  5
3FD
330
1B
100
AcDbEntity
 67
     1
  8
7_ALL_FEATURES
  6
Continuous
 62
     3
100
AcDbLine
 10
1060.7284497865
 20
398.6891447703
 30
0.0
 11
1060.7284497865
 21
399.5891447703
 31
0.0
  0
LINE
  5
3FE
330
1B
100
AcDbEntity
 67
     1
  8
7_ALL_FEATURES
  6
Continuous
 62
     3
100
AcDbLine
 10
1060.7284497865
 20
399.5891447703
 30
0.0
 11
1060.7284497865
 21
399.7891447703
 31
0.0
  0
LINE
  5
3FF
330
1B
100
AcDbEntity
 67
     1
  8
7_ALL_FEATURES
  6
Continuous
 62
     3
100
AcDbLine
 10
49.7284497865
 20
399.7891447703
 30
0.0
 11
49.7284497865
 21
399.5891447703
 31
0.0
  0
LINE
  5
400
330
1B
100
AcDbEntity
 67
     1
  8
7_ALL_FEATURES
  6
Continuous
 62
     3
100
AcDbLine
 10
49.7284497865
 20
399.5891447703
 30
0.0
 11
49.7284497865
 21
398.6891447703
 31
0.0
  0
LINE
  5
401
330
1B
100
AcDbEntity
 67
     1
  8
7_ALL_FEATURES
  6
Continuous
 62
     3
100
AcDbLine
 10
49.7284497865
 20
399.7891447703
 30
0.0
 11
52.2284497865
 21
399.7891447703
 31
0.0
  0
LINE
  5
402
330
1B
100
AcDbEntity
 67
     1
  8
7_ALL_FEATURES
  6
Continuous
 62
     3
100
AcDbLine
 10
52.2284497865
 20
399.7891447703
 30
0.0
 11
52.2284497865
 21
400.7891447703
 31
0.0
  0
LINE
  5
403
330
1B
100
AcDbEntity
 67
     1
  8
7_ALL_FEATURES
  6
Continuous
 62
     3
100
AcDbLine
 10
52.2284497865
 20
409.7891447703
 30
0.0
 11
52.2284497865
 21
410.7891447703
 31
0.0
  0
LINE
  5
404
330
1B
100
AcDbEntity
 67
     1
  8
7_ALL_FEATURES
  6
Continuous
 62
     3
100
AcDbLine
 10
49.7284497865
 20
410.7891447703
 30
0.0
 11
52.2284497865
 21
410.7891447703
 31
0.0
  0
LINE
  5
405
330
1B
100
AcDbEntity
 67
     1
  8
7_ALL_FEATURES
  6
Continuous
 62
     3
100
AcDbLine
 10
49.7284497865
 20
435.2891447703
 30
0.0
 11
49.7284497865
 21
434.5891447703
 31
0.0
  0
LINE
  5
406
330
1B
100
AcDbEntity
 67
     1
  8
7_ALL_FEATURES
  6
Continuous
 62
     3
100
AcDbLine
 10
49.7284497865
 20
434.5891447703
 30
0.0
 11
49.7284497865
 21
410.9891447703
 31
0.0
  0
LINE
  5
407
330
1B
100
AcDbEntity
 67
     1
  8
7_ALL_FEATURES
  6
Continuous
 62
     3
100
AcDbLine
 10
49.7284497865
 20
410.9891447703
 30
0.0
 11
49.7284497865
 21
410.7891447703
 31
0.0
  0
LINE
  5
408
330
1B
100
AcDbEntity
 67
     1
  8
7_ALL_FEATURES
  6
Continuous
 62
     3
100
AcDbLine
 10
49.7284497865
 20
435.2891447703
 30
0.0
 11
52.2284497865
 21
435.2891447703
 31
0.0
  0
LINE
  5
409
330
1B
100
AcDbEntity
 67
     1
  8
7_ALL_FEATURES
  6
Continuous
 62
     3
100
AcDbLine
 10
52.2284497865
 20
435.2891447703
 30
0.0
 11
52.2284497865
 21
435.7891447703
 31
0.0
  0
LINE
  5
40A
330
1B
100
AcDbEntity
 67
     1
  8
7_ALL_FEATURES
  6
Continuous
 62
     3
100
AcDbLine
 10
52.2284497865
 20
444.7891447703
 30
0.0
 11
52.2284497865
 21
445.2891447703
 31
0.0
  0
LINE
  5
40B
330
1B
100
AcDbEntity
 67
     1
  8
7_ALL_FEATURES
  6
Continuous
 62
     3
100
AcDbLine
 10
49.7284497865
 20
445.2891447703
 30
0.0
 11
52.2284497865
 21
445.2891447703
 31
0.0
  0
LINE
  5
40C
330
1B
100
AcDbEntity
 67
     1
  8
7_ALL_FEATURES
  6
Continuous
 62
     3
100
AcDbLine
 10
1060.7284497865
 20
396.2891447703
 30
0.0
 11
1026.4784497865
 21
396.2891447703
 31
0.0
  0
LINE
  5
40D
330
1B
100
AcDbEntity
 67
     1
  8
7_ALL_FEATURES
  6
Continuous
 62
     3
100
AcDbLine
 10
983.9784497865
 20
396.2891447703
 30
0.0
 11
576.4784497865
 21
396.2891447703
 31
0.0
  0
LINE
  5
40E
330
1B
100
AcDbEntity
 67
     1
  8
7_ALL_FEATURES
  6
Continuous
 62
     3
100
AcDbLine
 10
533.9784497865
 20
396.2891447703
 30
0.0
 11
126.4784497865
 21
396.2891447703
 31
0.0
  0
LINE
  5
40F
330
1B
100
AcDbEntity
 67
     1
  8
7_ALL_FEATURES
  6
Continuous
 62
     3
100
AcDbLine
 10
83.9784497865
 20
396.2891447703
 30
0.0
 11
49.7284497865
 21
396.2891447703
 31
0.0
  0
LINE
  5
410
330
1B
100
AcDbEntity
 67
     1
  8
7_ALL_FEATURES
  6
Continuous
 62
     9
100
AcDbLine
 10
1060.7284497865
 20
398.6891447703
 30
0.0
 11
49.7284497865
 21
398.6891447703
 31
0.0
  0
LINE
  5
411
330
1B
100
AcDbEntity
 67
     1
  8
3_ALL_AXES
  6
Continuous
 62
     7
100
AcDbLine
 10
396.4617831198
 20
274.5001954996
 30
0.0
 11
396.4617831198
 21
275.2060656702
 31
0.0
  0
LINE
  5
412
330
1B
100
AcDbEntity
 67
     1
  8
3_ALL_AXES
  6
Continuous
 62
     7
100
AcDbLine
 10
390.6617831198
 20
274.5001954996
 30
0.0
 11
390.6617831198
 21
275.2060656702
 31
0.0
  0
ARC
  5
413
330
1B
100
AcDbEntity
 67
     1
  8
3_ALL_AXES
  6
Continuous
 62
     7
100
AcDbCircle
 10
393.5617831198
 20
267.7501954996
 30
0.0
 40
8.0
100
AcDbArc
 50
68.7461908146
 51
90.0
  0
ARC
  5
414
330
1B
100
AcDbEntity
 67
     1
  8
3_ALL_AXES
  6
Continuous
 62
     7
100
AcDbCircle
 10
393.5617831198
 20
267.7501954996
 30
0.0
 40
8.0
100
AcDbArc
 50
90.0
 51
111.2538091854
  0
LINE
  5
415
330
1B
100
AcDbEntity
 67
     1
  8
3_ALL_AXES
  6
Continuous
 62
     7
100
AcDbLine
 10
396.4617831198
 20
275.2060656702
 30
0.0
 11
396.4617831198
 21
274.5001954996
 31
0.0
  0
LINE
  5
416
330
1B
100
AcDbEntity
 67
     1
  8
3_ALL_AXES
  6
Continuous
 62
     7
100
AcDbLine
 10
390.6617831198
 20
275.2060656702
 30
0.0
 11
390.6617831198
 21
274.5001954996
 31
0.0
  0
LINE
  5
417
330
1B
100
AcDbEntity
 67
     1
  8
3_ALL_AXES
  6
Continuous
 62
     7
100
AcDbLine
 10
396.4617831198
 20
275.2060656702
 30
0.0
 11
390.6617831198
 21
275.2060656702
 31
0.0
  0
LINE
  5
418
330
1B
100
AcDbEntity
 67
     1
  8
3_ALL_AXES
  6
Continuous
 62
     7
100
AcDbLine
 10
515.6284497865
 20
274.5001954996
 30
0.0
 11
515.6284497865
 21
275.2060656702
 31
0.0
  0
LINE
  5
419
330
1B
100
AcDbEntity
 67
     1
  8
3_ALL_AXES
  6
Continuous
 62
     7
100
AcDbLine
 10
509.8284497865
 20
274.5001954996
 30
0.0
 11
509.8284497865
 21
275.2060656702
 31
0.0
  0
ARC
  5
41A
330
1B
100
AcDbEntity
 67
     1
  8
3_ALL_AXES
  6
Continuous
 62
     7
100
AcDbCircle
 10
512.7284497865
 20
267.7501954996
 30
0.0
 40
8.0
100
AcDbArc
 50
68.7461908146
 51
90.0
  0
ARC
  5
41B
330
1B
100
AcDbEntity
 67
     1
  8
3_ALL_AXES
  6
Continuous
 62
     7
100
AcDbCircle
 10
512.7284497865
 20
267.7501954996
 30
0.0
 40
8.0
100
AcDbArc
 50
90.0
 51
111.2538091854
  0
LINE
  5
41C
330
1B
100
AcDbEntity
 67
     1
  8
3_ALL_AXES
  6
Continuous
 62
     7
100
AcDbLine
 10
515.6284497865
 20
275.2060656702
 30
0.0
 11
515.6284497865
 21
274.5001954996
 31
0.0
  0
LINE
  5
41D
330
1B
100
AcDbEntity
 67
     1
  8
3_ALL_AXES
  6
Continuous
 62
     7
100
AcDbLine
 10
509.8284497865
 20
275.2060656702
 30
0.0
 11
509.8284497865
 21
274.5001954996
 31
0.0
  0
LINE
  5
41E
330
1B
100
AcDbEntity
 67
     1
  8
3_ALL_AXES
  6
Continuous
 62
     7
100
AcDbLine
 10
515.6284497865
 20
275.2060656702
 30
0.0
 11
509.8284497865
 21
275.2060656702
 31
0.0
  0
LINE
  5
41F
330
1B
100
AcDbEntity
 67
     1
  8
3_ALL_AXES
  6
Continuous
 62
     7
100
AcDbLine
 10
600.6284497865
 20
274.5001954996
 30
0.0
 11
600.6284497865
 21
275.2060656702
 31
0.0
  0
LINE
  5
420
330
1B
100
AcDbEntity
 67
     1
  8
3_ALL_AXES
  6
Continuous
 62
     7
100
AcDbLine
 10
594.8284497865
 20
274.5001954996
 30
0.0
 11
594.8284497865
 21
275.2060656702
 31
0.0
  0
ARC
  5
421
330
1B
100
AcDbEntity
 67
     1
  8
3_ALL_AXES
  6
Continuous
 62
     7
100
AcDbCircle
 10
597.7284497865
 20
267.7501954996
 30
0.0
 40
8.0
100
AcDbArc
 50
68.7461908146
 51
90.0
  0
ARC
  5
422
330
1B
100
AcDbEntity
 67
     1
  8
3_ALL_AXES
  6
Continuous
 62
     7
100
AcDbCircle
 10
597.7284497865
 20
267.7501954996
 30
0.0
 40
8.0
100
AcDbArc
 50
90.0
 51
111.2538091854
  0
LINE
  5
423
330
1B
100
AcDbEntity
 67
     1
  8
3_ALL_AXES
  6
Continuous
 62
     7
100
AcDbLine
 10
600.6284497865
 20
275.2060656702
 30
0.0
 11
600.6284497865
 21
274.5001954996
 31
0.0
  0
LINE
  5
424
330
1B
100
AcDbEntity
 67
     1
  8
3_ALL_AXES
  6
Continuous
 62
     7
100
AcDbLine
 10
594.8284497865
 20
275.2060656702
 30
0.0
 11
594.8284497865
 21
274.5001954996
 31
0.0
  0
LINE
  5
425
330
1B
100
AcDbEntity
 67
     1
  8
3_ALL_AXES
  6
Continuous
 62
     7
100
AcDbLine
 10
600.6284497865
 20
275.2060656702
 30
0.0
 11
594.8284497865
 21
275.2060656702
 31
0.0
  0
LINE
  5
426
330
1B
100
AcDbEntity
 67
     1
  8
3_ALL_AXES
  6
Continuous
 62
     7
100
AcDbLine
 10
719.7951164532
 20
274.5001954996
 30
0.0
 11
719.7951164532
 21
275.2060656702
 31
0.0
  0
LINE
  5
427
330
1B
100
AcDbEntity
 67
     1
  8
3_ALL_AXES
  6
Continuous
 62
     7
100
AcDbLine
 10
713.9951164532
 20
274.5001954996
 30
0.0
 11
713.9951164532
 21
275.2060656702
 31
0.0
  0
ARC
  5
428
330
1B
100
AcDbEntity
 67
     1
  8
3_ALL_AXES
  6
Continuous
 62
     7
100
AcDbCircle
 10
716.8951164532
 20
267.7501954996
 30
0.0
 40
8.0
100
AcDbArc
 50
68.7461908146
 51
90.0
  0
ARC
  5
429
330
1B
100
AcDbEntity
 67
     1
  8
3_ALL_AXES
  6
Continuous
 62
     7
100
AcDbCircle
 10
716.8951164532
 20
267.7501954996
 30
0.0
 40
8.0
100
AcDbArc
 50
90.0
 51
111.2538091854
  0
LINE
  5
42A
330
1B
100
AcDbEntity
 67
     1
  8
3_ALL_AXES
  6
Continuous
 62
     7
100
AcDbLine
 10
719.7951164532
 20
275.2060656702
 30
0.0
 11
719.7951164532
 21
274.5001954996
 31
0.0
  0
LINE
  5
42B
330
1B
100
AcDbEntity
 67
     1
  8
3_ALL_AXES
  6
Continuous
 62
     7
100
AcDbLine
 10
713.9951164532
 20
275.2060656702
 30
0.0
 11
713.9951164532
 21
274.5001954996
 31
0.0
  0
LINE
  5
42C
330
1B
100
AcDbEntity
 67
     1
  8
3_ALL_AXES
  6
Continuous
 62
     7
100
AcDbLine
 10
719.7951164532
 20
275.2060656702
 30
0.0
 11
713.9951164532
 21
275.2060656702
 31
0.0
  0
LINE
  5
42D
330
1B
100
AcDbEntity
 67
     1
  8
3_ALL_AXES
  6
Continuous
 62
     7
100
AcDbLine
 10
838.9617831198
 20
274.5001954996
 30
0.0
 11
838.9617831198
 21
275.2060656702
 31
0.0
  0
LINE
  5
42E
330
1B
100
AcDbEntity
 67
     1
  8
3_ALL_AXES
  6
Continuous
 62
     7
100
AcDbLine
 10
833.1617831198
 20
274.5001954996
 30
0.0
 11
833.1617831198
 21
275.2060656702
 31
0.0
  0
ARC
  5
42F
330
1B
100
AcDbEntity
 67
     1
  8
3_ALL_AXES
  6
Continuous
 62
     7
100
AcDbCircle
 10
836.0617831198
 20
267.7501954996
 30
0.0
 40
8.0
100
AcDbArc
 50
68.7461908146
 51
90.0
  0
ARC
  5
430
330
1B
100
AcDbEntity
 67
     1
  8
3_ALL_AXES
  6
Continuous
 62
     7
100
AcDbCircle
 10
836.0617831198
 20
267.7501954996
 30
0.0
 40
8.0
100
AcDbArc
 50
90.0
 51
111.2538091854
  0
LINE
  5
431
330
1B
100
AcDbEntity
 67
     1
  8
3_ALL_AXES
  6
Continuous
 62
     7
100
AcDbLine
 10
838.9617831198
 20
275.2060656702
 30
0.0
 11
838.9617831198
 21
274.5001954996
 31
0.0
  0
LINE
  5
432
330
1B
100
AcDbEntity
 67
     1
  8
3_ALL_AXES
  6
Continuous
 62
     7
100
AcDbLine
 10
833.1617831198
 20
275.2060656702
 30
0.0
 11
833.1617831198
 21
274.5001954996
 31
0.0
  0
LINE
  5
433
330
1B
100
AcDbEntity
 67
     1
  8
3_ALL_AXES
  6
Continuous
 62
     7
100
AcDbLine
 10
838.9617831198
 20
275.2060656702
 30
0.0
 11
833.1617831198
 21
275.2060656702
 31
0.0
  0
LINE
  5
434
330
1B
100
AcDbEntity
 67
     1
  8
3_ALL_AXES
  6
Continuous
 62
     7
100
AcDbLine
 10
958.1284497865
 20
274.5001954996
 30
0.0
 11
958.1284497865
 21
275.2060656702
 31
0.0
  0
LINE
  5
435
330
1B
100
AcDbEntity
 67
     1
  8
3_ALL_AXES
  6
Continuous
 62
     7
100
AcDbLine
 10
952.3284497865
 20
274.5001954996
 30
0.0
 11
952.3284497865
 21
275.2060656702
 31
0.0
  0
ARC
  5
436
330
1B
100
AcDbEntity
 67
     1
  8
3_ALL_AXES
  6
Continuous
 62
     7
100
AcDbCircle
 10
955.2284497865
 20
267.7501954996
 30
0.0
 40
8.0
100
AcDbArc
 50
68.7461908146
 51
90.0
  0
ARC
  5
437
330
1B
100
AcDbEntity
 67
     1
  8
3_ALL_AXES
  6
Continuous
 62
     7
100
AcDbCircle
 10
955.2284497865
 20
267.7501954996
 30
0.0
 40
8.0
100
AcDbArc
 50
90.0
 51
111.2538091854
  0
LINE
  5
438
330
1B
100
AcDbEntity
 67
     1
  8
3_ALL_AXES
  6
Continuous
 62
     7
100
AcDbLine
 10
958.1284497865
 20
275.2060656702
 30
0.0
 11
958.1284497865
 21
274.5001954996
 31
0.0
  0
LINE
  5
439
330
1B
100
AcDbEntity
 67
     1
  8
3_ALL_AXES
  6
Continuous
 62
     7
100
AcDbLine
 10
952.3284497865
 20
275.2060656702
 30
0.0
 11
952.3284497865
 21
274.5001954996
 31
0.0
  0
LINE
  5
43A
330
1B
100
AcDbEntity
 67
     1
  8
3_ALL_AXES
  6
Continuous
 62
     7
100
AcDbLine
 10
958.1284497865
 20
275.2060656702
 30
0.0
 11
952.3284497865
 21
275.2060656702
 31
0.0
  0
LINE
  5
43B
330
1B
100
AcDbEntity
 67
     1
  8
3_ALL_AXES
  6
Continuous
 62
     7
100
AcDbLine
 10
271.4951164532
 20
251.4001954996
 30
0.0
 11
271.4951164532
 21
250.6943253291
 31
0.0
  0
LINE
  5
43C
330
1B
100
AcDbEntity
 67
     1
  8
3_ALL_AXES
  6
Continuous
 62
     7
100
AcDbLine
 10
277.2951164532
 20
251.4001954996
 30
0.0
 11
277.2951164532
 21
250.6943253291
 31
0.0
  0
ARC
  5
43D
330
1B
100
AcDbEntity
 67
     1
  8
3_ALL_AXES
  6
Continuous
 62
     7
100
AcDbCircle
 10
274.3951164532
 20
258.1501954996
 30
0.0
 40
8.0
100
AcDbArc
 50
248.7461908146
 51
270.0
  0
ARC
  5
43E
330
1B
100
AcDbEntity
 67
     1
  8
3_ALL_AXES
  6
Continuous
 62
     7
100
AcDbCircle
 10
274.3951164532
 20
258.1501954996
 30
0.0
 40
8.0
100
AcDbArc
 50
270.0
 51
291.2538091854
  0
LINE
  5
43F
330
1B
100
AcDbEntity
 67
     1
  8
3_ALL_AXES
  6
Continuous
 62
     7
100
AcDbLine
 10
271.4951164532
 20
250.6943253291
 30
0.0
 11
271.4951164532
 21
251.4001954996
 31
0.0
  0
LINE
  5
440
330
1B
100
AcDbEntity
 67
     1
  8
3_ALL_AXES
  6
Continuous
 62
     7
100
AcDbLine
 10
277.2951164532
 20
250.6943253291
 30
0.0
 11
277.2951164532
 21
251.4001954996
 31
0.0
  0
LINE
  5
441
330
1B
100
AcDbEntity
 67
     1
  8
3_ALL_AXES
  6
Continuous
 62
     7
100
AcDbLine
 10
271.4951164532
 20
250.6943253291
 30
0.0
 11
277.2951164532
 21
250.6943253291
 31
0.0
  0
LINE
  5
442
330
1B
100
AcDbEntity
 67
     1
  8
3_ALL_AXES
  6
Continuous
 62
     7
100
AcDbLine
 10
952.3284497865
 20
251.4001954996
 30
0.0
 11
952.3284497865
 21
250.6943253291
 31
0.0
  0
LINE
  5
443
330
1B
100
AcDbEntity
 67
     1
  8
3_ALL_AXES
  6
Continuous
 62
     7
100
AcDbLine
 10
958.1284497865
 20
251.4001954996
 30
0.0
 11
958.1284497865
 21
250.6943253291
 31
0.0
  0
ARC
  5
444
330
1B
100
AcDbEntity
 67
     1
  8
3_ALL_AXES
  6
Continuous
 62
     7
100
AcDbCircle
 10
955.2284497865
 20
258.1501954996
 30
0.0
 40
8.0
100
AcDbArc
 50
248.7461908146
 51
270.0
  0
ARC
  5
445
330
1B
100
AcDbEntity
 67
     1
  8
3_ALL_AXES
  6
Continuous
 62
     7
100
AcDbCircle
 10
955.2284497865
 20
258.1501954996
 30
0.0
 40
8.0
100
AcDbArc
 50
270.0
 51
291.2538091854
  0
LINE
  5
446
330
1B
100
AcDbEntity
 67
     1
  8
3_ALL_AXES
  6
Continuous
 62
     7
100
AcDbLine
 10
952.3284497865
 20
250.6943253291
 30
0.0
 11
952.3284497865
 21
251.4001954996
 31
0.0
  0
LINE
  5
447
330
1B
100
AcDbEntity
 67
     1
  8
3_ALL_AXES
  6
Continuous
 62
     7
100
AcDbLine
 10
958.1284497865
 20
250.6943253291
 30
0.0
 11
958.1284497865
 21
251.4001954996
 31
0.0
  0
LINE
  5
448
330
1B
100
AcDbEntity
 67
     1
  8
3_ALL_AXES
  6
Continuous
 62
     7
100
AcDbLine
 10
952.3284497865
 20
250.6943253291
 30
0.0
 11
958.1284497865
 21
250.6943253291
 31
0.0
  0
LINE
  5
449
330
1B
100
AcDbEntity
 67
     1
  8
3_ALL_AXES
  6
Continuous
 62
     7
100
AcDbLine
 10
833.1617831198
 20
251.4001954996
 30
0.0
 11
833.1617831198
 21
250.6943253291
 31
0.0
  0
LINE
  5
44A
330
1B
100
AcDbEntity
 67
     1
  8
3_ALL_AXES
  6
Continuous
 62
     7
100
AcDbLine
 10
838.9617831198
 20
251.4001954996
 30
0.0
 11
838.9617831198
 21
250.6943253291
 31
0.0
  0
ARC
  5
44B
330
1B
100
AcDbEntity
 67
     1
  8
3_ALL_AXES
  6
Continuous
 62
     7
100
AcDbCircle
 10
836.0617831198
 20
258.1501954996
 30
0.0
 40
8.0
100
AcDbArc
 50
248.7461908146
 51
270.0
  0
ARC
  5
44C
330
1B
100
AcDbEntity
 67
     1
  8
3_ALL_AXES
  6
Continuous
 62
     7
100
AcDbCircle
 10
836.0617831198
 20
258.1501954996
 30
0.0
 40
8.0
100
AcDbArc
 50
270.0
 51
291.2538091854
  0
LINE
  5
44D
330
1B
100
AcDbEntity
 67
     1
  8
3_ALL_AXES
  6
Continuous
 62
     7
100
AcDbLine
 10
833.1617831198
 20
250.6943253291
 30
0.0
 11
833.1617831198
 21
251.4001954996
 31
0.0
  0
LINE
  5
44E
330
1B
100
AcDbEntity
 67
     1
  8
3_ALL_AXES
  6
Continuous
 62
     7
100
AcDbLine
 10
838.9617831198
 20
250.6943253291
 30
0.0
 11
838.9617831198
 21
251.4001954996
 31
0.0
  0
LINE
  5
44F
330
1B
100
AcDbEntity
 67
     1
  8
3_ALL_AXES
  6
Continuous
 62
     7
100
AcDbLine
 10
833.1617831198
 20
250.6943253291
 30
0.0
 11
838.9617831198
 21
250.6943253291
 31
0.0
  0
LINE
  5
450
330
1B
100
AcDbEntity
 67
     1
  8
3_ALL_AXES
  6
Continuous
 62
     7
100
AcDbLine
 10
713.9951164532
 20
251.4001954996
 30
0.0
 11
713.9951164532
 21
250.6943253291
 31
0.0
  0
LINE
  5
451
330
1B
100
AcDbEntity
 67
     1
  8
3_ALL_AXES
  6
Continuous
 62
     7
100
AcDbLine
 10
719.7951164532
 20
251.4001954996
 30
0.0
 11
719.7951164532
 21
250.6943253291
 31
0.0
  0
ARC
  5
452
330
1B
100
AcDbEntity
 67
     1
  8
3_ALL_AXES
  6
Continuous
 62
     7
100
AcDbCircle
 10
716.8951164532
 20
258.1501954996
 30
0.0
 40
8.0
100
AcDbArc
 50
248.7461908146
 51
270.0
  0
ARC
  5
453
330
1B
100
AcDbEntity
 67
     1
  8
3_ALL_AXES
  6
Continuous
 62
     7
100
AcDbCircle
 10
716.8951164532
 20
258.1501954996
 30
0.0
 40
8.0
100
AcDbArc
 50
270.0
 51
291.2538091854
  0
LINE
  5
454
330
1B
100
AcDbEntity
 67
     1
  8
3_ALL_AXES
  6
Continuous
 62
     7
100
AcDbLine
 10
713.9951164532
 20
250.6943253291
 30
0.0
 11
713.9951164532
 21
251.4001954996
 31
0.0
  0
LINE
  5
455
330
1B
100
AcDbEntity
 67
     1
  8
3_ALL_AXES
  6
Continuous
 62
     7
100
AcDbLine
 10
719.7951164532
 20
250.6943253291
 30
0.0
 11
719.7951164532
 21
251.4001954996
 31
0.0
  0
LINE
  5
456
330
1B
100
AcDbEntity
 67
     1
  8
3_ALL_AXES
  6
Continuous
 62
     7
100
AcDbLine
 10
713.9951164532
 20
250.6943253291
 30
0.0
 11
719.7951164532
 21
250.6943253291
 31
0.0
  0
LINE
  5
457
330
1B
100
AcDbEntity
 67
     1
  8
3_ALL_AXES
  6
Continuous
 62
     7
100
AcDbLine
 10
594.8284497865
 20
251.4001954996
 30
0.0
 11
594.8284497865
 21
250.6943253291
 31
0.0
  0
LINE
  5
458
330
1B
100
AcDbEntity
 67
     1
  8
3_ALL_AXES
  6
Continuous
 62
     7
100
AcDbLine
 10
600.6284497865
 20
251.4001954996
 30
0.0
 11
600.6284497865
 21
250.6943253291
 31
0.0
  0
ARC
  5
459
330
1B
100
AcDbEntity
 67
     1
  8
3_ALL_AXES
  6
Continuous
 62
     7
100
AcDbCircle
 10
597.7284497865
 20
258.1501954996
 30
0.0
 40
8.0
100
AcDbArc
 50
248.7461908146
 51
270.0
  0
ARC
  5
45A
330
1B
100
AcDbEntity
 67
     1
  8
3_ALL_AXES
  6
Continuous
 62
     7
100
AcDbCircle
 10
597.7284497865
 20
258.1501954996
 30
0.0
 40
8.0
100
AcDbArc
 50
270.0
 51
291.2538091854
  0
LINE
  5
45B
330
1B
100
AcDbEntity
 67
     1
  8
3_ALL_AXES
  6
Continuous
 62
     7
100
AcDbLine
 10
594.8284497865
 20
250.6943253291
 30
0.0
 11
594.8284497865
 21
251.4001954996
 31
0.0
  0
LINE
  5
45C
330
1B
100
AcDbEntity
 67
     1
  8
3_ALL_AXES
  6
Continuous
 62
     7
100
AcDbLine
 10
600.6284497865
 20
250.6943253291
 30
0.0
 11
600.6284497865
 21
251.4001954996
 31
0.0
  0
LINE
  5
45D
330
1B
100
AcDbEntity
 67
     1
  8
3_ALL_AXES
  6
Continuous
 62
     7
100
AcDbLine
 10
594.8284497865
 20
250.6943253291
 30
0.0
 11
600.6284497865
 21
250.6943253291
 31
0.0
  0
LINE
  5
45E
330
1B
100
AcDbEntity
 67
     1
  8
3_ALL_AXES
  6
Continuous
 62
     7
100
AcDbLine
 10
509.8284497865
 20
251.4001954996
 30
0.0
 11
509.8284497865
 21
250.6943253291
 31
0.0
  0
LINE
  5
45F
330
1B
100
AcDbEntity
 67
     1
  8
3_ALL_AXES
  6
Continuous
 62
     7
100
AcDbLine
 10
515.6284497865
 20
251.4001954996
 30
0.0
 11
515.6284497865
 21
250.6943253291
 31
0.0
  0
ARC
  5
460
330
1B
100
AcDbEntity
 67
     1
  8
3_ALL_AXES
  6
Continuous
 62
     7
100
AcDbCircle
 10
512.7284497865
 20
258.1501954996
 30
0.0
 40
8.0
100
AcDbArc
 50
248.7461908146
 51
270.0
  0
ARC
  5
461
330
1B
100
AcDbEntity
 67
     1
  8
3_ALL_AXES
  6
Continuous
 62
     7
100
AcDbCircle
 10
512.7284497865
 20
258.1501954996
 30
0.0
 40
8.0
100
AcDbArc
 50
270.0
 51
291.2538091854
  0
LINE
  5
462
330
1B
100
AcDbEntity
 67
     1
  8
3_ALL_AXES
  6
Continuous
 62
     7
100
AcDbLine
 10
509.8284497865
 20
250.6943253291
 30
0.0
 11
509.8284497865
 21
251.4001954996
 31
0.0
  0
LINE
  5
463
330
1B
100
AcDbEntity
 67
     1
  8
3_ALL_AXES
  6
Continuous
 62
     7
100
AcDbLine
 10
515.6284497865
 20
250.6943253291
 30
0.0
 11
515.6284497865
 21
251.4001954996
 31
0.0
  0
LINE
  5
464
330
1B
100
AcDbEntity
 67
     1
  8
3_ALL_AXES
  6
Continuous
 62
     7
100
AcDbLine
 10
509.8284497865
 20
250.6943253291
 30
0.0
 11
515.6284497865
 21
250.6943253291
 31
0.0
  0
LINE
  5
465
330
1B
100
AcDbEntity
 67
     1
  8
3_ALL_AXES
  6
Continuous
 62
     7
100
AcDbLine
 10
390.6617831198
 20
251.4001954996
 30
0.0
 11
390.6617831198
 21
250.6943253291
 31
0.0
  0
LINE
  5
466
330
1B
100
AcDbEntity
 67
     1
  8
3_ALL_AXES
  6
Continuous
 62
     7
100
AcDbLine
 10
396.4617831198
 20
251.4001954996
 30
0.0
 11
396.4617831198
 21
250.6943253291
 31
0.0
  0
ARC
  5
467
330
1B
100
AcDbEntity
 67
     1
  8
3_ALL_AXES
  6
Continuous
 62
     7
100
AcDbCircle
 10
393.5617831198
 20
258.1501954996
 30
0.0
 40
8.0
100
AcDbArc
 50
248.7461908146
 51
270.0
  0
ARC
  5
468
330
1B
100
AcDbEntity
 67
     1
  8
3_ALL_AXES
  6
Continuous
 62
     7
100
AcDbCircle
 10
393.5617831198
 20
258.1501954996
 30
0.0
 40
8.0
100
AcDbArc
 50
270.0
 51
291.2538091854
  0
LINE
  5
469
330
1B
100
AcDbEntity
 67
     1
  8
3_ALL_AXES
  6
Continuous
 62
     7
100
AcDbLine
 10
390.6617831198
 20
250.6943253291
 30
0.0
 11
390.6617831198
 21
251.4001954996
 31
0.0
  0
LINE
  5
46A
330
1B
100
AcDbEntity
 67
     1
  8
3_ALL_AXES
  6
Continuous
 62
     7
100
AcDbLine
 10
396.4617831198
 20
250.6943253291
 30
0.0
 11
396.4617831198
 21
251.4001954996
 31
0.0
  0
LINE
  5
46B
330
1B
100
AcDbEntity
 67
     1
  8
3_ALL_AXES
  6
Continuous
 62
     7
100
AcDbLine
 10
390.6617831198
 20
250.6943253291
 30
0.0
 11
396.4617831198
 21
250.6943253291
 31
0.0
  0
LINE
  5
46C
330
1B
100
AcDbEntity
 67
     1
  8
3_ALL_AXES
  6
Continuous
 62
     7
100
AcDbLine
 10
158.1284497865
 20
274.5001954996
 30
0.0
 11
158.1284497865
 21
275.2060656702
 31
0.0
  0
LINE
  5
46D
330
1B
100
AcDbEntity
 67
     1
  8
3_ALL_AXES
  6
Continuous
 62
     7
100
AcDbLine
 10
152.3284497865
 20
274.5001954996
 30
0.0
 11
152.3284497865
 21
275.2060656702
 31
0.0
  0
ARC
  5
46E
330
1B
100
AcDbEntity
 67
     1
  8
3_ALL_AXES
  6
Continuous
 62
     7
100
AcDbCircle
 10
155.2284497865
 20
267.7501954996
 30
0.0
 40
8.0
100
AcDbArc
 50
68.7461908146
 51
90.0
  0
ARC
  5
46F
330
1B
100
AcDbEntity
 67
     1
  8
3_ALL_AXES
  6
Continuous
 62
     7
100
AcDbCircle
 10
155.2284497865
 20
267.7501954996
 30
0.0
 40
8.0
100
AcDbArc
 50
90.0
 51
111.2538091854
  0
LINE
  5
470
330
1B
100
AcDbEntity
 67
     1
  8
3_ALL_AXES
  6
Continuous
 62
     7
100
AcDbLine
 10
158.1284497865
 20
275.2060656702
 30
0.0
 11
158.1284497865
 21
274.5001954996
 31
0.0
  0
LINE
  5
471
330
1B
100
AcDbEntity
 67
     1
  8
3_ALL_AXES
  6
Continuous
 62
     7
100
AcDbLine
 10
152.3284497865
 20
275.2060656702
 30
0.0
 11
152.3284497865
 21
274.5001954996
 31
0.0
  0
LINE
  5
472
330
1B
100
AcDbEntity
 67
     1
  8
3_ALL_AXES
  6
Continuous
 62
     7
100
AcDbLine
 10
158.1284497865
 20
275.2060656702
 30
0.0
 11
152.3284497865
 21
275.2060656702
 31
0.0
  0
LINE
  5
473
330
1B
100
AcDbEntity
 67
     1
  8
3_ALL_AXES
  6
Continuous
 62
     7
100
AcDbLine
 10
152.3284497865
 20
251.4001954996
 30
0.0
 11
152.3284497865
 21
250.6943253291
 31
0.0
  0
LINE
  5
474
330
1B
100
AcDbEntity
 67
     1
  8
3_ALL_AXES
  6
Continuous
 62
     7
100
AcDbLine
 10
158.1284497865
 20
251.4001954996
 30
0.0
 11
158.1284497865
 21
250.6943253291
 31
0.0
  0
ARC
  5
475
330
1B
100
AcDbEntity
 67
     1
  8
3_ALL_AXES
  6
Continuous
 62
     7
100
AcDbCircle
 10
155.2284497865
 20
258.1501954996
 30
0.0
 40
8.0
100
AcDbArc
 50
248.7461908146
 51
270.0
  0
ARC
  5
476
330
1B
100
AcDbEntity
 67
     1
  8
3_ALL_AXES
  6
Continuous
 62
     7
100
AcDbCircle
 10
155.2284497865
 20
258.1501954996
 30
0.0
 40
8.0
100
AcDbArc
 50
270.0
 51
291.2538091854
  0
LINE
  5
477
330
1B
100
AcDbEntity
 67
     1
  8
3_ALL_AXES
  6
Continuous
 62
     7
100
AcDbLine
 10
152.3284497865
 20
250.6943253291
 30
0.0
 11
152.3284497865
 21
251.4001954996
 31
0.0
  0
LINE
  5
478
330
1B
100
AcDbEntity
 67
     1
  8
3_ALL_AXES
  6
Continuous
 62
     7
100
AcDbLine
 10
158.1284497865
 20
250.6943253291
 30
0.0
 11
158.1284497865
 21
251.4001954996
 31
0.0
  0
LINE
  5
479
330
1B
100
AcDbEntity
 67
     1
  8
3_ALL_AXES
  6
Continuous
 62
     7
100
AcDbLine
 10
152.3284497865
 20
250.6943253291
 30
0.0
 11
158.1284497865
 21
250.6943253291
 31
0.0
  0
LINE
  5
47A
330
1B
100
AcDbEntity
 67
     1
  8
3_ALL_AXES
  6
Continuous
 62
     7
100
AcDbLine
 10
1040.1284497865
 20
274.5001954996
 30
0.0
 11
1040.1284497865
 21
275.2060656702
 31
0.0
  0
LINE
  5
47B
330
1B
100
AcDbEntity
 67
     1
  8
3_ALL_AXES
  6
Continuous
 62
     7
100
AcDbLine
 10
1034.3284497865
 20
274.5001954996
 30
0.0
 11
1034.3284497865
 21
275.2060656702
 31
0.0
  0
ARC
  5
47C
330
1B
100
AcDbEntity
 67
     1
  8
3_ALL_AXES
  6
Continuous
 62
     7
100
AcDbCircle
 10
1037.2284497865
 20
267.7501954996
 30
0.0
 40
8.0
100
AcDbArc
 50
68.7461908146
 51
90.0
  0
ARC
  5
47D
330
1B
100
AcDbEntity
 67
     1
  8
3_ALL_AXES
  6
Continuous
 62
     7
100
AcDbCircle
 10
1037.2284497865
 20
267.7501954996
 30
0.0
 40
8.0
100
AcDbArc
 50
90.0
 51
111.2538091854
  0
LINE
  5
47E
330
1B
100
AcDbEntity
 67
     1
  8
3_ALL_AXES
  6
Continuous
 62
     7
100
AcDbLine
 10
1040.1284497865
 20
275.2060656702
 30
0.0
 11
1040.1284497865
 21
274.5001954996
 31
0.0
  0
LINE
  5
47F
330
1B
100
AcDbEntity
 67
     1
  8
3_ALL_AXES
  6
Continuous
 62
     7
100
AcDbLine
 10
1034.3284497865
 20
275.2060656702
 30
0.0
 11
1034.3284497865
 21
274.5001954996
 31
0.0
  0
LINE
  5
480
330
1B
100
AcDbEntity
 67
     1
  8
3_ALL_AXES
  6
Continuous
 62
     7
100
AcDbLine
 10
1040.1284497865
 20
275.2060656702
 30
0.0
 11
1034.3284497865
 21
275.2060656702
 31
0.0
  0
LINE
  5
481
330
1B
100
AcDbEntity
 67
     1
  8
3_ALL_AXES
  6
Continuous
 62
     7
100
AcDbLine
 10
76.1284497865
 20
274.5001954996
 30
0.0
 11
76.1284497865
 21
275.2060656702
 31
0.0
  0
LINE
  5
482
330
1B
100
AcDbEntity
 67
     1
  8
3_ALL_AXES
  6
Continuous
 62
     7
100
AcDbLine
 10
70.3284497865
 20
274.5001954996
 30
0.0
 11
70.3284497865
 21
275.2060656702
 31
0.0
  0
ARC
  5
483
330
1B
100
AcDbEntity
 67
     1
  8
3_ALL_AXES
  6
Continuous
 62
     7
100
AcDbCircle
 10
73.2284497865
 20
267.7501954996
 30
0.0
 40
8.0
100
AcDbArc
 50
68.7461908146
 51
90.0
  0
ARC
  5
484
330
1B
100
AcDbEntity
 67
     1
  8
3_ALL_AXES
  6
Continuous
 62
     7
100
AcDbCircle
 10
73.2284497865
 20
267.7501954996
 30
0.0
 40
8.0
100
AcDbArc
 50
90.0
 51
111.2538091854
  0
LINE
  5
485
330
1B
100
AcDbEntity
 67
     1
  8
3_ALL_AXES
  6
Continuous
 62
     7
100
AcDbLine
 10
76.1284497865
 20
275.2060656702
 30
0.0
 11
76.1284497865
 21
274.5001954996
 31
0.0
  0
LINE
  5
486
330
1B
100
AcDbEntity
 67
     1
  8
3_ALL_AXES
  6
Continuous
 62
     7
100
AcDbLine
 10
70.3284497865
 20
275.2060656702
 30
0.0
 11
70.3284497865
 21
274.5001954996
 31
0.0
  0
LINE
  5
487
330
1B
100
AcDbEntity
 67
     1
  8
3_ALL_AXES
  6
Continuous
 62
     7
100
AcDbLine
 10
76.1284497865
 20
275.2060656702
 30
0.0
 11
70.3284497865
 21
275.2060656702
 31
0.0
  0
LINE
  5
488
330
1B
100
AcDbEntity
 67
     1
  8
3_ALL_AXES
  6
Continuous
 62
     7
100
AcDbLine
 10
70.3284497865
 20
251.4001954996
 30
0.0
 11
70.3284497865
 21
250.6943253291
 31
0.0
  0
LINE
  5
489
330
1B
100
AcDbEntity
 67
     1
  8
3_ALL_AXES
  6
Continuous
 62
     7
100
AcDbLine
 10
76.1284497865
 20
251.4001954996
 30
0.0
 11
76.1284497865
 21
250.6943253291
 31
0.0
  0
ARC
  5
48A
330
1B
100
AcDbEntity
 67
     1
  8
3_ALL_AXES
  6
Continuous
 62
     7
100
AcDbCircle
 10
73.2284497865
 20
258.1501954996
 30
0.0
 40
8.0
100
AcDbArc
 50
248.7461908146
 51
270.0
  0
ARC
  5
48B
330
1B
100
AcDbEntity
 67
     1
  8
3_ALL_AXES
  6
Continuous
 62
     7
100
AcDbCircle
 10
73.2284497865
 20
258.1501954996
 30
0.0
 40
8.0
100
AcDbArc
 50
270.0
 51
291.2538091854
  0
LINE
  5
48C
330
1B
100
AcDbEntity
 67
     1
  8
3_ALL_AXES
  6
Continuous
 62
     7
100
AcDbLine
 10
70.3284497865
 20
250.6943253291
 30
0.0
 11
70.3284497865
 21
251.4001954996
 31
0.0
  0
LINE
  5
48D
330
1B
100
AcDbEntity
 67
     1
  8
3_ALL_AXES
  6
Continuous
 62
     7
100
AcDbLine
 10
76.1284497865
 20
250.6943253291
 30
0.0
 11
76.1284497865
 21
251.4001954996
 31
0.0
  0
LINE
  5
48E
330
1B
100
AcDbEntity
 67
     1
  8
3_ALL_AXES
  6
Continuous
 62
     7
100
AcDbLine
 10
70.3284497865
 20
250.6943253291
 30
0.0
 11
76.1284497865
 21
250.6943253291
 31
0.0
  0
LINE
  5
48F
330
1B
100
AcDbEntity
 67
     1
  8
3_ALL_AXES
  6
Continuous
 62
     7
100
AcDbLine
 10
1034.3284497865
 20
251.4001954996
 30
0.0
 11
1034.3284497865
 21
250.6943253291
 31
0.0
  0
LINE
  5
490
330
1B
100
AcDbEntity
 67
     1
  8
3_ALL_AXES
  6
Continuous
 62
     7
100
AcDbLine
 10
1040.1284497865
 20
251.4001954996
 30
0.0
 11
1040.1284497865
 21
250.6943253291
 31
0.0
  0
ARC
  5
491
330
1B
100
AcDbEntity
 67
     1
  8
3_ALL_AXES
  6
Continuous
 62
     7
100
AcDbCircle
 10
1037.2284497865
 20
258.1501954996
 30
0.0
 40
8.0
100
AcDbArc
 50
248.7461908146
 51
270.0
  0
ARC
  5
492
330
1B
100
AcDbEntity
 67
     1
  8
3_ALL_AXES
  6
Continuous
 62
     7
100
AcDbCircle
 10
1037.2284497865
 20
258.1501954996
 30
0.0
 40
8.0
100
AcDbArc
 50
270.0
 51
291.2538091854
  0
LINE
  5
493
330
1B
100
AcDbEntity
 67
     1
  8
3_ALL_AXES
  6
Continuous
 62
     7
100
AcDbLine
 10
1034.3284497865
 20
250.6943253291
 30
0.0
 11
1034.3284497865
 21
251.4001954996
 31
0.0
  0
LINE
  5
494
330
1B
100
AcDbEntity
 67
     1
  8
3_ALL_AXES
  6
Continuous
 62
     7
100
AcDbLine
 10
1040.1284497865
 20
250.6943253291
 30
0.0
 11
1040.1284497865
 21
251.4001954996
 31
0.0
  0
LINE
  5
495
330
1B
100
AcDbEntity
 67
     1
  8
3_ALL_AXES
  6
Continuous
 62
     7
100
AcDbLine
 10
1034.3284497865
 20
250.6943253291
 30
0.0
 11
1040.1284497865
 21
250.6943253291
 31
0.0
  0
LINE
  5
496
330
1B
100
AcDbEntity
 67
     1
  8
3_ALL_AXES
  6
Continuous
 62
     7
100
AcDbLine
 10
277.2951164532
 20
274.5001954996
 30
0.0
 11
277.2951164532
 21
275.2060656702
 31
0.0
  0
LINE
  5
497
330
1B
100
AcDbEntity
 67
     1
  8
3_ALL_AXES
  6
Continuous
 62
     7
100
AcDbLine
 10
271.4951164532
 20
274.5001954996
 30
0.0
 11
271.4951164532
 21
275.2060656702
 31
0.0
  0
ARC
  5
498
330
1B
100
AcDbEntity
 67
     1
  8
3_ALL_AXES
  6
Continuous
 62
     7
100
AcDbCircle
 10
274.3951164532
 20
267.7501954996
 30
0.0
 40
8.0
100
AcDbArc
 50
68.7461908146
 51
90.0
  0
ARC
  5
499
330
1B
100
AcDbEntity
 67
     1
  8
3_ALL_AXES
  6
Continuous
 62
     7
100
AcDbCircle
 10
274.3951164532
 20
267.7501954996
 30
0.0
 40
8.0
100
AcDbArc
 50
90.0
 51
111.2538091854
  0
LINE
  5
49A
330
1B
100
AcDbEntity
 67
     1
  8
3_ALL_AXES
  6
Continuous
 62
     7
100
AcDbLine
 10
277.2951164532
 20
275.2060656702
 30
0.0
 11
277.2951164532
 21
274.5001954996
 31
0.0
  0
LINE
  5
49B
330
1B
100
AcDbEntity
 67
     1
  8
3_ALL_AXES
  6
Continuous
 62
     7
100
AcDbLine
 10
271.4951164532
 20
275.2060656702
 30
0.0
 11
271.4951164532
 21
274.5001954996
 31
0.0
  0
LINE
  5
49C
330
1B
100
AcDbEntity
 67
     1
  8
3_ALL_AXES
  6
Continuous
 62
     7
100
AcDbLine
 10
277.2951164532
 20
275.2060656702
 30
0.0
 11
271.4951164532
 21
275.2060656702
 31
0.0
  0
ARC
  5
49D
330
1B
100
AcDbEntity
 67
     1
  8
3_ALL_AXES
  6
Continuous
 62
     7
100
AcDbCircle
 10
1054.5860069892
 20
274.3275554079
 30
0.0
 40
4.1
100
AcDbArc
 50
116.3930257743
 51
118.8426038473
  0
ARC
  5
49E
330
1B
100
AcDbEntity
 67
     1
  8
3_ALL_AXES
  6
Continuous
 62
     7
100
AcDbCircle
 10
1054.5860069892
 20
274.3275554079
 30
0.0
 40
4.1
100
AcDbArc
 50
118.8426038473
 51
150.6871187969
  0
ARC
  5
49F
330
1B
100
AcDbEntity
 67
     1
  8
3_ALL_AXES
  6
Continuous
 62
     7
100
AcDbCircle
 10
1054.5860069892
 20
274.3275554079
 30
0.0
 40
4.1
100
AcDbArc
 50
150.6871187969
 51
153.1366968699
  0
ARC
  5
4A0
330
1B
100
AcDbEntity
 67
     1
  8
3_ALL_AXES
  6
Continuous
 62
     7
100
AcDbCircle
 10
1054.8708925839
 20
274.3275554079
 30
0.0
 40
4.1
100
AcDbArc
 50
26.8633031301
 51
63.6069742257
  0
LINE
  5
4A1
330
1B
100
AcDbEntity
 67
     1
  8
3_ALL_AXES
  6
Continuous
 62
     7
100
AcDbLine
 10
1050.9284497865
 20
276.1801954996
 30
0.0
 11
1050.9284497865
 21
275.8001954996
 31
0.0
  0
LINE
  5
4A2
330
1B
100
AcDbEntity
 67
     1
  8
3_ALL_AXES
  6
Continuous
 62
     7
100
AcDbLine
 10
1058.5284497865
 20
276.1801954996
 30
0.0
 11
1058.5284497865
 21
275.8001954996
 31
0.0
  0
LINE
  5
4A3
330
1B
100
AcDbEntity
 67
     1
  8
7_ALL_FEATURES
  6
Continuous
 62
     7
100
AcDbLine
 10
1052.7284497865
 20
274.8001954996
 30
0.0
 11
1052.7284497865
 21
274.5001954996
 31
0.0
  0
LINE
  5
4A4
330
1B
100
AcDbEntity
 67
     1
  8
7_ALL_FEATURES
  6
Continuous
 62
     7
100
AcDbLine
 10
1056.7284497865
 20
274.8001954996
 30
0.0
 11
1056.7284497865
 21
274.5001954996
 31
0.0
  0
ARC
  5
4A5
330
1B
100
AcDbEntity
 67
     1
  8
3_ALL_AXES
  6
Continuous
 62
     7
100
AcDbCircle
 10
1054.5860069892
 20
274.3275554079
 30
0.0
 40
4.1
100
AcDbArc
 50
150.6871187969
 51
153.1366968699
  0
ARC
  5
4A6
330
1B
100
AcDbEntity
 67
     1
  8
3_ALL_AXES
  6
Continuous
 62
     7
100
AcDbCircle
 10
1054.5860069892
 20
274.3275554079
 30
0.0
 40
4.1
100
AcDbArc
 50
118.8426038473
 51
150.6871187969
  0
ARC
  5
4A7
330
1B
100
AcDbEntity
 67
     1
  8
3_ALL_AXES
  6
Continuous
 62
     7
100
AcDbCircle
 10
1054.5860069892
 20
274.3275554079
 30
0.0
 40
4.1
100
AcDbArc
 50
116.3930257743
 51
118.8426038473
  0
LINE
  5
4A8
330
1B
100
AcDbEntity
 67
     1
  8
3_ALL_AXES
  6
Continuous
 62
     7
100
AcDbLine
 10
1052.7634497865
 20
278.0001954996
 30
0.0
 11
1053.2850741135
 21
278.0001954996
 31
0.0
  0
LINE
  5
4A9
330
1B
100
AcDbEntity
 67
     1
  8
3_ALL_AXES
  6
Continuous
 62
     7
100
AcDbLine
 10
1053.2850741135
 20
278.0001954996
 30
0.0
 11
1054.00676195
 21
278.0001954996
 31
0.0
  0
LINE
  5
4AA
330
1B
100
AcDbEntity
 67
     1
  8
3_ALL_AXES
  6
Continuous
 62
     7
100
AcDbLine
 10
1054.00676195
 20
278.0001954996
 30
0.0
 11
1055.450137623
 21
278.0001954996
 31
0.0
  0
LINE
  5
4AB
330
1B
100
AcDbEntity
 67
     1
  8
3_ALL_AXES
  6
Continuous
 62
     7
100
AcDbLine
 10
1055.450137623
 20
278.0001954996
 30
0.0
 11
1056.1718254595
 21
278.0001954996
 31
0.0
  0
LINE
  5
4AC
330
1B
100
AcDbEntity
 67
     1
  8
3_ALL_AXES
  6
Continuous
 62
     7
100
AcDbLine
 10
1056.1718254595
 20
278.0001954996
 30
0.0
 11
1056.6934497865
 21
278.0001954996
 31
0.0
  0
LINE
  5
4AD
330
1B
100
AcDbEntity
 67
     1
  8
3_ALL_AXES
  6
Continuous
 62
     7
100
AcDbLine
 10
1050.9284497865
 20
275.8001954996
 30
0.0
 11
1050.9284497865
 21
276.1801954996
 31
0.0
  0
LINE
  5
4AE
330
1B
100
AcDbEntity
 67
     1
  8
3_ALL_AXES
  6
Continuous
 62
     7
100
AcDbLine
 10
1052.7284497865
 20
274.5001954996
 30
0.0
 11
1052.7284497865
 21
274.8001954996
 31
0.0
  0
ARC
  5
4AF
330
1B
100
AcDbEntity
 67
     1
  8
3_ALL_AXES
  6
Continuous
 62
     7
100
AcDbCircle
 10
1054.8708925839
 20
274.3275554079
 30
0.0
 40
4.1
100
AcDbArc
 50
26.8633031301
 51
63.6069742257
  0
LINE
  5
4B0
330
1B
100
AcDbEntity
 67
     1
  8
3_ALL_AXES
  6
Continuous
 62
     7
100
AcDbLine
 10
1058.5284497865
 20
275.8001954996
 30
0.0
 11
1058.5284497865
 21
276.1801954996
 31
0.0
  0
LINE
  5
4B1
330
1B
100
AcDbEntity
 67
     1
  8
3_ALL_AXES
  6
Continuous
 62
     7
100
AcDbLine
 10
1056.7284497865
 20
274.5001954996
 30
0.0
 11
1056.7284497865
 21
274.8001954996
 31
0.0
  0
LINE
  5
4B2
330
1B
100
AcDbEntity
 67
     1
  8
3_ALL_AXES
  6
Continuous
 62
     7
100
AcDbLine
 10
1050.9284497865
 20
276.1801954996
 30
0.0
 11
1058.5284497865
 21
276.1801954996
 31
0.0
  0
ARC
  5
4B3
330
1B
100
AcDbEntity
 67
     1
  8
3_ALL_AXES
  6
Continuous
 62
     7
100
AcDbCircle
 10
55.5860069892
 20
274.3275554079
 30
0.0
 40
4.1
100
AcDbArc
 50
116.3930257743
 51
118.8426038473
  0
ARC
  5
4B4
330
1B
100
AcDbEntity
 67
     1
  8
3_ALL_AXES
  6
Continuous
 62
     7
100
AcDbCircle
 10
55.5860069892
 20
274.3275554079
 30
0.0
 40
4.1
100
AcDbArc
 50
118.8426038473
 51
150.6871187969
  0
ARC
  5
4B5
330
1B
100
AcDbEntity
 67
     1
  8
3_ALL_AXES
  6
Continuous
 62
     7
100
AcDbCircle
 10
55.5860069892
 20
274.3275554079
 30
0.0
 40
4.1
100
AcDbArc
 50
150.6871187969
 51
153.1366968699
  0
ARC
  5
4B6
330
1B
100
AcDbEntity
 67
     1
  8
3_ALL_AXES
  6
Continuous
 62
     7
100
AcDbCircle
 10
55.8708925839
 20
274.3275554079
 30
0.0
 40
4.1
100
AcDbArc
 50
26.8633031301
 51
63.6069742257
  0
LINE
  5
4B7
330
1B
100
AcDbEntity
 67
     1
  8
3_ALL_AXES
  6
Continuous
 62
     7
100
AcDbLine
 10
51.9284497865
 20
276.1801954996
 30
0.0
 11
51.9284497865
 21
275.8001954996
 31
0.0
  0
LINE
  5
4B8
330
1B
100
AcDbEntity
 67
     1
  8
3_ALL_AXES
  6
Continuous
 62
     7
100
AcDbLine
 10
59.5284497865
 20
276.1801954996
 30
0.0
 11
59.5284497865
 21
275.8001954996
 31
0.0
  0
LINE
  5
4B9
330
1B
100
AcDbEntity
 67
     1
  8
7_ALL_FEATURES
  6
Continuous
 62
     7
100
AcDbLine
 10
53.7284497865
 20
274.8001954996
 30
0.0
 11
53.7284497865
 21
274.5001954996
 31
0.0
  0
LINE
  5
4BA
330
1B
100
AcDbEntity
 67
     1
  8
7_ALL_FEATURES
  6
Continuous
 62
     7
100
AcDbLine
 10
57.7284497865
 20
274.8001954996
 30
0.0
 11
57.7284497865
 21
274.5001954996
 31
0.0
  0
ARC
  5
4BB
330
1B
100
AcDbEntity
 67
     1
  8
3_ALL_AXES
  6
Continuous
 62
     7
100
AcDbCircle
 10
55.5860069892
 20
274.3275554079
 30
0.0
 40
4.1
100
AcDbArc
 50
150.6871187969
 51
153.1366968699
  0
ARC
  5
4BC
330
1B
100
AcDbEntity
 67
     1
  8
3_ALL_AXES
  6
Continuous
 62
     7
100
AcDbCircle
 10
55.5860069892
 20
274.3275554079
 30
0.0
 40
4.1
100
AcDbArc
 50
118.8426038473
 51
150.6871187969
  0
ARC
  5
4BD
330
1B
100
AcDbEntity
 67
     1
  8
3_ALL_AXES
  6
Continuous
 62
     7
100
AcDbCircle
 10
55.5860069892
 20
274.3275554079
 30
0.0
 40
4.1
100
AcDbArc
 50
116.3930257743
 51
118.8426038473
  0
LINE
  5
4BE
330
1B
100
AcDbEntity
 67
     1
  8
3_ALL_AXES
  6
Continuous
 62
     7
100
AcDbLine
 10
53.7634497865
 20
278.0001954996
 30
0.0
 11
54.2850741135
 21
278.0001954996
 31
0.0
  0
LINE
  5
4BF
330
1B
100
AcDbEntity
 67
     1
  8
3_ALL_AXES
  6
Continuous
 62
     7
100
AcDbLine
 10
54.2850741135
 20
278.0001954996
 30
0.0
 11
55.00676195
 21
278.0001954996
 31
0.0
  0
LINE
  5
4C0
330
1B
100
AcDbEntity
 67
     1
  8
3_ALL_AXES
  6
Continuous
 62
     7
100
AcDbLine
 10
55.00676195
 20
278.0001954996
 30
0.0
 11
56.450137623
 21
278.0001954996
 31
0.0
  0
LINE
  5
4C1
330
1B
100
AcDbEntity
 67
     1
  8
3_ALL_AXES
  6
Continuous
 62
     7
100
AcDbLine
 10
56.450137623
 20
278.0001954996
 30
0.0
 11
57.1718254595
 21
278.0001954996
 31
0.0
  0
LINE
  5
4C2
330
1B
100
AcDbEntity
 67
     1
  8
3_ALL_AXES
  6
Continuous
 62
     7
100
AcDbLine
 10
57.1718254595
 20
278.0001954996
 30
0.0
 11
57.6934497865
 21
278.0001954996
 31
0.0
  0
LINE
  5
4C3
330
1B
100
AcDbEntity
 67
     1
  8
3_ALL_AXES
  6
Continuous
 62
     7
100
AcDbLine
 10
51.9284497865
 20
275.8001954996
 30
0.0
 11
51.9284497865
 21
276.1801954996
 31
0.0
  0
LINE
  5
4C4
330
1B
100
AcDbEntity
 67
     1
  8
3_ALL_AXES
  6
Continuous
 62
     7
100
AcDbLine
 10
53.7284497865
 20
274.5001954996
 30
0.0
 11
53.7284497865
 21
274.8001954996
 31
0.0
  0
ARC
  5
4C5
330
1B
100
AcDbEntity
 67
     1
  8
3_ALL_AXES
  6
Continuous
 62
     7
100
AcDbCircle
 10
55.8708925839
 20
274.3275554079
 30
0.0
 40
4.1
100
AcDbArc
 50
26.8633031301
 51
63.6069742257
  0
LINE
  5
4C6
330
1B
100
AcDbEntity
 67
     1
  8
3_ALL_AXES
  6
Continuous
 62
     7
100
AcDbLine
 10
59.5284497865
 20
275.8001954996
 30
0.0
 11
59.5284497865
 21
276.1801954996
 31
0.0
  0
LINE
  5
4C7
330
1B
100
AcDbEntity
 67
     1
  8
3_ALL_AXES
  6
Continuous
 62
     7
100
AcDbLine
 10
57.7284497865
 20
274.5001954996
 30
0.0
 11
57.7284497865
 21
274.8001954996
 31
0.0
  0
LINE
  5
4C8
330
1B
100
AcDbEntity
 67
     1
  8
3_ALL_AXES
  6
Continuous
 62
     7
100
AcDbLine
 10
51.9284497865
 20
276.1801954996
 30
0.0
 11
59.5284497865
 21
276.1801954996
 31
0.0
  0
ARC
  5
4C9
330
1B
100
AcDbEntity
 67
     1
  8
3_ALL_AXES
  6
Continuous
 62
     7
100
AcDbCircle
 10
55.8708925839
 20
251.5728355913
 30
0.0
 40
4.1
100
AcDbArc
 50
296.3930257743
 51
298.8426038472999
  0
ARC
  5
4CA
330
1B
100
AcDbEntity
 67
     1
  8
3_ALL_AXES
  6
Continuous
 62
     7
100
AcDbCircle
 10
55.8708925839
 20
251.5728355913
 30
0.0
 40
4.1
100
AcDbArc
 50
298.8426038472999
 51
330.6871187969
  0
ARC
  5
4CB
330
1B
100
AcDbEntity
 67
     1
  8
3_ALL_AXES
  6
Continuous
 62
     7
100
AcDbCircle
 10
55.8708925839
 20
251.5728355913
 30
0.0
 40
4.1
100
AcDbArc
 50
330.6871187969
 51
333.1366968699
  0
ARC
  5
4CC
330
1B
100
AcDbEntity
 67
     1
  8
3_ALL_AXES
  6
Continuous
 62
     7
100
AcDbCircle
 10
55.5860069892
 20
251.5728355913
 30
0.0
 40
4.1
100
AcDbArc
 50
206.8633031301
 51
243.6069742257
  0
LINE
  5
4CD
330
1B
100
AcDbEntity
 67
     1
  8
3_ALL_AXES
  6
Continuous
 62
     7
100
AcDbLine
 10
59.5284497865
 20
249.7201954996
 30
0.0
 11
59.5284497865
 21
250.1001954996
 31
0.0
  0
LINE
  5
4CE
330
1B
100
AcDbEntity
 67
     1
  8
3_ALL_AXES
  6
Continuous
 62
     7
100
AcDbLine
 10
51.9284497865
 20
249.7201954996
 30
0.0
 11
51.9284497865
 21
250.1001954996
 31
0.0
  0
LINE
  5
4CF
330
1B
100
AcDbEntity
 67
     1
  8
7_ALL_FEATURES
  6
Continuous
 62
     7
100
AcDbLine
 10
57.7284497865
 20
251.1001954996
 30
0.0
 11
57.7284497865
 21
251.4001954996
 31
0.0
  0
LINE
  5
4D0
330
1B
100
AcDbEntity
 67
     1
  8
7_ALL_FEATURES
  6
Continuous
 62
     7
100
AcDbLine
 10
53.7284497865
 20
251.1001954996
 30
0.0
 11
53.7284497865
 21
251.4001954996
 31
0.0
  0
ARC
  5
4D1
330
1B
100
AcDbEntity
 67
     1
  8
3_ALL_AXES
  6
Continuous
 62
     7
100
AcDbCircle
 10
55.8708925839
 20
251.5728355913
 30
0.0
 40
4.1
100
AcDbArc
 50
330.6871187969
 51
333.1366968699
  0
ARC
  5
4D2
330
1B
100
AcDbEntity
 67
     1
  8
3_ALL_AXES
  6
Continuous
 62
     7
100
AcDbCircle
 10
55.8708925839
 20
251.5728355913
 30
0.0
 40
4.1
100
AcDbArc
 50
298.8426038472999
 51
330.6871187969
  0
ARC
  5
4D3
330
1B
100
AcDbEntity
 67
     1
  8
3_ALL_AXES
  6
Continuous
 62
     7
100
AcDbCircle
 10
55.8708925839
 20
251.5728355913
 30
0.0
 40
4.1
100
AcDbArc
 50
296.3930257743
 51
298.8426038472999
  0
LINE
  5
4D4
330
1B
100
AcDbEntity
 67
     1
  8
3_ALL_AXES
  6
Continuous
 62
     7
100
AcDbLine
 10
57.6934497865
 20
247.9001954996
 30
0.0
 11
57.1718254595
 21
247.9001954996
 31
0.0
  0
LINE
  5
4D5
330
1B
100
AcDbEntity
 67
     1
  8
3_ALL_AXES
  6
Continuous
 62
     7
100
AcDbLine
 10
57.1718254595
 20
247.9001954996
 30
0.0
 11
56.450137623
 21
247.9001954996
 31
0.0
  0
LINE
  5
4D6
330
1B
100
AcDbEntity
 67
     1
  8
3_ALL_AXES
  6
Continuous
 62
     7
100
AcDbLine
 10
56.450137623
 20
247.9001954996
 30
0.0
 11
55.00676195
 21
247.9001954996
 31
0.0
  0
LINE
  5
4D7
330
1B
100
AcDbEntity
 67
     1
  8
3_ALL_AXES
  6
Continuous
 62
     7
100
AcDbLine
 10
55.00676195
 20
247.9001954996
 30
0.0
 11
54.2850741135
 21
247.9001954996
 31
0.0
  0
LINE
  5
4D8
330
1B
100
AcDbEntity
 67
     1
  8
3_ALL_AXES
  6
Continuous
 62
     7
100
AcDbLine
 10
54.2850741135
 20
247.9001954996
 30
0.0
 11
53.7634497865
 21
247.9001954996
 31
0.0
  0
LINE
  5
4D9
330
1B
100
AcDbEntity
 67
     1
  8
3_ALL_AXES
  6
Continuous
 62
     7
100
AcDbLine
 10
59.5284497865
 20
250.1001954996
 30
0.0
 11
59.5284497865
 21
249.7201954996
 31
0.0
  0
LINE
  5
4DA
330
1B
100
AcDbEntity
 67
     1
  8
3_ALL_AXES
  6
Continuous
 62
     7
100
AcDbLine
 10
57.7284497865
 20
251.4001954996
 30
0.0
 11
57.7284497865
 21
251.1001954996
 31
0.0
  0
ARC
  5
4DB
330
1B
100
AcDbEntity
 67
     1
  8
3_ALL_AXES
  6
Continuous
 62
     7
100
AcDbCircle
 10
55.5860069892
 20
251.5728355913
 30
0.0
 40
4.1
100
AcDbArc
 50
206.8633031301
 51
243.6069742257
  0
LINE
  5
4DC
330
1B
100
AcDbEntity
 67
     1
  8
3_ALL_AXES
  6
Continuous
 62
     7
100
AcDbLine
 10
51.9284497865
 20
250.1001954996
 30
0.0
 11
51.9284497865
 21
249.7201954996
 31
0.0
  0
LINE
  5
4DD
330
1B
100
AcDbEntity
 67
     1
  8
3_ALL_AXES
  6
Continuous
 62
     7
100
AcDbLine
 10
53.7284497865
 20
251.4001954996
 30
0.0
 11
53.7284497865
 21
251.1001954996
 31
0.0
  0
LINE
  5
4DE
330
1B
100
AcDbEntity
 67
     1
  8
3_ALL_AXES
  6
Continuous
 62
     7
100
AcDbLine
 10
59.5284497865
 20
249.7201954996
 30
0.0
 11
51.9284497865
 21
249.7201954996
 31
0.0
  0
ARC
  5
4DF
330
1B
100
AcDbEntity
 67
     1
  8
3_ALL_AXES
  6
Continuous
 62
     7
100
AcDbCircle
 10
1054.8708925839
 20
251.5728355913
 30
0.0
 40
4.1
100
AcDbArc
 50
296.3930257743
 51
298.8426038472999
  0
ARC
  5
4E0
330
1B
100
AcDbEntity
 67
     1
  8
3_ALL_AXES
  6
Continuous
 62
     7
100
AcDbCircle
 10
1054.8708925839
 20
251.5728355913
 30
0.0
 40
4.1
100
AcDbArc
 50
298.8426038472999
 51
330.6871187969
  0
ARC
  5
4E1
330
1B
100
AcDbEntity
 67
     1
  8
3_ALL_AXES
  6
Continuous
 62
     7
100
AcDbCircle
 10
1054.8708925839
 20
251.5728355913
 30
0.0
 40
4.1
100
AcDbArc
 50
330.6871187969
 51
333.1366968699
  0
ARC
  5
4E2
330
1B
100
AcDbEntity
 67
     1
  8
3_ALL_AXES
  6
Continuous
 62
     7
100
AcDbCircle
 10
1054.5860069892
 20
251.5728355913
 30
0.0
 40
4.1
100
AcDbArc
 50
206.8633031301
 51
243.6069742257
  0
LINE
  5
4E3
330
1B
100
AcDbEntity
 67
     1
  8
3_ALL_AXES
  6
Continuous
 62
     7
100
AcDbLine
 10
1058.5284497865
 20
249.7201954996
 30
0.0
 11
1058.5284497865
 21
250.1001954996
 31
0.0
  0
LINE
  5
4E4
330
1B
100
AcDbEntity
 67
     1
  8
3_ALL_AXES
  6
Continuous
 62
     7
100
AcDbLine
 10
1050.9284497865
 20
249.7201954996
 30
0.0
 11
1050.9284497865
 21
250.1001954996
 31
0.0
  0
LINE
  5
4E5
330
1B
100
AcDbEntity
 67
     1
  8
7_ALL_FEATURES
  6
Continuous
 62
     7
100
AcDbLine
 10
1056.7284497865
 20
251.1001954996
 30
0.0
 11
1056.7284497865
 21
251.4001954996
 31
0.0
  0
LINE
  5
4E6
330
1B
100
AcDbEntity
 67
     1
  8
7_ALL_FEATURES
  6
Continuous
 62
     7
100
AcDbLine
 10
1052.7284497865
 20
251.1001954996
 30
0.0
 11
1052.7284497865
 21
251.4001954996
 31
0.0
  0
ARC
  5
4E7
330
1B
100
AcDbEntity
 67
     1
  8
3_ALL_AXES
  6
Continuous
 62
     7
100
AcDbCircle
 10
1054.8708925839
 20
251.5728355913
 30
0.0
 40
4.1
100
AcDbArc
 50
330.6871187969
 51
333.1366968699
  0
ARC
  5
4E8
330
1B
100
AcDbEntity
 67
     1
  8
3_ALL_AXES
  6
Continuous
 62
     7
100
AcDbCircle
 10
1054.8708925839
 20
251.5728355913
 30
0.0
 40
4.1
100
AcDbArc
 50
298.8426038472999
 51
330.6871187969
  0
ARC
  5
4E9
330
1B
100
AcDbEntity
 67
     1
  8
3_ALL_AXES
  6
Continuous
 62
     7
100
AcDbCircle
 10
1054.8708925839
 20
251.5728355913
 30
0.0
 40
4.1
100
AcDbArc
 50
296.3930257743
 51
298.8426038472999
  0
LINE
  5
4EA
330
1B
100
AcDbEntity
 67
     1
  8
3_ALL_AXES
  6
Continuous
 62
     7
100
AcDbLine
 10
1056.6934497865
 20
247.9001954996
 30
0.0
 11
1056.1718254595
 21
247.9001954996
 31
0.0
  0
LINE
  5
4EB
330
1B
100
AcDbEntity
 67
     1
  8
3_ALL_AXES
  6
Continuous
 62
     7
100
AcDbLine
 10
1056.1718254595
 20
247.9001954996
 30
0.0
 11
1055.450137623
 21
247.9001954996
 31
0.0
  0
LINE
  5
4EC
330
1B
100
AcDbEntity
 67
     1
  8
3_ALL_AXES
  6
Continuous
 62
     7
100
AcDbLine
 10
1055.450137623
 20
247.9001954996
 30
0.0
 11
1054.00676195
 21
247.9001954996
 31
0.0
  0
LINE
  5
4ED
330
1B
100
AcDbEntity
 67
     1
  8
3_ALL_AXES
  6
Continuous
 62
     7
100
AcDbLine
 10
1054.00676195
 20
247.9001954996
 30
0.0
 11
1053.2850741135
 21
247.9001954996
 31
0.0
  0
LINE
  5
4EE
330
1B
100
AcDbEntity
 67
     1
  8
3_ALL_AXES
  6
Continuous
 62
     7
100
AcDbLine
 10
1053.2850741135
 20
247.9001954996
 30
0.0
 11
1052.7634497865
 21
247.9001954996
 31
0.0
  0
LINE
  5
4EF
330
1B
100
AcDbEntity
 67
     1
  8
3_ALL_AXES
  6
Continuous
 62
     7
100
AcDbLine
 10
1058.5284497865
 20
250.1001954996
 30
0.0
 11
1058.5284497865
 21
249.7201954996
 31
0.0
  0
LINE
  5
4F0
330
1B
100
AcDbEntity
 67
     1
  8
3_ALL_AXES
  6
Continuous
 62
     7
100
AcDbLine
 10
1056.7284497865
 20
251.4001954996
 30
0.0
 11
1056.7284497865
 21
251.1001954996
 31
0.0
  0
ARC
  5
4F1
330
1B
100
AcDbEntity
 67
     1
  8
3_ALL_AXES
  6
Continuous
 62
     7
100
AcDbCircle
 10
1054.5860069892
 20
251.5728355913
 30
0.0
 40
4.1
100
AcDbArc
 50
206.8633031301
 51
243.6069742257
  0
LINE
  5
4F2
330
1B
100
AcDbEntity
 67
     1
  8
3_ALL_AXES
  6
Continuous
 62
     7
100
AcDbLine
 10
1050.9284497865
 20
250.1001954996
 30
0.0
 11
1050.9284497865
 21
249.7201954996
 31
0.0
  0
LINE
  5
4F3
330
1B
100
AcDbEntity
 67
     1
  8
3_ALL_AXES
  6
Continuous
 62
     7
100
AcDbLine
 10
1052.7284497865
 20
251.4001954996
 30
0.0
 11
1052.7284497865
 21
251.1001954996
 31
0.0
  0
LINE
  5
4F4
330
1B
100
AcDbEntity
 67
     1
  8
3_ALL_AXES
  6
Continuous
 62
     7
100
AcDbLine
 10
1058.5284497865
 20
249.7201954996
 30
0.0
 11
1050.9284497865
 21
249.7201954996
 31
0.0
  0
LINE
  5
4F5
330
1B
100
AcDbEntity
 67
     1
  8
7_ALL_FEATURES
  6
Continuous
 62
     7
100
AcDbLine
 10
1049.2284497865
 20
274.8001954996
 30
0.0
 11
1049.2284497865
 21
275.8001954996
 31
0.0
  0
LINE
  5
4F6
330
1B
100
AcDbEntity
 67
     1
  8
7_ALL_FEATURES
  6
Continuous
 62
     7
100
AcDbLine
 10
1049.2284497865
 20
251.1001954996
 30
0.0
 11
1049.2284497865
 21
250.1001954996
 31
0.0
  0
LINE
  5
4F7
330
1B
100
AcDbEntity
 67
     1
  8
7_ALL_FEATURES
  6
Continuous
 62
     7
100
AcDbLine
 10
1053.2284497865
 20
275.8001954996
 30
0.0
 11
1059.7284497865
 21
275.8001954996
 31
0.0
  0
ARC
  5
4F8
330
1B
100
AcDbEntity
 67
     1
  8
7_ALL_FEATURES
  6
Continuous
 62
     7
100
AcDbCircle
 10
1059.7284497865
 20
273.8001954996
 30
0.0
 40
2.0
100
AcDbArc
 50
20.4884592635
 51
27.8662873132
  0
ARC
  5
4F9
330
1B
100
AcDbEntity
 67
     1
  8
7_ALL_FEATURES
  6
Continuous
 62
     7
100
AcDbCircle
 10
1059.7284497865
 20
273.8001954996
 30
0.0
 40
2.0
100
AcDbArc
 50
27.8662873132
 51
90.0
  0
LINE
  5
4FA
330
1B
100
AcDbEntity
 67
     1
  8
7_ALL_FEATURES
  6
Continuous
 62
     7
100
AcDbLine
 10
1053.2284497865
 20
250.1001954996
 30
0.0
 11
1050.9341561659
 21
250.1001954996
 31
0.0
  0
LINE
  5
4FB
330
1B
100
AcDbEntity
 67
     1
  8
7_ALL_FEATURES
  6
Continuous
 62
     7
100
AcDbLine
 10
1050.9341561659
 20
250.1001954996
 30
0.0
 11
1050.9284497865
 21
250.1001954996
 31
0.0
  0
LINE
  5
4FC
330
1B
100
AcDbEntity
 67
     1
  8
7_ALL_FEATURES
  6
Continuous
 62
     7
100
AcDbLine
 10
1050.9284497865
 20
250.1001954996
 30
0.0
 11
1049.2284497865
 21
250.1001954996
 31
0.0
  0
LINE
  5
4FD
330
1B
100
AcDbEntity
 67
     1
  8
7_ALL_FEATURES
  6
Continuous
 62
     7
100
AcDbLine
 10
1059.7284497865
 20
250.1001954996
 30
0.0
 11
1053.2284497865
 21
250.1001954996
 31
0.0
  0
ARC
  5
4FE
330
1B
100
AcDbEntity
 67
     1
  8
7_ALL_FEATURES
  6
Continuous
 62
     7
100
AcDbCircle
 10
1059.7284497865
 20
252.1001954996
 30
0.0
 40
2.0
100
AcDbArc
 50
270.0
 51
332.1337126867999
  0
ARC
  5
4FF
330
1B
100
AcDbEntity
 67
     1
  8
7_ALL_FEATURES
  6
Continuous
 62
     7
100
AcDbCircle
 10
1059.7284497865
 20
252.1001954996
 30
0.0
 40
2.0
100
AcDbArc
 50
332.1337126867999
 51
339.5115407365
  0
LINE
  5
500
330
1B
100
AcDbEntity
 67
     1
  8
7_ALL_FEATURES
  6
Continuous
 62
     7
100
AcDbLine
 10
1061.7284497865
 20
274.5001954996
 30
0.0
 11
1060.7284497865
 21
274.5001954996
 31
0.0
  0
LINE
  5
501
330
1B
100
AcDbEntity
 67
     1
  8
7_ALL_FEATURES
  6
Continuous
 62
     7
100
AcDbLine
 10
1061.7284497865
 20
251.4001954996
 30
0.0
 11
1060.7284497865
 21
251.4001954996
 31
0.0
  0
LINE
  5
502
330
1B
100
AcDbEntity
 67
     1
  8
7_ALL_FEATURES
  6
Continuous
 62
     7
100
AcDbLine
 10
1061.7284497865
 20
251.9001954996
 30
0.0
 11
1061.7284497865
 21
251.4001954996
 31
0.0
  0
LINE
  5
503
330
1B
100
AcDbEntity
 67
     1
  8
7_ALL_FEATURES
  6
Continuous
 62
     7
100
AcDbLine
 10
1061.7284497865
 20
251.9001954996
 30
0.0
 11
1061.7284497865
 21
274.0001954996
 31
0.0
  0
LINE
  5
504
330
1B
100
AcDbEntity
 67
     1
  8
7_ALL_FEATURES
  6
Continuous
 62
     7
100
AcDbLine
 10
1061.7284497865
 20
274.5001954996
 30
0.0
 11
1061.7284497865
 21
274.0001954996
 31
0.0
  0
LINE
  5
505
330
1B
100
AcDbEntity
 67
     1
  8
7_ALL_FEATURES
  6
Continuous
 62
     7
100
AcDbLine
 10
1049.2284497865
 20
274.8001954996
 30
0.0
 11
1049.2284497865
 21
275.8001954996
 31
0.0
  0
LINE
  5
506
330
1B
100
AcDbEntity
 67
     1
  8
7_ALL_FEATURES
  6
Continuous
 62
     7
100
AcDbLine
 10
1049.2284497865
 20
275.8001954996
 30
0.0
 11
1050.9284497865
 21
275.8001954996
 31
0.0
  0
LINE
  5
507
330
1B
100
AcDbEntity
 67
     1
  8
7_ALL_FEATURES
  6
Continuous
 62
     7
100
AcDbLine
 10
1050.9284497865
 20
275.8001954996
 30
0.0
 11
1050.9341561659
 21
275.8001954996
 31
0.0
  0
LINE
  5
508
330
1B
100
AcDbEntity
 67
     1
  8
7_ALL_FEATURES
  6
Continuous
 62
     7
100
AcDbLine
 10
1050.9341561659
 20
275.8001954996
 30
0.0
 11
1053.2284497865
 21
275.8001954996
 31
0.0
  0
LINE
  5
509
330
1B
100
AcDbEntity
 67
     1
  8
7_ALL_FEATURES
  6
Continuous
 62
     7
100
AcDbLine
 10
1061.7284497865
 20
251.4001954996
 30
0.0
 11
1060.7284497865
 21
251.4001954996
 31
0.0
  0
LINE
  5
50A
330
1B
100
AcDbEntity
 67
     1
  8
7_ALL_FEATURES
  6
Continuous
 62
     9
100
AcDbLine
 10
1061.496531398
 20
251.1653760438
 30
0.0
 11
1061.0524028989
 21
251.4001954996
 31
0.0
  0
LINE
  5
50B
330
1B
100
AcDbEntity
 67
     1
  8
7_ALL_FEATURES
  6
Continuous
 62
     9
100
AcDbLine
 10
1059.7284497865
 20
250.1001954996
 30
0.0
 11
1059.7284497865
 21
251.1001954996
 31
0.0
  0
LINE
  5
50C
330
1B
100
AcDbEntity
 67
     1
  8
7_ALL_FEATURES
  6
Continuous
 62
     9
100
AcDbLine
 10
1061.7284497865
 20
274.0001954996
 30
0.0
 11
1060.7284497865
 21
274.0001954996
 31
0.0
  0
LINE
  5
50D
330
1B
100
AcDbEntity
 67
     1
  8
7_ALL_FEATURES
  6
Continuous
 62
     9
100
AcDbLine
 10
1061.7284497865
 20
251.9001954996
 30
0.0
 11
1060.7284497865
 21
251.9001954996
 31
0.0
  0
LINE
  5
50E
330
1B
100
AcDbEntity
 67
     1
  8
7_ALL_FEATURES
  6
Continuous
 62
     9
100
AcDbLine
 10
1053.2284497865
 20
274.8001954996
 30
0.0
 11
1053.2284497865
 21
275.8001954996
 31
0.0
  0
LINE
  5
50F
330
1B
100
AcDbEntity
 67
     1
  8
7_ALL_FEATURES
  6
Continuous
 62
     9
100
AcDbLine
 10
1059.7284497865
 20
275.8001954996
 30
0.0
 11
1059.7284497865
 21
274.8001954996
 31
0.0
  0
LINE
  5
510
330
1B
100
AcDbEntity
 67
     1
  8
7_ALL_FEATURES
  6
Continuous
 62
     9
100
AcDbLine
 10
1061.496531398
 20
274.7350149554
 30
0.0
 11
1061.0524028989
 21
274.5001954996
 31
0.0
  0
LINE
  5
511
330
1B
100
AcDbEntity
 67
     1
  8
7_ALL_FEATURES
  6
Continuous
 62
     9
100
AcDbLine
 10
1053.2284497865
 20
251.1001954996
 30
0.0
 11
1053.2284497865
 21
250.1001954996
 31
0.0
  0
LINE
  5
512
330
1B
100
AcDbEntity
 67
     1
  8
7_ALL_FEATURES
  6
Continuous
 62
     7
100
AcDbLine
 10
61.2284497865
 20
251.1001954996
 30
0.0
 11
61.2284497865
 21
250.1001954996
 31
0.0
  0
LINE
  5
513
330
1B
100
AcDbEntity
 67
     1
  8
7_ALL_FEATURES
  6
Continuous
 62
     7
100
AcDbLine
 10
61.2284497865
 20
274.8001954996
 30
0.0
 11
61.2284497865
 21
275.8001954996
 31
0.0
  0
LINE
  5
514
330
1B
100
AcDbEntity
 67
     1
  8
7_ALL_FEATURES
  6
Continuous
 62
     7
100
AcDbLine
 10
57.2284497865
 20
250.1001954996
 30
0.0
 11
50.7284497865
 21
250.1001954996
 31
0.0
  0
ARC
  5
515
330
1B
100
AcDbEntity
 67
     1
  8
7_ALL_FEATURES
  6
Continuous
 62
     7
100
AcDbCircle
 10
50.7284497865
 20
252.1001954996
 30
0.0
 40
2.0
100
AcDbArc
 50
200.4884592635
 51
207.8662873132
  0
ARC
  5
516
330
1B
100
AcDbEntity
 67
     1
  8
7_ALL_FEATURES
  6
Continuous
 62
     7
100
AcDbCircle
 10
50.7284497865
 20
252.1001954996
 30
0.0
 40
2.0
100
AcDbArc
 50
207.8662873132
 51
270.0
  0
LINE
  5
517
330
1B
100
AcDbEntity
 67
     1
  8
7_ALL_FEATURES
  6
Continuous
 62
     7
100
AcDbLine
 10
57.2284497865
 20
275.8001954996
 30
0.0
 11
59.5227434072
 21
275.8001954996
 31
0.0
  0
LINE
  5
518
330
1B
100
AcDbEntity
 67
     1
  8
7_ALL_FEATURES
  6
Continuous
 62
     7
100
AcDbLine
 10
59.5227434072
 20
275.8001954996
 30
0.0
 11
59.5284497865
 21
275.8001954996
 31
0.0
  0
LINE
  5
519
330
1B
100
AcDbEntity
 67
     1
  8
7_ALL_FEATURES
  6
Continuous
 62
     7
100
AcDbLine
 10
59.5284497865
 20
275.8001954996
 30
0.0
 11
61.2284497865
 21
275.8001954996
 31
0.0
  0
LINE
  5
51A
330
1B
100
AcDbEntity
 67
     1
  8
7_ALL_FEATURES
  6
Continuous
 62
     7
100
AcDbLine
 10
50.7284497865
 20
275.8001954996
 30
0.0
 11
57.2284497865
 21
275.8001954996
 31
0.0
  0
ARC
  5
51B
330
1B
100
AcDbEntity
 67
     1
  8
7_ALL_FEATURES
  6
Continuous
 62
     7
100
AcDbCircle
 10
50.7284497865
 20
273.8001954996
 30
0.0
 40
2.0
100
AcDbArc
 50
90.0
 51
152.1337126868
  0
ARC
  5
51C
330
1B
100
AcDbEntity
 67
     1
  8
7_ALL_FEATURES
  6
Continuous
 62
     7
100
AcDbCircle
 10
50.7284497865
 20
273.8001954996
 30
0.0
 40
2.0
100
AcDbArc
 50
152.1337126868
 51
159.5115407365
  0
LINE
  5
51D
330
1B
100
AcDbEntity
 67
     1
  8
7_ALL_FEATURES
  6
Continuous
 62
     7
100
AcDbLine
 10
48.7284497865
 20
251.4001954996
 30
0.0
 11
49.7284497865
 21
251.4001954996
 31
0.0
  0
LINE
  5
51E
330
1B
100
AcDbEntity
 67
     1
  8
7_ALL_FEATURES
  6
Continuous
 62
     7
100
AcDbLine
 10
48.7284497865
 20
274.5001954996
 30
0.0
 11
49.7284497865
 21
274.5001954996
 31
0.0
  0
LINE
  5
51F
330
1B
100
AcDbEntity
 67
     1
  8
7_ALL_FEATURES
  6
Continuous
 62
     7
100
AcDbLine
 10
48.7284497865
 20
274.0001954996
 30
0.0
 11
48.7284497865
 21
274.5001954996
 31
0.0
  0
LINE
  5
520
330
1B
100
AcDbEntity
 67
     1
  8
7_ALL_FEATURES
  6
Continuous
 62
     7
100
AcDbLine
 10
48.7284497865
 20
274.0001954996
 30
0.0
 11
48.7284497865
 21
251.9001954996
 31
0.0
  0
LINE
  5
521
330
1B
100
AcDbEntity
 67
     1
  8
7_ALL_FEATURES
  6
Continuous
 62
     7
100
AcDbLine
 10
48.7284497865
 20
251.4001954996
 30
0.0
 11
48.7284497865
 21
251.9001954996
 31
0.0
  0
LINE
  5
522
330
1B
100
AcDbEntity
 67
     1
  8
7_ALL_FEATURES
  6
Continuous
 62
     7
100
AcDbLine
 10
61.2284497865
 20
251.1001954996
 30
0.0
 11
61.2284497865
 21
250.1001954996
 31
0.0
  0
LINE
  5
523
330
1B
100
AcDbEntity
 67
     1
  8
7_ALL_FEATURES
  6
Continuous
 62
     7
100
AcDbLine
 10
61.2284497865
 20
250.1001954996
 30
0.0
 11
59.5284497865
 21
250.1001954996
 31
0.0
  0
LINE
  5
524
330
1B
100
AcDbEntity
 67
     1
  8
7_ALL_FEATURES
  6
Continuous
 62
     7
100
AcDbLine
 10
59.5284497865
 20
250.1001954996
 30
0.0
 11
59.5227434072
 21
250.1001954996
 31
0.0
  0
LINE
  5
525
330
1B
100
AcDbEntity
 67
     1
  8
7_ALL_FEATURES
  6
Continuous
 62
     7
100
AcDbLine
 10
59.5227434072
 20
250.1001954996
 30
0.0
 11
57.2284497865
 21
250.1001954996
 31
0.0
  0
LINE
  5
526
330
1B
100
AcDbEntity
 67
     1
  8
7_ALL_FEATURES
  6
Continuous
 62
     7
100
AcDbLine
 10
48.7284497865
 20
274.5001954996
 30
0.0
 11
49.7284497865
 21
274.5001954996
 31
0.0
  0
LINE
  5
527
330
1B
100
AcDbEntity
 67
     1
  8
7_ALL_FEATURES
  6
Continuous
 62
     9
100
AcDbLine
 10
48.960368175
 20
274.7350149554
 30
0.0
 11
49.4044966741
 21
274.5001954996
 31
0.0
  0
LINE
  5
528
330
1B
100
AcDbEntity
 67
     1
  8
7_ALL_FEATURES
  6
Continuous
 62
     9
100
AcDbLine
 10
50.7284497865
 20
275.8001954996
 30
0.0
 11
50.7284497865
 21
274.8001954996
 31
0.0
  0
LINE
  5
529
330
1B
100
AcDbEntity
 67
     1
  8
7_ALL_FEATURES
  6
Continuous
 62
     9
100
AcDbLine
 10
48.7284497865
 20
251.9001954996
 30
0.0
 11
49.7284497865
 21
251.9001954996
 31
0.0
  0
LINE
  5
52A
330
1B
100
AcDbEntity
 67
     1
  8
7_ALL_FEATURES
  6
Continuous
 62
     9
100
AcDbLine
 10
48.7284497865
 20
274.0001954996
 30
0.0
 11
49.7284497865
 21
274.0001954996
 31
0.0
  0
LINE
  5
52B
330
1B
100
AcDbEntity
 67
     1
  8
7_ALL_FEATURES
  6
Continuous
 62
     9
100
AcDbLine
 10
57.2284497865
 20
251.1001954996
 30
0.0
 11
57.2284497865
 21
250.1001954996
 31
0.0
  0
LINE
  5
52C
330
1B
100
AcDbEntity
 67
     1
  8
7_ALL_FEATURES
  6
Continuous
 62
     9
100
AcDbLine
 10
50.7284497865
 20
250.1001954996
 30
0.0
 11
50.7284497865
 21
251.1001954996
 31
0.0
  0
LINE
  5
52D
330
1B
100
AcDbEntity
 67
     1
  8
7_ALL_FEATURES
  6
Continuous
 62
     9
100
AcDbLine
 10
48.960368175
 20
251.1653760438
 30
0.0
 11
49.4044966741
 21
251.4001954996
 31
0.0
  0
LINE
  5
52E
330
1B
100
AcDbEntity
 67
     1
  8
7_ALL_FEATURES
  6
Continuous
 62
     9
100
AcDbLine
 10
57.2284497865
 20
274.8001954996
 30
0.0
 11
57.2284497865
 21
275.8001954996
 31
0.0
  0
ARC
  5
52F
330
1B
100
AcDbEntity
 67
     1
  8
02___PRT_ALL_AXES
  6
Continuous
 62
     7
100
AcDbCircle
 10
1005.2284497865
 20
291.9501954996
 30
0.0
 40
3.25
100
AcDbArc
 50
0.0
 51
180.0
  0
LINE
  5
530
330
1B
100
AcDbEntity
 67
     1
  8
02___PRT_ALL_AXES
  6
Continuous
 62
     7
100
AcDbLine
 10
1001.9784497865
 20
291.9501954996
 30
0.0
 11
1001.9784497865
 21
285.9501954996
 31
0.0
  0
ARC
  5
531
330
1B
100
AcDbEntity
 67
     1
  8
02___PRT_ALL_AXES
  6
Continuous
 62
     7
100
AcDbCircle
 10
1005.2284497865
 20
285.9501954996
 30
0.0
 40
3.25
100
AcDbArc
 50
180.0
 51
360.0
  0
LINE
  5
532
330
1B
100
AcDbEntity
 67
     1
  8
02___PRT_ALL_AXES
  6
Continuous
 62
     7
100
AcDbLine
 10
1008.4784497865
 20
285.9501954996
 30
0.0
 11
1008.4784497865
 21
291.9501954996
 31
0.0
  0
ARC
  5
533
330
1B
100
AcDbEntity
 67
     1
  8
02___PRT_ALL_AXES
  6
Continuous
 62
     7
100
AcDbCircle
 10
990.2284497865
 20
288.9501954996
 30
0.0
 40
3.25
100
AcDbArc
 50
0.0
 51
180.0
  0
ARC
  5
534
330
1B
100
AcDbEntity
 67
     1
  8
02___PRT_ALL_AXES
  6
Continuous
 62
     7
100
AcDbCircle
 10
990.2284497865
 20
288.9501954996
 30
0.0
 40
3.25
100
AcDbArc
 50
180.0
 51
360.0
  0
ARC
  5
535
330
1B
100
AcDbEntity
 67
     1
  8
02___PRT_ALL_AXES
  6
Continuous
 62
     7
100
AcDbCircle
 10
1020.2284497865
 20
288.9501954996
 30
0.0
 40
3.25
100
AcDbArc
 50
0.0
 51
180.0
  0
ARC
  5
536
330
1B
100
AcDbEntity
 67
     1
  8
02___PRT_ALL_AXES
  6
Continuous
 62
     7
100
AcDbCircle
 10
1020.2284497865
 20
288.9501954996
 30
0.0
 40
3.25
100
AcDbArc
 50
180.0
 51
360.0
  0
LINE
  5
537
330
1B
100
AcDbEntity
 67
     1
  8
02___PRT_ALL_AXES
  6
Continuous
 62
     7
100
AcDbLine
 10
1008.4784497865
 20
233.9501954996
 30
0.0
 11
1008.4784497865
 21
239.9501954996
 31
0.0
  0
ARC
  5
538
330
1B
100
AcDbEntity
 67
     1
  8
02___PRT_ALL_AXES
  6
Continuous
 62
     7
100
AcDbCircle
 10
1005.2284497865
 20
239.9501954996
 30
0.0
 40
3.25
100
AcDbArc
 50
0.0
 51
180.0
  0
LINE
  5
539
330
1B
100
AcDbEntity
 67
     1
  8
02___PRT_ALL_AXES
  6
Continuous
 62
     7
100
AcDbLine
 10
1001.9784497865
 20
239.9501954996
 30
0.0
 11
1001.9784497865
 21
233.9501954996
 31
0.0
  0
ARC
  5
53A
330
1B
100
AcDbEntity
 67
     1
  8
02___PRT_ALL_AXES
  6
Continuous
 62
     7
100
AcDbCircle
 10
1005.2284497865
 20
233.9501954996
 30
0.0
 40
3.25
100
AcDbArc
 50
180.0
 51
360.0
  0
ARC
  5
53B
330
1B
100
AcDbEntity
 67
     1
  8
02___PRT_ALL_AXES
  6
Continuous
 62
     7
100
AcDbCircle
 10
990.2284497865
 20
236.9501954996
 30
0.0
 40
3.25
100
AcDbArc
 50
0.0
 51
180.0
  0
ARC
  5
53C
330
1B
100
AcDbEntity
 67
     1
  8
02___PRT_ALL_AXES
  6
Continuous
 62
     7
100
AcDbCircle
 10
990.2284497865
 20
236.9501954996
 30
0.0
 40
3.25
100
AcDbArc
 50
180.0
 51
360.0
  0
ARC
  5
53D
330
1B
100
AcDbEntity
 67
     1
  8
02___PRT_ALL_AXES
  6
Continuous
 62
     7
100
AcDbCircle
 10
1020.2284497865
 20
236.9501954996
 30
0.0
 40
3.25
100
AcDbArc
 50
0.0
 51
180.0
  0
ARC
  5
53E
330
1B
100
AcDbEntity
 67
     1
  8
02___PRT_ALL_AXES
  6
Continuous
 62
     7
100
AcDbCircle
 10
1020.2284497865
 20
236.9501954996
 30
0.0
 40
3.25
100
AcDbArc
 50
180.0
 51
360.0
  0
ARC
  5
53F
330
1B
100
AcDbEntity
 67
     1
  8
7_ALL_FEATURES
  6
Continuous
 62
     7
100
AcDbCircle
 10
993.9784497865
 20
288.9501954996
 30
0.0
 40
10.0
100
AcDbArc
 50
90.0
 51
180.0
  0
LINE
  5
540
330
1B
100
AcDbEntity
 67
     1
  8
7_ALL_FEATURES
  6
Continuous
 62
     7
100
AcDbLine
 10
993.9784497865
 20
298.9501954996
 30
0.0
 11
1016.4784497865
 21
298.9501954996
 31
0.0
  0
ARC
  5
541
330
1B
100
AcDbEntity
 67
     1
  8
7_ALL_FEATURES
  6
Continuous
 62
     7
100
AcDbCircle
 10
1016.4784497865
 20
288.9501954996
 30
0.0
 40
10.0
100
AcDbArc
 50
0.0
 51
90.0
  0
LINE
  5
542
330
1B
100
AcDbEntity
 67
     1
  8
7_ALL_FEATURES
  6
Continuous
 62
     7
100
AcDbLine
 10
1026.4784497865
 20
288.9501954996
 30
0.0
 11
1026.4784497865
 21
274.5001954996
 31
0.0
  0
LINE
  5
543
330
1B
100
AcDbEntity
 67
     1
  8
7_ALL_FEATURES
  6
Continuous
 62
     7
100
AcDbLine
 10
1026.4784497865
 20
251.4001954996
 30
0.0
 11
1026.4784497865
 21
236.9501954996
 31
0.0
  0
ARC
  5
544
330
1B
100
AcDbEntity
 67
     1
  8
7_ALL_FEATURES
  6
Continuous
 62
     7
100
AcDbCircle
 10
1016.4784497865
 20
236.9501954996
 30
0.0
 40
10.0
100
AcDbArc
 50
270.0
 51
360.0
  0
LINE
  5
545
330
1B
100
AcDbEntity
 67
     1
  8
7_ALL_FEATURES
  6
Continuous
 62
     7
100
AcDbLine
 10
1016.4784497865
 20
226.9501954996
 30
0.0
 11
993.9784497865
 21
226.9501954996
 31
0.0
  0
ARC
  5
546
330
1B
100
AcDbEntity
 67
     1
  8
7_ALL_FEATURES
  6
Continuous
 62
     7
100
AcDbCircle
 10
993.9784497865
 20
236.9501954996
 30
0.0
 40
10.0
100
AcDbArc
 50
180.0
 51
270.0
  0
LINE
  5
547
330
1B
100
AcDbEntity
 67
     1
  8
7_ALL_FEATURES
  6
Continuous
 62
     7
100
AcDbLine
 10
983.9784497865
 20
236.9501954996
 30
0.0
 11
983.9784497865
 21
251.4001954996
 31
0.0
  0
LINE
  5
548
330
1B
100
AcDbEntity
 67
     1
  8
7_ALL_FEATURES
  6
Continuous
 62
     7
100
AcDbLine
 10
983.9784497865
 20
274.5001954996
 30
0.0
 11
983.9784497865
 21
288.9501954996
 31
0.0
  0
ARC
  5
549
330
1B
100
AcDbEntity
 67
     1
  8
02___PRT_ALL_AXES
  6
Continuous
 62
     7
100
AcDbCircle
 10
105.2284497865
 20
291.9501954996
 30
0.0
 40
3.25
100
AcDbArc
 50
0.0
 51
180.0
  0
LINE
  5
54A
330
1B
100
AcDbEntity
 67
     1
  8
02___PRT_ALL_AXES
  6
Continuous
 62
     7
100
AcDbLine
 10
101.9784497865
 20
291.9501954996
 30
0.0
 11
101.9784497865
 21
285.9501954996
 31
0.0
  0
ARC
  5
54B
330
1B
100
AcDbEntity
 67
     1
  8
02___PRT_ALL_AXES
  6
Continuous
 62
     7
100
AcDbCircle
 10
105.2284497865
 20
285.9501954996
 30
0.0
 40
3.25
100
AcDbArc
 50
180.0
 51
360.0
  0
LINE
  5
54C
330
1B
100
AcDbEntity
 67
     1
  8
02___PRT_ALL_AXES
  6
Continuous
 62
     7
100
AcDbLine
 10
108.4784497865
 20
285.9501954996
 30
0.0
 11
108.4784497865
 21
291.9501954996
 31
0.0
  0
ARC
  5
54D
330
1B
100
AcDbEntity
 67
     1
  8
02___PRT_ALL_AXES
  6
Continuous
 62
     7
100
AcDbCircle
 10
90.2284497865
 20
288.9501954996
 30
0.0
 40
3.25
100
AcDbArc
 50
0.0
 51
180.0
  0
ARC
  5
54E
330
1B
100
AcDbEntity
 67
     1
  8
02___PRT_ALL_AXES
  6
Continuous
 62
     7
100
AcDbCircle
 10
90.2284497865
 20
288.9501954996
 30
0.0
 40
3.25
100
AcDbArc
 50
180.0
 51
360.0
  0
ARC
  5
54F
330
1B
100
AcDbEntity
 67
     1
  8
02___PRT_ALL_AXES
  6
Continuous
 62
     7
100
AcDbCircle
 10
120.2284497865
 20
288.9501954996
 30
0.0
 40
3.25
100
AcDbArc
 50
0.0
 51
180.0
  0
ARC
  5
550
330
1B
100
AcDbEntity
 67
     1
  8
02___PRT_ALL_AXES
  6
Continuous
 62
     7
100
AcDbCircle
 10
120.2284497865
 20
288.9501954996
 30
0.0
 40
3.25
100
AcDbArc
 50
180.0
 51
360.0
  0
LINE
  5
551
330
1B
100
AcDbEntity
 67
     1
  8
02___PRT_ALL_AXES
  6
Continuous
 62
     7
100
AcDbLine
 10
108.4784497865
 20
233.9501954996
 30
0.0
 11
108.4784497865
 21
239.9501954996
 31
0.0
  0
ARC
  5
552
330
1B
100
AcDbEntity
 67
     1
  8
02___PRT_ALL_AXES
  6
Continuous
 62
     7
100
AcDbCircle
 10
105.2284497865
 20
239.9501954996
 30
0.0
 40
3.25
100
AcDbArc
 50
0.0
 51
180.0
  0
LINE
  5
553
330
1B
100
AcDbEntity
 67
     1
  8
02___PRT_ALL_AXES
  6
Continuous
 62
     7
100
AcDbLine
 10
101.9784497865
 20
239.9501954996
 30
0.0
 11
101.9784497865
 21
233.9501954996
 31
0.0
  0
ARC
  5
554
330
1B
100
AcDbEntity
 67
     1
  8
02___PRT_ALL_AXES
  6
Continuous
 62
     7
100
AcDbCircle
 10
105.2284497865
 20
233.9501954996
 30
0.0
 40
3.25
100
AcDbArc
 50
180.0
 51
360.0
  0
ARC
  5
555
330
1B
100
AcDbEntity
 67
     1
  8
02___PRT_ALL_AXES
  6
Continuous
 62
     7
100
AcDbCircle
 10
90.2284497865
 20
236.9501954996
 30
0.0
 40
3.25
100
AcDbArc
 50
0.0
 51
180.0
  0
ARC
  5
556
330
1B
100
AcDbEntity
 67
     1
  8
02___PRT_ALL_AXES
  6
Continuous
 62
     7
100
AcDbCircle
 10
90.2284497865
 20
236.9501954996
 30
0.0
 40
3.25
100
AcDbArc
 50
180.0
 51
360.0
  0
ARC
  5
557
330
1B
100
AcDbEntity
 67
     1
  8
02___PRT_ALL_AXES
  6
Continuous
 62
     7
100
AcDbCircle
 10
120.2284497865
 20
236.9501954996
 30
0.0
 40
3.25
100
AcDbArc
 50
0.0
 51
180.0
  0
ARC
  5
558
330
1B
100
AcDbEntity
 67
     1
  8
02___PRT_ALL_AXES
  6
Continuous
 62
     7
100
AcDbCircle
 10
120.2284497865
 20
236.9501954996
 30
0.0
 40
3.25
100
AcDbArc
 50
180.0
 51
360.0
  0
ARC
  5
559
330
1B
100
AcDbEntity
 67
     1
  8
7_ALL_FEATURES
  6
Continuous
 62
     7
100
AcDbCircle
 10
93.9784497865
 20
288.9501954996
 30
0.0
 40
10.0
100
AcDbArc
 50
90.0
 51
180.0
  0
LINE
  5
55A
330
1B
100
AcDbEntity
 67
     1
  8
7_ALL_FEATURES
  6
Continuous
 62
     7
100
AcDbLine
 10
93.9784497865
 20
298.9501954996
 30
0.0
 11
116.4784497865
 21
298.9501954996
 31
0.0
  0
ARC
  5
55B
330
1B
100
AcDbEntity
 67
     1
  8
7_ALL_FEATURES
  6
Continuous
 62
     7
100
AcDbCircle
 10
116.4784497865
 20
288.9501954996
 30
0.0
 40
10.0
100
AcDbArc
 50
0.0
 51
90.0
  0
LINE
  5
55C
330
1B
100
AcDbEntity
 67
     1
  8
7_ALL_FEATURES
  6
Continuous
 62
     7
100
AcDbLine
 10
126.4784497865
 20
288.9501954996
 30
0.0
 11
126.4784497865
 21
274.5001954996
 31
0.0
  0
LINE
  5
55D
330
1B
100
AcDbEntity
 67
     1
  8
7_ALL_FEATURES
  6
Continuous
 62
     7
100
AcDbLine
 10
126.4784497865
 20
251.4001954996
 30
0.0
 11
126.4784497865
 21
236.9501954996
 31
0.0
  0
ARC
  5
55E
330
1B
100
AcDbEntity
 67
     1
  8
7_ALL_FEATURES
  6
Continuous
 62
     7
100
AcDbCircle
 10
116.4784497865
 20
236.9501954996
 30
0.0
 40
10.0
100
AcDbArc
 50
270.0
 51
360.0
  0
LINE
  5
55F
330
1B
100
AcDbEntity
 67
     1
  8
7_ALL_FEATURES
  6
Continuous
 62
     7
100
AcDbLine
 10
116.4784497865
 20
226.9501954996
 30
0.0
 11
93.9784497865
 21
226.9501954996
 31
0.0
  0
ARC
  5
560
330
1B
100
AcDbEntity
 67
     1
  8
7_ALL_FEATURES
  6
Continuous
 62
     7
100
AcDbCircle
 10
93.9784497865
 20
236.9501954996
 30
0.0
 40
10.0
100
AcDbArc
 50
180.0
 51
270.0
  0
LINE
  5
561
330
1B
100
AcDbEntity
 67
     1
  8
7_ALL_FEATURES
  6
Continuous
 62
     7
100
AcDbLine
 10
83.9784497865
 20
236.9501954996
 30
0.0
 11
83.9784497865
 21
251.4001954996
 31
0.0
  0
LINE
  5
562
330
1B
100
AcDbEntity
 67
     1
  8
7_ALL_FEATURES
  6
Continuous
 62
     7
100
AcDbLine
 10
83.9784497865
 20
274.5001954996
 30
0.0
 11
83.9784497865
 21
288.9501954996
 31
0.0
  0
ARC
  5
563
330
1B
100
AcDbEntity
 67
     1
  8
02___PRT_ALL_AXES
  6
Continuous
 62
     7
100
AcDbCircle
 10
555.2284497865
 20
291.9501954996
 30
0.0
 40
3.25
100
AcDbArc
 50
0.0
 51
180.0
  0
LINE
  5
564
330
1B
100
AcDbEntity
 67
     1
  8
02___PRT_ALL_AXES
  6
Continuous
 62
     7
100
AcDbLine
 10
551.9784497865
 20
291.9501954996
 30
0.0
 11
551.9784497865
 21
285.9501954996
 31
0.0
  0
ARC
  5
565
330
1B
100
AcDbEntity
 67
     1
  8
02___PRT_ALL_AXES
  6
Continuous
 62
     7
100
AcDbCircle
 10
555.2284497865
 20
285.9501954996
 30
0.0
 40
3.25
100
AcDbArc
 50
180.0
 51
360.0
  0
LINE
  5
566
330
1B
100
AcDbEntity
 67
     1
  8
02___PRT_ALL_AXES
  6
Continuous
 62
     7
100
AcDbLine
 10
558.4784497865
 20
285.9501954996
 30
0.0
 11
558.4784497865
 21
291.9501954996
 31
0.0
  0
ARC
  5
567
330
1B
100
AcDbEntity
 67
     1
  8
02___PRT_ALL_AXES
  6
Continuous
 62
     7
100
AcDbCircle
 10
540.2284497865
 20
288.9501954996
 30
0.0
 40
3.25
100
AcDbArc
 50
0.0
 51
180.0
  0
ARC
  5
568
330
1B
100
AcDbEntity
 67
     1
  8
02___PRT_ALL_AXES
  6
Continuous
 62
     7
100
AcDbCircle
 10
540.2284497865
 20
288.9501954996
 30
0.0
 40
3.25
100
AcDbArc
 50
180.0
 51
360.0
  0
ARC
  5
569
330
1B
100
AcDbEntity
 67
     1
  8
02___PRT_ALL_AXES
  6
Continuous
 62
     7
100
AcDbCircle
 10
570.2284497865
 20
288.9501954996
 30
0.0
 40
3.25
100
AcDbArc
 50
0.0
 51
180.0
  0
ARC
  5
56A
330
1B
100
AcDbEntity
 67
     1
  8
02___PRT_ALL_AXES
  6
Continuous
 62
     7
100
AcDbCircle
 10
570.2284497865
 20
288.9501954996
 30
0.0
 40
3.25
100
AcDbArc
 50
180.0
 51
360.0
  0
LINE
  5
56B
330
1B
100
AcDbEntity
 67
     1
  8
02___PRT_ALL_AXES
  6
Continuous
 62
     7
100
AcDbLine
 10
558.4784497865
 20
233.9501954996
 30
0.0
 11
558.4784497865
 21
239.9501954996
 31
0.0
  0
ARC
  5
56C
330
1B
100
AcDbEntity
 67
     1
  8
02___PRT_ALL_AXES
  6
Continuous
 62
     7
100
AcDbCircle
 10
555.2284497865
 20
239.9501954996
 30
0.0
 40
3.25
100
AcDbArc
 50
0.0
 51
180.0
  0
LINE
  5
56D
330
1B
100
AcDbEntity
 67
     1
  8
02___PRT_ALL_AXES
  6
Continuous
 62
     7
100
AcDbLine
 10
551.9784497865
 20
239.9501954996
 30
0.0
 11
551.9784497865
 21
233.9501954996
 31
0.0
  0
ARC
  5
56E
330
1B
100
AcDbEntity
 67
     1
  8
02___PRT_ALL_AXES
  6
Continuous
 62
     7
100
AcDbCircle
 10
555.2284497865
 20
233.9501954996
 30
0.0
 40
3.25
100
AcDbArc
 50
180.0
 51
360.0
  0
ARC
  5
56F
330
1B
100
AcDbEntity
 67
     1
  8
02___PRT_ALL_AXES
  6
Continuous
 62
     7
100
AcDbCircle
 10
540.2284497865
 20
236.9501954996
 30
0.0
 40
3.25
100
AcDbArc
 50
0.0
 51
180.0
  0
ARC
  5
570
330
1B
100
AcDbEntity
 67
     1
  8
02___PRT_ALL_AXES
  6
Continuous
 62
     7
100
AcDbCircle
 10
540.2284497865
 20
236.9501954996
 30
0.0
 40
3.25
100
AcDbArc
 50
180.0
 51
360.0
  0
ARC
  5
571
330
1B
100
AcDbEntity
 67
     1
  8
02___PRT_ALL_AXES
  6
Continuous
 62
     7
100
AcDbCircle
 10
570.2284497865
 20
236.9501954996
 30
0.0
 40
3.25
100
AcDbArc
 50
0.0
 51
180.0
  0
ARC
  5
572
330
1B
100
AcDbEntity
 67
     1
  8
02___PRT_ALL_AXES
  6
Continuous
 62
     7
100
AcDbCircle
 10
570.2284497865
 20
236.9501954996
 30
0.0
 40
3.25
100
AcDbArc
 50
180.0
 51
360.0
  0
ARC
  5
573
330
1B
100
AcDbEntity
 67
     1
  8
7_ALL_FEATURES
  6
Continuous
 62
     7
100
AcDbCircle
 10
543.9784497865
 20
288.9501954996
 30
0.0
 40
10.0
100
AcDbArc
 50
90.0
 51
180.0
  0
LINE
  5
574
330
1B
100
AcDbEntity
 67
     1
  8
7_ALL_FEATURES
  6
Continuous
 62
     7
100
AcDbLine
 10
543.9784497865
 20
298.9501954996
 30
0.0
 11
566.4784497865
 21
298.9501954996
 31
0.0
  0
ARC
  5
575
330
1B
100
AcDbEntity
 67
     1
  8
7_ALL_FEATURES
  6
Continuous
 62
     7
100
AcDbCircle
 10
566.4784497865
 20
288.9501954996
 30
0.0
 40
10.0
100
AcDbArc
 50
0.0
 51
90.0
  0
LINE
  5
576
330
1B
100
AcDbEntity
 67
     1
  8
7_ALL_FEATURES
  6
Continuous
 62
     7
100
AcDbLine
 10
576.4784497865
 20
288.9501954996
 30
0.0
 11
576.4784497865
 21
274.5001954996
 31
0.0
  0
LINE
  5
577
330
1B
100
AcDbEntity
 67
     1
  8
7_ALL_FEATURES
  6
Continuous
 62
     7
100
AcDbLine
 10
576.4784497865
 20
251.4001954996
 30
0.0
 11
576.4784497865
 21
236.9501954996
 31
0.0
  0
ARC
  5
578
330
1B
100
AcDbEntity
 67
     1
  8
7_ALL_FEATURES
  6
Continuous
 62
     7
100
AcDbCircle
 10
566.4784497865
 20
236.9501954996
 30
0.0
 40
10.0
100
AcDbArc
 50
270.0
 51
360.0
  0
LINE
  5
579
330
1B
100
AcDbEntity
 67
     1
  8
7_ALL_FEATURES
  6
Continuous
 62
     7
100
AcDbLine
 10
566.4784497865
 20
226.9501954996
 30
0.0
 11
543.9784497865
 21
226.9501954996
 31
0.0
  0
ARC
  5
57A
330
1B
100
AcDbEntity
 67
     1
  8
7_ALL_FEATURES
  6
Continuous
 62
     7
100
AcDbCircle
 10
543.9784497865
 20
236.9501954996
 30
0.0
 40
10.0
100
AcDbArc
 50
180.0
 51
270.0
  0
LINE
  5
57B
330
1B
100
AcDbEntity
 67
     1
  8
7_ALL_FEATURES
  6
Continuous
 62
     7
100
AcDbLine
 10
533.9784497865
 20
236.9501954996
 30
0.0
 11
533.9784497865
 21
251.4001954996
 31
0.0
  0
LINE
  5
57C
330
1B
100
AcDbEntity
 67
     1
  8
7_ALL_FEATURES
  6
Continuous
 62
     7
100
AcDbLine
 10
533.9784497865
 20
274.5001954996
 30
0.0
 11
533.9784497865
 21
288.9501954996
 31
0.0
  0
LINE
  5
57D
330
1B
100
AcDbEntity
 67
     1
  8
7_ALL_FEATURES
  6
Continuous
 62
     7
100
AcDbLine
 10
49.7284497865
 20
273.3001954996
 30
0.0
 11
1060.7284497865
 21
273.3001954996
 31
0.0
  0
LINE
  5
57E
330
1B
100
AcDbEntity
 67
     1
  8
7_ALL_FEATURES
  6
Continuous
 62
     7
100
AcDbLine
 10
1060.7284497865
 20
252.6001954996
 30
0.0
 11
49.7284497865
 21
252.6001954996
 31
0.0
  0
LINE
  5
57F
330
1B
100
AcDbEntity
 67
     1
  8
7_ALL_FEATURES
  6
Continuous
 62
     7
100
AcDbLine
 10
49.7284497865
 20
274.5001954996
 30
0.0
 11
49.7284497865
 21
274.0001954996
 31
0.0
  0
LINE
  5
580
330
1B
100
AcDbEntity
 67
     1
  8
7_ALL_FEATURES
  6
Continuous
 62
     7
100
AcDbLine
 10
49.7284497865
 20
274.0001954996
 30
0.0
 11
49.7284497865
 21
273.3001954996
 31
0.0
  0
LINE
  5
581
330
1B
100
AcDbEntity
 67
     1
  8
7_ALL_FEATURES
  6
Continuous
 62
     7
100
AcDbLine
 10
1060.7284497865
 20
274.5001954996
 30
0.0
 11
1060.7284497865
 21
274.0001954996
 31
0.0
  0
LINE
  5
582
330
1B
100
AcDbEntity
 67
     1
  8
7_ALL_FEATURES
  6
Continuous
 62
     7
100
AcDbLine
 10
1060.7284497865
 20
274.0001954996
 30
0.0
 11
1060.7284497865
 21
273.3001954996
 31
0.0
  0
LINE
  5
583
330
1B
100
AcDbEntity
 67
     1
  8
7_ALL_FEATURES
  6
Continuous
 62
     7
100
AcDbLine
 10
1060.7284497865
 20
251.4001954996
 30
0.0
 11
1060.7284497865
 21
251.9001954996
 31
0.0
  0
LINE
  5
584
330
1B
100
AcDbEntity
 67
     1
  8
7_ALL_FEATURES
  6
Continuous
 62
     7
100
AcDbLine
 10
1060.7284497865
 20
251.9001954996
 30
0.0
 11
1060.7284497865
 21
252.6001954996
 31
0.0
  0
LINE
  5
585
330
1B
100
AcDbEntity
 67
     1
  8
7_ALL_FEATURES
  6
Continuous
 62
     7
100
AcDbLine
 10
49.7284497865
 20
251.4001954996
 30
0.0
 11
49.7284497865
 21
251.9001954996
 31
0.0
  0
LINE
  5
586
330
1B
100
AcDbEntity
 67
     1
  8
7_ALL_FEATURES
  6
Continuous
 62
     7
100
AcDbLine
 10
49.7284497865
 20
251.9001954996
 30
0.0
 11
49.7284497865
 21
252.6001954996
 31
0.0
  0
LINE
  5
587
330
1B
100
AcDbEntity
 67
     1
  8
7_ALL_FEATURES
  6
Continuous
 62
     9
100
AcDbLine
 10
1060.7284497865
 20
272.1001954996
 30
0.0
 11
1060.2284497865
 21
272.1001954996
 31
0.0
  0
LINE
  5
588
330
1B
100
AcDbEntity
 67
     1
  8
7_ALL_FEATURES
  6
Continuous
 62
     9
100
AcDbLine
 10
50.2284497865
 20
272.1001954996
 30
0.0
 11
49.7284497865
 21
272.1001954996
 31
0.0
  0
LINE
  5
589
330
1B
100
AcDbEntity
 67
     1
  8
7_ALL_FEATURES
  6
Continuous
 62
     9
100
AcDbLine
 10
1060.7284497865
 20
253.8001954996
 30
0.0
 11
1060.2284497865
 21
253.8001954996
 31
0.0
  0
LINE
  5
58A
330
1B
100
AcDbEntity
 67
     1
  8
7_ALL_FEATURES
  6
Continuous
 62
     9
100
AcDbLine
 10
50.2284497865
 20
253.8001954996
 30
0.0
 11
49.7284497865
 21
253.8001954996
 31
0.0
  0
LINE
  5
58B
330
1B
100
AcDbEntity
 67
     1
  8
7_ALL_FEATURES
  6
Continuous
 62
     3
100
AcDbLine
 10
1060.7284497865
 20
251.9001954996
 30
0.0
 11
1060.7284497865
 21
252.6001954996
 31
0.0
  0
LINE
  5
58C
330
1B
100
AcDbEntity
 67
     1
  8
7_ALL_FEATURES
  6
Continuous
 62
     3
100
AcDbLine
 10
1060.7284497865
 20
252.6001954996
 30
0.0
 11
1060.7284497865
 21
273.3001954996
 31
0.0
  0
LINE
  5
58D
330
1B
100
AcDbEntity
 67
     1
  8
7_ALL_FEATURES
  6
Continuous
 62
     3
100
AcDbLine
 10
1060.7284497865
 20
273.3001954996
 30
0.0
 11
1060.7284497865
 21
274.0001954996
 31
0.0
  0
LINE
  5
58E
330
1B
100
AcDbEntity
 67
     1
  8
7_ALL_FEATURES
  6
Continuous
 62
     3
100
AcDbLine
 10
1053.2284497865
 20
274.8001954996
 30
0.0
 11
1049.2284497865
 21
274.8001954996
 31
0.0
  0
LINE
  5
58F
330
1B
100
AcDbEntity
 67
     1
  8
7_ALL_FEATURES
  6
Continuous
 62
     3
100
AcDbLine
 10
1053.2284497865
 20
274.8001954996
 30
0.0
 11
1059.7284497865
 21
274.8001954996
 31
0.0
  0
ARC
  5
590
330
1B
100
AcDbEntity
 67
     1
  8
7_ALL_FEATURES
  6
Continuous
 62
     3
100
AcDbCircle
 10
1059.7284497865
 20
273.8001954996
 30
0.0
 40
1.0
100
AcDbArc
 50
44.43015294769999
 51
90.0
  0
LINE
  5
591
330
1B
100
AcDbEntity
 67
     1
  8
7_ALL_FEATURES
  6
Continuous
 62
     3
100
AcDbLine
 10
1049.2284497865
 20
251.1001954996
 30
0.0
 11
1053.2284497865
 21
251.1001954996
 31
0.0
  0
LINE
  5
592
330
1B
100
AcDbEntity
 67
     1
  8
7_ALL_FEATURES
  6
Continuous
 62
     3
100
AcDbLine
 10
1059.7284497865
 20
251.1001954996
 30
0.0
 11
1053.2284497865
 21
251.1001954996
 31
0.0
  0
ARC
  5
593
330
1B
100
AcDbEntity
 67
     1
  8
7_ALL_FEATURES
  6
Continuous
 62
     3
100
AcDbCircle
 10
1059.7284497865
 20
252.1001954996
 30
0.0
 40
1.0
100
AcDbArc
 50
270.0
 51
315.5698470523
  0
LINE
  5
594
330
1B
100
AcDbEntity
 67
     1
  8
7_ALL_FEATURES
  6
Continuous
 62
     3
100
AcDbLine
 10
49.7284497865
 20
274.0001954996
 30
0.0
 11
49.7284497865
 21
273.3001954996
 31
0.0
  0
LINE
  5
595
330
1B
100
AcDbEntity
 67
     1
  8
7_ALL_FEATURES
  6
Continuous
 62
     3
100
AcDbLine
 10
49.7284497865
 20
273.3001954996
 30
0.0
 11
49.7284497865
 21
252.6001954996
 31
0.0
  0
LINE
  5
596
330
1B
100
AcDbEntity
 67
     1
  8
7_ALL_FEATURES
  6
Continuous
 62
     3
100
AcDbLine
 10
49.7284497865
 20
252.6001954996
 30
0.0
 11
49.7284497865
 21
251.9001954996
 31
0.0
  0
LINE
  5
597
330
1B
100
AcDbEntity
 67
     1
  8
7_ALL_FEATURES
  6
Continuous
 62
     3
100
AcDbLine
 10
57.2284497865
 20
251.1001954996
 30
0.0
 11
61.2284497865
 21
251.1001954996
 31
0.0
  0
LINE
  5
598
330
1B
100
AcDbEntity
 67
     1
  8
7_ALL_FEATURES
  6
Continuous
 62
     3
100
AcDbLine
 10
57.2284497865
 20
251.1001954996
 30
0.0
 11
50.7284497865
 21
251.1001954996
 31
0.0
  0
ARC
  5
599
330
1B
100
AcDbEntity
 67
     1
  8
7_ALL_FEATURES
  6
Continuous
 62
     3
100
AcDbCircle
 10
50.7284497865
 20
252.1001954996
 30
0.0
 40
1.0
100
AcDbArc
 50
224.4301529477
 51
270.0
  0
LINE
  5
59A
330
1B
100
AcDbEntity
 67
     1
  8
7_ALL_FEATURES
  6
Continuous
 62
     3
100
AcDbLine
 10
61.2284497865
 20
274.8001954996
 30
0.0
 11
57.2284497865
 21
274.8001954996
 31
0.0
  0
LINE
  5
59B
330
1B
100
AcDbEntity
 67
     1
  8
7_ALL_FEATURES
  6
Continuous
 62
     3
100
AcDbLine
 10
50.7284497865
 20
274.8001954996
 30
0.0
 11
57.2284497865
 21
274.8001954996
 31
0.0
  0
ARC
  5
59C
330
1B
100
AcDbEntity
 67
     1
  8
7_ALL_FEATURES
  6
Continuous
 62
     3
100
AcDbCircle
 10
50.7284497865
 20
273.8001954996
 30
0.0
 40
1.0
100
AcDbArc
 50
90.0
 51
135.5698470523
  0
LINE
  5
59D
330
1B
100
AcDbEntity
 67
     1
  8
7_ALL_FEATURES
  6
Continuous
 62
     3
100
AcDbLine
 10
50.2284497865
 20
272.3075591231
 30
0.0
 11
50.2284497865
 21
253.5928318762
 31
0.0
  0
LINE
  5
59E
330
1B
100
AcDbEntity
 67
     1
  8
7_ALL_FEATURES
  6
Continuous
 62
     3
100
AcDbLine
 10
1060.2284497865
 20
253.5928318762
 30
0.0
 11
1060.2284497865
 21
272.3075591231
 31
0.0
  0
ARC
  5
59F
330
1B
100
AcDbEntity
 67
     1
  8
02___PRT_ALL_AXES
  6
Continuous
 62
     3
100
AcDbCircle
 10
1050.2284497865
 20
262.9501954996
 30
0.0
 40
2.5
100
AcDbArc
 50
0.0
 51
180.0
  0
ARC
  5
5A0
330
1B
100
AcDbEntity
 67
     1
  8
02___PRT_ALL_AXES
  6
Continuous
 62
     3
100
AcDbCircle
 10
1050.2284497865
 20
262.9501954996
 30
0.0
 40
2.5
100
AcDbArc
 50
180.0
 51
360.0
  0
ARC
  5
5A1
330
1B
100
AcDbEntity
 67
     1
  8
02___PRT_ALL_AXES
  6
Continuous
 62
     3
100
AcDbCircle
 10
60.2284497865
 20
262.9501954996
 30
0.0
 40
2.5
100
AcDbArc
 50
180.0
 51
360.0
  0
ARC
  5
5A2
330
1B
100
AcDbEntity
 67
     1
  8
02___PRT_ALL_AXES
  6
Continuous
 62
     3
100
AcDbCircle
 10
60.2284497865
 20
262.9501954996
 30
0.0
 40
2.5
100
AcDbArc
 50
0.0
 51
180.0
  0
LINE
  5
5A3
330
1B
100
AcDbEntity
 67
     1
  8
7_ALL_FEATURES
  6
Continuous
 62
     3
100
AcDbLine
 10
1060.2284497865
 20
273.3001954996
 30
0.0
 11
1060.2284497865
 21
272.8635143652
 31
0.0
  0
LINE
  5
5A4
330
1B
100
AcDbEntity
 67
     1
  8
7_ALL_FEATURES
  6
Continuous
 62
     3
100
AcDbLine
 10
1060.2284497865
 20
272.8635143652
 30
0.0
 11
1060.2284497865
 21
272.7466483728
 31
0.0
  0
LINE
  5
5A5
330
1B
100
AcDbEntity
 67
     1
  8
7_ALL_FEATURES
  6
Continuous
 62
     3
100
AcDbLine
 10
1060.2284497865
 20
272.7466483728
 30
0.0
 11
1060.2284497865
 21
272.3075591231
 31
0.0
  0
LINE
  5
5A6
330
1B
100
AcDbEntity
 67
     1
  8
7_ALL_FEATURES
  6
Continuous
 62
     3
100
AcDbLine
 10
50.2284497865
 20
273.3001954996
 30
0.0
 11
50.2284497865
 21
273.076706345
 31
0.0
  0
LINE
  5
5A7
330
1B
100
AcDbEntity
 67
     1
  8
7_ALL_FEATURES
  6
Continuous
 62
     3
100
AcDbLine
 10
50.2284497865
 20
273.076706345
 30
0.0
 11
50.2284497865
 21
272.8635143652
 31
0.0
  0
LINE
  5
5A8
330
1B
100
AcDbEntity
 67
     1
  8
7_ALL_FEATURES
  6
Continuous
 62
     3
100
AcDbLine
 10
50.2284497865
 20
272.8635143652
 30
0.0
 11
50.2284497865
 21
272.7466483728
 31
0.0
  0
LINE
  5
5A9
330
1B
100
AcDbEntity
 67
     1
  8
7_ALL_FEATURES
  6
Continuous
 62
     3
100
AcDbLine
 10
50.2284497865
 20
272.7466483728
 30
0.0
 11
50.2284497865
 21
272.3075591231
 31
0.0
  0
LINE
  5
5AA
330
1B
100
AcDbEntity
 67
     1
  8
7_ALL_FEATURES
  6
Continuous
 62
     3
100
AcDbLine
 10
50.2284497865
 20
252.6001954996
 30
0.0
 11
50.2284497865
 21
253.036876634
 31
0.0
  0
LINE
  5
5AB
330
1B
100
AcDbEntity
 67
     1
  8
7_ALL_FEATURES
  6
Continuous
 62
     3
100
AcDbLine
 10
50.2284497865
 20
253.036876634
 30
0.0
 11
50.2284497865
 21
253.1537426265
 31
0.0
  0
LINE
  5
5AC
330
1B
100
AcDbEntity
 67
     1
  8
7_ALL_FEATURES
  6
Continuous
 62
     3
100
AcDbLine
 10
50.2284497865
 20
253.1537426265
 30
0.0
 11
50.2284497865
 21
253.5928318762
 31
0.0
  0
LINE
  5
5AD
330
1B
100
AcDbEntity
 67
     1
  8
7_ALL_FEATURES
  6
Continuous
 62
     3
100
AcDbLine
 10
1060.2284497865
 20
252.6001954996
 30
0.0
 11
1060.2284497865
 21
252.8236846543
 31
0.0
  0
LINE
  5
5AE
330
1B
100
AcDbEntity
 67
     1
  8
7_ALL_FEATURES
  6
Continuous
 62
     3
100
AcDbLine
 10
1060.2284497865
 20
252.8236846543
 30
0.0
 11
1060.2284497865
 21
253.036876634
 31
0.0
  0
LINE
  5
5AF
330
1B
100
AcDbEntity
 67
     1
  8
7_ALL_FEATURES
  6
Continuous
 62
     3
100
AcDbLine
 10
1060.2284497865
 20
253.036876634
 30
0.0
 11
1060.2284497865
 21
253.1537426265
 31
0.0
  0
LINE
  5
5B0
330
1B
100
AcDbEntity
 67
     1
  8
7_ALL_FEATURES
  6
Continuous
 62
     3
100
AcDbLine
 10
1060.2284497865
 20
253.1537426265
 30
0.0
 11
1060.2284497865
 21
253.5928318762
 31
0.0
  0
LINE
  5
5B1
330
1B
100
AcDbEntity
 67
     1
  8
7_ALL_FEATURES
  6
Continuous
 62
     9
100
AcDbLine
 10
1060.2284497865
 20
253.5928318762
 30
0.0
 11
50.2284497865
 21
253.5928318762
 31
0.0
  0
LINE
  5
5B2
330
1B
100
AcDbEntity
 67
     1
  8
7_ALL_FEATURES
  6
Continuous
 62
     9
100
AcDbLine
 10
50.2284497865
 20
272.3075591231
 30
0.0
 11
1060.2284497865
 21
272.3075591231
 31
0.0
  0
LINE
  5
5B3
330
1B
100
AcDbEntity
 67
     1
  8
7_ALL_FEATURES
  6
Continuous
 62
     3
100
AcDbLine
 10
1060.7284497865
 20
251.4001954996
 30
0.0
 11
49.7284497865
 21
251.4001954996
 31
0.0
  0
LINE
  5
5B4
330
1B
100
AcDbEntity
 67
     1
  8
7_ALL_FEATURES
  6
Continuous
 62
     3
100
AcDbLine
 10
49.7284497865
 20
274.5001954996
 30
0.0
 11
1060.7284497865
 21
274.5001954996
 31
0.0
  0
LINE
  5
5B5
330
1B
100
AcDbEntity
 67
     1
  8
3_ALL_AXES
  6
Continuous
 62
     7
100
AcDbLine
 10
1128.0522439081
 20
394.3832745998
 30
0.0
 11
1128.0522439081
 21
395.0891447703
 31
0.0
  0
ARC
  5
5B6
330
1B
100
AcDbEntity
 67
     1
  8
3_ALL_AXES
  6
Continuous
 62
     7
100
AcDbCircle
 10
1125.1522439081
 20
401.8391447703
 30
0.0
 40
8.0
100
AcDbArc
 50
270.0
 51
291.2538091854
  0
LINE
  5
5B7
330
1B
100
AcDbEntity
 67
     1
  8
3_ALL_AXES
  6
Continuous
 62
     7
100
AcDbLine
 10
1122.2522439081
 20
394.3832745998
 30
0.0
 11
1122.2522439081
 21
395.0891447703
 31
0.0
  0
ARC
  5
5B8
330
1B
100
AcDbEntity
 67
     1
  8
3_ALL_AXES
  6
Continuous
 62
     7
100
AcDbCircle
 10
1125.1522439081
 20
401.8391447703
 30
0.0
 40
8.0
100
AcDbArc
 50
248.7461908146
 51
270.0
  0
LINE
  5
5B9
330
1B
100
AcDbEntity
 67
     1
  8
3_ALL_AXES
  6
Continuous
 62
     7
100
AcDbLine
 10
1125.1522439081
 20
394.3832745998
 30
0.0
 11
1128.0522439081
 21
394.3832745998
 31
0.0
  0
LINE
  5
5BA
330
1B
100
AcDbEntity
 67
     1
  8
3_ALL_AXES
  6
Continuous
 62
     7
100
AcDbLine
 10
1125.1522439081
 20
394.3832745998
 30
0.0
 11
1122.2522439081
 21
394.3832745998
 31
0.0
  0
LINE
  5
5BB
330
1B
100
AcDbEntity
 67
     1
  8
3_ALL_AXES
  6
Continuous
 62
     7
100
AcDbLine
 10
1138.0522439081
 20
394.3832745998
 30
0.0
 11
1138.0522439081
 21
395.0891447703
 31
0.0
  0
ARC
  5
5BC
330
1B
100
AcDbEntity
 67
     1
  8
3_ALL_AXES
  6
Continuous
 62
     7
100
AcDbCircle
 10
1135.1522439081
 20
401.8391447703
 30
0.0
 40
8.0
100
AcDbArc
 50
270.0
 51
291.2538091854
  0
LINE
  5
5BD
330
1B
100
AcDbEntity
 67
     1
  8
3_ALL_AXES
  6
Continuous
 62
     7
100
AcDbLine
 10
1132.2522439081
 20
394.3832745998
 30
0.0
 11
1132.2522439081
 21
395.0891447703
 31
0.0
  0
ARC
  5
5BE
330
1B
100
AcDbEntity
 67
     1
  8
3_ALL_AXES
  6
Continuous
 62
     7
100
AcDbCircle
 10
1135.1522439081
 20
401.8391447703
 30
0.0
 40
8.0
100
AcDbArc
 50
248.7461908146
 51
270.0
  0
LINE
  5
5BF
330
1B
100
AcDbEntity
 67
     1
  8
3_ALL_AXES
  6
Continuous
 62
     7
100
AcDbLine
 10
1135.1522439081
 20
394.3832745998
 30
0.0
 11
1138.0522439081
 21
394.3832745998
 31
0.0
  0
LINE
  5
5C0
330
1B
100
AcDbEntity
 67
     1
  8
3_ALL_AXES
  6
Continuous
 62
     7
100
AcDbLine
 10
1135.1522439081
 20
394.3832745998
 30
0.0
 11
1132.2522439081
 21
394.3832745998
 31
0.0
  0
LINE
  5
5C1
330
1B
100
AcDbEntity
 67
     1
  8
3_ALL_AXES
  6
Continuous
 62
     7
100
AcDbLine
 10
1117.8963737375
 20
446.7891447703
 30
0.0
 11
1118.6022439081
 21
446.7891447703
 31
0.0
  0
ARC
  5
5C2
330
1B
100
AcDbEntity
 67
     1
  8
3_ALL_AXES
  6
Continuous
 62
     7
100
AcDbCircle
 10
1125.3522439081
 20
443.8891447703
 30
0.0
 40
8.0
100
AcDbArc
 50
158.7461908146
 51
173.5398616628
  0
LINE
  5
5C3
330
1B
100
AcDbEntity
 67
     1
  8
3_ALL_AXES
  6
Continuous
 62
     7
100
AcDbLine
 10
1117.8963737375
 20
446.7891447703
 30
0.0
 11
1117.8963737375
 21
444.7891447703
 31
0.0
  0
LINE
  5
5C4
330
1B
100
AcDbEntity
 67
     1
  8
3_ALL_AXES
  6
Continuous
 62
     7
100
AcDbLine
 10
1142.4081140786
 20
446.7891447703
 30
0.0
 11
1141.7022439081
 21
446.7891447703
 31
0.0
  0
ARC
  5
5C5
330
1B
100
AcDbEntity
 67
     1
  8
3_ALL_AXES
  6
Continuous
 62
     7
100
AcDbCircle
 10
1134.9522439081
 20
443.8891447703
 30
0.0
 40
8.0
100
AcDbArc
 50
6.4601383372
 51
21.2538091854
  0
LINE
  5
5C6
330
1B
100
AcDbEntity
 67
     1
  8
3_ALL_AXES
  6
Continuous
 62
     7
100
AcDbLine
 10
1142.4081140786
 20
444.7891447703
 30
0.0
 11
1142.4081140786
 21
446.7891447703
 31
0.0
  0
LINE
  5
5C7
330
1B
100
AcDbEntity
 67
     1
  8
3_ALL_AXES
  6
Continuous
 62
     7
100
AcDbLine
 10
1115.1022439081
 20
405.2891447703
 30
0.0
 11
1115.1022439081
 21
407.2541104249
 31
0.0
  0
LINE
  5
5C8
330
1B
100
AcDbEntity
 67
     1
  8
3_ALL_AXES
  6
Continuous
 62
     7
100
AcDbLine
 10
1115.1022439081
 20
405.2891447703
 30
0.0
 11
1115.1022439081
 21
403.3241791158
 31
0.0
  0
ARC
  5
5C9
330
1B
100
AcDbEntity
 67
     1
  8
3_ALL_AXES
  6
Continuous
 62
     7
100
AcDbCircle
 10
1118.7748839997
 20
405.4315875677
 30
0.0
 40
4.1
100
AcDbArc
 50
116.8633031301
 51
153.6069742257
  0
LINE
  5
5CA
330
1B
100
AcDbEntity
 67
     1
  8
3_ALL_AXES
  6
Continuous
 62
     7
100
AcDbLine
 10
1117.3022439081
 20
409.0891447703
 30
0.0
 11
1116.9222439081
 21
409.0891447703
 31
0.0
  0
ARC
  5
5CB
330
1B
100
AcDbEntity
 67
     1
  8
3_ALL_AXES
  6
Continuous
 62
     7
100
AcDbCircle
 10
1118.7748839997
 20
405.146701973
 30
0.0
 40
4.1
100
AcDbArc
 50
206.3930257743
 51
243.1366968699
  0
LINE
  5
5CC
330
1B
100
AcDbEntity
 67
     1
  8
3_ALL_AXES
  6
Continuous
 62
     7
100
AcDbLine
 10
1117.3022439081
 20
401.4891447703
 30
0.0
 11
1116.9222439081
 21
401.4891447703
 31
0.0
  0
LINE
  5
5CD
330
1B
100
AcDbEntity
 67
     1
  8
3_ALL_AXES
  6
Continuous
 62
     7
100
AcDbLine
 10
1116.9222439081
 20
405.2891447703
 30
0.0
 11
1116.9222439081
 21
409.0891447703
 31
0.0
  0
LINE
  5
5CE
330
1B
100
AcDbEntity
 67
     1
  8
3_ALL_AXES
  6
Continuous
 62
     7
100
AcDbLine
 10
1116.9222439081
 20
405.2891447703
 30
0.0
 11
1116.9222439081
 21
401.4891447703
 31
0.0
  0
LINE
  5
5CF
330
1B
100
AcDbEntity
 67
     1
  8
3_ALL_AXES
  6
Continuous
 62
     7
100
AcDbLine
 10
1115.1022439081
 20
440.2891447703
 30
0.0
 11
1115.1022439081
 21
442.2541104249
 31
0.0
  0
LINE
  5
5D0
330
1B
100
AcDbEntity
 67
     1
  8
3_ALL_AXES
  6
Continuous
 62
     7
100
AcDbLine
 10
1115.1022439081
 20
440.2891447703
 30
0.0
 11
1115.1022439081
 21
438.3241791158
 31
0.0
  0
ARC
  5
5D1
330
1B
100
AcDbEntity
 67
     1
  8
3_ALL_AXES
  6
Continuous
 62
     7
100
AcDbCircle
 10
1118.7748839997
 20
440.4315875677
 30
0.0
 40
4.1
100
AcDbArc
 50
116.8633031301
 51
153.6069742257
  0
LINE
  5
5D2
330
1B
100
AcDbEntity
 67
     1
  8
3_ALL_AXES
  6
Continuous
 62
     7
100
AcDbLine
 10
1117.3022439081
 20
444.0891447703
 30
0.0
 11
1116.9222439081
 21
444.0891447703
 31
0.0
  0
ARC
  5
5D3
330
1B
100
AcDbEntity
 67
     1
  8
3_ALL_AXES
  6
Continuous
 62
     7
100
AcDbCircle
 10
1118.7748839997
 20
440.146701973
 30
0.0
 40
4.1
100
AcDbArc
 50
206.3930257743
 51
243.1366968699
  0
LINE
  5
5D4
330
1B
100
AcDbEntity
 67
     1
  8
3_ALL_AXES
  6
Continuous
 62
     7
100
AcDbLine
 10
1117.3022439081
 20
436.4891447703
 30
0.0
 11
1116.9222439081
 21
436.4891447703
 31
0.0
  0
LINE
  5
5D5
330
1B
100
AcDbEntity
 67
     1
  8
3_ALL_AXES
  6
Continuous
 62
     7
100
AcDbLine
 10
1116.9222439081
 20
440.2891447703
 30
0.0
 11
1116.9222439081
 21
444.0891447703
 31
0.0
  0
LINE
  5
5D6
330
1B
100
AcDbEntity
 67
     1
  8
3_ALL_AXES
  6
Continuous
 62
     7
100
AcDbLine
 10
1116.9222439081
 20
440.2891447703
 30
0.0
 11
1116.9222439081
 21
436.4891447703
 31
0.0
  0
ARC
  5
5D7
330
1B
100
AcDbEntity
 67
     1
  8
3_ALL_AXES
  6
Continuous
 62
     7
100
AcDbCircle
 10
1141.5296038164
 20
440.4315875677
 30
0.0
 40
4.1
100
AcDbArc
 50
26.3930257743
 51
63.13669686989999
  0
LINE
  5
5D8
330
1B
100
AcDbEntity
 67
     1
  8
3_ALL_AXES
  6
Continuous
 62
     7
100
AcDbLine
 10
1145.2022439081
 20
442.2541104249
 30
0.0
 11
1145.2022439081
 21
440.2891447703
 31
0.0
  0
LINE
  5
5D9
330
1B
100
AcDbEntity
 67
     1
  8
3_ALL_AXES
  6
Continuous
 62
     7
100
AcDbLine
 10
1143.0022439081
 20
444.0891447703
 30
0.0
 11
1143.3822439081
 21
444.0891447703
 31
0.0
  0
ARC
  5
5DA
330
1B
100
AcDbEntity
 67
     1
  8
3_ALL_AXES
  6
Continuous
 62
     7
100
AcDbCircle
 10
1141.5296038164
 20
440.146701973
 30
0.0
 40
4.1
100
AcDbArc
 50
296.8633031301
 51
333.6069742257001
  0
LINE
  5
5DB
330
1B
100
AcDbEntity
 67
     1
  8
3_ALL_AXES
  6
Continuous
 62
     7
100
AcDbLine
 10
1145.2022439081
 20
438.3241791158
 30
0.0
 11
1145.2022439081
 21
440.2891447703
 31
0.0
  0
LINE
  5
5DC
330
1B
100
AcDbEntity
 67
     1
  8
3_ALL_AXES
  6
Continuous
 62
     7
100
AcDbLine
 10
1143.0022439081
 20
436.4891447703
 30
0.0
 11
1143.3822439081
 21
436.4891447703
 31
0.0
  0
LINE
  5
5DD
330
1B
100
AcDbEntity
 67
     1
  8
3_ALL_AXES
  6
Continuous
 62
     7
100
AcDbLine
 10
1143.3822439081
 20
436.4891447703
 30
0.0
 11
1143.3822439081
 21
440.2891447703
 31
0.0
  0
LINE
  5
5DE
330
1B
100
AcDbEntity
 67
     1
  8
3_ALL_AXES
  6
Continuous
 62
     7
100
AcDbLine
 10
1143.3822439081
 20
444.0891447703
 30
0.0
 11
1143.3822439081
 21
440.2891447703
 31
0.0
  0
ARC
  5
5DF
330
1B
100
AcDbEntity
 67
     1
  8
3_ALL_AXES
  6
Continuous
 62
     7
100
AcDbCircle
 10
1141.5296038164
 20
405.4315875677
 30
0.0
 40
4.1
100
AcDbArc
 50
26.3930257743
 51
63.13669686989999
  0
LINE
  5
5E0
330
1B
100
AcDbEntity
 67
     1
  8
3_ALL_AXES
  6
Continuous
 62
     7
100
AcDbLine
 10
1145.2022439081
 20
407.2541104249
 30
0.0
 11
1145.2022439081
 21
405.2891447703
 31
0.0
  0
LINE
  5
5E1
330
1B
100
AcDbEntity
 67
     1
  8
3_ALL_AXES
  6
Continuous
 62
     7
100
AcDbLine
 10
1143.0022439081
 20
409.0891447703
 30
0.0
 11
1143.3822439081
 21
409.0891447703
 31
0.0
  0
ARC
  5
5E2
330
1B
100
AcDbEntity
 67
     1
  8
3_ALL_AXES
  6
Continuous
 62
     7
100
AcDbCircle
 10
1141.5296038164
 20
405.146701973
 30
0.0
 40
4.1
100
AcDbArc
 50
296.8633031301
 51
333.6069742257001
  0
LINE
  5
5E3
330
1B
100
AcDbEntity
 67
     1
  8
3_ALL_AXES
  6
Continuous
 62
     7
100
AcDbLine
 10
1145.2022439081
 20
403.3241791158
 30
0.0
 11
1145.2022439081
 21
405.2891447703
 31
0.0
  0
LINE
  5
5E4
330
1B
100
AcDbEntity
 67
     1
  8
3_ALL_AXES
  6
Continuous
 62
     7
100
AcDbLine
 10
1143.0022439081
 20
401.4891447703
 30
0.0
 11
1143.3822439081
 21
401.4891447703
 31
0.0
  0
LINE
  5
5E5
330
1B
100
AcDbEntity
 67
     1
  8
3_ALL_AXES
  6
Continuous
 62
     7
100
AcDbLine
 10
1143.3822439081
 20
401.4891447703
 30
0.0
 11
1143.3822439081
 21
405.2891447703
 31
0.0
  0
LINE
  5
5E6
330
1B
100
AcDbEntity
 67
     1
  8
3_ALL_AXES
  6
Continuous
 62
     7
100
AcDbLine
 10
1143.3822439081
 20
409.0891447703
 30
0.0
 11
1143.3822439081
 21
405.2891447703
 31
0.0
  0
LINE
  5
5E7
330
1B
100
AcDbEntity
 67
     1
  8
7_ALL_FEATURES
  6
Continuous
 62
     7
100
AcDbLine
 10
1166.1522439081
 20
396.2891447703
 30
0.0
 11
1166.1522439081
 21
395.0891447703
 31
0.0
  0
LINE
  5
5E8
330
1B
100
AcDbEntity
 67
     1
  8
7_ALL_FEATURES
  6
Continuous
 62
     7
100
AcDbLine
 10
1094.1522439081
 20
396.2891447703
 30
0.0
 11
1094.1522439081
 21
395.0891447703
 31
0.0
  0
LINE
  5
5E9
330
1B
100
AcDbEntity
 67
     1
  8
7_ALL_FEATURES
  6
Continuous
 62
     7
100
AcDbLine
 10
1166.1522439081
 20
396.2891447703
 30
0.0
 11
1166.1522439081
 21
395.0891447703
 31
0.0
  0
LINE
  5
5EA
330
1B
100
AcDbEntity
 67
     1
  8
7_ALL_FEATURES
  6
Continuous
 62
     7
100
AcDbLine
 10
1156.1522439081
 20
396.2891447703
 30
0.0
 11
1141.2022439081
 21
396.2891447703
 31
0.0
  0
LINE
  5
5EB
330
1B
100
AcDbEntity
 67
     1
  8
7_ALL_FEATURES
  6
Continuous
 62
     7
100
AcDbLine
 10
1119.1022439081
 20
396.2891447703
 30
0.0
 11
1104.1522439081
 21
396.2891447703
 31
0.0
  0
LINE
  5
5EC
330
1B
100
AcDbEntity
 67
     1
  8
7_ALL_FEATURES
  6
Continuous
 62
     7
100
AcDbLine
 10
1156.1522439081
 20
396.2891447703
 30
0.0
 11
1159.4022439081
 21
396.2891447703
 31
0.0
  0
LINE
  5
5ED
330
1B
100
AcDbEntity
 67
     1
  8
7_ALL_FEATURES
  6
Continuous
 62
     7
100
AcDbLine
 10
1159.4022439081
 20
396.2891447703
 30
0.0
 11
1166.1522439081
 21
396.2891447703
 31
0.0
  0
LINE
  5
5EE
330
1B
100
AcDbEntity
 67
     1
  8
7_ALL_FEATURES
  6
Continuous
 62
     7
100
AcDbLine
 10
1094.1522439081
 20
396.2891447703
 30
0.0
 11
1100.9022439081
 21
396.2891447703
 31
0.0
  0
LINE
  5
5EF
330
1B
100
AcDbEntity
 67
     1
  8
7_ALL_FEATURES
  6
Continuous
 62
     7
100
AcDbLine
 10
1100.9022439081
 20
396.2891447703
 30
0.0
 11
1104.1522439081
 21
396.2891447703
 31
0.0
  0
LINE
  5
5F0
330
1B
100
AcDbEntity
 67
     1
  8
7_ALL_FEATURES
  6
Continuous
 62
     9
100
AcDbLine
 10
1156.1522439081
 20
396.2891447703
 30
0.0
 11
1156.1522439081
 21
395.0891447703
 31
0.0
  0
LINE
  5
5F1
330
1B
100
AcDbEntity
 67
     1
  8
7_ALL_FEATURES
  6
Continuous
 62
     9
100
AcDbLine
 10
1104.1522439081
 20
396.2891447703
 30
0.0
 11
1104.1522439081
 21
395.0891447703
 31
0.0
  0
LINE
  5
5F2
330
1B
100
AcDbEntity
 67
     1
  8
7_ALL_FEATURES
  6
Continuous
 62
     7
100
AcDbLine
 10
1120.0041324715
 20
423.8891447703
 30
0.0
 11
1120.5095646658
 21
423.8891447703
 31
0.0
  0
LINE
  5
5F3
330
1B
100
AcDbEntity
 67
     1
  8
7_ALL_FEATURES
  6
Continuous
 62
     7
100
AcDbLine
 10
1121.0022439081
 20
427.0681611734
 30
0.0
 11
1121.0022439081
 21
425.8155861052
 31
0.0
  0
LINE
  5
5F4
330
1B
100
AcDbEntity
 67
     1
  8
7_ALL_FEATURES
  6
Continuous
 62
     7
100
AcDbLine
 10
1139.3022439081
 20
427.0681611734
 30
0.0
 11
1139.3022439081
 21
425.8155861052
 31
0.0
  0
LINE
  5
5F5
330
1B
100
AcDbEntity
 67
     1
  8
7_ALL_FEATURES
  6
Continuous
 62
     7
100
AcDbLine
 10
1140.3003553446
 20
423.8891447703
 30
0.0
 11
1139.7949231503
 21
423.8891447703
 31
0.0
  0
LINE
  5
5F6
330
1B
100
AcDbEntity
 67
     1
  8
7_ALL_FEATURES
  6
Continuous
 62
     7
100
AcDbLine
 10
1141.7022439081
 20
445.2891447703
 30
0.0
 11
1141.0022439081
 21
445.2891447703
 31
0.0
  0
LINE
  5
5F7
330
1B
100
AcDbEntity
 67
     1
  8
7_ALL_FEATURES
  6
Continuous
 62
     7
100
AcDbLine
 10
1141.7022439081
 20
485.2891447703
 30
0.0
 11
1141.2022439081
 21
485.2891447703
 31
0.0
  0
LINE
  5
5F8
330
1B
100
AcDbEntity
 67
     1
  8
7_ALL_FEATURES
  6
Continuous
 62
     7
100
AcDbLine
 10
1141.7022439081
 20
399.7891447703
 30
0.0
 11
1141.0022439081
 21
399.7891447703
 31
0.0
  0
LINE
  5
5F9
330
1B
100
AcDbEntity
 67
     1
  8
7_ALL_FEATURES
  6
Continuous
 62
     7
100
AcDbLine
 10
1141.7022439081
 20
410.7891447703
 30
0.0
 11
1141.0022439081
 21
410.7891447703
 31
0.0
  0
LINE
  5
5FA
330
1B
100
AcDbEntity
 67
     1
  8
7_ALL_FEATURES
  6
Continuous
 62
     7
100
AcDbLine
 10
1141.7022439081
 20
435.2891447703
 30
0.0
 11
1141.0022439081
 21
435.2891447703
 31
0.0
  0
LINE
  5
5FB
330
1B
100
AcDbEntity
 67
     1
  8
7_ALL_FEATURES
  6
Continuous
 62
     7
100
AcDbLine
 10
1118.6022439081
 20
435.2891447703
 30
0.0
 11
1119.3022439081
 21
435.2891447703
 31
0.0
  0
LINE
  5
5FC
330
1B
100
AcDbEntity
 67
     1
  8
7_ALL_FEATURES
  6
Continuous
 62
     7
100
AcDbLine
 10
1118.6022439081
 20
410.7891447703
 30
0.0
 11
1119.3022439081
 21
410.7891447703
 31
0.0
  0
LINE
  5
5FD
330
1B
100
AcDbEntity
 67
     1
  8
7_ALL_FEATURES
  6
Continuous
 62
     7
100
AcDbLine
 10
1118.6022439081
 20
399.7891447703
 30
0.0
 11
1119.3022439081
 21
399.7891447703
 31
0.0
  0
LINE
  5
5FE
330
1B
100
AcDbEntity
 67
     1
  8
7_ALL_FEATURES
  6
Continuous
 62
     7
100
AcDbLine
 10
1118.6022439081
 20
485.2891447703
 30
0.0
 11
1119.1022439081
 21
485.2891447703
 31
0.0
  0
LINE
  5
5FF
330
1B
100
AcDbEntity
 67
     1
  8
7_ALL_FEATURES
  6
Continuous
 62
     7
100
AcDbLine
 10
1118.6022439081
 20
445.2891447703
 30
0.0
 11
1119.3022439081
 21
445.2891447703
 31
0.0
  0
LINE
  5
600
330
1B
100
AcDbEntity
 67
     1
  8
7_ALL_FEATURES
  6
Continuous
 62
     7
100
AcDbLine
 10
1143.0022439081
 20
435.7891447703
 30
0.0
 11
1142.0022439081
 21
435.7891447703
 31
0.0
  0
LINE
  5
601
330
1B
100
AcDbEntity
 67
     1
  8
7_ALL_FEATURES
  6
Continuous
 62
     7
100
AcDbLine
 10
1142.0022439081
 20
435.7891447703
 30
0.0
 11
1141.9370633639
 21
435.7891447703
 31
0.0
  0
LINE
  5
602
330
1B
100
AcDbEntity
 67
     1
  8
7_ALL_FEATURES
  6
Continuous
 62
     7
100
AcDbLine
 10
1143.0022439081
 20
444.7891447703
 30
0.0
 11
1142.0022439081
 21
444.7891447703
 31
0.0
  0
LINE
  5
603
330
1B
100
AcDbEntity
 67
     1
  8
7_ALL_FEATURES
  6
Continuous
 62
     7
100
AcDbLine
 10
1142.0022439081
 20
444.7891447703
 30
0.0
 11
1141.9370633639
 21
444.7891447703
 31
0.0
  0
LINE
  5
604
330
1B
100
AcDbEntity
 67
     1
  8
7_ALL_FEATURES
  6
Continuous
 62
     7
100
AcDbLine
 10
1143.0022439081
 20
444.7891447703
 30
0.0
 11
1143.0022439081
 21
435.7891447703
 31
0.0
  0
LINE
  5
605
330
1B
100
AcDbEntity
 67
     1
  8
7_ALL_FEATURES
  6
Continuous
 62
     7
100
AcDbLine
 10
1117.3022439081
 20
409.7891447703
 30
0.0
 11
1118.3022439081
 21
409.7891447703
 31
0.0
  0
LINE
  5
606
330
1B
100
AcDbEntity
 67
     1
  8
7_ALL_FEATURES
  6
Continuous
 62
     7
100
AcDbLine
 10
1118.3022439081
 20
409.7891447703
 30
0.0
 11
1118.3674244523
 21
409.7891447703
 31
0.0
  0
LINE
  5
607
330
1B
100
AcDbEntity
 67
     1
  8
7_ALL_FEATURES
  6
Continuous
 62
     7
100
AcDbLine
 10
1117.3022439081
 20
400.7891447703
 30
0.0
 11
1118.3022439081
 21
400.7891447703
 31
0.0
  0
LINE
  5
608
330
1B
100
AcDbEntity
 67
     1
  8
7_ALL_FEATURES
  6
Continuous
 62
     7
100
AcDbLine
 10
1118.3022439081
 20
400.7891447703
 30
0.0
 11
1118.3674244523
 21
400.7891447703
 31
0.0
  0
LINE
  5
609
330
1B
100
AcDbEntity
 67
     1
  8
7_ALL_FEATURES
  6
Continuous
 62
     7
100
AcDbLine
 10
1117.3022439081
 20
400.7891447703
 30
0.0
 11
1117.3022439081
 21
409.7891447703
 31
0.0
  0
LINE
  5
60A
330
1B
100
AcDbEntity
 67
     1
  8
7_ALL_FEATURES
  6
Continuous
 62
     7
100
AcDbLine
 10
1143.0022439081
 20
400.7891447703
 30
0.0
 11
1142.0022439081
 21
400.7891447703
 31
0.0
  0
LINE
  5
60B
330
1B
100
AcDbEntity
 67
     1
  8
7_ALL_FEATURES
  6
Continuous
 62
     7
100
AcDbLine
 10
1142.0022439081
 20
400.7891447703
 30
0.0
 11
1141.9370633639
 21
400.7891447703
 31
0.0
  0
LINE
  5
60C
330
1B
100
AcDbEntity
 67
     1
  8
7_ALL_FEATURES
  6
Continuous
 62
     7
100
AcDbLine
 10
1143.0022439081
 20
409.7891447703
 30
0.0
 11
1142.0022439081
 21
409.7891447703
 31
0.0
  0
LINE
  5
60D
330
1B
100
AcDbEntity
 67
     1
  8
7_ALL_FEATURES
  6
Continuous
 62
     7
100
AcDbLine
 10
1142.0022439081
 20
409.7891447703
 30
0.0
 11
1141.9370633639
 21
409.7891447703
 31
0.0
  0
LINE
  5
60E
330
1B
100
AcDbEntity
 67
     1
  8
7_ALL_FEATURES
  6
Continuous
 62
     7
100
AcDbLine
 10
1143.0022439081
 20
409.7891447703
 30
0.0
 11
1143.0022439081
 21
400.7891447703
 31
0.0
  0
ARC
  5
60F
330
1B
100
AcDbEntity
 67
     1
  8
7_ALL_FEATURES
  6
Continuous
 62
     7
100
AcDbCircle
 10
1130.1522439081
 20
395.2891447703
 30
0.0
 40
2.0
100
AcDbArc
 50
41.81031489579999
 51
138.1896851042
  0
ARC
  5
610
330
1B
100
AcDbEntity
 67
     1
  8
7_ALL_FEATURES
  6
Continuous
 62
     7
100
AcDbCircle
 10
1132.3883118856
 20
397.2891447703
 30
0.0
 40
1.0
100
AcDbArc
 50
221.8103148957
 51
270.0
  0
LINE
  5
611
330
1B
100
AcDbEntity
 67
     1
  8
7_ALL_FEATURES
  6
Continuous
 62
     7
100
AcDbLine
 10
1141.2022439081
 20
396.2891447703
 30
0.0
 11
1132.3883118856
 21
396.2891447703
 31
0.0
  0
ARC
  5
612
330
1B
100
AcDbEntity
 67
     1
  8
7_ALL_FEATURES
  6
Continuous
 62
     7
100
AcDbCircle
 10
1141.2022439081
 20
396.7891447703
 30
0.0
 40
0.5
100
AcDbArc
 50
270.0
 51
360.0
  0
LINE
  5
613
330
1B
100
AcDbEntity
 67
     1
  8
7_ALL_FEATURES
  6
Continuous
 62
     7
100
AcDbLine
 10
1141.7022439081
 20
399.5891447703
 30
0.0
 11
1141.7022439081
 21
396.7891447703
 31
0.0
  0
LINE
  5
614
330
1B
100
AcDbEntity
 67
     1
  8
7_ALL_FEATURES
  6
Continuous
 62
     7
100
AcDbLine
 10
1141.7022439081
 20
399.5891447703
 30
0.0
 11
1141.0022439081
 21
399.5891447703
 31
0.0
  0
LINE
  5
615
330
1B
100
AcDbEntity
 67
     1
  8
7_ALL_FEATURES
  6
Continuous
 62
     7
100
AcDbLine
 10
1141.0022439081
 20
400.7891447703
 30
0.0
 11
1141.0022439081
 21
399.5891447703
 31
0.0
  0
LINE
  5
616
330
1B
100
AcDbEntity
 67
     1
  8
7_ALL_FEATURES
  6
Continuous
 62
     7
100
AcDbLine
 10
1141.0022439081
 20
409.7891447703
 30
0.0
 11
1141.0022439081
 21
410.9891447703
 31
0.0
  0
LINE
  5
617
330
1B
100
AcDbEntity
 67
     1
  8
7_ALL_FEATURES
  6
Continuous
 62
     7
100
AcDbLine
 10
1141.7022439081
 20
410.9891447703
 30
0.0
 11
1141.0022439081
 21
410.9891447703
 31
0.0
  0
LINE
  5
618
330
1B
100
AcDbEntity
 67
     1
  8
7_ALL_FEATURES
  6
Continuous
 62
     7
100
AcDbLine
 10
1141.7022439081
 20
434.5891447703
 30
0.0
 11
1141.7022439081
 21
410.9891447703
 31
0.0
  0
LINE
  5
619
330
1B
100
AcDbEntity
 67
     1
  8
7_ALL_FEATURES
  6
Continuous
 62
     7
100
AcDbLine
 10
1141.7022439081
 20
434.5891447703
 30
0.0
 11
1141.0022439081
 21
434.5891447703
 31
0.0
  0
LINE
  5
61A
330
1B
100
AcDbEntity
 67
     1
  8
7_ALL_FEATURES
  6
Continuous
 62
     7
100
AcDbLine
 10
1141.0022439081
 20
435.7891447703
 30
0.0
 11
1141.0022439081
 21
434.5891447703
 31
0.0
  0
LINE
  5
61B
330
1B
100
AcDbEntity
 67
     1
  8
7_ALL_FEATURES
  6
Continuous
 62
     7
100
AcDbLine
 10
1141.0022439081
 20
444.7891447703
 30
0.0
 11
1141.0022439081
 21
445.9891447703
 31
0.0
  0
LINE
  5
61C
330
1B
100
AcDbEntity
 67
     1
  8
7_ALL_FEATURES
  6
Continuous
 62
     7
100
AcDbLine
 10
1141.7022439081
 20
445.9891447703
 30
0.0
 11
1141.0022439081
 21
445.9891447703
 31
0.0
  0
LINE
  5
61D
330
1B
100
AcDbEntity
 67
     1
  8
7_ALL_FEATURES
  6
Continuous
 62
     7
100
AcDbLine
 10
1141.7022439081
 20
484.7891447703
 30
0.0
 11
1141.7022439081
 21
445.9891447703
 31
0.0
  0
ARC
  5
61E
330
1B
100
AcDbEntity
 67
     1
  8
7_ALL_FEATURES
  6
Continuous
 62
     7
100
AcDbCircle
 10
1141.2022439081
 20
484.7891447703
 30
0.0
 40
0.5
100
AcDbArc
 50
0.0
 51
90.0
  0
LINE
  5
61F
330
1B
100
AcDbEntity
 67
     1
  8
7_ALL_FEATURES
  6
Continuous
 62
     7
100
AcDbLine
 10
1119.1022439081
 20
485.2891447703
 30
0.0
 11
1141.2022439081
 21
485.2891447703
 31
0.0
  0
ARC
  5
620
330
1B
100
AcDbEntity
 67
     1
  8
7_ALL_FEATURES
  6
Continuous
 62
     7
100
AcDbCircle
 10
1119.1022439081
 20
484.7891447703
 30
0.0
 40
0.5
100
AcDbArc
 50
90.0
 51
180.0
  0
LINE
  5
621
330
1B
100
AcDbEntity
 67
     1
  8
7_ALL_FEATURES
  6
Continuous
 62
     7
100
AcDbLine
 10
1118.6022439081
 20
445.7891447703
 30
0.0
 11
1118.6022439081
 21
484.7891447703
 31
0.0
  0
LINE
  5
622
330
1B
100
AcDbEntity
 67
     1
  8
7_ALL_FEATURES
  6
Continuous
 62
     7
100
AcDbLine
 10
1118.6022439081
 20
445.7891447703
 30
0.0
 11
1119.3022439081
 21
445.7891447703
 31
0.0
  0
LINE
  5
623
330
1B
100
AcDbEntity
 67
     1
  8
7_ALL_FEATURES
  6
Continuous
 62
     7
100
AcDbLine
 10
1119.3022439081
 20
444.7891447703
 30
0.0
 11
1119.3022439081
 21
445.7891447703
 31
0.0
  0
LINE
  5
624
330
1B
100
AcDbEntity
 67
     1
  8
7_ALL_FEATURES
  6
Continuous
 62
     7
100
AcDbLine
 10
1119.3022439081
 20
435.7891447703
 30
0.0
 11
1119.3022439081
 21
434.7891447703
 31
0.0
  0
LINE
  5
625
330
1B
100
AcDbEntity
 67
     1
  8
7_ALL_FEATURES
  6
Continuous
 62
     7
100
AcDbLine
 10
1118.6022439081
 20
434.7891447703
 30
0.0
 11
1119.3022439081
 21
434.7891447703
 31
0.0
  0
LINE
  5
626
330
1B
100
AcDbEntity
 67
     1
  8
7_ALL_FEATURES
  6
Continuous
 62
     7
100
AcDbLine
 10
1118.6022439081
 20
410.9891447703
 30
0.0
 11
1118.6022439081
 21
434.7891447703
 31
0.0
  0
LINE
  5
627
330
1B
100
AcDbEntity
 67
     1
  8
7_ALL_FEATURES
  6
Continuous
 62
     7
100
AcDbLine
 10
1118.6022439081
 20
410.9891447703
 30
0.0
 11
1119.3022439081
 21
410.9891447703
 31
0.0
  0
LINE
  5
628
330
1B
100
AcDbEntity
 67
     1
  8
7_ALL_FEATURES
  6
Continuous
 62
     7
100
AcDbLine
 10
1119.3022439081
 20
409.7891447703
 30
0.0
 11
1119.3022439081
 21
410.9891447703
 31
0.0
  0
LINE
  5
629
330
1B
100
AcDbEntity
 67
     1
  8
7_ALL_FEATURES
  6
Continuous
 62
     7
100
AcDbLine
 10
1119.3022439081
 20
400.7891447703
 30
0.0
 11
1119.3022439081
 21
399.5891447703
 31
0.0
  0
LINE
  5
62A
330
1B
100
AcDbEntity
 67
     1
  8
7_ALL_FEATURES
  6
Continuous
 62
     7
100
AcDbLine
 10
1118.6022439081
 20
399.5891447703
 30
0.0
 11
1119.3022439081
 21
399.5891447703
 31
0.0
  0
LINE
  5
62B
330
1B
100
AcDbEntity
 67
     1
  8
7_ALL_FEATURES
  6
Continuous
 62
     7
100
AcDbLine
 10
1118.6022439081
 20
396.7891447703
 30
0.0
 11
1118.6022439081
 21
399.5891447703
 31
0.0
  0
ARC
  5
62C
330
1B
100
AcDbEntity
 67
     1
  8
7_ALL_FEATURES
  6
Continuous
 62
     7
100
AcDbCircle
 10
1119.1022439081
 20
396.7891447703
 30
0.0
 40
0.5
100
AcDbArc
 50
180.0
 51
270.0
  0
LINE
  5
62D
330
1B
100
AcDbEntity
 67
     1
  8
7_ALL_FEATURES
  6
Continuous
 62
     7
100
AcDbLine
 10
1127.9161759306
 20
396.2891447703
 30
0.0
 11
1119.1022439081
 21
396.2891447703
 31
0.0
  0
ARC
  5
62E
330
1B
100
AcDbEntity
 67
     1
  8
7_ALL_FEATURES
  6
Continuous
 62
     7
100
AcDbCircle
 10
1127.9161759306
 20
397.2891447703
 30
0.0
 40
1.0
100
AcDbArc
 50
270.0
 51
318.1896851042
  0
ARC
  5
62F
330
1B
100
AcDbEntity
 67
     1
  8
02___PRT_ALL_AXES
  6
Continuous
 62
     7
100
AcDbCircle
 10
1130.1522439081
 20
422.4488746775
 30
0.0
 40
10.25
100
AcDbArc
 50
272.0000000000001
 51
358.0
  0
LINE
  5
630
330
1B
100
AcDbEntity
 67
     1
  8
02___PRT_ALL_AXES
  6
Continuous
 62
     7
100
AcDbLine
 10
1130.4925140009
 20
412.7048141141
 30
0.0
 11
1130.5099637493
 21
412.2051187005
 31
0.0
  0
ARC
  5
631
330
1B
100
AcDbEntity
 67
     1
  8
02___PRT_ALL_AXES
  6
Continuous
 62
     7
100
AcDbCircle
 10
1130.1522439081
 20
422.4488746775
 30
0.0
 40
9.75
100
AcDbArc
 50
272.0000000000001
 51
358.0
  0
LINE
  5
632
330
1B
100
AcDbEntity
 67
     1
  8
02___PRT_ALL_AXES
  6
Continuous
 62
     7
100
AcDbLine
 10
1140.395999885
 20
422.0911548363
 30
0.0
 11
1139.8963044715
 21
422.1086045846
 31
0.0
  0
ARC
  5
633
330
1B
100
AcDbEntity
 67
     1
  8
02___PRT_ALL_AXES
  6
Continuous
 62
     7
100
AcDbCircle
 10
1130.1522439081
 20
422.4488746775
 30
0.0
 40
9.75
100
AcDbArc
 50
182.0
 51
267.9999999999999
  0
LINE
  5
634
330
1B
100
AcDbEntity
 67
     1
  8
02___PRT_ALL_AXES
  6
Continuous
 62
     7
100
AcDbLine
 10
1129.7945240669
 20
412.2051187005
 30
0.0
 11
1129.8119738152
 21
412.7048141141
 31
0.0
  0
ARC
  5
635
330
1B
100
AcDbEntity
 67
     1
  8
02___PRT_ALL_AXES
  6
Continuous
 62
     7
100
AcDbCircle
 10
1130.1522439081
 20
422.4488746775
 30
0.0
 40
10.25
100
AcDbArc
 50
182.0
 51
267.9999999999999
  0
LINE
  5
636
330
1B
100
AcDbEntity
 67
     1
  8
02___PRT_ALL_AXES
  6
Continuous
 62
     7
100
AcDbLine
 10
1120.4081833446
 20
422.1086045846
 30
0.0
 11
1119.9084879311
 21
422.0911548363
 31
0.0
  0
ARC
  5
637
330
1B
100
AcDbEntity
 67
     1
  8
02___PRT_ALL_AXES
  6
Continuous
 62
     7
100
AcDbCircle
 10
1130.1522439081
 20
422.4488746775
 30
0.0
 40
10.25
100
AcDbArc
 50
92.0
 51
178.0
  0
LINE
  5
638
330
1B
100
AcDbEntity
 67
     1
  8
02___PRT_ALL_AXES
  6
Continuous
 62
     7
100
AcDbLine
 10
1129.8119738152
 20
432.1929352409
 30
0.0
 11
1129.7945240669
 21
432.6926306544
 31
0.0
  0
ARC
  5
639
330
1B
100
AcDbEntity
 67
     1
  8
02___PRT_ALL_AXES
  6
Continuous
 62
     7
100
AcDbCircle
 10
1130.1522439081
 20
422.4488746775
 30
0.0
 40
9.75
100
AcDbArc
 50
92.0
 51
178.0
  0
LINE
  5
63A
330
1B
100
AcDbEntity
 67
     1
  8
02___PRT_ALL_AXES
  6
Continuous
 62
     7
100
AcDbLine
 10
1119.9084879311
 20
422.8065945187
 30
0.0
 11
1120.4081833446
 21
422.7891447703
 31
0.0
  0
LINE
  5
63B
330
1B
100
AcDbEntity
 67
     1
  8
02___PRT_ALL_AXES
  6
Continuous
 62
     7
100
AcDbLine
 10
1130.5099637493
 20
432.6926306544
 30
0.0
 11
1130.4925140009
 21
432.1929352409
 31
0.0
  0
ARC
  5
63C
330
1B
100
AcDbEntity
 67
     1
  8
02___PRT_ALL_AXES
  6
Continuous
 62
     7
100
AcDbCircle
 10
1130.1522439081
 20
422.4488746775
 30
0.0
 40
10.25
100
AcDbArc
 50
2.0
 51
88.0
  0
LINE
  5
63D
330
1B
100
AcDbEntity
 67
     1
  8
02___PRT_ALL_AXES
  6
Continuous
 62
     7
100
AcDbLine
 10
1139.8963044715
 20
422.7891447703
 30
0.0
 11
1140.395999885
 21
422.8065945187
 31
0.0
  0
ARC
  5
63E
330
1B
100
AcDbEntity
 67
     1
  8
02___PRT_ALL_AXES
  6
Continuous
 62
     7
100
AcDbCircle
 10
1130.1522439081
 20
422.4488746775
 30
0.0
 40
9.75
100
AcDbArc
 50
2.0
 51
88.0
  0
LINE
  5
63F
330
1B
100
AcDbEntity
 67
     1
  8
7_ALL_FEATURES
  6
Continuous
 62
     7
100
AcDbLine
 10
1118.3674244523
 20
444.7891447703
 30
0.0
 11
1119.3022439081
 21
444.7891447703
 31
0.0
  0
LINE
  5
640
330
1B
100
AcDbEntity
 67
     1
  8
7_ALL_FEATURES
  6
Continuous
 62
     7
100
AcDbLine
 10
1117.3022439081
 20
444.7891447703
 30
0.0
 11
1118.3022439081
 21
444.7891447703
 31
0.0
  0
LINE
  5
641
330
1B
100
AcDbEntity
 67
     1
  8
7_ALL_FEATURES
  6
Continuous
 62
     7
100
AcDbLine
 10
1118.3022439081
 20
444.7891447703
 30
0.0
 11
1118.3674244523
 21
444.7891447703
 31
0.0
  0
LINE
  5
642
330
1B
100
AcDbEntity
 67
     1
  8
7_ALL_FEATURES
  6
Continuous
 62
     7
100
AcDbLine
 10
1117.3022439081
 20
435.7891447703
 30
0.0
 11
1117.3022439081
 21
444.7891447703
 31
0.0
  0
LINE
  5
643
330
1B
100
AcDbEntity
 67
     1
  8
7_ALL_FEATURES
  6
Continuous
 62
     7
100
AcDbLine
 10
1117.3022439081
 20
435.7891447703
 30
0.0
 11
1118.3022439081
 21
435.7891447703
 31
0.0
  0
LINE
  5
644
330
1B
100
AcDbEntity
 67
     1
  8
7_ALL_FEATURES
  6
Continuous
 62
     7
100
AcDbLine
 10
1118.3022439081
 20
435.7891447703
 30
0.0
 11
1118.3674244523
 21
435.7891447703
 31
0.0
  0
LINE
  5
645
330
1B
100
AcDbEntity
 67
     1
  8
7_ALL_FEATURES
  6
Continuous
 62
     7
100
AcDbLine
 10
1118.3674244523
 20
435.7891447703
 30
0.0
 11
1119.3022439081
 21
435.7891447703
 31
0.0
  0
LINE
  5
646
330
1B
100
AcDbEntity
 67
     1
  8
7_ALL_FEATURES
  6
Continuous
 62
     7
100
AcDbLine
 10
1141.9370633639
 20
435.7891447703
 30
0.0
 11
1141.0022439081
 21
435.7891447703
 31
0.0
  0
LINE
  5
647
330
1B
100
AcDbEntity
 67
     1
  8
7_ALL_FEATURES
  6
Continuous
 62
     7
100
AcDbLine
 10
1143.0022439081
 20
444.7891447703
 30
0.0
 11
1143.0022439081
 21
435.7891447703
 31
0.0
  0
LINE
  5
648
330
1B
100
AcDbEntity
 67
     1
  8
7_ALL_FEATURES
  6
Continuous
 62
     7
100
AcDbLine
 10
1141.9370633639
 20
444.7891447703
 30
0.0
 11
1141.0022439081
 21
444.7891447703
 31
0.0
  0
LINE
  5
649
330
1B
100
AcDbEntity
 67
     1
  8
7_ALL_FEATURES
  6
Continuous
 62
     7
100
AcDbLine
 10
1118.3674244523
 20
409.7891447703
 30
0.0
 11
1119.3022439081
 21
409.7891447703
 31
0.0
  0
LINE
  5
64A
330
1B
100
AcDbEntity
 67
     1
  8
7_ALL_FEATURES
  6
Continuous
 62
     7
100
AcDbLine
 10
1117.3022439081
 20
400.7891447703
 30
0.0
 11
1117.3022439081
 21
409.7891447703
 31
0.0
  0
LINE
  5
64B
330
1B
100
AcDbEntity
 67
     1
  8
7_ALL_FEATURES
  6
Continuous
 62
     7
100
AcDbLine
 10
1118.3674244523
 20
400.7891447703
 30
0.0
 11
1119.3022439081
 21
400.7891447703
 31
0.0
  0
LINE
  5
64C
330
1B
100
AcDbEntity
 67
     1
  8
7_ALL_FEATURES
  6
Continuous
 62
     7
100
AcDbLine
 10
1141.9370633639
 20
400.7891447703
 30
0.0
 11
1141.0022439081
 21
400.7891447703
 31
0.0
  0
LINE
  5
64D
330
1B
100
AcDbEntity
 67
     1
  8
7_ALL_FEATURES
  6
Continuous
 62
     7
100
AcDbLine
 10
1143.0022439081
 20
409.7891447703
 30
0.0
 11
1143.0022439081
 21
400.7891447703
 31
0.0
  0
LINE
  5
64E
330
1B
100
AcDbEntity
 67
     1
  8
7_ALL_FEATURES
  6
Continuous
 62
     7
100
AcDbLine
 10
1141.9370633639
 20
409.7891447703
 30
0.0
 11
1141.0022439081
 21
409.7891447703
 31
0.0
  0
LINE
  5
64F
330
1B
100
AcDbEntity
 67
     1
  8
7_ALL_FEATURES
  6
Continuous
 62
     9
100
AcDbLine
 10
1119.3022439081
 20
400.7891447703
 30
0.0
 11
1119.3022439081
 21
409.7891447703
 31
0.0
  0
LINE
  5
650
330
1B
100
AcDbEntity
 67
     1
  8
7_ALL_FEATURES
  6
Continuous
 62
     9
100
AcDbLine
 10
1141.0022439081
 20
444.7891447703
 30
0.0
 11
1141.0022439081
 21
435.7891447703
 31
0.0
  0
LINE
  5
651
330
1B
100
AcDbEntity
 67
     1
  8
7_ALL_FEATURES
  6
Continuous
 62
     9
100
AcDbLine
 10
1141.0022439081
 20
409.7891447703
 30
0.0
 11
1141.0022439081
 21
400.7891447703
 31
0.0
  0
LINE
  5
652
330
1B
100
AcDbEntity
 67
     1
  8
7_ALL_FEATURES
  6
Continuous
 62
     9
100
AcDbLine
 10
1119.3022439081
 20
435.7891447703
 30
0.0
 11
1119.3022439081
 21
444.7891447703
 31
0.0
  0
LINE
  5
653
330
1B
100
AcDbEntity
 67
     1
  8
7_ALL_FEATURES
  6
Continuous
 62
     3
100
AcDbLine
 10
1166.1522439081
 20
395.0891447703
 30
0.0
 11
1159.4022439081
 21
395.0891447703
 31
0.0
  0
LINE
  5
654
330
1B
100
AcDbEntity
 67
     1
  8
7_ALL_FEATURES
  6
Continuous
 62
     3
100
AcDbLine
 10
1159.4022439081
 20
395.0891447703
 30
0.0
 11
1156.1522439081
 21
395.0891447703
 31
0.0
  0
LINE
  5
655
330
1B
100
AcDbEntity
 67
     1
  8
7_ALL_FEATURES
  6
Continuous
 62
     3
100
AcDbLine
 10
1104.1522439081
 20
395.0891447703
 30
0.0
 11
1100.9022439081
 21
395.0891447703
 31
0.0
  0
LINE
  5
656
330
1B
100
AcDbEntity
 67
     1
  8
7_ALL_FEATURES
  6
Continuous
 62
     3
100
AcDbLine
 10
1100.9022439081
 20
395.0891447703
 30
0.0
 11
1094.1522439081
 21
395.0891447703
 31
0.0
  0
LINE
  5
657
330
1B
100
AcDbEntity
 67
     1
  8
7_ALL_FEATURES
  6
Continuous
 62
     3
100
AcDbLine
 10
1156.1522439081
 20
395.0891447703
 30
0.0
 11
1104.1522439081
 21
395.0891447703
 31
0.0
  0
LINE
  5
658
330
1B
100
AcDbEntity
 67
     1
  8
7_ALL_FEATURES
  6
Continuous
 62
     3
100
AcDbLine
 10
1141.7022439081
 20
485.2891447703
 30
0.0
 11
1141.7022439081
 21
484.7891447703
 31
0.0
  0
LINE
  5
659
330
1B
100
AcDbEntity
 67
     1
  8
7_ALL_FEATURES
  6
Continuous
 62
     3
100
AcDbLine
 10
1141.7022439081
 20
445.9891447703
 30
0.0
 11
1141.7022439081
 21
445.2891447703
 31
0.0
  0
LINE
  5
65A
330
1B
100
AcDbEntity
 67
     1
  8
7_ALL_FEATURES
  6
Continuous
 62
     3
100
AcDbLine
 10
1141.7022439081
 20
399.7891447703
 30
0.0
 11
1141.7022439081
 21
399.5891447703
 31
0.0
  0
LINE
  5
65B
330
1B
100
AcDbEntity
 67
     1
  8
7_ALL_FEATURES
  6
Continuous
 62
     3
100
AcDbLine
 10
1141.7022439081
 20
399.7891447703
 30
0.0
 11
1141.7022439081
 21
400.7891447703
 31
0.0
  0
LINE
  5
65C
330
1B
100
AcDbEntity
 67
     1
  8
7_ALL_FEATURES
  6
Continuous
 62
     3
100
AcDbLine
 10
1141.7022439081
 20
409.7891447703
 30
0.0
 11
1141.7022439081
 21
410.7891447703
 31
0.0
  0
LINE
  5
65D
330
1B
100
AcDbEntity
 67
     1
  8
7_ALL_FEATURES
  6
Continuous
 62
     3
100
AcDbLine
 10
1141.7022439081
 20
435.2891447703
 30
0.0
 11
1141.7022439081
 21
434.5891447703
 31
0.0
  0
LINE
  5
65E
330
1B
100
AcDbEntity
 67
     1
  8
7_ALL_FEATURES
  6
Continuous
 62
     3
100
AcDbLine
 10
1141.7022439081
 20
410.9891447703
 30
0.0
 11
1141.7022439081
 21
410.7891447703
 31
0.0
  0
LINE
  5
65F
330
1B
100
AcDbEntity
 67
     1
  8
7_ALL_FEATURES
  6
Continuous
 62
     3
100
AcDbLine
 10
1141.7022439081
 20
435.2891447703
 30
0.0
 11
1141.7022439081
 21
435.7891447703
 31
0.0
  0
LINE
  5
660
330
1B
100
AcDbEntity
 67
     1
  8
7_ALL_FEATURES
  6
Continuous
 62
     3
100
AcDbLine
 10
1141.7022439081
 20
444.7891447703
 30
0.0
 11
1141.7022439081
 21
445.2891447703
 31
0.0
  0
LINE
  5
661
330
1B
100
AcDbEntity
 67
     1
  8
7_ALL_FEATURES
  6
Continuous
 62
     3
100
AcDbLine
 10
1132.3883118856
 20
396.2891447703
 30
0.0
 11
1127.9161759306
 21
396.2891447703
 31
0.0
  0
LINE
  5
662
330
1B
100
AcDbEntity
 67
     1
  8
7_ALL_FEATURES
  6
Continuous
 62
     3
100
AcDbLine
 10
1118.6022439081
 20
410.7891447703
 30
0.0
 11
1118.6022439081
 21
410.9891447703
 31
0.0
  0
LINE
  5
663
330
1B
100
AcDbEntity
 67
     1
  8
7_ALL_FEATURES
  6
Continuous
 62
     3
100
AcDbLine
 10
1118.6022439081
 20
434.7891447703
 30
0.0
 11
1118.6022439081
 21
435.2891447703
 31
0.0
  0
LINE
  5
664
330
1B
100
AcDbEntity
 67
     1
  8
7_ALL_FEATURES
  6
Continuous
 62
     3
100
AcDbLine
 10
1118.6022439081
 20
399.7891447703
 30
0.0
 11
1118.6022439081
 21
400.7891447703
 31
0.0
  0
LINE
  5
665
330
1B
100
AcDbEntity
 67
     1
  8
7_ALL_FEATURES
  6
Continuous
 62
     3
100
AcDbLine
 10
1118.6022439081
 20
409.7891447703
 30
0.0
 11
1118.6022439081
 21
410.7891447703
 31
0.0
  0
LINE
  5
666
330
1B
100
AcDbEntity
 67
     1
  8
7_ALL_FEATURES
  6
Continuous
 62
     3
100
AcDbLine
 10
1118.6022439081
 20
399.5891447703
 30
0.0
 11
1118.6022439081
 21
399.7891447703
 31
0.0
  0
LINE
  5
667
330
1B
100
AcDbEntity
 67
     1
  8
7_ALL_FEATURES
  6
Continuous
 62
     3
100
AcDbLine
 10
1118.6022439081
 20
445.2891447703
 30
0.0
 11
1118.6022439081
 21
445.7891447703
 31
0.0
  0
LINE
  5
668
330
1B
100
AcDbEntity
 67
     1
  8
7_ALL_FEATURES
  6
Continuous
 62
     3
100
AcDbLine
 10
1118.6022439081
 20
484.7891447703
 30
0.0
 11
1118.6022439081
 21
485.2891447703
 31
0.0
  0
LINE
  5
669
330
1B
100
AcDbEntity
 67
     1
  8
7_ALL_FEATURES
  6
Continuous
 62
     3
100
AcDbLine
 10
1118.6022439081
 20
435.2891447703
 30
0.0
 11
1118.6022439081
 21
435.7891447703
 31
0.0
  0
LINE
  5
66A
330
1B
100
AcDbEntity
 67
     1
  8
7_ALL_FEATURES
  6
Continuous
 62
     3
100
AcDbLine
 10
1118.6022439081
 20
444.7891447703
 30
0.0
 11
1118.6022439081
 21
445.2891447703
 31
0.0
  0
DIMENSION
  5
66B
330
1B
100
AcDbEntity
 67
     1
  8
0
  6
Continuous
 62
     2
100
AcDbDimension
280
     0
  2
*D1
 10
1086.2615100203
 20
393.8391447703
 30
0.0
 11
1086.2615100203
 21
439.1355715263
 31
0.0
 70
   160
 71
     5
 42
-1.0
 73
     0
 74
     0
 75
     0
  3
DIMSTYLE_1
100
AcDbAlignedDimension
 13
1061.7284497865
 23
485.2891447703
 33
0.0
 14
1021.7284497865
 24
393.8391447703
 34
0.0
 50
270.0
100
AcDbRotatedDimension
  0
DIMENSION
  5
66C
330
1B
100
AcDbEntity
 67
     1
  8
0
  6
Continuous
 62
     2
100
AcDbDimension
280
     0
  2
*D2
 10
1078.5443705898
 20
250.1001954996
 30
0.0
 11
1078.5443705898
 21
262.5216428071
 31
0.0
 70
   160
 71
     5
 42
-1.0
 73
     0
 74
     0
 75
     0
  3
DIMSTYLE_2
100
AcDbAlignedDimension
 13
1059.7284497865
 23
275.8001954996
 33
0.0
 14
1059.7284497865
 24
250.1001954996
 34
0.0
 50
270.0
100
AcDbRotatedDimension
  0
DIMENSION
  5
66D
330
1B
100
AcDbEntity
 67
     1
  8
0
  6
Continuous
 62
     2
100
AcDbDimension
280
     0
  2
*D3
 10
1086.2615100203
 20
226.9501954996
 30
0.0
 11
1086.2615100203
 21
262.5216097609
 31
0.0
 70
   160
 71
     5
 42
-1.0
 73
     0
 74
     0
 75
     0
  3
DIMSTYLE_3
100
AcDbAlignedDimension
 13
1016.4784497865
 23
298.9501954996
 33
0.0
 14
1016.4784497865
 24
226.9501954996
 34
0.0
 50
270.0
100
AcDbRotatedDimension
  0
DIMENSION
  5
66E
330
1B
100
AcDbEntity
 67
     1
  8
0
  6
Continuous
 62
     2
100
AcDbDimension
280
     0
  2
*D4
 10
1061.7284497865
 20
215.5962701572
 30
0.0
 11
554.7998712921
 21
215.5962701572
 31
0.0
 70
   160
 71
     5
 42
-1.0
 73
     0
 74
     0
 75
     0
  3
DIMSTYLE_4
100
AcDbAlignedDimension
 13
48.7284497865
 23
251.4001954996
 33
0.0
 14
1061.7284497865
 24
251.4001954996
 34
0.0
100
AcDbRotatedDimension
  0
DIMENSION
  5
66F
330
1B
100
AcDbEntity
 67
     1
  8
0
  6
Continuous
 62
     2
100
AcDbDimension
280
     0
  2
*D5
 10
1166.1522439081
 20
383.4639257393
 30
0.0
 11
1129.7236619263
 21
383.4639257393
 31
0.0
 70
   160
 71
     5
 42
-1.0
 73
     0
 74
     0
 75
     0
  3
DIMSTYLE_3
100
AcDbAlignedDimension
 13
1094.1522439081
 23
385.6732931915
 33
0.0
 14
1166.1522439081
 24
385.6732931915
 34
0.0
100
AcDbRotatedDimension
  0
DIMENSION
  5
670
330
1B
100
AcDbEntity
 67
     1
  8
0
  6
Continuous
 62
     2
100
AcDbDimension
280
     0
  2
*D6
 10
1141.7022439081
 20
500.1054809301
 30
0.0
 11
1129.7236619263
 21
500.1054809301
 31
0.0
 70
   160
 71
     5
 42
-1.0
 73
     0
 74
     0
 75
     0
  3
DIMSTYLE_5
100
AcDbAlignedDimension
 13
1118.6022439081
 23
484.7891447703
 33
0.0
 14
1141.7022439081
 24
484.7891447703
 34
0.0
100
AcDbRotatedDimension
  0
LINE
  5
671
330
1B
100
AcDbEntity
 67
     1
  8
0
  6
Continuous
 62
     2
100
AcDbLine
 10
1042.4462098818
 20
77.0557432432
 30
0.0
 11
1172.4462098818
 21
77.0557432432
 31
0.0
  0
LINE
  5
672
330
1B
100
AcDbEntity
 67
     1
  8
0
  6
Continuous
 62
     2
100
AcDbLine
 10
1042.4462098818
 20
77.0557432432
 30
0.0
 11
1042.4462098818
 21
11.0557432432
 31
0.0
  0
LINE
  5
673
330
1B
100
AcDbEntity
 67
     1
  8
0
  6
Continuous
 62
     2
100
AcDbLine
 10
1072.4462098818
 20
69.0557432432
 30
0.0
 11
1172.4462098818
 21
69.0557432432
 31
0.0
  0
LINE
  5
674
330
1B
100
AcDbEntity
 67
     1
  8
0
  6
Continuous
 62
     2
100
AcDbLine
 10
1042.4462098818
 20
61.0557432432
 30
0.0
 11
1172.4462098818
 21
61.0557432432
 31
0.0
  0
LINE
  5
675
330
1B
100
AcDbEntity
 67
     1
  8
0
  6
Continuous
 62
     2
100
AcDbLine
 10
1072.4462098818
 20
55.0557432432
 30
0.0
 11
1172.4462098818
 21
55.0557432432
 31
0.0
  0
LINE
  5
676
330
1B
100
AcDbEntity
 67
     1
  8
0
  6
Continuous
 62
     2
100
AcDbLine
 10
1072.4462098818
 20
49.0557432432
 30
0.0
 11
1172.4462098818
 21
49.0557432432
 31
0.0
  0
LINE
  5
677
330
1B
100
AcDbEntity
 67
     1
  8
0
  6
Continuous
 62
     2
100
AcDbLine
 10
1072.4462098818
 20
43.0557432432
 30
0.0
 11
1172.4462098818
 21
43.0557432432
 31
0.0
  0
LINE
  5
678
330
1B
100
AcDbEntity
 67
     1
  8
0
  6
Continuous
 62
     2
100
AcDbLine
 10
1072.4462098818
 20
37.0557432432
 30
0.0
 11
1172.4462098818
 21
37.0557432432
 31
0.0
  0
LINE
  5
679
330
1B
100
AcDbEntity
 67
     1
  8
0
  6
Continuous
 62
     2
100
AcDbLine
 10
1072.4462098818
 20
31.0557432432
 30
0.0
 11
1172.4462098818
 21
31.0557432432
 31
0.0
  0
LINE
  5
67A
330
1B
100
AcDbEntity
 67
     1
  8
0
  6
Continuous
 62
     2
100
AcDbLine
 10
1042.4462098818
 20
25.0557432432
 30
0.0
 11
1172.4462098818
 21
25.0557432432
 31
0.0
  0
LINE
  5
67B
330
1B
100
AcDbEntity
 67
     1
  8
0
  6
Continuous
 62
     2
100
AcDbLine
 10
1042.4462098818
 20
19.0557432432
 30
0.0
 11
1172.4462098818
 21
19.0557432432
 31
0.0
  0
LINE
  5
67C
330
1B
100
AcDbEntity
 67
     1
  8
0
  6
Continuous
 62
     2
100
AcDbLine
 10
1042.4462098818
 20
15.0557432432
 30
0.0
 11
1172.4462098818
 21
15.0557432432
 31
0.0
  0
LINE
  5
67D
330
1B
100
AcDbEntity
 67
     1
  8
0
  6
Continuous
 62
     2
100
AcDbLine
 10
1042.4462098818
 20
11.0557432432
 30
0.0
 11
1172.4462098818
 21
11.0557432432
 31
0.0
  0
LINE
  5
67E
330
1B
100
AcDbEntity
 67
     1
  8
0
  6
Continuous
 62
     2
100
AcDbLine
 10
1072.4462098818
 20
77.0557432432
 30
0.0
 11
1072.4462098818
 21
19.0557432432
 31
0.0
  0
LINE
  5
67F
330
1B
100
AcDbEntity
 67
     1
  8
0
  6
Continuous
 62
     2
100
AcDbLine
 10
1092.4462098818
 20
61.0557432432
 30
0.0
 11
1092.4462098818
 21
55.0557432432
 31
0.0
  0
LINE
  5
680
330
1B
100
AcDbEntity
 67
     1
  8
0
  6
Continuous
 62
     2
100
AcDbLine
 10
1122.4462098818
 20
31.0557432432
 30
0.0
 11
1122.4462098818
 21
19.0557432432
 31
0.0
  0
LINE
  5
681
330
1B
100
AcDbEntity
 67
     1
  8
0
  6
Continuous
 62
     2
100
AcDbLine
 10
1132.4462098818
 20
61.0557432432
 30
0.0
 11
1132.4462098818
 21
55.0557432432
 31
0.0
  0
LINE
  5
682
330
1B
100
AcDbEntity
 67
     1
  8
0
  6
Continuous
 62
     2
100
AcDbLine
 10
1132.4462098818
 20
49.0557432432
 30
0.0
 11
1132.4462098818
 21
43.0557432432
 31
0.0
  0
LINE
  5
683
330
1B
100
AcDbEntity
 67
     1
  8
0
  6
Continuous
 62
     2
100
AcDbLine
 10
1152.4462098818
 20
61.0557432432
 30
0.0
 11
1152.4462098818
 21
55.0557432432
 31
0.0
  0
LINE
  5
684
330
1B
100
AcDbEntity
 67
     1
  8
0
  6
Continuous
 62
     2
100
AcDbLine
 10
1162.4462098818
 20
49.0557432432
 30
0.0
 11
1162.4462098818
 21
43.0557432432
 31
0.0
  0
LINE
  5
685
330
1B
100
AcDbEntity
 67
     1
  8
0
  6
Continuous
 62
     2
100
AcDbLine
 10
1172.4462098818
 20
77.0557432432
 30
0.0
 11
1172.4462098818
 21
11.0557432432
 31
0.0
  0
INSERT
  5
686
330
1B
100
AcDbEntity
 67
     1
  8
0
  6
Continuous
 62
     2
100
AcDbBlockReference
  2
PROIEZIONE_EU_BL0
 10
1057.4462098818
 20
68.6807432432
 30
0.0
  0
MTEXT
  5
687
330
1B
100
AcDbEntity
 67
     1
  8
9_SOLID
  6
Continuous
 62
     2
100
AcDbMText
 10
1073.9337098818
 20
75.4307432432
 30
0.0
 40
1.9
 41
142.3642857143
 46
0.0
 71
     1
 72
     1
  1
EN: Chamfer/radii unlisted 0.3x45°. Remove sharp edges.\PGen. tol.: hole H11, shaft h11, lenght Js12. UNI EN 22768 Medium Grande.
 73
     1
 44
1.0
  0
MTEXT
  5
688
330
1B
100
AcDbEntity
 67
     1
  8
9_SOLID
  6
Continuous
 62
     2
100
AcDbMText
 10
1073.9337098818
 20
67.4307432432
 30
0.0
 40
1.9
 41
148.2678571429
 46
0.0
 71
     1
 72
     1
  1
IT: Sm./rac. non quotati 0.3x45°. Eliminare spigoli taglienti.\PToll. gen.: foro H11, albero h11, lunghezza Js12. UNI EN 22768 Grado Medio.
 73
     1
 44
1.0
  0
INSERT
  5
689
330
1B
100
AcDbEntity
 67
     1
  8
0
  6
Continuous
 62
     2
100
AcDbBlockReference
  2
LOGO2_BL1
 10
1056.2722569265
 20
43.0557432432
 30
0.0
  0
MTEXT
  5
68A
330
1B
100
AcDbEntity
 67
     1
  8
9_SOLID
  6
Continuous
 62
     2
100
AcDbMText
 10
1073.9337098818
 20
59.3057432432
 30
0.0
 40
3.0
 41
22.0714285714
 46
0.0
 71
     1
 72
     1
  1
Pj: 570
 73
     1
 44
1.0
  0
MTEXT
  5
68B
330
1B
100
AcDbEntity
 67
     1
  8
0
  6
Continuous
 62
     2
100
AcDbMText
 10
1093.9337098818
 20
59.3057432432
 30
0.0
 40
3.0
 41
41.5714285714
 46
0.0
 71
     1
 72
     1
  1
% Check:  %
 73
     1
 44
1.0
  0
MTEXT
  5
68C
330
1B
100
AcDbEntity
 67
     1
  8
9_SOLID
  6
Continuous
 62
     2
100
AcDbMText
 10
1133.9337098818
 20
59.3057432432
 30
0.0
 40
3.0
 41
19.5
 46
0.0
 71
     1
 72
     1
  1
Rev:00
 73
     1
 44
1.0
  0
MTEXT
  5
68D
330
1B
100
AcDbEntity
 67
     1
  8
9_SOLID
  6
Continuous
 62
     2
100
AcDbMText
 10
1153.9337098818
 20
59.5557432432
 30
0.0
 40
3.0
 41
19.7142857143
 46
0.0
 71
     1
 72
     1
  1
Ver: A
 73
     1
 44
1.0
  0
MTEXT
  5
68E
330
1B
100
AcDbEntity
 67
     1
  8
9_SOLID
  6
Continuous
 62
     2
100
AcDbMText
 10
1073.9337098818
 20
53.3057432432
 30
0.0
 40
3.0
 41
74.3571428571
 46
0.0
 71
     1
 72
     1
  1
Neutral code: 570_C_437
 73
     1
 44
1.0
  0
MTEXT
  5
68F
330
1B
100
AcDbEntity
 67
     1
  8
0
  6
Continuous
 62
     2
100
AcDbMText
 10
1073.9337098818
 20
47.3057432432
 30
0.0
 40
3.0
 41
22.9285714286
 46
0.0
 71
     1
 72
     1
  1
Code:  
 73
     1
 44
1.0
  0
MTEXT
  5
690
330
1B
100
AcDbEntity
 67
     1
  8
9_SOLID
  6
Continuous
 62
     2
100
AcDbMText
 10
1133.9337098818
 20
47.5557432432
 30
0.0
 40
3.0
 41
27.8571428571
 46
0.0
 71
     1
 72
     1
  1
Scale: 1:1
 73
     1
 44
1.0
  0
MTEXT
  5
691
330
1B
100
AcDbEntity
 67
     1
  8
9_SOLID
  6
Continuous
 62
     2
100
AcDbMText
 10
1167.4462098818
 20
47.5557432432
 30
0.0
 40
3.0
 41
8.25
 46
0.0
 71
     2
 72
     1
  1
A0
 73
     1
 44
1.0
  0
MTEXT
  5
692
330
1B
100
AcDbEntity
 67
     1
  8
9_SOLID
  6
Continuous
 62
     2
100
AcDbMText
 10
1073.9337098818
 20
41.5557432432
 30
0.0
 40
3.0
 41
135.4285714286
 46
0.0
 71
     1
 72
     1
  1
It descr.: CASSAFORMA RIO1.2 mm.1013 INOX
 73
     1
 44
1.0
  0
MTEXT
  5
693
330
1B
100
AcDbEntity
 67
     1
  8
0
  6
Continuous
 62
     2
100
AcDbMText
 10
1073.9337098818
 20
35.5557432432
 30
0.0
 40
3.0
 41
37.5
 46
0.0
 71
     1
 72
     1
  1
En descr.:  
 73
     1
 44
1.0
  0
MTEXT
  5
694
330
1B
100
AcDbEntity
 67
     1
  8
9_SOLID
  6
Continuous
 62
     2
100
AcDbMText
 10
1073.9337098818
 20
29.5557432432
 30
0.0
 40
3.0
 41
31.2857142857
 46
0.0
 71
     1
 72
     1
  1
Des.: S.Z.
 73
     1
 44
1.0
  0
MTEXT
  5
695
330
1B
100
AcDbEntity
 67
     1
  8
9_SOLID
  6
Continuous
 62
     2
100
AcDbMText
 10
1123.9337098818
 20
29.5557432432
 30
0.0
 40
3.0
 41
22.2857142857
 46
0.0
 71
     1
 72
     1
  1
Check: 
 73
     1
 44
1.0
  0
MTEXT
  5
696
330
1B
100
AcDbEntity
 67
     1
  8
9_SOLID
  6
Continuous
 62
     2
100
AcDbMText
 10
1043.9337098818
 20
23.5557432432
 30
0.0
 40
3.0
 41
43.1785714286
 46
0.0
 71
     1
 72
     1
  1
Date: 16.05.16
 73
     1
 44
1.0
  0
MTEXT
  5
697
330
1B
100
AcDbEntity
 67
     1
  8
0
  6
Continuous
 62
     2
100
AcDbMText
 10
1073.9337098818
 20
23.5557432432
 30
0.0
 40
3.0
 41
21.75
 46
0.0
 71
     1
 72
     1
  1
Mat.:  
 73
     1
 44
1.0
  0
MTEXT
  5
698
330
1B
100
AcDbEntity
 67
     1
  8
9_SOLID
  6
Continuous
 62
     2
100
AcDbMText
 10
1123.9337098818
 20
23.0557432432
 30
0.0
 40
2.0
 41
42.3571428571
 46
0.0
 71
     1
 72
     1
  1
Disegno per catalogo
 73
     1
 44
1.0
  0
MTEXT
  5
699
330
1B
100
AcDbEntity
 67
     1
  8
9_SOLID
  6
Continuous
 62
     2
100
AcDbMText
 10
1043.9337098818
 20
17.9557432432
 30
0.0
 40
1.8
 41
176.2071428571
 46
0.0
 71
     1
 72
     1
  1
It: A norma di legge si diffida da qualsiasi riproduzione senza nostra autorizzazione esplicita.
 73
     1
 44
1.0
  0
MTEXT
  5
69A
330
1B
100
AcDbEntity
 67
     1
  8
9_SOLID
  6
Continuous
 62
     2
100
AcDbMText
 10
1043.9337098818
 20
13.9557432432
 30
0.0
 40
1.8
 41
158.1428571429
 46
0.0
 71
     1
 72
     1
  1
En: According to the law, beware of any reproduction made without our authorization.
 73
     1
 44
1.0
  0
ENDSEC
  0
SECTION
  2
OBJECTS
  0
DICTIONARY
  5
69B
330
0
100
AcDbDictionary
281
     1
  3
ACAD_DETAILVIEWSTYLE
350
6F1
  3
ACAD_GROUP
350
69C
  3
ACAD_LAYOUT
350
6C4
  3
ACAD_MATERIAL
350
6E0
  3
ACAD_MLEADERSTYLE
350
6E6
  3
ACAD_MLINESTYLE
350
69D
  3
ACAD_PLOTSETTINGS
350
69F
  3
ACAD_PLOTSTYLENAME
350
6A0
  3
ACAD_SCALELIST
350
6A2
  3
ACAD_SECTIONVIEWSTYLE
350
6F2
  3
ACAD_TABLESTYLE
350
6E4
  3
ACAD_VISUALSTYLE
350
6C7
  3
ACDB_RECOMPOSE_DATA
350
6ED
  3
AcDbVariableDictionary
350
6E9
  3
APPDATA
350
6E8
  0
DICTIONARY
  5
6F1
102
{ACAD_REACTORS
330
69B
102
}
330
69B
100
AcDbDictionary
281
     1
  0
DICTIONARY
  5
69C
102
{ACAD_REACTORS
330
69B
102
}
330
69B
100
AcDbDictionary
281
     1
  0
DICTIONARY
  5
6C4
102
{ACAD_REACTORS
330
69B
102
}
330
69B
100
AcDbDictionary
281
     1
  3
Foglio 1
350
6C6
  3
Model
350
6C5
  0
DICTIONARY
  5
6E0
102
{ACAD_REACTORS
330
69B
102
}
330
69B
100
AcDbDictionary
281
     1
  3
ByBlock
350
6E2
  3
ByLayer
350
6E1
  3
Global
350
6E3
  0
DICTIONARY
  5
6E6
102
{ACAD_REACTORS
330
69B
102
}
330
69B
100
AcDbDictionary
281
     1
  3
Standard
350
6E7
  0
DICTIONARY
  5
69D
102
{ACAD_REACTORS
330
69B
102
}
330
69B
100
AcDbDictionary
281
     1
  3
STANDARD
350
69E
  0
DICTIONARY
  5
69F
102
{ACAD_REACTORS
330
69B
102
}
330
69B
100
AcDbDictionary
281
     1
  0
ACDBDICTIONARYWDFLT
  5
6A0
102
{ACAD_REACTORS
330
69B
102
}
330
69B
100
AcDbDictionary
281
     1
  3
Normal
350
6A1
100
AcDbDictionaryWithDefault
340
6A1
  0
DICTIONARY
  5
6A2
102
{ACAD_REACTORS
330
69B
102
}
330
69B
100
AcDbDictionary
281
     1
  3
A0
350
6A3
  3
A1
350
6A4
  3
A2
350
6A5
  3
A3
350
6A6
  3
A4
350
6A7
  3
A5
350
6A8
  3
A6
350
6A9
  3
A7
350
6AA
  3
A8
350
6AB
  3
A9
350
6AC
  3
B0
350
6AD
  3
B1
350
6AE
  3
B2
350
6AF
  3
B3
350
6B0
  3
B4
350
6B1
  3
B5
350
6B2
  3
B6
350
6B3
  3
B7
350
6B4
  3
B8
350
6B5
  3
B9
350
6B6
  3
C0
350
6B7
  3
C1
350
6B8
  3
C2
350
6B9
  3
C3
350
6BA
  3
C4
350
6BB
  3
C5
350
6BC
  3
C6
350
6BD
  3
C7
350
6BE
  3
C8
350
6BF
  3
C9
350
6C0
  3
D0
350
6C1
  3
D1
350
6C2
  3
D2
350
6C3
  0
DICTIONARY
  5
6F2
102
{ACAD_REACTORS
330
69B
102
}
330
69B
100
AcDbDictionary
281
     1
  0
DICTIONARY
  5
6E4
102
{ACAD_REACTORS
330
69B
102
}
330
69B
100
AcDbDictionary
281
     1
  3
Standard
350
6E5
  0
DICTIONARY
  5
6C7
102
{ACAD_REACTORS
330
69B
102
}
330
69B
100
AcDbDictionary
281
     1
  3
2dWireframe
350
6CC
  3
Basic
350
6CF
  3
Brighten
350
6D3
  3
ColorChange
350
6D7
  3
Conceptual
350
6D1
  3
Dim
350
6D2
  3
EdgeColorOff
350
6DA
  3
Facepattern
350
6D6
  3
Flat
350
6C8
  3
FlatWithEdges
350
6C9
  3
Gouraud
350
6CA
  3
GouraudWithEdges
350
6CB
  3
Hidden
350
6CE
  3
JitterOff
350
6D8
  3
Linepattern
350
6D5
  3
OverhangOff
350
6D9
  3
Realistic
350
6D0
  3
Shaded
350
6DF
  3
Shaded with edges
350
6DE
  3
Shades of Gray
350
6DB
  3
Sketchy
350
6DC
  3
Thicken
350
6D4
  3
Wireframe
350
6CD
  3
X-Ray
350
6DD
  0
XRECORD
  5
6ED
102
{ACAD_REACTORS
330
69B
102
}
330
69B
100
AcDbXrecord
280
     1
 90
        1
330
6E5
  0
DICTIONARY
  5
6E9
102
{ACAD_REACTORS
330
69B
102
}
330
69B
100
AcDbDictionary
281
     1
  3
CANNOSCALE
350
6EA
  3
CMLEADERSTYLE
350
6EF
  3
CTABLESTYLE
350
6EE
  3
MSLTSCALE
350
6F0
  0
DICTIONARY
  5
6E8
102
{ACAD_REACTORS
330
69B
102
}
330
69B
100
AcDbDictionary
281
     1
  0
LAYOUT
  5
6C6
102
{ACAD_REACTORS
330
6C4
102
}
330
6C4
100
AcDbPlotSettings
  1

  2
none_device
  4
ISO_A3_(420.00_x_297.00_MM)
  6

 40
7.5
 41
20.0
 42
7.5
 43
20.0
 44
420.0
 45
297.0
 46
0.0
 47
0.0
 48
0.0
 49
0.0
140
0.0
141
0.0
142
1.0
143
3.272373540856031
 70
   688
 72
     1
 73
     0
 74
     1
  7

 75
     0
 76
     0
 77
     2
 78
   300
147
0.3055885850178359
148
0.0
149
0.0
100
AcDbLayout
  1
Foglio 1
 70
     1
 71
     1
 10
0.0
 20
0.0
 11
412.5
 21
277.0
 12
0.0
 22
0.0
 32
0.0
 14
0.0
 24
0.0
 34
0.0
 15
1189.0
 25
841.0
 35
0.0
146
0.0
 13
0.0
 23
0.0
 33
0.0
 16
1.0
 26
0.0
 36
0.0
 17
0.0
 27
1.0
 37
0.0
 76
     0
330
1B
331
2B5
  0
LAYOUT
  5
6C5
102
{ACAD_REACTORS
330
6C4
102
}
330
6C4
100
AcDbPlotSettings
  1

  2
none_device
  4
Letter_(8.50_x_11.00_Inches)
  6

 40
6.35
 41
6.35
 42
6.35
 43
6.35
 44
215.9
 45
279.4
 46
0.0
 47
0.0
 48
0.0
 49
0.0
140
0.0
141
0.0
142
1.0
143
148.624999994925
 70
  1712
 72
     0
 73
     0
 74
     0
  7

 75
     0
 76
     0
 77
     2
 78
   300
147
0.0067283431457302
148
-0.0000005156208999
149
0.0
100
AcDbLayout
  1
Model
 70
     1
 71
     0
 10
0.0
 20
0.0
 11
1189.0
 21
841.0
 12
0.0
 22
0.0
 32
0.0
 14
0.0
 24
0.0
 34
0.0
 15
1189.0
 25
841.0
 35
0.0
146
0.0
 13
0.0
 23
0.0
 33
0.0
 16
1.0
 26
0.0
 36
0.0
 17
0.0
 27
1.0
 37
0.0
 76
     0
330
1F
331
1F4
  0
MATERIAL
  5
6E2
102
{ACAD_REACTORS
330
6E0
102
}
330
6E0
100
AcDbMaterial
  1
ByBlock
 72
     1
 94
      127
  0
MATERIAL
  5
6E1
102
{ACAD_REACTORS
330
6E0
102
}
330
6E0
100
AcDbMaterial
  1
ByLayer
 72
     1
 94
      127
  0
MATERIAL
  5
6E3
102
{ACAD_REACTORS
330
6E0
102
}
330
6E0
100
AcDbMaterial
  1
Global
 72
     1
 94
      127
  0
MLEADERSTYLE
  5
6E7
102
{ACAD_REACTORS
330
6E6
102
}
330
6E6
100
AcDbMLeaderStyle
179
     2
170
     2
171
     1
172
     0
 90
        2
 40
0.0
 41
0.0
173
     1
 91
-1056964608
340
14
 92
       -2
290
     1
 42
2.0
291
     1
 43
8.0
  3
Standard
341
0
 44
4.0
300

342
11
174
     1
178
     1
175
     1
176
     0
 93
-1056964608
 45
4.0
292
     0
297
     0
 46
4.0
343
0
 94
-1056964608
 47
1.0
 49
1.0
140
1.0
293
     1
141
0.0
294
     1
177
     0
142
1.0
295
     0
296
     0
143
3.75
271
     0
272
     9
273
     9
298
     0
  0
MLINESTYLE
  5
69E
102
{ACAD_REACTORS
330
69D
102
}
330
69D
100
AcDbMlineStyle
  2
STANDARD
 70
     0
  3

 62
   256
 51
90.0
 52
90.0
 71
     2
 49
0.5
 62
   256
  6
BYLAYER
 49
-0.5
 62
   256
  6
BYLAYER
  0
ACDBPLACEHOLDER
  5
6A1
102
{ACAD_REACTORS
330
6A0
102
}
330
6A0
  0
SCALE
  5
6A3
102
{ACAD_REACTORS
330
6A2
102
}
330
6A2
100
AcDbScale
 70
     0
300
1:1
140
1.0
141
1.0
290
     1
  0
SCALE
  5
6A4
102
{ACAD_REACTORS
330
6A2
102
}
330
6A2
100
AcDbScale
 70
     0
300
1:2
140
1.0
141
2.0
290
     0
  0
SCALE
  5
6A5
102
{ACAD_REACTORS
330
6A2
102
}
330
6A2
100
AcDbScale
 70
     0
300
1:4
140
1.0
141
4.0
290
     0
  0
SCALE
  5
6A6
102
{ACAD_REACTORS
330
6A2
102
}
330
6A2
100
AcDbScale
 70
     0
300
1:5
140
1.0
141
5.0
290
     0
  0
SCALE
  5
6A7
102
{ACAD_REACTORS
330
6A2
102
}
330
6A2
100
AcDbScale
 70
     0
300
1:8
140
1.0
141
8.0
290
     0
  0
SCALE
  5
6A8
102
{ACAD_REACTORS
330
6A2
102
}
330
6A2
100
AcDbScale
 70
     0
300
1:10
140
1.0
141
10.0
290
     0
  0
SCALE
  5
6A9
102
{ACAD_REACTORS
330
6A2
102
}
330
6A2
100
AcDbScale
 70
     0
300
1:16
140
1.0
141
16.0
290
     0
  0
SCALE
  5
6AA
102
{ACAD_REACTORS
330
6A2
102
}
330
6A2
100
AcDbScale
 70
     0
300
1:20
140
1.0
141
20.0
290
     0
  0
SCALE
  5
6AB
102
{ACAD_REACTORS
330
6A2
102
}
330
6A2
100
AcDbScale
 70
     0
300
1:30
140
1.0
141
30.0
290
     0
  0
SCALE
  5
6AC
102
{ACAD_REACTORS
330
6A2
102
}
330
6A2
100
AcDbScale
 70
     0
300
1:40
140
1.0
141
40.0
290
     0
  0
SCALE
  5
6AD
102
{ACAD_REACTORS
330
6A2
102
}
330
6A2
100
AcDbScale
 70
     0
300
1:50
140
1.0
141
50.0
290
     0
  0
SCALE
  5
6AE
102
{ACAD_REACTORS
330
6A2
102
}
330
6A2
100
AcDbScale
 70
     0
300
1:100
140
1.0
141
100.0
290
     0
  0
SCALE
  5
6AF
102
{ACAD_REACTORS
330
6A2
102
}
330
6A2
100
AcDbScale
 70
     0
300
2:1
140
2.0
141
1.0
290
     0
  0
SCALE
  5
6B0
102
{ACAD_REACTORS
330
6A2
102
}
330
6A2
100
AcDbScale
 70
     0
300
4:1
140
4.0
141
1.0
290
     0
  0
SCALE
  5
6B1
102
{ACAD_REACTORS
330
6A2
102
}
330
6A2
100
AcDbScale
 70
     0
300
8:1
140
8.0
141
1.0
290
     0
  0
SCALE
  5
6B2
102
{ACAD_REACTORS
330
6A2
102
}
330
6A2
100
AcDbScale
 70
     0
300
10:1
140
10.0
141
1.0
290
     0
  0
SCALE
  5
6B3
102
{ACAD_REACTORS
330
6A2
102
}
330
6A2
100
AcDbScale
 70
     0
300
100:1
140
100.0
141
1.0
290
     0
  0
SCALE
  5
6B4
102
{ACAD_REACTORS
330
6A2
102
}
330
6A2
100
AcDbScale
 70
     0
300
1/128" = 1'-0"
140
0.0078125
141
12.0
290
     0
  0
SCALE
  5
6B5
102
{ACAD_REACTORS
330
6A2
102
}
330
6A2
100
AcDbScale
 70
     0
300
1/64" = 1'-0"
140
0.015625
141
12.0
290
     0
  0
SCALE
  5
6B6
102
{ACAD_REACTORS
330
6A2
102
}
330
6A2
100
AcDbScale
 70
     0
300
1/32" = 1'-0"
140
0.03125
141
12.0
290
     0
  0
SCALE
  5
6B7
102
{ACAD_REACTORS
330
6A2
102
}
330
6A2
100
AcDbScale
 70
     0
300
1/16" = 1'-0"
140
0.0625
141
12.0
290
     0
  0
SCALE
  5
6B8
102
{ACAD_REACTORS
330
6A2
102
}
330
6A2
100
AcDbScale
 70
     0
300
3/32" = 1'-0"
140
0.09375
141
12.0
290
     0
  0
SCALE
  5
6B9
102
{ACAD_REACTORS
330
6A2
102
}
330
6A2
100
AcDbScale
 70
     0
300
1/8" = 1'-0"
140
0.125
141
12.0
290
     0
  0
SCALE
  5
6BA
102
{ACAD_REACTORS
330
6A2
102
}
330
6A2
100
AcDbScale
 70
     0
300
3/16" = 1'-0"
140
0.1875
141
12.0
290
     0
  0
SCALE
  5
6BB
102
{ACAD_REACTORS
330
6A2
102
}
330
6A2
100
AcDbScale
 70
     0
300
1/4" = 1'-0"
140
0.25
141
12.0
290
     0
  0
SCALE
  5
6BC
102
{ACAD_REACTORS
330
6A2
102
}
330
6A2
100
AcDbScale
 70
     0
300
3/8" = 1'-0"
140
0.375
141
12.0
290
     0
  0
SCALE
  5
6BD
102
{ACAD_REACTORS
330
6A2
102
}
330
6A2
100
AcDbScale
 70
     0
300
1/2" = 1'-0"
140
0.5
141
12.0
290
     0
  0
SCALE
  5
6BE
102
{ACAD_REACTORS
330
6A2
102
}
330
6A2
100
AcDbScale
 70
     0
300
3/4" = 1'-0"
140
0.75
141
12.0
290
     0
  0
SCALE
  5
6BF
102
{ACAD_REACTORS
330
6A2
102
}
330
6A2
100
AcDbScale
 70
     0
300
1" = 1'-0"
140
1.0
141
12.0
290
     0
  0
SCALE
  5
6C0
102
{ACAD_REACTORS
330
6A2
102
}
330
6A2
100
AcDbScale
 70
     0
300
1-1/2" = 1'-0"
140
1.5
141
12.0
290
     0
  0
SCALE
  5
6C1
102
{ACAD_REACTORS
330
6A2
102
}
330
6A2
100
AcDbScale
 70
     0
300
3" = 1'-0"
140
3.0
141
12.0
290
     0
  0
SCALE
  5
6C2
102
{ACAD_REACTORS
330
6A2
102
}
330
6A2
100
AcDbScale
 70
     0
300
6" = 1'-0"
140
6.0
141
12.0
290
     0
  0
SCALE
  5
6C3
102
{ACAD_REACTORS
330
6A2
102
}
330
6A2
100
AcDbScale
 70
     0
300
1'-0" = 1'-0"
140
12.0
141
12.0
290
     0
  0
TABLESTYLE
  5
6E5
102
{ACAD_REACTORS
330
6E4
102
}
102
{ACAD_XDICTIONARY
360
6EB
102
}
330
6E4
100
AcDbTableStyle
  3
Standard
 70
     0
 71
     0
 40
0.06
 41
0.06
280
     0
281
     0
  7
STANDARD
140
4.5
170
     2
 62
     0
 63
   257
283
     0
 90
        4
 91
        0
  1

274
    -2
284
     1
 64
     0
275
    -2
285
     1
 65
     0
276
    -2
286
     1
 66
     0
277
    -2
287
     1
 67
     0
278
    -2
288
     1
 68
     0
279
    -2
289
     1
 69
     0
  7
STANDARD
140
6.0
170
     5
 62
     0
 63
   257
283
     0
 90
        4
 91
        0
  1

274
    -2
284
     1
 64
     0
275
    -2
285
     1
 65
     0
276
    -2
286
     1
 66
     0
277
    -2
287
     1
 67
     0
278
    -2
288
     1
 68
     0
279
    -2
289
     1
 69
     0
  7
STANDARD
140
4.5
170
     5
 62
     0
 63
   257
283
     0
 90
        4
 91
        0
  1

274
    -2
284
     1
 64
     0
275
    -2
285
     1
 65
     0
276
    -2
286
     1
 66
     0
277
    -2
287
     1
 67
     0
278
    -2
288
     1
 68
     0
279
    -2
289
     1
 69
     0
  0
VISUALSTYLE
  5
6CC
102
{ACAD_REACTORS
330
6C7
102
}
330
6C7
100
AcDbVisualStyle
  2
2dWireframe
 70
     4
177
     3
291
     0
 70
    58
 90
        0
176
     1
 90
        2
176
     1
 90
        0
176
     1
 90
        0
176
     1
 40
0.6
176
     1
 40
30.0
176
     1
 62
     7
420
 16777215
176
     1
 90
        1
176
     1
 90
        4
176
     1
 62
     7
176
     1
 62
   257
176
     1
 90
        1
176
     1
 90
        1
176
     1
 40
1.0
176
     1
 90
        0
176
     1
 62
   257
176
     1
 40
1.0
176
     1
 90
        1
176
     1
 90
        6
176
     1
 90
        2
176
     1
 62
     7
176
     1
 90
        5
176
     1
 90
        0
176
     1
 90
        0
176
     1
290
     0
176
     1
 90
        1
176
     1
 40
0.0
176
     1
 90
        0
176
     1
290
     1
176
     1
290
     1
176
     1
290
     0
176
     1
290
     0
176
     1
290
     0
176
     1
290
     0
176
     1
290
     0
176
     1
290
     0
176
     1
290
     0
176
     1
 90
       50
176
     1
 40
0.0
176
     1
 40
1.0
176
     1
 90
        0
176
     1
 62
    18
420
        0
176
     1
 90
       50
176
     1
 90
        3
176
     1
 62
     5
420
      255
176
     1
290
     0
176
     1
 90
       50
176
     1
 90
       50
176
     1
 90
       50
176
     1
290
     0
176
     1
 90
       50
176
     1
 62
   256
176
     0
 40
1.0
176
     0
 90
        2
176
     1
  1
strokes_ogs.tif
176
     1
290
     0
176
     1
 40
1.0
176
     1
 40
1.0
176
     1
  0
VISUALSTYLE
  5
6CF
102
{ACAD_REACTORS
330
6C7
102
}
330
6C7
100
AcDbVisualStyle
  2
Basic
 70
     7
177
     3
291
     1
 70
    58
 90
        1
176
     1
 90
        0
176
     1
 90
        1
176
     1
 90
        0
176
     1
 40
0.6
176
     1
 40
30.0
176
     1
 62
     7
420
 16777215
176
     1
 90
        0
176
     1
 90
        4
176
     1
 62
     7
176
     1
 62
   257
176
     1
 90
        1
176
     1
 90
        1
176
     1
 40
1.0
176
     1
 90
        8
176
     1
 62
     7
176
     1
 40
1.0
176
     1
 90
        1
176
     1
 90
        6
176
     1
 90
        2
176
     1
 62
     7
176
     1
 90
        5
176
     1
 90
        0
176
     1
 90
        0
176
     1
290
     0
176
     1
 90
        1
176
     1
 40
0.0
176
     1
 90
        0
176
     1
290
     0
176
     1
290
     1
176
     1
290
     1
176
     1
290
     0
176
     1
290
     0
176
     1
290
     0
176
     1
290
     0
176
     1
290
     0
176
     1
290
     0
176
     1
 90
       50
176
     1
 40
0.0
176
     1
 40
1.0
176
     1
 90
        0
176
     1
 62
    18
420
        0
176
     1
 90
       50
176
     1
 90
        3
176
     1
 62
     5
420
      255
176
     1
290
     0
176
     1
 90
       50
176
     1
 90
       50
176
     1
 90
       50
176
     1
290
     0
176
     1
 90
       50
176
     1
 62
   256
176
     0
 40
1.0
176
     0
 90
        2
176
     1
  1
strokes_ogs.tif
176
     1
290
     0
176
     1
 40
1.0
176
     1
 40
1.0
176
     1
  0
VISUALSTYLE
  5
6D3
102
{ACAD_REACTORS
330
6C7
102
}
330
6C7
100
AcDbVisualStyle
  2
Brighten
 70
    12
177
     3
291
     1
 70
    58
 90
        2
176
     1
 90
        2
176
     1
 90
        0
176
     1
 90
        0
176
     1
 40
0.6
176
     1
 40
30.0
176
     1
 62
     7
420
 16777215
176
     1
 90
        1
176
     1
 90
        4
176
     1
 62
     7
176
     1
 62
   257
176
     1
 90
        1
176
     1
 90
        1
176
     1
 40
1.0
176
     1
 90
        8
176
     1
 62
     7
176
     1
 40
1.0
176
     1
 90
        1
176
     1
 90
        6
176
     1
 90
        2
176
     1
 62
     7
176
     1
 90
        5
176
     1
 90
        0
176
     1
 90
        0
176
     1
290
     0
176
     1
 90
        1
176
     1
 40
50.0
176
     1
 90
        0
176
     1
290
     0
176
     1
290
     1
176
     1
290
     1
176
     1
290
     0
176
     1
290
     0
176
     1
290
     0
176
     1
290
     0
176
     1
290
     0
176
     1
290
     0
176
     1
 90
       50
176
     1
 40
0.0
176
     1
 40
1.0
176
     1
 90
        0
176
     1
 62
    18
420
        0
176
     1
 90
       50
176
     1
 90
        3
176
     1
 62
     5
420
      255
176
     1
290
     0
176
     1
 90
       50
176
     1
 90
       50
176
     1
 90
       50
176
     1
290
     0
176
     1
 90
       50
176
     1
 62
   256
176
     0
 40
1.0
176
     0
 90
        2
176
     1
  1
strokes_ogs.tif
176
     1
290
     0
176
     1
 40
1.0
176
     1
 40
1.0
176
     1
  0
VISUALSTYLE
  5
6D7
102
{ACAD_REACTORS
330
6C7
102
}
330
6C7
100
AcDbVisualStyle
  2
ColorChange
 70
    16
177
     3
291
     1
 70
    58
 90
        2
176
     1
 90
        2
176
     1
 90
        3
176
     1
 90
        0
176
     1
 40
0.6
176
     1
 40
30.0
176
     1
 62
     8
420
  8421504
176
     1
 90
        1
176
     1
 90
        4
176
     1
 62
     7
176
     1
 62
   257
176
     1
 90
        1
176
     1
 90
        1
176
     1
 40
1.0
176
     1
 90
        8
176
     1
 62
     8
420
  8421504
176
     1
 40
1.0
176
     1
 90
        1
176
     1
 90
        6
176
     1
 90
        2
176
     1
 62
     7
176
     1
 90
        5
176
     1
 90
        0
176
     1
 90
        0
176
     1
290
     0
176
     1
 90
        1
176
     1
 40
0.0
176
     1
 90
        0
176
     1
290
     0
176
     1
290
     1
176
     1
290
     1
176
     1
290
     0
176
     1
290
     0
176
     1
290
     0
176
     1
290
     0
176
     1
290
     0
176
     1
290
     0
176
     1
 90
       50
176
     1
 40
0.0
176
     1
 40
1.0
176
     1
 90
        0
176
     1
 62
    18
420
        0
176
     1
 90
       50
176
     1
 90
        3
176
     1
 62
     5
420
      255
176
     1
290
     0
176
     1
 90
       50
176
     1
 90
       50
176
     1
 90
       50
176
     1
290
     0
176
     1
 90
       50
176
     1
 62
   256
176
     0
 40
1.0
176
     0
 90
        2
176
     1
  1
strokes_ogs.tif
176
     1
290
     0
176
     1
 40
1.0
176
     1
 40
1.0
176
     1
  0
VISUALSTYLE
  5
6D1
102
{ACAD_REACTORS
330
6C7
102
}
330
6C7
100
AcDbVisualStyle
  2
Conceptual
 70
     9
177
     3
291
     0
 70
    58
 90
        3
176
     1
 90
        2
176
     1
 90
        0
176
     1
 90
        0
176
     1
 40
0.6
176
     1
 40
30.0
176
     1
 62
     7
420
 16777215
176
     1
 90
        2
176
     1
 90
        2
176
     1
 62
     7
176
     1
 62
   257
176
     1
 90
        1
176
     1
 90
        1
176
     1
 40
179.0
176
     1
 90
        8
176
     1
 62
     7
176
     1
 40
1.0
176
     1
 90
        1
176
     1
 90
        6
176
     1
 90
        2
176
     1
 62
     7
176
     1
 90
        3
176
     1
 90
        0
176
     1
 90
        0
176
     1
290
     0
176
     1
 90
        1
176
     1
 40
0.0
176
     1
 90
        0
176
     1
290
     0
176
     1
290
     1
176
     1
290
     1
176
     1
290
     0
176
     1
290
     0
176
     1
290
     0
176
     1
290
     0
176
     1
290
     0
176
     1
290
     0
176
     1
 90
       50
176
     1
 40
0.0
176
     1
 40
1.0
176
     1
 90
        0
176
     1
 62
    18
420
        0
176
     1
 90
       50
176
     1
 90
        3
176
     1
 62
     5
420
      255
176
     1
290
     0
176
     1
 90
       50
176
     1
 90
       50
176
     1
 90
       50
176
     1
290
     0
176
     1
 90
       50
176
     1
 62
   256
176
     0
 40
1.0
176
     0
 90
        2
176
     1
  1
strokes_ogs.tif
176
     1
290
     0
176
     1
 40
1.0
176
     1
 40
1.0
176
     1
  0
VISUALSTYLE
  5
6D2
102
{ACAD_REACTORS
330
6C7
102
}
330
6C7
100
AcDbVisualStyle
  2
Dim
 70
    11
177
     3
291
     1
 70
    58
 90
        2
176
     1
 90
        2
176
     1
 90
        0
176
     1
 90
        0
176
     1
 40
0.6
176
     1
 40
30.0
176
     1
 62
     7
420
 16777215
176
     1
 90
        1
176
     1
 90
        4
176
     1
 62
     7
176
     1
 62
   257
176
     1
 90
        1
176
     1
 90
        1
176
     1
 40
1.0
176
     1
 90
        8
176
     1
 62
     7
176
     1
 40
1.0
176
     1
 90
        1
176
     1
 90
        6
176
     1
 90
        2
176
     1
 62
     7
176
     1
 90
        5
176
     1
 90
        0
176
     1
 90
        0
176
     1
290
     0
176
     1
 90
        1
176
     1
 40
-50.0
176
     1
 90
        0
176
     1
290
     0
176
     1
290
     1
176
     1
290
     1
176
     1
290
     0
176
     1
290
     0
176
     1
290
     0
176
     1
290
     0
176
     1
290
     0
176
     1
290
     0
176
     1
 90
       50
176
     1
 40
0.0
176
     1
 40
1.0
176
     1
 90
        0
176
     1
 62
    18
420
        0
176
     1
 90
       50
176
     1
 90
        3
176
     1
 62
     5
420
      255
176
     1
290
     0
176
     1
 90
       50
176
     1
 90
       50
176
     1
 90
       50
176
     1
290
     0
176
     1
 90
       50
176
     1
 62
   256
176
     0
 40
1.0
176
     0
 90
        2
176
     1
  1
strokes_ogs.tif
176
     1
290
     0
176
     1
 40
1.0
176
     1
 40
1.0
176
     1
  0
VISUALSTYLE
  5
6DA
102
{ACAD_REACTORS
330
6C7
102
}
330
6C7
100
AcDbVisualStyle
  2
EdgeColorOff
 70
    22
177
     3
291
     1
 70
    58
 90
        2
176
     0
 90
        2
176
     0
 90
        0
176
     0
 90
        0
176
     0
 40
0.6
176
     0
 40
30.0
176
     0
 62
     7
420
 16777215
176
     0
 90
        1
176
     0
 90
        4
176
     0
 62
     7
176
     0
 62
   257
176
     0
 90
        1
176
     0
 90
        1
176
     0
 40
1.0
176
     0
 90
        8
176
     2
 62
     7
176
     0
 40
1.0
176
     0
 90
        1
176
     0
 90
        6
176
     0
 90
        2
176
     0
 62
     7
176
     0
 90
        5
176
     0
 90
        0
176
     0
 90
        0
176
     0
290
     0
176
     0
 90
        1
176
     0
 40
0.0
176
     0
 90
        0
176
     0
290
     0
176
     0
290
     1
176
     0
290
     1
176
     0
290
     0
176
     0
290
     0
176
     0
290
     0
176
     0
290
     0
176
     0
290
     0
176
     0
290
     0
176
     0
 90
       50
176
     0
 40
0.0
176
     0
 40
1.0
176
     0
 90
        0
176
     0
 62
    18
420
        0
176
     0
 90
       50
176
     0
 90
        3
176
     0
 62
     5
420
      255
176
     0
290
     0
176
     0
 90
       50
176
     0
 90
       50
176
     0
 90
       50
176
     0
290
     0
176
     0
 90
       50
176
     0
 62
   256
176
     0
 40
1.0
176
     0
 90
        2
176
     0
  1
strokes_ogs.tif
176
     0
290
     0
176
     0
 40
1.0
176
     0
 40
1.0
176
     0
  0
VISUALSTYLE
  5
6D6
102
{ACAD_REACTORS
330
6C7
102
}
330
6C7
100
AcDbVisualStyle
  2
Facepattern
 70
    15
177
     3
291
     1
 70
    58
 90
        2
176
     1
 90
        2
176
     1
 90
        0
176
     1
 90
        0
176
     1
 40
0.6
176
     1
 40
30.0
176
     1
 62
     7
420
 16777215
176
     1
 90
        1
176
     1
 90
        4
176
     1
 62
     7
176
     1
 62
   257
176
     1
 90
        1
176
     1
 90
        1
176
     1
 40
1.0
176
     1
 90
        8
176
     1
 62
     7
176
     1
 40
1.0
176
     1
 90
        1
176
     1
 90
        6
176
     1
 90
        2
176
     1
 62
     7
176
     1
 90
        5
176
     1
 90
        0
176
     1
 90
        0
176
     1
290
     0
176
     1
 90
        1
176
     1
 40
0.0
176
     1
 90
        0
176
     1
290
     0
176
     1
290
     1
176
     1
290
     1
176
     1
290
     0
176
     1
290
     0
176
     1
290
     0
176
     1
290
     0
176
     1
290
     0
176
     1
290
     0
176
     1
 90
       50
176
     1
 40
0.0
176
     1
 40
1.0
176
     1
 90
        0
176
     1
 62
    18
420
        0
176
     1
 90
       50
176
     1
 90
        3
176
     1
 62
     5
420
      255
176
     1
290
     0
176
     1
 90
       50
176
     1
 90
       50
176
     1
 90
       50
176
     1
290
     0
176
     1
 90
       50
176
     1
 62
   256
176
     0
 40
1.0
176
     0
 90
        2
176
     1
  1
strokes_ogs.tif
176
     1
290
     0
176
     1
 40
1.0
176
     1
 40
1.0
176
     1
  0
VISUALSTYLE
  5
6C8
102
{ACAD_REACTORS
330
6C7
102
}
330
6C7
100
AcDbVisualStyle
  2
Flat
 70
     0
177
     3
291
     1
 70
    58
 90
        2
176
     1
 90
        1
176
     1
 90
        1
176
     1
 90
        2
176
     1
 40
0.6
176
     1
 40
30.0
176
     1
 62
     7
420
 16777215
176
     1
 90
        0
176
     1
 90
        0
176
     1
 62
     7
176
     1
 62
   257
176
     1
 90
        1
176
     1
 90
        1
176
     1
 40
1.0
176
     1
 90
        8
176
     1
 62
     7
176
     1
 40
1.0
176
     1
 90
        1
176
     1
 90
        6
176
     1
 90
        2
176
     1
 62
     7
176
     1
 90
        5
176
     1
 90
        0
176
     1
 90
        0
176
     1
290
     0
176
     1
 90
       13
176
     1
 40
0.0
176
     1
 90
        0
176
     1
290
     0
176
     1
290
     1
176
     1
290
     1
176
     1
290
     0
176
     1
290
     0
176
     1
290
     0
176
     1
290
     0
176
     1
290
     0
176
     1
290
     0
176
     1
 90
       50
176
     1
 40
0.0
176
     1
 40
1.0
176
     1
 90
        0
176
     1
 62
    18
420
        0
176
     1
 90
       50
176
     1
 90
        3
176
     1
 62
     5
420
      255
176
     1
290
     0
176
     1
 90
       50
176
     1
 90
       50
176
     1
 90
       50
176
     1
290
     0
176
     1
 90
       50
176
     1
 62
   256
176
     0
 40
1.0
176
     0
 90
        2
176
     1
  1
strokes_ogs.tif
176
     1
290
     0
176
     1
 40
1.0
176
     1
 40
1.0
176
     1
  0
VISUALSTYLE
  5
6C9
102
{ACAD_REACTORS
330
6C7
102
}
330
6C7
100
AcDbVisualStyle
  2
FlatWithEdges
 70
     1
177
     3
291
     1
 70
    58
 90
        2
176
     1
 90
        1
176
     1
 90
        1
176
     1
 90
        2
176
     1
 40
0.6
176
     1
 40
30.0
176
     1
 62
     7
420
 16777215
176
     1
 90
        1
176
     1
 90
        0
176
     1
 62
     7
176
     1
 62
   257
176
     1
 90
        1
176
     1
 90
        1
176
     1
 40
1.0
176
     1
 90
        0
176
     1
 62
   257
176
     1
 40
1.0
176
     1
 90
        1
176
     1
 90
        6
176
     1
 90
        2
176
     1
 62
     7
176
     1
 90
        5
176
     1
 90
        0
176
     1
 90
        0
176
     1
290
     0
176
     1
 90
       13
176
     1
 40
0.0
176
     1
 90
        0
176
     1
290
     0
176
     1
290
     1
176
     1
290
     1
176
     1
290
     0
176
     1
290
     0
176
     1
290
     0
176
     1
290
     0
176
     1
290
     0
176
     1
290
     0
176
     1
 90
       50
176
     1
 40
0.0
176
     1
 40
1.0
176
     1
 90
        0
176
     1
 62
    18
420
        0
176
     1
 90
       50
176
     1
 90
        3
176
     1
 62
     5
420
      255
176
     1
290
     0
176
     1
 90
       50
176
     1
 90
       50
176
     1
 90
       50
176
     1
290
     0
176
     1
 90
       50
176
     1
 62
   256
176
     0
 40
1.0
176
     0
 90
        2
176
     1
  1
strokes_ogs.tif
176
     1
290
     0
176
     1
 40
1.0
176
     1
 40
1.0
176
     1
  0
VISUALSTYLE
  5
6CA
102
{ACAD_REACTORS
330
6C7
102
}
330
6C7
100
AcDbVisualStyle
  2
Gouraud
 70
     2
177
     3
291
     1
 70
    58
 90
        2
176
     1
 90
        2
176
     1
 90
        1
176
     1
 90
        2
176
     1
 40
0.6
176
     1
 40
30.0
176
     1
 62
     7
420
 16777215
176
     1
 90
        0
176
     1
 90
        0
176
     1
 62
     7
176
     1
 62
   257
176
     1
 90
        1
176
     1
 90
        1
176
     1
 40
1.0
176
     1
 90
        0
176
     1
 62
     7
176
     1
 40
1.0
176
     1
 90
        1
176
     1
 90
        6
176
     1
 90
        2
176
     1
 62
     7
176
     1
 90
        5
176
     1
 90
        0
176
     1
 90
        0
176
     1
290
     0
176
     1
 90
       13
176
     1
 40
0.0
176
     1
 90
        0
176
     1
290
     0
176
     1
290
     1
176
     1
290
     1
176
     1
290
     0
176
     1
290
     0
176
     1
290
     0
176
     1
290
     0
176
     1
290
     0
176
     1
290
     0
176
     1
 90
       50
176
     1
 40
0.0
176
     1
 40
1.0
176
     1
 90
        0
176
     1
 62
    18
420
        0
176
     1
 90
       50
176
     1
 90
        3
176
     1
 62
     5
420
      255
176
     1
290
     0
176
     1
 90
       50
176
     1
 90
       50
176
     1
 90
       50
176
     1
290
     0
176
     1
 90
       50
176
     1
 62
   256
176
     0
 40
1.0
176
     0
 90
        2
176
     1
  1
strokes_ogs.tif
176
     1
290
     0
176
     1
 40
1.0
176
     1
 40
1.0
176
     1
  0
VISUALSTYLE
  5
6CB
102
{ACAD_REACTORS
330
6C7
102
}
330
6C7
100
AcDbVisualStyle
  2
GouraudWithEdges
 70
     3
177
     3
291
     1
 70
    58
 90
        2
176
     1
 90
        2
176
     1
 90
        1
176
     1
 90
        2
176
     1
 40
0.6
176
     1
 40
30.0
176
     1
 62
     7
420
 16777215
176
     1
 90
        1
176
     1
 90
        0
176
     1
 62
     7
176
     1
 62
   257
176
     1
 90
        1
176
     1
 90
        1
176
     1
 40
1.0
176
     1
 90
        0
176
     1
 62
   257
176
     1
 40
1.0
176
     1
 90
        1
176
     1
 90
        6
176
     1
 90
        2
176
     1
 62
     7
176
     1
 90
        5
176
     1
 90
        0
176
     1
 90
        0
176
     1
290
     0
176
     1
 90
       13
176
     1
 40
0.0
176
     1
 90
        0
176
     1
290
     0
176
     1
290
     1
176
     1
290
     1
176
     1
290
     0
176
     1
290
     0
176
     1
290
     0
176
     1
290
     0
176
     1
290
     0
176
     1
290
     0
176
     1
 90
       50
176
     1
 40
0.0
176
     1
 40
1.0
176
     1
 90
        0
176
     1
 62
    18
420
        0
176
     1
 90
       50
176
     1
 90
        3
176
     1
 62
     5
420
      255
176
     1
290
     0
176
     1
 90
       50
176
     1
 90
       50
176
     1
 90
       50
176
     1
290
     0
176
     1
 90
       50
176
     1
 62
   256
176
     0
 40
1.0
176
     0
 90
        2
176
     1
  1
strokes_ogs.tif
176
     1
290
     0
176
     1
 40
1.0
176
     1
 40
1.0
176
     1
  0
VISUALSTYLE
  5
6CE
102
{ACAD_REACTORS
330
6C7
102
}
330
6C7
100
AcDbVisualStyle
  2
Hidden
 70
     6
177
     3
291
     0
 70
    58
 90
        1
176
     1
 90
        2
176
     1
 90
        2
176
     1
 90
        0
176
     1
 40
0.6
176
     1
 40
30.0
176
     1
 62
     7
420
 16777215
176
     1
 90
        2
176
     1
 90
        2
176
     1
 62
     7
176
     1
 62
   257
176
     1
 90
        2
176
     1
 90
        1
176
     1
 40
40.0
176
     1
 90
        0
176
     1
 62
   257
176
     1
 40
1.0
176
     1
 90
        1
176
     1
 90
        6
176
     1
 90
        2
176
     1
 62
     7
176
     1
 90
        3
176
     1
 90
        0
176
     1
 90
        0
176
     1
290
     0
176
     1
 90
        1
176
     1
 40
0.0
176
     1
 90
        0
176
     1
290
     0
176
     1
290
     1
176
     1
290
     1
176
     1
290
     0
176
     1
290
     0
176
     1
290
     0
176
     1
290
     0
176
     1
290
     0
176
     1
290
     0
176
     1
 90
       50
176
     1
 40
0.0
176
     1
 40
1.0
176
     1
 90
        0
176
     1
 62
    18
420
        0
176
     1
 90
       50
176
     1
 90
        3
176
     1
 62
     5
420
      255
176
     1
290
     0
176
     1
 90
       50
176
     1
 90
       50
176
     1
 90
       50
176
     1
290
     0
176
     1
 90
       50
176
     1
 62
   256
176
     0
 40
1.0
176
     0
 90
        2
176
     1
  1
strokes_ogs.tif
176
     1
290
     0
176
     1
 40
1.0
176
     1
 40
1.0
176
     1
  0
VISUALSTYLE
  5
6D8
102
{ACAD_REACTORS
330
6C7
102
}
330
6C7
100
AcDbVisualStyle
  2
JitterOff
 70
    20
177
     3
291
     1
 70
    58
 90
        2
176
     0
 90
        2
176
     0
 90
        0
176
     0
 90
        0
176
     0
 40
0.6
176
     0
 40
30.0
176
     0
 62
     7
420
 16777215
176
     0
 90
        1
176
     0
 90
        4
176
     0
 62
     7
176
     0
 62
   257
176
     0
 90
        1
176
     0
 90
        1
176
     0
 40
1.0
176
     0
 90
       10
176
     2
 62
     7
176
     0
 40
1.0
176
     0
 90
        1
176
     0
 90
        6
176
     0
 90
        2
176
     0
 62
     7
176
     0
 90
        5
176
     0
 90
        0
176
     0
 90
        0
176
     0
290
     0
176
     0
 90
        1
176
     0
 40
0.0
176
     0
 90
        0
176
     0
290
     0
176
     0
290
     1
176
     0
290
     1
176
     0
290
     0
176
     0
290
     0
176
     0
290
     0
176
     0
290
     0
176
     0
290
     0
176
     0
290
     0
176
     0
 90
       50
176
     0
 40
0.0
176
     0
 40
1.0
176
     0
 90
        0
176
     0
 62
    18
420
        0
176
     0
 90
       50
176
     0
 90
        3
176
     0
 62
     5
420
      255
176
     0
290
     0
176
     0
 90
       50
176
     0
 90
       50
176
     0
 90
       50
176
     0
290
     0
176
     0
 90
       50
176
     0
 62
   256
176
     0
 40
1.0
176
     0
 90
        2
176
     0
  1
strokes_ogs.tif
176
     0
290
     0
176
     0
 40
1.0
176
     0
 40
1.0
176
     0
  0
VISUALSTYLE
  5
6D5
102
{ACAD_REACTORS
330
6C7
102
}
330
6C7
100
AcDbVisualStyle
  2
Linepattern
 70
    14
177
     3
291
     1
 70
    58
 90
        2
176
     1
 90
        2
176
     1
 90
        0
176
     1
 90
        0
176
     1
 40
0.6
176
     1
 40
30.0
176
     1
 62
     7
420
 16777215
176
     1
 90
        1
176
     1
 90
        4
176
     1
 62
     7
176
     1
 62
   257
176
     1
 90
        7
176
     1
 90
        7
176
     1
 40
1.0
176
     1
 90
        8
176
     1
 62
     7
176
     1
 40
1.0
176
     1
 90
        1
176
     1
 90
        6
176
     1
 90
        2
176
     1
 62
     7
176
     1
 90
        5
176
     1
 90
        0
176
     1
 90
        0
176
     1
290
     0
176
     1
 90
        1
176
     1
 40
0.0
176
     1
 90
        0
176
     1
290
     0
176
     1
290
     1
176
     1
290
     1
176
     1
290
     0
176
     1
290
     0
176
     1
290
     0
176
     1
290
     0
176
     1
290
     0
176
     1
290
     0
176
     1
 90
       50
176
     1
 40
0.0
176
     1
 40
1.0
176
     1
 90
        0
176
     1
 62
    18
420
        0
176
     1
 90
       50
176
     1
 90
        3
176
     1
 62
     5
420
      255
176
     1
290
     0
176
     1
 90
       50
176
     1
 90
       50
176
     1
 90
       50
176
     1
290
     0
176
     1
 90
       50
176
     1
 62
   256
176
     0
 40
1.0
176
     0
 90
        2
176
     1
  1
strokes_ogs.tif
176
     1
290
     0
176
     1
 40
1.0
176
     1
 40
1.0
176
     1
  0
VISUALSTYLE
  5
6D9
102
{ACAD_REACTORS
330
6C7
102
}
330
6C7
100
AcDbVisualStyle
  2
OverhangOff
 70
    21
177
     3
291
     1
 70
    58
 90
        2
176
     0
 90
        2
176
     0
 90
        0
176
     0
 90
        0
176
     0
 40
0.6
176
     0
 40
30.0
176
     0
 62
     7
420
 16777215
176
     0
 90
        1
176
     0
 90
        4
176
     0
 62
     7
176
     0
 62
   257
176
     0
 90
        1
176
     0
 90
        1
176
     0
 40
1.0
176
     0
 90
        9
176
     2
 62
     7
176
     0
 40
1.0
176
     0
 90
        1
176
     0
 90
        6
176
     0
 90
        2
176
     0
 62
     7
176
     0
 90
        5
176
     0
 90
        0
176
     0
 90
        0
176
     0
290
     0
176
     0
 90
        1
176
     0
 40
0.0
176
     0
 90
        0
176
     0
290
     0
176
     0
290
     1
176
     0
290
     1
176
     0
290
     0
176
     0
290
     0
176
     0
290
     0
176
     0
290
     0
176
     0
290
     0
176
     0
290
     0
176
     0
 90
       50
176
     0
 40
0.0
176
     0
 40
1.0
176
     0
 90
        0
176
     0
 62
    18
420
        0
176
     0
 90
       50
176
     0
 90
        3
176
     0
 62
     5
420
      255
176
     0
290
     0
176
     0
 90
       50
176
     0
 90
       50
176
     0
 90
       50
176
     0
290
     0
176
     0
 90
       50
176
     0
 62
   256
176
     0
 40
1.0
176
     0
 90
        2
176
     0
  1
strokes_ogs.tif
176
     0
290
     0
176
     0
 40
1.0
176
     0
 40
1.0
176
     0
  0
VISUALSTYLE
  5
6D0
102
{ACAD_REACTORS
330
6C7
102
}
330
6C7
100
AcDbVisualStyle
  2
Realistic
 70
     8
177
     3
291
     0
 70
    58
 90
        2
176
     1
 90
        3
176
     1
 90
        0
176
     1
 90
        2
176
     1
 40
0.6
176
     1
 40
30.0
176
     1
 62
     7
420
 16777215
176
     1
 90
        0
176
     1
 90
        0
176
     1
 62
     7
176
     1
 62
   257
176
     1
 90
        1
176
     1
 90
        1
176
     1
 40
1.0
176
     1
 90
        8
176
     1
 62
   257
176
     1
 40
1.0
176
     1
 90
        1
176
     1
 90
        6
176
     1
 90
        2
176
     1
 62
     7
176
     1
 90
        3
176
     1
 90
        0
176
     1
 90
        0
176
     1
290
     0
176
     1
 90
       13
176
     1
 40
0.0
176
     1
 90
        0
176
     1
290
     0
176
     1
290
     1
176
     1
290
     1
176
     1
290
     0
176
     1
290
     0
176
     1
290
     0
176
     1
290
     0
176
     1
290
     0
176
     1
290
     0
176
     1
 90
       50
176
     1
 40
0.0
176
     1
 40
1.0
176
     1
 90
        0
176
     1
 62
    18
420
        0
176
     1
 90
       50
176
     1
 90
        3
176
     1
 62
     5
420
      255
176
     1
290
     0
176
     1
 90
       50
176
     1
 90
       50
176
     1
 90
       50
176
     1
290
     0
176
     1
 90
       50
176
     1
 62
   256
176
     0
 40
1.0
176
     0
 90
        2
176
     1
  1
strokes_ogs.tif
176
     1
290
     0
176
     1
 40
1.0
176
     1
 40
1.0
176
     1
  0
VISUALSTYLE
  5
6DF
102
{ACAD_REACTORS
330
6C7
102
}
330
6C7
100
AcDbVisualStyle
  2
Shaded
 70
    27
177
     3
291
     0
 70
    58
 90
        2
176
     1
 90
        2
176
     1
 90
        1
176
     1
 90
        2
176
     1
 40
0.6
176
     1
 40
30.0
176
     1
 62
     7
420
 16777215
176
     1
 90
        0
176
     1
 90
        4
176
     1
 62
     7
176
     1
 62
   257
176
     1
 90
        1
176
     1
 90
        1
176
     1
 40
1.0
176
     1
 90
        8
176
     1
 62
   257
176
     1
 40
1.0
176
     1
 90
        1
176
     1
 90
        6
176
     1
 90
        2
176
     1
 62
     8
420
  7895160
176
     1
 90
        3
176
     1
 90
        0
176
     1
 90
        0
176
     1
290
     0
176
     1
 90
        5
176
     1
 40
0.0
176
     1
 90
        0
176
     1
290
     0
176
     1
290
     1
176
     1
290
     1
176
     1
290
     0
176
     1
290
     0
176
     1
290
     0
176
     1
290
     0
176
     1
290
     0
176
     1
290
     0
176
     1
 90
       50
176
     1
 40
0.0
176
     1
 40
1.0
176
     1
 90
        0
176
     1
 62
    18
420
        0
176
     1
 90
       50
176
     1
 90
        3
176
     1
 62
     5
420
      255
176
     1
290
     0
176
     1
 90
       50
176
     1
 90
       50
176
     1
 90
       50
176
     1
290
     0
176
     1
 90
       50
176
     1
 62
   256
176
     0
 40
1.0
176
     0
 90
        2
176
     1
  1
strokes_ogs.tif
176
     1
290
     0
176
     1
 40
1.0
176
     1
 40
1.0
176
     1
  0
VISUALSTYLE
  5
6DE
102
{ACAD_REACTORS
330
6C7
102
}
330
6C7
100
AcDbVisualStyle
  2
Shaded with edges
 70
    26
177
     3
291
     0
 70
    58
 90
        2
176
     1
 90
        2
176
     1
 90
        1
176
     1
 90
        2
176
     1
 40
0.6
176
     1
 40
30.0
176
     1
 62
     7
420
 16777215
176
     1
 90
        1
176
     1
 90
       10
176
     1
 62
     7
176
     1
 62
   257
176
     1
 90
        2
176
     1
 90
        1
176
     1
 40
1.0
176
     1
 90
        8
176
     1
 62
   257
176
     1
 40
1.0
176
     1
 90
        1
176
     1
 90
        6
176
     1
 90
        2
176
     1
 62
     7
176
     1
 90
        3
176
     1
 90
        0
176
     1
 90
        0
176
     1
290
     0
176
     1
 90
        5
176
     1
 40
0.0
176
     1
 90
        0
176
     1
290
     0
176
     1
290
     1
176
     1
290
     1
176
     1
290
     0
176
     1
290
     0
176
     1
290
     0
176
     1
290
     0
176
     1
290
     0
176
     1
290
     0
176
     1
 90
       50
176
     1
 40
0.0
176
     1
 40
1.0
176
     1
 90
        0
176
     1
 62
    18
420
        0
176
     1
 90
       50
176
     1
 90
        3
176
     1
 62
     5
420
      255
176
     1
290
     0
176
     1
 90
       50
176
     1
 90
       50
176
     1
 90
       50
176
     1
290
     0
176
     1
 90
       50
176
     1
 62
   256
176
     0
 40
1.0
176
     0
 90
        2
176
     1
  1
strokes_ogs.tif
176
     1
290
     0
176
     1
 40
1.0
176
     1
 40
1.0
176
     1
  0
VISUALSTYLE
  5
6DB
102
{ACAD_REACTORS
330
6C7
102
}
330
6C7
100
AcDbVisualStyle
  2
Shades of Gray
 70
    23
177
     3
291
     0
 70
    58
 90
        2
176
     1
 90
        2
176
     1
 90
        3
176
     1
 90
        0
176
     1
 40
0.6
176
     1
 40
30.0
176
     1
 62
     7
420
 16777215
176
     1
 90
        2
176
     1
 90
        2
176
     1
 62
     7
176
     1
 62
     7
176
     1
 90
        1
176
     1
 90
        1
176
     1
 40
40.0
176
     1
 90
        8
176
     1
 62
     7
176
     1
 40
1.0
176
     1
 90
        1
176
     1
 90
        6
176
     1
 90
        2
176
     1
 62
     7
176
     1
 90
        3
176
     1
 90
        0
176
     1
 90
        0
176
     1
290
     0
176
     1
 90
        1
176
     1
 40
0.0
176
     1
 90
        0
176
     1
290
     0
176
     1
290
     1
176
     1
290
     1
176
     1
290
     0
176
     1
290
     0
176
     1
290
     0
176
     1
290
     0
176
     1
290
     0
176
     1
290
     0
176
     1
 90
       50
176
     1
 40
0.0
176
     1
 40
1.0
176
     1
 90
        0
176
     1
 62
    18
420
        0
176
     1
 90
       50
176
     1
 90
        3
176
     1
 62
     5
420
      255
176
     1
290
     0
176
     1
 90
       50
176
     1
 90
       50
176
     1
 90
       50
176
     1
290
     0
176
     1
 90
       50
176
     1
 62
   256
176
     0
 40
1.0
176
     0
 90
        2
176
     1
  1
strokes_ogs.tif
176
     1
290
     0
176
     1
 40
1.0
176
     1
 40
1.0
176
     1
  0
VISUALSTYLE
  5
6DC
102
{ACAD_REACTORS
330
6C7
102
}
330
6C7
100
AcDbVisualStyle
  2
Sketchy
 70
    24
177
     3
291
     0
 70
    58
 90
        1
176
     1
 90
        2
176
     1
 90
        2
176
     1
 90
        0
176
     1
 40
0.6
176
     1
 40
30.0
176
     1
 62
     7
420
 16777215
176
     1
 90
        2
176
     1
 90
        2
176
     1
 62
     7
176
     1
 62
     7
176
     1
 90
        1
176
     1
 90
        1
176
     1
 40
40.0
176
     1
 90
       11
176
     1
 62
     7
176
     1
 40
1.0
176
     1
 90
        1
176
     1
 90
        6
176
     1
 90
        2
176
     1
 62
     7
176
     1
 90
        6
176
     1
 90
        0
176
     1
 90
        0
176
     1
290
     0
176
     1
 90
        1
176
     1
 40
0.0
176
     1
 90
        0
176
     1
290
     0
176
     1
290
     1
176
     1
290
     1
176
     1
290
     0
176
     1
290
     0
176
     1
290
     0
176
     1
290
     0
176
     1
290
     0
176
     1
290
     0
176
     1
 90
       50
176
     1
 40
0.0
176
     1
 40
1.0
176
     1
 90
        0
176
     1
 62
    18
420
        0
176
     1
 90
       50
176
     1
 90
        3
176
     1
 62
     5
420
      255
176
     1
290
     0
176
     1
 90
       50
176
     1
 90
       50
176
     1
 90
       50
176
     1
290
     0
176
     1
 90
       50
176
     1
 62
   256
176
     0
 40
1.0
176
     0
 90
        2
176
     1
  1
strokes_ogs.tif
176
     1
290
     0
176
     1
 40
1.0
176
     1
 40
1.0
176
     1
  0
VISUALSTYLE
  5
6D4
102
{ACAD_REACTORS
330
6C7
102
}
330
6C7
100
AcDbVisualStyle
  2
Thicken
 70
    13
177
     3
291
     1
 70
    58
 90
        2
176
     1
 90
        2
176
     1
 90
        0
176
     1
 90
        0
176
     1
 40
0.6
176
     1
 40
30.0
176
     1
 62
     7
420
 16777215
176
     1
 90
        1
176
     1
 90
        4
176
     1
 62
     7
176
     1
 62
   257
176
     1
 90
        1
176
     1
 90
        1
176
     1
 40
1.0
176
     1
 90
       12
176
     1
 62
     7
176
     1
 40
1.0
176
     1
 90
        1
176
     1
 90
        6
176
     1
 90
        2
176
     1
 62
     7
176
     1
 90
        5
176
     1
 90
        0
176
     1
 90
        0
176
     1
290
     0
176
     1
 90
        1
176
     1
 40
0.0
176
     1
 90
        0
176
     1
290
     0
176
     1
290
     1
176
     1
290
     1
176
     1
290
     0
176
     1
290
     0
176
     1
290
     0
176
     1
290
     0
176
     1
290
     0
176
     1
290
     0
176
     1
 90
       50
176
     1
 40
0.0
176
     1
 40
1.0
176
     1
 90
        0
176
     1
 62
    18
420
        0
176
     1
 90
       50
176
     1
 90
        3
176
     1
 62
     5
420
      255
176
     1
290
     0
176
     1
 90
       50
176
     1
 90
       50
176
     1
 90
       50
176
     1
290
     0
176
     1
 90
       50
176
     1
 62
   256
176
     0
 40
1.0
176
     0
 90
        2
176
     1
  1
strokes_ogs.tif
176
     1
290
     0
176
     1
 40
1.0
176
     1
 40
1.0
176
     1
  0
VISUALSTYLE
  5
6CD
102
{ACAD_REACTORS
330
6C7
102
}
330
6C7
100
AcDbVisualStyle
  2
Wireframe
 70
     5
177
     3
291
     0
 70
    58
 90
        0
176
     1
 90
        2
176
     1
 90
        0
176
     1
 90
        0
176
     1
 40
0.6
176
     1
 40
30.0
176
     1
 62
     7
420
 16777215
176
     1
 90
        1
176
     1
 90
        4
176
     1
 62
     7
176
     1
 62
   257
176
     1
 90
        1
176
     1
 90
        1
176
     1
 40
1.0
176
     1
 90
        0
176
     1
 62
   257
176
     1
 40
1.0
176
     1
 90
        1
176
     1
 90
        6
176
     1
 90
        2
176
     1
 62
     7
176
     1
 90
        3
176
     1
 90
        0
176
     1
 90
        0
176
     1
290
     0
176
     1
 90
        1
176
     1
 40
0.0
176
     1
 90
        0
176
     1
290
     0
176
     1
290
     1
176
     1
290
     1
176
     1
290
     0
176
     1
290
     0
176
     1
290
     0
176
     1
290
     0
176
     1
290
     0
176
     1
290
     0
176
     1
 90
       50
176
     1
 40
0.0
176
     1
 40
1.0
176
     1
 90
        0
176
     1
 62
    18
420
        0
176
     1
 90
       50
176
     1
 90
        3
176
     1
 62
     5
420
      255
176
     1
290
     0
176
     1
 90
       50
176
     1
 90
       50
176
     1
 90
       50
176
     1
290
     0
176
     1
 90
       50
176
     1
 62
   256
176
     0
 40
1.0
176
     0
 90
        2
176
     1
  1
strokes_ogs.tif
176
     1
290
     0
176
     1
 40
1.0
176
     1
 40
1.0
176
     1
  0
VISUALSTYLE
  5
6DD
102
{ACAD_REACTORS
330
6C7
102
}
330
6C7
100
AcDbVisualStyle
  2
X-Ray
 70
    25
177
     3
291
     0
 70
    58
 90
        2
176
     1
 90
        2
176
     1
 90
        1
176
     1
 90
        1
176
     1
 40
0.5
176
     1
 40
30.0
176
     1
 62
     7
420
 16777215
176
     1
 90
        1
176
     1
 90
        0
176
     1
 62
     7
176
     1
 62
   257
176
     1
 90
        1
176
     1
 90
        1
176
     1
 40
1.0
176
     1
 90
        8
176
     1
 62
     7
176
     1
 40
1.0
176
     1
 90
        1
176
     1
 90
        6
176
     1
 90
        2
176
     1
 62
     7
176
     1
 90
        3
176
     1
 90
        0
176
     1
 90
        0
176
     1
290
     0
176
     1
 90
       13
176
     1
 40
0.0
176
     1
 90
        0
176
     1
290
     0
176
     1
290
     1
176
     1
290
     1
176
     1
290
     0
176
     1
290
     0
176
     1
290
     0
176
     1
290
     0
176
     1
290
     0
176
     1
290
     0
176
     1
 90
       50
176
     1
 40
0.0
176
     1
 40
1.0
176
     1
 90
        0
176
     1
 62
    18
420
        0
176
     1
 90
       50
176
     1
 90
        3
176
     1
 62
     5
420
      255
176
     1
290
     0
176
     1
 90
       50
176
     1
 90
       50
176
     1
 90
       50
176
     1
290
     0
176
     1
 90
       50
176
     1
 62
   256
176
     0
 40
1.0
176
     0
 90
        2
176
     1
  1
strokes_ogs.tif
176
     1
290
     0
176
     1
 40
1.0
176
     1
 40
1.0
176
     1
  0
DICTIONARYVAR
  5
6EA
102
{ACAD_REACTORS
330
6E9
102
}
330
6E9
100
DictionaryVariables
280
     0
  1
1:1
  0
DICTIONARYVAR
  5
6EF
102
{ACAD_REACTORS
330
6E9
102
}
330
6E9
100
DictionaryVariables
280
     0
  1
Standard
  0
DICTIONARYVAR
  5
6EE
102
{ACAD_REACTORS
330
6E9
102
}
330
6E9
100
DictionaryVariables
280
     0
  1
Standard
  0
DICTIONARYVAR
  5
6F0
102
{ACAD_REACTORS
330
6E9
102
}
330
6E9
100
DictionaryVariables
280
     0
  1
0
  0
DICTIONARY
  5
6EB
330
6E5
100
AcDbDictionary
280
     1
281
     1
  3
ACAD_ROUNDTRIP_2008_TABLESTYLE_CELLSTYLEMAP
360
6EC
  0
CELLSTYLEMAP
  5
6EC
102
{ACAD_REACTORS
330
6EB
102
}
330
6EB
100
AcDbCellStyleMap
 90
        3
300
CELLSTYLE
  1
TABLEFORMAT_BEGIN
 90
        5
170
     1
 91
        0
 92
    32768
 62
   257
 93
        1
300
CONTENTFORMAT
  1
CONTENTFORMAT_BEGIN
 90
        0
 91
        0
 92
        4
 93
        0
300

 40
0.0
140
1.0
 94
        5
 62
     0
340
11
144
6.0
309
CONTENTFORMAT_END
171
     1
301
MARGIN
  1
CELLMARGIN_BEGIN
 40
1.5
 40
1.5
 40
1.5
 40
1.5
 40
1.5
 40
1.5
309
CELLMARGIN_END
 94
        6
 95
        1
302
GRIDFORMAT
  1
GRIDFORMAT_BEGIN
 90
        0
 91
        1
 62
     0
 92
       -2
340
14
 93
        0
 40
0.045
309
GRIDFORMAT_END
 95
        2
302
GRIDFORMAT
  1
GRIDFORMAT_BEGIN
 90
        0
 91
        1
 62
     0
 92
       -2
340
14
 93
        0
 40
0.045
309
GRIDFORMAT_END
 95
        4
302
GRIDFORMAT
  1
GRIDFORMAT_BEGIN
 90
        0
 91
        1
 62
     0
 92
       -2
340
14
 93
        0
 40
0.045
309
GRIDFORMAT_END
 95
        8
302
GRIDFORMAT
  1
GRIDFORMAT_BEGIN
 90
        0
 91
        1
 62
     0
 92
       -2
340
14
 93
        0
 40
0.045
309
GRIDFORMAT_END
 95
       16
302
GRIDFORMAT
  1
GRIDFORMAT_BEGIN
 90
        0
 91
        1
 62
     0
 92
       -2
340
14
 93
        0
 40
0.045
309
GRIDFORMAT_END
 95
       32
302
GRIDFORMAT
  1
GRIDFORMAT_BEGIN
 90
        0
 91
        1
 62
     0
 92
       -2
340
14
 93
        0
 40
0.045
309
GRIDFORMAT_END
309
TABLEFORMAT_END
  1
CELLSTYLE_BEGIN
 90
        1
 91
        1
300
_TITLE
309
CELLSTYLE_END
300
CELLSTYLE
  1
TABLEFORMAT_BEGIN
 90
        5
170
     1
 91
        0
 92
        0
 62
   257
 93
        1
300
CONTENTFORMAT
  1
CONTENTFORMAT_BEGIN
 90
        0
 91
        0
 92
        4
 93
        0
300

 40
0.0
140
1.0
 94
        5
 62
     0
340
11
144
4.5
309
CONTENTFORMAT_END
171
     1
301
MARGIN
  1
CELLMARGIN_BEGIN
 40
1.5
 40
1.5
 40
1.5
 40
1.5
 40
1.5
 40
1.5
309
CELLMARGIN_END
 94
        6
 95
        1
302
GRIDFORMAT
  1
GRIDFORMAT_BEGIN
 90
        0
 91
        1
 62
     0
 92
       -2
340
14
 93
        0
 40
0.045
309
GRIDFORMAT_END
 95
        2
302
GRIDFORMAT
  1
GRIDFORMAT_BEGIN
 90
        0
 91
        1
 62
     0
 92
       -2
340
14
 93
        0
 40
0.045
309
GRIDFORMAT_END
 95
        4
302
GRIDFORMAT
  1
GRIDFORMAT_BEGIN
 90
        0
 91
        1
 62
     0
 92
       -2
340
14
 93
        0
 40
0.045
309
GRIDFORMAT_END
 95
        8
302
GRIDFORMAT
  1
GRIDFORMAT_BEGIN
 90
        0
 91
        1
 62
     0
 92
       -2
340
14
 93
        0
 40
0.045
309
GRIDFORMAT_END
 95
       16
302
GRIDFORMAT
  1
GRIDFORMAT_BEGIN
 90
        0
 91
        1
 62
     0
 92
       -2
340
14
 93
        0
 40
0.045
309
GRIDFORMAT_END
 95
       32
302
GRIDFORMAT
  1
GRIDFORMAT_BEGIN
 90
        0
 91
        1
 62
     0
 92
       -2
340
14
 93
        0
 40
0.045
309
GRIDFORMAT_END
309
TABLEFORMAT_END
  1
CELLSTYLE_BEGIN
 90
        2
 91
        1
300
_HEADER
309
CELLSTYLE_END
300
CELLSTYLE
  1
TABLEFORMAT_BEGIN
 90
        5
170
     1
 91
        0
 92
        0
 62
   257
 93
        1
300
CONTENTFORMAT
  1
CONTENTFORMAT_BEGIN
 90
        0
 91
        0
 92
        4
 93
        0
300

 40
0.0
140
1.0
 94
        2
 62
     0
340
11
144
4.5
309
CONTENTFORMAT_END
171
     1
301
MARGIN
  1
CELLMARGIN_BEGIN
 40
1.5
 40
1.5
 40
1.5
 40
1.5
 40
1.5
 40
1.5
309
CELLMARGIN_END
 94
        6
 95
        1
302
GRIDFORMAT
  1
GRIDFORMAT_BEGIN
 90
        0
 91
        1
 62
     0
 92
       -2
340
14
 93
        0
 40
0.045
309
GRIDFORMAT_END
 95
        2
302
GRIDFORMAT
  1
GRIDFORMAT_BEGIN
 90
        0
 91
        1
 62
     0
 92
       -2
340
14
 93
        0
 40
0.045
309
GRIDFORMAT_END
 95
        4
302
GRIDFORMAT
  1
GRIDFORMAT_BEGIN
 90
        0
 91
        1
 62
     0
 92
       -2
340
14
 93
        0
 40
0.045
309
GRIDFORMAT_END
 95
        8
302
GRIDFORMAT
  1
GRIDFORMAT_BEGIN
 90
        0
 91
        1
 62
     0
 92
       -2
340
14
 93
        0
 40
0.045
309
GRIDFORMAT_END
 95
       16
302
GRIDFORMAT
  1
GRIDFORMAT_BEGIN
 90
        0
 91
        1
 62
     0
 92
       -2
340
14
 93
        0
 40
0.045
309
GRIDFORMAT_END
 95
       32
302
GRIDFORMAT
  1
GRIDFORMAT_BEGIN
 90
        0
 91
        1
 62
     0
 92
       -2
340
14
 93
        0
 40
0.045
309
GRIDFORMAT_END
309
TABLEFORMAT_END
  1
CELLSTYLE_BEGIN
 90
        3
 91
        2
300
_DATA
309
CELLSTYLE_END
  0
ENDSEC
  0
EOF
