  0
SECTION
  2
HEADER
  9
$ACADVER
  1
AC1027
  9
$ACADMAINTVER
 70
   105
  9
$DWGCODEPAGE
  3
ANSI_1252
  9
$REQUIREDVERSIONS
160
                 0
  9
$LASTSAVEDBY
  1
andrea.zolin
  9
$INSBASE
 10
0.0
 20
0.0
 30
0.0
  9
$EXTMIN
 10
0.0
 20
0.0
 30
0.0
  9
$EXTMAX
 10
3200.0
 20
2500.0
 30
0.0
  9
$LIMMIN
 10
0.0
 20
0.0
  9
$LIMMAX
 10
3200.0
 20
2500.0
  9
$ORTHOMODE
 70
     0
  9
$REGENMODE
 70
     1
  9
$FILLMODE
 70
     1
  9
$QTEXTMODE
 70
     0
  9
$MIRRTEXT
 70
     1
  9
$LTSCALE
 40
176.0
  9
$ATTMODE
 70
     1
  9
$TEXTSIZE
 40
0.2
  9
$TRACEWID
 40
0.05
  9
$TEXTSTYLE
  7
STANDARD
  9
$CLAYER
  8
0
  9
$CELTYPE
  6
BYLAYER
  9
$CECOLOR
 62
   256
  9
$CELTSCALE
 40
1.0
  9
$DISPSILH
 70
     0
  9
$DIMSCALE
 40
1.0
  9
$DIMASZ
 40
2.5
  9
$DIMEXO
 40
0.75
  9
$DIMDLI
 40
121.6
  9
$DIMRND
 40
0.0
  9
$DIMDLE
 40
0.0
  9
$DIMEXE
 40
0.75
  9
$DIMTP
 40
0.01
  9
$DIMTM
 40
0.01
  9
$DIMTXT
 40
3.0
  9
$DIMCEN
 40
28.8
  9
$DIMTSZ
 40
0.0
  9
$DIMTOL
 70
     1
  9
$DIMLIM
 70
     0
  9
$DIMTIH
 70
     1
  9
$DIMTOH
 70
     1
  9
$DIMSE1
 70
     0
  9
$DIMSE2
 70
     0
  9
$DIMTAD
 70
     0
  9
$DIMZIN
 70
     0
  9
$DIMBLK
  1
CLOSED
  9
$DIMASO
 70
     1
  9
$DIMSHO
 70
     1
  9
$DIMPOST
  1

  9
$DIMAPOST
  1

  9
$DIMALT
 70
     0
  9
$DIMALTD
 70
     2
  9
$DIMALTF
 40
25.4
  9
$DIMLFAC
 40
1.0
  9
$DIMTOFL
 70
     0
  9
$DIMTVP
 40
0.0
  9
$DIMTIX
 70
     0
  9
$DIMSOXD
 70
     0
  9
$DIMSAH
 70
     0
  9
$DIMBLK1
  1

  9
$DIMBLK2
  1

  9
$DIMSTYLE
  2
STANDARD
  9
$DIMCLRD
 70
     0
  9
$DIMCLRE
 70
     0
  9
$DIMCLRT
 70
     0
  9
$DIMTFAC
 40
1.0
  9
$DIMGAP
 40
0.625
  9
$DIMJUST
 70
     0
  9
$DIMSD1
 70
     0
  9
$DIMSD2
 70
     0
  9
$DIMTOLJ
 70
     1
  9
$DIMTZIN
 70
     0
  9
$DIMALTZ
 70
     0
  9
$DIMALTTZ
 70
     0
  9
$DIMUPT
 70
     0
  9
$DIMDEC
 70
     4
  9
$DIMTDEC
 70
     4
  9
$DIMALTU
 70
     2
  9
$DIMALTTD
 70
     2
  9
$DIMTXSTY
  7
STANDARD
  9
$DIMAUNIT
 70
     0
  9
$DIMADEC
 70
     0
  9
$DIMALTRND
 40
0.0
  9
$DIMAZIN
 70
     0
  9
$DIMDSEP
 70
    46
  9
$DIMATFIT
 70
     3
  9
$DIMFRAC
 70
     0
  9
$DIMLDRBLK
  1

  9
$DIMLUNIT
 70
     2
  9
$DIMLWD
 70
    -2
  9
$DIMLWE
 70
    -2
  9
$DIMTMOVE
 70
     2
  9
$DIMFXL
 40
1.0
  9
$DIMFXLON
 70
     0
  9
$DIMJOGANG
 40
0.7853981633974483
  9
$DIMTFILL
 70
     0
  9
$DIMTFILLCLR
 70
     0
  9
$DIMARCSYM
 70
     0
  9
$DIMLTYPE
  6

  9
$DIMLTEX1
  6

  9
$DIMLTEX2
  6

  9
$DIMTXTDIRECTION
 70
     0
  9
$LUNITS
 70
     2
  9
$LUPREC
 70
     4
  9
$SKETCHINC
 40
0.1
  9
$FILLETRAD
 40
0.5
  9
$AUNITS
 70
     0
  9
$AUPREC
 70
     0
  9
$MENU
  1
.
  9
$ELEVATION
 40
0.0
  9
$PELEVATION
 40
0.0
  9
$THICKNESS
 40
0.0
  9
$LIMCHECK
 70
     0
  9
$CHAMFERA
 40
0.0
  9
$CHAMFERB
 40
0.0
  9
$CHAMFERC
 40
0.0
  9
$CHAMFERD
 40
0.0
  9
$SKPOLY
 70
     0
  9
$TDCREATE
 40
2447893.041666667
  9
$TDUCREATE
 40
0.0
  9
$TDUPDATE
 40
2458466.595026447
  9
$TDUUPDATE
 40
2458466.55335978
  9
$TDINDWG
 40
0.0002099769
  9
$TDUSRTIMER
 40
0.0002099769
  9
$USRTIMER
 70
     1
  9
$ANGBASE
 50
0.0
  9
$ANGDIR
 70
     0
  9
$PDMODE
 70
     3
  9
$PDSIZE
 40
0.3125
  9
$PLINEWID
 40
0.0
  9
$SPLFRAME
 70
     0
  9
$SPLINETYPE
 70
     6
  9
$SPLINESEGS
 70
     8
  9
$HANDSEED
  5
4D1
  9
$SURFTAB1
 70
     6
  9
$SURFTAB2
 70
     6
  9
$SURFTYPE
 70
     6
  9
$SURFU
 70
     6
  9
$SURFV
 70
     6
  9
$UCSBASE
  2

  9
$UCSNAME
  2

  9
$UCSORG
 10
0.0
 20
0.0
 30
0.0
  9
$UCSXDIR
 10
1.0
 20
0.0
 30
0.0
  9
$UCSYDIR
 10
0.0
 20
1.0
 30
0.0
  9
$UCSORTHOREF
  2

  9
$UCSORTHOVIEW
 70
     0
  9
$UCSORGTOP
 10
0.0
 20
0.0
 30
0.0
  9
$UCSORGBOTTOM
 10
0.0
 20
0.0
 30
0.0
  9
$UCSORGLEFT
 10
0.0
 20
0.0
 30
0.0
  9
$UCSORGRIGHT
 10
0.0
 20
0.0
 30
0.0
  9
$UCSORGFRONT
 10
0.0
 20
0.0
 30
0.0
  9
$UCSORGBACK
 10
0.0
 20
0.0
 30
0.0
  9
$PUCSBASE
  2

  9
$PUCSNAME
  2

  9
$PUCSORG
 10
0.0
 20
0.0
 30
0.0
  9
$PUCSXDIR
 10
1.0
 20
0.0
 30
0.0
  9
$PUCSYDIR
 10
0.0
 20
1.0
 30
0.0
  9
$PUCSORTHOREF
  2

  9
$PUCSORTHOVIEW
 70
     0
  9
$PUCSORGTOP
 10
0.0
 20
0.0
 30
0.0
  9
$PUCSORGBOTTOM
 10
0.0
 20
0.0
 30
0.0
  9
$PUCSORGLEFT
 10
0.0
 20
0.0
 30
0.0
  9
$PUCSORGRIGHT
 10
0.0
 20
0.0
 30
0.0
  9
$PUCSORGFRONT
 10
0.0
 20
0.0
 30
0.0
  9
$PUCSORGBACK
 10
0.0
 20
0.0
 30
0.0
  9
$USERI1
 70
     0
  9
$USERI2
 70
     0
  9
$USERI3
 70
     0
  9
$USERI4
 70
     0
  9
$USERI5
 70
     0
  9
$USERR1
 40
0.0
  9
$USERR2
 40
0.0
  9
$USERR3
 40
0.0
  9
$USERR4
 40
0.0
  9
$USERR5
 40
0.0
  9
$WORLDVIEW
 70
     1
  9
$SHADEDGE
 70
     3
  9
$SHADEDIF
 70
    70
  9
$TILEMODE
 70
     0
  9
$MAXACTVP
 70
    64
  9
$PINSBASE
 10
0.0
 20
0.0
 30
0.0
  9
$PLIMCHECK
 70
     0
  9
$PEXTMIN
 10
0.0
 20
0.0
 30
0.0
  9
$PEXTMAX
 10
3208.2564786132
 20
2500.0
 30
0.0
  9
$PLIMMIN
 10
-72.95719844357977
 20
-194.5525291828794
  9
$PLIMMAX
 10
4012.645914396887
 20
2694.552529182879
  9
$UNITMODE
 70
     0
  9
$VISRETAIN
 70
     1
  9
$PLINEGEN
 70
     0
  9
$PSLTSCALE
 70
     1
  9
$TREEDEPTH
 70
  3020
  9
$CMLSTYLE
  2
STANDARD
  9
$CMLJUST
 70
     0
  9
$CMLSCALE
 40
1.0
  9
$PROXYGRAPHICS
 70
     1
  9
$MEASUREMENT
 70
     1
  9
$CELWEIGHT
370
    -1
  9
$ENDCAPS
280
     0
  9
$JOINSTYLE
280
     0
  9
$LWDISPLAY
290
     0
  9
$INSUNITS
 70
     0
  9
$HYPERLINKBASE
  1

  9
$STYLESHEET
  1

  9
$XEDIT
290
     1
  9
$CEPSNTYPE
380
     0
  9
$PSTYLEMODE
290
     1
  9
$FINGERPRINTGUID
  2
{02D3D405-B972-4206-84E1-D1C1939D003B}
  9
$VERSIONGUID
  2
{FAEB1C32-E019-11D5-929B-00C0DF256EC4}
  9
$EXTNAMES
290
     1
  9
$PSVPSCALE
 40
0.0
  9
$OLESTARTUP
290
     0
  9
$SORTENTS
280
   127
  9
$INDEXCTL
280
     0
  9
$HIDETEXT
280
     1
  9
$XCLIPFRAME
280
     2
  9
$HALOGAP
280
     0
  9
$OBSCOLOR
 70
   257
  9
$OBSLTYPE
280
     0
  9
$INTERSECTIONDISPLAY
280
     0
  9
$INTERSECTIONCOLOR
 70
   257
  9
$DIMASSOC
280
     2
  9
$PROJECTNAME
  1

  9
$CAMERADISPLAY
290
     0
  9
$LENSLENGTH
 40
50.0
  9
$CAMERAHEIGHT
 40
0.0
  9
$STEPSPERSEC
 40
2.0
  9
$STEPSIZE
 40
6.0
  9
$3DDWFPREC
 40
2.0
  9
$PSOLWIDTH
 40
0.25
  9
$PSOLHEIGHT
 40
4.0
  9
$LOFTANG1
 40
1.570796326794897
  9
$LOFTANG2
 40
1.570796326794897
  9
$LOFTMAG1
 40
0.0
  9
$LOFTMAG2
 40
0.0
  9
$LOFTPARAM
 70
     7
  9
$LOFTNORMALS
280
     1
  9
$LATITUDE
 40
37.795
  9
$LONGITUDE
 40
-122.394
  9
$NORTHDIRECTION
 40
0.0
  9
$TIMEZONE
 70
 -8000
  9
$LIGHTGLYPHDISPLAY
280
     1
  9
$TILEMODELIGHTSYNCH
280
     1
  9
$SOLIDHIST
280
     0
  9
$SHOWHIST
280
     1
  9
$DWFFRAME
280
     2
  9
$DGNFRAME
280
     2
  9
$REALWORLDSCALE
290
     1
  9
$INTERFERECOLOR
 62
   256
  9
$CSHADOW
280
     0
  9
$SHADOWPLANELOCATION
 40
0.0
  0
ENDSEC
  0
SECTION
  2
CLASSES
  0
CLASS
  1
ACDBDICTIONARYWDFLT
  2
AcDbDictionaryWithDefault
  3
ObjectDBX Classes
 90
        0
 91
        4
280
     0
281
     0
  0
CLASS
  1
SCALE
  2
AcDbScale
  3
ObjectDBX Classes
 90
     1153
 91
        4
280
     0
281
     0
  0
CLASS
  1
VISUALSTYLE
  2
AcDbVisualStyle
  3
ObjectDBX Classes
 90
     4095
 91
        4
280
     0
281
     0
  0
CLASS
  1
MATERIAL
  2
AcDbMaterial
  3
ObjectDBX Classes
 90
     1153
 91
        4
280
     0
281
     0
  0
CLASS
  1
TABLESTYLE
  2
AcDbTableStyle
  3
ObjectDBX Classes
 90
     4095
 91
        4
280
     0
281
     0
  0
CLASS
  1
MLEADERSTYLE
  2
AcDbMLeaderStyle
  3
ACDB_MLEADERSTYLE_CLASS
 90
     4095
 91
        4
280
     0
281
     0
  0
CLASS
  1
DICTIONARYVAR
  2
AcDbDictionaryVar
  3
ObjectDBX Classes
 90
        0
 91
        4
280
     0
281
     0
  0
CLASS
  1
CELLSTYLEMAP
  2
AcDbCellStyleMap
  3
ObjectDBX Classes
 90
     1152
 91
        4
280
     0
281
     0
  0
ENDSEC
  0
SECTION
  2
TABLES
  0
TABLE
  2
VPORT
  5
8
330
0
100
AcDbSymbolTable
 70
     1
  0
VPORT
  5
1F4
330
8
100
AcDbSymbolTableRecord
100
AcDbViewportTableRecord
  2
*ACTIVE
 70
     0
 10
0.0
 20
0.0
 11
1.0
 21
1.0
 12
1600.0
 22
1250.0
 13
0.0
 23
0.0
 14
1.0
 24
1.0
 15
0.0
 25
0.0
 16
0.0
 26
0.0
 36
1.0
 17
0.0
 27
0.0
 37
0.0
 40
2500.0
 41
1.28
 42
50.0
 43
0.0
 44
0.0
 50
0.0
 51
0.0
 71
     0
 72
   100
 73
     1
 74
     1
 75
     0
 76
     0
 77
     0
 78
     0
281
     0
 65
     1
110
0.0
120
0.0
130
0.0
111
1.0
121
0.0
131
0.0
112
0.0
122
1.0
132
0.0
 79
     0
146
0.0
348
4AA
 60
     3
 61
     5
292
     1
282
     1
141
0.0
142
0.0
 63
   256
  0
ENDTAB
  0
TABLE
  2
LTYPE
  5
5
330
0
100
AcDbSymbolTable
 70
     6
  0
LTYPE
  5
14
330
5
100
AcDbSymbolTableRecord
100
AcDbLinetypeTableRecord
  2
BYBLOCK
 70
     0
  3

 72
    65
 73
     0
 40
0.0
  0
LTYPE
  5
15
330
5
100
AcDbSymbolTableRecord
100
AcDbLinetypeTableRecord
  2
BYLAYER
 70
     0
  3

 72
    65
 73
     0
 40
0.0
  0
LTYPE
  5
16
330
5
100
AcDbSymbolTableRecord
100
AcDbLinetypeTableRecord
  2
CONTINUOUS
 70
     0
  3
Solid line
 72
    65
 73
     0
 40
0.0
  0
LTYPE
  5
1F5
330
5
100
AcDbSymbolTableRecord
100
AcDbLinetypeTableRecord
  2
CENTER
 70
     0
  3
____ _ ____ _ ____ _ ____ _ ____ _ ____ _ ____
 72
    65
 73
     4
 40
0.6
 49
0.375
 74
     0
 49
-0.075
 74
     0
 49
0.075
 74
     0
 49
-0.075
 74
     0
  0
LTYPE
  5
1F6
330
5
100
AcDbSymbolTableRecord
100
AcDbLinetypeTableRecord
  2
HIDDEN
 70
     0
  3
- - - - - - - - - - - - - - - - - - - -
 72
    65
 73
     2
 40
0.2
 49
0.1
 74
     0
 49
-0.1
 74
     0
  0
LTYPE
  5
1F7
330
5
100
AcDbSymbolTableRecord
100
AcDbLinetypeTableRecord
  2
PHANTOM
 70
     0
  3
_____ _ _ _____ _ _ _____ _ _ _____
 72
    65
 73
     6
 40
0.8
 49
0.45
 74
     0
 49
-0.05
 74
     0
 49
0.1
 74
     0
 49
-0.05
 74
     0
 49
0.1
 74
     0
 49
-0.05
 74
     0
  0
LTYPE
  5
1F8
330
5
100
AcDbSymbolTableRecord
100
AcDbLinetypeTableRecord
  2
DOT
 70
     0
  3
. . . . . . . . . . . . . . . . . . . .
 72
    65
 73
     2
 40
0.2
 49
0.1
 74
     0
 49
-0.1
 74
     0
  0
LTYPE
  5
1F9
330
5
100
AcDbSymbolTableRecord
100
AcDbLinetypeTableRecord
  2
DASHED
 70
     0
  3
- - - - - - - - - - - - - - - - - - - -
 72
    65
 73
     2
 40
0.2
 49
0.1
 74
     0
 49
-0.1
 74
     0
  0
ENDTAB
  0
TABLE
  2
LAYER
  5
2
330
0
100
AcDbSymbolTable
 70
    37
  0
LAYER
  5
10
330
2
100
AcDbSymbolTableRecord
100
AcDbLayerTableRecord
  2
0
 70
     0
 62
     7
  6
CONTINUOUS
370
    -3
390
47F
347
4C1
348
0
  0
LAYER
  5
1FA
330
2
100
AcDbSymbolTableRecord
100
AcDbLayerTableRecord
  2
DEFAULT_1
 70
     0
 62
     7
  6
CENTER
370
    -3
390
47F
347
4C1
348
0
  0
LAYER
  5
1FB
330
2
100
AcDbSymbolTableRecord
100
AcDbLayerTableRecord
  2
DEFAULT_2
 70
     0
 62
     8
  6
HIDDEN
370
    -3
390
47F
347
4C1
348
0
  0
LAYER
  5
1FC
330
2
100
AcDbSymbolTableRecord
100
AcDbLayerTableRecord
  2
DEFAULT_3
 70
     0
 62
     7
  6
PHANTOM
370
    -3
390
47F
347
4C1
348
0
  0
LAYER
  5
1FD
330
2
100
AcDbSymbolTableRecord
100
AcDbLayerTableRecord
  2
01_ALL_DTM_PLN
 70
     0
 62
     7
  6
CONTINUOUS
370
    -3
390
47F
347
4C1
348
0
  0
LAYER
  5
1FE
330
2
100
AcDbSymbolTableRecord
100
AcDbLayerTableRecord
  2
01__ASM_ALL_DTM_PLN
 70
     0
 62
     7
  6
CONTINUOUS
370
    -3
390
47F
347
4C1
348
0
  0
LAYER
  5
1FF
330
2
100
AcDbSymbolTableRecord
100
AcDbLayerTableRecord
  2
01__ASM_DEF_DTM_PLN
 70
     0
 62
     7
  6
CONTINUOUS
370
    -3
390
47F
347
4C1
348
0
  0
LAYER
  5
200
330
2
100
AcDbSymbolTableRecord
100
AcDbLayerTableRecord
  2
01___PRT_ALL_DTM_PLN
 70
     0
 62
     7
  6
CONTINUOUS
370
    -3
390
47F
347
4C1
348
0
  0
LAYER
  5
201
330
2
100
AcDbSymbolTableRecord
100
AcDbLayerTableRecord
  2
01___PRT_DEF_DTM_PLN
 70
     0
 62
     7
  6
CONTINUOUS
370
    -3
390
47F
347
4C1
348
0
  0
LAYER
  5
202
330
2
100
AcDbSymbolTableRecord
100
AcDbLayerTableRecord
  2
02_ALL_AXES
 70
     0
 62
     7
  6
CONTINUOUS
370
    -3
390
47F
347
4C1
348
0
  0
LAYER
  5
203
330
2
100
AcDbSymbolTableRecord
100
AcDbLayerTableRecord
  2
02__ASM_ALL_AXES
 70
     0
 62
     7
  6
CONTINUOUS
370
    -3
390
47F
347
4C1
348
0
  0
LAYER
  5
204
330
2
100
AcDbSymbolTableRecord
100
AcDbLayerTableRecord
  2
02___PRT_ALL_AXES
 70
     0
 62
     7
  6
CONTINUOUS
370
    -3
390
47F
347
4C1
348
0
  0
LAYER
  5
205
330
2
100
AcDbSymbolTableRecord
100
AcDbLayerTableRecord
  2
03_ALL_CURVES
 70
     0
 62
     7
  6
CONTINUOUS
370
    -3
390
47F
347
4C1
348
0
  0
LAYER
  5
206
330
2
100
AcDbSymbolTableRecord
100
AcDbLayerTableRecord
  2
03__ASM_ALL_CURVES
 70
     0
 62
     7
  6
CONTINUOUS
370
    -3
390
47F
347
4C1
348
0
  0
LAYER
  5
207
330
2
100
AcDbSymbolTableRecord
100
AcDbLayerTableRecord
  2
03___PRT_ALL_CURVES
 70
     0
 62
     7
  6
CONTINUOUS
370
    -3
390
47F
347
4C1
348
0
  0
LAYER
  5
208
330
2
100
AcDbSymbolTableRecord
100
AcDbLayerTableRecord
  2
04_ALL_DTM_PNT
 70
     0
 62
     7
  6
CONTINUOUS
370
    -3
390
47F
347
4C1
348
0
  0
LAYER
  5
209
330
2
100
AcDbSymbolTableRecord
100
AcDbLayerTableRecord
  2
04__ASM_ALL_DTM_PNT
 70
     0
 62
     7
  6
CONTINUOUS
370
    -3
390
47F
347
4C1
348
0
  0
LAYER
  5
20A
330
2
100
AcDbSymbolTableRecord
100
AcDbLayerTableRecord
  2
04___PRT_ALL_DTM_PNT
 70
     0
 62
     7
  6
CONTINUOUS
370
    -3
390
47F
347
4C1
348
0
  0
LAYER
  5
20B
330
2
100
AcDbSymbolTableRecord
100
AcDbLayerTableRecord
  2
05_ALL_DTM_CSYS
 70
     0
 62
     7
  6
CONTINUOUS
370
    -3
390
47F
347
4C1
348
0
  0
LAYER
  5
20C
330
2
100
AcDbSymbolTableRecord
100
AcDbLayerTableRecord
  2
05__ASM_ALL_DTM_CSYS
 70
     0
 62
     7
  6
CONTINUOUS
370
    -3
390
47F
347
4C1
348
0
  0
LAYER
  5
20D
330
2
100
AcDbSymbolTableRecord
100
AcDbLayerTableRecord
  2
05__ASM_DEF_DTM_CSYS
 70
     0
 62
     7
  6
CONTINUOUS
370
    -3
390
47F
347
4C1
348
0
  0
LAYER
  5
20E
330
2
100
AcDbSymbolTableRecord
100
AcDbLayerTableRecord
  2
05___PRT_ALL_DTM_CSYS
 70
     0
 62
     7
  6
CONTINUOUS
370
    -3
390
47F
347
4C1
348
0
  0
LAYER
  5
20F
330
2
100
AcDbSymbolTableRecord
100
AcDbLayerTableRecord
  2
05___PRT_DEF_DTM_CSYS
 70
     0
 62
     7
  6
CONTINUOUS
370
    -3
390
47F
347
4C1
348
0
  0
LAYER
  5
210
330
2
100
AcDbSymbolTableRecord
100
AcDbLayerTableRecord
  2
06_ALL_SURFS
 70
     0
 62
     7
  6
CONTINUOUS
370
    -3
390
47F
347
4C1
348
0
  0
LAYER
  5
211
330
2
100
AcDbSymbolTableRecord
100
AcDbLayerTableRecord
  2
06__ASM_ALL_SURFS
 70
     0
 62
     7
  6
CONTINUOUS
370
    -3
390
47F
347
4C1
348
0
  0
LAYER
  5
212
330
2
100
AcDbSymbolTableRecord
100
AcDbLayerTableRecord
  2
06___PRT_ALL_SURFS
 70
     0
 62
     7
  6
CONTINUOUS
370
    -3
390
47F
347
4C1
348
0
  0
LAYER
  5
213
330
2
100
AcDbSymbolTableRecord
100
AcDbLayerTableRecord
  2
07__ASM_ALL_SKELETONS
 70
     0
 62
     7
  6
CONTINUOUS
370
    -3
390
47F
347
4C1
348
0
  0
LAYER
  5
214
330
2
100
AcDbSymbolTableRecord
100
AcDbLayerTableRecord
  2
1_ALL_PLANES
 70
     0
 62
     7
  6
CONTINUOUS
370
    -3
390
47F
347
4C1
348
0
  0
LAYER
  5
215
330
2
100
AcDbSymbolTableRecord
100
AcDbLayerTableRecord
  2
2_ALL_CSYS
 70
     0
 62
     7
  6
CONTINUOUS
370
    -3
390
47F
347
4C1
348
0
  0
LAYER
  5
216
330
2
100
AcDbSymbolTableRecord
100
AcDbLayerTableRecord
  2
3_ALL_AXES
 70
     0
 62
     7
  6
CONTINUOUS
370
    -3
390
47F
347
4C1
348
0
  0
LAYER
  5
217
330
2
100
AcDbSymbolTableRecord
100
AcDbLayerTableRecord
  2
4_ALL_POINTS
 70
     0
 62
     7
  6
CONTINUOUS
370
    -3
390
47F
347
4C1
348
0
  0
LAYER
  5
218
330
2
100
AcDbSymbolTableRecord
100
AcDbLayerTableRecord
  2
5_ALL_CURVES
 70
     0
 62
     7
  6
CONTINUOUS
370
    -3
390
47F
347
4C1
348
0
  0
LAYER
  5
219
330
2
100
AcDbSymbolTableRecord
100
AcDbLayerTableRecord
  2
6_ALL_SURFS
 70
     0
 62
     7
  6
CONTINUOUS
370
    -3
390
47F
347
4C1
348
0
  0
LAYER
  5
21A
330
2
100
AcDbSymbolTableRecord
100
AcDbLayerTableRecord
  2
7_ALL_FEATURES
 70
     0
 62
     7
  6
CONTINUOUS
370
    -3
390
47F
347
4C1
348
0
  0
LAYER
  5
21B
330
2
100
AcDbSymbolTableRecord
100
AcDbLayerTableRecord
  2
8_ALL_NOTES_BALLOONS_SYMBOLS_GT
 70
     0
 62
     7
  6
CONTINUOUS
370
    -3
390
47F
347
4C1
348
0
  0
LAYER
  5
21C
330
2
100
AcDbSymbolTableRecord
100
AcDbLayerTableRecord
  2
9_SOLID
 70
     0
 62
     7
  6
CONTINUOUS
370
    -3
390
47F
347
4C1
348
0
  0
LAYER
  5
21D
330
2
100
AcDbSymbolTableRecord
100
AcDbLayerTableRecord
  2
XXX_SOLIDO
 70
     0
 62
     7
  6
CONTINUOUS
370
    -3
390
47F
347
4C1
348
0
  0
ENDTAB
  0
TABLE
  2
STYLE
  5
3
330
0
100
AcDbSymbolTable
 70
     3
  0
STYLE
  5
11
330
3
100
AcDbSymbolTableRecord
100
AcDbTextStyleTableRecord
  2
STANDARD
 70
     0
 40
0.0
 41
0.85
 50
0.0
 71
     0
 42
0.2
  3
txt
  4

  0
STYLE
  5
21E
330
3
100
AcDbSymbolTableRecord
100
AcDbTextStyleTableRecord
  2
TEXTSTYLE_1
 70
     0
 40
0.0
 41
0.8
 50
0.0
 71
     0
 42
0.2
  3
gdt
  4

  0
STYLE
  5
21F
330
3
100
AcDbSymbolTableRecord
100
AcDbTextStyleTableRecord
  2
TEXTSTYLE_2
 70
     0
 40
0.0
 41
2.0
 50
0.0
 71
     0
 42
0.2
  3
txt
  4

  0
ENDTAB
  0
TABLE
  2
VIEW
  5
6
330
0
100
AcDbSymbolTable
 70
     0
  0
ENDTAB
  0
TABLE
  2
UCS
  5
7
330
0
100
AcDbSymbolTable
 70
     0
  0
ENDTAB
  0
TABLE
  2
APPID
  5
9
330
0
100
AcDbSymbolTable
 70
     1
  0
APPID
  5
220
330
9
100
AcDbSymbolTableRecord
100
AcDbRegAppTableRecord
  2
ACAD
 70
     0
  0
ENDTAB
  0
TABLE
  2
DIMSTYLE
  5
A
330
0
100
AcDbSymbolTable
 70
     4
100
AcDbDimStyleTable
  0
DIMSTYLE
105
227
330
A
100
AcDbSymbolTableRecord
100
AcDbDimStyleTableRecord
  2
STANDARD
 70
     0
 41
2.5
 42
0.75
 44
0.75
 47
0.01
 48
0.01
 71
     1
 73
     0
 74
     0
 77
     1
 78
     8
 79
     2
140
3.0
147
0.625
171
     1
178
     0
179
     2
271
     2
272
     2
284
     8
340
11
341
221
342
221
343
221
344
221
  0
DIMSTYLE
105
228
330
A
100
AcDbSymbolTableRecord
100
AcDbDimStyleTableRecord
  2
DIMSTYLE_1
 70
     0
 41
2.5
 42
0.75
 44
0.75
 47
2.0
 48
2.0
 73
     0
 74
     0
 77
     1
 78
     8
 79
     2
140
3.0
147
0.75
171
     1
178
     0
271
     0
272
     0
284
     8
340
11
341
221
342
221
343
221
344
221
  0
DIMSTYLE
105
229
330
A
100
AcDbSymbolTableRecord
100
AcDbDimStyleTableRecord
  2
DIMSTYLE_2
 70
     0
 41
2.5
 42
0.75
 44
0.75
 47
0.3
 48
0.3
 73
     0
 74
     0
 77
     1
 78
     8
 79
     2
140
3.0
147
0.75
171
     1
178
     0
179
     2
271
     2
272
     2
284
     8
340
11
341
221
342
221
343
221
344
221
  0
DIMSTYLE
105
22A
330
A
100
AcDbSymbolTableRecord
100
AcDbDimStyleTableRecord
  2
DIMSTYLE_3
 70
     0
 41
2.5
 42
0.75
 44
0.75
 47
0.2
 48
0.2
 73
     0
 74
     0
 77
     1
 78
     8
 79
     2
140
3.0
147
0.75
171
     1
178
     0
271
     0
272
     0
284
     8
340
11
341
221
342
221
343
221
344
221
  0
ENDTAB
  0
TABLE
  2
BLOCK_RECORD
  5
1
330
0
100
AcDbSymbolTable
 70
     6
  0
BLOCK_RECORD
  5
1F
330
1
100
AcDbSymbolTableRecord
100
AcDbBlockTableRecord
  2
*MODEL_SPACE
340
4A3
 70
     0
280
     1
281
     0
  0
BLOCK_RECORD
  5
1B
330
1
100
AcDbSymbolTableRecord
100
AcDbBlockTableRecord
  2
*PAPER_SPACE
340
4A4
 70
     0
280
     1
281
     0
  0
BLOCK_RECORD
  5
221
330
1
100
AcDbSymbolTableRecord
100
AcDbBlockTableRecord
  2
_CLOSED
340
0
102
{BLKREFS
331
27D
331
27E
331
286
331
287
331
28F
331
290
102
}
 70
     0
280
     1
281
     0
  0
BLOCK_RECORD
  5
222
330
1
100
AcDbSymbolTableRecord
100
AcDbBlockTableRecord
  2
*D1
340
0
 70
     0
280
     1
281
     0
  0
BLOCK_RECORD
  5
223
330
1
100
AcDbSymbolTableRecord
100
AcDbBlockTableRecord
  2
*D2
340
0
 70
     0
280
     1
281
     0
  0
BLOCK_RECORD
  5
224
330
1
100
AcDbSymbolTableRecord
100
AcDbBlockTableRecord
  2
*D3
340
0
 70
     0
280
     1
281
     0
  0
BLOCK_RECORD
  5
225
330
1
100
AcDbSymbolTableRecord
100
AcDbBlockTableRecord
  2
LOGO2_BL1
340
0
102
{BLKREFS
331
467
102
}
 70
     0
280
     1
281
     0
  0
BLOCK_RECORD
  5
226
330
1
100
AcDbSymbolTableRecord
100
AcDbBlockTableRecord
  2
PROIEZIONE_EU_BL0
340
0
102
{BLKREFS
331
464
102
}
 70
     0
280
     1
281
     0
  0
ENDTAB
  0
ENDSEC
  0
SECTION
  2
BLOCKS
  0
BLOCK
  5
20
330
1F
100
AcDbEntity
  8
0
100
AcDbBlockBegin
  2
*MODEL_SPACE
 70
     0
 10
0.0
 20
0.0
 30
0.0
  3
*MODEL_SPACE
  1

  0
ENDBLK
  5
21
330
1F
100
AcDbEntity
  8
0
100
AcDbBlockEnd
  0
BLOCK
  5
1C
330
1B
100
AcDbEntity
 67
     1
  8
0
100
AcDbBlockBegin
  2
*PAPER_SPACE
 70
     0
 10
0.0
 20
0.0
 30
0.0
  3
*PAPER_SPACE
  1

  0
ENDBLK
  5
1D
330
1B
100
AcDbEntity
 67
     1
  8
0
100
AcDbBlockEnd
  0
BLOCK
  5
271
330
221
100
AcDbEntity
  8
0
100
AcDbBlockBegin
  2
_CLOSED
 70
     0
 10
0.0
 20
0.0
 30
0.0
  3
_CLOSED
  1

  0
LINE
  5
272
330
221
100
AcDbEntity
  8
0
  6
ByBlock
 62
     0
100
AcDbLine
 10
0.0
 20
0.0
 30
0.0
 11
-1.0
 21
0.2
 31
0.0
  0
LINE
  5
273
330
221
100
AcDbEntity
  8
0
  6
ByBlock
 62
     0
100
AcDbLine
 10
-1.0
 20
0.2
 30
0.0
 11
-1.0
 21
-0.2
 31
0.0
  0
LINE
  5
274
330
221
100
AcDbEntity
  8
0
  6
ByBlock
 62
     0
100
AcDbLine
 10
-1.0
 20
-0.2
 30
0.0
 11
0.0
 21
0.0
 31
0.0
  0
LINE
  5
275
330
221
100
AcDbEntity
  8
0
  6
ByBlock
 62
     0
100
AcDbLine
 10
-1.0
 20
0.0
 30
0.0
 11
0.0
 21
0.0
 31
0.0
  0
ENDBLK
  5
276
330
221
100
AcDbEntity
  8
0
  6
ByBlock
 62
     0
100
AcDbBlockEnd
  0
BLOCK
  5
277
330
222
100
AcDbEntity
  8
0
100
AcDbBlockBegin
  2
*D1
 70
     1
 10
0.0
 20
0.0
 30
0.0
  3
*D1
  1

  0
MTEXT
  5
278
330
222
100
AcDbEntity
  8
0
  6
Continuous
 62
     2
100
AcDbMText
 10
1986.3939717573
 20
453.5558613305
 30
0.0
 40
3.0
 41
12.8571428571
 46
0.0
 71
     2
 72
     1
  1
2015
 73
     1
 44
1.0
  0
LINE
  5
279
330
222
100
AcDbEntity
  8
0
  6
Continuous
 62
     2
100
AcDbLine
 10
2993.6439717573
 20
443.3526921161
 30
0.0
 11
2993.6439717573
 21
450.5558613305
 31
0.0
  0
LINE
  5
27A
330
222
100
AcDbEntity
  8
0
  6
Continuous
 62
     2
100
AcDbLine
 10
979.1439717573
 20
443.1476070097
 30
0.0
 11
979.1439717573
 21
450.5558613305
 31
0.0
  0
LINE
  5
27B
330
222
100
AcDbEntity
  8
0
  6
Continuous
 62
     2
100
AcDbLine
 10
2993.6439717573
 20
449.8058613305
 30
0.0
 11
1986.3939717573
 21
449.8058613305
 31
0.0
  0
LINE
  5
27C
330
222
100
AcDbEntity
  8
0
  6
Continuous
 62
     2
100
AcDbLine
 10
979.1439717573
 20
449.8058613305
 30
0.0
 11
1986.3939717573
 21
449.8058613305
 31
0.0
  0
INSERT
  5
27D
330
222
100
AcDbEntity
  8
0
  6
Continuous
 62
     2
100
AcDbBlockReference
  2
_CLOSED
 10
2993.6439717573
 20
449.8058613305
 30
0.0
 41
2.5
 42
2.5
 43
2.5
  0
INSERT
  5
27E
330
222
100
AcDbEntity
  8
0
  6
Continuous
 62
     2
100
AcDbBlockReference
  2
_CLOSED
 10
979.1439717573
 20
449.8058613305
 30
0.0
 41
2.5
 42
2.5
 43
2.5
 50
180.0
  0
ENDBLK
  5
27F
330
222
100
AcDbEntity
  8
0
  6
ByBlock
 62
     0
100
AcDbBlockEnd
  0
BLOCK
  5
280
330
223
100
AcDbEntity
  8
0
100
AcDbBlockBegin
  2
*D2
 70
     1
 10
0.0
 20
0.0
 30
0.0
  3
*D2
  1

  0
MTEXT
  5
281
330
223
100
AcDbEntity
  8
0
  6
Continuous
 62
     2
100
AcDbMText
 10
3141.0340162557
 20
394.9859653698
 30
0.0
 40
3.0
 41
6.75
 46
0.0
 71
     2
 72
     1
  1
75
 11
0.0
 21
1.0
 31
0.0
 73
     1
 44
1.0
  0
LINE
  5
282
330
223
100
AcDbEntity
  8
0
  6
Continuous
 62
     2
100
AcDbLine
 10
3138.7987921441
 20
432.4859653698
 30
0.0
 11
3145.5340162557
 21
432.4859653698
 31
0.0
  0
LINE
  5
283
330
223
100
AcDbEntity
  8
0
  6
Continuous
 62
     2
100
AcDbLine
 10
3138.6752585271
 20
357.4859653698
 30
0.0
 11
3145.5340162557
 21
357.4859653698
 31
0.0
  0
LINE
  5
284
330
223
100
AcDbEntity
  8
0
  6
Continuous
 62
     2
100
AcDbLine
 10
3144.7840162557
 20
432.4859653698
 30
0.0
 11
3144.7840162557
 21
394.9859653698
 31
0.0
  0
LINE
  5
285
330
223
100
AcDbEntity
  8
0
  6
Continuous
 62
     2
100
AcDbLine
 10
3144.7840162557
 20
357.4859653698
 30
0.0
 11
3144.7840162557
 21
394.9859653698
 31
0.0
  0
INSERT
  5
286
330
223
100
AcDbEntity
  8
0
  6
Continuous
 62
     2
100
AcDbBlockReference
  2
_CLOSED
 10
3144.7840162557
 20
432.4859653698
 30
0.0
 41
2.5
 42
2.5
 43
2.5
 50
90.0
  0
INSERT
  5
287
330
223
100
AcDbEntity
  8
0
  6
Continuous
 62
     2
100
AcDbBlockReference
  2
_CLOSED
 10
3144.7840162557
 20
357.4859653698
 30
0.0
 41
2.5
 42
2.5
 43
2.5
 50
270.0
  0
ENDBLK
  5
288
330
223
100
AcDbEntity
  8
0
  6
ByBlock
 62
     0
100
AcDbBlockEnd
  0
BLOCK
  5
289
330
224
100
AcDbEntity
  8
0
100
AcDbBlockBegin
  2
*D3
 70
     1
 10
0.0
 20
0.0
 30
0.0
  3
*D3
  1

  0
MTEXT
  5
28A
330
224
100
AcDbEntity
  8
0
  6
Continuous
 62
     2
100
AcDbMText
 10
3005.7019049019
 20
214.835981166
 30
0.0
 40
3.0
 41
7.0714285714
 46
0.0
 71
     2
 72
     1
  1
26
 11
0.0
 21
1.0
 31
0.0
 73
     1
 44
1.0
  0
LINE
  5
28B
330
224
100
AcDbEntity
  8
0
  6
Continuous
 62
     2
100
AcDbLine
 10
2994.3939717573
 20
202.035981166
 30
0.0
 11
3010.2019049019
 21
202.035981166
 31
0.0
  0
LINE
  5
28C
330
224
100
AcDbEntity
  8
0
  6
Continuous
 62
     2
100
AcDbLine
 10
2994.3939717573
 20
227.635981166
 30
0.0
 11
3010.2019049019
 21
227.635981166
 31
0.0
  0
LINE
  5
28D
330
224
100
AcDbEntity
  8
0
  6
Continuous
 62
     2
100
AcDbLine
 10
3009.4519049019
 20
202.035981166
 30
0.0
 11
3009.4519049019
 21
214.835981166
 31
0.0
  0
LINE
  5
28E
330
224
100
AcDbEntity
  8
0
  6
Continuous
 62
     2
100
AcDbLine
 10
3009.4519049019
 20
227.635981166
 30
0.0
 11
3009.4519049019
 21
214.835981166
 31
0.0
  0
INSERT
  5
28F
330
224
100
AcDbEntity
  8
0
  6
Continuous
 62
     2
100
AcDbBlockReference
  2
_CLOSED
 10
3009.4519049019
 20
202.035981166
 30
0.0
 41
2.5
 42
2.5
 43
2.5
 50
270.0
  0
INSERT
  5
290
330
224
100
AcDbEntity
  8
0
  6
Continuous
 62
     2
100
AcDbBlockReference
  2
_CLOSED
 10
3009.4519049019
 20
227.635981166
 30
0.0
 41
2.5
 42
2.5
 43
2.5
 50
90.0
  0
ENDBLK
  5
291
330
224
100
AcDbEntity
  8
0
  6
ByBlock
 62
     0
100
AcDbBlockEnd
  0
BLOCK
  5
22B
330
225
100
AcDbEntity
  8
0
100
AcDbBlockBegin
  2
LOGO2_BL1
 70
     0
 10
3083.057525658
 20
32.1699808497
 30
0.0
  3
LOGO2_BL1
  1

  0
LINE
  5
22C
330
225
100
AcDbEntity
  8
0
  6
Continuous
 62
     7
100
AcDbLine
 10
3074.8004508862
 20
35.3654721886
 30
0.0
 11
3073.4961099569
 21
35.3654721886
 31
0.0
  0
LINE
  5
22D
330
225
100
AcDbEntity
  8
0
  6
Continuous
 62
     7
100
AcDbLine
 10
3073.4961099569
 20
35.3654721886
 30
0.0
 11
3073.4961099569
 21
24.9064061287
 31
0.0
  0
LINE
  5
22E
330
225
100
AcDbEntity
  8
0
  6
Continuous
 62
     7
100
AcDbLine
 10
3073.4961099569
 20
24.9064061287
 30
0.0
 11
3077.9771648451
 21
24.9064061287
 31
0.0
  0
LINE
  5
22F
330
225
100
AcDbEntity
  8
0
  6
Continuous
 62
     7
100
AcDbLine
 10
3077.9771648451
 20
24.9064061287
 30
0.0
 11
3077.9771648451
 21
26.0992604537
 31
0.0
  0
LINE
  5
230
330
225
100
AcDbEntity
  8
0
  6
Continuous
 62
     7
100
AcDbLine
 10
3077.9771648451
 20
26.0992604537
 30
0.0
 11
3074.8004508862
 21
26.0992604537
 31
0.0
  0
LINE
  5
231
330
225
100
AcDbEntity
  8
0
  6
Continuous
 62
     7
100
AcDbLine
 10
3074.8004508862
 20
26.0992604537
 30
0.0
 11
3074.8004508862
 21
35.3654721886
 31
0.0
  0
LINE
  5
232
330
225
100
AcDbEntity
  8
0
  6
Continuous
 62
     7
100
AcDbLine
 10
3089.7367771025
 20
35.3654721886
 30
0.0
 11
3088.4329595844
 21
35.3654721886
 31
0.0
  0
LINE
  5
233
330
225
100
AcDbEntity
  8
0
  6
Continuous
 62
     7
100
AcDbLine
 10
3088.4329595844
 20
35.3654721886
 30
0.0
 11
3088.4329595844
 21
24.9064061287
 31
0.0
  0
LINE
  5
234
330
225
100
AcDbEntity
  8
0
  6
Continuous
 62
     7
100
AcDbLine
 10
3088.4329595844
 20
24.9064061287
 30
0.0
 11
3092.9141453255
 21
24.9064061287
 31
0.0
  0
LINE
  5
235
330
225
100
AcDbEntity
  8
0
  6
Continuous
 62
     7
100
AcDbLine
 10
3092.9141453255
 20
24.9064061287
 30
0.0
 11
3092.9141453255
 21
26.0992604537
 31
0.0
  0
LINE
  5
236
330
225
100
AcDbEntity
  8
0
  6
Continuous
 62
     7
100
AcDbLine
 10
3092.9141453255
 20
26.0992604537
 30
0.0
 11
3089.7367771025
 21
26.0992604537
 31
0.0
  0
LINE
  5
237
330
225
100
AcDbEntity
  8
0
  6
Continuous
 62
     7
100
AcDbLine
 10
3089.7367771025
 20
26.0992604537
 30
0.0
 11
3089.7367771025
 21
35.3654721886
 31
0.0
  0
LWPOLYLINE
  5
238
330
225
100
AcDbEntity
  8
0
  6
Continuous
 62
     7
100
AcDbPolyline
 90
        2
 70
     0
 43
0.2
 10
3071.8505048678
 20
21.5628548218
 10
3071.8505048678
 20
19.7057915724
  0
LWPOLYLINE
  5
239
330
225
100
AcDbEntity
  8
0
  6
Continuous
 62
     7
100
AcDbPolyline
 90
        2
 70
     0
 43
0.2
 10
3071.8505048678
 20
19.7057915724
 10
3072.6462208782
 20
19.7057915724
  0
LWPOLYLINE
  5
23A
330
225
100
AcDbEntity
  8
0
  6
Continuous
 62
     7
100
AcDbPolyline
 90
        2
 70
     0
 43
0.2
 10
3072.6462208782
 20
19.7057915724
 10
3072.6462208782
 20
19.917773144
  0
LWPOLYLINE
  5
23B
330
225
100
AcDbEntity
  8
0
  6
Continuous
 62
     7
100
AcDbPolyline
 90
        2
 70
     0
 43
0.2
 10
3072.6462208782
 20
19.917773144
 10
3072.0821143627
 20
19.917773144
  0
LWPOLYLINE
  5
23C
330
225
100
AcDbEntity
  8
0
  6
Continuous
 62
     7
100
AcDbPolyline
 90
        2
 70
     0
 43
0.2
 10
3072.0821143627
 20
19.917773144
 10
3072.0821143627
 20
21.5628548218
  0
LWPOLYLINE
  5
23D
330
225
100
AcDbEntity
  8
0
  6
Continuous
 62
     7
100
AcDbPolyline
 90
        2
 70
     0
 43
0.2
 10
3072.0821143627
 20
21.5628548218
 10
3071.8505048678
 20
21.5628548218
  0
SPLINE
  5
23E
330
225
100
AcDbEntity
  8
0
  6
Continuous
 62
     7
100
AcDbSpline
 70
     3
 71
     3
 72
    35
 73
    31
 74
     0
 42
0.000000001
 43
0.0000001
 40
0.0
 40
0.0
 40
0.0
 40
0.0
 40
1.0
 40
1.0
 40
1.0
 40
2.0
 40
2.0
 40
2.0
 40
3.0
 40
3.0
 40
3.0
 40
4.0
 40
4.0
 40
4.0
 40
5.0
 40
5.0
 40
5.0
 40
6.0
 40
6.0
 40
6.0
 40
7.0
 40
7.0
 40
7.0
 40
8.0
 40
8.0
 40
8.0
 40
9.0
 40
9.0
 40
9.0
 40
10.0
 40
10.0
 40
10.0
 40
10.0
 10
3074.0445141337
 20
20.8583432283
 30
0.0
 10
3074.0445141337
 20
20.8583432283
 30
0.0
 10
3074.0445141337
 20
20.1962279491
 30
0.0
 10
3074.0445141337
 20
20.1962279491
 30
0.0
 10
3074.0445141337
 20
19.8811343539
 30
0.0
 10
3074.1923778225
 20
19.6665357258
 30
0.0
 10
3074.5324643068
 20
19.6665357258
 30
0.0
 10
3074.8720273798
 20
19.6665357258
 30
0.0
 10
3075.0201527743
 20
19.8811343539
 30
0.0
 10
3075.0201527743
 20
20.1962279491
 30
0.0
 10
3075.0201527743
 20
20.1962279491
 30
0.0
 10
3075.0201527743
 20
20.8583432283
 30
0.0
 10
3075.0201527743
 20
20.8583432283
 30
0.0
 10
3075.0201527743
 20
20.8583432283
 30
0.0
 10
3074.7980955354
 20
20.8583432283
 30
0.0
 10
3074.7980955354
 20
20.8583432283
 30
0.0
 10
3074.7980955354
 20
20.8583432283
 30
0.0
 10
3074.7980955354
 20
20.221351691
 30
0.0
 10
3074.7980955354
 20
20.221351691
 30
0.0
 10
3074.7980955354
 20
20.0355406838
 30
0.0
 10
3074.751381078
 20
19.8727597732
 30
0.0
 10
3074.5324643068
 20
19.8727597732
 30
0.0
 10
3074.3130241244
 20
19.8727597732
 30
0.0
 10
3074.266309667
 20
20.0355406838
 30
0.0
 10
3074.266309667
 20
20.221351691
 30
0.0
 10
3074.266309667
 20
20.221351691
 30
0.0
 10
3074.266309667
 20
20.8583432283
 30
0.0
 10
3074.266309667
 20
20.8583432283
 30
0.0
 10
3074.266309667
 20
20.8583432283
 30
0.0
 10
3074.0445141337
 20
20.8583432283
 30
0.0
 10
3074.0445141337
 20
20.8583432283
 30
0.0
  0
SPLINE
  5
23F
330
225
100
AcDbEntity
  8
0
  6
Continuous
 62
     7
100
AcDbSpline
 70
     3
 71
     3
 72
    35
 73
    31
 74
     0
 42
0.000000001
 43
0.0000001
 40
0.0
 40
0.0
 40
0.0
 40
0.0
 40
1.0
 40
1.0
 40
1.0
 40
2.0
 40
2.0
 40
2.0
 40
3.0
 40
3.0
 40
3.0
 40
4.0
 40
4.0
 40
4.0
 40
5.0
 40
5.0
 40
5.0
 40
6.0
 40
6.0
 40
6.0
 40
7.0
 40
7.0
 40
7.0
 40
8.0
 40
8.0
 40
8.0
 40
9.0
 40
9.0
 40
9.0
 40
10.0
 40
10.0
 40
10.0
 40
10.0
 10
3077.4432853315
 20
20.8169937366
 30
0.0
 10
3077.3548288239
 20
20.8682880428
 30
0.0
 10
3077.2413794272
 20
20.8934117846
 30
0.0
 10
3077.1377439922
 20
20.8934117846
 30
0.0
 10
3076.782871139
 20
20.8934117846
 30
0.0
 10
3076.5074259488
 20
20.6296124955
 30
0.0
 10
3076.5074259488
 20
20.2721225859
 30
0.0
 10
3076.5074259488
 20
19.9271945472
 30
0.0
 10
3076.7858807539
 20
19.6670591371
 30
0.0
 10
3077.1254438269
 20
19.6670591371
 30
0.0
 10
3077.2413794272
 20
19.6670591371
 30
0.0
 10
3077.3421361001
 20
19.6890424112
 30
0.0
 10
3077.4432853315
 20
19.7429537739
 30
0.0
 10
3077.4432853315
 20
19.7429537739
 30
0.0
 10
3077.4432853315
 20
20.0255958693
 30
0.0
 10
3077.4432853315
 20
20.0255958693
 30
0.0
 10
3077.3594086726
 20
19.9324286601
 30
0.0
 10
3077.2559040904
 20
19.8732831845
 30
0.0
 10
3077.1277991777
 20
19.8732831845
 30
0.0
 10
3076.8940960377
 20
19.8732831845
 30
0.0
 10
3076.7288289236
 20
20.0454854982
 30
0.0
 10
3076.7288289236
 20
20.2820674004
 30
0.0
 10
3076.7288289236
 20
20.4940489719
 30
0.0
 10
3076.8965822413
 20
20.6861409146
 30
0.0
 10
3077.1134053673
 20
20.6861409146
 30
0.0
 10
3077.2462209816
 20
20.6861409146
 30
0.0
 10
3077.3548288239
 20
20.6322295519
 30
0.0
 10
3077.4432853315
 20
20.5312111734
 30
0.0
 10
3077.4432853315
 20
20.5312111734
 30
0.0
 10
3077.4432853315
 20
20.8169937366
 30
0.0
 10
3077.4432853315
 20
20.8169937366
 30
0.0
  0
SPLINE
  5
240
330
225
100
AcDbEntity
  8
0
  6
Continuous
 62
     7
100
AcDbSpline
 70
     3
 71
     3
 72
    32
 73
    28
 74
     0
 42
0.000000001
 43
0.0000001
 40
0.0
 40
0.0
 40
0.0
 40
0.0
 40
1.0
 40
1.0
 40
1.0
 40
2.0
 40
2.0
 40
2.0
 40
3.0
 40
3.0
 40
3.0
 40
4.0
 40
4.0
 40
4.0
 40
5.0
 40
5.0
 40
5.0
 40
6.0
 40
6.0
 40
6.0
 40
7.0
 40
7.0
 40
7.0
 40
8.0
 40
8.0
 40
8.0
 40
9.0
 40
9.0
 40
9.0
 40
9.0
 10
3079.9751565838
 20
20.2454286102
 30
0.0
 10
3079.9751565838
 20
20.2454286102
 30
0.0
 10
3079.9751565838
 20
20.2794503439
 30
0.0
 10
3079.9751565838
 20
20.2794503439
 30
0.0
 10
3079.9751565838
 20
20.6217613262
 30
0.0
 10
3079.8023000059
 20
20.8934117846
 30
0.0
 10
3079.4356503988
 20
20.8934117846
 30
0.0
 10
3079.0640283844
 20
20.8934117846
 30
0.0
 10
3078.8742917925
 20
20.6269954391
 30
0.0
 10
3078.8742917925
 20
20.2721225859
 30
0.0
 10
3078.8742917925
 20
19.9324286601
 30
0.0
 10
3079.0883670093
 20
19.6665357258
 30
0.0
 10
3079.4404919532
 20
19.6665357258
 30
0.0
 10
3079.6645119844
 20
19.6665357258
 30
0.0
 10
3079.8666795943
 20
19.7822096204
 30
0.0
 10
3079.9751565838
 20
19.9816293211
 30
0.0
 10
3079.9751565838
 20
19.9816293211
 30
0.0
 10
3079.7875136371
 20
20.0884052238
 30
0.0
 10
3079.7875136371
 20
20.0884052238
 30
0.0
 10
3079.7040295366
 20
19.9497012326
 30
0.0
 10
3079.6128251197
 20
19.8638617814
 30
0.0
 10
3079.4432398625
 20
19.8638617814
 30
0.0
 10
3079.2312582909
 20
19.8638617814
 30
0.0
 10
3079.0983118237
 20
20.048625966
 30
0.0
 10
3079.095956473
 20
20.2454286102
 30
0.0
 10
3079.095956473
 20
20.2454286102
 30
0.0
 10
3079.9751565838
 20
20.2454286102
 30
0.0
 10
3079.9751565838
 20
20.2454286102
 30
0.0
  0
SPLINE
  5
241
330
225
100
AcDbEntity
  8
0
  6
Continuous
 62
     7
100
AcDbSpline
 70
     3
 71
     3
 72
    14
 73
    10
 74
     0
 42
0.000000001
 43
0.0000001
 40
0.0
 40
0.0
 40
0.0
 40
0.0
 40
1.0
 40
1.0
 40
1.0
 40
2.0
 40
2.0
 40
2.0
 40
3.0
 40
3.0
 40
3.0
 40
3.0
 10
3079.1079949326
 20
20.4129202223
 30
0.0
 10
3079.135604878
 20
20.577794778
 30
0.0
 10
3079.2634480851
 20
20.7007964307
 30
0.0
 10
3079.4356503988
 20
20.7007964307
 30
0.0
 10
3079.6128251197
 20
20.7007964307
 30
0.0
 10
3079.7262745164
 20
20.585122536
 30
0.0
 10
3079.7534919033
 20
20.4129202223
 30
0.0
 10
3079.7534919033
 20
20.4129202223
 30
0.0
 10
3079.1079949326
 20
20.4129202223
 30
0.0
 10
3079.1079949326
 20
20.4129202223
 30
0.0
  0
SPLINE
  5
242
330
225
100
AcDbEntity
  8
0
  6
Continuous
 62
     7
100
AcDbSpline
 70
     3
 71
     3
 72
    20
 73
    16
 74
     0
 42
0.000000001
 43
0.0000001
 40
0.0
 40
0.0
 40
0.0
 40
0.0
 40
1.0
 40
1.0
 40
1.0
 40
2.0
 40
2.0
 40
2.0
 40
3.0
 40
3.0
 40
3.0
 40
4.0
 40
4.0
 40
4.0
 40
5.0
 40
5.0
 40
5.0
 40
5.0
 10
3081.9991880339
 20
20.6222847375
 30
0.0
 10
3081.9991880339
 20
20.6222847375
 30
0.0
 10
3082.4103276006
 20
20.1198099011
 30
0.0
 10
3082.4103276006
 20
20.1198099011
 30
0.0
 10
3082.2942611475
 20
20.0041360065
 30
0.0
 10
3082.156473126
 20
19.8738065958
 30
0.0
 10
3081.9845325179
 20
19.8738065958
 30
0.0
 10
3081.8070960913
 20
19.8738065958
 30
0.0
 10
3081.6396044792
 20
20.0381577402
 30
0.0
 10
3081.6396044792
 20
20.2150707555
 30
0.0
 10
3081.6396044792
 20
20.3930305934
 30
0.0
 10
3081.8493615528
 20
20.5191727138
 30
0.0
 10
3081.9769430542
 20
20.6071058101
 30
0.0
 10
3081.9769430542
 20
20.6071058101
 30
0.0
 10
3081.9991880339
 20
20.6222847375
 30
0.0
 10
3081.9991880339
 20
20.6222847375
 30
0.0
  0
SPLINE
  5
243
330
225
100
AcDbEntity
  8
0
  6
Continuous
 62
     7
100
AcDbSpline
 70
     3
 71
     3
 72
    23
 73
    19
 74
     0
 42
0.000000001
 43
0.0000001
 40
0.0
 40
0.0
 40
0.0
 40
0.0
 40
1.0
 40
1.0
 40
1.0
 40
2.0
 40
2.0
 40
2.0
 40
3.0
 40
3.0
 40
3.0
 40
4.0
 40
4.0
 40
4.0
 40
5.0
 40
5.0
 40
5.0
 40
6.0
 40
6.0
 40
6.0
 40
6.0
 10
3082.0485195478
 20
20.9133014135
 30
0.0
 10
3082.0485195478
 20
20.9133014135
 30
0.0
 10
3081.9868878687
 20
20.9918131067
 30
0.0
 10
3081.9868878687
 20
20.9918131067
 30
0.0
 10
3081.932976506
 20
21.0603799854
 30
0.0
 10
3081.8761863813
 20
21.1294702754
 30
0.0
 10
3081.8761863813
 20
21.223160896
 30
0.0
 10
3081.8761863813
 20
21.3419752583
 30
0.0
 10
3081.9721014998
 20
21.4194401289
 30
0.0
 10
3082.0830646928
 20
21.4194401289
 30
0.0
 10
3082.2063280511
 20
21.4194401289
 30
0.0
 10
3082.2996261132
 20
21.3482561938
 30
0.0
 10
3082.2996261132
 20
21.2179267831
 30
0.0
 10
3082.2996261132
 20
21.0828866708
 30
0.0
 10
3082.1715212005
 20
21.0064686228
 30
0.0
 10
3082.0779614328
 20
20.9326676312
 30
0.0
 10
3082.0779614328
 20
20.9326676312
 30
0.0
 10
3082.0485195478
 20
20.9133014135
 30
0.0
 10
3082.0485195478
 20
20.9133014135
 30
0.0
  0
SPLINE
  5
244
330
225
100
AcDbEntity
  8
0
  6
Continuous
 62
     7
100
AcDbSpline
 70
     3
 71
     3
 72
    50
 73
    46
 74
     0
 42
0.000000001
 43
0.0000001
 40
0.0
 40
0.0
 40
0.0
 40
0.0
 40
1.0
 40
1.0
 40
1.0
 40
2.0
 40
2.0
 40
2.0
 40
3.0
 40
3.0
 40
3.0
 40
4.0
 40
4.0
 40
4.0
 40
5.0
 40
5.0
 40
5.0
 40
6.0
 40
6.0
 40
6.0
 40
7.0
 40
7.0
 40
7.0
 40
8.0
 40
8.0
 40
8.0
 40
9.0
 40
9.0
 40
9.0
 40
10.0
 40
10.0
 40
10.0
 40
11.0
 40
11.0
 40
11.0
 40
12.0
 40
12.0
 40
12.0
 40
13.0
 40
13.0
 40
13.0
 40
14.0
 40
14.0
 40
14.0
 40
15.0
 40
15.0
 40
15.0
 40
15.0
 10
3082.7506757905
 20
19.7063149837
 30
0.0
 10
3082.7506757905
 20
19.7063149837
 30
0.0
 10
3083.0360657952
 20
19.7063149837
 30
0.0
 10
3083.0360657952
 20
19.7063149837
 30
0.0
 10
3083.0360657952
 20
19.7063149837
 30
0.0
 10
3082.7036996274
 20
20.1171928447
 30
0.0
 10
3082.7036996274
 20
20.1171928447
 30
0.0
 10
3082.7036996274
 20
20.1171928447
 30
0.0
 10
3082.9302058622
 20
20.3830857789
 30
0.0
 10
3082.9302058622
 20
20.3830857789
 30
0.0
 10
3082.9302058622
 20
20.3830857789
 30
0.0
 10
3082.781949615
 20
20.535921875
 30
0.0
 10
3082.781949615
 20
20.535921875
 30
0.0
 10
3082.781949615
 20
20.535921875
 30
0.0
 10
3082.5660424587
 20
20.2846844568
 30
0.0
 10
3082.5660424587
 20
20.2846844568
 30
0.0
 10
3082.5660424587
 20
20.2846844568
 30
0.0
 10
3082.1789798113
 20
20.7526141482
 30
0.0
 10
3082.1789798113
 20
20.7526141482
 30
0.0
 10
3082.3344329638
 20
20.8667178089
 30
0.0
 10
3082.5167109448
 20
21.0064686228
 30
0.0
 10
3082.5167109448
 20
21.2158331379
 30
0.0
 10
3082.5167109448
 20
21.4597427981
 30
0.0
 10
3082.3146741877
 20
21.6031574909
 30
0.0
 10
3082.0881679529
 20
21.6031574909
 30
0.0
 10
3081.8439965871
 20
21.6031574909
 30
0.0
 10
3081.6596249609
 20
21.45241504
 30
0.0
 10
3081.6596249609
 20
21.195943509
 30
0.0
 10
3081.6596249609
 20
21.0383967113
 30
0.0
 10
3081.7582879887
 20
20.9007395426
 30
0.0
 10
3081.8636245104
 20
20.7897763496
 30
0.0
 10
3081.8636245104
 20
20.7897763496
 30
0.0
 10
3081.7480814686
 20
20.7060305435
 30
0.0
 10
3081.7480814686
 20
20.7060305435
 30
0.0
 10
3081.5703833364
 20
20.577794778
 30
0.0
 10
3081.4230430588
 20
20.4500824238
 30
0.0
 10
3081.4230430588
 20
20.2129771104
 30
0.0
 10
3081.4230430588
 20
19.8926494022
 30
0.0
 10
3081.681608235
 20
19.6665357258
 30
0.0
 10
3081.9919911287
 20
19.6665357258
 30
0.0
 10
3082.2109078999
 20
19.6665357258
 30
0.0
 10
3082.4081031026
 20
19.7916310236
 30
0.0
 10
3082.5483773277
 20
19.9575524019
 30
0.0
 10
3082.5483773277
 20
19.9575524019
 30
0.0
 10
3082.7506757905
 20
19.7063149837
 30
0.0
 10
3082.7506757905
 20
19.7063149837
 30
0.0
  0
LWPOLYLINE
  5
245
330
225
100
AcDbEntity
  8
0
  6
Continuous
 62
     7
100
AcDbPolyline
 90
        2
 70
     0
 43
0.2
 10
3084.6861198802
 20
21.5628548218
 10
3084.454772091
 20
21.5628548218
  0
LWPOLYLINE
  5
246
330
225
100
AcDbEntity
  8
0
  6
Continuous
 62
     7
100
AcDbPolyline
 90
        2
 70
     0
 43
0.2
 10
3084.454772091
 20
21.5628548218
 10
3084.454772091
 20
19.7057915724
  0
LWPOLYLINE
  5
247
330
225
100
AcDbEntity
  8
0
  6
Continuous
 62
     7
100
AcDbPolyline
 90
        2
 70
     0
 43
0.2
 10
3084.454772091
 20
19.7057915724
 10
3085.2500955429
 20
19.7057915724
  0
LWPOLYLINE
  5
248
330
225
100
AcDbEntity
  8
0
  6
Continuous
 62
     7
100
AcDbPolyline
 90
        2
 70
     0
 43
0.2
 10
3085.2500955429
 20
19.7057915724
 10
3085.2500955429
 20
19.917773144
  0
LWPOLYLINE
  5
249
330
225
100
AcDbEntity
  8
0
  6
Continuous
 62
     7
100
AcDbPolyline
 90
        2
 70
     0
 43
0.2
 10
3085.2500955429
 20
19.917773144
 10
3084.6861198802
 20
19.917773144
  0
LWPOLYLINE
  5
24A
330
225
100
AcDbEntity
  8
0
  6
Continuous
 62
     7
100
AcDbPolyline
 90
        2
 70
     0
 43
0.2
 10
3084.6861198802
 20
19.917773144
 10
3084.6861198802
 20
21.5628548218
  0
LWPOLYLINE
  5
24B
330
225
100
AcDbEntity
  8
0
  6
Continuous
 62
     7
100
AcDbPolyline
 90
        2
 70
     0
 43
0.2
 10
3086.9291989544
 20
20.8583432283
 10
3086.7080576853
 20
20.8583432283
  0
LWPOLYLINE
  5
24C
330
225
100
AcDbEntity
  8
0
  6
Continuous
 62
     7
100
AcDbPolyline
 90
        2
 70
     0
 43
0.2
 10
3086.7080576853
 20
20.8583432283
 10
3086.7080576853
 20
19.7063149837
  0
LWPOLYLINE
  5
24D
330
225
100
AcDbEntity
  8
0
  6
Continuous
 62
     7
100
AcDbPolyline
 90
        2
 70
     0
 43
0.2
 10
3086.7080576853
 20
19.7063149837
 10
3086.9291989544
 20
19.7063149837
  0
LWPOLYLINE
  5
24E
330
225
100
AcDbEntity
  8
0
  6
Continuous
 62
     7
100
AcDbPolyline
 90
        2
 70
     0
 43
0.2
 10
3086.9291989544
 20
19.7063149837
 10
3086.9291989544
 20
20.8583432283
  0
LWPOLYLINE
  5
24F
330
225
100
AcDbEntity
  8
0
  6
Continuous
 62
     7
100
AcDbPolyline
 90
        2
 70
     1
 43
0.2
 10
3086.6661756772
 20
21.3882971573
 42
1.0
 10
3086.9713426681
 20
21.3882971573
 42
1.0
  0
SPLINE
  5
250
330
225
100
AcDbEntity
  8
0
  6
Continuous
 62
     7
100
AcDbSpline
 70
     3
 71
     3
 72
    17
 73
    13
 74
     0
 42
0.000000001
 43
0.0000001
 40
0.0
 40
0.0
 40
0.0
 40
0.0
 40
1.0
 40
1.0
 40
1.0
 40
2.0
 40
2.0
 40
2.0
 40
3.0
 40
3.0
 40
3.0
 40
4.0
 40
4.0
 40
4.0
 40
4.0
 10
3089.059482896
 20
19.8638617814
 30
0.0
 10
3088.8255180503
 20
19.8638617814
 30
0.0
 10
3088.6951886397
 20
20.0658985385
 30
0.0
 10
3088.6951886397
 20
20.2820674004
 30
0.0
 10
3088.6951886397
 20
20.4966660284
 30
0.0
 10
3088.8310138689
 20
20.6955623178
 30
0.0
 10
3089.059482896
 20
20.6955623178
 30
0.0
 10
3089.2989435602
 20
20.6955623178
 30
0.0
 10
3089.4345070838
 20
20.5066108429
 30
0.0
 10
3089.4345070838
 20
20.2820674004
 30
0.0
 10
3089.4345070838
 20
20.055953724
 30
0.0
 10
3089.301298911
 20
19.8638617814
 30
0.0
 10
3089.059482896
 20
19.8638617814
 30
0.0
  0
SPLINE
  5
251
330
225
100
AcDbEntity
  8
0
  6
Continuous
 62
     7
100
AcDbSpline
 70
     3
 71
     3
 72
    50
 73
    46
 74
     0
 42
0.000000001
 43
0.0000001
 40
0.0
 40
0.0
 40
0.0
 40
0.0
 40
1.0
 40
1.0
 40
1.0
 40
2.0
 40
2.0
 40
2.0
 40
3.0
 40
3.0
 40
3.0
 40
4.0
 40
4.0
 40
4.0
 40
5.0
 40
5.0
 40
5.0
 40
6.0
 40
6.0
 40
6.0
 40
7.0
 40
7.0
 40
7.0
 40
8.0
 40
8.0
 40
8.0
 40
9.0
 40
9.0
 40
9.0
 40
10.0
 40
10.0
 40
10.0
 40
11.0
 40
11.0
 40
11.0
 40
12.0
 40
12.0
 40
12.0
 40
13.0
 40
13.0
 40
13.0
 40
14.0
 40
14.0
 40
14.0
 40
15.0
 40
15.0
 40
15.0
 40
15.0
 10
3089.6436098933
 20
20.8588666396
 30
0.0
 10
3089.6436098933
 20
20.8588666396
 30
0.0
 10
3089.4219452129
 20
20.8588666396
 30
0.0
 10
3089.4219452129
 20
20.8588666396
 30
0.0
 10
3089.4219452129
 20
20.8588666396
 30
0.0
 10
3089.4219452129
 20
20.6615405841
 30
0.0
 10
3089.4219452129
 20
20.6615405841
 30
0.0
 10
3089.4219452129
 20
20.6615405841
 30
0.0
 10
3089.4172345113
 20
20.6615405841
 30
0.0
 10
3089.4172345113
 20
20.6615405841
 30
0.0
 10
3089.3258992416
 20
20.8044318657
 30
0.0
 10
3089.1879803672
 20
20.8928883733
 30
0.0
 10
3089.0152546422
 20
20.8928883733
 30
0.0
 10
3088.6828884744
 20
20.8928883733
 30
0.0
 10
3088.4737856649
 20
20.605012165
 30
0.0
 10
3088.4737856649
 20
20.2893951584
 30
0.0
 10
3088.4737856649
 20
19.959646047
 30
0.0
 10
3088.6708500148
 20
19.6665357258
 30
0.0
 10
3089.025722868
 20
19.6665357258
 30
0.0
 10
3089.1879803672
 20
19.6665357258
 30
0.0
 10
3089.3279928867
 20
19.7549922335
 30
0.0
 10
3089.4172345113
 20
19.8858450554
 30
0.0
 10
3089.4172345113
 20
19.8858450554
 30
0.0
 10
3089.4219452129
 20
19.8858450554
 30
0.0
 10
3089.4219452129
 20
19.8858450554
 30
0.0
 10
3089.4219452129
 20
19.8858450554
 30
0.0
 10
3089.4219452129
 20
19.6665357258
 30
0.0
 10
3089.4219452129
 20
19.6665357258
 30
0.0
 10
3089.4219452129
 20
19.4299538237
 30
0.0
 10
3089.3654167938
 20
19.2430959939
 30
0.0
 10
3089.0921961015
 20
19.2430959939
 30
0.0
 10
3088.8898976388
 20
19.2430959939
 30
0.0
 10
3088.7472680628
 20
19.361386945
 30
0.0
 10
3088.7472680628
 20
19.5676109924
 30
0.0
 10
3088.7472680628
 20
19.5676109924
 30
0.0
 10
3088.5256033824
 20
19.5676109924
 30
0.0
 10
3088.5256033824
 20
19.5676109924
 30
0.0
 10
3088.5305757896
 20
19.2430959939
 30
0.0
 10
3088.7616618732
 20
19.0462933497
 30
0.0
 10
3089.0819895814
 20
19.0462933497
 30
0.0
 10
3089.5300296438
 20
19.0462933497
 30
0.0
 10
3089.6436098933
 20
19.3315525016
 30
0.0
 10
3089.6436098933
 20
19.7282982578
 30
0.0
 10
3089.6436098933
 20
19.7282982578
 30
0.0
 10
3089.6436098933
 20
20.8588666396
 30
0.0
 10
3089.6436098933
 20
20.8588666396
 30
0.0
  0
SPLINE
  5
252
330
225
100
AcDbEntity
  8
0
  6
Continuous
 62
     7
100
AcDbSpline
 70
     3
 71
     3
 72
    44
 73
    40
 74
     0
 42
0.000000001
 43
0.0000001
 40
0.0
 40
0.0
 40
0.0
 40
0.0
 40
1.0
 40
1.0
 40
1.0
 40
2.0
 40
2.0
 40
2.0
 40
3.0
 40
3.0
 40
3.0
 40
4.0
 40
4.0
 40
4.0
 40
5.0
 40
5.0
 40
5.0
 40
6.0
 40
6.0
 40
6.0
 40
7.0
 40
7.0
 40
7.0
 40
8.0
 40
8.0
 40
8.0
 40
9.0
 40
9.0
 40
9.0
 40
10.0
 40
10.0
 40
10.0
 40
11.0
 40
11.0
 40
11.0
 40
12.0
 40
12.0
 40
12.0
 40
13.0
 40
13.0
 40
13.0
 40
13.0
 10
3091.2125352287
 20
21.8439266834
 30
0.0
 10
3091.2125352287
 20
21.8439266834
 30
0.0
 10
3091.2125352287
 20
19.7057915724
 30
0.0
 10
3091.2125352287
 20
19.7057915724
 30
0.0
 10
3091.2125352287
 20
19.7057915724
 30
0.0
 10
3091.4339382034
 20
19.7057915724
 30
0.0
 10
3091.4339382034
 20
19.7057915724
 30
0.0
 10
3091.4339382034
 20
19.7057915724
 30
0.0
 10
3091.4339382034
 20
20.2354837957
 30
0.0
 10
3091.4339382034
 20
20.2354837957
 30
0.0
 10
3091.4339382034
 20
20.4453717222
 30
0.0
 10
3091.4339382034
 20
20.6960857291
 30
0.0
 10
3091.7191973553
 20
20.6960857291
 30
0.0
 10
3091.9460961486
 20
20.6960857291
 30
0.0
 10
3091.97305183
 20
20.5631392619
 30
0.0
 10
3091.97305183
 20
20.366860029
 30
0.0
 10
3091.97305183
 20
20.366860029
 30
0.0
 10
3091.97305183
 20
19.7057915724
 30
0.0
 10
3091.97305183
 20
19.7057915724
 30
0.0
 10
3091.97305183
 20
19.7057915724
 30
0.0
 10
3092.194978216
 20
19.7057915724
 30
0.0
 10
3092.194978216
 20
19.7057915724
 30
0.0
 10
3092.194978216
 20
19.7057915724
 30
0.0
 10
3092.194978216
 20
20.3930305934
 30
0.0
 10
3092.194978216
 20
20.3930305934
 30
0.0
 10
3092.194978216
 20
20.6735790437
 30
0.0
 10
3092.1109707043
 20
20.8934117846
 30
0.0
 10
3091.7859322945
 20
20.8934117846
 30
0.0
 10
3091.6461814807
 20
20.8934117846
 30
0.0
 10
3091.5080009007
 20
20.826938551
 30
0.0
 10
3091.438648905
 20
20.7039368984
 30
0.0
 10
3091.438648905
 20
20.7039368984
 30
0.0
 10
3091.4339382034
 20
20.7039368984
 30
0.0
 10
3091.4339382034
 20
20.7039368984
 30
0.0
 10
3091.4339382034
 20
20.7039368984
 30
0.0
 10
3091.4339382034
 20
21.8439266834
 30
0.0
 10
3091.4339382034
 20
21.8439266834
 30
0.0
 10
3091.4339382034
 20
21.8439266834
 30
0.0
 10
3091.2125352287
 20
21.8439266834
 30
0.0
 10
3091.2125352287
 20
21.8439266834
 30
0.0
  0
LWPOLYLINE
  5
253
330
225
100
AcDbEntity
  8
0
  6
Continuous
 62
     7
100
AcDbPolyline
 90
        2
 70
     0
 43
0.2
 10
3094.0347688929
 20
20.6515957696
 10
3094.2511994604
 20
20.6515957696
  0
LWPOLYLINE
  5
254
330
225
100
AcDbEntity
  8
0
  6
Continuous
 62
     7
100
AcDbPolyline
 90
        2
 70
     0
 43
0.2
 10
3094.2511994604
 20
20.6515957696
 10
3094.2511994604
 20
20.8583432283
  0
LWPOLYLINE
  5
255
330
225
100
AcDbEntity
  8
0
  6
Continuous
 62
     7
100
AcDbPolyline
 90
        2
 70
     0
 43
0.2
 10
3094.2511994604
 20
20.8583432283
 10
3094.0347688929
 20
20.8583432283
  0
LWPOLYLINE
  5
256
330
225
100
AcDbEntity
  8
0
  6
Continuous
 62
     7
100
AcDbPolyline
 90
        2
 70
     0
 43
0.2
 10
3094.0347688929
 20
20.8583432283
 10
3094.0347688929
 20
21.2990555327
  0
LWPOLYLINE
  5
257
330
225
100
AcDbEntity
  8
0
  6
Continuous
 62
     7
100
AcDbPolyline
 90
        2
 70
     0
 43
0.2
 10
3094.0347688929
 20
21.2990555327
 10
3093.8131042125
 20
21.2990555327
  0
LWPOLYLINE
  5
258
330
225
100
AcDbEntity
  8
0
  6
Continuous
 62
     7
100
AcDbPolyline
 90
        2
 70
     0
 43
0.2
 10
3093.8131042125
 20
21.2990555327
 10
3093.8131042125
 20
20.8583432283
  0
LWPOLYLINE
  5
259
330
225
100
AcDbEntity
  8
0
  6
Continuous
 62
     7
100
AcDbPolyline
 90
        2
 70
     0
 43
0.2
 10
3093.8131042125
 20
20.8583432283
 10
3093.6924579106
 20
20.8583432283
  0
LWPOLYLINE
  5
25A
330
225
100
AcDbEntity
  8
0
  6
Continuous
 62
     7
100
AcDbPolyline
 90
        2
 70
     0
 43
0.2
 10
3093.6924579106
 20
20.8583432283
 10
3093.6924579106
 20
20.6515957696
  0
LWPOLYLINE
  5
25B
330
225
100
AcDbEntity
  8
0
  6
Continuous
 62
     7
100
AcDbPolyline
 90
        2
 70
     0
 43
0.2
 10
3093.6924579106
 20
20.6515957696
 10
3093.8131042125
 20
20.6515957696
  0
LWPOLYLINE
  5
25C
330
225
100
AcDbEntity
  8
0
  6
Continuous
 62
     7
100
AcDbPolyline
 90
        2
 70
     0
 43
0.2
 10
3093.8131042125
 20
20.6515957696
 10
3093.8131042125
 20
19.7057915724
  0
LWPOLYLINE
  5
25D
330
225
100
AcDbEntity
  8
0
  6
Continuous
 62
     7
100
AcDbPolyline
 90
        2
 70
     0
 43
0.2
 10
3093.8131042125
 20
19.7057915724
 10
3094.0347688929
 20
19.7057915724
  0
LWPOLYLINE
  5
25E
330
225
100
AcDbEntity
  8
0
  6
Continuous
 62
     7
100
AcDbPolyline
 90
        2
 70
     0
 43
0.2
 10
3094.0347688929
 20
19.7057915724
 10
3094.0347688929
 20
20.6515957696
  0
SPLINE
  5
25F
330
225
100
AcDbEntity
  8
0
  6
Continuous
 62
     7
100
AcDbSpline
 70
     3
 71
     3
 72
    20
 73
    16
 74
     0
 42
0.000000001
 43
0.0000001
 40
0.0
 40
0.0
 40
0.0
 40
0.0
 40
1.0
 40
1.0
 40
1.0
 40
2.0
 40
2.0
 40
2.0
 40
3.0
 40
3.0
 40
3.0
 40
4.0
 40
4.0
 40
4.0
 40
5.0
 40
5.0
 40
5.0
 40
5.0
 10
3081.8167792001
 20
30.0667180158
 30
0.0
 10
3081.8167792001
 20
30.0667180158
 30
0.0
 10
3084.1331358546
 20
27.2371565936
 30
0.0
 10
3084.1331358546
 20
27.2371565936
 30
0.0
 10
3083.4814888012
 20
26.5849861289
 30
0.0
 10
3082.7046155972
 20
25.8490698581
 30
0.0
 10
3081.7334259525
 20
25.8490698581
 30
0.0
 10
3080.7348880681
 20
25.8490698581
 30
0.0
 10
3079.7915700745
 20
26.7786483054
 30
0.0
 10
3079.7915700745
 20
27.7778404539
 30
0.0
 10
3079.7915700745
 20
28.7770326025
 30
0.0
 10
3080.9704231476
 20
29.4836378411
 30
0.0
 10
3081.691945608
 20
29.983495621
 30
0.0
 10
3081.691945608
 20
29.983495621
 30
0.0
 10
3081.8167792001
 20
30.0667180158
 30
0.0
 10
3081.8167792001
 20
30.0667180158
 30
0.0
  0
SPLINE
  5
260
330
225
100
AcDbEntity
  8
0
  6
Continuous
 62
     7
100
AcDbSpline
 70
     3
 71
     3
 72
    23
 73
    19
 74
     0
 42
0.000000001
 43
0.0000001
 40
0.0
 40
0.0
 40
0.0
 40
0.0
 40
1.0
 40
1.0
 40
1.0
 40
2.0
 40
2.0
 40
2.0
 40
3.0
 40
3.0
 40
3.0
 40
4.0
 40
4.0
 40
4.0
 40
5.0
 40
5.0
 40
5.0
 40
6.0
 40
6.0
 40
6.0
 40
6.0
 10
3082.0941871827
 20
31.7044719355
 30
0.0
 10
3082.0941871827
 20
31.7044719355
 30
0.0
 10
3081.7476889101
 20
32.1478012964
 30
0.0
 10
3081.7476889101
 20
32.1478012964
 30
0.0
 10
3081.4418858652
 20
32.5359107663
 30
0.0
 10
3081.1229975381
 20
32.9244127948
 30
0.0
 10
3081.1229975381
 20
33.4513571088
 30
0.0
 10
3081.1229975381
 20
34.1175288255
 30
0.0
 10
3081.6643356625
 20
34.5612507447
 30
0.0
 10
3082.2882419177
 20
34.5612507447
 30
0.0
 10
3082.9820235797
 20
34.5612507447
 30
0.0
 10
3083.5092295995
 20
34.15900917
 30
0.0
 10
3083.5092295995
 20
33.424008869
 30
0.0
 10
3083.5092295995
 20
32.6607443585
 30
0.0
 10
3082.7879688448
 20
32.2306311327
 30
0.0
 10
3082.2608936779
 20
31.8149117173
 30
0.0
 10
3082.2608936779
 20
31.8149117173
 30
0.0
 10
3082.0941871827
 20
31.7044719355
 30
0.0
 10
3082.0941871827
 20
31.7044719355
 30
0.0
  0
SPLINE
  5
261
330
225
100
AcDbEntity
  8
0
  6
Continuous
 62
     7
100
AcDbSpline
 70
     3
 71
     3
 72
    50
 73
    46
 74
     0
 42
0.000000001
 43
0.0000001
 40
0.0
 40
0.0
 40
0.0
 40
0.0
 40
1.0
 40
1.0
 40
1.0
 40
2.0
 40
2.0
 40
2.0
 40
3.0
 40
3.0
 40
3.0
 40
4.0
 40
4.0
 40
4.0
 40
5.0
 40
5.0
 40
5.0
 40
6.0
 40
6.0
 40
6.0
 40
7.0
 40
7.0
 40
7.0
 40
8.0
 40
8.0
 40
8.0
 40
9.0
 40
9.0
 40
9.0
 40
10.0
 40
10.0
 40
10.0
 40
11.0
 40
11.0
 40
11.0
 40
12.0
 40
12.0
 40
12.0
 40
13.0
 40
13.0
 40
13.0
 40
14.0
 40
14.0
 40
14.0
 40
15.0
 40
15.0
 40
15.0
 40
15.0
 10
3086.0477743456
 20
24.9058827174
 30
0.0
 10
3086.0477743456
 20
24.9058827174
 30
0.0
 10
3087.6570023502
 20
24.9058827174
 30
0.0
 10
3087.6570023502
 20
24.9058827174
 30
0.0
 10
3087.6570023502
 20
24.9058827174
 30
0.0
 10
3085.7839750565
 20
27.2230244888
 30
0.0
 10
3085.7839750565
 20
27.2230244888
 30
0.0
 10
3085.7839750565
 20
27.2230244888
 30
0.0
 10
3087.060313482
 20
28.7205041834
 30
0.0
 10
3087.060313482
 20
28.7205041834
 30
0.0
 10
3087.060313482
 20
28.7205041834
 30
0.0
 10
3086.2280895343
 20
29.5815157519
 30
0.0
 10
3086.2280895343
 20
29.5815157519
 30
0.0
 10
3086.2280895343
 20
29.5815157519
 30
0.0
 10
3085.007494411
 20
28.1662116295
 30
0.0
 10
3085.007494411
 20
28.1662116295
 30
0.0
 10
3085.007494411
 20
28.1662116295
 30
0.0
 10
3082.8295800422
 20
30.801587464
 30
0.0
 10
3082.8295800422
 20
30.801587464
 30
0.0
 10
3083.7031534816
 20
31.4396258239
 30
0.0
 10
3084.7298247228
 20
32.2306311327
 30
0.0
 10
3084.7298247228
 20
33.4094842058
 30
0.0
 10
3084.7298247228
 20
34.7831771308
 30
0.0
 10
3083.5919285829
 20
35.5876602803
 30
0.0
 10
3082.31663698
 20
35.5876602803
 30
0.0
 10
3080.9432057607
 20
35.5876602803
 30
0.0
 10
3079.9022715619
 20
34.7414350806
 30
0.0
 10
3079.9022715619
 20
33.2987827184
 30
0.0
 10
3079.9022715619
 20
32.411208027
 30
0.0
 10
3080.4576109383
 20
31.634334823
 30
0.0
 10
3081.0537763952
 20
31.0099051565
 30
0.0
 10
3081.0537763952
 20
31.0099051565
 30
0.0
 10
3080.4018676362
 20
30.5383115862
 30
0.0
 10
3080.4018676362
 20
30.5383115862
 30
0.0
 10
3079.4033297518
 20
29.8170508315
 30
0.0
 10
3078.5704515399
 20
29.0957900768
 30
0.0
 10
3078.5704515399
 20
27.7642317605
 30
0.0
 10
3078.5704515399
 20
25.9605564625
 30
0.0
 10
3080.0274977125
 20
24.6839563313
 30
0.0
 10
3081.7750371499
 20
24.6839563313
 30
0.0
 10
3083.0098952308
 20
24.6839563313
 30
0.0
 10
3084.1192654555
 20
25.3921318038
 30
0.0
 10
3084.9101399114
 20
26.3206634285
 30
0.0
 10
3084.9101399114
 20
26.3206634285
 30
0.0
 10
3086.0477743456
 20
24.9058827174
 30
0.0
 10
3086.0477743456
 20
24.9058827174
 30
0.0
  0
LINE
  5
262
330
225
100
AcDbEntity
  8
0
  6
Continuous
 62
     7
100
AcDbLine
 10
3071.8506357206
 20
22.8797576221
 30
0.0
 11
3094.2645464483
 21
22.8797576221
 31
0.0
  0
LINE
  5
263
330
225
100
AcDbEntity
  8
0
  6
Continuous
 62
     7
100
AcDbLine
 10
3094.2645464483
 20
22.8797576221
 30
0.0
 11
3094.2645464483
 21
45.2936683497
 31
0.0
  0
LINE
  5
264
330
225
100
AcDbEntity
  8
0
  6
Continuous
 62
     7
100
AcDbLine
 10
3094.2645464483
 20
45.2936683497
 30
0.0
 11
3071.8506357206
 21
45.2936683497
 31
0.0
  0
LINE
  5
265
330
225
100
AcDbEntity
  8
0
  6
Continuous
 62
     7
100
AcDbLine
 10
3071.8506357206
 20
45.2936683497
 30
0.0
 11
3071.8506357206
 21
22.8797576221
 31
0.0
  0
ENDBLK
  5
266
330
225
100
AcDbEntity
  8
0
  6
ByBlock
 62
     0
100
AcDbBlockEnd
  0
BLOCK
  5
267
330
226
100
AcDbEntity
  8
0
100
AcDbBlockBegin
  2
PROIEZIONE_EU_BL0
 70
     0
 10
3084.2314786132
 20
57.7949808497
 30
0.0
  3
PROIEZIONE_EU_BL0
  1

  0
LWPOLYLINE
  5
268
330
226
100
AcDbEntity
  8
DEFAULT_1
  6
CENTER
 62
     7
100
AcDbPolyline
 90
        2
 70
     0
 43
0.25
 10
3090.3580992749
 20
62.7946749816
 10
3090.3581402573
 20
52.7952867178
  0
LWPOLYLINE
  5
269
330
226
100
AcDbEntity
  8
DEFAULT_1
  6
CENTER
 62
     7
100
AcDbPolyline
 90
        2
 70
     0
 43
0.25
 10
3096.3581291
 20
57.7952519848
 10
3072.1048281265
 20
57.7949813244
  0
LWPOLYLINE
  5
26A
330
226
100
AcDbEntity
  8
0
  6
Continuous
 62
     7
100
AcDbPolyline
 90
        2
 70
     1
 43
0.25
 10
3086.8109890991
 20
57.7764330955
 42
1.0
 10
3093.9173181977
 20
57.7764330955
 42
1.0
  0
LWPOLYLINE
  5
26B
330
226
100
AcDbEntity
  8
0
  6
Continuous
 62
     7
100
AcDbPolyline
 90
        2
 70
     1
 43
0.25
 10
3088.3607329275
 20
57.7943311401
 42
1.0
 10
3092.3724846775
 20
57.7943311401
 42
1.0
  0
LWPOLYLINE
  5
26C
330
226
100
AcDbEntity
  8
0
  6
Continuous
 62
     7
100
AcDbPolyline
 90
        2
 70
     0
 43
0.25
 10
3084.358126894
 20
61.3701843449
 10
3084.3581265394
 20
54.2699814366
  0
LWPOLYLINE
  5
26D
330
226
100
AcDbEntity
  8
0
  6
Continuous
 62
     7
100
AcDbPolyline
 90
        2
 70
     0
 43
0.25
 10
3084.3581549758
 20
54.2699530002
 10
3074.3635977046
 20
55.7900464131
  0
LWPOLYLINE
  5
26E
330
226
100
AcDbEntity
  8
0
  6
Continuous
 62
     7
100
AcDbPolyline
 90
        2
 70
     0
 43
0.25
 10
3074.361287719
 20
55.7893688715
 10
3074.3586208149
 20
59.795007483
  0
LWPOLYLINE
  5
26F
330
226
100
AcDbEntity
  8
0
  6
Continuous
 62
     7
100
AcDbPolyline
 90
        2
 70
     0
 43
0.25
 10
3074.3586125388
 20
59.7949992069
 10
3084.3583557761
 20
61.370156427
  0
ENDBLK
  5
270
330
226
100
AcDbEntity
  8
0
  6
ByBlock
 62
     0
100
AcDbBlockEnd
  0
ENDSEC
  0
SECTION
  2
ENTITIES
  0
LINE
  5
292
330
1B
100
AcDbEntity
 67
     1
  8
0
  6
Continuous
 62
     7
100
AcDbLine
 10
0.0
 20
0.0
 30
0.0
 11
3200.0
 21
0.0
 31
0.0
  0
LINE
  5
293
330
1B
100
AcDbEntity
 67
     1
  8
0
  6
Continuous
 62
     7
100
AcDbLine
 10
3200.0
 20
0.0
 30
0.0
 11
3200.0
 21
2500.0
 31
0.0
  0
LINE
  5
294
330
1B
100
AcDbEntity
 67
     1
  8
0
  6
Continuous
 62
     7
100
AcDbLine
 10
0.0
 20
2500.0
 30
0.0
 11
3200.0
 21
2500.0
 31
0.0
  0
LINE
  5
295
330
1B
100
AcDbEntity
 67
     1
  8
0
  6
Continuous
 62
     7
100
AcDbLine
 10
0.0
 20
0.0
 30
0.0
 11
0.0
 21
2500.0
 31
0.0
  0
VIEWPORT
  5
296
330
1B
100
AcDbEntity
 67
     1
  8
0
100
AcDbViewport
 10
0.0
 20
0.0
 30
0.0
 40
4167.315175097277
 41
2946.887159533074
 68
     1
 69
     1
 12
1969.844357976654
 22
1250.0
 13
0.0
 23
0.0
 14
1.0
 24
1.0
 15
0.0
 25
0.0
 16
0.0
 26
0.0
 36
1.0
 17
0.0
 27
0.0
 37
0.0
 42
50.0
 43
0.0
 44
0.0
 45
2946.887159533074
 50
0.0
 51
0.0
 72
   100
 90
   557216
  1

281
     0
 71
     1
 74
     0
110
0.0
120
0.0
130
0.0
111
1.0
121
0.0
131
0.0
112
0.0
122
1.0
132
0.0
 79
     0
146
0.0
170
     0
 61
     5
348
4AA
292
     1
282
     1
141
0.0
142
0.0
 63
   256
  0
LINE
  5
297
330
1B
100
AcDbEntity
 67
     1
  8
7_ALL_FEATURES
  6
Continuous
 62
     7
100
AcDbLine
 10
979.1439717573
 20
202.035981166
 30
0.0
 11
980.6439717573
 21
202.035981166
 31
0.0
  0
LINE
  5
298
330
1B
100
AcDbEntity
 67
     1
  8
7_ALL_FEATURES
  6
Continuous
 62
     7
100
AcDbLine
 10
979.1439717573
 20
227.635981166
 30
0.0
 11
980.6439717573
 21
227.635981166
 31
0.0
  0
LINE
  5
299
330
1B
100
AcDbEntity
 67
     1
  8
7_ALL_FEATURES
  6
Continuous
 62
     7
100
AcDbLine
 10
979.1439717573
 20
227.4840586962
 30
0.0
 11
979.1439717573
 21
227.635981166
 31
0.0
  0
LINE
  5
29A
330
1B
100
AcDbEntity
 67
     1
  8
7_ALL_FEATURES
  6
Continuous
 62
     7
100
AcDbLine
 10
979.1439717573
 20
227.4840586962
 30
0.0
 11
979.1439717573
 21
226.7816892879
 31
0.0
  0
LINE
  5
29B
330
1B
100
AcDbEntity
 67
     1
  8
7_ALL_FEATURES
  6
Continuous
 62
     7
100
AcDbLine
 10
979.1439717573
 20
225.7968815349
 30
0.0
 11
979.1439717573
 21
226.7816892879
 31
0.0
  0
LINE
  5
29C
330
1B
100
AcDbEntity
 67
     1
  8
7_ALL_FEATURES
  6
Continuous
 62
     7
100
AcDbLine
 10
979.1439717573
 20
225.7968815349
 30
0.0
 11
979.1439717573
 21
203.8750807972
 31
0.0
  0
LINE
  5
29D
330
1B
100
AcDbEntity
 67
     1
  8
7_ALL_FEATURES
  6
Continuous
 62
     7
100
AcDbLine
 10
979.1439717573
 20
202.8902730442
 30
0.0
 11
979.1439717573
 21
203.8750807972
 31
0.0
  0
LINE
  5
29E
330
1B
100
AcDbEntity
 67
     1
  8
7_ALL_FEATURES
  6
Continuous
 62
     7
100
AcDbLine
 10
979.1439717573
 20
202.8902730442
 30
0.0
 11
979.1439717573
 21
202.1879036359
 31
0.0
  0
LINE
  5
29F
330
1B
100
AcDbEntity
 67
     1
  8
7_ALL_FEATURES
  6
Continuous
 62
     7
100
AcDbLine
 10
979.1439717573
 20
202.035981166
 30
0.0
 11
979.1439717573
 21
202.1879036359
 31
0.0
  0
LINE
  5
2A0
330
1B
100
AcDbEntity
 67
     1
  8
7_ALL_FEATURES
  6
Continuous
 62
     9
100
AcDbLine
 10
979.1439717573
 20
227.4840586962
 30
0.0
 11
980.6439717573
 21
227.4840586962
 31
0.0
  0
LINE
  5
2A1
330
1B
100
AcDbEntity
 67
     1
  8
7_ALL_FEATURES
  6
Continuous
 62
     9
100
AcDbLine
 10
979.1439717573
 20
226.7816892879
 30
0.0
 11
980.6439717573
 21
226.7816892879
 31
0.0
  0
LINE
  5
2A2
330
1B
100
AcDbEntity
 67
     1
  8
7_ALL_FEATURES
  6
Continuous
 62
     9
100
AcDbLine
 10
979.1439717573
 20
202.1879036359
 30
0.0
 11
980.6439717573
 21
202.1879036359
 31
0.0
  0
LINE
  5
2A3
330
1B
100
AcDbEntity
 67
     1
  8
7_ALL_FEATURES
  6
Continuous
 62
     9
100
AcDbLine
 10
979.1439717573
 20
202.8902730442
 30
0.0
 11
980.6439717573
 21
202.8902730442
 31
0.0
  0
LINE
  5
2A4
330
1B
100
AcDbEntity
 67
     1
  8
7_ALL_FEATURES
  6
Continuous
 62
     9
100
AcDbLine
 10
979.1439717573
 20
203.8750807972
 30
0.0
 11
980.6439717573
 21
203.8750807972
 31
0.0
  0
LINE
  5
2A5
330
1B
100
AcDbEntity
 67
     1
  8
7_ALL_FEATURES
  6
Continuous
 62
     9
100
AcDbLine
 10
979.1439717573
 20
225.7968815349
 30
0.0
 11
980.6439717573
 21
225.7968815349
 31
0.0
  0
LINE
  5
2A6
330
1B
100
AcDbEntity
 67
     1
  8
7_ALL_FEATURES
  6
Continuous
 62
     7
100
AcDbLine
 10
2993.6439717573
 20
227.635981166
 30
0.0
 11
2992.1439717573
 21
227.635981166
 31
0.0
  0
LINE
  5
2A7
330
1B
100
AcDbEntity
 67
     1
  8
7_ALL_FEATURES
  6
Continuous
 62
     7
100
AcDbLine
 10
2993.6439717573
 20
202.035981166
 30
0.0
 11
2992.1439717573
 21
202.035981166
 31
0.0
  0
LINE
  5
2A8
330
1B
100
AcDbEntity
 67
     1
  8
7_ALL_FEATURES
  6
Continuous
 62
     7
100
AcDbLine
 10
2993.6439717573
 20
202.1879036359
 30
0.0
 11
2993.6439717573
 21
202.035981166
 31
0.0
  0
LINE
  5
2A9
330
1B
100
AcDbEntity
 67
     1
  8
7_ALL_FEATURES
  6
Continuous
 62
     7
100
AcDbLine
 10
2993.6439717573
 20
202.1879036359
 30
0.0
 11
2993.6439717573
 21
202.8902730442
 31
0.0
  0
LINE
  5
2AA
330
1B
100
AcDbEntity
 67
     1
  8
7_ALL_FEATURES
  6
Continuous
 62
     7
100
AcDbLine
 10
2993.6439717573
 20
203.8750807972
 30
0.0
 11
2993.6439717573
 21
202.8902730442
 31
0.0
  0
LINE
  5
2AB
330
1B
100
AcDbEntity
 67
     1
  8
7_ALL_FEATURES
  6
Continuous
 62
     7
100
AcDbLine
 10
2993.6439717573
 20
203.8750807972
 30
0.0
 11
2993.6439717573
 21
225.7968815349
 31
0.0
  0
LINE
  5
2AC
330
1B
100
AcDbEntity
 67
     1
  8
7_ALL_FEATURES
  6
Continuous
 62
     7
100
AcDbLine
 10
2993.6439717573
 20
226.7816892879
 30
0.0
 11
2993.6439717573
 21
225.7968815349
 31
0.0
  0
LINE
  5
2AD
330
1B
100
AcDbEntity
 67
     1
  8
7_ALL_FEATURES
  6
Continuous
 62
     7
100
AcDbLine
 10
2993.6439717573
 20
226.7816892879
 30
0.0
 11
2993.6439717573
 21
227.4840586962
 31
0.0
  0
LINE
  5
2AE
330
1B
100
AcDbEntity
 67
     1
  8
7_ALL_FEATURES
  6
Continuous
 62
     7
100
AcDbLine
 10
2993.6439717573
 20
227.635981166
 30
0.0
 11
2993.6439717573
 21
227.4840586962
 31
0.0
  0
LINE
  5
2AF
330
1B
100
AcDbEntity
 67
     1
  8
7_ALL_FEATURES
  6
Continuous
 62
     9
100
AcDbLine
 10
2993.6439717573
 20
202.1879036359
 30
0.0
 11
2992.1439717573
 21
202.1879036359
 31
0.0
  0
LINE
  5
2B0
330
1B
100
AcDbEntity
 67
     1
  8
7_ALL_FEATURES
  6
Continuous
 62
     9
100
AcDbLine
 10
2993.6439717573
 20
202.8902730442
 30
0.0
 11
2992.1439717573
 21
202.8902730442
 31
0.0
  0
LINE
  5
2B1
330
1B
100
AcDbEntity
 67
     1
  8
7_ALL_FEATURES
  6
Continuous
 62
     9
100
AcDbLine
 10
2993.6439717573
 20
227.4840586962
 30
0.0
 11
2992.1439717573
 21
227.4840586962
 31
0.0
  0
LINE
  5
2B2
330
1B
100
AcDbEntity
 67
     1
  8
7_ALL_FEATURES
  6
Continuous
 62
     9
100
AcDbLine
 10
2993.6439717573
 20
226.7816892879
 30
0.0
 11
2992.1439717573
 21
226.7816892879
 31
0.0
  0
LINE
  5
2B3
330
1B
100
AcDbEntity
 67
     1
  8
7_ALL_FEATURES
  6
Continuous
 62
     9
100
AcDbLine
 10
2993.6439717573
 20
225.7968815349
 30
0.0
 11
2992.1439717573
 21
225.7968815349
 31
0.0
  0
LINE
  5
2B4
330
1B
100
AcDbEntity
 67
     1
  8
7_ALL_FEATURES
  6
Continuous
 62
     9
100
AcDbLine
 10
2993.6439717573
 20
203.8750807972
 30
0.0
 11
2992.1439717573
 21
203.8750807972
 31
0.0
  0
LINE
  5
2B5
330
1B
100
AcDbEntity
 67
     1
  8
3_ALL_AXES
  6
Continuous
 62
     7
100
AcDbLine
 10
2994.1439717573
 20
207.235981166
 30
0.0
 11
2993.9932514277
 21
207.235981166
 31
0.0
  0
LINE
  5
2B6
330
1B
100
AcDbEntity
 67
     1
  8
3_ALL_AXES
  6
Continuous
 62
     7
100
AcDbLine
 10
2994.1439717573
 20
201.735981166
 30
0.0
 11
2993.9932514277
 21
201.735981166
 31
0.0
  0
LINE
  5
2B7
330
1B
100
AcDbEntity
 67
     1
  8
3_ALL_AXES
  6
Continuous
 62
     7
100
AcDbLine
 10
2993.9932514277
 20
207.235981166
 30
0.0
 11
2993.6439717573
 21
206.9429007235
 31
0.0
  0
LINE
  5
2B8
330
1B
100
AcDbEntity
 67
     1
  8
3_ALL_AXES
  6
Continuous
 62
     7
100
AcDbLine
 10
2993.9932514277
 20
201.735981166
 30
0.0
 11
2993.6405645404
 21
202.0319206031
 31
0.0
  0
LINE
  5
2B9
330
1B
100
AcDbEntity
 67
     1
  8
3_ALL_AXES
  6
Continuous
 62
     7
100
AcDbLine
 10
2993.6405645404
 20
202.0319206031
 30
0.0
 11
2993.6357253499
 21
202.035981166
 31
0.0
  0
LINE
  5
2BA
330
1B
100
AcDbEntity
 67
     1
  8
3_ALL_AXES
  6
Continuous
 62
     7
100
AcDbLine
 10
2993.9932514277
 20
207.235981166
 30
0.0
 11
2994.1439717573
 21
207.235981166
 31
0.0
  0
LINE
  5
2BB
330
1B
100
AcDbEntity
 67
     1
  8
3_ALL_AXES
  6
Continuous
 62
     7
100
AcDbLine
 10
2994.1439717573
 20
207.235981166
 30
0.0
 11
2994.1439717573
 21
201.735981166
 31
0.0
  0
LINE
  5
2BC
330
1B
100
AcDbEntity
 67
     1
  8
3_ALL_AXES
  6
Continuous
 62
     7
100
AcDbLine
 10
2993.6439717573
 20
206.9429007235
 30
0.0
 11
2993.9932514277
 21
207.235981166
 31
0.0
  0
LINE
  5
2BD
330
1B
100
AcDbEntity
 67
     1
  8
3_ALL_AXES
  6
Continuous
 62
     7
100
AcDbLine
 10
2993.9932514277
 20
201.735981166
 30
0.0
 11
2994.1439717573
 21
201.735981166
 31
0.0
  0
LINE
  5
2BE
330
1B
100
AcDbEntity
 67
     1
  8
3_ALL_AXES
  6
Continuous
 62
     7
100
AcDbLine
 10
2993.6357253499
 20
202.035981166
 30
0.0
 11
2993.6405645404
 21
202.0319206031
 31
0.0
  0
LINE
  5
2BF
330
1B
100
AcDbEntity
 67
     1
  8
3_ALL_AXES
  6
Continuous
 62
     7
100
AcDbLine
 10
2993.6405645404
 20
202.0319206031
 30
0.0
 11
2993.9932514277
 21
201.735981166
 31
0.0
  0
LINE
  5
2C0
330
1B
100
AcDbEntity
 67
     1
  8
3_ALL_AXES
  6
Continuous
 62
     7
100
AcDbLine
 10
2993.9932514277
 20
207.235981166
 30
0.0
 11
2993.9932514277
 21
201.735981166
 31
0.0
  0
LINE
  5
2C1
330
1B
100
AcDbEntity
 67
     1
  8
3_ALL_AXES
  6
Continuous
 62
     7
100
AcDbLine
 10
2994.1439717573
 20
227.935981166
 30
0.0
 11
2993.9932514277
 21
227.935981166
 31
0.0
  0
LINE
  5
2C2
330
1B
100
AcDbEntity
 67
     1
  8
3_ALL_AXES
  6
Continuous
 62
     7
100
AcDbLine
 10
2994.1439717573
 20
222.435981166
 30
0.0
 11
2993.9932514277
 21
222.435981166
 31
0.0
  0
LINE
  5
2C3
330
1B
100
AcDbEntity
 67
     1
  8
3_ALL_AXES
  6
Continuous
 62
     7
100
AcDbLine
 10
2993.9932514277
 20
227.935981166
 30
0.0
 11
2993.6405645404
 21
227.640041729
 31
0.0
  0
LINE
  5
2C4
330
1B
100
AcDbEntity
 67
     1
  8
3_ALL_AXES
  6
Continuous
 62
     7
100
AcDbLine
 10
2993.6405645404
 20
227.640041729
 30
0.0
 11
2993.6357253499
 21
227.635981166
 31
0.0
  0
LINE
  5
2C5
330
1B
100
AcDbEntity
 67
     1
  8
3_ALL_AXES
  6
Continuous
 62
     7
100
AcDbLine
 10
2993.9932514277
 20
222.435981166
 30
0.0
 11
2993.6439717573
 21
222.7290616086
 31
0.0
  0
LINE
  5
2C6
330
1B
100
AcDbEntity
 67
     1
  8
3_ALL_AXES
  6
Continuous
 62
     7
100
AcDbLine
 10
2993.9932514277
 20
227.935981166
 30
0.0
 11
2994.1439717573
 21
227.935981166
 31
0.0
  0
LINE
  5
2C7
330
1B
100
AcDbEntity
 67
     1
  8
3_ALL_AXES
  6
Continuous
 62
     7
100
AcDbLine
 10
2994.1439717573
 20
227.935981166
 30
0.0
 11
2994.1439717573
 21
222.435981166
 31
0.0
  0
LINE
  5
2C8
330
1B
100
AcDbEntity
 67
     1
  8
3_ALL_AXES
  6
Continuous
 62
     7
100
AcDbLine
 10
2993.6357253499
 20
227.635981166
 30
0.0
 11
2993.6405645404
 21
227.640041729
 31
0.0
  0
LINE
  5
2C9
330
1B
100
AcDbEntity
 67
     1
  8
3_ALL_AXES
  6
Continuous
 62
     7
100
AcDbLine
 10
2993.6405645404
 20
227.640041729
 30
0.0
 11
2993.9932514277
 21
227.935981166
 31
0.0
  0
LINE
  5
2CA
330
1B
100
AcDbEntity
 67
     1
  8
3_ALL_AXES
  6
Continuous
 62
     7
100
AcDbLine
 10
2993.9932514277
 20
222.435981166
 30
0.0
 11
2994.1439717573
 21
222.435981166
 31
0.0
  0
LINE
  5
2CB
330
1B
100
AcDbEntity
 67
     1
  8
3_ALL_AXES
  6
Continuous
 62
     7
100
AcDbLine
 10
2993.6439717573
 20
222.7290616086
 30
0.0
 11
2993.9932514277
 21
222.435981166
 31
0.0
  0
LINE
  5
2CC
330
1B
100
AcDbEntity
 67
     1
  8
3_ALL_AXES
  6
Continuous
 62
     7
100
AcDbLine
 10
2993.9932514277
 20
227.935981166
 30
0.0
 11
2993.9932514277
 21
222.435981166
 31
0.0
  0
LINE
  5
2CD
330
1B
100
AcDbEntity
 67
     1
  8
3_ALL_AXES
  6
Continuous
 62
     7
100
AcDbLine
 10
978.6439717573
 20
201.735981166
 30
0.0
 11
978.7946920869
 21
201.735981166
 31
0.0
  0
LINE
  5
2CE
330
1B
100
AcDbEntity
 67
     1
  8
3_ALL_AXES
  6
Continuous
 62
     7
100
AcDbLine
 10
978.6439717573
 20
207.235981166
 30
0.0
 11
978.7946920869
 21
207.235981166
 31
0.0
  0
LINE
  5
2CF
330
1B
100
AcDbEntity
 67
     1
  8
3_ALL_AXES
  6
Continuous
 62
     7
100
AcDbLine
 10
978.7946920869
 20
201.735981166
 30
0.0
 11
979.1473789742
 21
202.0319206031
 31
0.0
  0
LINE
  5
2D0
330
1B
100
AcDbEntity
 67
     1
  8
3_ALL_AXES
  6
Continuous
 62
     7
100
AcDbLine
 10
979.1473789742
 20
202.0319206031
 30
0.0
 11
979.1522181647
 21
202.035981166
 31
0.0
  0
LINE
  5
2D1
330
1B
100
AcDbEntity
 67
     1
  8
3_ALL_AXES
  6
Continuous
 62
     7
100
AcDbLine
 10
978.7946920869
 20
207.235981166
 30
0.0
 11
979.1439717573
 21
206.9429007235
 31
0.0
  0
LINE
  5
2D2
330
1B
100
AcDbEntity
 67
     1
  8
3_ALL_AXES
  6
Continuous
 62
     7
100
AcDbLine
 10
978.7946920869
 20
201.735981166
 30
0.0
 11
978.6439717573
 21
201.735981166
 31
0.0
  0
LINE
  5
2D3
330
1B
100
AcDbEntity
 67
     1
  8
3_ALL_AXES
  6
Continuous
 62
     7
100
AcDbLine
 10
978.6439717573
 20
201.735981166
 30
0.0
 11
978.6439717573
 21
207.235981166
 31
0.0
  0
LINE
  5
2D4
330
1B
100
AcDbEntity
 67
     1
  8
3_ALL_AXES
  6
Continuous
 62
     7
100
AcDbLine
 10
979.1522181647
 20
202.035981166
 30
0.0
 11
979.1473789742
 21
202.0319206031
 31
0.0
  0
LINE
  5
2D5
330
1B
100
AcDbEntity
 67
     1
  8
3_ALL_AXES
  6
Continuous
 62
     7
100
AcDbLine
 10
979.1473789742
 20
202.0319206031
 30
0.0
 11
978.7946920869
 21
201.735981166
 31
0.0
  0
LINE
  5
2D6
330
1B
100
AcDbEntity
 67
     1
  8
3_ALL_AXES
  6
Continuous
 62
     7
100
AcDbLine
 10
978.7946920869
 20
207.235981166
 30
0.0
 11
978.6439717573
 21
207.235981166
 31
0.0
  0
LINE
  5
2D7
330
1B
100
AcDbEntity
 67
     1
  8
3_ALL_AXES
  6
Continuous
 62
     7
100
AcDbLine
 10
979.1439717573
 20
206.9429007235
 30
0.0
 11
978.7946920869
 21
207.235981166
 31
0.0
  0
LINE
  5
2D8
330
1B
100
AcDbEntity
 67
     1
  8
3_ALL_AXES
  6
Continuous
 62
     7
100
AcDbLine
 10
978.7946920869
 20
201.735981166
 30
0.0
 11
978.7946920869
 21
207.235981166
 31
0.0
  0
LINE
  5
2D9
330
1B
100
AcDbEntity
 67
     1
  8
3_ALL_AXES
  6
Continuous
 62
     7
100
AcDbLine
 10
978.6439717573
 20
222.435981166
 30
0.0
 11
978.7946920869
 21
222.435981166
 31
0.0
  0
LINE
  5
2DA
330
1B
100
AcDbEntity
 67
     1
  8
3_ALL_AXES
  6
Continuous
 62
     7
100
AcDbLine
 10
978.6439717573
 20
227.935981166
 30
0.0
 11
978.7946920869
 21
227.935981166
 31
0.0
  0
LINE
  5
2DB
330
1B
100
AcDbEntity
 67
     1
  8
3_ALL_AXES
  6
Continuous
 62
     7
100
AcDbLine
 10
978.7946920869
 20
222.435981166
 30
0.0
 11
979.1439717573
 21
222.7290616086
 31
0.0
  0
LINE
  5
2DC
330
1B
100
AcDbEntity
 67
     1
  8
3_ALL_AXES
  6
Continuous
 62
     7
100
AcDbLine
 10
978.7946920869
 20
227.935981166
 30
0.0
 11
979.1473789742
 21
227.640041729
 31
0.0
  0
LINE
  5
2DD
330
1B
100
AcDbEntity
 67
     1
  8
3_ALL_AXES
  6
Continuous
 62
     7
100
AcDbLine
 10
979.1473789742
 20
227.640041729
 30
0.0
 11
979.1522181647
 21
227.635981166
 31
0.0
  0
LINE
  5
2DE
330
1B
100
AcDbEntity
 67
     1
  8
3_ALL_AXES
  6
Continuous
 62
     7
100
AcDbLine
 10
978.7946920869
 20
222.435981166
 30
0.0
 11
978.6439717573
 21
222.435981166
 31
0.0
  0
LINE
  5
2DF
330
1B
100
AcDbEntity
 67
     1
  8
3_ALL_AXES
  6
Continuous
 62
     7
100
AcDbLine
 10
978.6439717573
 20
222.435981166
 30
0.0
 11
978.6439717573
 21
227.935981166
 31
0.0
  0
LINE
  5
2E0
330
1B
100
AcDbEntity
 67
     1
  8
3_ALL_AXES
  6
Continuous
 62
     7
100
AcDbLine
 10
979.1439717573
 20
222.7290616086
 30
0.0
 11
978.7946920869
 21
222.435981166
 31
0.0
  0
LINE
  5
2E1
330
1B
100
AcDbEntity
 67
     1
  8
3_ALL_AXES
  6
Continuous
 62
     7
100
AcDbLine
 10
978.7946920869
 20
227.935981166
 30
0.0
 11
978.6439717573
 21
227.935981166
 31
0.0
  0
LINE
  5
2E2
330
1B
100
AcDbEntity
 67
     1
  8
3_ALL_AXES
  6
Continuous
 62
     7
100
AcDbLine
 10
979.1522181647
 20
227.635981166
 30
0.0
 11
979.1473789742
 21
227.640041729
 31
0.0
  0
LINE
  5
2E3
330
1B
100
AcDbEntity
 67
     1
  8
3_ALL_AXES
  6
Continuous
 62
     7
100
AcDbLine
 10
979.1473789742
 20
227.640041729
 30
0.0
 11
978.7946920869
 21
227.935981166
 31
0.0
  0
LINE
  5
2E4
330
1B
100
AcDbEntity
 67
     1
  8
3_ALL_AXES
  6
Continuous
 62
     7
100
AcDbLine
 10
978.7946920869
 20
222.435981166
 30
0.0
 11
978.7946920869
 21
227.935981166
 31
0.0
  0
LINE
  5
2E5
330
1B
100
AcDbEntity
 67
     1
  8
7_ALL_FEATURES
  6
Continuous
 62
     7
100
AcDbLine
 10
980.6439717573
 20
204.235981166
 30
0.0
 11
980.6439717573
 21
204.535981166
 31
0.0
  0
LINE
  5
2E6
330
1B
100
AcDbEntity
 67
     1
  8
7_ALL_FEATURES
  6
Continuous
 62
     7
100
AcDbLine
 10
980.6439717573
 20
204.235981166
 30
0.0
 11
980.6439717573
 21
203.8750807972
 31
0.0
  0
LINE
  5
2E7
330
1B
100
AcDbEntity
 67
     1
  8
7_ALL_FEATURES
  6
Continuous
 62
     7
100
AcDbLine
 10
980.6439717573
 20
203.8750807972
 30
0.0
 11
980.6439717573
 21
203.2877110554
 31
0.0
  0
LINE
  5
2E8
330
1B
100
AcDbEntity
 67
     1
  8
7_ALL_FEATURES
  6
Continuous
 62
     7
100
AcDbLine
 10
980.6439717573
 20
202.9922687295
 30
0.0
 11
980.6439717573
 21
203.0948747725
 31
0.0
  0
LINE
  5
2E9
330
1B
100
AcDbEntity
 67
     1
  8
7_ALL_FEATURES
  6
Continuous
 62
     7
100
AcDbLine
 10
980.6439717573
 20
203.0948747725
 30
0.0
 11
980.6439717573
 21
203.2877110554
 31
0.0
  0
LINE
  5
2EA
330
1B
100
AcDbEntity
 67
     1
  8
7_ALL_FEATURES
  6
Continuous
 62
     7
100
AcDbLine
 10
980.6439717573
 20
202.9922687295
 30
0.0
 11
980.6439717573
 21
202.8902730442
 31
0.0
  0
LINE
  5
2EB
330
1B
100
AcDbEntity
 67
     1
  8
7_ALL_FEATURES
  6
Continuous
 62
     7
100
AcDbLine
 10
980.6439717573
 20
202.8902730442
 30
0.0
 11
980.6439717573
 21
202.1879036359
 31
0.0
  0
LINE
  5
2EC
330
1B
100
AcDbEntity
 67
     1
  8
7_ALL_FEATURES
  6
Continuous
 62
     7
100
AcDbLine
 10
980.6439717573
 20
202.1879036359
 30
0.0
 11
980.6439717573
 21
202.111942401
 31
0.0
  0
LINE
  5
2ED
330
1B
100
AcDbEntity
 67
     1
  8
7_ALL_FEATURES
  6
Continuous
 62
     7
100
AcDbLine
 10
980.6439717573
 20
202.035981166
 30
0.0
 11
980.6439717573
 21
202.111942401
 31
0.0
  0
LINE
  5
2EE
330
1B
100
AcDbEntity
 67
     1
  8
7_ALL_FEATURES
  6
Continuous
 62
     7
100
AcDbLine
 10
980.6439717573
 20
227.635981166
 30
0.0
 11
980.6439717573
 21
227.5600199311
 31
0.0
  0
LINE
  5
2EF
330
1B
100
AcDbEntity
 67
     1
  8
7_ALL_FEATURES
  6
Continuous
 62
     7
100
AcDbLine
 10
980.6439717573
 20
227.5600199311
 30
0.0
 11
980.6439717573
 21
227.4840586962
 31
0.0
  0
LINE
  5
2F0
330
1B
100
AcDbEntity
 67
     1
  8
7_ALL_FEATURES
  6
Continuous
 62
     7
100
AcDbLine
 10
980.6439717573
 20
227.4840586962
 30
0.0
 11
980.6439717573
 21
226.7816892879
 31
0.0
  0
LINE
  5
2F1
330
1B
100
AcDbEntity
 67
     1
  8
7_ALL_FEATURES
  6
Continuous
 62
     7
100
AcDbLine
 10
980.6439717573
 20
226.7816892879
 30
0.0
 11
980.6439717573
 21
226.6796936026
 31
0.0
  0
LINE
  5
2F2
330
1B
100
AcDbEntity
 67
     1
  8
7_ALL_FEATURES
  6
Continuous
 62
     7
100
AcDbLine
 10
980.6439717573
 20
226.3842512767
 30
0.0
 11
980.6439717573
 21
226.5770875596
 31
0.0
  0
LINE
  5
2F3
330
1B
100
AcDbEntity
 67
     1
  8
7_ALL_FEATURES
  6
Continuous
 62
     7
100
AcDbLine
 10
980.6439717573
 20
226.5770875596
 30
0.0
 11
980.6439717573
 21
226.6796936026
 31
0.0
  0
LINE
  5
2F4
330
1B
100
AcDbEntity
 67
     1
  8
7_ALL_FEATURES
  6
Continuous
 62
     7
100
AcDbLine
 10
980.6439717573
 20
226.3842512767
 30
0.0
 11
980.6439717573
 21
225.7968815349
 31
0.0
  0
LINE
  5
2F5
330
1B
100
AcDbEntity
 67
     1
  8
7_ALL_FEATURES
  6
Continuous
 62
     7
100
AcDbLine
 10
980.6439717573
 20
225.7968815349
 30
0.0
 11
980.6439717573
 21
225.435981166
 31
0.0
  0
LINE
  5
2F6
330
1B
100
AcDbEntity
 67
     1
  8
7_ALL_FEATURES
  6
Continuous
 62
     7
100
AcDbLine
 10
2992.1439717573
 20
225.135981166
 30
0.0
 11
980.6439717573
 21
225.135981166
 31
0.0
  0
LINE
  5
2F7
330
1B
100
AcDbEntity
 67
     1
  8
7_ALL_FEATURES
  6
Continuous
 62
     7
100
AcDbLine
 10
2992.1439717573
 20
204.535981166
 30
0.0
 11
980.6439717573
 21
204.535981166
 31
0.0
  0
LINE
  5
2F8
330
1B
100
AcDbEntity
 67
     1
  8
7_ALL_FEATURES
  6
Continuous
 62
     7
100
AcDbLine
 10
2992.1439717573
 20
225.435981166
 30
0.0
 11
2992.1439717573
 21
225.135981166
 31
0.0
  0
LINE
  5
2F9
330
1B
100
AcDbEntity
 67
     1
  8
7_ALL_FEATURES
  6
Continuous
 62
     7
100
AcDbLine
 10
2992.1439717573
 20
226.3842512767
 30
0.0
 11
2992.1439717573
 21
225.7968815349
 31
0.0
  0
LINE
  5
2FA
330
1B
100
AcDbEntity
 67
     1
  8
7_ALL_FEATURES
  6
Continuous
 62
     7
100
AcDbLine
 10
2992.1439717573
 20
225.7968815349
 30
0.0
 11
2992.1439717573
 21
225.435981166
 31
0.0
  0
LINE
  5
2FB
330
1B
100
AcDbEntity
 67
     1
  8
7_ALL_FEATURES
  6
Continuous
 62
     7
100
AcDbLine
 10
2992.1439717573
 20
226.6796936026
 30
0.0
 11
2992.1439717573
 21
226.5770875596
 31
0.0
  0
LINE
  5
2FC
330
1B
100
AcDbEntity
 67
     1
  8
7_ALL_FEATURES
  6
Continuous
 62
     7
100
AcDbLine
 10
2992.1439717573
 20
226.5770875596
 30
0.0
 11
2992.1439717573
 21
226.3842512767
 31
0.0
  0
LINE
  5
2FD
330
1B
100
AcDbEntity
 67
     1
  8
7_ALL_FEATURES
  6
Continuous
 62
     7
100
AcDbLine
 10
2992.1439717573
 20
227.5600199311
 30
0.0
 11
2992.1439717573
 21
227.4840586962
 31
0.0
  0
LINE
  5
2FE
330
1B
100
AcDbEntity
 67
     1
  8
7_ALL_FEATURES
  6
Continuous
 62
     7
100
AcDbLine
 10
2992.1439717573
 20
227.4840586962
 30
0.0
 11
2992.1439717573
 21
226.7816892879
 31
0.0
  0
LINE
  5
2FF
330
1B
100
AcDbEntity
 67
     1
  8
7_ALL_FEATURES
  6
Continuous
 62
     7
100
AcDbLine
 10
2992.1439717573
 20
226.7816892879
 30
0.0
 11
2992.1439717573
 21
226.6796936026
 31
0.0
  0
LINE
  5
300
330
1B
100
AcDbEntity
 67
     1
  8
7_ALL_FEATURES
  6
Continuous
 62
     7
100
AcDbLine
 10
2992.1439717573
 20
227.5600199311
 30
0.0
 11
2992.1439717573
 21
227.6275219574
 31
0.0
  0
LINE
  5
301
330
1B
100
AcDbEntity
 67
     1
  8
7_ALL_FEATURES
  6
Continuous
 62
     7
100
AcDbLine
 10
2992.1439717573
 20
227.6275219574
 30
0.0
 11
2992.1439717573
 21
227.635981166
 31
0.0
  0
ARC
  5
302
330
1B
100
AcDbEntity
 67
     1
  8
02___PRT_ALL_AXES
  6
Continuous
 62
     7
100
AcDbCircle
 10
990.6439717573
 20
214.835981166
 30
0.0
 40
5.0
100
AcDbArc
 50
90.0
 51
270.0
  0
ARC
  5
303
330
1B
100
AcDbEntity
 67
     1
  8
02___PRT_ALL_AXES
  6
Continuous
 62
     7
100
AcDbCircle
 10
990.6439717573
 20
214.835981166
 30
0.0
 40
5.0
100
AcDbArc
 50
270.0
 51
90.0
  0
LINE
  5
304
330
1B
100
AcDbEntity
 67
     1
  8
7_ALL_FEATURES
  6
Continuous
 62
     7
100
AcDbLine
 10
2992.1439717573
 20
202.111942401
 30
0.0
 11
2992.1439717573
 21
202.0444403747
 31
0.0
  0
LINE
  5
305
330
1B
100
AcDbEntity
 67
     1
  8
7_ALL_FEATURES
  6
Continuous
 62
     7
100
AcDbLine
 10
2992.1439717573
 20
202.0444403747
 30
0.0
 11
2992.1439717573
 21
202.035981166
 31
0.0
  0
LINE
  5
306
330
1B
100
AcDbEntity
 67
     1
  8
7_ALL_FEATURES
  6
Continuous
 62
     7
100
AcDbLine
 10
2992.1439717573
 20
202.9922687295
 30
0.0
 11
2992.1439717573
 21
202.8902730442
 31
0.0
  0
LINE
  5
307
330
1B
100
AcDbEntity
 67
     1
  8
7_ALL_FEATURES
  6
Continuous
 62
     7
100
AcDbLine
 10
2992.1439717573
 20
202.8902730442
 30
0.0
 11
2992.1439717573
 21
202.1879036359
 31
0.0
  0
LINE
  5
308
330
1B
100
AcDbEntity
 67
     1
  8
7_ALL_FEATURES
  6
Continuous
 62
     7
100
AcDbLine
 10
2992.1439717573
 20
202.1879036359
 30
0.0
 11
2992.1439717573
 21
202.111942401
 31
0.0
  0
LINE
  5
309
330
1B
100
AcDbEntity
 67
     1
  8
7_ALL_FEATURES
  6
Continuous
 62
     7
100
AcDbLine
 10
2992.1439717573
 20
203.2877110554
 30
0.0
 11
2992.1439717573
 21
203.0948747725
 31
0.0
  0
LINE
  5
30A
330
1B
100
AcDbEntity
 67
     1
  8
7_ALL_FEATURES
  6
Continuous
 62
     7
100
AcDbLine
 10
2992.1439717573
 20
203.0948747725
 30
0.0
 11
2992.1439717573
 21
202.9922687295
 31
0.0
  0
LINE
  5
30B
330
1B
100
AcDbEntity
 67
     1
  8
7_ALL_FEATURES
  6
Continuous
 62
     7
100
AcDbLine
 10
2992.1439717573
 20
204.235981166
 30
0.0
 11
2992.1439717573
 21
203.8750807972
 31
0.0
  0
LINE
  5
30C
330
1B
100
AcDbEntity
 67
     1
  8
7_ALL_FEATURES
  6
Continuous
 62
     7
100
AcDbLine
 10
2992.1439717573
 20
203.8750807972
 30
0.0
 11
2992.1439717573
 21
203.2877110554
 31
0.0
  0
LINE
  5
30D
330
1B
100
AcDbEntity
 67
     1
  8
7_ALL_FEATURES
  6
Continuous
 62
     7
100
AcDbLine
 10
2992.1439717573
 20
225.135981166
 30
0.0
 11
980.6439717573
 21
225.135981166
 31
0.0
  0
LINE
  5
30E
330
1B
100
AcDbEntity
 67
     1
  8
7_ALL_FEATURES
  6
Continuous
 62
     7
100
AcDbLine
 10
2992.1439717573
 20
204.535981166
 30
0.0
 11
980.6439717573
 21
204.535981166
 31
0.0
  0
LINE
  5
30F
330
1B
100
AcDbEntity
 67
     1
  8
7_ALL_FEATURES
  6
Continuous
 62
     7
100
AcDbLine
 10
2992.1439717573
 20
202.035981166
 30
0.0
 11
980.6439717573
 21
202.035981166
 31
0.0
  0
LINE
  5
310
330
1B
100
AcDbEntity
 67
     1
  8
7_ALL_FEATURES
  6
Continuous
 62
     7
100
AcDbLine
 10
2992.1439717573
 20
227.635981166
 30
0.0
 11
980.6439717573
 21
227.635981166
 31
0.0
  0
LINE
  5
311
330
1B
100
AcDbEntity
 67
     1
  8
7_ALL_FEATURES
  6
Continuous
 62
     9
100
AcDbLine
 10
2992.1439717573
 20
226.6796936026
 30
0.0
 11
980.6439717573
 21
226.6796936026
 31
0.0
  0
LINE
  5
312
330
1B
100
AcDbEntity
 67
     1
  8
7_ALL_FEATURES
  6
Continuous
 62
     9
100
AcDbLine
 10
2992.1439717573
 20
227.5600199311
 30
0.0
 11
980.6439717573
 21
227.5600199311
 31
0.0
  0
LINE
  5
313
330
1B
100
AcDbEntity
 67
     1
  8
7_ALL_FEATURES
  6
Continuous
 62
     9
100
AcDbLine
 10
2992.1439717573
 20
225.435981166
 30
0.0
 11
980.6439717573
 21
225.435981166
 31
0.0
  0
LINE
  5
314
330
1B
100
AcDbEntity
 67
     1
  8
7_ALL_FEATURES
  6
Continuous
 62
     9
100
AcDbLine
 10
2992.1439717573
 20
226.3842512767
 30
0.0
 11
980.6439717573
 21
226.3842512767
 31
0.0
  0
LINE
  5
315
330
1B
100
AcDbEntity
 67
     1
  8
7_ALL_FEATURES
  6
Continuous
 62
     7
100
AcDbLine
 10
980.6439717573
 20
223.25034052
 30
0.0
 11
2992.1439717573
 21
223.25034052
 31
0.0
  0
LINE
  5
316
330
1B
100
AcDbEntity
 67
     1
  8
7_ALL_FEATURES
  6
Continuous
 62
     7
100
AcDbLine
 10
980.6439717573
 20
224.635981166
 30
0.0
 11
2992.1439717573
 21
224.635981166
 31
0.0
  0
LINE
  5
317
330
1B
100
AcDbEntity
 67
     1
  8
7_ALL_FEATURES
  6
Continuous
 62
     9
100
AcDbLine
 10
995.4316200786
 20
216.2379049547
 30
0.0
 11
985.856323436
 21
216.2379049547
 31
0.0
  0
LINE
  5
318
330
1B
100
AcDbEntity
 67
     1
  8
7_ALL_FEATURES
  6
Continuous
 62
     9
100
AcDbLine
 10
995.6239709692
 20
215.2379049547
 30
0.0
 11
985.6639725454
 21
215.2379049547
 31
0.0
  0
LINE
  5
319
330
1B
100
AcDbEntity
 67
     1
  8
7_ALL_FEATURES
  6
Continuous
 62
     9
100
AcDbLine
 10
995.6239709692
 20
214.4340573774
 30
0.0
 11
985.6639725454
 21
214.4340573774
 31
0.0
  0
LINE
  5
31A
330
1B
100
AcDbEntity
 67
     1
  8
7_ALL_FEATURES
  6
Continuous
 62
     7
100
AcDbLine
 10
985.6556279113
 20
214.835981166
 30
0.0
 11
995.6323156033
 21
214.835981166
 31
0.0
  0
LINE
  5
31B
330
1B
100
AcDbEntity
 67
     1
  8
7_ALL_FEATURES
  6
Continuous
 62
     9
100
AcDbLine
 10
995.4316200786
 20
213.4340573774
 30
0.0
 11
985.856323436
 21
213.4340573774
 31
0.0
  0
LINE
  5
31C
330
1B
100
AcDbEntity
 67
     1
  8
7_ALL_FEATURES
  6
Continuous
 62
     7
100
AcDbLine
 10
980.6439717573
 20
205.035981166
 30
0.0
 11
2992.1439717573
 21
205.035981166
 31
0.0
  0
LINE
  5
31D
330
1B
100
AcDbEntity
 67
     1
  8
7_ALL_FEATURES
  6
Continuous
 62
     7
100
AcDbLine
 10
980.6439717573
 20
206.4216218121
 30
0.0
 11
2992.1439717573
 21
206.4216218121
 31
0.0
  0
LINE
  5
31E
330
1B
100
AcDbEntity
 67
     1
  8
7_ALL_FEATURES
  6
Continuous
 62
     9
100
AcDbLine
 10
2992.1439717573
 20
204.235981166
 30
0.0
 11
980.6439717573
 21
204.235981166
 31
0.0
  0
LINE
  5
31F
330
1B
100
AcDbEntity
 67
     1
  8
7_ALL_FEATURES
  6
Continuous
 62
     9
100
AcDbLine
 10
2992.1439717573
 20
203.2877110554
 30
0.0
 11
980.6439717573
 21
203.2877110554
 31
0.0
  0
LINE
  5
320
330
1B
100
AcDbEntity
 67
     1
  8
7_ALL_FEATURES
  6
Continuous
 62
     9
100
AcDbLine
 10
2992.1439717573
 20
202.9922687295
 30
0.0
 11
980.6439717573
 21
202.9922687295
 31
0.0
  0
LINE
  5
321
330
1B
100
AcDbEntity
 67
     1
  8
7_ALL_FEATURES
  6
Continuous
 62
     9
100
AcDbLine
 10
2992.1439717573
 20
202.111942401
 30
0.0
 11
980.6439717573
 21
202.111942401
 31
0.0
  0
LINE
  5
322
330
1B
100
AcDbEntity
 67
     1
  8
7_ALL_FEATURES
  6
Continuous
 62
     3
100
AcDbLine
 10
980.6439717573
 20
202.8902730442
 30
0.0
 11
980.6439717573
 21
202.1879036359
 31
0.0
  0
LINE
  5
323
330
1B
100
AcDbEntity
 67
     1
  8
7_ALL_FEATURES
  6
Continuous
 62
     3
100
AcDbLine
 10
980.6439717573
 20
225.7968815349
 30
0.0
 11
980.6439717573
 21
225.435981166
 31
0.0
  0
LINE
  5
324
330
1B
100
AcDbEntity
 67
     1
  8
7_ALL_FEATURES
  6
Continuous
 62
     3
100
AcDbLine
 10
980.6439717573
 20
225.435981166
 30
0.0
 11
980.6439717573
 21
225.135981166
 31
0.0
  0
LINE
  5
325
330
1B
100
AcDbEntity
 67
     1
  8
7_ALL_FEATURES
  6
Continuous
 62
     3
100
AcDbLine
 10
980.6439717573
 20
225.135981166
 30
0.0
 11
980.6439717573
 21
204.535981166
 31
0.0
  0
LINE
  5
326
330
1B
100
AcDbEntity
 67
     1
  8
7_ALL_FEATURES
  6
Continuous
 62
     3
100
AcDbLine
 10
980.6439717573
 20
204.535981166
 30
0.0
 11
980.6439717573
 21
204.235981166
 31
0.0
  0
LINE
  5
327
330
1B
100
AcDbEntity
 67
     1
  8
7_ALL_FEATURES
  6
Continuous
 62
     3
100
AcDbLine
 10
980.6439717573
 20
204.235981166
 30
0.0
 11
980.6439717573
 21
203.8750807972
 31
0.0
  0
LINE
  5
328
330
1B
100
AcDbEntity
 67
     1
  8
7_ALL_FEATURES
  6
Continuous
 62
     3
100
AcDbLine
 10
980.6439717573
 20
227.4840586962
 30
0.0
 11
980.6439717573
 21
226.7816892879
 31
0.0
  0
LINE
  5
329
330
1B
100
AcDbEntity
 67
     1
  8
7_ALL_FEATURES
  6
Continuous
 62
     3
100
AcDbLine
 10
2992.1439717573
 20
226.7816892879
 30
0.0
 11
2992.1439717573
 21
227.4840586962
 31
0.0
  0
LINE
  5
32A
330
1B
100
AcDbEntity
 67
     1
  8
7_ALL_FEATURES
  6
Continuous
 62
     3
100
AcDbLine
 10
2992.1439717573
 20
203.8750807972
 30
0.0
 11
2992.1439717573
 21
204.235981166
 31
0.0
  0
LINE
  5
32B
330
1B
100
AcDbEntity
 67
     1
  8
7_ALL_FEATURES
  6
Continuous
 62
     3
100
AcDbLine
 10
2992.1439717573
 20
204.235981166
 30
0.0
 11
2992.1439717573
 21
204.535981166
 31
0.0
  0
LINE
  5
32C
330
1B
100
AcDbEntity
 67
     1
  8
7_ALL_FEATURES
  6
Continuous
 62
     3
100
AcDbLine
 10
2992.1439717573
 20
204.535981166
 30
0.0
 11
2992.1439717573
 21
225.135981166
 31
0.0
  0
LINE
  5
32D
330
1B
100
AcDbEntity
 67
     1
  8
7_ALL_FEATURES
  6
Continuous
 62
     3
100
AcDbLine
 10
2992.1439717573
 20
225.135981166
 30
0.0
 11
2992.1439717573
 21
225.435981166
 31
0.0
  0
LINE
  5
32E
330
1B
100
AcDbEntity
 67
     1
  8
7_ALL_FEATURES
  6
Continuous
 62
     3
100
AcDbLine
 10
2992.1439717573
 20
225.435981166
 30
0.0
 11
2992.1439717573
 21
225.7968815349
 31
0.0
  0
LINE
  5
32F
330
1B
100
AcDbEntity
 67
     1
  8
7_ALL_FEATURES
  6
Continuous
 62
     3
100
AcDbLine
 10
2992.1439717573
 20
202.1879036359
 30
0.0
 11
2992.1439717573
 21
202.8902730442
 31
0.0
  0
LINE
  5
330
330
1B
100
AcDbEntity
 67
     1
  8
3_ALL_AXES
  6
Continuous
 62
     7
100
AcDbLine
 10
2993.9932514277
 20
391.6359653698
 30
0.0
 11
2994.1439717573
 21
391.6359653698
 31
0.0
  0
LINE
  5
331
330
1B
100
AcDbEntity
 67
     1
  8
3_ALL_AXES
  6
Continuous
 62
     7
100
AcDbLine
 10
2994.1439717573
 20
391.6359173037
 30
0.0
 11
2994.1439717573
 21
388.8859653698
 31
0.0
  0
LINE
  5
332
330
1B
100
AcDbEntity
 67
     1
  8
3_ALL_AXES
  6
Continuous
 62
     7
100
AcDbLine
 10
2993.6439717573
 20
391.3428849273
 30
0.0
 11
2993.9932514277
 21
391.6359653698
 31
0.0
  0
LINE
  5
333
330
1B
100
AcDbEntity
 67
     1
  8
3_ALL_AXES
  6
Continuous
 62
     7
100
AcDbLine
 10
2993.9932514277
 20
386.1359653698
 30
0.0
 11
2994.1439717573
 21
386.1359653698
 31
0.0
  0
LINE
  5
334
330
1B
100
AcDbEntity
 67
     1
  8
3_ALL_AXES
  6
Continuous
 62
     7
100
AcDbLine
 10
2994.1439717573
 20
386.136013436
 30
0.0
 11
2994.1439717573
 21
388.8859653698
 31
0.0
  0
LINE
  5
335
330
1B
100
AcDbEntity
 67
     1
  8
3_ALL_AXES
  6
Continuous
 62
     7
100
AcDbLine
 10
2993.6439717573
 20
386.4290458124
 30
0.0
 11
2993.9932514277
 21
386.1359653698
 31
0.0
  0
LINE
  5
336
330
1B
100
AcDbEntity
 67
     1
  8
3_ALL_AXES
  6
Continuous
 62
     7
100
AcDbLine
 10
2993.9932514277
 20
386.1359653698
 30
0.0
 11
2993.9932514277
 21
388.8859653698
 31
0.0
  0
LINE
  5
337
330
1B
100
AcDbEntity
 67
     1
  8
3_ALL_AXES
  6
Continuous
 62
     7
100
AcDbLine
 10
2993.9932514277
 20
391.6359653698
 30
0.0
 11
2993.9932514277
 21
388.8859653698
 31
0.0
  0
LINE
  5
338
330
1B
100
AcDbEntity
 67
     1
  8
3_ALL_AXES
  6
Continuous
 62
     7
100
AcDbLine
 10
2993.9932514277
 20
371.9359653698
 30
0.0
 11
2994.1439717573
 21
371.9359653698
 31
0.0
  0
LINE
  5
339
330
1B
100
AcDbEntity
 67
     1
  8
3_ALL_AXES
  6
Continuous
 62
     7
100
AcDbLine
 10
2994.1439717573
 20
371.9359173037
 30
0.0
 11
2994.1439717573
 21
369.1859653698
 31
0.0
  0
LINE
  5
33A
330
1B
100
AcDbEntity
 67
     1
  8
3_ALL_AXES
  6
Continuous
 62
     7
100
AcDbLine
 10
2993.6439717573
 20
371.6428849273
 30
0.0
 11
2993.9932514277
 21
371.9359653698
 31
0.0
  0
LINE
  5
33B
330
1B
100
AcDbEntity
 67
     1
  8
3_ALL_AXES
  6
Continuous
 62
     7
100
AcDbLine
 10
2993.9932514277
 20
366.4359653698
 30
0.0
 11
2994.1439717573
 21
366.4359653698
 31
0.0
  0
LINE
  5
33C
330
1B
100
AcDbEntity
 67
     1
  8
3_ALL_AXES
  6
Continuous
 62
     7
100
AcDbLine
 10
2994.1439717573
 20
366.436013436
 30
0.0
 11
2994.1439717573
 21
369.1859653698
 31
0.0
  0
LINE
  5
33D
330
1B
100
AcDbEntity
 67
     1
  8
3_ALL_AXES
  6
Continuous
 62
     7
100
AcDbLine
 10
2993.6439717573
 20
366.7290458124
 30
0.0
 11
2993.9932514277
 21
366.4359653698
 31
0.0
  0
LINE
  5
33E
330
1B
100
AcDbEntity
 67
     1
  8
3_ALL_AXES
  6
Continuous
 62
     7
100
AcDbLine
 10
2993.9932514277
 20
366.4359653698
 30
0.0
 11
2993.9932514277
 21
369.1859653698
 31
0.0
  0
LINE
  5
33F
330
1B
100
AcDbEntity
 67
     1
  8
3_ALL_AXES
  6
Continuous
 62
     7
100
AcDbLine
 10
2993.9932514277
 20
371.9359653698
 30
0.0
 11
2993.9932514277
 21
369.1859653698
 31
0.0
  0
LINE
  5
340
330
1B
100
AcDbEntity
 67
     1
  8
3_ALL_AXES
  6
Continuous
 62
     7
100
AcDbLine
 10
978.6439717573
 20
369.1859653698
 30
0.0
 11
978.6439717573
 21
371.9359173037
 31
0.0
  0
LINE
  5
341
330
1B
100
AcDbEntity
 67
     1
  8
3_ALL_AXES
  6
Continuous
 62
     7
100
AcDbLine
 10
978.6439717573
 20
369.1859653698
 30
0.0
 11
978.6439717573
 21
366.436013436
 31
0.0
  0
LINE
  5
342
330
1B
100
AcDbEntity
 67
     1
  8
3_ALL_AXES
  6
Continuous
 62
     7
100
AcDbLine
 10
978.7946920869
 20
371.9359653698
 30
0.0
 11
978.6439717573
 21
371.9359653698
 31
0.0
  0
LINE
  5
343
330
1B
100
AcDbEntity
 67
     1
  8
3_ALL_AXES
  6
Continuous
 62
     7
100
AcDbLine
 10
979.1439717573
 20
371.6428849273
 30
0.0
 11
978.7946920869
 21
371.9359653698
 31
0.0
  0
LINE
  5
344
330
1B
100
AcDbEntity
 67
     1
  8
3_ALL_AXES
  6
Continuous
 62
     7
100
AcDbLine
 10
978.7946920869
 20
366.4359653698
 30
0.0
 11
978.6439717573
 21
366.4359653698
 31
0.0
  0
LINE
  5
345
330
1B
100
AcDbEntity
 67
     1
  8
3_ALL_AXES
  6
Continuous
 62
     7
100
AcDbLine
 10
979.1439717573
 20
366.7290458124
 30
0.0
 11
978.7946920869
 21
366.4359653698
 31
0.0
  0
LINE
  5
346
330
1B
100
AcDbEntity
 67
     1
  8
3_ALL_AXES
  6
Continuous
 62
     7
100
AcDbLine
 10
978.7946920869
 20
369.1859653698
 30
0.0
 11
978.7946920869
 21
371.9359653698
 31
0.0
  0
LINE
  5
347
330
1B
100
AcDbEntity
 67
     1
  8
3_ALL_AXES
  6
Continuous
 62
     7
100
AcDbLine
 10
978.7946920869
 20
369.1859653698
 30
0.0
 11
978.7946920869
 21
366.4359653698
 31
0.0
  0
LINE
  5
348
330
1B
100
AcDbEntity
 67
     1
  8
3_ALL_AXES
  6
Continuous
 62
     7
100
AcDbLine
 10
978.6439717573
 20
388.8859653698
 30
0.0
 11
978.6439717573
 21
391.6359173037
 31
0.0
  0
LINE
  5
349
330
1B
100
AcDbEntity
 67
     1
  8
3_ALL_AXES
  6
Continuous
 62
     7
100
AcDbLine
 10
978.6439717573
 20
388.8859653698
 30
0.0
 11
978.6439717573
 21
386.136013436
 31
0.0
  0
LINE
  5
34A
330
1B
100
AcDbEntity
 67
     1
  8
3_ALL_AXES
  6
Continuous
 62
     7
100
AcDbLine
 10
978.7946920869
 20
391.6359653698
 30
0.0
 11
978.6439717573
 21
391.6359653698
 31
0.0
  0
LINE
  5
34B
330
1B
100
AcDbEntity
 67
     1
  8
3_ALL_AXES
  6
Continuous
 62
     7
100
AcDbLine
 10
979.1439717573
 20
391.3428849273
 30
0.0
 11
978.7946920869
 21
391.6359653698
 31
0.0
  0
LINE
  5
34C
330
1B
100
AcDbEntity
 67
     1
  8
3_ALL_AXES
  6
Continuous
 62
     7
100
AcDbLine
 10
978.7946920869
 20
386.1359653698
 30
0.0
 11
978.6439717573
 21
386.1359653698
 31
0.0
  0
LINE
  5
34D
330
1B
100
AcDbEntity
 67
     1
  8
3_ALL_AXES
  6
Continuous
 62
     7
100
AcDbLine
 10
979.1439717573
 20
386.4290458124
 30
0.0
 11
978.7946920869
 21
386.1359653698
 31
0.0
  0
LINE
  5
34E
330
1B
100
AcDbEntity
 67
     1
  8
3_ALL_AXES
  6
Continuous
 62
     7
100
AcDbLine
 10
978.7946920869
 20
388.8859653698
 30
0.0
 11
978.7946920869
 21
391.6359653698
 31
0.0
  0
LINE
  5
34F
330
1B
100
AcDbEntity
 67
     1
  8
3_ALL_AXES
  6
Continuous
 62
     7
100
AcDbLine
 10
978.7946920869
 20
388.8859653698
 30
0.0
 11
978.7946920869
 21
386.1359653698
 31
0.0
  0
LINE
  5
350
330
1B
100
AcDbEntity
 67
     1
  8
7_ALL_FEATURES
  6
Continuous
 62
     7
100
AcDbLine
 10
2993.6439717573
 20
357.4859653698
 30
0.0
 11
2992.1439717573
 21
357.4859653698
 31
0.0
  0
LINE
  5
351
330
1B
100
AcDbEntity
 67
     1
  8
7_ALL_FEATURES
  6
Continuous
 62
     7
100
AcDbLine
 10
2993.6439717573
 20
357.4859653698
 30
0.0
 11
2992.1439717573
 21
357.4859653698
 31
0.0
  0
LINE
  5
352
330
1B
100
AcDbEntity
 67
     1
  8
7_ALL_FEATURES
  6
Continuous
 62
     7
100
AcDbLine
 10
2993.6439717573
 20
432.4859653698
 30
0.0
 11
2993.6439717573
 21
431.6596135475
 31
0.0
  0
LINE
  5
353
330
1B
100
AcDbEntity
 67
     1
  8
7_ALL_FEATURES
  6
Continuous
 62
     7
100
AcDbLine
 10
2993.6439717573
 20
427.6762786916
 30
0.0
 11
2993.6439717573
 21
431.6596135475
 31
0.0
  0
LINE
  5
354
330
1B
100
AcDbEntity
 67
     1
  8
7_ALL_FEATURES
  6
Continuous
 62
     7
100
AcDbLine
 10
2993.6439717573
 20
427.6762786916
 30
0.0
 11
2993.6439717573
 21
425.939796915
 31
0.0
  0
LINE
  5
355
330
1B
100
AcDbEntity
 67
     1
  8
7_ALL_FEATURES
  6
Continuous
 62
     7
100
AcDbLine
 10
2993.6439717573
 20
358.4859653698
 30
0.0
 11
2993.6439717573
 21
425.939796915
 31
0.0
  0
LINE
  5
356
330
1B
100
AcDbEntity
 67
     1
  8
7_ALL_FEATURES
  6
Continuous
 62
     7
100
AcDbLine
 10
2993.6439717573
 20
358.4859653698
 30
0.0
 11
2993.6439717573
 21
357.4859653698
 31
0.0
  0
LINE
  5
357
330
1B
100
AcDbEntity
 67
     1
  8
7_ALL_FEATURES
  6
Continuous
 62
     7
100
AcDbLine
 10
2993.6439717573
 20
432.4859653698
 30
0.0
 11
2992.1439717573
 21
432.4859653698
 31
0.0
  0
LINE
  5
358
330
1B
100
AcDbEntity
 67
     1
  8
7_ALL_FEATURES
  6
Continuous
 62
     9
100
AcDbLine
 10
2993.6439717573
 20
427.6762786916
 30
0.0
 11
2992.1439717573
 21
427.6762786916
 31
0.0
  0
LINE
  5
359
330
1B
100
AcDbEntity
 67
     1
  8
7_ALL_FEATURES
  6
Continuous
 62
     9
100
AcDbLine
 10
2993.6439717573
 20
431.6596135475
 30
0.0
 11
2992.1439717573
 21
431.6596135475
 31
0.0
  0
LINE
  5
35A
330
1B
100
AcDbEntity
 67
     1
  8
7_ALL_FEATURES
  6
Continuous
 62
     9
100
AcDbLine
 10
2993.6439717573
 20
358.4859653698
 30
0.0
 11
2992.1439717573
 21
358.4859653698
 31
0.0
  0
LINE
  5
35B
330
1B
100
AcDbEntity
 67
     1
  8
7_ALL_FEATURES
  6
Continuous
 62
     9
100
AcDbLine
 10
2993.6439717573
 20
425.939796915
 30
0.0
 11
2992.1439717573
 21
425.939796915
 31
0.0
  0
LINE
  5
35C
330
1B
100
AcDbEntity
 67
     1
  8
7_ALL_FEATURES
  6
Continuous
 62
     7
100
AcDbLine
 10
979.1439717573
 20
432.4859653698
 30
0.0
 11
980.6439717573
 21
432.4859653698
 31
0.0
  0
LINE
  5
35D
330
1B
100
AcDbEntity
 67
     1
  8
7_ALL_FEATURES
  6
Continuous
 62
     7
100
AcDbLine
 10
979.1439717573
 20
357.4859653698
 30
0.0
 11
980.6439717573
 21
357.4859653698
 31
0.0
  0
LINE
  5
35E
330
1B
100
AcDbEntity
 67
     1
  8
7_ALL_FEATURES
  6
Continuous
 62
     7
100
AcDbLine
 10
979.1439717573
 20
357.4859653698
 30
0.0
 11
979.1439717573
 21
358.4859653698
 31
0.0
  0
LINE
  5
35F
330
1B
100
AcDbEntity
 67
     1
  8
7_ALL_FEATURES
  6
Continuous
 62
     7
100
AcDbLine
 10
979.1439717573
 20
425.939796915
 30
0.0
 11
979.1439717573
 21
358.4859653698
 31
0.0
  0
LINE
  5
360
330
1B
100
AcDbEntity
 67
     1
  8
7_ALL_FEATURES
  6
Continuous
 62
     7
100
AcDbLine
 10
979.1439717573
 20
425.939796915
 30
0.0
 11
979.1439717573
 21
427.6762786916
 31
0.0
  0
LINE
  5
361
330
1B
100
AcDbEntity
 67
     1
  8
7_ALL_FEATURES
  6
Continuous
 62
     7
100
AcDbLine
 10
979.1439717573
 20
431.6596135475
 30
0.0
 11
979.1439717573
 21
427.6762786916
 31
0.0
  0
LINE
  5
362
330
1B
100
AcDbEntity
 67
     1
  8
7_ALL_FEATURES
  6
Continuous
 62
     7
100
AcDbLine
 10
979.1439717573
 20
431.6596135475
 30
0.0
 11
979.1439717573
 21
432.4859653698
 31
0.0
  0
LINE
  5
363
330
1B
100
AcDbEntity
 67
     1
  8
7_ALL_FEATURES
  6
Continuous
 62
     7
100
AcDbLine
 10
979.1439717573
 20
432.4859653698
 30
0.0
 11
980.6439717573
 21
432.4859653698
 31
0.0
  0
LINE
  5
364
330
1B
100
AcDbEntity
 67
     1
  8
7_ALL_FEATURES
  6
Continuous
 62
     9
100
AcDbLine
 10
979.1439717573
 20
431.6596135475
 30
0.0
 11
980.6439717573
 21
431.6596135475
 31
0.0
  0
LINE
  5
365
330
1B
100
AcDbEntity
 67
     1
  8
7_ALL_FEATURES
  6
Continuous
 62
     9
100
AcDbLine
 10
979.1439717573
 20
358.4859653698
 30
0.0
 11
980.6439717573
 21
358.4859653698
 31
0.0
  0
LINE
  5
366
330
1B
100
AcDbEntity
 67
     1
  8
7_ALL_FEATURES
  6
Continuous
 62
     9
100
AcDbLine
 10
979.1439717573
 20
425.939796915
 30
0.0
 11
980.6439717573
 21
425.939796915
 31
0.0
  0
LINE
  5
367
330
1B
100
AcDbEntity
 67
     1
  8
7_ALL_FEATURES
  6
Continuous
 62
     9
100
AcDbLine
 10
979.1439717573
 20
427.6762786916
 30
0.0
 11
980.6439717573
 21
427.6762786916
 31
0.0
  0
LINE
  5
368
330
1B
100
AcDbEntity
 67
     1
  8
7_ALL_FEATURES
  6
Continuous
 62
     7
100
AcDbLine
 10
980.6439717573
 20
432.2380598231
 30
0.0
 11
980.6439717573
 21
432.4859653698
 31
0.0
  0
LINE
  5
369
330
1B
100
AcDbEntity
 67
     1
  8
7_ALL_FEATURES
  6
Continuous
 62
     7
100
AcDbLine
 10
980.6439717573
 20
432.2380598231
 30
0.0
 11
980.6439717573
 21
431.6596135475
 31
0.0
  0
LINE
  5
36A
330
1B
100
AcDbEntity
 67
     1
  8
7_ALL_FEATURES
  6
Continuous
 62
     7
100
AcDbLine
 10
980.6439717573
 20
431.6596135475
 30
0.0
 11
980.6439717573
 21
427.6762786916
 31
0.0
  0
LINE
  5
36B
330
1B
100
AcDbEntity
 67
     1
  8
7_ALL_FEATURES
  6
Continuous
 62
     7
100
AcDbLine
 10
980.6439717573
 20
427.6762786916
 30
0.0
 11
980.6439717573
 21
427.2454811209
 31
0.0
  0
LINE
  5
36C
330
1B
100
AcDbEntity
 67
     1
  8
7_ALL_FEATURES
  6
Continuous
 62
     7
100
AcDbLine
 10
980.6439717573
 20
426.3772402326
 30
0.0
 11
980.6439717573
 21
427.2454811209
 31
0.0
  0
LINE
  5
36D
330
1B
100
AcDbEntity
 67
     1
  8
7_ALL_FEATURES
  6
Continuous
 62
     7
100
AcDbLine
 10
980.6439717573
 20
426.3772402326
 30
0.0
 11
980.6439717573
 21
425.939796915
 31
0.0
  0
LINE
  5
36E
330
1B
100
AcDbEntity
 67
     1
  8
7_ALL_FEATURES
  6
Continuous
 62
     7
100
AcDbLine
 10
980.6439717573
 20
425.939796915
 30
0.0
 11
980.6439717573
 21
423.9001789322
 31
0.0
  0
LINE
  5
36F
330
1B
100
AcDbEntity
 67
     1
  8
7_ALL_FEATURES
  6
Continuous
 62
     7
100
AcDbLine
 10
980.6439717573
 20
401.1217518075
 30
0.0
 11
980.6439717573
 21
398.4359653698
 31
0.0
  0
LINE
  5
370
330
1B
100
AcDbEntity
 67
     1
  8
7_ALL_FEATURES
  6
Continuous
 62
     7
100
AcDbLine
 10
980.6439717573
 20
393.1359653698
 30
0.0
 11
980.6439717573
 21
393.4359653698
 31
0.0
  0
LINE
  5
371
330
1B
100
AcDbEntity
 67
     1
  8
7_ALL_FEATURES
  6
Continuous
 62
     7
100
AcDbLine
 10
980.6439717573
 20
393.1359653698
 30
0.0
 11
980.6439717573
 21
388.2001789322
 31
0.0
  0
LINE
  5
372
330
1B
100
AcDbEntity
 67
     1
  8
7_ALL_FEATURES
  6
Continuous
 62
     7
100
AcDbLine
 10
980.6439717573
 20
369.5717518075
 30
0.0
 11
980.6439717573
 21
365.6359653698
 31
0.0
  0
LINE
  5
373
330
1B
100
AcDbEntity
 67
     1
  8
7_ALL_FEATURES
  6
Continuous
 62
     7
100
AcDbLine
 10
980.6439717573
 20
360.3359653698
 30
0.0
 11
980.6439717573
 21
360.6359653698
 31
0.0
  0
LINE
  5
374
330
1B
100
AcDbEntity
 67
     1
  8
7_ALL_FEATURES
  6
Continuous
 62
     7
100
AcDbLine
 10
980.6439717573
 20
360.3359653698
 30
0.0
 11
980.6439717573
 21
358.4859653698
 31
0.0
  0
LINE
  5
375
330
1B
100
AcDbEntity
 67
     1
  8
7_ALL_FEATURES
  6
Continuous
 62
     7
100
AcDbLine
 10
980.6439717573
 20
357.4859653698
 30
0.0
 11
980.6439717573
 21
357.5045956029
 31
0.0
  0
LINE
  5
376
330
1B
100
AcDbEntity
 67
     1
  8
7_ALL_FEATURES
  6
Continuous
 62
     7
100
AcDbLine
 10
980.6439717573
 20
357.5045956029
 30
0.0
 11
980.6439717573
 21
358.4859653698
 31
0.0
  0
ARC
  5
377
330
1B
100
AcDbEntity
 67
     1
  8
02___PRT_ALL_AXES
  6
Continuous
 62
     7
100
AcDbCircle
 10
1080.6439717573
 20
372.4859653698
 30
0.0
 40
10.5
100
AcDbArc
 50
220.7213569478
 51
222.9181103506
  0
LINE
  5
378
330
1B
100
AcDbEntity
 67
     1
  8
7_ALL_FEATURES
  6
Continuous
 62
     7
100
AcDbLine
 10
980.6439717573
 20
365.3359653698
 30
0.0
 11
1072.9545309454
 21
365.3359653698
 31
0.0
  0
ARC
  5
379
330
1B
100
AcDbEntity
 67
     1
  8
02___PRT_ALL_AXES
  6
Continuous
 62
     7
100
AcDbCircle
 10
1080.6439717573
 20
372.4859653698
 30
0.0
 40
10.5
100
AcDbArc
 50
192.1341108581
 51
196.1136863676
  0
ARC
  5
37A
330
1B
100
AcDbEntity
 67
     1
  8
02___PRT_ALL_AXES
  6
Continuous
 62
     7
100
AcDbCircle
 10
1080.6439717573
 20
372.4859653698
 30
0.0
 40
10.5
100
AcDbArc
 50
343.8863136324
 51
347.8658891419
  0
ARC
  5
37B
330
1B
100
AcDbEntity
 67
     1
  8
02___PRT_ALL_AXES
  6
Continuous
 62
     7
100
AcDbCircle
 10
1080.6439717573
 20
372.4859653698
 30
0.0
 40
10.5
100
AcDbArc
 50
185.9354657451
 51
189.8315293902
  0
ARC
  5
37C
330
1B
100
AcDbEntity
 67
     1
  8
02___PRT_ALL_AXES
  6
Continuous
 62
     7
100
AcDbCircle
 10
1080.6439717573
 20
372.4859653698
 30
0.0
 40
10.5
100
AcDbArc
 50
350.1684706098
 51
354.0645342549
  0
ARC
  5
37D
330
1B
100
AcDbEntity
 67
     1
  8
02___PRT_ALL_AXES
  6
Continuous
 62
     7
100
AcDbCircle
 10
1080.6439717573
 20
372.4859653698
 30
0.0
 40
10.5
100
AcDbArc
 50
189.8315293902
 51
192.1341108581
  0
ARC
  5
37E
330
1B
100
AcDbEntity
 67
     1
  8
02___PRT_ALL_AXES
  6
Continuous
 62
     7
100
AcDbCircle
 10
1080.6439717573
 20
372.4859653698
 30
0.0
 40
10.5
100
AcDbArc
 50
347.8658891419
 51
350.1684706098
  0
ARC
  5
37F
330
1B
100
AcDbEntity
 67
     1
  8
02___PRT_ALL_AXES
  6
Continuous
 62
     7
100
AcDbCircle
 10
1080.6439717573
 20
372.4859653698
 30
0.0
 40
10.5
100
AcDbArc
 50
317.0818896494
 51
319.2786430522
  0
LINE
  5
380
330
1B
100
AcDbEntity
 67
     1
  8
7_ALL_FEATURES
  6
Continuous
 62
     7
100
AcDbLine
 10
2992.1439717573
 20
358.4859653698
 30
0.0
 11
2992.1439717573
 21
358.2968094391
 31
0.0
  0
LINE
  5
381
330
1B
100
AcDbEntity
 67
     1
  8
7_ALL_FEATURES
  6
Continuous
 62
     7
100
AcDbLine
 10
2992.1439717573
 20
358.2968094391
 30
0.0
 11
2992.1439717573
 21
358.1125741404
 31
0.0
  0
LINE
  5
382
330
1B
100
AcDbEntity
 67
     1
  8
7_ALL_FEATURES
  6
Continuous
 62
     7
100
AcDbLine
 10
2992.1439717573
 20
358.1125741404
 30
0.0
 11
2992.1439717573
 21
357.9386474631
 31
0.0
  0
LINE
  5
383
330
1B
100
AcDbEntity
 67
     1
  8
7_ALL_FEATURES
  6
Continuous
 62
     7
100
AcDbLine
 10
2992.1439717573
 20
357.9386474631
 30
0.0
 11
2992.1439717573
 21
357.6582787115
 31
0.0
  0
LINE
  5
384
330
1B
100
AcDbEntity
 67
     1
  8
7_ALL_FEATURES
  6
Continuous
 62
     7
100
AcDbLine
 10
2992.1439717573
 20
357.6582787115
 30
0.0
 11
2992.1439717573
 21
357.5666632535
 31
0.0
  0
LINE
  5
385
330
1B
100
AcDbEntity
 67
     1
  8
7_ALL_FEATURES
  6
Continuous
 62
     7
100
AcDbLine
 10
2992.1439717573
 20
357.5666632535
 30
0.0
 11
2992.1439717573
 21
357.5078963454
 31
0.0
  0
LINE
  5
386
330
1B
100
AcDbEntity
 67
     1
  8
7_ALL_FEATURES
  6
Continuous
 62
     7
100
AcDbLine
 10
2992.1439717573
 20
357.5078963454
 30
0.0
 11
2992.1439717573
 21
357.4859653698
 31
0.0
  0
LINE
  5
387
330
1B
100
AcDbEntity
 67
     1
  8
7_ALL_FEATURES
  6
Continuous
 62
     7
100
AcDbLine
 10
2992.1439717573
 20
360.3359653698
 30
0.0
 11
2992.1439717573
 21
358.4859653698
 31
0.0
  0
LINE
  5
388
330
1B
100
AcDbEntity
 67
     1
  8
7_ALL_FEATURES
  6
Continuous
 62
     7
100
AcDbLine
 10
2992.1439717573
 20
365.6359653698
 30
0.0
 11
2992.1439717573
 21
365.3359653698
 31
0.0
  0
LINE
  5
389
330
1B
100
AcDbEntity
 67
     1
  8
7_ALL_FEATURES
  6
Continuous
 62
     7
100
AcDbLine
 10
2992.1439717573
 20
369.5717518075
 30
0.0
 11
2992.1439717573
 21
365.6359653698
 31
0.0
  0
LINE
  5
38A
330
1B
100
AcDbEntity
 67
     1
  8
7_ALL_FEATURES
  6
Continuous
 62
     7
100
AcDbLine
 10
2992.1439717573
 20
393.1359653698
 30
0.0
 11
2992.1439717573
 21
388.2001789322
 31
0.0
  0
LINE
  5
38B
330
1B
100
AcDbEntity
 67
     1
  8
7_ALL_FEATURES
  6
Continuous
 62
     7
100
AcDbLine
 10
2992.1439717573
 20
398.4359653698
 30
0.0
 11
2992.1439717573
 21
398.1359653698
 31
0.0
  0
LINE
  5
38C
330
1B
100
AcDbEntity
 67
     1
  8
7_ALL_FEATURES
  6
Continuous
 62
     7
100
AcDbLine
 10
2992.1439717573
 20
401.1217518075
 30
0.0
 11
2992.1439717573
 21
398.4359653698
 31
0.0
  0
LINE
  5
38D
330
1B
100
AcDbEntity
 67
     1
  8
7_ALL_FEATURES
  6
Continuous
 62
     7
100
AcDbLine
 10
2992.1439717573
 20
426.3772402326
 30
0.0
 11
2992.1439717573
 21
425.939796915
 31
0.0
  0
LINE
  5
38E
330
1B
100
AcDbEntity
 67
     1
  8
7_ALL_FEATURES
  6
Continuous
 62
     7
100
AcDbLine
 10
2992.1439717573
 20
425.939796915
 30
0.0
 11
2992.1439717573
 21
423.9001789322
 31
0.0
  0
LINE
  5
38F
330
1B
100
AcDbEntity
 67
     1
  8
7_ALL_FEATURES
  6
Continuous
 62
     7
100
AcDbLine
 10
2992.1439717573
 20
427.2454811209
 30
0.0
 11
2992.1439717573
 21
426.3772402326
 31
0.0
  0
LINE
  5
390
330
1B
100
AcDbEntity
 67
     1
  8
7_ALL_FEATURES
  6
Continuous
 62
     7
100
AcDbLine
 10
2992.1439717573
 20
432.2380598231
 30
0.0
 11
2992.1439717573
 21
431.6596135475
 31
0.0
  0
LINE
  5
391
330
1B
100
AcDbEntity
 67
     1
  8
7_ALL_FEATURES
  6
Continuous
 62
     7
100
AcDbLine
 10
2992.1439717573
 20
431.6596135475
 30
0.0
 11
2992.1439717573
 21
427.6762786916
 31
0.0
  0
LINE
  5
392
330
1B
100
AcDbEntity
 67
     1
  8
7_ALL_FEATURES
  6
Continuous
 62
     7
100
AcDbLine
 10
2992.1439717573
 20
427.6762786916
 30
0.0
 11
2992.1439717573
 21
427.2454811209
 31
0.0
  0
LINE
  5
393
330
1B
100
AcDbEntity
 67
     1
  8
7_ALL_FEATURES
  6
Continuous
 62
     7
100
AcDbLine
 10
2992.1439717573
 20
432.4859653698
 30
0.0
 11
2992.1439717573
 21
432.2380598231
 31
0.0
  0
LINE
  5
394
330
1B
100
AcDbEntity
 67
     1
  8
7_ALL_FEATURES
  6
Continuous
 62
     7
100
AcDbLine
 10
2992.1439717573
 20
360.6359653698
 30
0.0
 11
980.6439717573
 21
360.6359653698
 31
0.0
  0
LINE
  5
395
330
1B
100
AcDbEntity
 67
     1
  8
02___PRT_ALL_AXES
  6
Continuous
 62
     7
100
AcDbLine
 10
980.6439717573
 20
365.3359653698
 30
0.0
 11
1072.9545309454
 21
365.3359653698
 31
0.0
  0
LINE
  5
396
330
1B
100
AcDbEntity
 67
     1
  8
02___PRT_ALL_AXES
  6
Continuous
 62
     7
100
AcDbLine
 10
1088.3334125692
 20
365.3359653698
 30
0.0
 11
2992.1439717573
 21
365.3359653698
 31
0.0
  0
ARC
  5
397
330
1B
100
AcDbEntity
 67
     1
  8
02___PRT_ALL_AXES
  6
Continuous
 62
     7
100
AcDbCircle
 10
1080.6439717573
 20
372.4859653698
 30
0.0
 40
10.5
100
AcDbArc
 50
222.9165487893
 51
270.0
  0
ARC
  5
398
330
1B
100
AcDbEntity
 67
     1
  8
02___PRT_ALL_AXES
  6
Continuous
 62
     7
100
AcDbCircle
 10
1080.6439717573
 20
372.4859653698
 30
0.0
 40
10.5
100
AcDbArc
 50
270.0
 51
317.0834512107
  0
LINE
  5
399
330
1B
100
AcDbEntity
 67
     1
  8
7_ALL_FEATURES
  6
Continuous
 62
     7
100
AcDbLine
 10
2992.1439717573
 20
432.4859653698
 30
0.0
 11
980.6439717573
 21
432.4859653698
 31
0.0
  0
LINE
  5
39A
330
1B
100
AcDbEntity
 67
     1
  8
7_ALL_FEATURES
  6
Continuous
 62
     7
100
AcDbLine
 10
2992.1439717573
 20
398.1359653698
 30
0.0
 11
980.6439717573
 21
398.1359653698
 31
0.0
  0
LINE
  5
39B
330
1B
100
AcDbEntity
 67
     1
  8
7_ALL_FEATURES
  6
Continuous
 62
     7
100
AcDbLine
 10
2992.1439717573
 20
357.4859653698
 30
0.0
 11
980.6439717573
 21
357.4859653698
 31
0.0
  0
LINE
  5
39C
330
1B
100
AcDbEntity
 67
     1
  8
7_ALL_FEATURES
  6
Continuous
 62
     7
100
AcDbLine
 10
2992.1439717573
 20
393.4359653698
 30
0.0
 11
980.6439717573
 21
393.4359653698
 31
0.0
  0
ARC
  5
39D
330
1B
100
AcDbEntity
 67
     1
  8
02___PRT_ALL_AXES
  6
Continuous
 62
     7
100
AcDbCircle
 10
1080.6439717573
 20
372.4859653698
 30
0.0
 40
10.5
100
AcDbArc
 50
354.0645342549
 51
90.0
  0
ARC
  5
39E
330
1B
100
AcDbEntity
 67
     1
  8
02___PRT_ALL_AXES
  6
Continuous
 62
     7
100
AcDbCircle
 10
1080.6439717573
 20
372.4859653698
 30
0.0
 40
10.5
100
AcDbArc
 50
90.0
 51
185.9354657451
  0
ARC
  5
39F
330
1B
100
AcDbEntity
 67
     1
  8
02___PRT_ALL_AXES
  6
Continuous
 62
     7
100
AcDbCircle
 10
1080.6439717573
 20
372.4859653698
 30
0.0
 40
10.5
100
AcDbArc
 50
319.2786430522
 51
343.8863136324
  0
ARC
  5
3A0
330
1B
100
AcDbEntity
 67
     1
  8
02___PRT_ALL_AXES
  6
Continuous
 62
     7
100
AcDbCircle
 10
1080.6439717573
 20
372.4859653698
 30
0.0
 40
10.5
100
AcDbArc
 50
196.1136863676
 51
220.7213569478
  0
LINE
  5
3A1
330
1B
100
AcDbEntity
 67
     1
  8
7_ALL_FEATURES
  6
Continuous
 62
     9
100
AcDbLine
 10
980.6439717573
 20
422.7788585887
 30
0.0
 11
2992.1439717573
 21
422.7788585887
 31
0.0
  0
LINE
  5
3A2
330
1B
100
AcDbEntity
 67
     1
  8
7_ALL_FEATURES
  6
Continuous
 62
     9
100
AcDbLine
 10
980.6439717573
 20
423.193072151
 30
0.0
 11
2992.1439717573
 21
423.193072151
 31
0.0
  0
LINE
  5
3A3
330
1B
100
AcDbEntity
 67
     1
  8
02___PRT_ALL_AXES
  6
Continuous
 62
     9
100
AcDbLine
 10
1070.2981738709
 20
370.693072151
 30
0.0
 11
980.6439717573
 21
370.693072151
 31
0.0
  0
LINE
  5
3A4
330
1B
100
AcDbEntity
 67
     1
  8
02___PRT_ALL_AXES
  6
Continuous
 62
     9
100
AcDbLine
 10
1070.378559946
 20
370.2788585887
 30
0.0
 11
980.6439717573
 21
370.2788585887
 31
0.0
  0
LINE
  5
3A5
330
1B
100
AcDbEntity
 67
     1
  8
02___PRT_ALL_AXES
  6
Continuous
 62
     9
100
AcDbLine
 10
2992.1439717573
 20
370.2788585887
 30
0.0
 11
1090.9093835686
 21
370.2788585887
 31
0.0
  0
LINE
  5
3A6
330
1B
100
AcDbEntity
 67
     1
  8
02___PRT_ALL_AXES
  6
Continuous
 62
     9
100
AcDbLine
 10
2992.1439717573
 20
370.693072151
 30
0.0
 11
1090.9897696437
 21
370.693072151
 31
0.0
  0
LINE
  5
3A7
330
1B
100
AcDbEntity
 67
     1
  8
7_ALL_FEATURES
  6
Continuous
 62
     9
100
AcDbLine
 10
980.6439717573
 20
387.0788585887
 30
0.0
 11
2992.1439717573
 21
387.0788585887
 31
0.0
  0
LINE
  5
3A8
330
1B
100
AcDbEntity
 67
     1
  8
7_ALL_FEATURES
  6
Continuous
 62
     9
100
AcDbLine
 10
980.6439717573
 20
387.493072151
 30
0.0
 11
2992.1439717573
 21
387.493072151
 31
0.0
  0
LINE
  5
3A9
330
1B
100
AcDbEntity
 67
     1
  8
7_ALL_FEATURES
  6
Continuous
 62
     9
100
AcDbLine
 10
2992.1439717573
 20
402.243072151
 30
0.0
 11
980.6439717573
 21
402.243072151
 31
0.0
  0
LINE
  5
3AA
330
1B
100
AcDbEntity
 67
     1
  8
7_ALL_FEATURES
  6
Continuous
 62
     9
100
AcDbLine
 10
2992.1439717573
 20
432.2380598231
 30
0.0
 11
980.6439717573
 21
432.2380598231
 31
0.0
  0
LINE
  5
3AB
330
1B
100
AcDbEntity
 67
     1
  8
7_ALL_FEATURES
  6
Continuous
 62
     9
100
AcDbLine
 10
2992.1439717573
 20
427.2454811209
 30
0.0
 11
980.6439717573
 21
427.2454811209
 31
0.0
  0
LINE
  5
3AC
330
1B
100
AcDbEntity
 67
     1
  8
7_ALL_FEATURES
  6
Continuous
 62
     9
100
AcDbLine
 10
980.6439717573
 20
423.9001789322
 30
0.0
 11
2992.1439717573
 21
423.9001789322
 31
0.0
  0
LINE
  5
3AD
330
1B
100
AcDbEntity
 67
     1
  8
7_ALL_FEATURES
  6
Continuous
 62
     9
100
AcDbLine
 10
2992.1439717573
 20
426.3772402326
 30
0.0
 11
980.6439717573
 21
426.3772402326
 31
0.0
  0
LINE
  5
3AE
330
1B
100
AcDbEntity
 67
     1
  8
7_ALL_FEATURES
  6
Continuous
 62
     9
100
AcDbLine
 10
980.6439717573
 20
422.0717518075
 30
0.0
 11
2992.1439717573
 21
422.0717518075
 31
0.0
  0
LINE
  5
3AF
330
1B
100
AcDbEntity
 67
     1
  8
7_ALL_FEATURES
  6
Continuous
 62
     9
100
AcDbLine
 10
2992.1439717573
 20
402.9501789322
 30
0.0
 11
980.6439717573
 21
402.9501789322
 31
0.0
  0
LINE
  5
3B0
330
1B
100
AcDbEntity
 67
     1
  8
7_ALL_FEATURES
  6
Continuous
 62
     9
100
AcDbLine
 10
2992.1439717573
 20
401.1217518075
 30
0.0
 11
980.6439717573
 21
401.1217518075
 31
0.0
  0
LINE
  5
3B1
330
1B
100
AcDbEntity
 67
     1
  8
7_ALL_FEATURES
  6
Continuous
 62
     9
100
AcDbLine
 10
2992.1439717573
 20
398.4359653698
 30
0.0
 11
980.6439717573
 21
398.4359653698
 31
0.0
  0
LINE
  5
3B2
330
1B
100
AcDbEntity
 67
     1
  8
7_ALL_FEATURES
  6
Continuous
 62
     9
100
AcDbLine
 10
2992.1439717573
 20
401.8288585887
 30
0.0
 11
980.6439717573
 21
401.8288585887
 31
0.0
  0
LINE
  5
3B3
330
1B
100
AcDbEntity
 67
     1
  8
02___PRT_ALL_AXES
  6
Continuous
 62
     9
100
AcDbLine
 10
1070.5564864754
 20
369.5717518075
 30
0.0
 11
980.6439717573
 21
369.5717518075
 31
0.0
  0
LINE
  5
3B4
330
1B
100
AcDbEntity
 67
     1
  8
02___PRT_ALL_AXES
  6
Continuous
 62
     9
100
AcDbLine
 10
980.6439717573
 20
365.6359653698
 30
0.0
 11
1072.6861140054
 21
365.6359653698
 31
0.0
  0
LINE
  5
3B5
330
1B
100
AcDbEntity
 67
     1
  8
7_ALL_FEATURES
  6
Continuous
 62
     9
100
AcDbLine
 10
980.6439717573
 20
388.2001789322
 30
0.0
 11
2992.1439717573
 21
388.2001789322
 31
0.0
  0
LINE
  5
3B6
330
1B
100
AcDbEntity
 67
     1
  8
7_ALL_FEATURES
  6
Continuous
 62
     9
100
AcDbLine
 10
2992.1439717573
 20
393.1359653698
 30
0.0
 11
980.6439717573
 21
393.1359653698
 31
0.0
  0
LINE
  5
3B7
330
1B
100
AcDbEntity
 67
     1
  8
02___PRT_ALL_AXES
  6
Continuous
 62
     9
100
AcDbLine
 10
2992.1439717573
 20
371.4001789322
 30
0.0
 11
1091.0876812425
 21
371.4001789322
 31
0.0
  0
LINE
  5
3B8
330
1B
100
AcDbEntity
 67
     1
  8
02___PRT_ALL_AXES
  6
Continuous
 62
     9
100
AcDbLine
 10
1070.2002622721
 20
371.4001789322
 30
0.0
 11
980.6439717573
 21
371.4001789322
 31
0.0
  0
LINE
  5
3B9
330
1B
100
AcDbEntity
 67
     1
  8
7_ALL_FEATURES
  6
Continuous
 62
     9
100
AcDbLine
 10
980.6439717573
 20
386.3717518075
 30
0.0
 11
2992.1439717573
 21
386.3717518075
 31
0.0
  0
LINE
  5
3BA
330
1B
100
AcDbEntity
 67
     1
  8
7_ALL_FEATURES
  6
Continuous
 62
     9
100
AcDbLine
 10
2992.1439717573
 20
360.3359653698
 30
0.0
 11
980.6439717573
 21
360.3359653698
 31
0.0
  0
LINE
  5
3BB
330
1B
100
AcDbEntity
 67
     1
  8
7_ALL_FEATURES
  6
Continuous
 62
     9
100
AcDbLine
 10
2992.1439717573
 20
358.4859653698
 30
0.0
 11
980.6439717573
 21
358.4859653698
 31
0.0
  0
LINE
  5
3BC
330
1B
100
AcDbEntity
 67
     1
  8
02___PRT_ALL_AXES
  6
Continuous
 62
     9
100
AcDbLine
 10
2992.1439717573
 20
369.5717518075
 30
0.0
 11
1090.7314570392
 21
369.5717518075
 31
0.0
  0
LINE
  5
3BD
330
1B
100
AcDbEntity
 67
     1
  8
02___PRT_ALL_AXES
  6
Continuous
 62
     9
100
AcDbLine
 10
1088.6018295092
 20
365.6359653698
 30
0.0
 11
2992.1439717573
 21
365.6359653698
 31
0.0
  0
LINE
  5
3BE
330
1B
100
AcDbEntity
 67
     1
  8
7_ALL_FEATURES
  6
Continuous
 62
     3
100
AcDbLine
 10
2992.1439717573
 20
357.4859653698
 30
0.0
 11
2992.1439717573
 21
357.5045956029
 31
0.0
  0
LINE
  5
3BF
330
1B
100
AcDbEntity
 67
     1
  8
7_ALL_FEATURES
  6
Continuous
 62
     3
100
AcDbLine
 10
2992.1439717573
 20
357.5045956029
 30
0.0
 11
2992.1439717573
 21
358.2968094391
 31
0.0
  0
LINE
  5
3C0
330
1B
100
AcDbEntity
 67
     1
  8
7_ALL_FEATURES
  6
Continuous
 62
     3
100
AcDbLine
 10
2992.1439717573
 20
358.2968094391
 30
0.0
 11
2992.1439717573
 21
358.4859653698
 31
0.0
  0
LINE
  5
3C1
330
1B
100
AcDbEntity
 67
     1
  8
7_ALL_FEATURES
  6
Continuous
 62
     3
100
AcDbLine
 10
2992.1439717573
 20
427.6762786916
 30
0.0
 11
2992.1439717573
 21
431.6596135475
 31
0.0
  0
LINE
  5
3C2
330
1B
100
AcDbEntity
 67
     1
  8
7_ALL_FEATURES
  6
Continuous
 62
     3
100
AcDbLine
 10
2992.1439717573
 20
425.939796915
 30
0.0
 11
2992.1439717573
 21
426.3759907886
 31
0.0
  0
LINE
  5
3C3
330
1B
100
AcDbEntity
 67
     1
  8
7_ALL_FEATURES
  6
Continuous
 62
     3
100
AcDbLine
 10
2992.1439717573
 20
427.2450588372
 30
0.0
 11
2992.1439717573
 21
427.6762786916
 31
0.0
  0
LINE
  5
3C4
330
1B
100
AcDbEntity
 67
     1
  8
7_ALL_FEATURES
  6
Continuous
 62
     3
100
AcDbLine
 10
2992.1439717573
 20
358.4859653698
 30
0.0
 11
2992.1439717573
 21
360.3359653698
 31
0.0
  0
LINE
  5
3C5
330
1B
100
AcDbEntity
 67
     1
  8
7_ALL_FEATURES
  6
Continuous
 62
     3
100
AcDbLine
 10
2992.1439717573
 20
360.3359653698
 30
0.0
 11
2992.1439717573
 21
360.6359653698
 31
0.0
  0
LINE
  5
3C6
330
1B
100
AcDbEntity
 67
     1
  8
7_ALL_FEATURES
  6
Continuous
 62
     3
100
AcDbLine
 10
2992.1439717573
 20
360.6359653698
 30
0.0
 11
2992.1439717573
 21
365.3359653698
 31
0.0
  0
LINE
  5
3C7
330
1B
100
AcDbEntity
 67
     1
  8
7_ALL_FEATURES
  6
Continuous
 62
     3
100
AcDbLine
 10
2992.1439717573
 20
365.3359653698
 30
0.0
 11
2992.1439717573
 21
365.6359653698
 31
0.0
  0
LINE
  5
3C8
330
1B
100
AcDbEntity
 67
     1
  8
7_ALL_FEATURES
  6
Continuous
 62
     3
100
AcDbLine
 10
2992.1439717573
 20
365.6359653698
 30
0.0
 11
2992.1439717573
 21
369.5717518075
 31
0.0
  0
LINE
  5
3C9
330
1B
100
AcDbEntity
 67
     1
  8
7_ALL_FEATURES
  6
Continuous
 62
     3
100
AcDbLine
 10
2992.1439717573
 20
369.5717518075
 30
0.0
 11
2992.1439717573
 21
370.2788585887
 31
0.0
  0
LINE
  5
3CA
330
1B
100
AcDbEntity
 67
     1
  8
7_ALL_FEATURES
  6
Continuous
 62
     3
100
AcDbLine
 10
2992.1439717573
 20
370.2788585887
 30
0.0
 11
2992.1439717573
 21
387.493072151
 31
0.0
  0
LINE
  5
3CB
330
1B
100
AcDbEntity
 67
     1
  8
7_ALL_FEATURES
  6
Continuous
 62
     3
100
AcDbLine
 10
2992.1439717573
 20
387.493072151
 30
0.0
 11
2992.1439717573
 21
388.2001789322
 31
0.0
  0
LINE
  5
3CC
330
1B
100
AcDbEntity
 67
     1
  8
7_ALL_FEATURES
  6
Continuous
 62
     3
100
AcDbLine
 10
2992.1439717573
 20
388.2001789322
 30
0.0
 11
2992.1439717573
 21
393.1359653698
 31
0.0
  0
LINE
  5
3CD
330
1B
100
AcDbEntity
 67
     1
  8
7_ALL_FEATURES
  6
Continuous
 62
     3
100
AcDbLine
 10
2992.1439717573
 20
393.1359653698
 30
0.0
 11
2992.1439717573
 21
393.4359653698
 31
0.0
  0
LINE
  5
3CE
330
1B
100
AcDbEntity
 67
     1
  8
7_ALL_FEATURES
  6
Continuous
 62
     3
100
AcDbLine
 10
2992.1439717573
 20
393.4359653698
 30
0.0
 11
2992.1439717573
 21
398.1359653698
 31
0.0
  0
LINE
  5
3CF
330
1B
100
AcDbEntity
 67
     1
  8
7_ALL_FEATURES
  6
Continuous
 62
     3
100
AcDbLine
 10
2992.1439717573
 20
398.1359653698
 30
0.0
 11
2992.1439717573
 21
398.4359653698
 31
0.0
  0
LINE
  5
3D0
330
1B
100
AcDbEntity
 67
     1
  8
7_ALL_FEATURES
  6
Continuous
 62
     3
100
AcDbLine
 10
2992.1439717573
 20
398.4359653698
 30
0.0
 11
2992.1439717573
 21
401.1217518075
 31
0.0
  0
LINE
  5
3D1
330
1B
100
AcDbEntity
 67
     1
  8
7_ALL_FEATURES
  6
Continuous
 62
     3
100
AcDbLine
 10
2992.1439717573
 20
401.1217518075
 30
0.0
 11
2992.1439717573
 21
401.8288585887
 31
0.0
  0
LINE
  5
3D2
330
1B
100
AcDbEntity
 67
     1
  8
7_ALL_FEATURES
  6
Continuous
 62
     3
100
AcDbLine
 10
2992.1439717573
 20
401.8288585887
 30
0.0
 11
2992.1439717573
 21
423.193072151
 31
0.0
  0
LINE
  5
3D3
330
1B
100
AcDbEntity
 67
     1
  8
7_ALL_FEATURES
  6
Continuous
 62
     3
100
AcDbLine
 10
2992.1439717573
 20
423.193072151
 30
0.0
 11
2992.1439717573
 21
423.9001789322
 31
0.0
  0
LINE
  5
3D4
330
1B
100
AcDbEntity
 67
     1
  8
7_ALL_FEATURES
  6
Continuous
 62
     3
100
AcDbLine
 10
2992.1439717573
 20
423.9001789322
 30
0.0
 11
2992.1439717573
 21
425.939796915
 31
0.0
  0
LINE
  5
3D5
330
1B
100
AcDbEntity
 67
     1
  8
7_ALL_FEATURES
  6
Continuous
 62
     3
100
AcDbLine
 10
980.6439717573
 20
358.4859653698
 30
0.0
 11
980.6439717573
 21
358.2968094391
 31
0.0
  0
LINE
  5
3D6
330
1B
100
AcDbEntity
 67
     1
  8
7_ALL_FEATURES
  6
Continuous
 62
     3
100
AcDbLine
 10
980.6439717573
 20
358.2968094391
 30
0.0
 11
980.6439717573
 21
357.4859653698
 31
0.0
  0
LINE
  5
3D7
330
1B
100
AcDbEntity
 67
     1
  8
7_ALL_FEATURES
  6
Continuous
 62
     3
100
AcDbLine
 10
980.6439717573
 20
425.939796915
 30
0.0
 11
980.6439717573
 21
423.9001789322
 31
0.0
  0
LINE
  5
3D8
330
1B
100
AcDbEntity
 67
     1
  8
7_ALL_FEATURES
  6
Continuous
 62
     3
100
AcDbLine
 10
980.6439717573
 20
423.9001789322
 30
0.0
 11
980.6439717573
 21
423.193072151
 31
0.0
  0
LINE
  5
3D9
330
1B
100
AcDbEntity
 67
     1
  8
7_ALL_FEATURES
  6
Continuous
 62
     3
100
AcDbLine
 10
980.6439717573
 20
423.193072151
 30
0.0
 11
980.6439717573
 21
401.8288585887
 31
0.0
  0
LINE
  5
3DA
330
1B
100
AcDbEntity
 67
     1
  8
7_ALL_FEATURES
  6
Continuous
 62
     3
100
AcDbLine
 10
980.6439717573
 20
401.8288585887
 30
0.0
 11
980.6439717573
 21
401.1217518075
 31
0.0
  0
LINE
  5
3DB
330
1B
100
AcDbEntity
 67
     1
  8
7_ALL_FEATURES
  6
Continuous
 62
     3
100
AcDbLine
 10
980.6439717573
 20
401.1217518075
 30
0.0
 11
980.6439717573
 21
398.4359653698
 31
0.0
  0
LINE
  5
3DC
330
1B
100
AcDbEntity
 67
     1
  8
7_ALL_FEATURES
  6
Continuous
 62
     3
100
AcDbLine
 10
980.6439717573
 20
398.4359653698
 30
0.0
 11
980.6439717573
 21
398.1359653698
 31
0.0
  0
LINE
  5
3DD
330
1B
100
AcDbEntity
 67
     1
  8
7_ALL_FEATURES
  6
Continuous
 62
     3
100
AcDbLine
 10
980.6439717573
 20
398.1359653698
 30
0.0
 11
980.6439717573
 21
393.4359653698
 31
0.0
  0
LINE
  5
3DE
330
1B
100
AcDbEntity
 67
     1
  8
7_ALL_FEATURES
  6
Continuous
 62
     3
100
AcDbLine
 10
980.6439717573
 20
393.4359653698
 30
0.0
 11
980.6439717573
 21
393.1359653698
 31
0.0
  0
LINE
  5
3DF
330
1B
100
AcDbEntity
 67
     1
  8
7_ALL_FEATURES
  6
Continuous
 62
     3
100
AcDbLine
 10
980.6439717573
 20
393.1359653698
 30
0.0
 11
980.6439717573
 21
388.2001789322
 31
0.0
  0
LINE
  5
3E0
330
1B
100
AcDbEntity
 67
     1
  8
7_ALL_FEATURES
  6
Continuous
 62
     3
100
AcDbLine
 10
980.6439717573
 20
388.2001789322
 30
0.0
 11
980.6439717573
 21
387.493072151
 31
0.0
  0
LINE
  5
3E1
330
1B
100
AcDbEntity
 67
     1
  8
7_ALL_FEATURES
  6
Continuous
 62
     3
100
AcDbLine
 10
980.6439717573
 20
387.493072151
 30
0.0
 11
980.6439717573
 21
370.2788585887
 31
0.0
  0
LINE
  5
3E2
330
1B
100
AcDbEntity
 67
     1
  8
7_ALL_FEATURES
  6
Continuous
 62
     3
100
AcDbLine
 10
980.6439717573
 20
370.2788585887
 30
0.0
 11
980.6439717573
 21
369.5717518075
 31
0.0
  0
LINE
  5
3E3
330
1B
100
AcDbEntity
 67
     1
  8
7_ALL_FEATURES
  6
Continuous
 62
     3
100
AcDbLine
 10
980.6439717573
 20
369.5717518075
 30
0.0
 11
980.6439717573
 21
365.6359653698
 31
0.0
  0
LINE
  5
3E4
330
1B
100
AcDbEntity
 67
     1
  8
7_ALL_FEATURES
  6
Continuous
 62
     3
100
AcDbLine
 10
980.6439717573
 20
365.6359653698
 30
0.0
 11
980.6439717573
 21
365.3359653698
 31
0.0
  0
LINE
  5
3E5
330
1B
100
AcDbEntity
 67
     1
  8
7_ALL_FEATURES
  6
Continuous
 62
     3
100
AcDbLine
 10
980.6439717573
 20
365.3359653698
 30
0.0
 11
980.6439717573
 21
360.6359653698
 31
0.0
  0
LINE
  5
3E6
330
1B
100
AcDbEntity
 67
     1
  8
7_ALL_FEATURES
  6
Continuous
 62
     3
100
AcDbLine
 10
980.6439717573
 20
360.6359653698
 30
0.0
 11
980.6439717573
 21
360.3359653698
 31
0.0
  0
LINE
  5
3E7
330
1B
100
AcDbEntity
 67
     1
  8
7_ALL_FEATURES
  6
Continuous
 62
     3
100
AcDbLine
 10
980.6439717573
 20
360.3359653698
 30
0.0
 11
980.6439717573
 21
358.4859653698
 31
0.0
  0
LINE
  5
3E8
330
1B
100
AcDbEntity
 67
     1
  8
7_ALL_FEATURES
  6
Continuous
 62
     3
100
AcDbLine
 10
980.6439717573
 20
427.6762786916
 30
0.0
 11
980.6439717573
 21
427.2454811209
 31
0.0
  0
LINE
  5
3E9
330
1B
100
AcDbEntity
 67
     1
  8
7_ALL_FEATURES
  6
Continuous
 62
     3
100
AcDbLine
 10
980.6439717573
 20
426.3759907886
 30
0.0
 11
980.6439717573
 21
425.939796915
 31
0.0
  0
LINE
  5
3EA
330
1B
100
AcDbEntity
 67
     1
  8
7_ALL_FEATURES
  6
Continuous
 62
     3
100
AcDbLine
 10
980.6439717573
 20
431.6596135475
 30
0.0
 11
980.6439717573
 21
427.6762786916
 31
0.0
  0
ARC
  5
3EB
330
1B
100
AcDbEntity
 67
     1
  8
3_ALL_AXES
  6
Continuous
 62
     7
100
AcDbCircle
 10
3121.1661484427
 20
388.8859653698
 30
0.0
 40
2.75
100
AcDbArc
 50
180.0
 51
360.0
  0
LINE
  5
3EC
330
1B
100
AcDbEntity
 67
     1
  8
7_ALL_FEATURES
  6
Continuous
 62
     7
100
AcDbLine
 10
3119.9161484427
 20
388.5109653698
 30
0.0
 11
3119.9161484427
 21
389.2609653698
 31
0.0
  0
LINE
  5
3ED
330
1B
100
AcDbEntity
 67
     1
  8
7_ALL_FEATURES
  6
Continuous
 62
     7
100
AcDbLine
 10
3121.5411484427
 20
387.6359653698
 30
0.0
 11
3120.7911484427
 21
387.6359653698
 31
0.0
  0
LINE
  5
3EE
330
1B
100
AcDbEntity
 67
     1
  8
7_ALL_FEATURES
  6
Continuous
 62
     7
100
AcDbLine
 10
3122.4161484427
 20
389.2609653698
 30
0.0
 11
3122.4161484427
 21
388.5109653698
 31
0.0
  0
LINE
  5
3EF
330
1B
100
AcDbEntity
 67
     1
  8
7_ALL_FEATURES
  6
Continuous
 62
     7
100
AcDbLine
 10
3120.7911484427
 20
390.1359653698
 30
0.0
 11
3121.5411484427
 21
390.1359653698
 31
0.0
  0
LINE
  5
3F0
330
1B
100
AcDbEntity
 67
     1
  8
7_ALL_FEATURES
  6
Continuous
 62
     7
100
AcDbLine
 10
3121.5411484427
 20
387.6359653698
 30
0.0
 11
3121.5411484427
 21
388.5109653698
 31
0.0
  0
LINE
  5
3F1
330
1B
100
AcDbEntity
 67
     1
  8
7_ALL_FEATURES
  6
Continuous
 62
     7
100
AcDbLine
 10
3121.5411484427
 20
388.5109653698
 30
0.0
 11
3122.4161484427
 21
388.5109653698
 31
0.0
  0
LINE
  5
3F2
330
1B
100
AcDbEntity
 67
     1
  8
7_ALL_FEATURES
  6
Continuous
 62
     7
100
AcDbLine
 10
3122.4161484427
 20
389.2609653698
 30
0.0
 11
3121.5411484427
 21
389.2609653698
 31
0.0
  0
LINE
  5
3F3
330
1B
100
AcDbEntity
 67
     1
  8
7_ALL_FEATURES
  6
Continuous
 62
     7
100
AcDbLine
 10
3121.5411484427
 20
389.2609653698
 30
0.0
 11
3121.5411484427
 21
390.1359653698
 31
0.0
  0
LINE
  5
3F4
330
1B
100
AcDbEntity
 67
     1
  8
7_ALL_FEATURES
  6
Continuous
 62
     7
100
AcDbLine
 10
3120.7911484427
 20
390.1359653698
 30
0.0
 11
3120.7911484427
 21
389.2609653698
 31
0.0
  0
LINE
  5
3F5
330
1B
100
AcDbEntity
 67
     1
  8
7_ALL_FEATURES
  6
Continuous
 62
     7
100
AcDbLine
 10
3120.7911484427
 20
389.2609653698
 30
0.0
 11
3119.9161484427
 21
389.2609653698
 31
0.0
  0
LINE
  5
3F6
330
1B
100
AcDbEntity
 67
     1
  8
7_ALL_FEATURES
  6
Continuous
 62
     7
100
AcDbLine
 10
3119.9161484427
 20
388.5109653698
 30
0.0
 11
3120.7911484427
 21
388.5109653698
 31
0.0
  0
LINE
  5
3F7
330
1B
100
AcDbEntity
 67
     1
  8
7_ALL_FEATURES
  6
Continuous
 62
     7
100
AcDbLine
 10
3120.7911484427
 20
388.5109653698
 30
0.0
 11
3120.7911484427
 21
387.6359653698
 31
0.0
  0
ARC
  5
3F8
330
1B
100
AcDbEntity
 67
     1
  8
3_ALL_AXES
  6
Continuous
 62
     7
100
AcDbCircle
 10
3121.1661484427
 20
388.8859653698
 30
0.0
 40
2.75
100
AcDbArc
 50
0.0
 51
180.0
  0
ARC
  5
3F9
330
1B
100
AcDbEntity
 67
     1
  8
3_ALL_AXES
  6
Continuous
 62
     7
100
AcDbCircle
 10
3100.4661484427
 20
388.8859653698
 30
0.0
 40
2.75
100
AcDbArc
 50
180.0
 51
360.0
  0
LINE
  5
3FA
330
1B
100
AcDbEntity
 67
     1
  8
7_ALL_FEATURES
  6
Continuous
 62
     7
100
AcDbLine
 10
3099.2161484427
 20
388.5109653698
 30
0.0
 11
3099.2161484427
 21
389.2609653698
 31
0.0
  0
LINE
  5
3FB
330
1B
100
AcDbEntity
 67
     1
  8
7_ALL_FEATURES
  6
Continuous
 62
     7
100
AcDbLine
 10
3100.8411484427
 20
387.6359653698
 30
0.0
 11
3100.0911484427
 21
387.6359653698
 31
0.0
  0
LINE
  5
3FC
330
1B
100
AcDbEntity
 67
     1
  8
7_ALL_FEATURES
  6
Continuous
 62
     7
100
AcDbLine
 10
3101.7161484427
 20
389.2609653698
 30
0.0
 11
3101.7161484427
 21
388.5109653698
 31
0.0
  0
LINE
  5
3FD
330
1B
100
AcDbEntity
 67
     1
  8
7_ALL_FEATURES
  6
Continuous
 62
     7
100
AcDbLine
 10
3100.0911484427
 20
390.1359653698
 30
0.0
 11
3100.8411484427
 21
390.1359653698
 31
0.0
  0
LINE
  5
3FE
330
1B
100
AcDbEntity
 67
     1
  8
7_ALL_FEATURES
  6
Continuous
 62
     7
100
AcDbLine
 10
3100.8411484427
 20
387.6359653698
 30
0.0
 11
3100.8411484427
 21
388.5109653698
 31
0.0
  0
LINE
  5
3FF
330
1B
100
AcDbEntity
 67
     1
  8
7_ALL_FEATURES
  6
Continuous
 62
     7
100
AcDbLine
 10
3100.8411484427
 20
388.5109653698
 30
0.0
 11
3101.7161484427
 21
388.5109653698
 31
0.0
  0
LINE
  5
400
330
1B
100
AcDbEntity
 67
     1
  8
7_ALL_FEATURES
  6
Continuous
 62
     7
100
AcDbLine
 10
3101.7161484427
 20
389.2609653698
 30
0.0
 11
3100.8411484427
 21
389.2609653698
 31
0.0
  0
LINE
  5
401
330
1B
100
AcDbEntity
 67
     1
  8
7_ALL_FEATURES
  6
Continuous
 62
     7
100
AcDbLine
 10
3100.8411484427
 20
389.2609653698
 30
0.0
 11
3100.8411484427
 21
390.1359653698
 31
0.0
  0
LINE
  5
402
330
1B
100
AcDbEntity
 67
     1
  8
7_ALL_FEATURES
  6
Continuous
 62
     7
100
AcDbLine
 10
3100.0911484427
 20
390.1359653698
 30
0.0
 11
3100.0911484427
 21
389.2609653698
 31
0.0
  0
LINE
  5
403
330
1B
100
AcDbEntity
 67
     1
  8
7_ALL_FEATURES
  6
Continuous
 62
     7
100
AcDbLine
 10
3100.0911484427
 20
389.2609653698
 30
0.0
 11
3099.2161484427
 21
389.2609653698
 31
0.0
  0
LINE
  5
404
330
1B
100
AcDbEntity
 67
     1
  8
7_ALL_FEATURES
  6
Continuous
 62
     7
100
AcDbLine
 10
3099.2161484427
 20
388.5109653698
 30
0.0
 11
3100.0911484427
 21
388.5109653698
 31
0.0
  0
LINE
  5
405
330
1B
100
AcDbEntity
 67
     1
  8
7_ALL_FEATURES
  6
Continuous
 62
     7
100
AcDbLine
 10
3100.0911484427
 20
388.5109653698
 30
0.0
 11
3100.0911484427
 21
387.6359653698
 31
0.0
  0
ARC
  5
406
330
1B
100
AcDbEntity
 67
     1
  8
3_ALL_AXES
  6
Continuous
 62
     7
100
AcDbCircle
 10
3100.4661484427
 20
388.8859653698
 30
0.0
 40
2.75
100
AcDbArc
 50
0.0
 51
180.0
  0
ARC
  5
407
330
1B
100
AcDbEntity
 67
     1
  8
3_ALL_AXES
  6
Continuous
 62
     7
100
AcDbCircle
 10
3121.1661484427
 20
369.1859653698
 30
0.0
 40
2.75
100
AcDbArc
 50
180.0
 51
360.0
  0
LINE
  5
408
330
1B
100
AcDbEntity
 67
     1
  8
7_ALL_FEATURES
  6
Continuous
 62
     7
100
AcDbLine
 10
3119.9161484427
 20
368.8109653698
 30
0.0
 11
3119.9161484427
 21
369.5609653698
 31
0.0
  0
LINE
  5
409
330
1B
100
AcDbEntity
 67
     1
  8
7_ALL_FEATURES
  6
Continuous
 62
     7
100
AcDbLine
 10
3121.5411484427
 20
367.9359653698
 30
0.0
 11
3120.7911484427
 21
367.9359653698
 31
0.0
  0
LINE
  5
40A
330
1B
100
AcDbEntity
 67
     1
  8
7_ALL_FEATURES
  6
Continuous
 62
     7
100
AcDbLine
 10
3122.4161484427
 20
369.5609653698
 30
0.0
 11
3122.4161484427
 21
368.8109653698
 31
0.0
  0
LINE
  5
40B
330
1B
100
AcDbEntity
 67
     1
  8
7_ALL_FEATURES
  6
Continuous
 62
     7
100
AcDbLine
 10
3120.7911484427
 20
370.4359653698
 30
0.0
 11
3121.5411484427
 21
370.4359653698
 31
0.0
  0
LINE
  5
40C
330
1B
100
AcDbEntity
 67
     1
  8
7_ALL_FEATURES
  6
Continuous
 62
     7
100
AcDbLine
 10
3121.5411484427
 20
367.9359653698
 30
0.0
 11
3121.5411484427
 21
368.8109653698
 31
0.0
  0
LINE
  5
40D
330
1B
100
AcDbEntity
 67
     1
  8
7_ALL_FEATURES
  6
Continuous
 62
     7
100
AcDbLine
 10
3121.5411484427
 20
368.8109653698
 30
0.0
 11
3122.4161484427
 21
368.8109653698
 31
0.0
  0
LINE
  5
40E
330
1B
100
AcDbEntity
 67
     1
  8
7_ALL_FEATURES
  6
Continuous
 62
     7
100
AcDbLine
 10
3122.4161484427
 20
369.5609653698
 30
0.0
 11
3121.5411484427
 21
369.5609653698
 31
0.0
  0
LINE
  5
40F
330
1B
100
AcDbEntity
 67
     1
  8
7_ALL_FEATURES
  6
Continuous
 62
     7
100
AcDbLine
 10
3121.5411484427
 20
369.5609653698
 30
0.0
 11
3121.5411484427
 21
370.4359653698
 31
0.0
  0
LINE
  5
410
330
1B
100
AcDbEntity
 67
     1
  8
7_ALL_FEATURES
  6
Continuous
 62
     7
100
AcDbLine
 10
3120.7911484427
 20
370.4359653698
 30
0.0
 11
3120.7911484427
 21
369.5609653698
 31
0.0
  0
LINE
  5
411
330
1B
100
AcDbEntity
 67
     1
  8
7_ALL_FEATURES
  6
Continuous
 62
     7
100
AcDbLine
 10
3120.7911484427
 20
369.5609653698
 30
0.0
 11
3119.9161484427
 21
369.5609653698
 31
0.0
  0
LINE
  5
412
330
1B
100
AcDbEntity
 67
     1
  8
7_ALL_FEATURES
  6
Continuous
 62
     7
100
AcDbLine
 10
3119.9161484427
 20
368.8109653698
 30
0.0
 11
3120.7911484427
 21
368.8109653698
 31
0.0
  0
LINE
  5
413
330
1B
100
AcDbEntity
 67
     1
  8
7_ALL_FEATURES
  6
Continuous
 62
     7
100
AcDbLine
 10
3120.7911484427
 20
368.8109653698
 30
0.0
 11
3120.7911484427
 21
367.9359653698
 31
0.0
  0
ARC
  5
414
330
1B
100
AcDbEntity
 67
     1
  8
3_ALL_AXES
  6
Continuous
 62
     7
100
AcDbCircle
 10
3121.1661484427
 20
369.1859653698
 30
0.0
 40
2.75
100
AcDbArc
 50
0.0
 51
180.0
  0
ARC
  5
415
330
1B
100
AcDbEntity
 67
     1
  8
3_ALL_AXES
  6
Continuous
 62
     7
100
AcDbCircle
 10
3100.4661484427
 20
369.1859653698
 30
0.0
 40
2.75
100
AcDbArc
 50
180.0
 51
360.0
  0
LINE
  5
416
330
1B
100
AcDbEntity
 67
     1
  8
7_ALL_FEATURES
  6
Continuous
 62
     7
100
AcDbLine
 10
3099.2161484427
 20
368.8109653698
 30
0.0
 11
3099.2161484427
 21
369.5609653698
 31
0.0
  0
LINE
  5
417
330
1B
100
AcDbEntity
 67
     1
  8
7_ALL_FEATURES
  6
Continuous
 62
     7
100
AcDbLine
 10
3100.8411484427
 20
367.9359653698
 30
0.0
 11
3100.0911484427
 21
367.9359653698
 31
0.0
  0
LINE
  5
418
330
1B
100
AcDbEntity
 67
     1
  8
7_ALL_FEATURES
  6
Continuous
 62
     7
100
AcDbLine
 10
3101.7161484427
 20
369.5609653698
 30
0.0
 11
3101.7161484427
 21
368.8109653698
 31
0.0
  0
LINE
  5
419
330
1B
100
AcDbEntity
 67
     1
  8
7_ALL_FEATURES
  6
Continuous
 62
     7
100
AcDbLine
 10
3100.0911484427
 20
370.4359653698
 30
0.0
 11
3100.8411484427
 21
370.4359653698
 31
0.0
  0
LINE
  5
41A
330
1B
100
AcDbEntity
 67
     1
  8
7_ALL_FEATURES
  6
Continuous
 62
     7
100
AcDbLine
 10
3100.8411484427
 20
367.9359653698
 30
0.0
 11
3100.8411484427
 21
368.8109653698
 31
0.0
  0
LINE
  5
41B
330
1B
100
AcDbEntity
 67
     1
  8
7_ALL_FEATURES
  6
Continuous
 62
     7
100
AcDbLine
 10
3100.8411484427
 20
368.8109653698
 30
0.0
 11
3101.7161484427
 21
368.8109653698
 31
0.0
  0
LINE
  5
41C
330
1B
100
AcDbEntity
 67
     1
  8
7_ALL_FEATURES
  6
Continuous
 62
     7
100
AcDbLine
 10
3101.7161484427
 20
369.5609653698
 30
0.0
 11
3100.8411484427
 21
369.5609653698
 31
0.0
  0
LINE
  5
41D
330
1B
100
AcDbEntity
 67
     1
  8
7_ALL_FEATURES
  6
Continuous
 62
     7
100
AcDbLine
 10
3100.8411484427
 20
369.5609653698
 30
0.0
 11
3100.8411484427
 21
370.4359653698
 31
0.0
  0
LINE
  5
41E
330
1B
100
AcDbEntity
 67
     1
  8
7_ALL_FEATURES
  6
Continuous
 62
     7
100
AcDbLine
 10
3100.0911484427
 20
370.4359653698
 30
0.0
 11
3100.0911484427
 21
369.5609653698
 31
0.0
  0
LINE
  5
41F
330
1B
100
AcDbEntity
 67
     1
  8
7_ALL_FEATURES
  6
Continuous
 62
     7
100
AcDbLine
 10
3100.0911484427
 20
369.5609653698
 30
0.0
 11
3099.2161484427
 21
369.5609653698
 31
0.0
  0
LINE
  5
420
330
1B
100
AcDbEntity
 67
     1
  8
7_ALL_FEATURES
  6
Continuous
 62
     7
100
AcDbLine
 10
3099.2161484427
 20
368.8109653698
 30
0.0
 11
3100.0911484427
 21
368.8109653698
 31
0.0
  0
LINE
  5
421
330
1B
100
AcDbEntity
 67
     1
  8
7_ALL_FEATURES
  6
Continuous
 62
     7
100
AcDbLine
 10
3100.0911484427
 20
368.8109653698
 30
0.0
 11
3100.0911484427
 21
367.9359653698
 31
0.0
  0
ARC
  5
422
330
1B
100
AcDbEntity
 67
     1
  8
3_ALL_AXES
  6
Continuous
 62
     7
100
AcDbCircle
 10
3100.4661484427
 20
369.1859653698
 30
0.0
 40
2.75
100
AcDbArc
 50
0.0
 51
180.0
  0
LINE
  5
423
330
1B
100
AcDbEntity
 67
     1
  8
7_ALL_FEATURES
  6
Continuous
 62
     7
100
AcDbLine
 10
3122.6161484427
 20
357.4859653698
 30
0.0
 11
3113.0522164202
 21
357.4859653698
 31
0.0
  0
ARC
  5
424
330
1B
100
AcDbEntity
 67
     1
  8
7_ALL_FEATURES
  6
Continuous
 62
     7
100
AcDbCircle
 10
3122.6161484427
 20
358.4859653698
 30
0.0
 40
1.0
100
AcDbArc
 50
270.0
 51
360.0
  0
LINE
  5
425
330
1B
100
AcDbEntity
 67
     1
  8
7_ALL_FEATURES
  6
Continuous
 62
     7
100
AcDbLine
 10
3123.6161484427
 20
425.939796915
 30
0.0
 11
3123.6161484427
 21
390.123128342
 31
0.0
  0
LINE
  5
426
330
1B
100
AcDbEntity
 67
     1
  8
7_ALL_FEATURES
  6
Continuous
 62
     7
100
AcDbLine
 10
3123.6161484427
 20
387.6488023977
 30
0.0
 11
3123.6161484427
 21
370.423128342
 31
0.0
  0
LINE
  5
427
330
1B
100
AcDbEntity
 67
     1
  8
7_ALL_FEATURES
  6
Continuous
 62
     7
100
AcDbLine
 10
3123.6161484427
 20
367.9488023977
 30
0.0
 11
3123.6161484427
 21
358.4859653698
 31
0.0
  0
ARC
  5
428
330
1B
100
AcDbEntity
 67
     1
  8
7_ALL_FEATURES
  6
Continuous
 62
     7
100
AcDbCircle
 10
3113.6161484427
 20
425.939796915
 30
0.0
 40
10.0
100
AcDbArc
 50
0.0
 51
10.0
  0
LINE
  5
429
330
1B
100
AcDbEntity
 67
     1
  8
7_ALL_FEATURES
  6
Continuous
 62
     7
100
AcDbLine
 10
3122.7618565645
 20
431.6596135475
 30
0.0
 11
3123.4642259728
 21
427.6762786916
 31
0.0
  0
ARC
  5
42A
330
1B
100
AcDbEntity
 67
     1
  8
7_ALL_FEATURES
  6
Continuous
 62
     7
100
AcDbCircle
 10
3121.7770488115
 20
431.4859653698
 30
0.0
 40
1.0
100
AcDbArc
 50
10.0
 51
90.0
  0
LINE
  5
42B
330
1B
100
AcDbEntity
 67
     1
  8
7_ALL_FEATURES
  6
Continuous
 62
     7
100
AcDbLine
 10
3099.8552480739
 20
432.4859653698
 30
0.0
 11
3121.7770488115
 21
432.4859653698
 31
0.0
  0
ARC
  5
42C
330
1B
100
AcDbEntity
 67
     1
  8
7_ALL_FEATURES
  6
Continuous
 62
     7
100
AcDbCircle
 10
3099.8552480739
 20
431.4859653698
 30
0.0
 40
1.0
100
AcDbArc
 50
90.0
 51
170.0
  0
LINE
  5
42D
330
1B
100
AcDbEntity
 67
     1
  8
7_ALL_FEATURES
  6
Continuous
 62
     7
100
AcDbLine
 10
3098.1680709126
 20
427.6762786916
 30
0.0
 11
3098.8704403209
 21
431.6596135475
 31
0.0
  0
ARC
  5
42E
330
1B
100
AcDbEntity
 67
     1
  8
7_ALL_FEATURES
  6
Continuous
 62
     7
100
AcDbCircle
 10
3108.0161484427
 20
425.939796915
 30
0.0
 40
10.0
100
AcDbArc
 50
170.0
 51
180.0
  0
LINE
  5
42F
330
1B
100
AcDbEntity
 67
     1
  8
7_ALL_FEATURES
  6
Continuous
 62
     7
100
AcDbLine
 10
3098.0161484427
 20
358.4859653698
 30
0.0
 11
3098.0161484427
 21
367.9488023977
 31
0.0
  0
LINE
  5
430
330
1B
100
AcDbEntity
 67
     1
  8
7_ALL_FEATURES
  6
Continuous
 62
     7
100
AcDbLine
 10
3098.0161484427
 20
370.423128342
 30
0.0
 11
3098.0161484427
 21
387.6488023977
 31
0.0
  0
LINE
  5
431
330
1B
100
AcDbEntity
 67
     1
  8
7_ALL_FEATURES
  6
Continuous
 62
     7
100
AcDbLine
 10
3098.0161484427
 20
390.123128342
 30
0.0
 11
3098.0161484427
 21
425.939796915
 31
0.0
  0
ARC
  5
432
330
1B
100
AcDbEntity
 67
     1
  8
7_ALL_FEATURES
  6
Continuous
 62
     7
100
AcDbCircle
 10
3099.0161484427
 20
358.4859653698
 30
0.0
 40
1.0
100
AcDbArc
 50
180.0
 51
270.0
  0
LINE
  5
433
330
1B
100
AcDbEntity
 67
     1
  8
7_ALL_FEATURES
  6
Continuous
 62
     7
100
AcDbLine
 10
3108.5800804652
 20
357.4859653698
 30
0.0
 11
3099.0161484427
 21
357.4859653698
 31
0.0
  0
ARC
  5
434
330
1B
100
AcDbEntity
 67
     1
  8
7_ALL_FEATURES
  6
Continuous
 62
     7
100
AcDbCircle
 10
3108.5800804652
 20
358.4859653698
 30
0.0
 40
1.0
100
AcDbArc
 50
270.0
 51
318.1896851042
  0
ARC
  5
435
330
1B
100
AcDbEntity
 67
     1
  8
7_ALL_FEATURES
  6
Continuous
 62
     7
100
AcDbCircle
 10
3110.8161484427
 20
356.4859653698
 30
0.0
 40
2.0
100
AcDbArc
 50
41.81031489579999
 51
138.1896851042
  0
ARC
  5
436
330
1B
100
AcDbEntity
 67
     1
  8
7_ALL_FEATURES
  6
Continuous
 62
     7
100
AcDbCircle
 10
3113.0522164202
 20
358.4859653698
 30
0.0
 40
1.0
100
AcDbArc
 50
221.8103148957
 51
270.0
  0
ARC
  5
437
330
1B
100
AcDbEntity
 67
     1
  8
02___PRT_ALL_AXES
  6
Continuous
 62
     7
100
AcDbCircle
 10
3110.8161484427
 20
379.4859653698
 30
0.0
 40
9.5
100
AcDbArc
 50
182.0
 51
358.0
  0
LINE
  5
438
330
1B
100
AcDbEntity
 67
     1
  8
02___PRT_ALL_AXES
  6
Continuous
 62
     7
100
AcDbLine
 10
3120.8100567129
 20
379.1369704028
 30
0.0
 11
3120.3103612994
 21
379.1544201512
 31
0.0
  0
ARC
  5
439
330
1B
100
AcDbEntity
 67
     1
  8
02___PRT_ALL_AXES
  6
Continuous
 62
     7
100
AcDbCircle
 10
3110.8161484427
 20
379.4859653698
 30
0.0
 40
10.0
100
AcDbArc
 50
182.0
 51
358.0
  0
LINE
  5
43A
330
1B
100
AcDbEntity
 67
     1
  8
02___PRT_ALL_AXES
  6
Continuous
 62
     7
100
AcDbLine
 10
3101.321935586
 20
379.1544201512
 30
0.0
 11
3100.8222401725
 21
379.1369704028
 31
0.0
  0
LINE
  5
43B
330
1B
100
AcDbEntity
 67
     1
  8
02___PRT_ALL_AXES
  6
Continuous
 62
     7
100
AcDbLine
 10
3100.8222401725
 20
379.8349603369
 30
0.0
 11
3101.321935586
 21
379.8175105885
 31
0.0
  0
ARC
  5
43C
330
1B
100
AcDbEntity
 67
     1
  8
02___PRT_ALL_AXES
  6
Continuous
 62
     7
100
AcDbCircle
 10
3110.8161484427
 20
379.4859653698
 30
0.0
 40
10.0
100
AcDbArc
 50
2.0
 51
178.0
  0
LINE
  5
43D
330
1B
100
AcDbEntity
 67
     1
  8
02___PRT_ALL_AXES
  6
Continuous
 62
     7
100
AcDbLine
 10
3120.3103612994
 20
379.8175105885
 30
0.0
 11
3120.8100567129
 21
379.8349603369
 31
0.0
  0
ARC
  5
43E
330
1B
100
AcDbEntity
 67
     1
  8
02___PRT_ALL_AXES
  6
Continuous
 62
     7
100
AcDbCircle
 10
3110.8161484427
 20
379.4859653698
 30
0.0
 40
9.5
100
AcDbArc
 50
2.0
 51
178.0
  0
LINE
  5
43F
330
1B
100
AcDbEntity
 67
     1
  8
7_ALL_FEATURES
  6
Continuous
 62
     7
100
AcDbLine
 10
3121.7770488115
 20
432.4859653698
 30
0.0
 11
3122.3644185533
 21
432.4859653698
 31
0.0
  0
ARC
  5
440
330
1B
100
AcDbEntity
 67
     1
  8
7_ALL_FEATURES
  6
Continuous
 62
     7
100
AcDbCircle
 10
3122.3644185533
 20
432.1859653698
 30
0.0
 40
0.3
100
AcDbArc
 50
10.0
 51
90.0
  0
LINE
  5
441
330
1B
100
AcDbEntity
 67
     1
  8
7_ALL_FEATURES
  6
Continuous
 62
     7
100
AcDbLine
 10
3122.6598608792
 20
432.2380598231
 30
0.0
 11
3122.7618565645
 21
431.6596135475
 31
0.0
  0
LINE
  5
442
330
1B
100
AcDbEntity
 67
     1
  8
7_ALL_FEATURES
  6
Continuous
 62
     7
100
AcDbLine
 10
3123.4642259728
 20
427.6762786916
 30
0.0
 11
3123.5401872077
 21
427.2454811209
 31
0.0
  0
ARC
  5
443
330
1B
100
AcDbEntity
 67
     1
  8
7_ALL_FEATURES
  6
Continuous
 62
     7
100
AcDbCircle
 10
3118.6161484427
 20
426.3772402326
 30
0.0
 40
5.0
100
AcDbArc
 50
0.0
 51
10.0
  0
LINE
  5
444
330
1B
100
AcDbEntity
 67
     1
  8
7_ALL_FEATURES
  6
Continuous
 62
     7
100
AcDbLine
 10
3123.6161484427
 20
426.3772402326
 30
0.0
 11
3123.6161484427
 21
425.939796915
 31
0.0
  0
LINE
  5
445
330
1B
100
AcDbEntity
 67
     1
  8
7_ALL_FEATURES
  6
Continuous
 62
     7
100
AcDbLine
 10
3113.0522164202
 20
357.4859653698
 30
0.0
 11
3108.5800804652
 21
357.4859653698
 31
0.0
  0
LINE
  5
446
330
1B
100
AcDbEntity
 67
     1
  8
7_ALL_FEATURES
  6
Continuous
 62
     7
100
AcDbLine
 10
3098.0161484427
 20
425.939796915
 30
0.0
 11
3098.0161484427
 21
426.3772402326
 31
0.0
  0
ARC
  5
447
330
1B
100
AcDbEntity
 67
     1
  8
7_ALL_FEATURES
  6
Continuous
 62
     7
100
AcDbCircle
 10
3103.0161484427
 20
426.3772402326
 30
0.0
 40
5.0
100
AcDbArc
 50
170.0
 51
180.0
  0
LINE
  5
448
330
1B
100
AcDbEntity
 67
     1
  8
7_ALL_FEATURES
  6
Continuous
 62
     7
100
AcDbLine
 10
3098.0921096776
 20
427.2454811209
 30
0.0
 11
3098.1680709126
 21
427.6762786916
 31
0.0
  0
LINE
  5
449
330
1B
100
AcDbEntity
 67
     1
  8
7_ALL_FEATURES
  6
Continuous
 62
     7
100
AcDbLine
 10
3098.8704403208
 20
431.6596135475
 30
0.0
 11
3098.9724360061
 21
432.2380598231
 31
0.0
  0
ARC
  5
44A
330
1B
100
AcDbEntity
 67
     1
  8
7_ALL_FEATURES
  6
Continuous
 62
     7
100
AcDbCircle
 10
3099.267878332
 20
432.1859653698
 30
0.0
 40
0.3
100
AcDbArc
 50
90.0
 51
170.0
  0
LINE
  5
44B
330
1B
100
AcDbEntity
 67
     1
  8
7_ALL_FEATURES
  6
Continuous
 62
     7
100
AcDbLine
 10
3099.267878332
 20
432.4859653698
 30
0.0
 11
3099.8552480739
 21
432.4859653698
 31
0.0
  0
DIMENSION
  5
44C
330
1B
100
AcDbEntity
 67
     1
  8
0
  6
Continuous
 62
     2
100
AcDbDimension
280
     0
  2
*D1
 10
979.1439717573
 20
449.8058613305
 30
0.0
 11
1985.9653320312
 21
449.8058613305
 31
0.0
 70
   160
 71
     5
 42
-1.0
 73
     0
 74
     0
 75
     0
  3
DIMSTYLE_1
100
AcDbAlignedDimension
 13
2993.6439717573
 23
442.6026921161
 33
0.0
 14
979.1439717573
 24
442.3976070097
 34
0.0
 50
180.0
100
AcDbRotatedDimension
  0
DIMENSION
  5
44D
330
1B
100
AcDbEntity
 67
     1
  8
0
  6
Continuous
 62
     2
100
AcDbDimension
280
     0
  2
*D2
 10
3144.7840162557
 20
357.4859653698
 30
0.0
 11
3144.7840162557
 21
394.5574178642
 31
0.0
 70
   160
 71
     5
 42
-1.0
 73
     0
 74
     0
 75
     0
  3
DIMSTYLE_2
100
AcDbAlignedDimension
 13
3138.0487921441
 23
432.4859653698
 33
0.0
 14
3137.9252585271
 24
357.4859653698
 34
0.0
 50
270.0
100
AcDbRotatedDimension
  0
DIMENSION
  5
44E
330
1B
100
AcDbEntity
 67
     1
  8
0
  6
Continuous
 62
     2
100
AcDbDimension
280
     0
  2
*D3
 10
3009.4519049019
 20
227.635981166
 30
0.0
 11
3009.4519049019
 21
214.407402157
 31
0.0
 70
   160
 71
     5
 42
-1.0
 73
     0
 74
     0
 75
     0
  3
DIMSTYLE_3
100
AcDbAlignedDimension
 13
2993.6439717573
 23
202.035981166
 33
0.0
 14
2993.6439717573
 24
227.635981166
 34
0.0
 50
90.0
100
AcDbRotatedDimension
  0
LINE
  5
44F
330
1B
100
AcDbEntity
 67
     1
  8
0
  6
Continuous
 62
     2
100
AcDbLine
 10
3069.2314786132
 20
66.1699808497
 30
0.0
 11
3199.2314786132
 21
66.1699808497
 31
0.0
  0
LINE
  5
450
330
1B
100
AcDbEntity
 67
     1
  8
0
  6
Continuous
 62
     2
100
AcDbLine
 10
3069.2314786132
 20
66.1699808497
 30
0.0
 11
3069.2314786132
 21
0.1699808497
 31
0.0
  0
LINE
  5
451
330
1B
100
AcDbEntity
 67
     1
  8
0
  6
Continuous
 62
     2
100
AcDbLine
 10
3099.2314786132
 20
58.1699808497
 30
0.0
 11
3199.2314786132
 21
58.1699808497
 31
0.0
  0
LINE
  5
452
330
1B
100
AcDbEntity
 67
     1
  8
0
  6
Continuous
 62
     2
100
AcDbLine
 10
3069.2314786132
 20
50.1699808497
 30
0.0
 11
3199.2314786132
 21
50.1699808497
 31
0.0
  0
LINE
  5
453
330
1B
100
AcDbEntity
 67
     1
  8
0
  6
Continuous
 62
     2
100
AcDbLine
 10
3099.2314786132
 20
44.1699808497
 30
0.0
 11
3199.2314786132
 21
44.1699808497
 31
0.0
  0
LINE
  5
454
330
1B
100
AcDbEntity
 67
     1
  8
0
  6
Continuous
 62
     2
100
AcDbLine
 10
3099.2314786132
 20
38.1699808497
 30
0.0
 11
3199.2314786132
 21
38.1699808497
 31
0.0
  0
LINE
  5
455
330
1B
100
AcDbEntity
 67
     1
  8
0
  6
Continuous
 62
     2
100
AcDbLine
 10
3099.2314786132
 20
32.1699808497
 30
0.0
 11
3199.2314786132
 21
32.1699808497
 31
0.0
  0
LINE
  5
456
330
1B
100
AcDbEntity
 67
     1
  8
0
  6
Continuous
 62
     2
100
AcDbLine
 10
3099.2314786132
 20
26.1699808497
 30
0.0
 11
3199.2314786132
 21
26.1699808497
 31
0.0
  0
LINE
  5
457
330
1B
100
AcDbEntity
 67
     1
  8
0
  6
Continuous
 62
     2
100
AcDbLine
 10
3099.2314786132
 20
20.1699808497
 30
0.0
 11
3199.2314786132
 21
20.1699808497
 31
0.0
  0
LINE
  5
458
330
1B
100
AcDbEntity
 67
     1
  8
0
  6
Continuous
 62
     2
100
AcDbLine
 10
3069.2314786132
 20
14.1699808497
 30
0.0
 11
3199.2314786132
 21
14.1699808497
 31
0.0
  0
LINE
  5
459
330
1B
100
AcDbEntity
 67
     1
  8
0
  6
Continuous
 62
     2
100
AcDbLine
 10
3069.2314786132
 20
8.1699808497
 30
0.0
 11
3199.2314786132
 21
8.1699808497
 31
0.0
  0
LINE
  5
45A
330
1B
100
AcDbEntity
 67
     1
  8
0
  6
Continuous
 62
     2
100
AcDbLine
 10
3069.2314786132
 20
4.1699808497
 30
0.0
 11
3199.2314786132
 21
4.1699808497
 31
0.0
  0
LINE
  5
45B
330
1B
100
AcDbEntity
 67
     1
  8
0
  6
Continuous
 62
     2
100
AcDbLine
 10
3069.2314786132
 20
0.1699808497
 30
0.0
 11
3199.2314786132
 21
0.1699808497
 31
0.0
  0
LINE
  5
45C
330
1B
100
AcDbEntity
 67
     1
  8
0
  6
Continuous
 62
     2
100
AcDbLine
 10
3099.2314786132
 20
66.1699808497
 30
0.0
 11
3099.2314786132
 21
8.1699808497
 31
0.0
  0
LINE
  5
45D
330
1B
100
AcDbEntity
 67
     1
  8
0
  6
Continuous
 62
     2
100
AcDbLine
 10
3119.2314786132
 20
50.1699808497
 30
0.0
 11
3119.2314786132
 21
44.1699808497
 31
0.0
  0
LINE
  5
45E
330
1B
100
AcDbEntity
 67
     1
  8
0
  6
Continuous
 62
     2
100
AcDbLine
 10
3149.2314786132
 20
20.1699808497
 30
0.0
 11
3149.2314786132
 21
8.1699808497
 31
0.0
  0
LINE
  5
45F
330
1B
100
AcDbEntity
 67
     1
  8
0
  6
Continuous
 62
     2
100
AcDbLine
 10
3159.2314786132
 20
50.1699808497
 30
0.0
 11
3159.2314786132
 21
44.1699808497
 31
0.0
  0
LINE
  5
460
330
1B
100
AcDbEntity
 67
     1
  8
0
  6
Continuous
 62
     2
100
AcDbLine
 10
3159.2314786132
 20
38.1699808497
 30
0.0
 11
3159.2314786132
 21
32.1699808497
 31
0.0
  0
LINE
  5
461
330
1B
100
AcDbEntity
 67
     1
  8
0
  6
Continuous
 62
     2
100
AcDbLine
 10
3179.2314786132
 20
50.1699808497
 30
0.0
 11
3179.2314786132
 21
44.1699808497
 31
0.0
  0
LINE
  5
462
330
1B
100
AcDbEntity
 67
     1
  8
0
  6
Continuous
 62
     2
100
AcDbLine
 10
3189.2314786132
 20
38.1699808497
 30
0.0
 11
3189.2314786132
 21
32.1699808497
 31
0.0
  0
LINE
  5
463
330
1B
100
AcDbEntity
 67
     1
  8
0
  6
Continuous
 62
     2
100
AcDbLine
 10
3199.2314786132
 20
66.1699808497
 30
0.0
 11
3199.2314786132
 21
0.1699808497
 31
0.0
  0
INSERT
  5
464
330
1B
100
AcDbEntity
 67
     1
  8
0
  6
Continuous
 62
     2
100
AcDbBlockReference
  2
PROIEZIONE_EU_BL0
 10
3084.2314786132
 20
57.7949808497
 30
0.0
  0
MTEXT
  5
465
330
1B
100
AcDbEntity
 67
     1
  8
9_SOLID
  6
Continuous
 62
     2
100
AcDbMText
 10
3100.7189786132
 20
64.5449808497
 30
0.0
 40
1.9
 41
142.3642857143
 46
0.0
 71
     1
 72
     1
  1
EN: Chamfer/radii unlisted 0.3x45°. Remove sharp edges.\PGen. tol.: hole H11, shaft h11, lenght Js12. UNI EN 22768 Medium Grande.
 73
     1
 44
1.0
  0
MTEXT
  5
466
330
1B
100
AcDbEntity
 67
     1
  8
9_SOLID
  6
Continuous
 62
     2
100
AcDbMText
 10
3100.7189786132
 20
56.5449808497
 30
0.0
 40
1.9
 41
148.2678571429
 46
0.0
 71
     1
 72
     1
  1
IT: Sm./rac. non quotati 0.3x45°. Eliminare spigoli taglienti.\PToll. gen.: foro H11, albero h11, lunghezza Js12. UNI EN 22768 Grado Medio.
 73
     1
 44
1.0
  0
INSERT
  5
467
330
1B
100
AcDbEntity
 67
     1
  8
0
  6
Continuous
 62
     2
100
AcDbBlockReference
  2
LOGO2_BL1
 10
3083.057525658
 20
32.1699808497
 30
0.0
  0
MTEXT
  5
468
330
1B
100
AcDbEntity
 67
     1
  8
9_SOLID
  6
Continuous
 62
     2
100
AcDbMText
 10
3100.7189786132
 20
48.4199808497
 30
0.0
 40
3.0
 41
22.0714285714
 46
0.0
 71
     1
 72
     1
  1
Pj: 570
 73
     1
 44
1.0
  0
MTEXT
  5
469
330
1B
100
AcDbEntity
 67
     1
  8
0
  6
Continuous
 62
     2
100
AcDbMText
 10
3120.7189786132
 20
48.4199808497
 30
0.0
 40
3.0
 41
41.5714285714
 46
0.0
 71
     1
 72
     1
  1
% Check:  %
 73
     1
 44
1.0
  0
MTEXT
  5
46A
330
1B
100
AcDbEntity
 67
     1
  8
9_SOLID
  6
Continuous
 62
     2
100
AcDbMText
 10
3160.7189786132
 20
48.4199808497
 30
0.0
 40
3.0
 41
19.5
 46
0.0
 71
     1
 72
     1
  1
Rev:00
 73
     1
 44
1.0
  0
MTEXT
  5
46B
330
1B
100
AcDbEntity
 67
     1
  8
9_SOLID
  6
Continuous
 62
     2
100
AcDbMText
 10
3180.7189786132
 20
48.6699808497
 30
0.0
 40
3.0
 41
19.7142857143
 46
0.0
 71
     1
 72
     1
  1
Ver: A
 73
     1
 44
1.0
  0
MTEXT
  5
46C
330
1B
100
AcDbEntity
 67
     1
  8
9_SOLID
  6
Continuous
 62
     2
100
AcDbMText
 10
3100.7189786132
 20
42.4199808497
 30
0.0
 40
3.0
 41
73.0714285714
 46
0.0
 71
     1
 72
     1
  1
Neutral code: 570_C_153
 73
     1
 44
1.0
  0
MTEXT
  5
46D
330
1B
100
AcDbEntity
 67
     1
  8
0
  6
Continuous
 62
     2
100
AcDbMText
 10
3100.7189786132
 20
36.4199808497
 30
0.0
 40
3.0
 41
22.9285714286
 46
0.0
 71
     1
 72
     1
  1
Code:  
 73
     1
 44
1.0
  0
MTEXT
  5
46E
330
1B
100
AcDbEntity
 67
     1
  8
9_SOLID
  6
Continuous
 62
     2
100
AcDbMText
 10
3160.7189786132
 20
36.6699808497
 30
0.0
 40
3.0
 41
27.8571428571
 46
0.0
 71
     1
 72
     1
  1
Scale: 1:1
 73
     1
 44
1.0
  0
MTEXT
  5
46F
330
1B
100
AcDbEntity
 67
     1
  8
9_SOLID
  6
Continuous
 62
     2
100
AcDbMText
 10
3194.2314786132
 20
36.6699808497
 30
0.0
 40
3.0
 41
41.5714285714
 46
0.0
 71
     2
 72
     1
  1
3200 by 2500
 73
     1
 44
1.0
  0
MTEXT
  5
470
330
1B
100
AcDbEntity
 67
     1
  8
9_SOLID
  6
Continuous
 62
     2
100
AcDbMText
 10
3100.7189786132
 20
30.6699808497
 30
0.0
 40
3.0
 41
138.3214285714
 46
0.0
 71
     1
 72
     1
  1
It descr.: CASSAFORMA RIO1.4 mm.2014,5 ALL
 73
     1
 44
1.0
  0
MTEXT
  5
471
330
1B
100
AcDbEntity
 67
     1
  8
0
  6
Continuous
 62
     2
100
AcDbMText
 10
3100.7189786132
 20
24.6699808497
 30
0.0
 40
3.0
 41
37.5
 46
0.0
 71
     1
 72
     1
  1
En descr.:  
 73
     1
 44
1.0
  0
MTEXT
  5
472
330
1B
100
AcDbEntity
 67
     1
  8
9_SOLID
  6
Continuous
 62
     2
100
AcDbMText
 10
3100.7189786132
 20
18.6699808497
 30
0.0
 40
3.0
 41
31.2857142857
 46
0.0
 71
     1
 72
     1
  1
Des.: S.Z.
 73
     1
 44
1.0
  0
MTEXT
  5
473
330
1B
100
AcDbEntity
 67
     1
  8
9_SOLID
  6
Continuous
 62
     2
100
AcDbMText
 10
3150.7189786132
 20
18.6699808497
 30
0.0
 40
3.0
 41
22.2857142857
 46
0.0
 71
     1
 72
     1
  1
Check: 
 73
     1
 44
1.0
  0
MTEXT
  5
474
330
1B
100
AcDbEntity
 67
     1
  8
9_SOLID
  6
Continuous
 62
     2
100
AcDbMText
 10
3070.7189786132
 20
12.6699808497
 30
0.0
 40
3.0
 41
43.1785714286
 46
0.0
 71
     1
 72
     1
  1
Date: 05.12.18
 73
     1
 44
1.0
  0
MTEXT
  5
475
330
1B
100
AcDbEntity
 67
     1
  8
0
  6
Continuous
 62
     2
100
AcDbMText
 10
3100.7189786132
 20
12.6699808497
 30
0.0
 40
3.0
 41
21.75
 46
0.0
 71
     1
 72
     1
  1
Mat.:  
 73
     1
 44
1.0
  0
MTEXT
  5
476
330
1B
100
AcDbEntity
 67
     1
  8
9_SOLID
  6
Continuous
 62
     2
100
AcDbMText
 10
3150.7189786132
 20
12.1699808497
 30
0.0
 40
2.0
 41
42.3571428571
 46
0.0
 71
     1
 72
     1
  1
Disegno per catalogo
 73
     1
 44
1.0
  0
MTEXT
  5
477
330
1B
100
AcDbEntity
 67
     1
  8
9_SOLID
  6
Continuous
 62
     2
100
AcDbMText
 10
3070.7189786132
 20
7.0699808497
 30
0.0
 40
1.8
 41
176.2071428571
 46
0.0
 71
     1
 72
     1
  1
It: A norma di legge si diffida da qualsiasi riproduzione senza nostra autorizzazione esplicita.
 73
     1
 44
1.0
  0
MTEXT
  5
478
330
1B
100
AcDbEntity
 67
     1
  8
9_SOLID
  6
Continuous
 62
     2
100
AcDbMText
 10
3070.7189786132
 20
3.0699808497
 30
0.0
 40
1.8
 41
158.1428571429
 46
0.0
 71
     1
 72
     1
  1
En: According to the law, beware of any reproduction made without our authorization.
 73
     1
 44
1.0
  0
ENDSEC
  0
SECTION
  2
OBJECTS
  0
DICTIONARY
  5
479
330
0
100
AcDbDictionary
281
     1
  3
ACAD_DETAILVIEWSTYLE
350
4CF
  3
ACAD_GROUP
350
47A
  3
ACAD_LAYOUT
350
4A2
  3
ACAD_MATERIAL
350
4BE
  3
ACAD_MLEADERSTYLE
350
4C4
  3
ACAD_MLINESTYLE
350
47B
  3
ACAD_PLOTSETTINGS
350
47D
  3
ACAD_PLOTSTYLENAME
350
47E
  3
ACAD_SCALELIST
350
480
  3
ACAD_SECTIONVIEWSTYLE
350
4D0
  3
ACAD_TABLESTYLE
350
4C2
  3
ACAD_VISUALSTYLE
350
4A5
  3
ACDB_RECOMPOSE_DATA
350
4CB
  3
AcDbVariableDictionary
350
4C7
  3
APPDATA
350
4C6
  0
DICTIONARY
  5
4CF
102
{ACAD_REACTORS
330
479
102
}
330
479
100
AcDbDictionary
281
     1
  0
DICTIONARY
  5
47A
102
{ACAD_REACTORS
330
479
102
}
330
479
100
AcDbDictionary
281
     1
  0
DICTIONARY
  5
4A2
102
{ACAD_REACTORS
330
479
102
}
330
479
100
AcDbDictionary
281
     1
  3
Foglio 1
350
4A4
  3
Model
350
4A3
  0
DICTIONARY
  5
4BE
102
{ACAD_REACTORS
330
479
102
}
330
479
100
AcDbDictionary
281
     1
  3
ByBlock
350
4C0
  3
ByLayer
350
4BF
  3
Global
350
4C1
  0
DICTIONARY
  5
4C4
102
{ACAD_REACTORS
330
479
102
}
330
479
100
AcDbDictionary
281
     1
  3
Standard
350
4C5
  0
DICTIONARY
  5
47B
102
{ACAD_REACTORS
330
479
102
}
330
479
100
AcDbDictionary
281
     1
  3
STANDARD
350
47C
  0
DICTIONARY
  5
47D
102
{ACAD_REACTORS
330
479
102
}
330
479
100
AcDbDictionary
281
     1
  0
ACDBDICTIONARYWDFLT
  5
47E
102
{ACAD_REACTORS
330
479
102
}
330
479
100
AcDbDictionary
281
     1
  3
Normal
350
47F
100
AcDbDictionaryWithDefault
340
47F
  0
DICTIONARY
  5
480
102
{ACAD_REACTORS
330
479
102
}
330
479
100
AcDbDictionary
281
     1
  3
A0
350
481
  3
A1
350
482
  3
A2
350
483
  3
A3
350
484
  3
A4
350
485
  3
A5
350
486
  3
A6
350
487
  3
A7
350
488
  3
A8
350
489
  3
A9
350
48A
  3
B0
350
48B
  3
B1
350
48C
  3
B2
350
48D
  3
B3
350
48E
  3
B4
350
48F
  3
B5
350
490
  3
B6
350
491
  3
B7
350
492
  3
B8
350
493
  3
B9
350
494
  3
C0
350
495
  3
C1
350
496
  3
C2
350
497
  3
C3
350
498
  3
C4
350
499
  3
C5
350
49A
  3
C6
350
49B
  3
C7
350
49C
  3
C8
350
49D
  3
C9
350
49E
  3
D0
350
49F
  3
D1
350
4A0
  3
D2
350
4A1
  0
DICTIONARY
  5
4D0
102
{ACAD_REACTORS
330
479
102
}
330
479
100
AcDbDictionary
281
     1
  0
DICTIONARY
  5
4C2
102
{ACAD_REACTORS
330
479
102
}
330
479
100
AcDbDictionary
281
     1
  3
Standard
350
4C3
  0
DICTIONARY
  5
4A5
102
{ACAD_REACTORS
330
479
102
}
330
479
100
AcDbDictionary
281
     1
  3
2dWireframe
350
4AA
  3
Basic
350
4AD
  3
Brighten
350
4B1
  3
ColorChange
350
4B5
  3
Conceptual
350
4AF
  3
Dim
350
4B0
  3
EdgeColorOff
350
4B8
  3
Facepattern
350
4B4
  3
Flat
350
4A6
  3
FlatWithEdges
350
4A7
  3
Gouraud
350
4A8
  3
GouraudWithEdges
350
4A9
  3
Hidden
350
4AC
  3
JitterOff
350
4B6
  3
Linepattern
350
4B3
  3
OverhangOff
350
4B7
  3
Realistic
350
4AE
  3
Shaded
350
4BD
  3
Shaded with edges
350
4BC
  3
Shades of Gray
350
4B9
  3
Sketchy
350
4BA
  3
Thicken
350
4B2
  3
Wireframe
350
4AB
  3
X-Ray
350
4BB
  0
XRECORD
  5
4CB
102
{ACAD_REACTORS
330
479
102
}
330
479
100
AcDbXrecord
280
     1
 90
        1
330
4C3
  0
DICTIONARY
  5
4C7
102
{ACAD_REACTORS
330
479
102
}
330
479
100
AcDbDictionary
281
     1
  3
CANNOSCALE
350
4C8
  3
CMLEADERSTYLE
350
4CD
  3
CTABLESTYLE
350
4CC
  3
MSLTSCALE
350
4CE
  0
DICTIONARY
  5
4C6
102
{ACAD_REACTORS
330
479
102
}
330
479
100
AcDbDictionary
281
     1
  0
LAYOUT
  5
4A4
102
{ACAD_REACTORS
330
4A2
102
}
330
4A2
100
AcDbPlotSettings
  1

  2
none_device
  4
ISO_A3_(420.00_x_297.00_MM)
  6

 40
7.5
 41
20.0
 42
7.5
 43
20.0
 44
420.0
 45
297.0
 46
0.0
 47
0.0
 48
0.0
 49
0.0
140
0.0
141
0.0
142
1.0
143
9.727626459143968
 70
   688
 72
     1
 73
     0
 74
     1
  7

 75
     0
 76
     0
 77
     2
 78
   300
147
0.1028
148
0.0
149
0.0
100
AcDbLayout
  1
Foglio 1
 70
     1
 71
     1
 10
0.0
 20
0.0
 11
412.5
 21
277.0
 12
0.0
 22
0.0
 32
0.0
 14
0.0
 24
0.0
 34
0.0
 15
3208.2564786132
 25
2500.0
 35
0.0
146
0.0
 13
0.0
 23
0.0
 33
0.0
 16
1.0
 26
0.0
 36
0.0
 17
0.0
 27
1.0
 37
0.0
 76
     0
330
1B
331
296
  0
LAYOUT
  5
4A3
102
{ACAD_REACTORS
330
4A2
102
}
330
4A2
100
AcDbPlotSettings
  1

  2
none_device
  4
Letter_(8.50_x_11.00_Inches)
  6

 40
6.35
 41
6.35
 42
6.35
 43
6.35
 44
215.9
 45
279.4
 46
0.0
 47
0.0
 48
0.0
 49
0.0
140
0.0
141
0.0
142
1.0
143
400.0
 70
  1712
 72
     0
 73
     0
 74
     0
  7

 75
     0
 76
     0
 77
     2
 78
   300
147
0.0025
148
0.0
149
0.0
100
AcDbLayout
  1
Model
 70
     1
 71
     0
 10
0.0
 20
0.0
 11
3200.0
 21
2500.0
 12
0.0
 22
0.0
 32
0.0
 14
0.0
 24
0.0
 34
0.0
 15
3200.0
 25
2500.0
 35
0.0
146
0.0
 13
0.0
 23
0.0
 33
0.0
 16
1.0
 26
0.0
 36
0.0
 17
0.0
 27
1.0
 37
0.0
 76
     0
330
1F
331
1F4
  0
MATERIAL
  5
4C0
102
{ACAD_REACTORS
330
4BE
102
}
330
4BE
100
AcDbMaterial
  1
ByBlock
 72
     1
 94
      127
  0
MATERIAL
  5
4BF
102
{ACAD_REACTORS
330
4BE
102
}
330
4BE
100
AcDbMaterial
  1
ByLayer
 72
     1
 94
      127
  0
MATERIAL
  5
4C1
102
{ACAD_REACTORS
330
4BE
102
}
330
4BE
100
AcDbMaterial
  1
Global
 72
     1
 94
      127
  0
MLEADERSTYLE
  5
4C5
102
{ACAD_REACTORS
330
4C4
102
}
330
4C4
100
AcDbMLeaderStyle
179
     2
170
     2
171
     1
172
     0
 90
        2
 40
0.0
 41
0.0
173
     1
 91
-1056964608
340
14
 92
       -2
290
     1
 42
2.0
291
     1
 43
8.0
  3
Standard
341
0
 44
4.0
300

342
11
174
     1
178
     1
175
     1
176
     0
 93
-1056964608
 45
4.0
292
     0
297
     0
 46
4.0
343
0
 94
-1056964608
 47
1.0
 49
1.0
140
1.0
293
     1
141
0.0
294
     1
177
     0
142
1.0
295
     0
296
     0
143
3.75
271
     0
272
     9
273
     9
298
     0
  0
MLINESTYLE
  5
47C
102
{ACAD_REACTORS
330
47B
102
}
330
47B
100
AcDbMlineStyle
  2
STANDARD
 70
     0
  3

 62
   256
 51
90.0
 52
90.0
 71
     2
 49
0.5
 62
   256
  6
BYLAYER
 49
-0.5
 62
   256
  6
BYLAYER
  0
ACDBPLACEHOLDER
  5
47F
102
{ACAD_REACTORS
330
47E
102
}
330
47E
  0
SCALE
  5
481
102
{ACAD_REACTORS
330
480
102
}
330
480
100
AcDbScale
 70
     0
300
1:1
140
1.0
141
1.0
290
     1
  0
SCALE
  5
482
102
{ACAD_REACTORS
330
480
102
}
330
480
100
AcDbScale
 70
     0
300
1:2
140
1.0
141
2.0
290
     0
  0
SCALE
  5
483
102
{ACAD_REACTORS
330
480
102
}
330
480
100
AcDbScale
 70
     0
300
1:4
140
1.0
141
4.0
290
     0
  0
SCALE
  5
484
102
{ACAD_REACTORS
330
480
102
}
330
480
100
AcDbScale
 70
     0
300
1:5
140
1.0
141
5.0
290
     0
  0
SCALE
  5
485
102
{ACAD_REACTORS
330
480
102
}
330
480
100
AcDbScale
 70
     0
300
1:8
140
1.0
141
8.0
290
     0
  0
SCALE
  5
486
102
{ACAD_REACTORS
330
480
102
}
330
480
100
AcDbScale
 70
     0
300
1:10
140
1.0
141
10.0
290
     0
  0
SCALE
  5
487
102
{ACAD_REACTORS
330
480
102
}
330
480
100
AcDbScale
 70
     0
300
1:16
140
1.0
141
16.0
290
     0
  0
SCALE
  5
488
102
{ACAD_REACTORS
330
480
102
}
330
480
100
AcDbScale
 70
     0
300
1:20
140
1.0
141
20.0
290
     0
  0
SCALE
  5
489
102
{ACAD_REACTORS
330
480
102
}
330
480
100
AcDbScale
 70
     0
300
1:30
140
1.0
141
30.0
290
     0
  0
SCALE
  5
48A
102
{ACAD_REACTORS
330
480
102
}
330
480
100
AcDbScale
 70
     0
300
1:40
140
1.0
141
40.0
290
     0
  0
SCALE
  5
48B
102
{ACAD_REACTORS
330
480
102
}
330
480
100
AcDbScale
 70
     0
300
1:50
140
1.0
141
50.0
290
     0
  0
SCALE
  5
48C
102
{ACAD_REACTORS
330
480
102
}
330
480
100
AcDbScale
 70
     0
300
1:100
140
1.0
141
100.0
290
     0
  0
SCALE
  5
48D
102
{ACAD_REACTORS
330
480
102
}
330
480
100
AcDbScale
 70
     0
300
2:1
140
2.0
141
1.0
290
     0
  0
SCALE
  5
48E
102
{ACAD_REACTORS
330
480
102
}
330
480
100
AcDbScale
 70
     0
300
4:1
140
4.0
141
1.0
290
     0
  0
SCALE
  5
48F
102
{ACAD_REACTORS
330
480
102
}
330
480
100
AcDbScale
 70
     0
300
8:1
140
8.0
141
1.0
290
     0
  0
SCALE
  5
490
102
{ACAD_REACTORS
330
480
102
}
330
480
100
AcDbScale
 70
     0
300
10:1
140
10.0
141
1.0
290
     0
  0
SCALE
  5
491
102
{ACAD_REACTORS
330
480
102
}
330
480
100
AcDbScale
 70
     0
300
100:1
140
100.0
141
1.0
290
     0
  0
SCALE
  5
492
102
{ACAD_REACTORS
330
480
102
}
330
480
100
AcDbScale
 70
     0
300
1/128" = 1'-0"
140
0.0078125
141
12.0
290
     0
  0
SCALE
  5
493
102
{ACAD_REACTORS
330
480
102
}
330
480
100
AcDbScale
 70
     0
300
1/64" = 1'-0"
140
0.015625
141
12.0
290
     0
  0
SCALE
  5
494
102
{ACAD_REACTORS
330
480
102
}
330
480
100
AcDbScale
 70
     0
300
1/32" = 1'-0"
140
0.03125
141
12.0
290
     0
  0
SCALE
  5
495
102
{ACAD_REACTORS
330
480
102
}
330
480
100
AcDbScale
 70
     0
300
1/16" = 1'-0"
140
0.0625
141
12.0
290
     0
  0
SCALE
  5
496
102
{ACAD_REACTORS
330
480
102
}
330
480
100
AcDbScale
 70
     0
300
3/32" = 1'-0"
140
0.09375
141
12.0
290
     0
  0
SCALE
  5
497
102
{ACAD_REACTORS
330
480
102
}
330
480
100
AcDbScale
 70
     0
300
1/8" = 1'-0"
140
0.125
141
12.0
290
     0
  0
SCALE
  5
498
102
{ACAD_REACTORS
330
480
102
}
330
480
100
AcDbScale
 70
     0
300
3/16" = 1'-0"
140
0.1875
141
12.0
290
     0
  0
SCALE
  5
499
102
{ACAD_REACTORS
330
480
102
}
330
480
100
AcDbScale
 70
     0
300
1/4" = 1'-0"
140
0.25
141
12.0
290
     0
  0
SCALE
  5
49A
102
{ACAD_REACTORS
330
480
102
}
330
480
100
AcDbScale
 70
     0
300
3/8" = 1'-0"
140
0.375
141
12.0
290
     0
  0
SCALE
  5
49B
102
{ACAD_REACTORS
330
480
102
}
330
480
100
AcDbScale
 70
     0
300
1/2" = 1'-0"
140
0.5
141
12.0
290
     0
  0
SCALE
  5
49C
102
{ACAD_REACTORS
330
480
102
}
330
480
100
AcDbScale
 70
     0
300
3/4" = 1'-0"
140
0.75
141
12.0
290
     0
  0
SCALE
  5
49D
102
{ACAD_REACTORS
330
480
102
}
330
480
100
AcDbScale
 70
     0
300
1" = 1'-0"
140
1.0
141
12.0
290
     0
  0
SCALE
  5
49E
102
{ACAD_REACTORS
330
480
102
}
330
480
100
AcDbScale
 70
     0
300
1-1/2" = 1'-0"
140
1.5
141
12.0
290
     0
  0
SCALE
  5
49F
102
{ACAD_REACTORS
330
480
102
}
330
480
100
AcDbScale
 70
     0
300
3" = 1'-0"
140
3.0
141
12.0
290
     0
  0
SCALE
  5
4A0
102
{ACAD_REACTORS
330
480
102
}
330
480
100
AcDbScale
 70
     0
300
6" = 1'-0"
140
6.0
141
12.0
290
     0
  0
SCALE
  5
4A1
102
{ACAD_REACTORS
330
480
102
}
330
480
100
AcDbScale
 70
     0
300
1'-0" = 1'-0"
140
12.0
141
12.0
290
     0
  0
TABLESTYLE
  5
4C3
102
{ACAD_REACTORS
330
4C2
102
}
102
{ACAD_XDICTIONARY
360
4C9
102
}
330
4C2
100
AcDbTableStyle
  3
Standard
 70
     0
 71
     0
 40
0.06
 41
0.06
280
     0
281
     0
  7
STANDARD
140
4.5
170
     2
 62
     0
 63
   257
283
     0
 90
        4
 91
        0
  1

274
    -2
284
     1
 64
     0
275
    -2
285
     1
 65
     0
276
    -2
286
     1
 66
     0
277
    -2
287
     1
 67
     0
278
    -2
288
     1
 68
     0
279
    -2
289
     1
 69
     0
  7
STANDARD
140
6.0
170
     5
 62
     0
 63
   257
283
     0
 90
        4
 91
        0
  1

274
    -2
284
     1
 64
     0
275
    -2
285
     1
 65
     0
276
    -2
286
     1
 66
     0
277
    -2
287
     1
 67
     0
278
    -2
288
     1
 68
     0
279
    -2
289
     1
 69
     0
  7
STANDARD
140
4.5
170
     5
 62
     0
 63
   257
283
     0
 90
        4
 91
        0
  1

274
    -2
284
     1
 64
     0
275
    -2
285
     1
 65
     0
276
    -2
286
     1
 66
     0
277
    -2
287
     1
 67
     0
278
    -2
288
     1
 68
     0
279
    -2
289
     1
 69
     0
  0
VISUALSTYLE
  5
4AA
102
{ACAD_REACTORS
330
4A5
102
}
330
4A5
100
AcDbVisualStyle
  2
2dWireframe
 70
     4
177
     3
291
     0
 70
    58
 90
        0
176
     1
 90
        2
176
     1
 90
        0
176
     1
 90
        0
176
     1
 40
0.6
176
     1
 40
30.0
176
     1
 62
     7
420
 16777215
176
     1
 90
        1
176
     1
 90
        4
176
     1
 62
     7
176
     1
 62
   257
176
     1
 90
        1
176
     1
 90
        1
176
     1
 40
1.0
176
     1
 90
        0
176
     1
 62
   257
176
     1
 40
1.0
176
     1
 90
        1
176
     1
 90
        6
176
     1
 90
        2
176
     1
 62
     7
176
     1
 90
        5
176
     1
 90
        0
176
     1
 90
        0
176
     1
290
     0
176
     1
 90
        1
176
     1
 40
0.0
176
     1
 90
        0
176
     1
290
     1
176
     1
290
     1
176
     1
290
     0
176
     1
290
     0
176
     1
290
     0
176
     1
290
     0
176
     1
290
     0
176
     1
290
     0
176
     1
290
     0
176
     1
 90
       50
176
     1
 40
0.0
176
     1
 40
1.0
176
     1
 90
        0
176
     1
 62
    18
420
        0
176
     1
 90
       50
176
     1
 90
        3
176
     1
 62
     5
420
      255
176
     1
290
     0
176
     1
 90
       50
176
     1
 90
       50
176
     1
 90
       50
176
     1
290
     0
176
     1
 90
       50
176
     1
 62
   256
176
     0
 40
1.0
176
     0
 90
        2
176
     1
  1
strokes_ogs.tif
176
     1
290
     0
176
     1
 40
1.0
176
     1
 40
1.0
176
     1
  0
VISUALSTYLE
  5
4AD
102
{ACAD_REACTORS
330
4A5
102
}
330
4A5
100
AcDbVisualStyle
  2
Basic
 70
     7
177
     3
291
     1
 70
    58
 90
        1
176
     1
 90
        0
176
     1
 90
        1
176
     1
 90
        0
176
     1
 40
0.6
176
     1
 40
30.0
176
     1
 62
     7
420
 16777215
176
     1
 90
        0
176
     1
 90
        4
176
     1
 62
     7
176
     1
 62
   257
176
     1
 90
        1
176
     1
 90
        1
176
     1
 40
1.0
176
     1
 90
        8
176
     1
 62
     7
176
     1
 40
1.0
176
     1
 90
        1
176
     1
 90
        6
176
     1
 90
        2
176
     1
 62
     7
176
     1
 90
        5
176
     1
 90
        0
176
     1
 90
        0
176
     1
290
     0
176
     1
 90
        1
176
     1
 40
0.0
176
     1
 90
        0
176
     1
290
     0
176
     1
290
     1
176
     1
290
     1
176
     1
290
     0
176
     1
290
     0
176
     1
290
     0
176
     1
290
     0
176
     1
290
     0
176
     1
290
     0
176
     1
 90
       50
176
     1
 40
0.0
176
     1
 40
1.0
176
     1
 90
        0
176
     1
 62
    18
420
        0
176
     1
 90
       50
176
     1
 90
        3
176
     1
 62
     5
420
      255
176
     1
290
     0
176
     1
 90
       50
176
     1
 90
       50
176
     1
 90
       50
176
     1
290
     0
176
     1
 90
       50
176
     1
 62
   256
176
     0
 40
1.0
176
     0
 90
        2
176
     1
  1
strokes_ogs.tif
176
     1
290
     0
176
     1
 40
1.0
176
     1
 40
1.0
176
     1
  0
VISUALSTYLE
  5
4B1
102
{ACAD_REACTORS
330
4A5
102
}
330
4A5
100
AcDbVisualStyle
  2
Brighten
 70
    12
177
     3
291
     1
 70
    58
 90
        2
176
     1
 90
        2
176
     1
 90
        0
176
     1
 90
        0
176
     1
 40
0.6
176
     1
 40
30.0
176
     1
 62
     7
420
 16777215
176
     1
 90
        1
176
     1
 90
        4
176
     1
 62
     7
176
     1
 62
   257
176
     1
 90
        1
176
     1
 90
        1
176
     1
 40
1.0
176
     1
 90
        8
176
     1
 62
     7
176
     1
 40
1.0
176
     1
 90
        1
176
     1
 90
        6
176
     1
 90
        2
176
     1
 62
     7
176
     1
 90
        5
176
     1
 90
        0
176
     1
 90
        0
176
     1
290
     0
176
     1
 90
        1
176
     1
 40
50.0
176
     1
 90
        0
176
     1
290
     0
176
     1
290
     1
176
     1
290
     1
176
     1
290
     0
176
     1
290
     0
176
     1
290
     0
176
     1
290
     0
176
     1
290
     0
176
     1
290
     0
176
     1
 90
       50
176
     1
 40
0.0
176
     1
 40
1.0
176
     1
 90
        0
176
     1
 62
    18
420
        0
176
     1
 90
       50
176
     1
 90
        3
176
     1
 62
     5
420
      255
176
     1
290
     0
176
     1
 90
       50
176
     1
 90
       50
176
     1
 90
       50
176
     1
290
     0
176
     1
 90
       50
176
     1
 62
   256
176
     0
 40
1.0
176
     0
 90
        2
176
     1
  1
strokes_ogs.tif
176
     1
290
     0
176
     1
 40
1.0
176
     1
 40
1.0
176
     1
  0
VISUALSTYLE
  5
4B5
102
{ACAD_REACTORS
330
4A5
102
}
330
4A5
100
AcDbVisualStyle
  2
ColorChange
 70
    16
177
     3
291
     1
 70
    58
 90
        2
176
     1
 90
        2
176
     1
 90
        3
176
     1
 90
        0
176
     1
 40
0.6
176
     1
 40
30.0
176
     1
 62
     8
420
  8421504
176
     1
 90
        1
176
     1
 90
        4
176
     1
 62
     7
176
     1
 62
   257
176
     1
 90
        1
176
     1
 90
        1
176
     1
 40
1.0
176
     1
 90
        8
176
     1
 62
     8
420
  8421504
176
     1
 40
1.0
176
     1
 90
        1
176
     1
 90
        6
176
     1
 90
        2
176
     1
 62
     7
176
     1
 90
        5
176
     1
 90
        0
176
     1
 90
        0
176
     1
290
     0
176
     1
 90
        1
176
     1
 40
0.0
176
     1
 90
        0
176
     1
290
     0
176
     1
290
     1
176
     1
290
     1
176
     1
290
     0
176
     1
290
     0
176
     1
290
     0
176
     1
290
     0
176
     1
290
     0
176
     1
290
     0
176
     1
 90
       50
176
     1
 40
0.0
176
     1
 40
1.0
176
     1
 90
        0
176
     1
 62
    18
420
        0
176
     1
 90
       50
176
     1
 90
        3
176
     1
 62
     5
420
      255
176
     1
290
     0
176
     1
 90
       50
176
     1
 90
       50
176
     1
 90
       50
176
     1
290
     0
176
     1
 90
       50
176
     1
 62
   256
176
     0
 40
1.0
176
     0
 90
        2
176
     1
  1
strokes_ogs.tif
176
     1
290
     0
176
     1
 40
1.0
176
     1
 40
1.0
176
     1
  0
VISUALSTYLE
  5
4AF
102
{ACAD_REACTORS
330
4A5
102
}
330
4A5
100
AcDbVisualStyle
  2
Conceptual
 70
     9
177
     3
291
     0
 70
    58
 90
        3
176
     1
 90
        2
176
     1
 90
        0
176
     1
 90
        0
176
     1
 40
0.6
176
     1
 40
30.0
176
     1
 62
     7
420
 16777215
176
     1
 90
        2
176
     1
 90
        2
176
     1
 62
     7
176
     1
 62
   257
176
     1
 90
        1
176
     1
 90
        1
176
     1
 40
179.0
176
     1
 90
        8
176
     1
 62
     7
176
     1
 40
1.0
176
     1
 90
        1
176
     1
 90
        6
176
     1
 90
        2
176
     1
 62
     7
176
     1
 90
        3
176
     1
 90
        0
176
     1
 90
        0
176
     1
290
     0
176
     1
 90
        1
176
     1
 40
0.0
176
     1
 90
        0
176
     1
290
     0
176
     1
290
     1
176
     1
290
     1
176
     1
290
     0
176
     1
290
     0
176
     1
290
     0
176
     1
290
     0
176
     1
290
     0
176
     1
290
     0
176
     1
 90
       50
176
     1
 40
0.0
176
     1
 40
1.0
176
     1
 90
        0
176
     1
 62
    18
420
        0
176
     1
 90
       50
176
     1
 90
        3
176
     1
 62
     5
420
      255
176
     1
290
     0
176
     1
 90
       50
176
     1
 90
       50
176
     1
 90
       50
176
     1
290
     0
176
     1
 90
       50
176
     1
 62
   256
176
     0
 40
1.0
176
     0
 90
        2
176
     1
  1
strokes_ogs.tif
176
     1
290
     0
176
     1
 40
1.0
176
     1
 40
1.0
176
     1
  0
VISUALSTYLE
  5
4B0
102
{ACAD_REACTORS
330
4A5
102
}
330
4A5
100
AcDbVisualStyle
  2
Dim
 70
    11
177
     3
291
     1
 70
    58
 90
        2
176
     1
 90
        2
176
     1
 90
        0
176
     1
 90
        0
176
     1
 40
0.6
176
     1
 40
30.0
176
     1
 62
     7
420
 16777215
176
     1
 90
        1
176
     1
 90
        4
176
     1
 62
     7
176
     1
 62
   257
176
     1
 90
        1
176
     1
 90
        1
176
     1
 40
1.0
176
     1
 90
        8
176
     1
 62
     7
176
     1
 40
1.0
176
     1
 90
        1
176
     1
 90
        6
176
     1
 90
        2
176
     1
 62
     7
176
     1
 90
        5
176
     1
 90
        0
176
     1
 90
        0
176
     1
290
     0
176
     1
 90
        1
176
     1
 40
-50.0
176
     1
 90
        0
176
     1
290
     0
176
     1
290
     1
176
     1
290
     1
176
     1
290
     0
176
     1
290
     0
176
     1
290
     0
176
     1
290
     0
176
     1
290
     0
176
     1
290
     0
176
     1
 90
       50
176
     1
 40
0.0
176
     1
 40
1.0
176
     1
 90
        0
176
     1
 62
    18
420
        0
176
     1
 90
       50
176
     1
 90
        3
176
     1
 62
     5
420
      255
176
     1
290
     0
176
     1
 90
       50
176
     1
 90
       50
176
     1
 90
       50
176
     1
290
     0
176
     1
 90
       50
176
     1
 62
   256
176
     0
 40
1.0
176
     0
 90
        2
176
     1
  1
strokes_ogs.tif
176
     1
290
     0
176
     1
 40
1.0
176
     1
 40
1.0
176
     1
  0
VISUALSTYLE
  5
4B8
102
{ACAD_REACTORS
330
4A5
102
}
330
4A5
100
AcDbVisualStyle
  2
EdgeColorOff
 70
    22
177
     3
291
     1
 70
    58
 90
        2
176
     0
 90
        2
176
     0
 90
        0
176
     0
 90
        0
176
     0
 40
0.6
176
     0
 40
30.0
176
     0
 62
     7
420
 16777215
176
     0
 90
        1
176
     0
 90
        4
176
     0
 62
     7
176
     0
 62
   257
176
     0
 90
        1
176
     0
 90
        1
176
     0
 40
1.0
176
     0
 90
        8
176
     2
 62
     7
176
     0
 40
1.0
176
     0
 90
        1
176
     0
 90
        6
176
     0
 90
        2
176
     0
 62
     7
176
     0
 90
        5
176
     0
 90
        0
176
     0
 90
        0
176
     0
290
     0
176
     0
 90
        1
176
     0
 40
0.0
176
     0
 90
        0
176
     0
290
     0
176
     0
290
     1
176
     0
290
     1
176
     0
290
     0
176
     0
290
     0
176
     0
290
     0
176
     0
290
     0
176
     0
290
     0
176
     0
290
     0
176
     0
 90
       50
176
     0
 40
0.0
176
     0
 40
1.0
176
     0
 90
        0
176
     0
 62
    18
420
        0
176
     0
 90
       50
176
     0
 90
        3
176
     0
 62
     5
420
      255
176
     0
290
     0
176
     0
 90
       50
176
     0
 90
       50
176
     0
 90
       50
176
     0
290
     0
176
     0
 90
       50
176
     0
 62
   256
176
     0
 40
1.0
176
     0
 90
        2
176
     0
  1
strokes_ogs.tif
176
     0
290
     0
176
     0
 40
1.0
176
     0
 40
1.0
176
     0
  0
VISUALSTYLE
  5
4B4
102
{ACAD_REACTORS
330
4A5
102
}
330
4A5
100
AcDbVisualStyle
  2
Facepattern
 70
    15
177
     3
291
     1
 70
    58
 90
        2
176
     1
 90
        2
176
     1
 90
        0
176
     1
 90
        0
176
     1
 40
0.6
176
     1
 40
30.0
176
     1
 62
     7
420
 16777215
176
     1
 90
        1
176
     1
 90
        4
176
     1
 62
     7
176
     1
 62
   257
176
     1
 90
        1
176
     1
 90
        1
176
     1
 40
1.0
176
     1
 90
        8
176
     1
 62
     7
176
     1
 40
1.0
176
     1
 90
        1
176
     1
 90
        6
176
     1
 90
        2
176
     1
 62
     7
176
     1
 90
        5
176
     1
 90
        0
176
     1
 90
        0
176
     1
290
     0
176
     1
 90
        1
176
     1
 40
0.0
176
     1
 90
        0
176
     1
290
     0
176
     1
290
     1
176
     1
290
     1
176
     1
290
     0
176
     1
290
     0
176
     1
290
     0
176
     1
290
     0
176
     1
290
     0
176
     1
290
     0
176
     1
 90
       50
176
     1
 40
0.0
176
     1
 40
1.0
176
     1
 90
        0
176
     1
 62
    18
420
        0
176
     1
 90
       50
176
     1
 90
        3
176
     1
 62
     5
420
      255
176
     1
290
     0
176
     1
 90
       50
176
     1
 90
       50
176
     1
 90
       50
176
     1
290
     0
176
     1
 90
       50
176
     1
 62
   256
176
     0
 40
1.0
176
     0
 90
        2
176
     1
  1
strokes_ogs.tif
176
     1
290
     0
176
     1
 40
1.0
176
     1
 40
1.0
176
     1
  0
VISUALSTYLE
  5
4A6
102
{ACAD_REACTORS
330
4A5
102
}
330
4A5
100
AcDbVisualStyle
  2
Flat
 70
     0
177
     3
291
     1
 70
    58
 90
        2
176
     1
 90
        1
176
     1
 90
        1
176
     1
 90
        2
176
     1
 40
0.6
176
     1
 40
30.0
176
     1
 62
     7
420
 16777215
176
     1
 90
        0
176
     1
 90
        0
176
     1
 62
     7
176
     1
 62
   257
176
     1
 90
        1
176
     1
 90
        1
176
     1
 40
1.0
176
     1
 90
        8
176
     1
 62
     7
176
     1
 40
1.0
176
     1
 90
        1
176
     1
 90
        6
176
     1
 90
        2
176
     1
 62
     7
176
     1
 90
        5
176
     1
 90
        0
176
     1
 90
        0
176
     1
290
     0
176
     1
 90
       13
176
     1
 40
0.0
176
     1
 90
        0
176
     1
290
     0
176
     1
290
     1
176
     1
290
     1
176
     1
290
     0
176
     1
290
     0
176
     1
290
     0
176
     1
290
     0
176
     1
290
     0
176
     1
290
     0
176
     1
 90
       50
176
     1
 40
0.0
176
     1
 40
1.0
176
     1
 90
        0
176
     1
 62
    18
420
        0
176
     1
 90
       50
176
     1
 90
        3
176
     1
 62
     5
420
      255
176
     1
290
     0
176
     1
 90
       50
176
     1
 90
       50
176
     1
 90
       50
176
     1
290
     0
176
     1
 90
       50
176
     1
 62
   256
176
     0
 40
1.0
176
     0
 90
        2
176
     1
  1
strokes_ogs.tif
176
     1
290
     0
176
     1
 40
1.0
176
     1
 40
1.0
176
     1
  0
VISUALSTYLE
  5
4A7
102
{ACAD_REACTORS
330
4A5
102
}
330
4A5
100
AcDbVisualStyle
  2
FlatWithEdges
 70
     1
177
     3
291
     1
 70
    58
 90
        2
176
     1
 90
        1
176
     1
 90
        1
176
     1
 90
        2
176
     1
 40
0.6
176
     1
 40
30.0
176
     1
 62
     7
420
 16777215
176
     1
 90
        1
176
     1
 90
        0
176
     1
 62
     7
176
     1
 62
   257
176
     1
 90
        1
176
     1
 90
        1
176
     1
 40
1.0
176
     1
 90
        0
176
     1
 62
   257
176
     1
 40
1.0
176
     1
 90
        1
176
     1
 90
        6
176
     1
 90
        2
176
     1
 62
     7
176
     1
 90
        5
176
     1
 90
        0
176
     1
 90
        0
176
     1
290
     0
176
     1
 90
       13
176
     1
 40
0.0
176
     1
 90
        0
176
     1
290
     0
176
     1
290
     1
176
     1
290
     1
176
     1
290
     0
176
     1
290
     0
176
     1
290
     0
176
     1
290
     0
176
     1
290
     0
176
     1
290
     0
176
     1
 90
       50
176
     1
 40
0.0
176
     1
 40
1.0
176
     1
 90
        0
176
     1
 62
    18
420
        0
176
     1
 90
       50
176
     1
 90
        3
176
     1
 62
     5
420
      255
176
     1
290
     0
176
     1
 90
       50
176
     1
 90
       50
176
     1
 90
       50
176
     1
290
     0
176
     1
 90
       50
176
     1
 62
   256
176
     0
 40
1.0
176
     0
 90
        2
176
     1
  1
strokes_ogs.tif
176
     1
290
     0
176
     1
 40
1.0
176
     1
 40
1.0
176
     1
  0
VISUALSTYLE
  5
4A8
102
{ACAD_REACTORS
330
4A5
102
}
330
4A5
100
AcDbVisualStyle
  2
Gouraud
 70
     2
177
     3
291
     1
 70
    58
 90
        2
176
     1
 90
        2
176
     1
 90
        1
176
     1
 90
        2
176
     1
 40
0.6
176
     1
 40
30.0
176
     1
 62
     7
420
 16777215
176
     1
 90
        0
176
     1
 90
        0
176
     1
 62
     7
176
     1
 62
   257
176
     1
 90
        1
176
     1
 90
        1
176
     1
 40
1.0
176
     1
 90
        0
176
     1
 62
     7
176
     1
 40
1.0
176
     1
 90
        1
176
     1
 90
        6
176
     1
 90
        2
176
     1
 62
     7
176
     1
 90
        5
176
     1
 90
        0
176
     1
 90
        0
176
     1
290
     0
176
     1
 90
       13
176
     1
 40
0.0
176
     1
 90
        0
176
     1
290
     0
176
     1
290
     1
176
     1
290
     1
176
     1
290
     0
176
     1
290
     0
176
     1
290
     0
176
     1
290
     0
176
     1
290
     0
176
     1
290
     0
176
     1
 90
       50
176
     1
 40
0.0
176
     1
 40
1.0
176
     1
 90
        0
176
     1
 62
    18
420
        0
176
     1
 90
       50
176
     1
 90
        3
176
     1
 62
     5
420
      255
176
     1
290
     0
176
     1
 90
       50
176
     1
 90
       50
176
     1
 90
       50
176
     1
290
     0
176
     1
 90
       50
176
     1
 62
   256
176
     0
 40
1.0
176
     0
 90
        2
176
     1
  1
strokes_ogs.tif
176
     1
290
     0
176
     1
 40
1.0
176
     1
 40
1.0
176
     1
  0
VISUALSTYLE
  5
4A9
102
{ACAD_REACTORS
330
4A5
102
}
330
4A5
100
AcDbVisualStyle
  2
GouraudWithEdges
 70
     3
177
     3
291
     1
 70
    58
 90
        2
176
     1
 90
        2
176
     1
 90
        1
176
     1
 90
        2
176
     1
 40
0.6
176
     1
 40
30.0
176
     1
 62
     7
420
 16777215
176
     1
 90
        1
176
     1
 90
        0
176
     1
 62
     7
176
     1
 62
   257
176
     1
 90
        1
176
     1
 90
        1
176
     1
 40
1.0
176
     1
 90
        0
176
     1
 62
   257
176
     1
 40
1.0
176
     1
 90
        1
176
     1
 90
        6
176
     1
 90
        2
176
     1
 62
     7
176
     1
 90
        5
176
     1
 90
        0
176
     1
 90
        0
176
     1
290
     0
176
     1
 90
       13
176
     1
 40
0.0
176
     1
 90
        0
176
     1
290
     0
176
     1
290
     1
176
     1
290
     1
176
     1
290
     0
176
     1
290
     0
176
     1
290
     0
176
     1
290
     0
176
     1
290
     0
176
     1
290
     0
176
     1
 90
       50
176
     1
 40
0.0
176
     1
 40
1.0
176
     1
 90
        0
176
     1
 62
    18
420
        0
176
     1
 90
       50
176
     1
 90
        3
176
     1
 62
     5
420
      255
176
     1
290
     0
176
     1
 90
       50
176
     1
 90
       50
176
     1
 90
       50
176
     1
290
     0
176
     1
 90
       50
176
     1
 62
   256
176
     0
 40
1.0
176
     0
 90
        2
176
     1
  1
strokes_ogs.tif
176
     1
290
     0
176
     1
 40
1.0
176
     1
 40
1.0
176
     1
  0
VISUALSTYLE
  5
4AC
102
{ACAD_REACTORS
330
4A5
102
}
330
4A5
100
AcDbVisualStyle
  2
Hidden
 70
     6
177
     3
291
     0
 70
    58
 90
        1
176
     1
 90
        2
176
     1
 90
        2
176
     1
 90
        0
176
     1
 40
0.6
176
     1
 40
30.0
176
     1
 62
     7
420
 16777215
176
     1
 90
        2
176
     1
 90
        2
176
     1
 62
     7
176
     1
 62
   257
176
     1
 90
        2
176
     1
 90
        1
176
     1
 40
40.0
176
     1
 90
        0
176
     1
 62
   257
176
     1
 40
1.0
176
     1
 90
        1
176
     1
 90
        6
176
     1
 90
        2
176
     1
 62
     7
176
     1
 90
        3
176
     1
 90
        0
176
     1
 90
        0
176
     1
290
     0
176
     1
 90
        1
176
     1
 40
0.0
176
     1
 90
        0
176
     1
290
     0
176
     1
290
     1
176
     1
290
     1
176
     1
290
     0
176
     1
290
     0
176
     1
290
     0
176
     1
290
     0
176
     1
290
     0
176
     1
290
     0
176
     1
 90
       50
176
     1
 40
0.0
176
     1
 40
1.0
176
     1
 90
        0
176
     1
 62
    18
420
        0
176
     1
 90
       50
176
     1
 90
        3
176
     1
 62
     5
420
      255
176
     1
290
     0
176
     1
 90
       50
176
     1
 90
       50
176
     1
 90
       50
176
     1
290
     0
176
     1
 90
       50
176
     1
 62
   256
176
     0
 40
1.0
176
     0
 90
        2
176
     1
  1
strokes_ogs.tif
176
     1
290
     0
176
     1
 40
1.0
176
     1
 40
1.0
176
     1
  0
VISUALSTYLE
  5
4B6
102
{ACAD_REACTORS
330
4A5
102
}
330
4A5
100
AcDbVisualStyle
  2
JitterOff
 70
    20
177
     3
291
     1
 70
    58
 90
        2
176
     0
 90
        2
176
     0
 90
        0
176
     0
 90
        0
176
     0
 40
0.6
176
     0
 40
30.0
176
     0
 62
     7
420
 16777215
176
     0
 90
        1
176
     0
 90
        4
176
     0
 62
     7
176
     0
 62
   257
176
     0
 90
        1
176
     0
 90
        1
176
     0
 40
1.0
176
     0
 90
       10
176
     2
 62
     7
176
     0
 40
1.0
176
     0
 90
        1
176
     0
 90
        6
176
     0
 90
        2
176
     0
 62
     7
176
     0
 90
        5
176
     0
 90
        0
176
     0
 90
        0
176
     0
290
     0
176
     0
 90
        1
176
     0
 40
0.0
176
     0
 90
        0
176
     0
290
     0
176
     0
290
     1
176
     0
290
     1
176
     0
290
     0
176
     0
290
     0
176
     0
290
     0
176
     0
290
     0
176
     0
290
     0
176
     0
290
     0
176
     0
 90
       50
176
     0
 40
0.0
176
     0
 40
1.0
176
     0
 90
        0
176
     0
 62
    18
420
        0
176
     0
 90
       50
176
     0
 90
        3
176
     0
 62
     5
420
      255
176
     0
290
     0
176
     0
 90
       50
176
     0
 90
       50
176
     0
 90
       50
176
     0
290
     0
176
     0
 90
       50
176
     0
 62
   256
176
     0
 40
1.0
176
     0
 90
        2
176
     0
  1
strokes_ogs.tif
176
     0
290
     0
176
     0
 40
1.0
176
     0
 40
1.0
176
     0
  0
VISUALSTYLE
  5
4B3
102
{ACAD_REACTORS
330
4A5
102
}
330
4A5
100
AcDbVisualStyle
  2
Linepattern
 70
    14
177
     3
291
     1
 70
    58
 90
        2
176
     1
 90
        2
176
     1
 90
        0
176
     1
 90
        0
176
     1
 40
0.6
176
     1
 40
30.0
176
     1
 62
     7
420
 16777215
176
     1
 90
        1
176
     1
 90
        4
176
     1
 62
     7
176
     1
 62
   257
176
     1
 90
        7
176
     1
 90
        7
176
     1
 40
1.0
176
     1
 90
        8
176
     1
 62
     7
176
     1
 40
1.0
176
     1
 90
        1
176
     1
 90
        6
176
     1
 90
        2
176
     1
 62
     7
176
     1
 90
        5
176
     1
 90
        0
176
     1
 90
        0
176
     1
290
     0
176
     1
 90
        1
176
     1
 40
0.0
176
     1
 90
        0
176
     1
290
     0
176
     1
290
     1
176
     1
290
     1
176
     1
290
     0
176
     1
290
     0
176
     1
290
     0
176
     1
290
     0
176
     1
290
     0
176
     1
290
     0
176
     1
 90
       50
176
     1
 40
0.0
176
     1
 40
1.0
176
     1
 90
        0
176
     1
 62
    18
420
        0
176
     1
 90
       50
176
     1
 90
        3
176
     1
 62
     5
420
      255
176
     1
290
     0
176
     1
 90
       50
176
     1
 90
       50
176
     1
 90
       50
176
     1
290
     0
176
     1
 90
       50
176
     1
 62
   256
176
     0
 40
1.0
176
     0
 90
        2
176
     1
  1
strokes_ogs.tif
176
     1
290
     0
176
     1
 40
1.0
176
     1
 40
1.0
176
     1
  0
VISUALSTYLE
  5
4B7
102
{ACAD_REACTORS
330
4A5
102
}
330
4A5
100
AcDbVisualStyle
  2
OverhangOff
 70
    21
177
     3
291
     1
 70
    58
 90
        2
176
     0
 90
        2
176
     0
 90
        0
176
     0
 90
        0
176
     0
 40
0.6
176
     0
 40
30.0
176
     0
 62
     7
420
 16777215
176
     0
 90
        1
176
     0
 90
        4
176
     0
 62
     7
176
     0
 62
   257
176
     0
 90
        1
176
     0
 90
        1
176
     0
 40
1.0
176
     0
 90
        9
176
     2
 62
     7
176
     0
 40
1.0
176
     0
 90
        1
176
     0
 90
        6
176
     0
 90
        2
176
     0
 62
     7
176
     0
 90
        5
176
     0
 90
        0
176
     0
 90
        0
176
     0
290
     0
176
     0
 90
        1
176
     0
 40
0.0
176
     0
 90
        0
176
     0
290
     0
176
     0
290
     1
176
     0
290
     1
176
     0
290
     0
176
     0
290
     0
176
     0
290
     0
176
     0
290
     0
176
     0
290
     0
176
     0
290
     0
176
     0
 90
       50
176
     0
 40
0.0
176
     0
 40
1.0
176
     0
 90
        0
176
     0
 62
    18
420
        0
176
     0
 90
       50
176
     0
 90
        3
176
     0
 62
     5
420
      255
176
     0
290
     0
176
     0
 90
       50
176
     0
 90
       50
176
     0
 90
       50
176
     0
290
     0
176
     0
 90
       50
176
     0
 62
   256
176
     0
 40
1.0
176
     0
 90
        2
176
     0
  1
strokes_ogs.tif
176
     0
290
     0
176
     0
 40
1.0
176
     0
 40
1.0
176
     0
  0
VISUALSTYLE
  5
4AE
102
{ACAD_REACTORS
330
4A5
102
}
330
4A5
100
AcDbVisualStyle
  2
Realistic
 70
     8
177
     3
291
     0
 70
    58
 90
        2
176
     1
 90
        3
176
     1
 90
        0
176
     1
 90
        2
176
     1
 40
0.6
176
     1
 40
30.0
176
     1
 62
     7
420
 16777215
176
     1
 90
        0
176
     1
 90
        0
176
     1
 62
     7
176
     1
 62
   257
176
     1
 90
        1
176
     1
 90
        1
176
     1
 40
1.0
176
     1
 90
        8
176
     1
 62
   257
176
     1
 40
1.0
176
     1
 90
        1
176
     1
 90
        6
176
     1
 90
        2
176
     1
 62
     7
176
     1
 90
        3
176
     1
 90
        0
176
     1
 90
        0
176
     1
290
     0
176
     1
 90
       13
176
     1
 40
0.0
176
     1
 90
        0
176
     1
290
     0
176
     1
290
     1
176
     1
290
     1
176
     1
290
     0
176
     1
290
     0
176
     1
290
     0
176
     1
290
     0
176
     1
290
     0
176
     1
290
     0
176
     1
 90
       50
176
     1
 40
0.0
176
     1
 40
1.0
176
     1
 90
        0
176
     1
 62
    18
420
        0
176
     1
 90
       50
176
     1
 90
        3
176
     1
 62
     5
420
      255
176
     1
290
     0
176
     1
 90
       50
176
     1
 90
       50
176
     1
 90
       50
176
     1
290
     0
176
     1
 90
       50
176
     1
 62
   256
176
     0
 40
1.0
176
     0
 90
        2
176
     1
  1
strokes_ogs.tif
176
     1
290
     0
176
     1
 40
1.0
176
     1
 40
1.0
176
     1
  0
VISUALSTYLE
  5
4BD
102
{ACAD_REACTORS
330
4A5
102
}
330
4A5
100
AcDbVisualStyle
  2
Shaded
 70
    27
177
     3
291
     0
 70
    58
 90
        2
176
     1
 90
        2
176
     1
 90
        1
176
     1
 90
        2
176
     1
 40
0.6
176
     1
 40
30.0
176
     1
 62
     7
420
 16777215
176
     1
 90
        0
176
     1
 90
        4
176
     1
 62
     7
176
     1
 62
   257
176
     1
 90
        1
176
     1
 90
        1
176
     1
 40
1.0
176
     1
 90
        8
176
     1
 62
   257
176
     1
 40
1.0
176
     1
 90
        1
176
     1
 90
        6
176
     1
 90
        2
176
     1
 62
     8
420
  7895160
176
     1
 90
        3
176
     1
 90
        0
176
     1
 90
        0
176
     1
290
     0
176
     1
 90
        5
176
     1
 40
0.0
176
     1
 90
        0
176
     1
290
     0
176
     1
290
     1
176
     1
290
     1
176
     1
290
     0
176
     1
290
     0
176
     1
290
     0
176
     1
290
     0
176
     1
290
     0
176
     1
290
     0
176
     1
 90
       50
176
     1
 40
0.0
176
     1
 40
1.0
176
     1
 90
        0
176
     1
 62
    18
420
        0
176
     1
 90
       50
176
     1
 90
        3
176
     1
 62
     5
420
      255
176
     1
290
     0
176
     1
 90
       50
176
     1
 90
       50
176
     1
 90
       50
176
     1
290
     0
176
     1
 90
       50
176
     1
 62
   256
176
     0
 40
1.0
176
     0
 90
        2
176
     1
  1
strokes_ogs.tif
176
     1
290
     0
176
     1
 40
1.0
176
     1
 40
1.0
176
     1
  0
VISUALSTYLE
  5
4BC
102
{ACAD_REACTORS
330
4A5
102
}
330
4A5
100
AcDbVisualStyle
  2
Shaded with edges
 70
    26
177
     3
291
     0
 70
    58
 90
        2
176
     1
 90
        2
176
     1
 90
        1
176
     1
 90
        2
176
     1
 40
0.6
176
     1
 40
30.0
176
     1
 62
     7
420
 16777215
176
     1
 90
        1
176
     1
 90
       10
176
     1
 62
     7
176
     1
 62
   257
176
     1
 90
        2
176
     1
 90
        1
176
     1
 40
1.0
176
     1
 90
        8
176
     1
 62
   257
176
     1
 40
1.0
176
     1
 90
        1
176
     1
 90
        6
176
     1
 90
        2
176
     1
 62
     7
176
     1
 90
        3
176
     1
 90
        0
176
     1
 90
        0
176
     1
290
     0
176
     1
 90
        5
176
     1
 40
0.0
176
     1
 90
        0
176
     1
290
     0
176
     1
290
     1
176
     1
290
     1
176
     1
290
     0
176
     1
290
     0
176
     1
290
     0
176
     1
290
     0
176
     1
290
     0
176
     1
290
     0
176
     1
 90
       50
176
     1
 40
0.0
176
     1
 40
1.0
176
     1
 90
        0
176
     1
 62
    18
420
        0
176
     1
 90
       50
176
     1
 90
        3
176
     1
 62
     5
420
      255
176
     1
290
     0
176
     1
 90
       50
176
     1
 90
       50
176
     1
 90
       50
176
     1
290
     0
176
     1
 90
       50
176
     1
 62
   256
176
     0
 40
1.0
176
     0
 90
        2
176
     1
  1
strokes_ogs.tif
176
     1
290
     0
176
     1
 40
1.0
176
     1
 40
1.0
176
     1
  0
VISUALSTYLE
  5
4B9
102
{ACAD_REACTORS
330
4A5
102
}
330
4A5
100
AcDbVisualStyle
  2
Shades of Gray
 70
    23
177
     3
291
     0
 70
    58
 90
        2
176
     1
 90
        2
176
     1
 90
        3
176
     1
 90
        0
176
     1
 40
0.6
176
     1
 40
30.0
176
     1
 62
     7
420
 16777215
176
     1
 90
        2
176
     1
 90
        2
176
     1
 62
     7
176
     1
 62
     7
176
     1
 90
        1
176
     1
 90
        1
176
     1
 40
40.0
176
     1
 90
        8
176
     1
 62
     7
176
     1
 40
1.0
176
     1
 90
        1
176
     1
 90
        6
176
     1
 90
        2
176
     1
 62
     7
176
     1
 90
        3
176
     1
 90
        0
176
     1
 90
        0
176
     1
290
     0
176
     1
 90
        1
176
     1
 40
0.0
176
     1
 90
        0
176
     1
290
     0
176
     1
290
     1
176
     1
290
     1
176
     1
290
     0
176
     1
290
     0
176
     1
290
     0
176
     1
290
     0
176
     1
290
     0
176
     1
290
     0
176
     1
 90
       50
176
     1
 40
0.0
176
     1
 40
1.0
176
     1
 90
        0
176
     1
 62
    18
420
        0
176
     1
 90
       50
176
     1
 90
        3
176
     1
 62
     5
420
      255
176
     1
290
     0
176
     1
 90
       50
176
     1
 90
       50
176
     1
 90
       50
176
     1
290
     0
176
     1
 90
       50
176
     1
 62
   256
176
     0
 40
1.0
176
     0
 90
        2
176
     1
  1
strokes_ogs.tif
176
     1
290
     0
176
     1
 40
1.0
176
     1
 40
1.0
176
     1
  0
VISUALSTYLE
  5
4BA
102
{ACAD_REACTORS
330
4A5
102
}
330
4A5
100
AcDbVisualStyle
  2
Sketchy
 70
    24
177
     3
291
     0
 70
    58
 90
        1
176
     1
 90
        2
176
     1
 90
        2
176
     1
 90
        0
176
     1
 40
0.6
176
     1
 40
30.0
176
     1
 62
     7
420
 16777215
176
     1
 90
        2
176
     1
 90
        2
176
     1
 62
     7
176
     1
 62
     7
176
     1
 90
        1
176
     1
 90
        1
176
     1
 40
40.0
176
     1
 90
       11
176
     1
 62
     7
176
     1
 40
1.0
176
     1
 90
        1
176
     1
 90
        6
176
     1
 90
        2
176
     1
 62
     7
176
     1
 90
        6
176
     1
 90
        0
176
     1
 90
        0
176
     1
290
     0
176
     1
 90
        1
176
     1
 40
0.0
176
     1
 90
        0
176
     1
290
     0
176
     1
290
     1
176
     1
290
     1
176
     1
290
     0
176
     1
290
     0
176
     1
290
     0
176
     1
290
     0
176
     1
290
     0
176
     1
290
     0
176
     1
 90
       50
176
     1
 40
0.0
176
     1
 40
1.0
176
     1
 90
        0
176
     1
 62
    18
420
        0
176
     1
 90
       50
176
     1
 90
        3
176
     1
 62
     5
420
      255
176
     1
290
     0
176
     1
 90
       50
176
     1
 90
       50
176
     1
 90
       50
176
     1
290
     0
176
     1
 90
       50
176
     1
 62
   256
176
     0
 40
1.0
176
     0
 90
        2
176
     1
  1
strokes_ogs.tif
176
     1
290
     0
176
     1
 40
1.0
176
     1
 40
1.0
176
     1
  0
VISUALSTYLE
  5
4B2
102
{ACAD_REACTORS
330
4A5
102
}
330
4A5
100
AcDbVisualStyle
  2
Thicken
 70
    13
177
     3
291
     1
 70
    58
 90
        2
176
     1
 90
        2
176
     1
 90
        0
176
     1
 90
        0
176
     1
 40
0.6
176
     1
 40
30.0
176
     1
 62
     7
420
 16777215
176
     1
 90
        1
176
     1
 90
        4
176
     1
 62
     7
176
     1
 62
   257
176
     1
 90
        1
176
     1
 90
        1
176
     1
 40
1.0
176
     1
 90
       12
176
     1
 62
     7
176
     1
 40
1.0
176
     1
 90
        1
176
     1
 90
        6
176
     1
 90
        2
176
     1
 62
     7
176
     1
 90
        5
176
     1
 90
        0
176
     1
 90
        0
176
     1
290
     0
176
     1
 90
        1
176
     1
 40
0.0
176
     1
 90
        0
176
     1
290
     0
176
     1
290
     1
176
     1
290
     1
176
     1
290
     0
176
     1
290
     0
176
     1
290
     0
176
     1
290
     0
176
     1
290
     0
176
     1
290
     0
176
     1
 90
       50
176
     1
 40
0.0
176
     1
 40
1.0
176
     1
 90
        0
176
     1
 62
    18
420
        0
176
     1
 90
       50
176
     1
 90
        3
176
     1
 62
     5
420
      255
176
     1
290
     0
176
     1
 90
       50
176
     1
 90
       50
176
     1
 90
       50
176
     1
290
     0
176
     1
 90
       50
176
     1
 62
   256
176
     0
 40
1.0
176
     0
 90
        2
176
     1
  1
strokes_ogs.tif
176
     1
290
     0
176
     1
 40
1.0
176
     1
 40
1.0
176
     1
  0
VISUALSTYLE
  5
4AB
102
{ACAD_REACTORS
330
4A5
102
}
330
4A5
100
AcDbVisualStyle
  2
Wireframe
 70
     5
177
     3
291
     0
 70
    58
 90
        0
176
     1
 90
        2
176
     1
 90
        0
176
     1
 90
        0
176
     1
 40
0.6
176
     1
 40
30.0
176
     1
 62
     7
420
 16777215
176
     1
 90
        1
176
     1
 90
        4
176
     1
 62
     7
176
     1
 62
   257
176
     1
 90
        1
176
     1
 90
        1
176
     1
 40
1.0
176
     1
 90
        0
176
     1
 62
   257
176
     1
 40
1.0
176
     1
 90
        1
176
     1
 90
        6
176
     1
 90
        2
176
     1
 62
     7
176
     1
 90
        3
176
     1
 90
        0
176
     1
 90
        0
176
     1
290
     0
176
     1
 90
        1
176
     1
 40
0.0
176
     1
 90
        0
176
     1
290
     0
176
     1
290
     1
176
     1
290
     1
176
     1
290
     0
176
     1
290
     0
176
     1
290
     0
176
     1
290
     0
176
     1
290
     0
176
     1
290
     0
176
     1
 90
       50
176
     1
 40
0.0
176
     1
 40
1.0
176
     1
 90
        0
176
     1
 62
    18
420
        0
176
     1
 90
       50
176
     1
 90
        3
176
     1
 62
     5
420
      255
176
     1
290
     0
176
     1
 90
       50
176
     1
 90
       50
176
     1
 90
       50
176
     1
290
     0
176
     1
 90
       50
176
     1
 62
   256
176
     0
 40
1.0
176
     0
 90
        2
176
     1
  1
strokes_ogs.tif
176
     1
290
     0
176
     1
 40
1.0
176
     1
 40
1.0
176
     1
  0
VISUALSTYLE
  5
4BB
102
{ACAD_REACTORS
330
4A5
102
}
330
4A5
100
AcDbVisualStyle
  2
X-Ray
 70
    25
177
     3
291
     0
 70
    58
 90
        2
176
     1
 90
        2
176
     1
 90
        1
176
     1
 90
        1
176
     1
 40
0.5
176
     1
 40
30.0
176
     1
 62
     7
420
 16777215
176
     1
 90
        1
176
     1
 90
        0
176
     1
 62
     7
176
     1
 62
   257
176
     1
 90
        1
176
     1
 90
        1
176
     1
 40
1.0
176
     1
 90
        8
176
     1
 62
     7
176
     1
 40
1.0
176
     1
 90
        1
176
     1
 90
        6
176
     1
 90
        2
176
     1
 62
     7
176
     1
 90
        3
176
     1
 90
        0
176
     1
 90
        0
176
     1
290
     0
176
     1
 90
       13
176
     1
 40
0.0
176
     1
 90
        0
176
     1
290
     0
176
     1
290
     1
176
     1
290
     1
176
     1
290
     0
176
     1
290
     0
176
     1
290
     0
176
     1
290
     0
176
     1
290
     0
176
     1
290
     0
176
     1
 90
       50
176
     1
 40
0.0
176
     1
 40
1.0
176
     1
 90
        0
176
     1
 62
    18
420
        0
176
     1
 90
       50
176
     1
 90
        3
176
     1
 62
     5
420
      255
176
     1
290
     0
176
     1
 90
       50
176
     1
 90
       50
176
     1
 90
       50
176
     1
290
     0
176
     1
 90
       50
176
     1
 62
   256
176
     0
 40
1.0
176
     0
 90
        2
176
     1
  1
strokes_ogs.tif
176
     1
290
     0
176
     1
 40
1.0
176
     1
 40
1.0
176
     1
  0
DICTIONARYVAR
  5
4C8
102
{ACAD_REACTORS
330
4C7
102
}
330
4C7
100
DictionaryVariables
280
     0
  1
1:1
  0
DICTIONARYVAR
  5
4CD
102
{ACAD_REACTORS
330
4C7
102
}
330
4C7
100
DictionaryVariables
280
     0
  1
Standard
  0
DICTIONARYVAR
  5
4CC
102
{ACAD_REACTORS
330
4C7
102
}
330
4C7
100
DictionaryVariables
280
     0
  1
Standard
  0
DICTIONARYVAR
  5
4CE
102
{ACAD_REACTORS
330
4C7
102
}
330
4C7
100
DictionaryVariables
280
     0
  1
0
  0
DICTIONARY
  5
4C9
330
4C3
100
AcDbDictionary
280
     1
281
     1
  3
ACAD_ROUNDTRIP_2008_TABLESTYLE_CELLSTYLEMAP
360
4CA
  0
CELLSTYLEMAP
  5
4CA
102
{ACAD_REACTORS
330
4C9
102
}
330
4C9
100
AcDbCellStyleMap
 90
        3
300
CELLSTYLE
  1
TABLEFORMAT_BEGIN
 90
        5
170
     1
 91
        0
 92
    32768
 62
   257
 93
        1
300
CONTENTFORMAT
  1
CONTENTFORMAT_BEGIN
 90
        0
 91
        0
 92
        4
 93
        0
300

 40
0.0
140
1.0
 94
        5
 62
     0
340
11
144
6.0
309
CONTENTFORMAT_END
171
     1
301
MARGIN
  1
CELLMARGIN_BEGIN
 40
1.5
 40
1.5
 40
1.5
 40
1.5
 40
1.5
 40
1.5
309
CELLMARGIN_END
 94
        6
 95
        1
302
GRIDFORMAT
  1
GRIDFORMAT_BEGIN
 90
        0
 91
        1
 62
     0
 92
       -2
340
14
 93
        0
 40
0.045
309
GRIDFORMAT_END
 95
        2
302
GRIDFORMAT
  1
GRIDFORMAT_BEGIN
 90
        0
 91
        1
 62
     0
 92
       -2
340
14
 93
        0
 40
0.045
309
GRIDFORMAT_END
 95
        4
302
GRIDFORMAT
  1
GRIDFORMAT_BEGIN
 90
        0
 91
        1
 62
     0
 92
       -2
340
14
 93
        0
 40
0.045
309
GRIDFORMAT_END
 95
        8
302
GRIDFORMAT
  1
GRIDFORMAT_BEGIN
 90
        0
 91
        1
 62
     0
 92
       -2
340
14
 93
        0
 40
0.045
309
GRIDFORMAT_END
 95
       16
302
GRIDFORMAT
  1
GRIDFORMAT_BEGIN
 90
        0
 91
        1
 62
     0
 92
       -2
340
14
 93
        0
 40
0.045
309
GRIDFORMAT_END
 95
       32
302
GRIDFORMAT
  1
GRIDFORMAT_BEGIN
 90
        0
 91
        1
 62
     0
 92
       -2
340
14
 93
        0
 40
0.045
309
GRIDFORMAT_END
309
TABLEFORMAT_END
  1
CELLSTYLE_BEGIN
 90
        1
 91
        1
300
_TITLE
309
CELLSTYLE_END
300
CELLSTYLE
  1
TABLEFORMAT_BEGIN
 90
        5
170
     1
 91
        0
 92
        0
 62
   257
 93
        1
300
CONTENTFORMAT
  1
CONTENTFORMAT_BEGIN
 90
        0
 91
        0
 92
        4
 93
        0
300

 40
0.0
140
1.0
 94
        5
 62
     0
340
11
144
4.5
309
CONTENTFORMAT_END
171
     1
301
MARGIN
  1
CELLMARGIN_BEGIN
 40
1.5
 40
1.5
 40
1.5
 40
1.5
 40
1.5
 40
1.5
309
CELLMARGIN_END
 94
        6
 95
        1
302
GRIDFORMAT
  1
GRIDFORMAT_BEGIN
 90
        0
 91
        1
 62
     0
 92
       -2
340
14
 93
        0
 40
0.045
309
GRIDFORMAT_END
 95
        2
302
GRIDFORMAT
  1
GRIDFORMAT_BEGIN
 90
        0
 91
        1
 62
     0
 92
       -2
340
14
 93
        0
 40
0.045
309
GRIDFORMAT_END
 95
        4
302
GRIDFORMAT
  1
GRIDFORMAT_BEGIN
 90
        0
 91
        1
 62
     0
 92
       -2
340
14
 93
        0
 40
0.045
309
GRIDFORMAT_END
 95
        8
302
GRIDFORMAT
  1
GRIDFORMAT_BEGIN
 90
        0
 91
        1
 62
     0
 92
       -2
340
14
 93
        0
 40
0.045
309
GRIDFORMAT_END
 95
       16
302
GRIDFORMAT
  1
GRIDFORMAT_BEGIN
 90
        0
 91
        1
 62
     0
 92
       -2
340
14
 93
        0
 40
0.045
309
GRIDFORMAT_END
 95
       32
302
GRIDFORMAT
  1
GRIDFORMAT_BEGIN
 90
        0
 91
        1
 62
     0
 92
       -2
340
14
 93
        0
 40
0.045
309
GRIDFORMAT_END
309
TABLEFORMAT_END
  1
CELLSTYLE_BEGIN
 90
        2
 91
        1
300
_HEADER
309
CELLSTYLE_END
300
CELLSTYLE
  1
TABLEFORMAT_BEGIN
 90
        5
170
     1
 91
        0
 92
        0
 62
   257
 93
        1
300
CONTENTFORMAT
  1
CONTENTFORMAT_BEGIN
 90
        0
 91
        0
 92
        4
 93
        0
300

 40
0.0
140
1.0
 94
        2
 62
     0
340
11
144
4.5
309
CONTENTFORMAT_END
171
     1
301
MARGIN
  1
CELLMARGIN_BEGIN
 40
1.5
 40
1.5
 40
1.5
 40
1.5
 40
1.5
 40
1.5
309
CELLMARGIN_END
 94
        6
 95
        1
302
GRIDFORMAT
  1
GRIDFORMAT_BEGIN
 90
        0
 91
        1
 62
     0
 92
       -2
340
14
 93
        0
 40
0.045
309
GRIDFORMAT_END
 95
        2
302
GRIDFORMAT
  1
GRIDFORMAT_BEGIN
 90
        0
 91
        1
 62
     0
 92
       -2
340
14
 93
        0
 40
0.045
309
GRIDFORMAT_END
 95
        4
302
GRIDFORMAT
  1
GRIDFORMAT_BEGIN
 90
        0
 91
        1
 62
     0
 92
       -2
340
14
 93
        0
 40
0.045
309
GRIDFORMAT_END
 95
        8
302
GRIDFORMAT
  1
GRIDFORMAT_BEGIN
 90
        0
 91
        1
 62
     0
 92
       -2
340
14
 93
        0
 40
0.045
309
GRIDFORMAT_END
 95
       16
302
GRIDFORMAT
  1
GRIDFORMAT_BEGIN
 90
        0
 91
        1
 62
     0
 92
       -2
340
14
 93
        0
 40
0.045
309
GRIDFORMAT_END
 95
       32
302
GRIDFORMAT
  1
GRIDFORMAT_BEGIN
 90
        0
 91
        1
 62
     0
 92
       -2
340
14
 93
        0
 40
0.045
309
GRIDFORMAT_END
309
TABLEFORMAT_END
  1
CELLSTYLE_BEGIN
 90
        3
 91
        2
300
_DATA
309
CELLSTYLE_END
  0
ENDSEC
  0
EOF
