  0
SECTION
  2
HEADER
  9
$ACADVER
  1
AC1027
  9
$ACADMAINTVER
 70
   105
  9
$DWGCODEPAGE
  3
ANSI_1252
  9
$REQUIREDVERSIONS
160
                 0
  9
$LASTSAVEDBY
  1
andrea.zolin
  9
$INSBASE
 10
0.0
 20
0.0
 30
0.0
  9
$EXTMIN
 10
0.0
 20
0.0
 30
0.0
  9
$EXTMAX
 10
2500.0
 20
3200.0
 30
0.0
  9
$LIMMIN
 10
0.0
 20
0.0
  9
$LIMMAX
 10
2500.0
 20
3200.0
  9
$ORTHOMODE
 70
     0
  9
$REGENMODE
 70
     1
  9
$FILLMODE
 70
     1
  9
$QTEXTMODE
 70
     0
  9
$MIRRTEXT
 70
     1
  9
$LTSCALE
 40
208.5925925926
  9
$ATTMODE
 70
     1
  9
$TEXTSIZE
 40
0.2
  9
$TRACEWID
 40
0.05
  9
$TEXTSTYLE
  7
STANDARD
  9
$CLAYER
  8
0
  9
$CELTYPE
  6
BYLAYER
  9
$CECOLOR
 62
   256
  9
$CELTSCALE
 40
1.0
  9
$DISPSILH
 70
     0
  9
$DIMSCALE
 40
1.0
  9
$DIMASZ
 40
2.5
  9
$DIMEXO
 40
0.75
  9
$DIMDLI
 40
144.1185185185
  9
$DIMRND
 40
0.0
  9
$DIMDLE
 40
0.0
  9
$DIMEXE
 40
0.75
  9
$DIMTP
 40
0.01
  9
$DIMTM
 40
0.01
  9
$DIMTXT
 40
3.0
  9
$DIMCEN
 40
34.1333333333
  9
$DIMTSZ
 40
0.0
  9
$DIMTOL
 70
     1
  9
$DIMLIM
 70
     0
  9
$DIMTIH
 70
     1
  9
$DIMTOH
 70
     1
  9
$DIMSE1
 70
     0
  9
$DIMSE2
 70
     0
  9
$DIMTAD
 70
     0
  9
$DIMZIN
 70
     0
  9
$DIMBLK
  1
CLOSED
  9
$DIMASO
 70
     1
  9
$DIMSHO
 70
     1
  9
$DIMPOST
  1

  9
$DIMAPOST
  1

  9
$DIMALT
 70
     0
  9
$DIMALTD
 70
     2
  9
$DIMALTF
 40
25.4
  9
$DIMLFAC
 40
1.0
  9
$DIMTOFL
 70
     0
  9
$DIMTVP
 40
0.0
  9
$DIMTIX
 70
     0
  9
$DIMSOXD
 70
     0
  9
$DIMSAH
 70
     0
  9
$DIMBLK1
  1

  9
$DIMBLK2
  1

  9
$DIMSTYLE
  2
STANDARD
  9
$DIMCLRD
 70
     0
  9
$DIMCLRE
 70
     0
  9
$DIMCLRT
 70
     0
  9
$DIMTFAC
 40
1.0
  9
$DIMGAP
 40
0.625
  9
$DIMJUST
 70
     0
  9
$DIMSD1
 70
     0
  9
$DIMSD2
 70
     0
  9
$DIMTOLJ
 70
     1
  9
$DIMTZIN
 70
     0
  9
$DIMALTZ
 70
     0
  9
$DIMALTTZ
 70
     0
  9
$DIMUPT
 70
     0
  9
$DIMDEC
 70
     4
  9
$DIMTDEC
 70
     4
  9
$DIMALTU
 70
     2
  9
$DIMALTTD
 70
     2
  9
$DIMTXSTY
  7
STANDARD
  9
$DIMAUNIT
 70
     0
  9
$DIMADEC
 70
     0
  9
$DIMALTRND
 40
0.0
  9
$DIMAZIN
 70
     0
  9
$DIMDSEP
 70
    46
  9
$DIMATFIT
 70
     3
  9
$DIMFRAC
 70
     0
  9
$DIMLDRBLK
  1

  9
$DIMLUNIT
 70
     2
  9
$DIMLWD
 70
    -2
  9
$DIMLWE
 70
    -2
  9
$DIMTMOVE
 70
     2
  9
$DIMFXL
 40
1.0
  9
$DIMFXLON
 70
     0
  9
$DIMJOGANG
 40
0.7853981633974483
  9
$DIMTFILL
 70
     0
  9
$DIMTFILLCLR
 70
     0
  9
$DIMARCSYM
 70
     0
  9
$DIMLTYPE
  6

  9
$DIMLTEX1
  6

  9
$DIMLTEX2
  6

  9
$DIMTXTDIRECTION
 70
     0
  9
$LUNITS
 70
     2
  9
$LUPREC
 70
     4
  9
$SKETCHINC
 40
0.1
  9
$FILLETRAD
 40
0.5
  9
$AUNITS
 70
     0
  9
$AUPREC
 70
     0
  9
$MENU
  1
.
  9
$ELEVATION
 40
0.0
  9
$PELEVATION
 40
0.0
  9
$THICKNESS
 40
0.0
  9
$LIMCHECK
 70
     0
  9
$CHAMFERA
 40
0.0
  9
$CHAMFERB
 40
0.0
  9
$CHAMFERC
 40
0.0
  9
$CHAMFERD
 40
0.0
  9
$SKPOLY
 70
     0
  9
$TDCREATE
 40
2447893.041666667
  9
$TDUCREATE
 40
0.0
  9
$TDUPDATE
 40
2458466.570718461
  9
$TDUUPDATE
 40
2458466.529051794
  9
$TDINDWG
 40
0.0016020139
  9
$TDUSRTIMER
 40
0.0016020139
  9
$USRTIMER
 70
     1
  9
$ANGBASE
 50
0.0
  9
$ANGDIR
 70
     0
  9
$PDMODE
 70
     3
  9
$PDSIZE
 40
0.3125
  9
$PLINEWID
 40
0.0
  9
$SPLFRAME
 70
     0
  9
$SPLINETYPE
 70
     6
  9
$SPLINESEGS
 70
     8
  9
$HANDSEED
  5
5CD
  9
$SURFTAB1
 70
     6
  9
$SURFTAB2
 70
     6
  9
$SURFTYPE
 70
     6
  9
$SURFU
 70
     6
  9
$SURFV
 70
     6
  9
$UCSBASE
  2

  9
$UCSNAME
  2

  9
$UCSORG
 10
0.0
 20
0.0
 30
0.0
  9
$UCSXDIR
 10
1.0
 20
0.0
 30
0.0
  9
$UCSYDIR
 10
0.0
 20
1.0
 30
0.0
  9
$UCSORTHOREF
  2

  9
$UCSORTHOVIEW
 70
     0
  9
$UCSORGTOP
 10
0.0
 20
0.0
 30
0.0
  9
$UCSORGBOTTOM
 10
0.0
 20
0.0
 30
0.0
  9
$UCSORGLEFT
 10
0.0
 20
0.0
 30
0.0
  9
$UCSORGRIGHT
 10
0.0
 20
0.0
 30
0.0
  9
$UCSORGFRONT
 10
0.0
 20
0.0
 30
0.0
  9
$UCSORGBACK
 10
0.0
 20
0.0
 30
0.0
  9
$PUCSBASE
  2

  9
$PUCSNAME
  2

  9
$PUCSORG
 10
0.0
 20
0.0
 30
0.0
  9
$PUCSXDIR
 10
1.0
 20
0.0
 30
0.0
  9
$PUCSYDIR
 10
0.0
 20
1.0
 30
0.0
  9
$PUCSORTHOREF
  2

  9
$PUCSORTHOVIEW
 70
     0
  9
$PUCSORGTOP
 10
0.0
 20
0.0
 30
0.0
  9
$PUCSORGBOTTOM
 10
0.0
 20
0.0
 30
0.0
  9
$PUCSORGLEFT
 10
0.0
 20
0.0
 30
0.0
  9
$PUCSORGRIGHT
 10
0.0
 20
0.0
 30
0.0
  9
$PUCSORGFRONT
 10
0.0
 20
0.0
 30
0.0
  9
$PUCSORGBACK
 10
0.0
 20
0.0
 30
0.0
  9
$USERI1
 70
     0
  9
$USERI2
 70
     0
  9
$USERI3
 70
     0
  9
$USERI4
 70
     0
  9
$USERI5
 70
     0
  9
$USERR1
 40
0.0
  9
$USERR2
 40
0.0
  9
$USERR3
 40
0.0
  9
$USERR4
 40
0.0
  9
$USERR5
 40
0.0
  9
$WORLDVIEW
 70
     1
  9
$SHADEDGE
 70
     3
  9
$SHADEDIF
 70
    70
  9
$TILEMODE
 70
     0
  9
$MAXACTVP
 70
    64
  9
$PINSBASE
 10
0.0
 20
0.0
 30
0.0
  9
$PLIMCHECK
 70
     0
  9
$PEXTMIN
 10
0.0
 20
0.0
 30
0.0
  9
$PEXTMAX
 10
2503.9206382531
 20
3200.0
 30
0.0
  9
$PLIMMIN
 10
-93.38521400778211
 20
-249.0272373540856
  9
$PLIMMAX
 10
5136.186770428016
 20
3449.027237354086
  9
$UNITMODE
 70
     0
  9
$VISRETAIN
 70
     1
  9
$PLINEGEN
 70
     0
  9
$PSLTSCALE
 70
     1
  9
$TREEDEPTH
 70
  3020
  9
$CMLSTYLE
  2
STANDARD
  9
$CMLJUST
 70
     0
  9
$CMLSCALE
 40
1.0
  9
$PROXYGRAPHICS
 70
     1
  9
$MEASUREMENT
 70
     1
  9
$CELWEIGHT
370
    -1
  9
$ENDCAPS
280
     0
  9
$JOINSTYLE
280
     0
  9
$LWDISPLAY
290
     0
  9
$INSUNITS
 70
     0
  9
$HYPERLINKBASE
  1

  9
$STYLESHEET
  1

  9
$XEDIT
290
     1
  9
$CEPSNTYPE
380
     0
  9
$PSTYLEMODE
290
     1
  9
$FINGERPRINTGUID
  2
{037B1FD3-5DC6-4509-A538-9D3A774A542B}
  9
$VERSIONGUID
  2
{FAEB1C32-E019-11D5-929B-00C0DF256EC4}
  9
$EXTNAMES
290
     1
  9
$PSVPSCALE
 40
0.0
  9
$OLESTARTUP
290
     0
  9
$SORTENTS
280
   127
  9
$INDEXCTL
280
     0
  9
$HIDETEXT
280
     1
  9
$XCLIPFRAME
280
     2
  9
$HALOGAP
280
     0
  9
$OBSCOLOR
 70
   257
  9
$OBSLTYPE
280
     0
  9
$INTERSECTIONDISPLAY
280
     0
  9
$INTERSECTIONCOLOR
 70
   257
  9
$DIMASSOC
280
     2
  9
$PROJECTNAME
  1

  9
$CAMERADISPLAY
290
     0
  9
$LENSLENGTH
 40
50.0
  9
$CAMERAHEIGHT
 40
0.0
  9
$STEPSPERSEC
 40
2.0
  9
$STEPSIZE
 40
6.0
  9
$3DDWFPREC
 40
2.0
  9
$PSOLWIDTH
 40
0.25
  9
$PSOLHEIGHT
 40
4.0
  9
$LOFTANG1
 40
1.570796326794897
  9
$LOFTANG2
 40
1.570796326794897
  9
$LOFTMAG1
 40
0.0
  9
$LOFTMAG2
 40
0.0
  9
$LOFTPARAM
 70
     7
  9
$LOFTNORMALS
280
     1
  9
$LATITUDE
 40
37.795
  9
$LONGITUDE
 40
-122.394
  9
$NORTHDIRECTION
 40
0.0
  9
$TIMEZONE
 70
 -8000
  9
$LIGHTGLYPHDISPLAY
280
     1
  9
$TILEMODELIGHTSYNCH
280
     1
  9
$SOLIDHIST
280
     0
  9
$SHOWHIST
280
     1
  9
$DWFFRAME
280
     2
  9
$DGNFRAME
280
     2
  9
$REALWORLDSCALE
290
     1
  9
$INTERFERECOLOR
 62
   256
  9
$CSHADOW
280
     0
  9
$SHADOWPLANELOCATION
 40
0.0
  0
ENDSEC
  0
SECTION
  2
CLASSES
  0
CLASS
  1
ACDBDICTIONARYWDFLT
  2
AcDbDictionaryWithDefault
  3
ObjectDBX Classes
 90
        0
 91
        4
280
     0
281
     0
  0
CLASS
  1
SCALE
  2
AcDbScale
  3
ObjectDBX Classes
 90
     1153
 91
        4
280
     0
281
     0
  0
CLASS
  1
VISUALSTYLE
  2
AcDbVisualStyle
  3
ObjectDBX Classes
 90
     4095
 91
        4
280
     0
281
     0
  0
CLASS
  1
MATERIAL
  2
AcDbMaterial
  3
ObjectDBX Classes
 90
     1153
 91
        4
280
     0
281
     0
  0
CLASS
  1
TABLESTYLE
  2
AcDbTableStyle
  3
ObjectDBX Classes
 90
     4095
 91
        4
280
     0
281
     0
  0
CLASS
  1
MLEADERSTYLE
  2
AcDbMLeaderStyle
  3
ACDB_MLEADERSTYLE_CLASS
 90
     4095
 91
        4
280
     0
281
     0
  0
CLASS
  1
DICTIONARYVAR
  2
AcDbDictionaryVar
  3
ObjectDBX Classes
 90
        0
 91
        4
280
     0
281
     0
  0
CLASS
  1
CELLSTYLEMAP
  2
AcDbCellStyleMap
  3
ObjectDBX Classes
 90
     1152
 91
        4
280
     0
281
     0
  0
ENDSEC
  0
SECTION
  2
TABLES
  0
TABLE
  2
VPORT
  5
8
330
0
100
AcDbSymbolTable
 70
     1
  0
VPORT
  5
1F4
330
8
100
AcDbSymbolTableRecord
100
AcDbViewportTableRecord
  2
*ACTIVE
 70
     0
 10
0.0
 20
0.0
 11
1.0
 21
1.0
 12
1250.0
 22
1600.0
 13
0.0
 23
0.0
 14
1.0
 24
1.0
 15
0.0
 25
0.0
 16
0.0
 26
0.0
 36
1.0
 17
0.0
 27
0.0
 37
0.0
 40
3200.0
 41
0.78125
 42
50.0
 43
0.0
 44
0.0
 50
0.0
 51
0.0
 71
     0
 72
   100
 73
     1
 74
     1
 75
     0
 76
     0
 77
     0
 78
     0
281
     0
 65
     1
110
0.0
120
0.0
130
0.0
111
1.0
121
0.0
131
0.0
112
0.0
122
1.0
132
0.0
 79
     0
146
0.0
348
5A6
 60
     3
 61
     5
292
     1
282
     1
141
0.0
142
0.0
 63
   256
  0
ENDTAB
  0
TABLE
  2
LTYPE
  5
5
330
0
100
AcDbSymbolTable
 70
     6
  0
LTYPE
  5
14
330
5
100
AcDbSymbolTableRecord
100
AcDbLinetypeTableRecord
  2
BYBLOCK
 70
     0
  3

 72
    65
 73
     0
 40
0.0
  0
LTYPE
  5
15
330
5
100
AcDbSymbolTableRecord
100
AcDbLinetypeTableRecord
  2
BYLAYER
 70
     0
  3

 72
    65
 73
     0
 40
0.0
  0
LTYPE
  5
16
330
5
100
AcDbSymbolTableRecord
100
AcDbLinetypeTableRecord
  2
CONTINUOUS
 70
     0
  3
Solid line
 72
    65
 73
     0
 40
0.0
  0
LTYPE
  5
1F5
330
5
100
AcDbSymbolTableRecord
100
AcDbLinetypeTableRecord
  2
CENTER
 70
     0
  3
____ _ ____ _ ____ _ ____ _ ____ _ ____ _ ____
 72
    65
 73
     4
 40
0.6
 49
0.375
 74
     0
 49
-0.075
 74
     0
 49
0.075
 74
     0
 49
-0.075
 74
     0
  0
LTYPE
  5
1F6
330
5
100
AcDbSymbolTableRecord
100
AcDbLinetypeTableRecord
  2
HIDDEN
 70
     0
  3
- - - - - - - - - - - - - - - - - - - -
 72
    65
 73
     2
 40
0.2
 49
0.1
 74
     0
 49
-0.1
 74
     0
  0
LTYPE
  5
1F7
330
5
100
AcDbSymbolTableRecord
100
AcDbLinetypeTableRecord
  2
PHANTOM
 70
     0
  3
_____ _ _ _____ _ _ _____ _ _ _____
 72
    65
 73
     6
 40
0.8
 49
0.45
 74
     0
 49
-0.05
 74
     0
 49
0.1
 74
     0
 49
-0.05
 74
     0
 49
0.1
 74
     0
 49
-0.05
 74
     0
  0
LTYPE
  5
1F8
330
5
100
AcDbSymbolTableRecord
100
AcDbLinetypeTableRecord
  2
DOT
 70
     0
  3
. . . . . . . . . . . . . . . . . . . .
 72
    65
 73
     2
 40
0.2
 49
0.1
 74
     0
 49
-0.1
 74
     0
  0
LTYPE
  5
1F9
330
5
100
AcDbSymbolTableRecord
100
AcDbLinetypeTableRecord
  2
DASHED
 70
     0
  3
- - - - - - - - - - - - - - - - - - - -
 72
    65
 73
     2
 40
0.2
 49
0.1
 74
     0
 49
-0.1
 74
     0
  0
ENDTAB
  0
TABLE
  2
LAYER
  5
2
330
0
100
AcDbSymbolTable
 70
    40
  0
LAYER
  5
10
330
2
100
AcDbSymbolTableRecord
100
AcDbLayerTableRecord
  2
0
 70
     0
 62
     7
  6
CONTINUOUS
370
    -3
390
57B
347
5BD
348
0
  0
LAYER
  5
1FA
330
2
100
AcDbSymbolTableRecord
100
AcDbLayerTableRecord
  2
DEFAULT_1
 70
     0
 62
     7
  6
CENTER
370
    -3
390
57B
347
5BD
348
0
  0
LAYER
  5
1FB
330
2
100
AcDbSymbolTableRecord
100
AcDbLayerTableRecord
  2
DEFAULT_2
 70
     0
 62
     8
  6
HIDDEN
370
    -3
390
57B
347
5BD
348
0
  0
LAYER
  5
1FC
330
2
100
AcDbSymbolTableRecord
100
AcDbLayerTableRecord
  2
DEFAULT_3
 70
     0
 62
     7
  6
PHANTOM
370
    -3
390
57B
347
5BD
348
0
  0
LAYER
  5
1FD
330
2
100
AcDbSymbolTableRecord
100
AcDbLayerTableRecord
  2
01_ALL_DTM_PLN
 70
     0
 62
     7
  6
CONTINUOUS
370
    -3
390
57B
347
5BD
348
0
  0
LAYER
  5
1FE
330
2
100
AcDbSymbolTableRecord
100
AcDbLayerTableRecord
  2
01__ASM_ALL_DTM_PLN
 70
     0
 62
     7
  6
CONTINUOUS
370
    -3
390
57B
347
5BD
348
0
  0
LAYER
  5
1FF
330
2
100
AcDbSymbolTableRecord
100
AcDbLayerTableRecord
  2
01__ASM_DEF_DTM_PLN
 70
     0
 62
     7
  6
CONTINUOUS
370
    -3
390
57B
347
5BD
348
0
  0
LAYER
  5
200
330
2
100
AcDbSymbolTableRecord
100
AcDbLayerTableRecord
  2
01___PRT_ALL_DTM_PLN
 70
     0
 62
     7
  6
CONTINUOUS
370
    -3
390
57B
347
5BD
348
0
  0
LAYER
  5
201
330
2
100
AcDbSymbolTableRecord
100
AcDbLayerTableRecord
  2
01___PRT_DEF_DTM_PLN
 70
     0
 62
     7
  6
CONTINUOUS
370
    -3
390
57B
347
5BD
348
0
  0
LAYER
  5
202
330
2
100
AcDbSymbolTableRecord
100
AcDbLayerTableRecord
  2
02_ALL_AXES
 70
     0
 62
     7
  6
CONTINUOUS
370
    -3
390
57B
347
5BD
348
0
  0
LAYER
  5
203
330
2
100
AcDbSymbolTableRecord
100
AcDbLayerTableRecord
  2
02__ASM_ALL_AXES
 70
     0
 62
     7
  6
CONTINUOUS
370
    -3
390
57B
347
5BD
348
0
  0
LAYER
  5
204
330
2
100
AcDbSymbolTableRecord
100
AcDbLayerTableRecord
  2
02___PRT_ALL_AXES
 70
     0
 62
     7
  6
CONTINUOUS
370
    -3
390
57B
347
5BD
348
0
  0
LAYER
  5
205
330
2
100
AcDbSymbolTableRecord
100
AcDbLayerTableRecord
  2
03_ALL_CURVES
 70
     0
 62
     7
  6
CONTINUOUS
370
    -3
390
57B
347
5BD
348
0
  0
LAYER
  5
206
330
2
100
AcDbSymbolTableRecord
100
AcDbLayerTableRecord
  2
03__ASM_ALL_CURVES
 70
     0
 62
     7
  6
CONTINUOUS
370
    -3
390
57B
347
5BD
348
0
  0
LAYER
  5
207
330
2
100
AcDbSymbolTableRecord
100
AcDbLayerTableRecord
  2
03___PRT_ALL_CURVES
 70
     0
 62
     7
  6
CONTINUOUS
370
    -3
390
57B
347
5BD
348
0
  0
LAYER
  5
208
330
2
100
AcDbSymbolTableRecord
100
AcDbLayerTableRecord
  2
04_ALL_DTM_PNT
 70
     0
 62
     7
  6
CONTINUOUS
370
    -3
390
57B
347
5BD
348
0
  0
LAYER
  5
209
330
2
100
AcDbSymbolTableRecord
100
AcDbLayerTableRecord
  2
04__ASM_ALL_DTM_PNT
 70
     0
 62
     7
  6
CONTINUOUS
370
    -3
390
57B
347
5BD
348
0
  0
LAYER
  5
20A
330
2
100
AcDbSymbolTableRecord
100
AcDbLayerTableRecord
  2
04___PRT_ALL_DTM_PNT
 70
     0
 62
     7
  6
CONTINUOUS
370
    -3
390
57B
347
5BD
348
0
  0
LAYER
  5
20B
330
2
100
AcDbSymbolTableRecord
100
AcDbLayerTableRecord
  2
05_ALL_DTM_CSYS
 70
     0
 62
     7
  6
CONTINUOUS
370
    -3
390
57B
347
5BD
348
0
  0
LAYER
  5
20C
330
2
100
AcDbSymbolTableRecord
100
AcDbLayerTableRecord
  2
05__ASM_ALL_DTM_CSYS
 70
     0
 62
     7
  6
CONTINUOUS
370
    -3
390
57B
347
5BD
348
0
  0
LAYER
  5
20D
330
2
100
AcDbSymbolTableRecord
100
AcDbLayerTableRecord
  2
05__ASM_DEF_DTM_CSYS
 70
     0
 62
     7
  6
CONTINUOUS
370
    -3
390
57B
347
5BD
348
0
  0
LAYER
  5
20E
330
2
100
AcDbSymbolTableRecord
100
AcDbLayerTableRecord
  2
05___PRT_ALL_DTM_CSYS
 70
     0
 62
     7
  6
CONTINUOUS
370
    -3
390
57B
347
5BD
348
0
  0
LAYER
  5
20F
330
2
100
AcDbSymbolTableRecord
100
AcDbLayerTableRecord
  2
05___PRT_DEF_DTM_CSYS
 70
     0
 62
     7
  6
CONTINUOUS
370
    -3
390
57B
347
5BD
348
0
  0
LAYER
  5
210
330
2
100
AcDbSymbolTableRecord
100
AcDbLayerTableRecord
  2
06_ALL_SURFS
 70
     0
 62
     7
  6
CONTINUOUS
370
    -3
390
57B
347
5BD
348
0
  0
LAYER
  5
211
330
2
100
AcDbSymbolTableRecord
100
AcDbLayerTableRecord
  2
06__ASM_ALL_SURFS
 70
     0
 62
     7
  6
CONTINUOUS
370
    -3
390
57B
347
5BD
348
0
  0
LAYER
  5
212
330
2
100
AcDbSymbolTableRecord
100
AcDbLayerTableRecord
  2
06___PRT_ALL_SURFS
 70
     0
 62
     7
  6
CONTINUOUS
370
    -3
390
57B
347
5BD
348
0
  0
LAYER
  5
213
330
2
100
AcDbSymbolTableRecord
100
AcDbLayerTableRecord
  2
07__ASM_ALL_SKELETONS
 70
     0
 62
     7
  6
CONTINUOUS
370
    -3
390
57B
347
5BD
348
0
  0
LAYER
  5
214
330
2
100
AcDbSymbolTableRecord
100
AcDbLayerTableRecord
  2
1_ALL_PLANES
 70
     0
 62
     7
  6
CONTINUOUS
370
    -3
390
57B
347
5BD
348
0
  0
LAYER
  5
215
330
2
100
AcDbSymbolTableRecord
100
AcDbLayerTableRecord
  2
2_ALL_CSYS
 70
     0
 62
     7
  6
CONTINUOUS
370
    -3
390
57B
347
5BD
348
0
  0
LAYER
  5
216
330
2
100
AcDbSymbolTableRecord
100
AcDbLayerTableRecord
  2
3_ALL_AXES
 70
     0
 62
     7
  6
CONTINUOUS
370
    -3
390
57B
347
5BD
348
0
  0
LAYER
  5
217
330
2
100
AcDbSymbolTableRecord
100
AcDbLayerTableRecord
  2
4_ALL_POINTS
 70
     0
 62
     7
  6
CONTINUOUS
370
    -3
390
57B
347
5BD
348
0
  0
LAYER
  5
218
330
2
100
AcDbSymbolTableRecord
100
AcDbLayerTableRecord
  2
5_ALL_CURVES
 70
     0
 62
     7
  6
CONTINUOUS
370
    -3
390
57B
347
5BD
348
0
  0
LAYER
  5
219
330
2
100
AcDbSymbolTableRecord
100
AcDbLayerTableRecord
  2
5__COSTRUZIONE
 70
     0
 62
     7
  6
CONTINUOUS
370
    -3
390
57B
347
5BD
348
0
  0
LAYER
  5
21A
330
2
100
AcDbSymbolTableRecord
100
AcDbLayerTableRecord
  2
6_ALL_SURFS
 70
     0
 62
     7
  6
CONTINUOUS
370
    -3
390
57B
347
5BD
348
0
  0
LAYER
  5
21B
330
2
100
AcDbSymbolTableRecord
100
AcDbLayerTableRecord
  2
7_ALL_FEATURES
 70
     0
 62
     7
  6
CONTINUOUS
370
    -3
390
57B
347
5BD
348
0
  0
LAYER
  5
21C
330
2
100
AcDbSymbolTableRecord
100
AcDbLayerTableRecord
  2
9_SOLID
 70
     0
 62
     7
  6
CONTINUOUS
370
    -3
390
57B
347
5BD
348
0
  0
LAYER
  5
21D
330
2
100
AcDbSymbolTableRecord
100
AcDbLayerTableRecord
  2
INTFCLR_2
 70
     0
 62
     7
  6
CONTINUOUS
370
    -3
390
57B
347
5BD
348
0
  0
LAYER
  5
21E
330
2
100
AcDbSymbolTableRecord
100
AcDbLayerTableRecord
  2
INTFCLR_4
 70
     0
 62
     7
  6
CONTINUOUS
370
    -3
390
57B
347
5BD
348
0
  0
LAYER
  5
21F
330
2
100
AcDbSymbolTableRecord
100
AcDbLayerTableRecord
  2
INTF_RED
 70
     0
 62
     7
  6
CONTINUOUS
370
    -3
390
57B
347
5BD
348
0
  0
LAYER
  5
220
330
2
100
AcDbSymbolTableRecord
100
AcDbLayerTableRecord
  2
XXX_SOLIDO
 70
     0
 62
     7
  6
CONTINUOUS
370
    -3
390
57B
347
5BD
348
0
  0
ENDTAB
  0
TABLE
  2
STYLE
  5
3
330
0
100
AcDbSymbolTable
 70
     4
  0
STYLE
  5
11
330
3
100
AcDbSymbolTableRecord
100
AcDbTextStyleTableRecord
  2
STANDARD
 70
     0
 40
0.0
 41
1.0
 50
0.0
 71
     0
 42
0.2
  3
arial.ttf
  4

  0
STYLE
  5
221
330
3
100
AcDbSymbolTableRecord
100
AcDbTextStyleTableRecord
  2
TEXTSTYLE_1
 70
     0
 40
0.0
 41
0.8
 50
0.0
 71
     0
 42
0.2
  3
gdt
  4

  0
STYLE
  5
222
330
3
100
AcDbSymbolTableRecord
100
AcDbTextStyleTableRecord
  2
TEXTSTYLE_2
 70
     0
 40
0.0
 41
2.0
 50
0.0
 71
     0
 42
0.2
  3
txt
  4

  0
STYLE
  5
223
330
3
100
AcDbSymbolTableRecord
100
AcDbTextStyleTableRecord
  2
TEXTSTYLE_3
 70
     0
 40
0.0
 41
0.85
 50
0.0
 71
     0
 42
0.2
  3
txt
  4

  0
ENDTAB
  0
TABLE
  2
VIEW
  5
6
330
0
100
AcDbSymbolTable
 70
     0
  0
ENDTAB
  0
TABLE
  2
UCS
  5
7
330
0
100
AcDbSymbolTable
 70
     0
  0
ENDTAB
  0
TABLE
  2
APPID
  5
9
330
0
100
AcDbSymbolTable
 70
     1
  0
APPID
  5
224
330
9
100
AcDbSymbolTableRecord
100
AcDbRegAppTableRecord
  2
ACAD
 70
     0
  0
ENDTAB
  0
TABLE
  2
DIMSTYLE
  5
A
330
0
100
AcDbSymbolTable
 70
     3
100
AcDbDimStyleTable
  0
DIMSTYLE
105
22D
330
A
100
AcDbSymbolTableRecord
100
AcDbDimStyleTableRecord
  2
STANDARD
 70
     0
 41
2.5
 42
0.75
 44
0.75
 47
0.01
 48
0.01
 71
     1
 73
     0
 74
     0
 77
     1
 78
     8
 79
     2
140
3.0
147
0.625
171
     1
178
     0
179
     2
271
     2
272
     2
284
     8
340
11
341
225
342
225
343
225
344
225
  0
DIMSTYLE
105
22E
330
A
100
AcDbSymbolTableRecord
100
AcDbDimStyleTableRecord
  2
DIMSTYLE_1
 70
     0
 41
2.5
 42
0.75
 44
0.75
 47
1.2
 48
1.2
 73
     0
 74
     0
 77
     1
 78
     8
 79
     2
140
3.0
147
0.75
171
     1
178
     0
179
     2
271
     2
272
     2
284
     8
340
11
341
225
342
225
343
225
344
225
  0
DIMSTYLE
105
22F
330
A
100
AcDbSymbolTableRecord
100
AcDbDimStyleTableRecord
  2
DIMSTYLE_2
 70
     0
 41
2.5
 42
0.75
 44
0.75
 47
0.3
 48
0.3
 73
     0
 74
     0
 77
     1
 78
     8
 79
     2
140
3.0
147
0.75
171
     1
178
     0
179
     2
271
     2
272
     2
284
     8
340
11
341
225
342
225
343
225
344
225
  0
ENDTAB
  0
TABLE
  2
BLOCK_RECORD
  5
1
330
0
100
AcDbSymbolTable
 70
     8
  0
BLOCK_RECORD
  5
1F
330
1
100
AcDbSymbolTableRecord
100
AcDbBlockTableRecord
  2
*MODEL_SPACE
340
59F
 70
     0
280
     1
281
     0
  0
BLOCK_RECORD
  5
1B
330
1
100
AcDbSymbolTableRecord
100
AcDbBlockTableRecord
  2
*PAPER_SPACE
340
5A0
 70
     0
280
     1
281
     0
  0
BLOCK_RECORD
  5
225
330
1
100
AcDbSymbolTableRecord
100
AcDbBlockTableRecord
  2
_CLOSED
340
0
102
{BLKREFS
331
282
331
283
331
28B
331
28C
331
294
331
295
331
29D
331
29E
331
2A6
331
2A7
102
}
 70
     0
280
     1
281
     0
  0
BLOCK_RECORD
  5
226
330
1
100
AcDbSymbolTableRecord
100
AcDbBlockTableRecord
  2
*D1
340
0
 70
     0
280
     1
281
     0
  0
BLOCK_RECORD
  5
227
330
1
100
AcDbSymbolTableRecord
100
AcDbBlockTableRecord
  2
*D2
340
0
 70
     0
280
     1
281
     0
  0
BLOCK_RECORD
  5
228
330
1
100
AcDbSymbolTableRecord
100
AcDbBlockTableRecord
  2
*D3
340
0
 70
     0
280
     1
281
     0
  0
BLOCK_RECORD
  5
229
330
1
100
AcDbSymbolTableRecord
100
AcDbBlockTableRecord
  2
*D4
340
0
 70
     0
280
     1
281
     0
  0
BLOCK_RECORD
  5
22A
330
1
100
AcDbSymbolTableRecord
100
AcDbBlockTableRecord
  2
*D5
340
0
 70
     0
280
     1
281
     0
  0
BLOCK_RECORD
  5
22B
330
1
100
AcDbSymbolTableRecord
100
AcDbBlockTableRecord
  2
LOGO2_BL1
340
0
102
{BLKREFS
331
563
102
}
 70
     0
280
     1
281
     0
  0
BLOCK_RECORD
  5
22C
330
1
100
AcDbSymbolTableRecord
100
AcDbBlockTableRecord
  2
PROIEZIONE_EU_BL0
340
0
102
{BLKREFS
331
560
102
}
 70
     0
280
     1
281
     0
  0
ENDTAB
  0
ENDSEC
  0
SECTION
  2
BLOCKS
  0
BLOCK
  5
20
330
1F
100
AcDbEntity
  8
0
100
AcDbBlockBegin
  2
*MODEL_SPACE
 70
     0
 10
0.0
 20
0.0
 30
0.0
  3
*MODEL_SPACE
  1

  0
ENDBLK
  5
21
330
1F
100
AcDbEntity
  8
0
100
AcDbBlockEnd
  0
BLOCK
  5
1C
330
1B
100
AcDbEntity
 67
     1
  8
0
100
AcDbBlockBegin
  2
*PAPER_SPACE
 70
     0
 10
0.0
 20
0.0
 30
0.0
  3
*PAPER_SPACE
  1

  0
ENDBLK
  5
1D
330
1B
100
AcDbEntity
 67
     1
  8
0
100
AcDbBlockEnd
  0
BLOCK
  5
276
330
225
100
AcDbEntity
  8
0
100
AcDbBlockBegin
  2
_CLOSED
 70
     0
 10
0.0
 20
0.0
 30
0.0
  3
_CLOSED
  1

  0
LINE
  5
277
330
225
100
AcDbEntity
  8
0
  6
ByBlock
 62
     0
100
AcDbLine
 10
0.0
 20
0.0
 30
0.0
 11
-1.0
 21
0.2
 31
0.0
  0
LINE
  5
278
330
225
100
AcDbEntity
  8
0
  6
ByBlock
 62
     0
100
AcDbLine
 10
-1.0
 20
0.2
 30
0.0
 11
-1.0
 21
-0.2
 31
0.0
  0
LINE
  5
279
330
225
100
AcDbEntity
  8
0
  6
ByBlock
 62
     0
100
AcDbLine
 10
-1.0
 20
-0.2
 30
0.0
 11
0.0
 21
0.0
 31
0.0
  0
LINE
  5
27A
330
225
100
AcDbEntity
  8
0
  6
ByBlock
 62
     0
100
AcDbLine
 10
-1.0
 20
0.0
 30
0.0
 11
0.0
 21
0.0
 31
0.0
  0
ENDBLK
  5
27B
330
225
100
AcDbEntity
  8
0
  6
ByBlock
 62
     0
100
AcDbBlockEnd
  0
BLOCK
  5
27C
330
226
100
AcDbEntity
  8
0
100
AcDbBlockBegin
  2
*D1
 70
     1
 10
0.0
 20
0.0
 30
0.0
  3
*D1
  1

  0
MTEXT
  5
27D
330
226
100
AcDbEntity
  8
0
  6
Continuous
 62
     2
100
AcDbMText
 10
1384.5956773148
 20
691.6015820699
 30
0.0
 40
3.0
 41
9.3234200743
 46
0.0
 71
     2
 72
     1
  1
1763
 73
     1
 44
1.0
  0
LINE
  5
27E
330
226
100
AcDbEntity
  8
0
  6
Continuous
 62
     2
100
AcDbLine
 10
503.0956773148
 20
658.4122443823
 30
0.0
 11
503.0956773148
 21
688.6015820699
 31
0.0
  0
LINE
  5
27F
330
226
100
AcDbEntity
  8
0
  6
Continuous
 62
     2
100
AcDbLine
 10
2266.0956773148
 20
658.4122443823
 30
0.0
 11
2266.0956773148
 21
688.6015820699
 31
0.0
  0
LINE
  5
280
330
226
100
AcDbEntity
  8
0
  6
Continuous
 62
     2
100
AcDbLine
 10
503.0956773148
 20
687.8515820699
 30
0.0
 11
1384.5956773148
 21
687.8515820699
 31
0.0
  0
LINE
  5
281
330
226
100
AcDbEntity
  8
0
  6
Continuous
 62
     2
100
AcDbLine
 10
2266.0956773148
 20
687.8515820699
 30
0.0
 11
1384.5956773148
 21
687.8515820699
 31
0.0
  0
INSERT
  5
282
330
226
100
AcDbEntity
  8
0
  6
Continuous
 62
     2
100
AcDbBlockReference
  2
_CLOSED
 10
503.0956773148
 20
687.8515820699
 30
0.0
 41
2.5
 42
2.5
 43
2.5
 50
180.0
  0
INSERT
  5
283
330
226
100
AcDbEntity
  8
0
  6
Continuous
 62
     2
100
AcDbBlockReference
  2
_CLOSED
 10
2266.0956773148
 20
687.8515820699
 30
0.0
 41
2.5
 42
2.5
 43
2.5
  0
ENDBLK
  5
284
330
226
100
AcDbEntity
  8
0
  6
ByBlock
 62
     0
100
AcDbBlockEnd
  0
BLOCK
  5
285
330
227
100
AcDbEntity
  8
0
100
AcDbBlockBegin
  2
*D2
 70
     1
 10
0.0
 20
0.0
 30
0.0
  3
*D2
  1

  0
MTEXT
  5
286
330
227
100
AcDbEntity
  8
0
  6
Continuous
 62
     2
100
AcDbMText
 10
2342.6672003769
 20
616.9122443823
 30
0.0
 40
3.0
 41
8.1524163569
 46
0.0
 71
     2
 72
     1
  1
83,5
 11
0.0
 21
1.0
 31
0.0
 73
     1
 44
1.0
  0
LINE
  5
287
330
227
100
AcDbEntity
  8
0
  6
Continuous
 62
     2
100
AcDbLine
 10
2374.1159495028
 20
575.1622443823
 30
0.0
 11
2345.6672003769
 21
575.1622443823
 31
0.0
  0
LINE
  5
288
330
227
100
AcDbEntity
  8
0
  6
Continuous
 62
     2
100
AcDbLine
 10
2373.6760138242
 20
658.6622443823
 30
0.0
 11
2345.6672003769
 21
658.6622443823
 31
0.0
  0
LINE
  5
289
330
227
100
AcDbEntity
  8
0
  6
Continuous
 62
     2
100
AcDbLine
 10
2346.4172003769
 20
575.1622443823
 30
0.0
 11
2346.4172003769
 21
616.9122443823
 31
0.0
  0
LINE
  5
28A
330
227
100
AcDbEntity
  8
0
  6
Continuous
 62
     2
100
AcDbLine
 10
2346.4172003769
 20
658.6622443823
 30
0.0
 11
2346.4172003769
 21
616.9122443823
 31
0.0
  0
INSERT
  5
28B
330
227
100
AcDbEntity
  8
0
  6
Continuous
 62
     2
100
AcDbBlockReference
  2
_CLOSED
 10
2346.4172003769
 20
575.1622443823
 30
0.0
 41
2.5
 42
2.5
 43
2.5
 50
270.0
  0
INSERT
  5
28C
330
227
100
AcDbEntity
  8
0
  6
Continuous
 62
     2
100
AcDbBlockReference
  2
_CLOSED
 10
2346.4172003769
 20
658.6622443823
 30
0.0
 41
2.5
 42
2.5
 43
2.5
 50
90.0
  0
ENDBLK
  5
28D
330
227
100
AcDbEntity
  8
0
  6
ByBlock
 62
     0
100
AcDbBlockEnd
  0
BLOCK
  5
28E
330
228
100
AcDbEntity
  8
0
100
AcDbBlockBegin
  2
*D3
 70
     1
 10
0.0
 20
0.0
 30
0.0
  3
*D3
  1

  0
MTEXT
  5
28F
330
228
100
AcDbEntity
  8
0
  6
Continuous
 62
     2
100
AcDbMText
 10
2403.7398214589
 20
559.4146792433
 30
0.0
 40
3.0
 41
8.1524163569
 46
0.0
 71
     2
 72
     1
  1
42,4
 73
     1
 44
1.0
  0
LINE
  5
290
330
228
100
AcDbEntity
  8
0
  6
Continuous
 62
     2
100
AcDbLine
 10
2382.5398214589
 20
571.3120970681
 30
0.0
 11
2382.5398214589
 21
554.9146792433
 31
0.0
  0
LINE
  5
291
330
228
100
AcDbEntity
  8
0
  6
Continuous
 62
     2
100
AcDbLine
 10
2424.9398214589
 20
569.4875626472
 30
0.0
 11
2424.9398214589
 21
554.9146792433
 31
0.0
  0
LINE
  5
292
330
228
100
AcDbEntity
  8
0
  6
Continuous
 62
     2
100
AcDbLine
 10
2382.5398214589
 20
555.6646792433
 30
0.0
 11
2403.7398214589
 21
555.6646792433
 31
0.0
  0
LINE
  5
293
330
228
100
AcDbEntity
  8
0
  6
Continuous
 62
     2
100
AcDbLine
 10
2424.9398214589
 20
555.6646792433
 30
0.0
 11
2403.7398214589
 21
555.6646792433
 31
0.0
  0
INSERT
  5
294
330
228
100
AcDbEntity
  8
0
  6
Continuous
 62
     2
100
AcDbBlockReference
  2
_CLOSED
 10
2382.5398214589
 20
555.6646792433
 30
0.0
 41
2.5
 42
2.5
 43
2.5
 50
180.0
  0
INSERT
  5
295
330
228
100
AcDbEntity
  8
0
  6
Continuous
 62
     2
100
AcDbBlockReference
  2
_CLOSED
 10
2424.9398214589
 20
555.6646792433
 30
0.0
 41
2.5
 42
2.5
 43
2.5
  0
ENDBLK
  5
296
330
228
100
AcDbEntity
  8
0
  6
ByBlock
 62
     0
100
AcDbBlockEnd
  0
BLOCK
  5
297
330
229
100
AcDbEntity
  8
0
100
AcDbBlockBegin
  2
*D4
 70
     1
 10
0.0
 20
0.0
 30
0.0
  3
*D4
  1

  0
MTEXT
  5
298
330
229
100
AcDbEntity
  8
0
  6
Continuous
 62
     2
100
AcDbMText
 10
2457.3950512461
 20
623.9622443823
 30
0.0
 40
3.0
 41
8.1524163569
 46
0.0
 71
     2
 72
     1
  1
70,6
 11
0.0
 21
1.0
 31
0.0
 73
     1
 44
1.0
  0
LINE
  5
299
330
229
100
AcDbEntity
  8
0
  6
Continuous
 62
     2
100
AcDbLine
 10
2451.0398214589
 20
588.6622443823
 30
0.0
 11
2461.8950512461
 21
588.6622443823
 31
0.0
  0
LINE
  5
29A
330
229
100
AcDbEntity
  8
0
  6
Continuous
 62
     2
100
AcDbLine
 10
2425.4398214589
 20
659.2622443823
 30
0.0
 11
2461.8950512461
 21
659.2622443823
 31
0.0
  0
LINE
  5
29B
330
229
100
AcDbEntity
  8
0
  6
Continuous
 62
     2
100
AcDbLine
 10
2461.1450512461
 20
588.6622443823
 30
0.0
 11
2461.1450512461
 21
623.9622443823
 31
0.0
  0
LINE
  5
29C
330
229
100
AcDbEntity
  8
0
  6
Continuous
 62
     2
100
AcDbLine
 10
2461.1450512461
 20
659.2622443823
 30
0.0
 11
2461.1450512461
 21
623.9622443823
 31
0.0
  0
INSERT
  5
29D
330
229
100
AcDbEntity
  8
0
  6
Continuous
 62
     2
100
AcDbBlockReference
  2
_CLOSED
 10
2461.1450512461
 20
588.6622443823
 30
0.0
 41
2.5
 42
2.5
 43
2.5
 50
270.0
  0
INSERT
  5
29E
330
229
100
AcDbEntity
  8
0
  6
Continuous
 62
     2
100
AcDbBlockReference
  2
_CLOSED
 10
2461.1450512461
 20
659.2622443823
 30
0.0
 41
2.5
 42
2.5
 43
2.5
 50
90.0
  0
ENDBLK
  5
29F
330
229
100
AcDbEntity
  8
0
  6
ByBlock
 62
     0
100
AcDbBlockEnd
  0
BLOCK
  5
2A0
330
22A
100
AcDbEntity
  8
0
100
AcDbBlockBegin
  2
*D5
 70
     1
 10
0.0
 20
0.0
 30
0.0
  3
*D5
  1

  0
MTEXT
  5
2A1
330
22A
100
AcDbEntity
  8
0
  6
Continuous
 62
     2
100
AcDbMText
 10
2297.6419017489
 20
313.1982186575
 30
0.0
 40
3.0
 41
8.1524163569
 46
0.0
 71
     2
 72
     1
  1
93,1
 11
0.0
 21
1.0
 31
0.0
 73
     1
 44
1.0
  0
LINE
  5
2A2
330
22A
100
AcDbEntity
  8
0
  6
Continuous
 62
     2
100
AcDbLine
 10
2287.8548243218
 20
266.6482186575
 30
0.0
 11
2302.1419017489
 21
266.6482186575
 31
0.0
  0
LINE
  5
2A3
330
22A
100
AcDbEntity
  8
0
  6
Continuous
 62
     2
100
AcDbLine
 10
2284.1474132071
 20
359.7482186575
 30
0.0
 11
2302.1419017489
 21
359.7482186575
 31
0.0
  0
LINE
  5
2A4
330
22A
100
AcDbEntity
  8
0
  6
Continuous
 62
     2
100
AcDbLine
 10
2301.3919017489
 20
266.6482186575
 30
0.0
 11
2301.3919017489
 21
313.1982186575
 31
0.0
  0
LINE
  5
2A5
330
22A
100
AcDbEntity
  8
0
  6
Continuous
 62
     2
100
AcDbLine
 10
2301.3919017489
 20
359.7482186575
 30
0.0
 11
2301.3919017489
 21
313.1982186575
 31
0.0
  0
INSERT
  5
2A6
330
22A
100
AcDbEntity
  8
0
  6
Continuous
 62
     2
100
AcDbBlockReference
  2
_CLOSED
 10
2301.3919017489
 20
266.6482186575
 30
0.0
 41
2.5
 42
2.5
 43
2.5
 50
270.0
  0
INSERT
  5
2A7
330
22A
100
AcDbEntity
  8
0
  6
Continuous
 62
     2
100
AcDbBlockReference
  2
_CLOSED
 10
2301.3919017489
 20
359.7482186575
 30
0.0
 41
2.5
 42
2.5
 43
2.5
 50
90.0
  0
ENDBLK
  5
2A8
330
22A
100
AcDbEntity
  8
0
  6
ByBlock
 62
     0
100
AcDbBlockEnd
  0
BLOCK
  5
230
330
22B
100
AcDbEntity
  8
0
100
AcDbBlockBegin
  2
LOGO2_BL1
 70
     0
 10
2378.7216852978
 20
35.8335302746
 30
0.0
  3
LOGO2_BL1
  1

  0
LINE
  5
231
330
22B
100
AcDbEntity
  8
0
  6
Continuous
 62
     7
100
AcDbLine
 10
2370.4646105261
 20
39.0290216134
 30
0.0
 11
2369.1602695967
 21
39.0290216134
 31
0.0
  0
LINE
  5
232
330
22B
100
AcDbEntity
  8
0
  6
Continuous
 62
     7
100
AcDbLine
 10
2369.1602695967
 20
39.0290216134
 30
0.0
 11
2369.1602695967
 21
28.5699555536
 31
0.0
  0
LINE
  5
233
330
22B
100
AcDbEntity
  8
0
  6
Continuous
 62
     7
100
AcDbLine
 10
2369.1602695967
 20
28.5699555536
 30
0.0
 11
2373.641324485
 21
28.5699555536
 31
0.0
  0
LINE
  5
234
330
22B
100
AcDbEntity
  8
0
  6
Continuous
 62
     7
100
AcDbLine
 10
2373.641324485
 20
28.5699555536
 30
0.0
 11
2373.641324485
 21
29.7628098786
 31
0.0
  0
LINE
  5
235
330
22B
100
AcDbEntity
  8
0
  6
Continuous
 62
     7
100
AcDbLine
 10
2373.641324485
 20
29.7628098786
 30
0.0
 11
2370.4646105261
 21
29.7628098786
 31
0.0
  0
LINE
  5
236
330
22B
100
AcDbEntity
  8
0
  6
Continuous
 62
     7
100
AcDbLine
 10
2370.4646105261
 20
29.7628098786
 30
0.0
 11
2370.4646105261
 21
39.0290216134
 31
0.0
  0
LINE
  5
237
330
22B
100
AcDbEntity
  8
0
  6
Continuous
 62
     7
100
AcDbLine
 10
2385.4009367424
 20
39.0290216134
 30
0.0
 11
2384.0971192243
 21
39.0290216134
 31
0.0
  0
LINE
  5
238
330
22B
100
AcDbEntity
  8
0
  6
Continuous
 62
     7
100
AcDbLine
 10
2384.0971192243
 20
39.0290216134
 30
0.0
 11
2384.0971192243
 21
28.5699555536
 31
0.0
  0
LINE
  5
239
330
22B
100
AcDbEntity
  8
0
  6
Continuous
 62
     7
100
AcDbLine
 10
2384.0971192243
 20
28.5699555536
 30
0.0
 11
2388.5783049654
 21
28.5699555536
 31
0.0
  0
LINE
  5
23A
330
22B
100
AcDbEntity
  8
0
  6
Continuous
 62
     7
100
AcDbLine
 10
2388.5783049654
 20
28.5699555536
 30
0.0
 11
2388.5783049654
 21
29.7628098786
 31
0.0
  0
LINE
  5
23B
330
22B
100
AcDbEntity
  8
0
  6
Continuous
 62
     7
100
AcDbLine
 10
2388.5783049654
 20
29.7628098786
 30
0.0
 11
2385.4009367424
 21
29.7628098786
 31
0.0
  0
LINE
  5
23C
330
22B
100
AcDbEntity
  8
0
  6
Continuous
 62
     7
100
AcDbLine
 10
2385.4009367424
 20
29.7628098786
 30
0.0
 11
2385.4009367424
 21
39.0290216134
 31
0.0
  0
LWPOLYLINE
  5
23D
330
22B
100
AcDbEntity
  8
0
  6
Continuous
 62
     7
100
AcDbPolyline
 90
        2
 70
     0
 43
0.2
 10
2367.5146645076
 20
25.2264042467
 10
2367.5146645076
 20
23.3693409973
  0
LWPOLYLINE
  5
23E
330
22B
100
AcDbEntity
  8
0
  6
Continuous
 62
     7
100
AcDbPolyline
 90
        2
 70
     0
 43
0.2
 10
2367.5146645076
 20
23.3693409973
 10
2368.310380518
 20
23.3693409973
  0
LWPOLYLINE
  5
23F
330
22B
100
AcDbEntity
  8
0
  6
Continuous
 62
     7
100
AcDbPolyline
 90
        2
 70
     0
 43
0.2
 10
2368.310380518
 20
23.3693409973
 10
2368.310380518
 20
23.5813225689
  0
LWPOLYLINE
  5
240
330
22B
100
AcDbEntity
  8
0
  6
Continuous
 62
     7
100
AcDbPolyline
 90
        2
 70
     0
 43
0.2
 10
2368.310380518
 20
23.5813225689
 10
2367.7462740025
 20
23.5813225689
  0
LWPOLYLINE
  5
241
330
22B
100
AcDbEntity
  8
0
  6
Continuous
 62
     7
100
AcDbPolyline
 90
        2
 70
     0
 43
0.2
 10
2367.7462740025
 20
23.5813225689
 10
2367.7462740025
 20
25.2264042467
  0
LWPOLYLINE
  5
242
330
22B
100
AcDbEntity
  8
0
  6
Continuous
 62
     7
100
AcDbPolyline
 90
        2
 70
     0
 43
0.2
 10
2367.7462740025
 20
25.2264042467
 10
2367.5146645076
 20
25.2264042467
  0
SPLINE
  5
243
330
22B
100
AcDbEntity
  8
0
  6
Continuous
 62
     7
100
AcDbSpline
 70
     3
 71
     3
 72
    35
 73
    31
 74
     0
 42
0.000000001
 43
0.0000001
 40
0.0
 40
0.0
 40
0.0
 40
0.0
 40
1.0
 40
1.0
 40
1.0
 40
2.0
 40
2.0
 40
2.0
 40
3.0
 40
3.0
 40
3.0
 40
4.0
 40
4.0
 40
4.0
 40
5.0
 40
5.0
 40
5.0
 40
6.0
 40
6.0
 40
6.0
 40
7.0
 40
7.0
 40
7.0
 40
8.0
 40
8.0
 40
8.0
 40
9.0
 40
9.0
 40
9.0
 40
10.0
 40
10.0
 40
10.0
 40
10.0
 10
2369.7086737735
 20
24.5218926532
 30
0.0
 10
2369.7086737735
 20
24.5218926532
 30
0.0
 10
2369.7086737735
 20
23.859777374
 30
0.0
 10
2369.7086737735
 20
23.859777374
 30
0.0
 10
2369.7086737735
 20
23.5446837787
 30
0.0
 10
2369.8565374624
 20
23.3300851507
 30
0.0
 10
2370.1966239467
 20
23.3300851507
 30
0.0
 10
2370.5361870197
 20
23.3300851507
 30
0.0
 10
2370.6843124141
 20
23.5446837787
 30
0.0
 10
2370.6843124141
 20
23.859777374
 30
0.0
 10
2370.6843124141
 20
23.859777374
 30
0.0
 10
2370.6843124141
 20
24.5218926532
 30
0.0
 10
2370.6843124141
 20
24.5218926532
 30
0.0
 10
2370.6843124141
 20
24.5218926532
 30
0.0
 10
2370.4622551753
 20
24.5218926532
 30
0.0
 10
2370.4622551753
 20
24.5218926532
 30
0.0
 10
2370.4622551753
 20
24.5218926532
 30
0.0
 10
2370.4622551753
 20
23.8849011159
 30
0.0
 10
2370.4622551753
 20
23.8849011159
 30
0.0
 10
2370.4622551753
 20
23.6990901087
 30
0.0
 10
2370.4155407178
 20
23.5363091981
 30
0.0
 10
2370.1966239467
 20
23.5363091981
 30
0.0
 10
2369.9771837642
 20
23.5363091981
 30
0.0
 10
2369.9304693068
 20
23.6990901087
 30
0.0
 10
2369.9304693068
 20
23.8849011159
 30
0.0
 10
2369.9304693068
 20
23.8849011159
 30
0.0
 10
2369.9304693068
 20
24.5218926532
 30
0.0
 10
2369.9304693068
 20
24.5218926532
 30
0.0
 10
2369.9304693068
 20
24.5218926532
 30
0.0
 10
2369.7086737735
 20
24.5218926532
 30
0.0
 10
2369.7086737735
 20
24.5218926532
 30
0.0
  0
SPLINE
  5
244
330
22B
100
AcDbEntity
  8
0
  6
Continuous
 62
     7
100
AcDbSpline
 70
     3
 71
     3
 72
    35
 73
    31
 74
     0
 42
0.000000001
 43
0.0000001
 40
0.0
 40
0.0
 40
0.0
 40
0.0
 40
1.0
 40
1.0
 40
1.0
 40
2.0
 40
2.0
 40
2.0
 40
3.0
 40
3.0
 40
3.0
 40
4.0
 40
4.0
 40
4.0
 40
5.0
 40
5.0
 40
5.0
 40
6.0
 40
6.0
 40
6.0
 40
7.0
 40
7.0
 40
7.0
 40
8.0
 40
8.0
 40
8.0
 40
9.0
 40
9.0
 40
9.0
 40
10.0
 40
10.0
 40
10.0
 40
10.0
 10
2373.1074449713
 20
24.4805431615
 30
0.0
 10
2373.0189884637
 20
24.5318374677
 30
0.0
 10
2372.905539067
 20
24.5569612095
 30
0.0
 10
2372.801903632
 20
24.5569612095
 30
0.0
 10
2372.4470307789
 20
24.5569612095
 30
0.0
 10
2372.1715855886
 20
24.2931619204
 30
0.0
 10
2372.1715855886
 20
23.9356720108
 30
0.0
 10
2372.1715855886
 20
23.5907439721
 30
0.0
 10
2372.4500403938
 20
23.330608562
 30
0.0
 10
2372.7896034668
 20
23.330608562
 30
0.0
 10
2372.905539067
 20
23.330608562
 30
0.0
 10
2373.00629574
 20
23.3525918361
 30
0.0
 10
2373.1074449713
 20
23.4065031987
 30
0.0
 10
2373.1074449713
 20
23.4065031987
 30
0.0
 10
2373.1074449713
 20
23.6891452942
 30
0.0
 10
2373.1074449713
 20
23.6891452942
 30
0.0
 10
2373.0235683125
 20
23.5959780849
 30
0.0
 10
2372.9200637303
 20
23.5368326094
 30
0.0
 10
2372.7919588176
 20
23.5368326094
 30
0.0
 10
2372.5582556775
 20
23.5368326094
 30
0.0
 10
2372.3929885634
 20
23.7090349231
 30
0.0
 10
2372.3929885634
 20
23.9456168252
 30
0.0
 10
2372.3929885634
 20
24.1575983968
 30
0.0
 10
2372.5607418812
 20
24.3496903395
 30
0.0
 10
2372.7775650072
 20
24.3496903395
 30
0.0
 10
2372.9103806214
 20
24.3496903395
 30
0.0
 10
2373.0189884637
 20
24.2957789768
 30
0.0
 10
2373.1074449713
 20
24.1947605983
 30
0.0
 10
2373.1074449713
 20
24.1947605983
 30
0.0
 10
2373.1074449713
 20
24.4805431615
 30
0.0
 10
2373.1074449713
 20
24.4805431615
 30
0.0
  0
SPLINE
  5
245
330
22B
100
AcDbEntity
  8
0
  6
Continuous
 62
     7
100
AcDbSpline
 70
     3
 71
     3
 72
    32
 73
    28
 74
     0
 42
0.000000001
 43
0.0000001
 40
0.0
 40
0.0
 40
0.0
 40
0.0
 40
1.0
 40
1.0
 40
1.0
 40
2.0
 40
2.0
 40
2.0
 40
3.0
 40
3.0
 40
3.0
 40
4.0
 40
4.0
 40
4.0
 40
5.0
 40
5.0
 40
5.0
 40
6.0
 40
6.0
 40
6.0
 40
7.0
 40
7.0
 40
7.0
 40
8.0
 40
8.0
 40
8.0
 40
9.0
 40
9.0
 40
9.0
 40
9.0
 10
2375.6393162236
 20
23.9089780351
 30
0.0
 10
2375.6393162236
 20
23.9089780351
 30
0.0
 10
2375.6393162236
 20
23.9429997688
 30
0.0
 10
2375.6393162236
 20
23.9429997688
 30
0.0
 10
2375.6393162236
 20
24.2853107511
 30
0.0
 10
2375.4664596458
 20
24.5569612095
 30
0.0
 10
2375.0998100386
 20
24.5569612095
 30
0.0
 10
2374.7281880242
 20
24.5569612095
 30
0.0
 10
2374.5384514324
 20
24.290544864
 30
0.0
 10
2374.5384514324
 20
23.9356720108
 30
0.0
 10
2374.5384514324
 20
23.5959780849
 30
0.0
 10
2374.7525266491
 20
23.3300851507
 30
0.0
 10
2375.104651593
 20
23.3300851507
 30
0.0
 10
2375.3286716242
 20
23.3300851507
 30
0.0
 10
2375.5308392342
 20
23.4457590453
 30
0.0
 10
2375.6393162236
 20
23.645178746
 30
0.0
 10
2375.6393162236
 20
23.645178746
 30
0.0
 10
2375.4516732769
 20
23.7519546487
 30
0.0
 10
2375.4516732769
 20
23.7519546487
 30
0.0
 10
2375.3681891765
 20
23.6132506574
 30
0.0
 10
2375.2769847596
 20
23.5274112062
 30
0.0
 10
2375.1073995023
 20
23.5274112062
 30
0.0
 10
2374.8954179307
 20
23.5274112062
 30
0.0
 10
2374.7624714636
 20
23.7121753909
 30
0.0
 10
2374.7601161128
 20
23.9089780351
 30
0.0
 10
2374.7601161128
 20
23.9089780351
 30
0.0
 10
2375.6393162236
 20
23.9089780351
 30
0.0
 10
2375.6393162236
 20
23.9089780351
 30
0.0
  0
SPLINE
  5
246
330
22B
100
AcDbEntity
  8
0
  6
Continuous
 62
     7
100
AcDbSpline
 70
     3
 71
     3
 72
    14
 73
    10
 74
     0
 42
0.000000001
 43
0.0000001
 40
0.0
 40
0.0
 40
0.0
 40
0.0
 40
1.0
 40
1.0
 40
1.0
 40
2.0
 40
2.0
 40
2.0
 40
3.0
 40
3.0
 40
3.0
 40
3.0
 10
2374.7721545724
 20
24.0764696472
 30
0.0
 10
2374.7997645178
 20
24.2413442029
 30
0.0
 10
2374.9276077249
 20
24.3643458555
 30
0.0
 10
2375.0998100386
 20
24.3643458555
 30
0.0
 10
2375.2769847596
 20
24.3643458555
 30
0.0
 10
2375.3904341562
 20
24.2486719609
 30
0.0
 10
2375.4176515432
 20
24.0764696472
 30
0.0
 10
2375.4176515432
 20
24.0764696472
 30
0.0
 10
2374.7721545724
 20
24.0764696472
 30
0.0
 10
2374.7721545724
 20
24.0764696472
 30
0.0
  0
SPLINE
  5
247
330
22B
100
AcDbEntity
  8
0
  6
Continuous
 62
     7
100
AcDbSpline
 70
     3
 71
     3
 72
    20
 73
    16
 74
     0
 42
0.000000001
 43
0.0000001
 40
0.0
 40
0.0
 40
0.0
 40
0.0
 40
1.0
 40
1.0
 40
1.0
 40
2.0
 40
2.0
 40
2.0
 40
3.0
 40
3.0
 40
3.0
 40
4.0
 40
4.0
 40
4.0
 40
5.0
 40
5.0
 40
5.0
 40
5.0
 10
2377.6633476738
 20
24.2858341624
 30
0.0
 10
2377.6633476738
 20
24.2858341624
 30
0.0
 10
2378.0744872404
 20
23.783359326
 30
0.0
 10
2378.0744872404
 20
23.783359326
 30
0.0
 10
2377.9584207873
 20
23.6676854314
 30
0.0
 10
2377.8206327658
 20
23.5373560207
 30
0.0
 10
2377.6486921577
 20
23.5373560207
 30
0.0
 10
2377.4712557311
 20
23.5373560207
 30
0.0
 10
2377.303764119
 20
23.7017071651
 30
0.0
 10
2377.303764119
 20
23.8786201804
 30
0.0
 10
2377.303764119
 20
24.0565800183
 30
0.0
 10
2377.5135211926
 20
24.1827221387
 30
0.0
 10
2377.641102694
 20
24.270655235
 30
0.0
 10
2377.641102694
 20
24.270655235
 30
0.0
 10
2377.6633476738
 20
24.2858341624
 30
0.0
 10
2377.6633476738
 20
24.2858341624
 30
0.0
  0
SPLINE
  5
248
330
22B
100
AcDbEntity
  8
0
  6
Continuous
 62
     7
100
AcDbSpline
 70
     3
 71
     3
 72
    23
 73
    19
 74
     0
 42
0.000000001
 43
0.0000001
 40
0.0
 40
0.0
 40
0.0
 40
0.0
 40
1.0
 40
1.0
 40
1.0
 40
2.0
 40
2.0
 40
2.0
 40
3.0
 40
3.0
 40
3.0
 40
4.0
 40
4.0
 40
4.0
 40
5.0
 40
5.0
 40
5.0
 40
6.0
 40
6.0
 40
6.0
 40
6.0
 10
2377.7126791877
 20
24.5768508384
 30
0.0
 10
2377.7126791877
 20
24.5768508384
 30
0.0
 10
2377.6510475085
 20
24.6553625316
 30
0.0
 10
2377.6510475085
 20
24.6553625316
 30
0.0
 10
2377.5971361459
 20
24.7239294103
 30
0.0
 10
2377.5403460211
 20
24.7930197003
 30
0.0
 10
2377.5403460211
 20
24.8867103208
 30
0.0
 10
2377.5403460211
 20
25.0055246832
 30
0.0
 10
2377.6362611396
 20
25.0829895538
 30
0.0
 10
2377.7472243327
 20
25.0829895538
 30
0.0
 10
2377.8704876909
 20
25.0829895538
 30
0.0
 10
2377.963785753
 20
25.0118056186
 30
0.0
 10
2377.963785753
 20
24.881476208
 30
0.0
 10
2377.963785753
 20
24.7464360957
 30
0.0
 10
2377.8356808403
 20
24.6700180477
 30
0.0
 10
2377.7421210726
 20
24.5962170561
 30
0.0
 10
2377.7421210726
 20
24.5962170561
 30
0.0
 10
2377.7126791877
 20
24.5768508384
 30
0.0
 10
2377.7126791877
 20
24.5768508384
 30
0.0
  0
SPLINE
  5
249
330
22B
100
AcDbEntity
  8
0
  6
Continuous
 62
     7
100
AcDbSpline
 70
     3
 71
     3
 72
    50
 73
    46
 74
     0
 42
0.000000001
 43
0.0000001
 40
0.0
 40
0.0
 40
0.0
 40
0.0
 40
1.0
 40
1.0
 40
1.0
 40
2.0
 40
2.0
 40
2.0
 40
3.0
 40
3.0
 40
3.0
 40
4.0
 40
4.0
 40
4.0
 40
5.0
 40
5.0
 40
5.0
 40
6.0
 40
6.0
 40
6.0
 40
7.0
 40
7.0
 40
7.0
 40
8.0
 40
8.0
 40
8.0
 40
9.0
 40
9.0
 40
9.0
 40
10.0
 40
10.0
 40
10.0
 40
11.0
 40
11.0
 40
11.0
 40
12.0
 40
12.0
 40
12.0
 40
13.0
 40
13.0
 40
13.0
 40
14.0
 40
14.0
 40
14.0
 40
15.0
 40
15.0
 40
15.0
 40
15.0
 10
2378.4148354303
 20
23.3698644086
 30
0.0
 10
2378.4148354303
 20
23.3698644086
 30
0.0
 10
2378.700225435
 20
23.3698644086
 30
0.0
 10
2378.700225435
 20
23.3698644086
 30
0.0
 10
2378.700225435
 20
23.3698644086
 30
0.0
 10
2378.3678592672
 20
23.7807422696
 30
0.0
 10
2378.3678592672
 20
23.7807422696
 30
0.0
 10
2378.3678592672
 20
23.7807422696
 30
0.0
 10
2378.5943655021
 20
24.0466352038
 30
0.0
 10
2378.5943655021
 20
24.0466352038
 30
0.0
 10
2378.5943655021
 20
24.0466352038
 30
0.0
 10
2378.4461092548
 20
24.1994712999
 30
0.0
 10
2378.4461092548
 20
24.1994712999
 30
0.0
 10
2378.4461092548
 20
24.1994712999
 30
0.0
 10
2378.2302020985
 20
23.9482338817
 30
0.0
 10
2378.2302020985
 20
23.9482338817
 30
0.0
 10
2378.2302020985
 20
23.9482338817
 30
0.0
 10
2377.8431394512
 20
24.416163573
 30
0.0
 10
2377.8431394512
 20
24.416163573
 30
0.0
 10
2377.9985926037
 20
24.5302672338
 30
0.0
 10
2378.1808705847
 20
24.6700180477
 30
0.0
 10
2378.1808705847
 20
24.8793825628
 30
0.0
 10
2378.1808705847
 20
25.123292223
 30
0.0
 10
2377.9788338275
 20
25.2667069158
 30
0.0
 10
2377.7523275927
 20
25.2667069158
 30
0.0
 10
2377.5081562269
 20
25.2667069158
 30
0.0
 10
2377.3237846008
 20
25.1159644649
 30
0.0
 10
2377.3237846008
 20
24.8594929339
 30
0.0
 10
2377.3237846008
 20
24.7019461362
 30
0.0
 10
2377.4224476285
 20
24.5642889675
 30
0.0
 10
2377.5277841502
 20
24.4533257745
 30
0.0
 10
2377.5277841502
 20
24.4533257745
 30
0.0
 10
2377.4122411084
 20
24.3695799684
 30
0.0
 10
2377.4122411084
 20
24.3695799684
 30
0.0
 10
2377.2345429762
 20
24.2413442029
 30
0.0
 10
2377.0872026987
 20
24.1136318487
 30
0.0
 10
2377.0872026987
 20
23.8765265352
 30
0.0
 10
2377.0872026987
 20
23.5561988271
 30
0.0
 10
2377.3457678749
 20
23.3300851507
 30
0.0
 10
2377.6561507686
 20
23.3300851507
 30
0.0
 10
2377.8750675397
 20
23.3300851507
 30
0.0
 10
2378.0722627424
 20
23.4551804485
 30
0.0
 10
2378.2125369676
 20
23.6211018268
 30
0.0
 10
2378.2125369676
 20
23.6211018268
 30
0.0
 10
2378.4148354303
 20
23.3698644086
 30
0.0
 10
2378.4148354303
 20
23.3698644086
 30
0.0
  0
LWPOLYLINE
  5
24A
330
22B
100
AcDbEntity
  8
0
  6
Continuous
 62
     7
100
AcDbPolyline
 90
        2
 70
     0
 43
0.2
 10
2380.3502795201
 20
25.2264042467
 10
2380.1189317308
 20
25.2264042467
  0
LWPOLYLINE
  5
24B
330
22B
100
AcDbEntity
  8
0
  6
Continuous
 62
     7
100
AcDbPolyline
 90
        2
 70
     0
 43
0.2
 10
2380.1189317308
 20
25.2264042467
 10
2380.1189317308
 20
23.3693409973
  0
LWPOLYLINE
  5
24C
330
22B
100
AcDbEntity
  8
0
  6
Continuous
 62
     7
100
AcDbPolyline
 90
        2
 70
     0
 43
0.2
 10
2380.1189317308
 20
23.3693409973
 10
2380.9142551827
 20
23.3693409973
  0
LWPOLYLINE
  5
24D
330
22B
100
AcDbEntity
  8
0
  6
Continuous
 62
     7
100
AcDbPolyline
 90
        2
 70
     0
 43
0.2
 10
2380.9142551827
 20
23.3693409973
 10
2380.9142551827
 20
23.5813225689
  0
LWPOLYLINE
  5
24E
330
22B
100
AcDbEntity
  8
0
  6
Continuous
 62
     7
100
AcDbPolyline
 90
        2
 70
     0
 43
0.2
 10
2380.9142551827
 20
23.5813225689
 10
2380.3502795201
 20
23.5813225689
  0
LWPOLYLINE
  5
24F
330
22B
100
AcDbEntity
  8
0
  6
Continuous
 62
     7
100
AcDbPolyline
 90
        2
 70
     0
 43
0.2
 10
2380.3502795201
 20
23.5813225689
 10
2380.3502795201
 20
25.2264042467
  0
LWPOLYLINE
  5
250
330
22B
100
AcDbEntity
  8
0
  6
Continuous
 62
     7
100
AcDbPolyline
 90
        2
 70
     0
 43
0.2
 10
2382.5933585942
 20
24.5218926532
 10
2382.3722173251
 20
24.5218926532
  0
LWPOLYLINE
  5
251
330
22B
100
AcDbEntity
  8
0
  6
Continuous
 62
     7
100
AcDbPolyline
 90
        2
 70
     0
 43
0.2
 10
2382.3722173251
 20
24.5218926532
 10
2382.3722173251
 20
23.3698644086
  0
LWPOLYLINE
  5
252
330
22B
100
AcDbEntity
  8
0
  6
Continuous
 62
     7
100
AcDbPolyline
 90
        2
 70
     0
 43
0.2
 10
2382.3722173251
 20
23.3698644086
 10
2382.5933585942
 20
23.3698644086
  0
LWPOLYLINE
  5
253
330
22B
100
AcDbEntity
  8
0
  6
Continuous
 62
     7
100
AcDbPolyline
 90
        2
 70
     0
 43
0.2
 10
2382.5933585942
 20
23.3698644086
 10
2382.5933585942
 20
24.5218926532
  0
LWPOLYLINE
  5
254
330
22B
100
AcDbEntity
  8
0
  6
Continuous
 62
     7
100
AcDbPolyline
 90
        2
 70
     1
 43
0.2
 10
2382.330335317
 20
25.0518465822
 42
1.0
 10
2382.6355023079
 20
25.0518465822
 42
1.0
  0
SPLINE
  5
255
330
22B
100
AcDbEntity
  8
0
  6
Continuous
 62
     7
100
AcDbSpline
 70
     3
 71
     3
 72
    17
 73
    13
 74
     0
 42
0.000000001
 43
0.0000001
 40
0.0
 40
0.0
 40
0.0
 40
0.0
 40
1.0
 40
1.0
 40
1.0
 40
2.0
 40
2.0
 40
2.0
 40
3.0
 40
3.0
 40
3.0
 40
4.0
 40
4.0
 40
4.0
 40
4.0
 10
2384.7236425359
 20
23.5274112062
 30
0.0
 10
2384.4896776902
 20
23.5274112062
 30
0.0
 10
2384.3593482795
 20
23.7294479634
 30
0.0
 10
2384.3593482795
 20
23.9456168252
 30
0.0
 10
2384.3593482795
 20
24.1602154533
 30
0.0
 10
2384.4951735087
 20
24.3591117427
 30
0.0
 10
2384.7236425359
 20
24.3591117427
 30
0.0
 10
2384.9631032001
 20
24.3591117427
 30
0.0
 10
2385.0986667236
 20
24.1701602677
 30
0.0
 10
2385.0986667236
 20
23.9456168252
 30
0.0
 10
2385.0986667236
 20
23.7195031489
 30
0.0
 10
2384.9654585509
 20
23.5274112062
 30
0.0
 10
2384.7236425359
 20
23.5274112062
 30
0.0
  0
SPLINE
  5
256
330
22B
100
AcDbEntity
  8
0
  6
Continuous
 62
     7
100
AcDbSpline
 70
     3
 71
     3
 72
    50
 73
    46
 74
     0
 42
0.000000001
 43
0.0000001
 40
0.0
 40
0.0
 40
0.0
 40
0.0
 40
1.0
 40
1.0
 40
1.0
 40
2.0
 40
2.0
 40
2.0
 40
3.0
 40
3.0
 40
3.0
 40
4.0
 40
4.0
 40
4.0
 40
5.0
 40
5.0
 40
5.0
 40
6.0
 40
6.0
 40
6.0
 40
7.0
 40
7.0
 40
7.0
 40
8.0
 40
8.0
 40
8.0
 40
9.0
 40
9.0
 40
9.0
 40
10.0
 40
10.0
 40
10.0
 40
11.0
 40
11.0
 40
11.0
 40
12.0
 40
12.0
 40
12.0
 40
13.0
 40
13.0
 40
13.0
 40
14.0
 40
14.0
 40
14.0
 40
15.0
 40
15.0
 40
15.0
 40
15.0
 10
2385.3077695331
 20
24.5224160645
 30
0.0
 10
2385.3077695331
 20
24.5224160645
 30
0.0
 10
2385.0861048527
 20
24.5224160645
 30
0.0
 10
2385.0861048527
 20
24.5224160645
 30
0.0
 10
2385.0861048527
 20
24.5224160645
 30
0.0
 10
2385.0861048527
 20
24.325090009
 30
0.0
 10
2385.0861048527
 20
24.325090009
 30
0.0
 10
2385.0861048527
 20
24.325090009
 30
0.0
 10
2385.0813941511
 20
24.325090009
 30
0.0
 10
2385.0813941511
 20
24.325090009
 30
0.0
 10
2384.9900588814
 20
24.4679812905
 30
0.0
 10
2384.852140007
 20
24.5564377982
 30
0.0
 10
2384.679414282
 20
24.5564377982
 30
0.0
 10
2384.3470481142
 20
24.5564377982
 30
0.0
 10
2384.1379453047
 20
24.2685615899
 30
0.0
 10
2384.1379453047
 20
23.9529445833
 30
0.0
 10
2384.1379453047
 20
23.6231954719
 30
0.0
 10
2384.3350096546
 20
23.3300851507
 30
0.0
 10
2384.6898825078
 20
23.3300851507
 30
0.0
 10
2384.852140007
 20
23.3300851507
 30
0.0
 10
2384.9921525265
 20
23.4185416584
 30
0.0
 10
2385.0813941511
 20
23.5493944803
 30
0.0
 10
2385.0813941511
 20
23.5493944803
 30
0.0
 10
2385.0861048527
 20
23.5493944803
 30
0.0
 10
2385.0861048527
 20
23.5493944803
 30
0.0
 10
2385.0861048527
 20
23.5493944803
 30
0.0
 10
2385.0861048527
 20
23.3300851507
 30
0.0
 10
2385.0861048527
 20
23.3300851507
 30
0.0
 10
2385.0861048527
 20
23.0935032486
 30
0.0
 10
2385.0295764336
 20
22.9066454188
 30
0.0
 10
2384.7563557413
 20
22.9066454188
 30
0.0
 10
2384.5540572786
 20
22.9066454188
 30
0.0
 10
2384.4114277026
 20
23.0249363699
 30
0.0
 10
2384.4114277026
 20
23.2311604173
 30
0.0
 10
2384.4114277026
 20
23.2311604173
 30
0.0
 10
2384.1897630222
 20
23.2311604173
 30
0.0
 10
2384.1897630222
 20
23.2311604173
 30
0.0
 10
2384.1947354295
 20
22.9066454188
 30
0.0
 10
2384.4258215131
 20
22.7098427746
 30
0.0
 10
2384.7461492212
 20
22.7098427746
 30
0.0
 10
2385.1941892836
 20
22.7098427746
 30
0.0
 10
2385.3077695331
 20
22.9951019265
 30
0.0
 10
2385.3077695331
 20
23.3918476827
 30
0.0
 10
2385.3077695331
 20
23.3918476827
 30
0.0
 10
2385.3077695331
 20
24.5224160645
 30
0.0
 10
2385.3077695331
 20
24.5224160645
 30
0.0
  0
SPLINE
  5
257
330
22B
100
AcDbEntity
  8
0
  6
Continuous
 62
     7
100
AcDbSpline
 70
     3
 71
     3
 72
    44
 73
    40
 74
     0
 42
0.000000001
 43
0.0000001
 40
0.0
 40
0.0
 40
0.0
 40
0.0
 40
1.0
 40
1.0
 40
1.0
 40
2.0
 40
2.0
 40
2.0
 40
3.0
 40
3.0
 40
3.0
 40
4.0
 40
4.0
 40
4.0
 40
5.0
 40
5.0
 40
5.0
 40
6.0
 40
6.0
 40
6.0
 40
7.0
 40
7.0
 40
7.0
 40
8.0
 40
8.0
 40
8.0
 40
9.0
 40
9.0
 40
9.0
 40
10.0
 40
10.0
 40
10.0
 40
11.0
 40
11.0
 40
11.0
 40
12.0
 40
12.0
 40
12.0
 40
13.0
 40
13.0
 40
13.0
 40
13.0
 10
2386.8766948685
 20
25.5074761083
 30
0.0
 10
2386.8766948685
 20
25.5074761083
 30
0.0
 10
2386.8766948685
 20
23.3693409973
 30
0.0
 10
2386.8766948685
 20
23.3693409973
 30
0.0
 10
2386.8766948685
 20
23.3693409973
 30
0.0
 10
2387.0980978433
 20
23.3693409973
 30
0.0
 10
2387.0980978433
 20
23.3693409973
 30
0.0
 10
2387.0980978433
 20
23.3693409973
 30
0.0
 10
2387.0980978433
 20
23.8990332206
 30
0.0
 10
2387.0980978433
 20
23.8990332206
 30
0.0
 10
2387.0980978433
 20
24.1089211471
 30
0.0
 10
2387.0980978433
 20
24.359635154
 30
0.0
 10
2387.3833569952
 20
24.359635154
 30
0.0
 10
2387.6102557885
 20
24.359635154
 30
0.0
 10
2387.6372114698
 20
24.2266886868
 30
0.0
 10
2387.6372114698
 20
24.0304094539
 30
0.0
 10
2387.6372114698
 20
24.0304094539
 30
0.0
 10
2387.6372114698
 20
23.3693409973
 30
0.0
 10
2387.6372114698
 20
23.3693409973
 30
0.0
 10
2387.6372114698
 20
23.3693409973
 30
0.0
 10
2387.8591378558
 20
23.3693409973
 30
0.0
 10
2387.8591378558
 20
23.3693409973
 30
0.0
 10
2387.8591378558
 20
23.3693409973
 30
0.0
 10
2387.8591378558
 20
24.0565800183
 30
0.0
 10
2387.8591378558
 20
24.0565800183
 30
0.0
 10
2387.8591378558
 20
24.3371284686
 30
0.0
 10
2387.7751303441
 20
24.5569612095
 30
0.0
 10
2387.4500919344
 20
24.5569612095
 30
0.0
 10
2387.3103411205
 20
24.5569612095
 30
0.0
 10
2387.1721605405
 20
24.4904879759
 30
0.0
 10
2387.1028085449
 20
24.3674863233
 30
0.0
 10
2387.1028085449
 20
24.3674863233
 30
0.0
 10
2387.0980978433
 20
24.3674863233
 30
0.0
 10
2387.0980978433
 20
24.3674863233
 30
0.0
 10
2387.0980978433
 20
24.3674863233
 30
0.0
 10
2387.0980978433
 20
25.5074761083
 30
0.0
 10
2387.0980978433
 20
25.5074761083
 30
0.0
 10
2387.0980978433
 20
25.5074761083
 30
0.0
 10
2386.8766948685
 20
25.5074761083
 30
0.0
 10
2386.8766948685
 20
25.5074761083
 30
0.0
  0
LWPOLYLINE
  5
258
330
22B
100
AcDbEntity
  8
0
  6
Continuous
 62
     7
100
AcDbPolyline
 90
        2
 70
     0
 43
0.2
 10
2389.6989285327
 20
24.3151451945
 10
2389.9153591002
 20
24.3151451945
  0
LWPOLYLINE
  5
259
330
22B
100
AcDbEntity
  8
0
  6
Continuous
 62
     7
100
AcDbPolyline
 90
        2
 70
     0
 43
0.2
 10
2389.9153591002
 20
24.3151451945
 10
2389.9153591002
 20
24.5218926532
  0
LWPOLYLINE
  5
25A
330
22B
100
AcDbEntity
  8
0
  6
Continuous
 62
     7
100
AcDbPolyline
 90
        2
 70
     0
 43
0.2
 10
2389.9153591002
 20
24.5218926532
 10
2389.6989285327
 20
24.5218926532
  0
LWPOLYLINE
  5
25B
330
22B
100
AcDbEntity
  8
0
  6
Continuous
 62
     7
100
AcDbPolyline
 90
        2
 70
     0
 43
0.2
 10
2389.6989285327
 20
24.5218926532
 10
2389.6989285327
 20
24.9626049576
  0
LWPOLYLINE
  5
25C
330
22B
100
AcDbEntity
  8
0
  6
Continuous
 62
     7
100
AcDbPolyline
 90
        2
 70
     0
 43
0.2
 10
2389.6989285327
 20
24.9626049576
 10
2389.4772638523
 20
24.9626049576
  0
LWPOLYLINE
  5
25D
330
22B
100
AcDbEntity
  8
0
  6
Continuous
 62
     7
100
AcDbPolyline
 90
        2
 70
     0
 43
0.2
 10
2389.4772638523
 20
24.9626049576
 10
2389.4772638523
 20
24.5218926532
  0
LWPOLYLINE
  5
25E
330
22B
100
AcDbEntity
  8
0
  6
Continuous
 62
     7
100
AcDbPolyline
 90
        2
 70
     0
 43
0.2
 10
2389.4772638523
 20
24.5218926532
 10
2389.3566175504
 20
24.5218926532
  0
LWPOLYLINE
  5
25F
330
22B
100
AcDbEntity
  8
0
  6
Continuous
 62
     7
100
AcDbPolyline
 90
        2
 70
     0
 43
0.2
 10
2389.3566175504
 20
24.5218926532
 10
2389.3566175504
 20
24.3151451945
  0
LWPOLYLINE
  5
260
330
22B
100
AcDbEntity
  8
0
  6
Continuous
 62
     7
100
AcDbPolyline
 90
        2
 70
     0
 43
0.2
 10
2389.3566175504
 20
24.3151451945
 10
2389.4772638523
 20
24.3151451945
  0
LWPOLYLINE
  5
261
330
22B
100
AcDbEntity
  8
0
  6
Continuous
 62
     7
100
AcDbPolyline
 90
        2
 70
     0
 43
0.2
 10
2389.4772638523
 20
24.3151451945
 10
2389.4772638523
 20
23.3693409973
  0
LWPOLYLINE
  5
262
330
22B
100
AcDbEntity
  8
0
  6
Continuous
 62
     7
100
AcDbPolyline
 90
        2
 70
     0
 43
0.2
 10
2389.4772638523
 20
23.3693409973
 10
2389.6989285327
 20
23.3693409973
  0
LWPOLYLINE
  5
263
330
22B
100
AcDbEntity
  8
0
  6
Continuous
 62
     7
100
AcDbPolyline
 90
        2
 70
     0
 43
0.2
 10
2389.6989285327
 20
23.3693409973
 10
2389.6989285327
 20
24.3151451945
  0
SPLINE
  5
264
330
22B
100
AcDbEntity
  8
0
  6
Continuous
 62
     7
100
AcDbSpline
 70
     3
 71
     3
 72
    20
 73
    16
 74
     0
 42
0.000000001
 43
0.0000001
 40
0.0
 40
0.0
 40
0.0
 40
0.0
 40
1.0
 40
1.0
 40
1.0
 40
2.0
 40
2.0
 40
2.0
 40
3.0
 40
3.0
 40
3.0
 40
4.0
 40
4.0
 40
4.0
 40
5.0
 40
5.0
 40
5.0
 40
5.0
 10
2377.48093884
 20
33.7302674407
 30
0.0
 10
2377.48093884
 20
33.7302674407
 30
0.0
 10
2379.7972954944
 20
30.9007060185
 30
0.0
 10
2379.7972954944
 20
30.9007060185
 30
0.0
 10
2379.145648441
 20
30.2485355538
 30
0.0
 10
2378.368775237
 20
29.512619283
 30
0.0
 10
2377.3975855924
 20
29.512619283
 30
0.0
 10
2376.3990477079
 20
29.512619283
 30
0.0
 10
2375.4557297144
 20
30.4421977303
 30
0.0
 10
2375.4557297144
 20
31.4413898788
 30
0.0
 10
2375.4557297144
 20
32.4405820274
 30
0.0
 10
2376.6345827875
 20
33.147187266
 30
0.0
 10
2377.3561052478
 20
33.6470450459
 30
0.0
 10
2377.3561052478
 20
33.6470450459
 30
0.0
 10
2377.48093884
 20
33.7302674407
 30
0.0
 10
2377.48093884
 20
33.7302674407
 30
0.0
  0
SPLINE
  5
265
330
22B
100
AcDbEntity
  8
0
  6
Continuous
 62
     7
100
AcDbSpline
 70
     3
 71
     3
 72
    23
 73
    19
 74
     0
 42
0.000000001
 43
0.0000001
 40
0.0
 40
0.0
 40
0.0
 40
0.0
 40
1.0
 40
1.0
 40
1.0
 40
2.0
 40
2.0
 40
2.0
 40
3.0
 40
3.0
 40
3.0
 40
4.0
 40
4.0
 40
4.0
 40
5.0
 40
5.0
 40
5.0
 40
6.0
 40
6.0
 40
6.0
 40
6.0
 10
2377.7583468225
 20
35.3680213604
 30
0.0
 10
2377.7583468225
 20
35.3680213604
 30
0.0
 10
2377.41184855
 20
35.8113507213
 30
0.0
 10
2377.41184855
 20
35.8113507213
 30
0.0
 10
2377.106045505
 20
36.1994601912
 30
0.0
 10
2376.7871571779
 20
36.5879622196
 30
0.0
 10
2376.7871571779
 20
37.1149065337
 30
0.0
 10
2376.7871571779
 20
37.7810782503
 30
0.0
 10
2377.3284953024
 20
38.2248001696
 30
0.0
 10
2377.9524015575
 20
38.2248001696
 30
0.0
 10
2378.6461832196
 20
38.2248001696
 30
0.0
 10
2379.1733892393
 20
37.8225585949
 30
0.0
 10
2379.1733892393
 20
37.0875582939
 30
0.0
 10
2379.1733892393
 20
36.3242937834
 30
0.0
 10
2378.4521284846
 20
35.8941805576
 30
0.0
 10
2377.9250533177
 20
35.4784611422
 30
0.0
 10
2377.9250533177
 20
35.4784611422
 30
0.0
 10
2377.7583468225
 20
35.3680213604
 30
0.0
 10
2377.7583468225
 20
35.3680213604
 30
0.0
  0
SPLINE
  5
266
330
22B
100
AcDbEntity
  8
0
  6
Continuous
 62
     7
100
AcDbSpline
 70
     3
 71
     3
 72
    50
 73
    46
 74
     0
 42
0.000000001
 43
0.0000001
 40
0.0
 40
0.0
 40
0.0
 40
0.0
 40
1.0
 40
1.0
 40
1.0
 40
2.0
 40
2.0
 40
2.0
 40
3.0
 40
3.0
 40
3.0
 40
4.0
 40
4.0
 40
4.0
 40
5.0
 40
5.0
 40
5.0
 40
6.0
 40
6.0
 40
6.0
 40
7.0
 40
7.0
 40
7.0
 40
8.0
 40
8.0
 40
8.0
 40
9.0
 40
9.0
 40
9.0
 40
10.0
 40
10.0
 40
10.0
 40
11.0
 40
11.0
 40
11.0
 40
12.0
 40
12.0
 40
12.0
 40
13.0
 40
13.0
 40
13.0
 40
14.0
 40
14.0
 40
14.0
 40
15.0
 40
15.0
 40
15.0
 40
15.0
 10
2381.7119339854
 20
28.5694321423
 30
0.0
 10
2381.7119339854
 20
28.5694321423
 30
0.0
 10
2383.32116199
 20
28.5694321423
 30
0.0
 10
2383.32116199
 20
28.5694321423
 30
0.0
 10
2383.32116199
 20
28.5694321423
 30
0.0
 10
2381.4481346964
 20
30.8865739137
 30
0.0
 10
2381.4481346964
 20
30.8865739137
 30
0.0
 10
2381.4481346964
 20
30.8865739137
 30
0.0
 10
2382.7244731218
 20
32.3840536083
 30
0.0
 10
2382.7244731218
 20
32.3840536083
 30
0.0
 10
2382.7244731218
 20
32.3840536083
 30
0.0
 10
2381.8922491741
 20
33.2450651768
 30
0.0
 10
2381.8922491741
 20
33.2450651768
 30
0.0
 10
2381.8922491741
 20
33.2450651768
 30
0.0
 10
2380.6716540508
 20
31.8297610544
 30
0.0
 10
2380.6716540508
 20
31.8297610544
 30
0.0
 10
2380.6716540508
 20
31.8297610544
 30
0.0
 10
2378.493739682
 20
34.4651368889
 30
0.0
 10
2378.493739682
 20
34.4651368889
 30
0.0
 10
2379.3673131214
 20
35.1031752488
 30
0.0
 10
2380.3939843626
 20
35.8941805576
 30
0.0
 10
2380.3939843626
 20
37.0730336307
 30
0.0
 10
2380.3939843626
 20
38.4467265557
 30
0.0
 10
2379.2560882228
 20
39.2512097051
 30
0.0
 10
2377.9807966199
 20
39.2512097051
 30
0.0
 10
2376.6073654005
 20
39.2512097051
 30
0.0
 10
2375.5664312017
 20
38.4049845055
 30
0.0
 10
2375.5664312017
 20
36.9623321433
 30
0.0
 10
2375.5664312017
 20
36.0747574519
 30
0.0
 10
2376.1217705782
 20
35.2978842479
 30
0.0
 10
2376.7179360351
 20
34.6734545814
 30
0.0
 10
2376.7179360351
 20
34.6734545814
 30
0.0
 10
2376.066027276
 20
34.2018610111
 30
0.0
 10
2376.066027276
 20
34.2018610111
 30
0.0
 10
2375.0674893916
 20
33.4806002564
 30
0.0
 10
2374.2346111798
 20
32.7593395017
 30
0.0
 10
2374.2346111798
 20
31.4277811853
 30
0.0
 10
2374.2346111798
 20
29.6241058873
 30
0.0
 10
2375.6916573524
 20
28.3475057562
 30
0.0
 10
2377.4391967897
 20
28.3475057562
 30
0.0
 10
2378.6740548707
 20
28.3475057562
 30
0.0
 10
2379.7834250953
 20
29.0556812287
 30
0.0
 10
2380.5742995513
 20
29.9842128534
 30
0.0
 10
2380.5742995513
 20
29.9842128534
 30
0.0
 10
2381.7119339854
 20
28.5694321423
 30
0.0
 10
2381.7119339854
 20
28.5694321423
 30
0.0
  0
LINE
  5
267
330
22B
100
AcDbEntity
  8
0
  6
Continuous
 62
     7
100
AcDbLine
 10
2367.5147953604
 20
26.5433070469
 30
0.0
 11
2389.9287060881
 21
26.5433070469
 31
0.0
  0
LINE
  5
268
330
22B
100
AcDbEntity
  8
0
  6
Continuous
 62
     7
100
AcDbLine
 10
2389.9287060881
 20
26.5433070469
 30
0.0
 11
2389.9287060881
 21
48.9572177746
 31
0.0
  0
LINE
  5
269
330
22B
100
AcDbEntity
  8
0
  6
Continuous
 62
     7
100
AcDbLine
 10
2389.9287060881
 20
48.9572177746
 30
0.0
 11
2367.5147953604
 21
48.9572177746
 31
0.0
  0
LINE
  5
26A
330
22B
100
AcDbEntity
  8
0
  6
Continuous
 62
     7
100
AcDbLine
 10
2367.5147953604
 20
48.9572177746
 30
0.0
 11
2367.5147953604
 21
26.5433070469
 31
0.0
  0
ENDBLK
  5
26B
330
22B
100
AcDbEntity
  8
0
  6
ByBlock
 62
     0
100
AcDbBlockEnd
  0
BLOCK
  5
26C
330
22C
100
AcDbEntity
  8
0
100
AcDbBlockBegin
  2
PROIEZIONE_EU_BL0
 70
     0
 10
2379.8956382531
 20
61.4585302746
 30
0.0
  3
PROIEZIONE_EU_BL0
  1

  0
LWPOLYLINE
  5
26D
330
22C
100
AcDbEntity
  8
DEFAULT_1
  6
CENTER
 62
     7
100
AcDbPolyline
 90
        2
 70
     0
 43
0.25
 10
2386.0222589147
 20
66.4582244065
 10
2386.0222998971
 20
56.4588361427
  0
LWPOLYLINE
  5
26E
330
22C
100
AcDbEntity
  8
DEFAULT_1
  6
CENTER
 62
     7
100
AcDbPolyline
 90
        2
 70
     0
 43
0.25
 10
2392.0222887398
 20
61.4588014097
 10
2367.7689877663
 20
61.4585307493
  0
LWPOLYLINE
  5
26F
330
22C
100
AcDbEntity
  8
0
  6
Continuous
 62
     7
100
AcDbPolyline
 90
        2
 70
     1
 43
0.25
 10
2382.4751487389
 20
61.4399825204
 42
1.0
 10
2389.5814778376
 20
61.4399825204
 42
1.0
  0
LWPOLYLINE
  5
270
330
22C
100
AcDbEntity
  8
0
  6
Continuous
 62
     7
100
AcDbPolyline
 90
        2
 70
     1
 43
0.25
 10
2384.0248925673
 20
61.457880565
 42
1.0
 10
2388.0366443174
 20
61.457880565
 42
1.0
  0
LWPOLYLINE
  5
271
330
22C
100
AcDbEntity
  8
0
  6
Continuous
 62
     7
100
AcDbPolyline
 90
        2
 70
     0
 43
0.25
 10
2380.0222865338
 20
65.0337337698
 10
2380.0222861792
 20
57.9335308615
  0
LWPOLYLINE
  5
272
330
22C
100
AcDbEntity
  8
0
  6
Continuous
 62
     7
100
AcDbPolyline
 90
        2
 70
     0
 43
0.25
 10
2380.0223146156
 20
57.9335024251
 10
2370.0277573444
 20
59.453595838
  0
LWPOLYLINE
  5
273
330
22C
100
AcDbEntity
  8
0
  6
Continuous
 62
     7
100
AcDbPolyline
 90
        2
 70
     0
 43
0.25
 10
2370.0254473588
 20
59.4529182964
 10
2370.0227804547
 20
63.4585569079
  0
LWPOLYLINE
  5
274
330
22C
100
AcDbEntity
  8
0
  6
Continuous
 62
     7
100
AcDbPolyline
 90
        2
 70
     0
 43
0.25
 10
2370.0227721787
 20
63.4585486318
 10
2380.0225154159
 20
65.0337058519
  0
ENDBLK
  5
275
330
22C
100
AcDbEntity
  8
0
  6
ByBlock
 62
     0
100
AcDbBlockEnd
  0
ENDSEC
  0
SECTION
  2
ENTITIES
  0
LINE
  5
2A9
330
1B
100
AcDbEntity
 67
     1
  8
0
  6
Continuous
 62
     7
100
AcDbLine
 10
0.0
 20
0.0
 30
0.0
 11
2500.0
 21
0.0
 31
0.0
  0
LINE
  5
2AA
330
1B
100
AcDbEntity
 67
     1
  8
0
  6
Continuous
 62
     7
100
AcDbLine
 10
2500.0
 20
0.0
 30
0.0
 11
2500.0
 21
3200.0
 31
0.0
  0
LINE
  5
2AB
330
1B
100
AcDbEntity
 67
     1
  8
0
  6
Continuous
 62
     7
100
AcDbLine
 10
0.0
 20
3200.0
 30
0.0
 11
2500.0
 21
3200.0
 31
0.0
  0
LINE
  5
2AC
330
1B
100
AcDbEntity
 67
     1
  8
0
  6
Continuous
 62
     7
100
AcDbLine
 10
0.0
 20
0.0
 30
0.0
 11
0.0
 21
3200.0
 31
0.0
  0
VIEWPORT
  5
2AD
330
1B
100
AcDbEntity
 67
     1
  8
0
100
AcDbViewport
 10
0.0
 20
0.0
 30
0.0
 40
5334.163424124515
 41
3772.015564202335
 68
     1
 69
     1
 12
2521.400778210117
 22
1600.0
 13
0.0
 23
0.0
 14
1.0
 24
1.0
 15
0.0
 25
0.0
 16
0.0
 26
0.0
 36
1.0
 17
0.0
 27
0.0
 37
0.0
 42
50.0
 43
0.0
 44
0.0
 45
3772.015564202335
 50
0.0
 51
0.0
 72
   100
 90
   557216
  1

281
     0
 71
     1
 74
     0
110
0.0
120
0.0
130
0.0
111
1.0
121
0.0
131
0.0
112
0.0
122
1.0
132
0.0
 79
     0
146
0.0
170
     0
 61
     5
348
5A6
292
     1
282
     1
141
0.0
142
0.0
 63
   256
  0
LINE
  5
2AE
330
1B
100
AcDbEntity
 67
     1
  8
7_ALL_FEATURES
  6
Continuous
 62
     7
100
AcDbLine
 10
2422.3148214589
 20
605.6622443823
 30
0.0
 11
2422.3148214589
 21
606.5372443823
 31
0.0
  0
LINE
  5
2AF
330
1B
100
AcDbEntity
 67
     1
  8
7_ALL_FEATURES
  6
Continuous
 62
     7
100
AcDbLine
 10
2422.3148214589
 20
606.5372443823
 30
0.0
 11
2423.1898214589
 21
606.5372443823
 31
0.0
  0
LINE
  5
2B0
330
1B
100
AcDbEntity
 67
     1
  8
7_ALL_FEATURES
  6
Continuous
 62
     7
100
AcDbLine
 10
2423.1898214589
 20
607.2872443823
 30
0.0
 11
2422.3148214589
 21
607.2872443823
 31
0.0
  0
LINE
  5
2B1
330
1B
100
AcDbEntity
 67
     1
  8
7_ALL_FEATURES
  6
Continuous
 62
     7
100
AcDbLine
 10
2422.3148214589
 20
607.2872443823
 30
0.0
 11
2422.3148214589
 21
608.1622443823
 31
0.0
  0
LINE
  5
2B2
330
1B
100
AcDbEntity
 67
     1
  8
7_ALL_FEATURES
  6
Continuous
 62
     7
100
AcDbLine
 10
2421.5648214589
 20
608.1622443823
 30
0.0
 11
2421.5648214589
 21
607.2872443823
 31
0.0
  0
LINE
  5
2B3
330
1B
100
AcDbEntity
 67
     1
  8
7_ALL_FEATURES
  6
Continuous
 62
     7
100
AcDbLine
 10
2421.5648214589
 20
607.2872443823
 30
0.0
 11
2420.6898214589
 21
607.2872443823
 31
0.0
  0
LINE
  5
2B4
330
1B
100
AcDbEntity
 67
     1
  8
7_ALL_FEATURES
  6
Continuous
 62
     7
100
AcDbLine
 10
2420.6898214589
 20
606.5372443823
 30
0.0
 11
2421.5648214589
 21
606.5372443823
 31
0.0
  0
LINE
  5
2B5
330
1B
100
AcDbEntity
 67
     1
  8
7_ALL_FEATURES
  6
Continuous
 62
     7
100
AcDbLine
 10
2421.5648214589
 20
606.5372443823
 30
0.0
 11
2421.5648214589
 21
605.6622443823
 31
0.0
  0
ARC
  5
2B6
330
1B
100
AcDbEntity
 67
     1
  8
3_ALL_AXES
  6
Continuous
 62
     7
100
AcDbCircle
 10
2421.9398214589
 20
606.9122443823
 30
0.0
 40
2.75
100
AcDbArc
 50
0.0
 51
180.0
  0
LINE
  5
2B7
330
1B
100
AcDbEntity
 67
     1
  8
7_ALL_FEATURES
  6
Continuous
 62
     7
100
AcDbLine
 10
2421.5648214589
 20
608.1622443823
 30
0.0
 11
2422.3148214589
 21
608.1622443823
 31
0.0
  0
LINE
  5
2B8
330
1B
100
AcDbEntity
 67
     1
  8
7_ALL_FEATURES
  6
Continuous
 62
     7
100
AcDbLine
 10
2423.1898214589
 20
607.2872443823
 30
0.0
 11
2423.1898214589
 21
606.5372443823
 31
0.0
  0
LINE
  5
2B9
330
1B
100
AcDbEntity
 67
     1
  8
7_ALL_FEATURES
  6
Continuous
 62
     7
100
AcDbLine
 10
2422.3148214589
 20
605.6622443823
 30
0.0
 11
2421.5648214589
 21
605.6622443823
 31
0.0
  0
LINE
  5
2BA
330
1B
100
AcDbEntity
 67
     1
  8
7_ALL_FEATURES
  6
Continuous
 62
     7
100
AcDbLine
 10
2420.6898214589
 20
606.5372443823
 30
0.0
 11
2420.6898214589
 21
607.2872443823
 31
0.0
  0
ARC
  5
2BB
330
1B
100
AcDbEntity
 67
     1
  8
3_ALL_AXES
  6
Continuous
 62
     7
100
AcDbCircle
 10
2421.9398214589
 20
606.9122443823
 30
0.0
 40
2.75
100
AcDbArc
 50
180.0
 51
360.0
  0
LINE
  5
2BC
330
1B
100
AcDbEntity
 67
     1
  8
7_ALL_FEATURES
  6
Continuous
 62
     7
100
AcDbLine
 10
2385.9148214589
 20
654.4122443823
 30
0.0
 11
2385.9148214589
 21
655.2872443823
 31
0.0
  0
LINE
  5
2BD
330
1B
100
AcDbEntity
 67
     1
  8
7_ALL_FEATURES
  6
Continuous
 62
     7
100
AcDbLine
 10
2385.9148214589
 20
655.2872443823
 30
0.0
 11
2386.7898214589
 21
655.2872443823
 31
0.0
  0
LINE
  5
2BE
330
1B
100
AcDbEntity
 67
     1
  8
7_ALL_FEATURES
  6
Continuous
 62
     7
100
AcDbLine
 10
2386.7898214589
 20
656.0372443823
 30
0.0
 11
2385.9148214589
 21
656.0372443823
 31
0.0
  0
LINE
  5
2BF
330
1B
100
AcDbEntity
 67
     1
  8
7_ALL_FEATURES
  6
Continuous
 62
     7
100
AcDbLine
 10
2385.9148214589
 20
656.0372443823
 30
0.0
 11
2385.9148214589
 21
656.9122443823
 31
0.0
  0
LINE
  5
2C0
330
1B
100
AcDbEntity
 67
     1
  8
7_ALL_FEATURES
  6
Continuous
 62
     7
100
AcDbLine
 10
2385.1648214589
 20
656.9122443823
 30
0.0
 11
2385.1648214589
 21
656.0372443823
 31
0.0
  0
LINE
  5
2C1
330
1B
100
AcDbEntity
 67
     1
  8
7_ALL_FEATURES
  6
Continuous
 62
     7
100
AcDbLine
 10
2385.1648214589
 20
656.0372443823
 30
0.0
 11
2384.2898214589
 21
656.0372443823
 31
0.0
  0
LINE
  5
2C2
330
1B
100
AcDbEntity
 67
     1
  8
7_ALL_FEATURES
  6
Continuous
 62
     7
100
AcDbLine
 10
2384.2898214589
 20
655.2872443823
 30
0.0
 11
2385.1648214589
 21
655.2872443823
 31
0.0
  0
LINE
  5
2C3
330
1B
100
AcDbEntity
 67
     1
  8
7_ALL_FEATURES
  6
Continuous
 62
     7
100
AcDbLine
 10
2385.1648214589
 20
655.2872443823
 30
0.0
 11
2385.1648214589
 21
654.4122443823
 31
0.0
  0
ARC
  5
2C4
330
1B
100
AcDbEntity
 67
     1
  8
3_ALL_AXES
  6
Continuous
 62
     7
100
AcDbCircle
 10
2385.5398214589
 20
655.6622443823
 30
0.0
 40
2.75
100
AcDbArc
 50
0.0
 51
180.0
  0
LINE
  5
2C5
330
1B
100
AcDbEntity
 67
     1
  8
7_ALL_FEATURES
  6
Continuous
 62
     7
100
AcDbLine
 10
2385.1648214589
 20
656.9122443823
 30
0.0
 11
2385.9148214589
 21
656.9122443823
 31
0.0
  0
LINE
  5
2C6
330
1B
100
AcDbEntity
 67
     1
  8
7_ALL_FEATURES
  6
Continuous
 62
     7
100
AcDbLine
 10
2386.7898214589
 20
656.0372443823
 30
0.0
 11
2386.7898214589
 21
655.2872443823
 31
0.0
  0
LINE
  5
2C7
330
1B
100
AcDbEntity
 67
     1
  8
7_ALL_FEATURES
  6
Continuous
 62
     7
100
AcDbLine
 10
2385.9148214589
 20
654.4122443823
 30
0.0
 11
2385.1648214589
 21
654.4122443823
 31
0.0
  0
LINE
  5
2C8
330
1B
100
AcDbEntity
 67
     1
  8
7_ALL_FEATURES
  6
Continuous
 62
     7
100
AcDbLine
 10
2384.2898214589
 20
655.2872443823
 30
0.0
 11
2384.2898214589
 21
656.0372443823
 31
0.0
  0
ARC
  5
2C9
330
1B
100
AcDbEntity
 67
     1
  8
3_ALL_AXES
  6
Continuous
 62
     7
100
AcDbCircle
 10
2385.5398214589
 20
655.6622443823
 30
0.0
 40
2.75
100
AcDbArc
 50
180.0
 51
360.0
  0
LINE
  5
2CA
330
1B
100
AcDbEntity
 67
     1
  8
7_ALL_FEATURES
  6
Continuous
 62
     7
100
AcDbLine
 10
2385.9148214589
 20
605.6622443823
 30
0.0
 11
2385.9148214589
 21
606.5372443823
 31
0.0
  0
LINE
  5
2CB
330
1B
100
AcDbEntity
 67
     1
  8
7_ALL_FEATURES
  6
Continuous
 62
     7
100
AcDbLine
 10
2385.9148214589
 20
606.5372443823
 30
0.0
 11
2386.7898214589
 21
606.5372443823
 31
0.0
  0
LINE
  5
2CC
330
1B
100
AcDbEntity
 67
     1
  8
7_ALL_FEATURES
  6
Continuous
 62
     7
100
AcDbLine
 10
2386.7898214589
 20
607.2872443823
 30
0.0
 11
2385.9148214589
 21
607.2872443823
 31
0.0
  0
LINE
  5
2CD
330
1B
100
AcDbEntity
 67
     1
  8
7_ALL_FEATURES
  6
Continuous
 62
     7
100
AcDbLine
 10
2385.9148214589
 20
607.2872443823
 30
0.0
 11
2385.9148214589
 21
608.1622443823
 31
0.0
  0
LINE
  5
2CE
330
1B
100
AcDbEntity
 67
     1
  8
7_ALL_FEATURES
  6
Continuous
 62
     7
100
AcDbLine
 10
2385.1648214589
 20
608.1622443823
 30
0.0
 11
2385.1648214589
 21
607.2872443823
 31
0.0
  0
LINE
  5
2CF
330
1B
100
AcDbEntity
 67
     1
  8
7_ALL_FEATURES
  6
Continuous
 62
     7
100
AcDbLine
 10
2385.1648214589
 20
607.2872443823
 30
0.0
 11
2384.2898214589
 21
607.2872443823
 31
0.0
  0
LINE
  5
2D0
330
1B
100
AcDbEntity
 67
     1
  8
7_ALL_FEATURES
  6
Continuous
 62
     7
100
AcDbLine
 10
2384.2898214589
 20
606.5372443823
 30
0.0
 11
2385.1648214589
 21
606.5372443823
 31
0.0
  0
LINE
  5
2D1
330
1B
100
AcDbEntity
 67
     1
  8
7_ALL_FEATURES
  6
Continuous
 62
     7
100
AcDbLine
 10
2385.1648214589
 20
606.5372443823
 30
0.0
 11
2385.1648214589
 21
605.6622443823
 31
0.0
  0
ARC
  5
2D2
330
1B
100
AcDbEntity
 67
     1
  8
3_ALL_AXES
  6
Continuous
 62
     7
100
AcDbCircle
 10
2385.5398214589
 20
606.9122443823
 30
0.0
 40
2.75
100
AcDbArc
 50
0.0
 51
180.0
  0
LINE
  5
2D3
330
1B
100
AcDbEntity
 67
     1
  8
7_ALL_FEATURES
  6
Continuous
 62
     7
100
AcDbLine
 10
2385.1648214589
 20
608.1622443823
 30
0.0
 11
2385.9148214589
 21
608.1622443823
 31
0.0
  0
LINE
  5
2D4
330
1B
100
AcDbEntity
 67
     1
  8
7_ALL_FEATURES
  6
Continuous
 62
     7
100
AcDbLine
 10
2386.7898214589
 20
607.2872443823
 30
0.0
 11
2386.7898214589
 21
606.5372443823
 31
0.0
  0
LINE
  5
2D5
330
1B
100
AcDbEntity
 67
     1
  8
7_ALL_FEATURES
  6
Continuous
 62
     7
100
AcDbLine
 10
2385.9148214589
 20
605.6622443823
 30
0.0
 11
2385.1648214589
 21
605.6622443823
 31
0.0
  0
LINE
  5
2D6
330
1B
100
AcDbEntity
 67
     1
  8
7_ALL_FEATURES
  6
Continuous
 62
     7
100
AcDbLine
 10
2384.2898214589
 20
606.5372443823
 30
0.0
 11
2384.2898214589
 21
607.2872443823
 31
0.0
  0
ARC
  5
2D7
330
1B
100
AcDbEntity
 67
     1
  8
3_ALL_AXES
  6
Continuous
 62
     7
100
AcDbCircle
 10
2385.5398214589
 20
606.9122443823
 30
0.0
 40
2.75
100
AcDbArc
 50
180.0
 51
360.0
  0
LINE
  5
2D8
330
1B
100
AcDbEntity
 67
     1
  8
7_ALL_FEATURES
  6
Continuous
 62
     7
100
AcDbLine
 10
2422.3148214589
 20
654.4122443823
 30
0.0
 11
2422.3148214589
 21
655.2872443823
 31
0.0
  0
LINE
  5
2D9
330
1B
100
AcDbEntity
 67
     1
  8
7_ALL_FEATURES
  6
Continuous
 62
     7
100
AcDbLine
 10
2422.3148214589
 20
655.2872443823
 30
0.0
 11
2423.1898214589
 21
655.2872443823
 31
0.0
  0
LINE
  5
2DA
330
1B
100
AcDbEntity
 67
     1
  8
7_ALL_FEATURES
  6
Continuous
 62
     7
100
AcDbLine
 10
2423.1898214589
 20
656.0372443823
 30
0.0
 11
2422.3148214589
 21
656.0372443823
 31
0.0
  0
LINE
  5
2DB
330
1B
100
AcDbEntity
 67
     1
  8
7_ALL_FEATURES
  6
Continuous
 62
     7
100
AcDbLine
 10
2422.3148214589
 20
656.0372443823
 30
0.0
 11
2422.3148214589
 21
656.9122443823
 31
0.0
  0
LINE
  5
2DC
330
1B
100
AcDbEntity
 67
     1
  8
7_ALL_FEATURES
  6
Continuous
 62
     7
100
AcDbLine
 10
2421.5648214589
 20
656.9122443823
 30
0.0
 11
2421.5648214589
 21
656.0372443823
 31
0.0
  0
LINE
  5
2DD
330
1B
100
AcDbEntity
 67
     1
  8
7_ALL_FEATURES
  6
Continuous
 62
     7
100
AcDbLine
 10
2421.5648214589
 20
656.0372443823
 30
0.0
 11
2420.6898214589
 21
656.0372443823
 31
0.0
  0
LINE
  5
2DE
330
1B
100
AcDbEntity
 67
     1
  8
7_ALL_FEATURES
  6
Continuous
 62
     7
100
AcDbLine
 10
2420.6898214589
 20
655.2872443823
 30
0.0
 11
2421.5648214589
 21
655.2872443823
 31
0.0
  0
LINE
  5
2DF
330
1B
100
AcDbEntity
 67
     1
  8
7_ALL_FEATURES
  6
Continuous
 62
     7
100
AcDbLine
 10
2421.5648214589
 20
655.2872443823
 30
0.0
 11
2421.5648214589
 21
654.4122443823
 31
0.0
  0
ARC
  5
2E0
330
1B
100
AcDbEntity
 67
     1
  8
3_ALL_AXES
  6
Continuous
 62
     7
100
AcDbCircle
 10
2421.9398214589
 20
655.6622443823
 30
0.0
 40
2.75
100
AcDbArc
 50
0.0
 51
180.0
  0
LINE
  5
2E1
330
1B
100
AcDbEntity
 67
     1
  8
7_ALL_FEATURES
  6
Continuous
 62
     7
100
AcDbLine
 10
2421.5648214589
 20
656.9122443823
 30
0.0
 11
2422.3148214589
 21
656.9122443823
 31
0.0
  0
LINE
  5
2E2
330
1B
100
AcDbEntity
 67
     1
  8
7_ALL_FEATURES
  6
Continuous
 62
     7
100
AcDbLine
 10
2423.1898214589
 20
656.0372443823
 30
0.0
 11
2423.1898214589
 21
655.2872443823
 31
0.0
  0
LINE
  5
2E3
330
1B
100
AcDbEntity
 67
     1
  8
7_ALL_FEATURES
  6
Continuous
 62
     7
100
AcDbLine
 10
2422.3148214589
 20
654.4122443823
 30
0.0
 11
2421.5648214589
 21
654.4122443823
 31
0.0
  0
LINE
  5
2E4
330
1B
100
AcDbEntity
 67
     1
  8
7_ALL_FEATURES
  6
Continuous
 62
     7
100
AcDbLine
 10
2420.6898214589
 20
655.2872443823
 30
0.0
 11
2420.6898214589
 21
656.0372443823
 31
0.0
  0
ARC
  5
2E5
330
1B
100
AcDbEntity
 67
     1
  8
3_ALL_AXES
  6
Continuous
 62
     7
100
AcDbCircle
 10
2421.9398214589
 20
655.6622443823
 30
0.0
 40
2.75
100
AcDbArc
 50
180.0
 51
360.0
  0
ARC
  5
2E6
330
1B
100
AcDbEntity
 67
     1
  8
7_ALL_FEATURES
  6
Continuous
 62
     7
100
AcDbCircle
 10
2425.2398214589
 20
585.1622443823
 30
0.0
 40
1.5
100
AcDbArc
 50
126.8698976458
 51
233.1301023542
  0
ARC
  5
2E7
330
1B
100
AcDbEntity
 67
     1
  8
7_ALL_FEATURES
  6
Continuous
 62
     7
100
AcDbCircle
 10
2423.7398214589
 20
587.1622443823
 30
0.0
 40
1.0
100
AcDbArc
 50
306.8698976458
 51
360.0
  0
LINE
  5
2E8
330
1B
100
AcDbEntity
 67
     1
  8
7_ALL_FEATURES
  6
Continuous
 62
     7
100
AcDbLine
 10
2424.7398214589
 20
657.6622443823
 30
0.0
 11
2424.7398214589
 21
587.1622443823
 31
0.0
  0
ARC
  5
2E9
330
1B
100
AcDbEntity
 67
     1
  8
7_ALL_FEATURES
  6
Continuous
 62
     7
100
AcDbCircle
 10
2423.7398214589
 20
657.6622443823
 30
0.0
 40
1.0
100
AcDbArc
 50
0.0
 51
90.0
  0
LINE
  5
2EA
330
1B
100
AcDbEntity
 67
     1
  8
7_ALL_FEATURES
  6
Continuous
 62
     7
100
AcDbLine
 10
2383.7398214589
 20
658.6622443823
 30
0.0
 11
2423.7398214589
 21
658.6622443823
 31
0.0
  0
ARC
  5
2EB
330
1B
100
AcDbEntity
 67
     1
  8
7_ALL_FEATURES
  6
Continuous
 62
     7
100
AcDbCircle
 10
2383.7398214589
 20
657.6622443823
 30
0.0
 40
1.0
100
AcDbArc
 50
90.0
 51
180.0
  0
LINE
  5
2EC
330
1B
100
AcDbEntity
 67
     1
  8
7_ALL_FEATURES
  6
Continuous
 62
     7
100
AcDbLine
 10
2382.7398214589
 20
647.1622443823
 30
0.0
 11
2382.7398214589
 21
657.6622443823
 31
0.0
  0
ARC
  5
2ED
330
1B
100
AcDbEntity
 67
     1
  8
7_ALL_FEATURES
  6
Continuous
 62
     7
100
AcDbCircle
 10
2383.7398214589
 20
647.1622443823
 30
0.0
 40
1.0
100
AcDbArc
 50
180.0
 51
233.1301023542
  0
ARC
  5
2EE
330
1B
100
AcDbEntity
 67
     1
  8
7_ALL_FEATURES
  6
Continuous
 62
     7
100
AcDbCircle
 10
2382.2398214589
 20
645.1622443823
 30
0.0
 40
1.5
100
AcDbArc
 50
306.8698976458
 51
53.1301023542
  0
ARC
  5
2EF
330
1B
100
AcDbEntity
 67
     1
  8
7_ALL_FEATURES
  6
Continuous
 62
     7
100
AcDbCircle
 10
2383.7398214589
 20
643.1622443823
 30
0.0
 40
1.0
100
AcDbArc
 50
126.8698976458
 51
180.0
  0
LINE
  5
2F0
330
1B
100
AcDbEntity
 67
     1
  8
7_ALL_FEATURES
  6
Continuous
 62
     7
100
AcDbLine
 10
2382.7398214589
 20
576.1622443823
 30
0.0
 11
2382.7398214589
 21
643.1622443823
 31
0.0
  0
ARC
  5
2F1
330
1B
100
AcDbEntity
 67
     1
  8
7_ALL_FEATURES
  6
Continuous
 62
     7
100
AcDbCircle
 10
2383.7398214589
 20
576.1622443823
 30
0.0
 40
1.0
100
AcDbArc
 50
180.0
 51
270.0
  0
LINE
  5
2F2
330
1B
100
AcDbEntity
 67
     1
  8
7_ALL_FEATURES
  6
Continuous
 62
     7
100
AcDbLine
 10
2423.7398214589
 20
575.1622443823
 30
0.0
 11
2383.7398214589
 21
575.1622443823
 31
0.0
  0
ARC
  5
2F3
330
1B
100
AcDbEntity
 67
     1
  8
7_ALL_FEATURES
  6
Continuous
 62
     7
100
AcDbCircle
 10
2423.7398214589
 20
576.1622443823
 30
0.0
 40
1.0
100
AcDbArc
 50
270.0
 51
360.0
  0
LINE
  5
2F4
330
1B
100
AcDbEntity
 67
     1
  8
7_ALL_FEATURES
  6
Continuous
 62
     7
100
AcDbLine
 10
2424.7398214589
 20
583.1622443823
 30
0.0
 11
2424.7398214589
 21
576.1622443823
 31
0.0
  0
ARC
  5
2F5
330
1B
100
AcDbEntity
 67
     1
  8
7_ALL_FEATURES
  6
Continuous
 62
     7
100
AcDbCircle
 10
2423.7398214589
 20
583.1622443823
 30
0.0
 40
1.0
100
AcDbArc
 50
0.0
 51
53.1301023542
  0
ARC
  5
2F6
330
1B
100
AcDbEntity
 67
     1
  8
02___PRT_ALL_AXES
  6
Continuous
 62
     7
100
AcDbCircle
 10
2403.7398214589
 20
635.4937896009
 30
0.0
 40
9.5
100
AcDbArc
 50
2.0
 51
178.0
  0
LINE
  5
2F7
330
1B
100
AcDbEntity
 67
     1
  8
02___PRT_ALL_AXES
  6
Continuous
 62
     7
100
AcDbLine
 10
2393.7459131887
 20
635.842784568
 30
0.0
 11
2394.2456086022
 21
635.8253348196
 31
0.0
  0
ARC
  5
2F8
330
1B
100
AcDbEntity
 67
     1
  8
02___PRT_ALL_AXES
  6
Continuous
 62
     7
100
AcDbCircle
 10
2403.7398214589
 20
635.4937896009
 30
0.0
 40
10.0
100
AcDbArc
 50
2.0
 51
178.0
  0
LINE
  5
2F9
330
1B
100
AcDbEntity
 67
     1
  8
02___PRT_ALL_AXES
  6
Continuous
 62
     7
100
AcDbLine
 10
2413.2340343156
 20
635.8253348196
 30
0.0
 11
2413.7337297291
 21
635.842784568
 31
0.0
  0
LINE
  5
2FA
330
1B
100
AcDbEntity
 67
     1
  8
02___PRT_ALL_AXES
  6
Continuous
 62
     7
100
AcDbLine
 10
2413.7337297291
 20
635.1447946339
 30
0.0
 11
2413.2340343156
 21
635.1622443823
 31
0.0
  0
ARC
  5
2FB
330
1B
100
AcDbEntity
 67
     1
  8
02___PRT_ALL_AXES
  6
Continuous
 62
     7
100
AcDbCircle
 10
2403.7398214589
 20
635.4937896009
 30
0.0
 40
10.0
100
AcDbArc
 50
182.0
 51
358.0
  0
LINE
  5
2FC
330
1B
100
AcDbEntity
 67
     1
  8
02___PRT_ALL_AXES
  6
Continuous
 62
     7
100
AcDbLine
 10
2394.2456086022
 20
635.1622443823
 30
0.0
 11
2393.7459131887
 21
635.1447946339
 31
0.0
  0
ARC
  5
2FD
330
1B
100
AcDbEntity
 67
     1
  8
02___PRT_ALL_AXES
  6
Continuous
 62
     7
100
AcDbCircle
 10
2403.7398214589
 20
635.4937896009
 30
0.0
 40
9.5
100
AcDbArc
 50
182.0
 51
358.0
  0
LINE
  5
2FE
330
1B
100
AcDbEntity
 67
     1
  8
7_ALL_FEATURES
  6
Continuous
 62
     7
100
AcDbLine
 10
2383.5529143978
 20
575.1622443823
 30
0.0
 11
2383.7398214589
 21
575.1622443823
 31
0.0
  0
ARC
  5
2FF
330
1B
100
AcDbEntity
 67
     1
  8
7_ALL_FEATURES
  6
Continuous
 62
     7
100
AcDbCircle
 10
2383.5529143978
 20
575.4622443823
 30
0.0
 40
0.3
100
AcDbArc
 50
227.2949738223
 51
270.0
  0
LINE
  5
300
330
1B
100
AcDbEntity
 67
     1
  8
7_ALL_FEATURES
  6
Continuous
 62
     7
100
AcDbLine
 10
2382.6039849986
 20
580.3716894963
 30
0.0
 11
2382.7398214589
 21
579.3399091443
 31
0.0
  0
ARC
  5
301
330
1B
100
AcDbEntity
 67
     1
  8
7_ALL_FEATURES
  6
Continuous
 62
     7
100
AcDbCircle
 10
2390.0398214589
 20
581.3506359379
 30
0.0
 40
7.5
100
AcDbArc
 50
180.0
 51
187.5
  0
LINE
  5
302
330
1B
100
AcDbEntity
 67
     1
  8
7_ALL_FEATURES
  6
Continuous
 62
     7
100
AcDbLine
 10
2382.5398214589
 20
610.9622443823
 30
0.0
 11
2382.5398214589
 21
581.3506359379
 31
0.0
  0
ARC
  5
303
330
1B
100
AcDbEntity
 67
     1
  8
7_ALL_FEATURES
  6
Continuous
 62
     7
100
AcDbCircle
 10
2382.7398214589
 20
610.9622443823
 30
0.0
 40
0.2
100
AcDbArc
 50
90.0
 51
180.0
  0
ARC
  5
304
330
1B
100
AcDbEntity
 67
     1
  8
7_ALL_FEATURES
  6
Continuous
 62
     7
100
AcDbCircle
 10
2382.7398214589
 20
615.8622443823
 30
0.0
 40
0.2
100
AcDbArc
 50
180.0
 51
270.0
  0
LINE
  5
305
330
1B
100
AcDbEntity
 67
     1
  8
7_ALL_FEATURES
  6
Continuous
 62
     7
100
AcDbLine
 10
2382.5398214589
 20
628.8622443823
 30
0.0
 11
2382.5398214589
 21
615.8622443823
 31
0.0
  0
ARC
  5
306
330
1B
100
AcDbEntity
 67
     1
  8
7_ALL_FEATURES
  6
Continuous
 62
     7
100
AcDbCircle
 10
2382.8398214589
 20
628.8622443823
 30
0.0
 40
0.3
100
AcDbArc
 50
109.6202859533
 51
180.0
  0
ARC
  5
307
330
1B
100
AcDbEntity
 67
     1
  8
7_ALL_FEATURES
  6
Continuous
 62
     7
100
AcDbCircle
 10
2382.8398214589
 20
633.9622443823
 30
0.0
 40
0.3
100
AcDbArc
 50
180.0
 51
250.3797140467
  0
LINE
  5
308
330
1B
100
AcDbEntity
 67
     1
  8
7_ALL_FEATURES
  6
Continuous
 62
     7
100
AcDbLine
 10
2382.5398214589
 20
657.6622443823
 30
0.0
 11
2382.5398214589
 21
633.9622443823
 31
0.0
  0
ARC
  5
309
330
1B
100
AcDbEntity
 67
     1
  8
7_ALL_FEATURES
  6
Continuous
 62
     7
100
AcDbCircle
 10
2383.5398214589
 20
657.6622443823
 30
0.0
 40
1.0
100
AcDbArc
 50
90.0
 51
180.0
  0
LINE
  5
30A
330
1B
100
AcDbEntity
 67
     1
  8
7_ALL_FEATURES
  6
Continuous
 62
     7
100
AcDbLine
 10
2383.7398214589
 20
658.6622443823
 30
0.0
 11
2383.5398214589
 21
658.6622443823
 31
0.0
  0
LINE
  5
30B
330
1B
100
AcDbEntity
 67
     1
  8
7_ALL_FEATURES
  6
Continuous
 62
     7
100
AcDbLine
 10
2423.9398214589
 20
658.6622443823
 30
0.0
 11
2423.7398214589
 21
658.6622443823
 31
0.0
  0
ARC
  5
30C
330
1B
100
AcDbEntity
 67
     1
  8
7_ALL_FEATURES
  6
Continuous
 62
     7
100
AcDbCircle
 10
2423.9398214589
 20
657.6622443823
 30
0.0
 40
1.0
100
AcDbArc
 50
0.0
 51
90.0
  0
LINE
  5
30D
330
1B
100
AcDbEntity
 67
     1
  8
7_ALL_FEATURES
  6
Continuous
 62
     7
100
AcDbLine
 10
2424.9398214589
 20
633.9622443823
 30
0.0
 11
2424.9398214589
 21
657.6622443823
 31
0.0
  0
ARC
  5
30E
330
1B
100
AcDbEntity
 67
     1
  8
7_ALL_FEATURES
  6
Continuous
 62
     7
100
AcDbCircle
 10
2424.6398214589
 20
633.9622443823
 30
0.0
 40
0.3
100
AcDbArc
 50
289.6202859533
 51
360.0
  0
ARC
  5
30F
330
1B
100
AcDbEntity
 67
     1
  8
7_ALL_FEATURES
  6
Continuous
 62
     7
100
AcDbCircle
 10
2424.6398214589
 20
628.8622443823
 30
0.0
 40
0.3
100
AcDbArc
 50
0.0
 51
70.3797140467
  0
LINE
  5
310
330
1B
100
AcDbEntity
 67
     1
  8
7_ALL_FEATURES
  6
Continuous
 62
     7
100
AcDbLine
 10
2424.9398214589
 20
615.8622443823
 30
0.0
 11
2424.9398214589
 21
628.8622443823
 31
0.0
  0
ARC
  5
311
330
1B
100
AcDbEntity
 67
     1
  8
7_ALL_FEATURES
  6
Continuous
 62
     7
100
AcDbCircle
 10
2424.7398214589
 20
615.8622443823
 30
0.0
 40
0.2
100
AcDbArc
 50
270.0
 51
360.0
  0
ARC
  5
312
330
1B
100
AcDbEntity
 67
     1
  8
7_ALL_FEATURES
  6
Continuous
 62
     7
100
AcDbCircle
 10
2424.7398214589
 20
610.9622443823
 30
0.0
 40
0.2
100
AcDbArc
 50
0.0
 51
90.0
  0
LINE
  5
313
330
1B
100
AcDbEntity
 67
     1
  8
7_ALL_FEATURES
  6
Continuous
 62
     7
100
AcDbLine
 10
2424.9398214589
 20
581.3506359379
 30
0.0
 11
2424.9398214589
 21
610.9622443823
 31
0.0
  0
ARC
  5
314
330
1B
100
AcDbEntity
 67
     1
  8
7_ALL_FEATURES
  6
Continuous
 62
     7
100
AcDbCircle
 10
2417.4398214589
 20
581.3506359379
 30
0.0
 40
7.5
100
AcDbArc
 50
352.5
 51
360.0
  0
LINE
  5
315
330
1B
100
AcDbEntity
 67
     1
  8
7_ALL_FEATURES
  6
Continuous
 62
     7
100
AcDbLine
 10
2424.7398214589
 20
579.3399091443
 30
0.0
 11
2424.8756579192
 21
580.3716894963
 31
0.0
  0
ARC
  5
316
330
1B
100
AcDbEntity
 67
     1
  8
7_ALL_FEATURES
  6
Continuous
 62
     7
100
AcDbCircle
 10
2423.92672852
 20
575.4622443823
 30
0.0
 40
0.3
100
AcDbArc
 50
270.0
 51
312.7050261777
  0
LINE
  5
317
330
1B
100
AcDbEntity
 67
     1
  8
7_ALL_FEATURES
  6
Continuous
 62
     7
100
AcDbLine
 10
2423.7398214589
 20
575.1622443823
 30
0.0
 11
2423.92672852
 21
575.1622443823
 31
0.0
  0
LINE
  5
318
330
1B
100
AcDbEntity
 67
     1
  8
7_ALL_FEATURES
  6
Continuous
 62
     7
100
AcDbLine
 10
2382.1898214589
 20
589.8622443823
 30
0.0
 11
2382.1898214589
 21
658.0622443823
 31
0.0
  0
ARC
  5
319
330
1B
100
AcDbEntity
 67
     1
  8
7_ALL_FEATURES
  6
Continuous
 62
     7
100
AcDbCircle
 10
2424.6898214589
 20
658.0622443823
 30
0.0
 40
0.6
100
AcDbArc
 50
0.0
 51
90.0
  0
LINE
  5
31A
330
1B
100
AcDbEntity
 67
     1
  8
7_ALL_FEATURES
  6
Continuous
 62
     7
100
AcDbLine
 10
2450.2898214589
 20
588.6622443823
 30
0.0
 11
2427.2898214589
 21
588.6622443823
 31
0.0
  0
LINE
  5
31B
330
1B
100
AcDbEntity
 67
     1
  8
7_ALL_FEATURES
  6
Continuous
 62
     7
100
AcDbLine
 10
2427.2898214589
 20
588.6622443823
 30
0.0
 11
2426.4898214589
 21
588.6622443823
 31
0.0
  0
LINE
  5
31C
330
1B
100
AcDbEntity
 67
     1
  8
7_ALL_FEATURES
  6
Continuous
 62
     7
100
AcDbLine
 10
2425.2898214589
 20
658.0622443823
 30
0.0
 11
2425.2898214589
 21
589.8622443823
 31
0.0
  0
ARC
  5
31D
330
1B
100
AcDbEntity
 67
     1
  8
7_ALL_FEATURES
  6
Continuous
 62
     7
100
AcDbCircle
 10
2426.4898214589
 20
589.8622443823
 30
0.0
 40
1.2
100
AcDbArc
 50
180.0
 51
270.0
  0
LINE
  5
31E
330
1B
100
AcDbEntity
 67
     1
  8
7_ALL_FEATURES
  6
Continuous
 62
     7
100
AcDbLine
 10
2450.2898214589
 20
589.2622443823
 30
0.0
 11
2450.2898214589
 21
588.6622443823
 31
0.0
  0
LINE
  5
31F
330
1B
100
AcDbEntity
 67
     1
  8
7_ALL_FEATURES
  6
Continuous
 62
     7
100
AcDbLine
 10
2357.1898214589
 20
589.2622443823
 30
0.0
 11
2357.1898214589
 21
588.6622443823
 31
0.0
  0
ARC
  5
320
330
1B
100
AcDbEntity
 67
     1
  8
7_ALL_FEATURES
  6
Continuous
 62
     7
100
AcDbCircle
 10
2380.9898214589
 20
589.8622443823
 30
0.0
 40
1.2
100
AcDbArc
 50
270.0
 51
360.0
  0
LINE
  5
321
330
1B
100
AcDbEntity
 67
     1
  8
7_ALL_FEATURES
  6
Continuous
 62
     7
100
AcDbLine
 10
2380.9898214589
 20
588.6622443823
 30
0.0
 11
2380.1898214589
 21
588.6622443823
 31
0.0
  0
LINE
  5
322
330
1B
100
AcDbEntity
 67
     1
  8
7_ALL_FEATURES
  6
Continuous
 62
     7
100
AcDbLine
 10
2380.1898214589
 20
588.6622443823
 30
0.0
 11
2357.1898214589
 21
588.6622443823
 31
0.0
  0
LINE
  5
323
330
1B
100
AcDbEntity
 67
     1
  8
7_ALL_FEATURES
  6
Continuous
 62
     7
100
AcDbLine
 10
2382.7898214589
 20
658.6622443823
 30
0.0
 11
2383.5398214589
 21
658.6622443823
 31
0.0
  0
LINE
  5
324
330
1B
100
AcDbEntity
 67
     1
  8
7_ALL_FEATURES
  6
Continuous
 62
     7
100
AcDbLine
 10
2423.9398214589
 20
658.6622443823
 30
0.0
 11
2424.6898214589
 21
658.6622443823
 31
0.0
  0
ARC
  5
325
330
1B
100
AcDbEntity
 67
     1
  8
7_ALL_FEATURES
  6
Continuous
 62
     7
100
AcDbCircle
 10
2382.7898214589
 20
658.0622443823
 30
0.0
 40
0.6
100
AcDbArc
 50
90.0
 51
180.0
  0
LINE
  5
326
330
1B
100
AcDbEntity
 67
     1
  8
7_ALL_FEATURES
  6
Continuous
 62
     9
100
AcDbLine
 10
2425.8898214589
 20
658.0622443823
 30
0.0
 11
2425.2898214589
 21
658.0622443823
 31
0.0
  0
LINE
  5
327
330
1B
100
AcDbEntity
 67
     1
  8
7_ALL_FEATURES
  6
Continuous
 62
     9
100
AcDbLine
 10
2424.6898214589
 20
659.2622443823
 30
0.0
 11
2424.6898214589
 21
658.6622443823
 31
0.0
  0
LINE
  5
328
330
1B
100
AcDbEntity
 67
     1
  8
7_ALL_FEATURES
  6
Continuous
 62
     9
100
AcDbLine
 10
2425.2898214589
 20
589.8622443823
 30
0.0
 11
2425.8898214589
 21
589.8622443823
 31
0.0
  0
LINE
  5
329
330
1B
100
AcDbEntity
 67
     1
  8
7_ALL_FEATURES
  6
Continuous
 62
     9
100
AcDbLine
 10
2382.7898214589
 20
659.2622443823
 30
0.0
 11
2382.7898214589
 21
658.6622443823
 31
0.0
  0
LINE
  5
32A
330
1B
100
AcDbEntity
 67
     1
  8
7_ALL_FEATURES
  6
Continuous
 62
     9
100
AcDbLine
 10
2382.1898214589
 20
589.8622443823
 30
0.0
 11
2381.5898214589
 21
589.8622443823
 31
0.0
  0
LINE
  5
32B
330
1B
100
AcDbEntity
 67
     1
  8
7_ALL_FEATURES
  6
Continuous
 62
     9
100
AcDbLine
 10
2381.5898214589
 20
658.0622443823
 30
0.0
 11
2382.1898214589
 21
658.0622443823
 31
0.0
  0
LINE
  5
32C
330
1B
100
AcDbEntity
 67
     1
  8
7_ALL_FEATURES
  6
Continuous
 62
     9
100
AcDbLine
 10
2380.9898214589
 20
588.6622443823
 30
0.0
 11
2380.9898214589
 21
589.2622443823
 31
0.0
  0
LINE
  5
32D
330
1B
100
AcDbEntity
 67
     1
  8
7_ALL_FEATURES
  6
Continuous
 62
     7
100
AcDbLine
 10
2380.1898214589
 20
589.2622443823
 30
0.0
 11
2380.1898214589
 21
588.6622443823
 31
0.0
  0
LINE
  5
32E
330
1B
100
AcDbEntity
 67
     1
  8
7_ALL_FEATURES
  6
Continuous
 62
     7
100
AcDbLine
 10
2427.2898214589
 20
589.2622443823
 30
0.0
 11
2427.2898214589
 21
588.6622443823
 31
0.0
  0
LINE
  5
32F
330
1B
100
AcDbEntity
 67
     1
  8
7_ALL_FEATURES
  6
Continuous
 62
     9
100
AcDbLine
 10
2426.4898214589
 20
588.6622443823
 30
0.0
 11
2426.4898214589
 21
589.2622443823
 31
0.0
  0
LINE
  5
330
330
1B
100
AcDbEntity
 67
     1
  8
7_ALL_FEATURES
  6
Continuous
 62
     3
100
AcDbLine
 10
2425.8898214589
 20
658.0622443823
 30
0.0
 11
2425.8898214589
 21
589.8622443823
 31
0.0
  0
ARC
  5
331
330
1B
100
AcDbEntity
 67
     1
  8
7_ALL_FEATURES
  6
Continuous
 62
     3
100
AcDbCircle
 10
2424.6898214589
 20
658.0622443823
 30
0.0
 40
1.2
100
AcDbArc
 50
0.0
 51
90.0
  0
ARC
  5
332
330
1B
100
AcDbEntity
 67
     1
  8
7_ALL_FEATURES
  6
Continuous
 62
     3
100
AcDbCircle
 10
2380.9898214589
 20
589.8622443823
 30
0.0
 40
0.6
100
AcDbArc
 50
270.0
 51
360.0
  0
LINE
  5
333
330
1B
100
AcDbEntity
 67
     1
  8
7_ALL_FEATURES
  6
Continuous
 62
     3
100
AcDbLine
 10
2380.9898214589
 20
589.2622443823
 30
0.0
 11
2380.1898214589
 21
589.2622443823
 31
0.0
  0
LINE
  5
334
330
1B
100
AcDbEntity
 67
     1
  8
7_ALL_FEATURES
  6
Continuous
 62
     3
100
AcDbLine
 10
2357.1898214589
 20
589.2622443823
 30
0.0
 11
2380.1898214589
 21
589.2622443823
 31
0.0
  0
LINE
  5
335
330
1B
100
AcDbEntity
 67
     1
  8
7_ALL_FEATURES
  6
Continuous
 62
     3
100
AcDbLine
 10
2427.2898214589
 20
589.2622443823
 30
0.0
 11
2450.2898214589
 21
589.2622443823
 31
0.0
  0
LINE
  5
336
330
1B
100
AcDbEntity
 67
     1
  8
7_ALL_FEATURES
  6
Continuous
 62
     3
100
AcDbLine
 10
2427.2898214589
 20
589.2622443823
 30
0.0
 11
2426.4898214589
 21
589.2622443823
 31
0.0
  0
ARC
  5
337
330
1B
100
AcDbEntity
 67
     1
  8
7_ALL_FEATURES
  6
Continuous
 62
     3
100
AcDbCircle
 10
2426.4898214589
 20
589.8622443823
 30
0.0
 40
0.6
100
AcDbArc
 50
180.0
 51
270.0
  0
LINE
  5
338
330
1B
100
AcDbEntity
 67
     1
  8
7_ALL_FEATURES
  6
Continuous
 62
     3
100
AcDbLine
 10
2382.7898214589
 20
659.2622443823
 30
0.0
 11
2424.6898214589
 21
659.2622443823
 31
0.0
  0
ARC
  5
339
330
1B
100
AcDbEntity
 67
     1
  8
7_ALL_FEATURES
  6
Continuous
 62
     3
100
AcDbCircle
 10
2382.7898214589
 20
658.0622443823
 30
0.0
 40
1.2
100
AcDbArc
 50
90.0
 51
180.0
  0
LINE
  5
33A
330
1B
100
AcDbEntity
 67
     1
  8
7_ALL_FEATURES
  6
Continuous
 62
     3
100
AcDbLine
 10
2381.5898214589
 20
589.8622443823
 30
0.0
 11
2381.5898214589
 21
658.0622443823
 31
0.0
  0
LINE
  5
33B
330
1B
100
AcDbEntity
 67
     1
  8
3_ALL_AXES
  6
Continuous
 62
     7
100
AcDbLine
 10
2266.0956773148
 20
604.4553248249
 30
0.0
 11
2266.4449569851
 21
604.1622443823
 31
0.0
  0
LINE
  5
33C
330
1B
100
AcDbEntity
 67
     1
  8
3_ALL_AXES
  6
Continuous
 62
     7
100
AcDbLine
 10
2266.5956773148
 20
604.1622924485
 30
0.0
 11
2266.5956773148
 21
606.9122443823
 31
0.0
  0
LINE
  5
33D
330
1B
100
AcDbEntity
 67
     1
  8
3_ALL_AXES
  6
Continuous
 62
     7
100
AcDbLine
 10
2266.4449569851
 20
604.1622443823
 30
0.0
 11
2266.5956773148
 21
604.1622443823
 31
0.0
  0
LINE
  5
33E
330
1B
100
AcDbEntity
 67
     1
  8
3_ALL_AXES
  6
Continuous
 62
     7
100
AcDbLine
 10
2266.0956773148
 20
609.3691639397
 30
0.0
 11
2266.4449569851
 21
609.6622443823
 31
0.0
  0
LINE
  5
33F
330
1B
100
AcDbEntity
 67
     1
  8
3_ALL_AXES
  6
Continuous
 62
     7
100
AcDbLine
 10
2266.5956773148
 20
609.6621963161
 30
0.0
 11
2266.5956773148
 21
606.9122443823
 31
0.0
  0
LINE
  5
340
330
1B
100
AcDbEntity
 67
     1
  8
3_ALL_AXES
  6
Continuous
 62
     7
100
AcDbLine
 10
2266.4449569851
 20
609.6622443823
 30
0.0
 11
2266.5956773148
 21
609.6622443823
 31
0.0
  0
LINE
  5
341
330
1B
100
AcDbEntity
 67
     1
  8
3_ALL_AXES
  6
Continuous
 62
     7
100
AcDbLine
 10
2266.4449569851
 20
604.1622443823
 30
0.0
 11
2266.4449569851
 21
606.9122443823
 31
0.0
  0
LINE
  5
342
330
1B
100
AcDbEntity
 67
     1
  8
3_ALL_AXES
  6
Continuous
 62
     7
100
AcDbLine
 10
2266.4449569851
 20
609.6622443823
 30
0.0
 11
2266.4449569851
 21
606.9122443823
 31
0.0
  0
LINE
  5
343
330
1B
100
AcDbEntity
 67
     1
  8
3_ALL_AXES
  6
Continuous
 62
     7
100
AcDbLine
 10
2266.0956773148
 20
653.2053248249
 30
0.0
 11
2266.4449569851
 21
652.9122443823
 31
0.0
  0
LINE
  5
344
330
1B
100
AcDbEntity
 67
     1
  8
3_ALL_AXES
  6
Continuous
 62
     7
100
AcDbLine
 10
2266.5956773148
 20
652.9122924485
 30
0.0
 11
2266.5956773148
 21
655.6622443823
 31
0.0
  0
LINE
  5
345
330
1B
100
AcDbEntity
 67
     1
  8
3_ALL_AXES
  6
Continuous
 62
     7
100
AcDbLine
 10
2266.4449569851
 20
652.9122443823
 30
0.0
 11
2266.5956773148
 21
652.9122443823
 31
0.0
  0
LINE
  5
346
330
1B
100
AcDbEntity
 67
     1
  8
3_ALL_AXES
  6
Continuous
 62
     7
100
AcDbLine
 10
2266.0956773148
 20
658.1191639397
 30
0.0
 11
2266.4449569851
 21
658.4122443823
 31
0.0
  0
LINE
  5
347
330
1B
100
AcDbEntity
 67
     1
  8
3_ALL_AXES
  6
Continuous
 62
     7
100
AcDbLine
 10
2266.5956773148
 20
658.4121963161
 30
0.0
 11
2266.5956773148
 21
655.6622443823
 31
0.0
  0
LINE
  5
348
330
1B
100
AcDbEntity
 67
     1
  8
3_ALL_AXES
  6
Continuous
 62
     7
100
AcDbLine
 10
2266.4449569851
 20
658.4122443823
 30
0.0
 11
2266.5956773148
 21
658.4122443823
 31
0.0
  0
LINE
  5
349
330
1B
100
AcDbEntity
 67
     1
  8
3_ALL_AXES
  6
Continuous
 62
     7
100
AcDbLine
 10
2266.4449569851
 20
652.9122443823
 30
0.0
 11
2266.4449569851
 21
655.6622443823
 31
0.0
  0
LINE
  5
34A
330
1B
100
AcDbEntity
 67
     1
  8
3_ALL_AXES
  6
Continuous
 62
     7
100
AcDbLine
 10
2266.4449569851
 20
658.4122443823
 30
0.0
 11
2266.4449569851
 21
655.6622443823
 31
0.0
  0
LINE
  5
34B
330
1B
100
AcDbEntity
 67
     1
  8
3_ALL_AXES
  6
Continuous
 62
     7
100
AcDbLine
 10
503.0956773148
 20
604.4553248249
 30
0.0
 11
502.7463976444
 21
604.1622443823
 31
0.0
  0
LINE
  5
34C
330
1B
100
AcDbEntity
 67
     1
  8
3_ALL_AXES
  6
Continuous
 62
     7
100
AcDbLine
 10
502.7463976444
 20
604.1622443823
 30
0.0
 11
502.5956773148
 21
604.1622443823
 31
0.0
  0
LINE
  5
34D
330
1B
100
AcDbEntity
 67
     1
  8
3_ALL_AXES
  6
Continuous
 62
     7
100
AcDbLine
 10
502.5956773148
 20
606.9122443823
 30
0.0
 11
502.5956773148
 21
609.6621963161
 31
0.0
  0
LINE
  5
34E
330
1B
100
AcDbEntity
 67
     1
  8
3_ALL_AXES
  6
Continuous
 62
     7
100
AcDbLine
 10
502.5956773148
 20
606.9122443823
 30
0.0
 11
502.5956773148
 21
604.1622924485
 31
0.0
  0
LINE
  5
34F
330
1B
100
AcDbEntity
 67
     1
  8
3_ALL_AXES
  6
Continuous
 62
     7
100
AcDbLine
 10
503.0956773148
 20
609.3691639397
 30
0.0
 11
502.7463976444
 21
609.6622443823
 31
0.0
  0
LINE
  5
350
330
1B
100
AcDbEntity
 67
     1
  8
3_ALL_AXES
  6
Continuous
 62
     7
100
AcDbLine
 10
502.7463976444
 20
609.6622443823
 30
0.0
 11
502.5956773148
 21
609.6622443823
 31
0.0
  0
LINE
  5
351
330
1B
100
AcDbEntity
 67
     1
  8
3_ALL_AXES
  6
Continuous
 62
     7
100
AcDbLine
 10
502.7463976444
 20
606.9122443823
 30
0.0
 11
502.7463976444
 21
604.1622443823
 31
0.0
  0
LINE
  5
352
330
1B
100
AcDbEntity
 67
     1
  8
3_ALL_AXES
  6
Continuous
 62
     7
100
AcDbLine
 10
502.7463976444
 20
606.9122443823
 30
0.0
 11
502.7463976444
 21
609.6622443823
 31
0.0
  0
LINE
  5
353
330
1B
100
AcDbEntity
 67
     1
  8
3_ALL_AXES
  6
Continuous
 62
     7
100
AcDbLine
 10
503.0956773148
 20
653.2053248249
 30
0.0
 11
502.7463976444
 21
652.9122443823
 31
0.0
  0
LINE
  5
354
330
1B
100
AcDbEntity
 67
     1
  8
3_ALL_AXES
  6
Continuous
 62
     7
100
AcDbLine
 10
502.7463976444
 20
652.9122443823
 30
0.0
 11
502.5956773148
 21
652.9122443823
 31
0.0
  0
LINE
  5
355
330
1B
100
AcDbEntity
 67
     1
  8
3_ALL_AXES
  6
Continuous
 62
     7
100
AcDbLine
 10
502.5956773148
 20
655.6622443823
 30
0.0
 11
502.5956773148
 21
658.4121963161
 31
0.0
  0
LINE
  5
356
330
1B
100
AcDbEntity
 67
     1
  8
3_ALL_AXES
  6
Continuous
 62
     7
100
AcDbLine
 10
502.5956773148
 20
655.6622443823
 30
0.0
 11
502.5956773148
 21
652.9122924485
 31
0.0
  0
LINE
  5
357
330
1B
100
AcDbEntity
 67
     1
  8
3_ALL_AXES
  6
Continuous
 62
     7
100
AcDbLine
 10
503.0956773148
 20
658.1191639397
 30
0.0
 11
502.7463976444
 21
658.4122443823
 31
0.0
  0
LINE
  5
358
330
1B
100
AcDbEntity
 67
     1
  8
3_ALL_AXES
  6
Continuous
 62
     7
100
AcDbLine
 10
502.7463976444
 20
658.4122443823
 30
0.0
 11
502.5956773148
 21
658.4122443823
 31
0.0
  0
LINE
  5
359
330
1B
100
AcDbEntity
 67
     1
  8
3_ALL_AXES
  6
Continuous
 62
     7
100
AcDbLine
 10
502.7463976444
 20
655.6622443823
 30
0.0
 11
502.7463976444
 21
652.9122443823
 31
0.0
  0
LINE
  5
35A
330
1B
100
AcDbEntity
 67
     1
  8
3_ALL_AXES
  6
Continuous
 62
     7
100
AcDbLine
 10
502.7463976444
 20
655.6622443823
 30
0.0
 11
502.7463976444
 21
658.4122443823
 31
0.0
  0
LINE
  5
35B
330
1B
100
AcDbEntity
 67
     1
  8
7_ALL_FEATURES
  6
Continuous
 62
     7
100
AcDbLine
 10
2266.0956773148
 20
658.6622443823
 30
0.0
 11
2266.0956773148
 21
657.6622443823
 31
0.0
  0
LINE
  5
35C
330
1B
100
AcDbEntity
 67
     1
  8
7_ALL_FEATURES
  6
Continuous
 62
     7
100
AcDbLine
 10
2266.0956773148
 20
647.1622443823
 30
0.0
 11
2266.0956773148
 21
657.6622443823
 31
0.0
  0
LINE
  5
35D
330
1B
100
AcDbEntity
 67
     1
  8
7_ALL_FEATURES
  6
Continuous
 62
     7
100
AcDbLine
 10
2266.0956773148
 20
647.1622443823
 30
0.0
 11
2266.0956773148
 21
646.3622443823
 31
0.0
  0
LINE
  5
35E
330
1B
100
AcDbEntity
 67
     1
  8
7_ALL_FEATURES
  6
Continuous
 62
     7
100
AcDbLine
 10
2266.0956773148
 20
646.3622443823
 30
0.0
 11
2266.0956773148
 21
643.9622443823
 31
0.0
  0
LINE
  5
35F
330
1B
100
AcDbEntity
 67
     1
  8
7_ALL_FEATURES
  6
Continuous
 62
     7
100
AcDbLine
 10
2266.0956773148
 20
643.9622443823
 30
0.0
 11
2266.0956773148
 21
643.1622443823
 31
0.0
  0
LINE
  5
360
330
1B
100
AcDbEntity
 67
     1
  8
7_ALL_FEATURES
  6
Continuous
 62
     7
100
AcDbLine
 10
2266.0956773148
 20
576.1622443823
 30
0.0
 11
2266.0956773148
 21
643.1622443823
 31
0.0
  0
LINE
  5
361
330
1B
100
AcDbEntity
 67
     1
  8
7_ALL_FEATURES
  6
Continuous
 62
     7
100
AcDbLine
 10
2266.0956773148
 20
576.1622443823
 30
0.0
 11
2266.0956773148
 21
575.1622443823
 31
0.0
  0
LINE
  5
362
330
1B
100
AcDbEntity
 67
     1
  8
7_ALL_FEATURES
  6
Continuous
 62
     7
100
AcDbLine
 10
2266.0956773148
 20
658.6622443823
 30
0.0
 11
2264.5956773148
 21
658.6622443823
 31
0.0
  0
LINE
  5
363
330
1B
100
AcDbEntity
 67
     1
  8
7_ALL_FEATURES
  6
Continuous
 62
     7
100
AcDbLine
 10
2266.0956773148
 20
575.1622443823
 30
0.0
 11
2264.5956773148
 21
575.1622443823
 31
0.0
  0
LINE
  5
364
330
1B
100
AcDbEntity
 67
     1
  8
7_ALL_FEATURES
  6
Continuous
 62
     9
100
AcDbLine
 10
2266.0956773148
 20
646.3622443823
 30
0.0
 11
2264.5956773148
 21
646.3622443823
 31
0.0
  0
LINE
  5
365
330
1B
100
AcDbEntity
 67
     1
  8
7_ALL_FEATURES
  6
Continuous
 62
     9
100
AcDbLine
 10
2266.0956773148
 20
643.9622443823
 30
0.0
 11
2264.5956773148
 21
643.9622443823
 31
0.0
  0
LINE
  5
366
330
1B
100
AcDbEntity
 67
     1
  8
7_ALL_FEATURES
  6
Continuous
 62
     9
100
AcDbLine
 10
2266.0956773148
 20
657.6622443823
 30
0.0
 11
2264.5956773148
 21
657.6622443823
 31
0.0
  0
LINE
  5
367
330
1B
100
AcDbEntity
 67
     1
  8
7_ALL_FEATURES
  6
Continuous
 62
     9
100
AcDbLine
 10
2266.0956773148
 20
647.1622443823
 30
0.0
 11
2264.5956773148
 21
647.1622443823
 31
0.0
  0
LINE
  5
368
330
1B
100
AcDbEntity
 67
     1
  8
7_ALL_FEATURES
  6
Continuous
 62
     9
100
AcDbLine
 10
2266.0956773148
 20
576.1622443823
 30
0.0
 11
2264.5956773148
 21
576.1622443823
 31
0.0
  0
LINE
  5
369
330
1B
100
AcDbEntity
 67
     1
  8
7_ALL_FEATURES
  6
Continuous
 62
     9
100
AcDbLine
 10
2266.0956773148
 20
643.1622443823
 30
0.0
 11
2264.5956773148
 21
643.1622443823
 31
0.0
  0
LINE
  5
36A
330
1B
100
AcDbEntity
 67
     1
  8
7_ALL_FEATURES
  6
Continuous
 62
     7
100
AcDbLine
 10
503.0956773148
 20
583.9622443823
 30
0.0
 11
503.0956773148
 21
586.3622443823
 31
0.0
  0
LINE
  5
36B
330
1B
100
AcDbEntity
 67
     1
  8
7_ALL_FEATURES
  6
Continuous
 62
     7
100
AcDbLine
 10
503.0956773148
 20
586.3622443823
 30
0.0
 11
503.0956773148
 21
587.1622443823
 31
0.0
  0
LINE
  5
36C
330
1B
100
AcDbEntity
 67
     1
  8
7_ALL_FEATURES
  6
Continuous
 62
     7
100
AcDbLine
 10
503.0956773148
 20
657.6622443823
 30
0.0
 11
503.0956773148
 21
587.1622443823
 31
0.0
  0
LINE
  5
36D
330
1B
100
AcDbEntity
 67
     1
  8
7_ALL_FEATURES
  6
Continuous
 62
     7
100
AcDbLine
 10
503.0956773148
 20
657.6622443823
 30
0.0
 11
503.0956773148
 21
658.6622443823
 31
0.0
  0
LINE
  5
36E
330
1B
100
AcDbEntity
 67
     1
  8
7_ALL_FEATURES
  6
Continuous
 62
     7
100
AcDbLine
 10
503.0956773148
 20
575.1622443823
 30
0.0
 11
503.0956773148
 21
576.1622443823
 31
0.0
  0
LINE
  5
36F
330
1B
100
AcDbEntity
 67
     1
  8
7_ALL_FEATURES
  6
Continuous
 62
     7
100
AcDbLine
 10
503.0956773148
 20
583.1622443823
 30
0.0
 11
503.0956773148
 21
576.1622443823
 31
0.0
  0
LINE
  5
370
330
1B
100
AcDbEntity
 67
     1
  8
7_ALL_FEATURES
  6
Continuous
 62
     7
100
AcDbLine
 10
503.0956773148
 20
583.1622443823
 30
0.0
 11
503.0956773148
 21
583.9622443823
 31
0.0
  0
LINE
  5
371
330
1B
100
AcDbEntity
 67
     1
  8
7_ALL_FEATURES
  6
Continuous
 62
     7
100
AcDbLine
 10
503.0956773148
 20
658.6622443823
 30
0.0
 11
504.5956773148
 21
658.6622443823
 31
0.0
  0
LINE
  5
372
330
1B
100
AcDbEntity
 67
     1
  8
7_ALL_FEATURES
  6
Continuous
 62
     7
100
AcDbLine
 10
503.0956773148
 20
575.1622443823
 30
0.0
 11
504.5956773148
 21
575.1622443823
 31
0.0
  0
LINE
  5
373
330
1B
100
AcDbEntity
 67
     1
  8
7_ALL_FEATURES
  6
Continuous
 62
     9
100
AcDbLine
 10
503.0956773148
 20
657.6622443823
 30
0.0
 11
504.5956773148
 21
657.6622443823
 31
0.0
  0
LINE
  5
374
330
1B
100
AcDbEntity
 67
     1
  8
7_ALL_FEATURES
  6
Continuous
 62
     9
100
AcDbLine
 10
503.0956773148
 20
586.3622443823
 30
0.0
 11
504.5956773148
 21
586.3622443823
 31
0.0
  0
LINE
  5
375
330
1B
100
AcDbEntity
 67
     1
  8
7_ALL_FEATURES
  6
Continuous
 62
     9
100
AcDbLine
 10
503.0956773148
 20
583.9622443823
 30
0.0
 11
504.5956773148
 21
583.9622443823
 31
0.0
  0
LINE
  5
376
330
1B
100
AcDbEntity
 67
     1
  8
7_ALL_FEATURES
  6
Continuous
 62
     9
100
AcDbLine
 10
503.0956773148
 20
587.1622443823
 30
0.0
 11
504.5956773148
 21
587.1622443823
 31
0.0
  0
LINE
  5
377
330
1B
100
AcDbEntity
 67
     1
  8
7_ALL_FEATURES
  6
Continuous
 62
     9
100
AcDbLine
 10
503.0956773148
 20
576.1622443823
 30
0.0
 11
504.5956773148
 21
576.1622443823
 31
0.0
  0
LINE
  5
378
330
1B
100
AcDbEntity
 67
     1
  8
7_ALL_FEATURES
  6
Continuous
 62
     9
100
AcDbLine
 10
503.0956773148
 20
583.1622443823
 30
0.0
 11
504.5956773148
 21
583.1622443823
 31
0.0
  0
LINE
  5
379
330
1B
100
AcDbEntity
 67
     1
  8
7_ALL_FEATURES
  6
Continuous
 62
     7
100
AcDbLine
 10
2092.5956773148
 20
588.6622443823
 30
0.0
 11
2080.5956773148
 21
588.6622443823
 31
0.0
  0
LINE
  5
37A
330
1B
100
AcDbEntity
 67
     1
  8
7_ALL_FEATURES
  6
Continuous
 62
     7
100
AcDbLine
 10
2193.5956773148
 20
588.6622443823
 30
0.0
 11
2092.5956773148
 21
588.6622443823
 31
0.0
  0
LINE
  5
37B
330
1B
100
AcDbEntity
 67
     1
  8
7_ALL_FEATURES
  6
Continuous
 62
     7
100
AcDbLine
 10
2205.5956773148
 20
588.6622443823
 30
0.0
 11
2193.5956773148
 21
588.6622443823
 31
0.0
  0
LINE
  5
37C
330
1B
100
AcDbEntity
 67
     1
  8
7_ALL_FEATURES
  6
Continuous
 62
     7
100
AcDbLine
 10
2205.5956773148
 20
589.2622443823
 30
0.0
 11
2205.5956773148
 21
588.6622443823
 31
0.0
  0
LINE
  5
37D
330
1B
100
AcDbEntity
 67
     1
  8
7_ALL_FEATURES
  6
Continuous
 62
     7
100
AcDbLine
 10
2080.5956773148
 20
589.2622443823
 30
0.0
 11
2080.5956773148
 21
588.6622443823
 31
0.0
  0
LINE
  5
37E
330
1B
100
AcDbEntity
 67
     1
  8
7_ALL_FEATURES
  6
Continuous
 62
     7
100
AcDbLine
 10
2092.5956773148
 20
589.2622443823
 30
0.0
 11
2092.5956773148
 21
588.6622443823
 31
0.0
  0
LINE
  5
37F
330
1B
100
AcDbEntity
 67
     1
  8
7_ALL_FEATURES
  6
Continuous
 62
     7
100
AcDbLine
 10
2193.5956773148
 20
589.2622443823
 30
0.0
 11
2193.5956773148
 21
588.6622443823
 31
0.0
  0
LINE
  5
380
330
1B
100
AcDbEntity
 67
     1
  8
7_ALL_FEATURES
  6
Continuous
 62
     7
100
AcDbLine
 10
1322.5956773148
 20
588.6622443823
 30
0.0
 11
1310.5956773148
 21
588.6622443823
 31
0.0
  0
LINE
  5
381
330
1B
100
AcDbEntity
 67
     1
  8
7_ALL_FEATURES
  6
Continuous
 62
     7
100
AcDbLine
 10
1423.5956773148
 20
588.6622443823
 30
0.0
 11
1322.5956773148
 21
588.6622443823
 31
0.0
  0
LINE
  5
382
330
1B
100
AcDbEntity
 67
     1
  8
7_ALL_FEATURES
  6
Continuous
 62
     7
100
AcDbLine
 10
1435.5956773148
 20
588.6622443823
 30
0.0
 11
1423.5956773148
 21
588.6622443823
 31
0.0
  0
LINE
  5
383
330
1B
100
AcDbEntity
 67
     1
  8
7_ALL_FEATURES
  6
Continuous
 62
     7
100
AcDbLine
 10
1435.5956773148
 20
589.2622443823
 30
0.0
 11
1435.5956773148
 21
588.6622443823
 31
0.0
  0
LINE
  5
384
330
1B
100
AcDbEntity
 67
     1
  8
7_ALL_FEATURES
  6
Continuous
 62
     7
100
AcDbLine
 10
1310.5956773148
 20
589.2622443823
 30
0.0
 11
1310.5956773148
 21
588.6622443823
 31
0.0
  0
LINE
  5
385
330
1B
100
AcDbEntity
 67
     1
  8
7_ALL_FEATURES
  6
Continuous
 62
     7
100
AcDbLine
 10
1322.5956773148
 20
589.2622443823
 30
0.0
 11
1322.5956773148
 21
588.6622443823
 31
0.0
  0
LINE
  5
386
330
1B
100
AcDbEntity
 67
     1
  8
7_ALL_FEATURES
  6
Continuous
 62
     7
100
AcDbLine
 10
1423.5956773148
 20
589.2622443823
 30
0.0
 11
1423.5956773148
 21
588.6622443823
 31
0.0
  0
LINE
  5
387
330
1B
100
AcDbEntity
 67
     1
  8
7_ALL_FEATURES
  6
Continuous
 62
     7
100
AcDbLine
 10
552.5956773148
 20
588.6622443823
 30
0.0
 11
540.5956773148
 21
588.6622443823
 31
0.0
  0
LINE
  5
388
330
1B
100
AcDbEntity
 67
     1
  8
7_ALL_FEATURES
  6
Continuous
 62
     7
100
AcDbLine
 10
653.5956773148
 20
588.6622443823
 30
0.0
 11
552.5956773148
 21
588.6622443823
 31
0.0
  0
LINE
  5
389
330
1B
100
AcDbEntity
 67
     1
  8
7_ALL_FEATURES
  6
Continuous
 62
     7
100
AcDbLine
 10
665.5956773148
 20
588.6622443823
 30
0.0
 11
653.5956773148
 21
588.6622443823
 31
0.0
  0
LINE
  5
38A
330
1B
100
AcDbEntity
 67
     1
  8
7_ALL_FEATURES
  6
Continuous
 62
     7
100
AcDbLine
 10
665.5956773148
 20
589.2622443823
 30
0.0
 11
665.5956773148
 21
588.6622443823
 31
0.0
  0
LINE
  5
38B
330
1B
100
AcDbEntity
 67
     1
  8
7_ALL_FEATURES
  6
Continuous
 62
     7
100
AcDbLine
 10
540.5956773148
 20
589.2622443823
 30
0.0
 11
540.5956773148
 21
588.6622443823
 31
0.0
  0
LINE
  5
38C
330
1B
100
AcDbEntity
 67
     1
  8
7_ALL_FEATURES
  6
Continuous
 62
     7
100
AcDbLine
 10
552.5956773148
 20
589.2622443823
 30
0.0
 11
552.5956773148
 21
588.6622443823
 31
0.0
  0
LINE
  5
38D
330
1B
100
AcDbEntity
 67
     1
  8
7_ALL_FEATURES
  6
Continuous
 62
     7
100
AcDbLine
 10
653.5956773148
 20
589.2622443823
 30
0.0
 11
653.5956773148
 21
588.6622443823
 31
0.0
  0
LINE
  5
38E
330
1B
100
AcDbEntity
 67
     1
  8
7_ALL_FEATURES
  6
Continuous
 62
     7
100
AcDbLine
 10
2264.5956773148
 20
575.2423900603
 30
0.0
 11
2264.5956773148
 21
575.1622443823
 31
0.0
  0
LINE
  5
38F
330
1B
100
AcDbEntity
 67
     1
  8
7_ALL_FEATURES
  6
Continuous
 62
     7
100
AcDbLine
 10
2264.5956773148
 20
579.3399091443
 30
0.0
 11
2264.5956773148
 21
580.3716894963
 31
0.0
  0
LINE
  5
390
330
1B
100
AcDbEntity
 67
     1
  8
7_ALL_FEATURES
  6
Continuous
 62
     7
100
AcDbLine
 10
2264.5956773148
 20
581.3506359379
 30
0.0
 11
2264.5956773148
 21
580.3716894963
 31
0.0
  0
LINE
  5
391
330
1B
100
AcDbEntity
 67
     1
  8
7_ALL_FEATURES
  6
Continuous
 62
     7
100
AcDbLine
 10
2264.5956773148
 20
581.3506359379
 30
0.0
 11
2264.5956773148
 21
610.9622443823
 31
0.0
  0
LINE
  5
392
330
1B
100
AcDbEntity
 67
     1
  8
7_ALL_FEATURES
  6
Continuous
 62
     7
100
AcDbLine
 10
2264.5956773148
 20
611.1622443823
 30
0.0
 11
2264.5956773148
 21
610.9622443823
 31
0.0
  0
LINE
  5
393
330
1B
100
AcDbEntity
 67
     1
  8
7_ALL_FEATURES
  6
Continuous
 62
     7
100
AcDbLine
 10
2264.5956773148
 20
615.8622443823
 30
0.0
 11
2264.5956773148
 21
615.6622443823
 31
0.0
  0
LINE
  5
394
330
1B
100
AcDbEntity
 67
     1
  8
7_ALL_FEATURES
  6
Continuous
 62
     7
100
AcDbLine
 10
2264.5956773148
 20
615.8622443823
 30
0.0
 11
2264.5956773148
 21
628.8622443823
 31
0.0
  0
LINE
  5
395
330
1B
100
AcDbEntity
 67
     1
  8
7_ALL_FEATURES
  6
Continuous
 62
     7
100
AcDbLine
 10
2264.5956773148
 20
629.1622443823
 30
0.0
 11
2264.5956773148
 21
629.1427626815
 31
0.0
  0
LINE
  5
396
330
1B
100
AcDbEntity
 67
     1
  8
7_ALL_FEATURES
  6
Continuous
 62
     7
100
AcDbLine
 10
2264.5956773148
 20
629.1427626815
 30
0.0
 11
2264.5956773148
 21
628.8622443823
 31
0.0
  0
LINE
  5
397
330
1B
100
AcDbEntity
 67
     1
  8
7_ALL_FEATURES
  6
Continuous
 62
     7
100
AcDbLine
 10
2264.5956773148
 20
633.9622443823
 30
0.0
 11
2264.5956773148
 21
633.681726083
 31
0.0
  0
LINE
  5
398
330
1B
100
AcDbEntity
 67
     1
  8
7_ALL_FEATURES
  6
Continuous
 62
     7
100
AcDbLine
 10
2264.5956773148
 20
633.681726083
 30
0.0
 11
2264.5956773148
 21
633.6622443823
 31
0.0
  0
LINE
  5
399
330
1B
100
AcDbEntity
 67
     1
  8
7_ALL_FEATURES
  6
Continuous
 62
     7
100
AcDbLine
 10
2264.5956773148
 20
633.9622443823
 30
0.0
 11
2264.5956773148
 21
657.6622443823
 31
0.0
  0
LINE
  5
39A
330
1B
100
AcDbEntity
 67
     1
  8
7_ALL_FEATURES
  6
Continuous
 62
     7
100
AcDbLine
 10
2264.5956773148
 20
658.6622443823
 30
0.0
 11
2264.5956773148
 21
657.6622443823
 31
0.0
  0
LINE
  5
39B
330
1B
100
AcDbEntity
 67
     1
  8
7_ALL_FEATURES
  6
Continuous
 62
     7
100
AcDbLine
 10
504.5956773148
 20
657.6622443823
 30
0.0
 11
504.5956773148
 21
658.6622443823
 31
0.0
  0
LINE
  5
39C
330
1B
100
AcDbEntity
 67
     1
  8
7_ALL_FEATURES
  6
Continuous
 62
     7
100
AcDbLine
 10
504.5956773148
 20
633.9622443823
 30
0.0
 11
504.5956773148
 21
657.6622443823
 31
0.0
  0
LINE
  5
39D
330
1B
100
AcDbEntity
 67
     1
  8
7_ALL_FEATURES
  6
Continuous
 62
     7
100
AcDbLine
 10
504.5956773148
 20
633.6622443823
 30
0.0
 11
504.5956773148
 21
633.681726083
 31
0.0
  0
LINE
  5
39E
330
1B
100
AcDbEntity
 67
     1
  8
7_ALL_FEATURES
  6
Continuous
 62
     7
100
AcDbLine
 10
504.5956773148
 20
633.681726083
 30
0.0
 11
504.5956773148
 21
633.9622443823
 31
0.0
  0
LINE
  5
39F
330
1B
100
AcDbEntity
 67
     1
  8
7_ALL_FEATURES
  6
Continuous
 62
     7
100
AcDbLine
 10
504.5956773148
 20
628.8622443823
 30
0.0
 11
504.5956773148
 21
629.1427626815
 31
0.0
  0
LINE
  5
3A0
330
1B
100
AcDbEntity
 67
     1
  8
7_ALL_FEATURES
  6
Continuous
 62
     7
100
AcDbLine
 10
504.5956773148
 20
629.1427626815
 30
0.0
 11
504.5956773148
 21
629.1622443823
 31
0.0
  0
LINE
  5
3A1
330
1B
100
AcDbEntity
 67
     1
  8
7_ALL_FEATURES
  6
Continuous
 62
     7
100
AcDbLine
 10
504.5956773148
 20
615.8622443823
 30
0.0
 11
504.5956773148
 21
628.8622443823
 31
0.0
  0
LINE
  5
3A2
330
1B
100
AcDbEntity
 67
     1
  8
7_ALL_FEATURES
  6
Continuous
 62
     7
100
AcDbLine
 10
504.5956773148
 20
615.6622443823
 30
0.0
 11
504.5956773148
 21
615.8622443823
 31
0.0
  0
LINE
  5
3A3
330
1B
100
AcDbEntity
 67
     1
  8
02___PRT_ALL_AXES
  6
Continuous
 62
     7
100
AcDbLine
 10
635.3757740053
 20
633.6622443823
 30
0.0
 11
636.0614352232
 21
633.6622443823
 31
0.0
  0
LINE
  5
3A4
330
1B
100
AcDbEntity
 67
     1
  8
02___PRT_ALL_AXES
  6
Continuous
 62
     7
100
AcDbLine
 10
665.5956773148
 20
633.6622443823
 30
0.0
 11
1310.5956773148
 21
633.6622443823
 31
0.0
  0
LINE
  5
3A5
330
1B
100
AcDbEntity
 67
     1
  8
02___PRT_ALL_AXES
  6
Continuous
 62
     7
100
AcDbLine
 10
1340.1299194063
 20
633.6622443823
 30
0.0
 11
1340.8155806242
 21
633.6622443823
 31
0.0
  0
LINE
  5
3A6
330
1B
100
AcDbEntity
 67
     1
  8
02___PRT_ALL_AXES
  6
Continuous
 62
     7
100
AcDbLine
 10
1405.3757740053
 20
633.6622443823
 30
0.0
 11
1406.0614352232
 21
633.6622443823
 31
0.0
  0
LINE
  5
3A7
330
1B
100
AcDbEntity
 67
     1
  8
02___PRT_ALL_AXES
  6
Continuous
 62
     7
100
AcDbLine
 10
1435.5956773148
 20
633.6622443823
 30
0.0
 11
2080.5956773148
 21
633.6622443823
 31
0.0
  0
LINE
  5
3A8
330
1B
100
AcDbEntity
 67
     1
  8
02___PRT_ALL_AXES
  6
Continuous
 62
     7
100
AcDbLine
 10
2110.1299194063
 20
633.6622443823
 30
0.0
 11
2110.8155806242
 21
633.6622443823
 31
0.0
  0
LINE
  5
3A9
330
1B
100
AcDbEntity
 67
     1
  8
02___PRT_ALL_AXES
  6
Continuous
 62
     7
100
AcDbLine
 10
2175.3757740053
 20
633.6622443823
 30
0.0
 11
2176.0614352232
 21
633.6622443823
 31
0.0
  0
LINE
  5
3AA
330
1B
100
AcDbEntity
 67
     1
  8
02___PRT_ALL_AXES
  6
Continuous
 62
     7
100
AcDbLine
 10
2205.5956773148
 20
633.6622443823
 30
0.0
 11
2264.5956773148
 21
633.6622443823
 31
0.0
  0
LINE
  5
3AB
330
1B
100
AcDbEntity
 67
     1
  8
02___PRT_ALL_AXES
  6
Continuous
 62
     7
100
AcDbLine
 10
504.5956773148
 20
633.6622443823
 30
0.0
 11
540.5956773148
 21
633.6622443823
 31
0.0
  0
LINE
  5
3AC
330
1B
100
AcDbEntity
 67
     1
  8
02___PRT_ALL_AXES
  6
Continuous
 62
     7
100
AcDbLine
 10
570.1299194063
 20
633.6622443823
 30
0.0
 11
570.8155806242
 21
633.6622443823
 31
0.0
  0
LINE
  5
3AD
330
1B
100
AcDbEntity
 67
     1
  8
7_ALL_FEATURES
  6
Continuous
 62
     7
100
AcDbLine
 10
504.5956773148
 20
610.9622443823
 30
0.0
 11
504.5956773148
 21
611.1622443823
 31
0.0
  0
LINE
  5
3AE
330
1B
100
AcDbEntity
 67
     1
  8
7_ALL_FEATURES
  6
Continuous
 62
     7
100
AcDbLine
 10
504.5956773148
 20
581.3506359379
 30
0.0
 11
504.5956773148
 21
610.9622443823
 31
0.0
  0
LINE
  5
3AF
330
1B
100
AcDbEntity
 67
     1
  8
7_ALL_FEATURES
  6
Continuous
 62
     7
100
AcDbLine
 10
504.5956773148
 20
580.3716894963
 30
0.0
 11
504.5956773148
 21
581.3506359379
 31
0.0
  0
LINE
  5
3B0
330
1B
100
AcDbEntity
 67
     1
  8
7_ALL_FEATURES
  6
Continuous
 62
     7
100
AcDbLine
 10
504.5956773148
 20
579.3399091443
 30
0.0
 11
504.5956773148
 21
580.3716894963
 31
0.0
  0
LINE
  5
3B1
330
1B
100
AcDbEntity
 67
     1
  8
7_ALL_FEATURES
  6
Continuous
 62
     7
100
AcDbLine
 10
504.5956773148
 20
575.1622443823
 30
0.0
 11
504.5956773148
 21
575.2423900603
 31
0.0
  0
LINE
  5
3B2
330
1B
100
AcDbEntity
 67
     1
  8
02___PRT_ALL_AXES
  6
Continuous
 62
     7
100
AcDbLine
 10
2264.5956773148
 20
629.1622443823
 30
0.0
 11
2205.5956773148
 21
629.1622443823
 31
0.0
  0
LINE
  5
3B3
330
1B
100
AcDbEntity
 67
     1
  8
02___PRT_ALL_AXES
  6
Continuous
 62
     7
100
AcDbLine
 10
2181.7074025216
 20
629.1622443823
 30
0.0
 11
2181.4817169038
 21
629.1622443823
 31
0.0
  0
LINE
  5
3B4
330
1B
100
AcDbEntity
 67
     1
  8
02___PRT_ALL_AXES
  6
Continuous
 62
     7
100
AcDbLine
 10
2104.7096377257
 20
629.1622443823
 30
0.0
 11
2104.483952108
 21
629.1622443823
 31
0.0
  0
LINE
  5
3B5
330
1B
100
AcDbEntity
 67
     1
  8
02___PRT_ALL_AXES
  6
Continuous
 62
     7
100
AcDbLine
 10
2080.5956773148
 20
629.1622443823
 30
0.0
 11
1435.5956773148
 21
629.1622443823
 31
0.0
  0
LINE
  5
3B6
330
1B
100
AcDbEntity
 67
     1
  8
02___PRT_ALL_AXES
  6
Continuous
 62
     7
100
AcDbLine
 10
1411.7074025216
 20
629.1622443823
 30
0.0
 11
1411.4817169038
 21
629.1622443823
 31
0.0
  0
LINE
  5
3B7
330
1B
100
AcDbEntity
 67
     1
  8
02___PRT_ALL_AXES
  6
Continuous
 62
     7
100
AcDbLine
 10
1334.7096377257
 20
629.1622443823
 30
0.0
 11
1334.483952108
 21
629.1622443823
 31
0.0
  0
LINE
  5
3B8
330
1B
100
AcDbEntity
 67
     1
  8
02___PRT_ALL_AXES
  6
Continuous
 62
     7
100
AcDbLine
 10
1310.5956773148
 20
629.1622443823
 30
0.0
 11
665.5956773148
 21
629.1622443823
 31
0.0
  0
LINE
  5
3B9
330
1B
100
AcDbEntity
 67
     1
  8
02___PRT_ALL_AXES
  6
Continuous
 62
     7
100
AcDbLine
 10
641.7074025216
 20
629.1622443823
 30
0.0
 11
641.4817169038
 21
629.1622443823
 31
0.0
  0
LINE
  5
3BA
330
1B
100
AcDbEntity
 67
     1
  8
02___PRT_ALL_AXES
  6
Continuous
 62
     7
100
AcDbLine
 10
564.7096377257
 20
629.1622443823
 30
0.0
 11
564.483952108
 21
629.1622443823
 31
0.0
  0
LINE
  5
3BB
330
1B
100
AcDbEntity
 67
     1
  8
02___PRT_ALL_AXES
  6
Continuous
 62
     7
100
AcDbLine
 10
540.5956773148
 20
629.1622443823
 30
0.0
 11
504.5956773148
 21
629.1622443823
 31
0.0
  0
LINE
  5
3BC
330
1B
100
AcDbEntity
 67
     1
  8
7_ALL_FEATURES
  6
Continuous
 62
     7
100
AcDbLine
 10
504.5956773148
 20
658.6622443823
 30
0.0
 11
540.5956773148
 21
658.6622443823
 31
0.0
  0
LINE
  5
3BD
330
1B
100
AcDbEntity
 67
     1
  8
7_ALL_FEATURES
  6
Continuous
 62
     7
100
AcDbLine
 10
665.5956773148
 20
658.6622443823
 30
0.0
 11
1310.5956773148
 21
658.6622443823
 31
0.0
  0
LINE
  5
3BE
330
1B
100
AcDbEntity
 67
     1
  8
7_ALL_FEATURES
  6
Continuous
 62
     7
100
AcDbLine
 10
1435.5956773148
 20
658.6622443823
 30
0.0
 11
2080.5956773148
 21
658.6622443823
 31
0.0
  0
LINE
  5
3BF
330
1B
100
AcDbEntity
 67
     1
  8
7_ALL_FEATURES
  6
Continuous
 62
     7
100
AcDbLine
 10
2205.5956773148
 20
658.6622443823
 30
0.0
 11
2264.5956773148
 21
658.6622443823
 31
0.0
  0
ARC
  5
3C0
330
1B
100
AcDbEntity
 67
     1
  8
02___PRT_ALL_AXES
  6
Continuous
 62
     7
100
AcDbCircle
 10
604.5956773148
 20
641.1622443823
 30
0.0
 40
13.0
100
AcDbArc
 50
326.3687225521
 51
327.3980680141
  0
ARC
  5
3C1
330
1B
100
AcDbEntity
 67
     1
  8
02___PRT_ALL_AXES
  6
Continuous
 62
     7
100
AcDbCircle
 10
604.5956773148
 20
641.1622443823
 30
0.0
 40
13.0
100
AcDbArc
 50
212.6019319859
 51
213.6312774479
  0
LINE
  5
3C2
330
1B
100
AcDbEntity
 67
     1
  8
7_ALL_FEATURES
  6
Continuous
 62
     7
100
AcDbLine
 10
504.5956773148
 20
615.6622443823
 30
0.0
 11
540.5956773148
 21
615.6622443823
 31
0.0
  0
LINE
  5
3C3
330
1B
100
AcDbEntity
 67
     1
  8
7_ALL_FEATURES
  6
Continuous
 62
     7
100
AcDbLine
 10
563.0956773148
 20
615.6622443823
 30
0.0
 11
563.2956773148
 21
615.6622443823
 31
0.0
  0
LINE
  5
3C4
330
1B
100
AcDbEntity
 67
     1
  8
7_ALL_FEATURES
  6
Continuous
 62
     7
100
AcDbLine
 10
642.8956773148
 20
615.6622443823
 30
0.0
 11
643.0956773148
 21
615.6622443823
 31
0.0
  0
LINE
  5
3C5
330
1B
100
AcDbEntity
 67
     1
  8
7_ALL_FEATURES
  6
Continuous
 62
     7
100
AcDbLine
 10
665.5956773148
 20
615.6622443823
 30
0.0
 11
1310.5956773148
 21
615.6622443823
 31
0.0
  0
LINE
  5
3C6
330
1B
100
AcDbEntity
 67
     1
  8
7_ALL_FEATURES
  6
Continuous
 62
     7
100
AcDbLine
 10
1333.0956773148
 20
615.6622443823
 30
0.0
 11
1333.2956773148
 21
615.6622443823
 31
0.0
  0
LINE
  5
3C7
330
1B
100
AcDbEntity
 67
     1
  8
7_ALL_FEATURES
  6
Continuous
 62
     7
100
AcDbLine
 10
1412.8956773148
 20
615.6622443823
 30
0.0
 11
1413.0956773148
 21
615.6622443823
 31
0.0
  0
LINE
  5
3C8
330
1B
100
AcDbEntity
 67
     1
  8
7_ALL_FEATURES
  6
Continuous
 62
     7
100
AcDbLine
 10
1435.5956773148
 20
615.6622443823
 30
0.0
 11
2080.5956773148
 21
615.6622443823
 31
0.0
  0
LINE
  5
3C9
330
1B
100
AcDbEntity
 67
     1
  8
7_ALL_FEATURES
  6
Continuous
 62
     7
100
AcDbLine
 10
2103.0956773148
 20
615.6622443823
 30
0.0
 11
2103.2956773148
 21
615.6622443823
 31
0.0
  0
LINE
  5
3CA
330
1B
100
AcDbEntity
 67
     1
  8
7_ALL_FEATURES
  6
Continuous
 62
     7
100
AcDbLine
 10
2182.8956773148
 20
615.6622443823
 30
0.0
 11
2183.0956773148
 21
615.6622443823
 31
0.0
  0
LINE
  5
3CB
330
1B
100
AcDbEntity
 67
     1
  8
7_ALL_FEATURES
  6
Continuous
 62
     7
100
AcDbLine
 10
2205.5956773148
 20
615.6622443823
 30
0.0
 11
2264.5956773148
 21
615.6622443823
 31
0.0
  0
LINE
  5
3CC
330
1B
100
AcDbEntity
 67
     1
  8
7_ALL_FEATURES
  6
Continuous
 62
     7
100
AcDbLine
 10
504.5956773148
 20
611.1622443823
 30
0.0
 11
540.5956773148
 21
611.1622443823
 31
0.0
  0
LINE
  5
3CD
330
1B
100
AcDbEntity
 67
     1
  8
7_ALL_FEATURES
  6
Continuous
 62
     7
100
AcDbLine
 10
563.0956773148
 20
611.1622443823
 30
0.0
 11
563.2956773148
 21
611.1622443823
 31
0.0
  0
LINE
  5
3CE
330
1B
100
AcDbEntity
 67
     1
  8
7_ALL_FEATURES
  6
Continuous
 62
     7
100
AcDbLine
 10
642.8956773148
 20
611.1622443823
 30
0.0
 11
643.0956773148
 21
611.1622443823
 31
0.0
  0
LINE
  5
3CF
330
1B
100
AcDbEntity
 67
     1
  8
7_ALL_FEATURES
  6
Continuous
 62
     7
100
AcDbLine
 10
665.5956773148
 20
611.1622443823
 30
0.0
 11
1310.5956773148
 21
611.1622443823
 31
0.0
  0
LINE
  5
3D0
330
1B
100
AcDbEntity
 67
     1
  8
7_ALL_FEATURES
  6
Continuous
 62
     7
100
AcDbLine
 10
1333.0956773148
 20
611.1622443823
 30
0.0
 11
1333.2956773148
 21
611.1622443823
 31
0.0
  0
LINE
  5
3D1
330
1B
100
AcDbEntity
 67
     1
  8
7_ALL_FEATURES
  6
Continuous
 62
     7
100
AcDbLine
 10
1412.8956773148
 20
611.1622443823
 30
0.0
 11
1413.0956773148
 21
611.1622443823
 31
0.0
  0
LINE
  5
3D2
330
1B
100
AcDbEntity
 67
     1
  8
7_ALL_FEATURES
  6
Continuous
 62
     7
100
AcDbLine
 10
1435.5956773148
 20
611.1622443823
 30
0.0
 11
2080.5956773148
 21
611.1622443823
 31
0.0
  0
LINE
  5
3D3
330
1B
100
AcDbEntity
 67
     1
  8
7_ALL_FEATURES
  6
Continuous
 62
     7
100
AcDbLine
 10
2103.0956773148
 20
611.1622443823
 30
0.0
 11
2103.2956773148
 21
611.1622443823
 31
0.0
  0
LINE
  5
3D4
330
1B
100
AcDbEntity
 67
     1
  8
7_ALL_FEATURES
  6
Continuous
 62
     7
100
AcDbLine
 10
2182.8956773148
 20
611.1622443823
 30
0.0
 11
2183.0956773148
 21
611.1622443823
 31
0.0
  0
LINE
  5
3D5
330
1B
100
AcDbEntity
 67
     1
  8
7_ALL_FEATURES
  6
Continuous
 62
     7
100
AcDbLine
 10
2205.5956773148
 20
611.1622443823
 30
0.0
 11
2264.5956773148
 21
611.1622443823
 31
0.0
  0
LINE
  5
3D6
330
1B
100
AcDbEntity
 67
     1
  8
7_ALL_FEATURES
  6
Continuous
 62
     7
100
AcDbLine
 10
504.5956773148
 20
575.1622443823
 30
0.0
 11
2264.5956773148
 21
575.1622443823
 31
0.0
  0
LINE
  5
3D7
330
1B
100
AcDbEntity
 67
     1
  8
02___PRT_ALL_AXES
  6
Continuous
 62
     9
100
AcDbLine
 10
2264.5956773148
 20
628.8622443823
 30
0.0
 11
2205.5956773148
 21
628.8622443823
 31
0.0
  0
LINE
  5
3D8
330
1B
100
AcDbEntity
 67
     1
  8
02___PRT_ALL_AXES
  6
Continuous
 62
     9
100
AcDbLine
 10
2181.8677558624
 20
628.8622443823
 30
0.0
 11
2181.6420702446
 21
628.8622443823
 31
0.0
  0
LINE
  5
3D9
330
1B
100
AcDbEntity
 67
     1
  8
02___PRT_ALL_AXES
  6
Continuous
 62
     9
100
AcDbLine
 10
2104.5492843849
 20
628.8622443823
 30
0.0
 11
2104.3235987672
 21
628.8622443823
 31
0.0
  0
LINE
  5
3DA
330
1B
100
AcDbEntity
 67
     1
  8
02___PRT_ALL_AXES
  6
Continuous
 62
     9
100
AcDbLine
 10
2080.5956773148
 20
628.8622443823
 30
0.0
 11
1435.5956773148
 21
628.8622443823
 31
0.0
  0
LINE
  5
3DB
330
1B
100
AcDbEntity
 67
     1
  8
02___PRT_ALL_AXES
  6
Continuous
 62
     9
100
AcDbLine
 10
1411.8677558624
 20
628.8622443823
 30
0.0
 11
1411.6420702446
 21
628.8622443823
 31
0.0
  0
LINE
  5
3DC
330
1B
100
AcDbEntity
 67
     1
  8
02___PRT_ALL_AXES
  6
Continuous
 62
     9
100
AcDbLine
 10
1334.5492843849
 20
628.8622443823
 30
0.0
 11
1334.3235987672
 21
628.8622443823
 31
0.0
  0
LINE
  5
3DD
330
1B
100
AcDbEntity
 67
     1
  8
02___PRT_ALL_AXES
  6
Continuous
 62
     9
100
AcDbLine
 10
1310.5956773148
 20
628.8622443823
 30
0.0
 11
665.5956773148
 21
628.8622443823
 31
0.0
  0
LINE
  5
3DE
330
1B
100
AcDbEntity
 67
     1
  8
02___PRT_ALL_AXES
  6
Continuous
 62
     9
100
AcDbLine
 10
641.8677558624
 20
628.8622443823
 30
0.0
 11
641.6420702446
 21
628.8622443823
 31
0.0
  0
LINE
  5
3DF
330
1B
100
AcDbEntity
 67
     1
  8
02___PRT_ALL_AXES
  6
Continuous
 62
     9
100
AcDbLine
 10
633.0956773148
 20
633.9622443823
 30
0.0
 11
635.0724677605
 21
633.9622443823
 31
0.0
  0
LINE
  5
3E0
330
1B
100
AcDbEntity
 67
     1
  8
02___PRT_ALL_AXES
  6
Continuous
 62
     9
100
AcDbLine
 10
665.5956773148
 20
633.9622443823
 30
0.0
 11
1310.5956773148
 21
633.9622443823
 31
0.0
  0
LINE
  5
3E1
330
1B
100
AcDbEntity
 67
     1
  8
02___PRT_ALL_AXES
  6
Continuous
 62
     9
100
AcDbLine
 10
1341.118886869
 20
633.9622443823
 30
0.0
 11
1343.0956773148
 21
633.9622443823
 31
0.0
  0
LINE
  5
3E2
330
1B
100
AcDbEntity
 67
     1
  8
02___PRT_ALL_AXES
  6
Continuous
 62
     9
100
AcDbLine
 10
1403.0956773148
 20
633.9622443823
 30
0.0
 11
1405.0724677605
 21
633.9622443823
 31
0.0
  0
LINE
  5
3E3
330
1B
100
AcDbEntity
 67
     1
  8
02___PRT_ALL_AXES
  6
Continuous
 62
     9
100
AcDbLine
 10
1435.5956773148
 20
633.9622443823
 30
0.0
 11
2080.5956773148
 21
633.9622443823
 31
0.0
  0
LINE
  5
3E4
330
1B
100
AcDbEntity
 67
     1
  8
02___PRT_ALL_AXES
  6
Continuous
 62
     9
100
AcDbLine
 10
2111.118886869
 20
633.9622443823
 30
0.0
 11
2113.0956773148
 21
633.9622443823
 31
0.0
  0
LINE
  5
3E5
330
1B
100
AcDbEntity
 67
     1
  8
02___PRT_ALL_AXES
  6
Continuous
 62
     9
100
AcDbLine
 10
2173.0956773148
 20
633.9622443823
 30
0.0
 11
2175.0724677605
 21
633.9622443823
 31
0.0
  0
LINE
  5
3E6
330
1B
100
AcDbEntity
 67
     1
  8
02___PRT_ALL_AXES
  6
Continuous
 62
     9
100
AcDbLine
 10
2205.5956773148
 20
633.9622443823
 30
0.0
 11
2264.5956773148
 21
633.9622443823
 31
0.0
  0
LINE
  5
3E7
330
1B
100
AcDbEntity
 67
     1
  8
7_ALL_FEATURES
  6
Continuous
 62
     9
100
AcDbLine
 10
504.5956773148
 20
657.6622443823
 30
0.0
 11
540.5956773148
 21
657.6622443823
 31
0.0
  0
LINE
  5
3E8
330
1B
100
AcDbEntity
 67
     1
  8
7_ALL_FEATURES
  6
Continuous
 62
     9
100
AcDbLine
 10
665.5956773148
 20
657.6622443823
 30
0.0
 11
1310.5956773148
 21
657.6622443823
 31
0.0
  0
LINE
  5
3E9
330
1B
100
AcDbEntity
 67
     1
  8
7_ALL_FEATURES
  6
Continuous
 62
     9
100
AcDbLine
 10
1435.5956773148
 20
657.6622443823
 30
0.0
 11
2080.5956773148
 21
657.6622443823
 31
0.0
  0
LINE
  5
3EA
330
1B
100
AcDbEntity
 67
     1
  8
7_ALL_FEATURES
  6
Continuous
 62
     9
100
AcDbLine
 10
2205.5956773148
 20
657.6622443823
 30
0.0
 11
2264.5956773148
 21
657.6622443823
 31
0.0
  0
LINE
  5
3EB
330
1B
100
AcDbEntity
 67
     1
  8
02___PRT_ALL_AXES
  6
Continuous
 62
     9
100
AcDbLine
 10
504.5956773148
 20
633.9622443823
 30
0.0
 11
540.5956773148
 21
633.9622443823
 31
0.0
  0
LINE
  5
3EC
330
1B
100
AcDbEntity
 67
     1
  8
02___PRT_ALL_AXES
  6
Continuous
 62
     9
100
AcDbLine
 10
571.118886869
 20
633.9622443823
 30
0.0
 11
573.0956773148
 21
633.9622443823
 31
0.0
  0
LINE
  5
3ED
330
1B
100
AcDbEntity
 67
     1
  8
7_ALL_FEATURES
  6
Continuous
 62
     9
100
AcDbLine
 10
504.5956773148
 20
581.3506359379
 30
0.0
 11
2264.5956773148
 21
581.3506359379
 31
0.0
  0
LINE
  5
3EE
330
1B
100
AcDbEntity
 67
     1
  8
7_ALL_FEATURES
  6
Continuous
 62
     9
100
AcDbLine
 10
504.5956773148
 20
610.9622443823
 30
0.0
 11
540.5956773148
 21
610.9622443823
 31
0.0
  0
LINE
  5
3EF
330
1B
100
AcDbEntity
 67
     1
  8
7_ALL_FEATURES
  6
Continuous
 62
     9
100
AcDbLine
 10
563.0956773148
 20
610.9622443823
 30
0.0
 11
563.2956773148
 21
610.9622443823
 31
0.0
  0
LINE
  5
3F0
330
1B
100
AcDbEntity
 67
     1
  8
7_ALL_FEATURES
  6
Continuous
 62
     9
100
AcDbLine
 10
642.8956773148
 20
610.9622443823
 30
0.0
 11
643.0956773148
 21
610.9622443823
 31
0.0
  0
LINE
  5
3F1
330
1B
100
AcDbEntity
 67
     1
  8
7_ALL_FEATURES
  6
Continuous
 62
     9
100
AcDbLine
 10
665.5956773148
 20
610.9622443823
 30
0.0
 11
1310.5956773148
 21
610.9622443823
 31
0.0
  0
LINE
  5
3F2
330
1B
100
AcDbEntity
 67
     1
  8
7_ALL_FEATURES
  6
Continuous
 62
     9
100
AcDbLine
 10
1333.0956773148
 20
610.9622443823
 30
0.0
 11
1333.2956773148
 21
610.9622443823
 31
0.0
  0
LINE
  5
3F3
330
1B
100
AcDbEntity
 67
     1
  8
7_ALL_FEATURES
  6
Continuous
 62
     9
100
AcDbLine
 10
1412.8956773148
 20
610.9622443823
 30
0.0
 11
1413.0956773148
 21
610.9622443823
 31
0.0
  0
LINE
  5
3F4
330
1B
100
AcDbEntity
 67
     1
  8
7_ALL_FEATURES
  6
Continuous
 62
     9
100
AcDbLine
 10
1435.5956773148
 20
610.9622443823
 30
0.0
 11
2080.5956773148
 21
610.9622443823
 31
0.0
  0
LINE
  5
3F5
330
1B
100
AcDbEntity
 67
     1
  8
7_ALL_FEATURES
  6
Continuous
 62
     9
100
AcDbLine
 10
2103.0956773148
 20
610.9622443823
 30
0.0
 11
2103.2956773148
 21
610.9622443823
 31
0.0
  0
LINE
  5
3F6
330
1B
100
AcDbEntity
 67
     1
  8
7_ALL_FEATURES
  6
Continuous
 62
     9
100
AcDbLine
 10
2182.8956773148
 20
610.9622443823
 30
0.0
 11
2183.0956773148
 21
610.9622443823
 31
0.0
  0
LINE
  5
3F7
330
1B
100
AcDbEntity
 67
     1
  8
7_ALL_FEATURES
  6
Continuous
 62
     9
100
AcDbLine
 10
2205.5956773148
 20
610.9622443823
 30
0.0
 11
2264.5956773148
 21
610.9622443823
 31
0.0
  0
LINE
  5
3F8
330
1B
100
AcDbEntity
 67
     1
  8
7_ALL_FEATURES
  6
Continuous
 62
     9
100
AcDbLine
 10
504.5956773148
 20
580.3716894963
 30
0.0
 11
2264.5956773148
 21
580.3716894963
 31
0.0
  0
LINE
  5
3F9
330
1B
100
AcDbEntity
 67
     1
  8
7_ALL_FEATURES
  6
Continuous
 62
     9
100
AcDbLine
 10
504.5956773148
 20
575.4230865246
 30
0.0
 11
2264.5956773148
 21
575.4230865246
 31
0.0
  0
LINE
  5
3FA
330
1B
100
AcDbEntity
 67
     1
  8
02___PRT_ALL_AXES
  6
Continuous
 62
     9
100
AcDbLine
 10
564.5492843849
 20
628.8622443823
 30
0.0
 11
564.3235987672
 21
628.8622443823
 31
0.0
  0
LINE
  5
3FB
330
1B
100
AcDbEntity
 67
     1
  8
02___PRT_ALL_AXES
  6
Continuous
 62
     9
100
AcDbLine
 10
540.5956773148
 20
628.8622443823
 30
0.0
 11
504.5956773148
 21
628.8622443823
 31
0.0
  0
LINE
  5
3FC
330
1B
100
AcDbEntity
 67
     1
  8
7_ALL_FEATURES
  6
Continuous
 62
     9
100
AcDbLine
 10
504.5956773148
 20
615.8622443823
 30
0.0
 11
540.5956773148
 21
615.8622443823
 31
0.0
  0
LINE
  5
3FD
330
1B
100
AcDbEntity
 67
     1
  8
7_ALL_FEATURES
  6
Continuous
 62
     9
100
AcDbLine
 10
563.0956773148
 20
615.8622443823
 30
0.0
 11
563.2956773148
 21
615.8622443823
 31
0.0
  0
LINE
  5
3FE
330
1B
100
AcDbEntity
 67
     1
  8
7_ALL_FEATURES
  6
Continuous
 62
     9
100
AcDbLine
 10
642.8956773148
 20
615.8622443823
 30
0.0
 11
643.0956773148
 21
615.8622443823
 31
0.0
  0
LINE
  5
3FF
330
1B
100
AcDbEntity
 67
     1
  8
7_ALL_FEATURES
  6
Continuous
 62
     9
100
AcDbLine
 10
665.5956773148
 20
615.8622443823
 30
0.0
 11
1310.5956773148
 21
615.8622443823
 31
0.0
  0
LINE
  5
400
330
1B
100
AcDbEntity
 67
     1
  8
7_ALL_FEATURES
  6
Continuous
 62
     9
100
AcDbLine
 10
1333.0956773148
 20
615.8622443823
 30
0.0
 11
1333.2956773148
 21
615.8622443823
 31
0.0
  0
LINE
  5
401
330
1B
100
AcDbEntity
 67
     1
  8
7_ALL_FEATURES
  6
Continuous
 62
     9
100
AcDbLine
 10
1412.8956773148
 20
615.8622443823
 30
0.0
 11
1413.0956773148
 21
615.8622443823
 31
0.0
  0
LINE
  5
402
330
1B
100
AcDbEntity
 67
     1
  8
7_ALL_FEATURES
  6
Continuous
 62
     9
100
AcDbLine
 10
1435.5956773148
 20
615.8622443823
 30
0.0
 11
2080.5956773148
 21
615.8622443823
 31
0.0
  0
LINE
  5
403
330
1B
100
AcDbEntity
 67
     1
  8
7_ALL_FEATURES
  6
Continuous
 62
     9
100
AcDbLine
 10
2103.0956773148
 20
615.8622443823
 30
0.0
 11
2103.2956773148
 21
615.8622443823
 31
0.0
  0
LINE
  5
404
330
1B
100
AcDbEntity
 67
     1
  8
7_ALL_FEATURES
  6
Continuous
 62
     9
100
AcDbLine
 10
2182.8956773148
 20
615.8622443823
 30
0.0
 11
2183.0956773148
 21
615.8622443823
 31
0.0
  0
LINE
  5
405
330
1B
100
AcDbEntity
 67
     1
  8
7_ALL_FEATURES
  6
Continuous
 62
     9
100
AcDbLine
 10
2205.5956773148
 20
615.8622443823
 30
0.0
 11
2264.5956773148
 21
615.8622443823
 31
0.0
  0
LINE
  5
406
330
1B
100
AcDbEntity
 67
     1
  8
7_ALL_FEATURES
  6
Continuous
 62
     3
100
AcDbLine
 10
2264.5956773148
 20
576.1622443823
 30
0.0
 11
2264.5956773148
 21
579.3399091443
 31
0.0
  0
LINE
  5
407
330
1B
100
AcDbEntity
 67
     1
  8
7_ALL_FEATURES
  6
Continuous
 62
     3
100
AcDbLine
 10
2264.5956773148
 20
611.1622443823
 30
0.0
 11
2264.5956773148
 21
615.6622443823
 31
0.0
  0
LINE
  5
408
330
1B
100
AcDbEntity
 67
     1
  8
7_ALL_FEATURES
  6
Continuous
 62
     3
100
AcDbLine
 10
2264.5956773148
 20
629.1427626815
 30
0.0
 11
2264.5956773148
 21
629.1622443823
 31
0.0
  0
LINE
  5
409
330
1B
100
AcDbEntity
 67
     1
  8
7_ALL_FEATURES
  6
Continuous
 62
     3
100
AcDbLine
 10
2264.5956773148
 20
629.1622443823
 30
0.0
 11
2264.5956773148
 21
633.6622443823
 31
0.0
  0
LINE
  5
40A
330
1B
100
AcDbEntity
 67
     1
  8
7_ALL_FEATURES
  6
Continuous
 62
     3
100
AcDbLine
 10
2264.5956773148
 20
633.6622443823
 30
0.0
 11
2264.5956773148
 21
633.681726083
 31
0.0
  0
LINE
  5
40B
330
1B
100
AcDbEntity
 67
     1
  8
7_ALL_FEATURES
  6
Continuous
 62
     3
100
AcDbLine
 10
2264.5956773148
 20
575.2423900603
 30
0.0
 11
2264.5956773148
 21
575.2670810909
 31
0.0
  0
LINE
  5
40C
330
1B
100
AcDbEntity
 67
     1
  8
7_ALL_FEATURES
  6
Continuous
 62
     3
100
AcDbLine
 10
2264.5956773148
 20
575.2670810909
 30
0.0
 11
2264.5956773148
 21
575.5596097459
 31
0.0
  0
LINE
  5
40D
330
1B
100
AcDbEntity
 67
     1
  8
7_ALL_FEATURES
  6
Continuous
 62
     3
100
AcDbLine
 10
2264.5956773148
 20
575.5596097459
 30
0.0
 11
2264.5956773148
 21
576.1622443823
 31
0.0
  0
LINE
  5
40E
330
1B
100
AcDbEntity
 67
     1
  8
7_ALL_FEATURES
  6
Continuous
 62
     3
100
AcDbLine
 10
504.5956773148
 20
633.681726083
 30
0.0
 11
504.5956773148
 21
633.6622443823
 31
0.0
  0
LINE
  5
40F
330
1B
100
AcDbEntity
 67
     1
  8
7_ALL_FEATURES
  6
Continuous
 62
     3
100
AcDbLine
 10
504.5956773148
 20
633.6622443823
 30
0.0
 11
504.5956773148
 21
629.1622443823
 31
0.0
  0
LINE
  5
410
330
1B
100
AcDbEntity
 67
     1
  8
7_ALL_FEATURES
  6
Continuous
 62
     3
100
AcDbLine
 10
504.5956773148
 20
629.1622443823
 30
0.0
 11
504.5956773148
 21
629.1427626815
 31
0.0
  0
LINE
  5
411
330
1B
100
AcDbEntity
 67
     1
  8
7_ALL_FEATURES
  6
Continuous
 62
     3
100
AcDbLine
 10
504.5956773148
 20
615.6622443823
 30
0.0
 11
504.5956773148
 21
611.1622443823
 31
0.0
  0
LINE
  5
412
330
1B
100
AcDbEntity
 67
     1
  8
7_ALL_FEATURES
  6
Continuous
 62
     3
100
AcDbLine
 10
504.5956773148
 20
576.1622443823
 30
0.0
 11
504.5956773148
 21
575.5596097459
 31
0.0
  0
LINE
  5
413
330
1B
100
AcDbEntity
 67
     1
  8
7_ALL_FEATURES
  6
Continuous
 62
     3
100
AcDbLine
 10
504.5956773148
 20
575.5596097459
 30
0.0
 11
504.5956773148
 21
575.2670810909
 31
0.0
  0
LINE
  5
414
330
1B
100
AcDbEntity
 67
     1
  8
7_ALL_FEATURES
  6
Continuous
 62
     3
100
AcDbLine
 10
504.5956773148
 20
575.2670810909
 30
0.0
 11
504.5956773148
 21
575.2423900603
 31
0.0
  0
LINE
  5
415
330
1B
100
AcDbEntity
 67
     1
  8
7_ALL_FEATURES
  6
Continuous
 62
     3
100
AcDbLine
 10
504.5956773148
 20
579.3399091443
 30
0.0
 11
504.5956773148
 21
576.1622443823
 31
0.0
  0
LINE
  5
416
330
1B
100
AcDbEntity
 67
     1
  8
7_ALL_FEATURES
  6
Continuous
 62
     3
100
AcDbLine
 10
2080.5956773148
 20
658.0622443823
 30
0.0
 11
2080.5956773148
 21
589.8622443823
 31
0.0
  0
LINE
  5
417
330
1B
100
AcDbEntity
 67
     1
  8
7_ALL_FEATURES
  6
Continuous
 62
     3
100
AcDbLine
 10
2205.5956773148
 20
589.8622443823
 30
0.0
 11
2205.5956773148
 21
658.0622443823
 31
0.0
  0
LINE
  5
418
330
1B
100
AcDbEntity
 67
     1
  8
02___PRT_ALL_AXES
  6
Continuous
 62
     3
100
AcDbLine
 10
2183.0956773148
 20
604.1622443823
 30
0.0
 11
2183.0956773148
 21
624.1622443823
 31
0.0
  0
ARC
  5
419
330
1B
100
AcDbEntity
 67
     1
  8
02___PRT_ALL_AXES
  6
Continuous
 62
     3
100
AcDbCircle
 10
2173.0956773148
 20
624.1622443823
 30
0.0
 40
10.0
100
AcDbArc
 50
0.0
 51
90.0
  0
LINE
  5
41A
330
1B
100
AcDbEntity
 67
     1
  8
02___PRT_ALL_AXES
  6
Continuous
 62
     3
100
AcDbLine
 10
2173.0956773148
 20
634.1622443823
 30
0.0
 11
2113.0956773148
 21
634.1622443823
 31
0.0
  0
ARC
  5
41B
330
1B
100
AcDbEntity
 67
     1
  8
02___PRT_ALL_AXES
  6
Continuous
 62
     3
100
AcDbCircle
 10
2113.0956773148
 20
624.1622443823
 30
0.0
 40
10.0
100
AcDbArc
 50
90.0
 51
180.0
  0
LINE
  5
41C
330
1B
100
AcDbEntity
 67
     1
  8
02___PRT_ALL_AXES
  6
Continuous
 62
     3
100
AcDbLine
 10
2103.0956773148
 20
624.1622443823
 30
0.0
 11
2103.0956773148
 21
604.1622443823
 31
0.0
  0
LINE
  5
41D
330
1B
100
AcDbEntity
 67
     1
  8
02___PRT_ALL_AXES
  6
Continuous
 62
     3
100
AcDbLine
 10
2103.0956773148
 20
604.1622443823
 30
0.0
 11
2103.2956773148
 21
604.1622443823
 31
0.0
  0
LINE
  5
41E
330
1B
100
AcDbEntity
 67
     1
  8
02___PRT_ALL_AXES
  6
Continuous
 62
     3
100
AcDbLine
 10
2103.2956773148
 20
604.1622443823
 30
0.0
 11
2103.2956773148
 21
624.1622443823
 31
0.0
  0
ARC
  5
41F
330
1B
100
AcDbEntity
 67
     1
  8
02___PRT_ALL_AXES
  6
Continuous
 62
     3
100
AcDbCircle
 10
2113.0956773148
 20
624.1622443823
 30
0.0
 40
9.8
100
AcDbArc
 50
90.0
 51
180.0
  0
LINE
  5
420
330
1B
100
AcDbEntity
 67
     1
  8
02___PRT_ALL_AXES
  6
Continuous
 62
     3
100
AcDbLine
 10
2113.0956773148
 20
633.9622443823
 30
0.0
 11
2173.0956773148
 21
633.9622443823
 31
0.0
  0
ARC
  5
421
330
1B
100
AcDbEntity
 67
     1
  8
02___PRT_ALL_AXES
  6
Continuous
 62
     3
100
AcDbCircle
 10
2173.0956773148
 20
624.1622443823
 30
0.0
 40
9.8
100
AcDbArc
 50
0.0
 51
90.0
  0
LINE
  5
422
330
1B
100
AcDbEntity
 67
     1
  8
02___PRT_ALL_AXES
  6
Continuous
 62
     3
100
AcDbLine
 10
2182.8956773148
 20
624.1622443823
 30
0.0
 11
2182.8956773148
 21
604.1622443823
 31
0.0
  0
LINE
  5
423
330
1B
100
AcDbEntity
 67
     1
  8
02___PRT_ALL_AXES
  6
Continuous
 62
     3
100
AcDbLine
 10
2182.8956773148
 20
604.1622443823
 30
0.0
 11
2183.0956773148
 21
604.1622443823
 31
0.0
  0
LINE
  5
424
330
1B
100
AcDbEntity
 67
     1
  8
02___PRT_ALL_AXES
  6
Continuous
 62
     3
100
AcDbLine
 10
2181.2956773148
 20
604.0622443823
 30
0.0
 11
2181.2956773148
 21
604.2622443823
 31
0.0
  0
LINE
  5
425
330
1B
100
AcDbEntity
 67
     1
  8
02___PRT_ALL_AXES
  6
Continuous
 62
     3
100
AcDbLine
 10
2181.2956773148
 20
604.2622443823
 30
0.0
 11
2143.8956773148
 21
604.2622443823
 31
0.0
  0
LINE
  5
426
330
1B
100
AcDbEntity
 67
     1
  8
02___PRT_ALL_AXES
  6
Continuous
 62
     3
100
AcDbLine
 10
2143.8956773148
 20
604.2622443823
 30
0.0
 11
2143.8956773148
 21
604.0622443823
 31
0.0
  0
LINE
  5
427
330
1B
100
AcDbEntity
 67
     1
  8
02___PRT_ALL_AXES
  6
Continuous
 62
     3
100
AcDbLine
 10
2143.8956773148
 20
604.0622443823
 30
0.0
 11
2181.2956773148
 21
604.0622443823
 31
0.0
  0
LINE
  5
428
330
1B
100
AcDbEntity
 67
     1
  8
02___PRT_ALL_AXES
  6
Continuous
 62
     3
100
AcDbLine
 10
2104.8956773148
 20
604.0622443823
 30
0.0
 11
2142.2956773148
 21
604.0622443823
 31
0.0
  0
LINE
  5
429
330
1B
100
AcDbEntity
 67
     1
  8
02___PRT_ALL_AXES
  6
Continuous
 62
     3
100
AcDbLine
 10
2142.2956773148
 20
604.0622443823
 30
0.0
 11
2142.2956773148
 21
604.2622443823
 31
0.0
  0
LINE
  5
42A
330
1B
100
AcDbEntity
 67
     1
  8
02___PRT_ALL_AXES
  6
Continuous
 62
     3
100
AcDbLine
 10
2142.2956773148
 20
604.2622443823
 30
0.0
 11
2104.8956773148
 21
604.2622443823
 31
0.0
  0
LINE
  5
42B
330
1B
100
AcDbEntity
 67
     1
  8
02___PRT_ALL_AXES
  6
Continuous
 62
     3
100
AcDbLine
 10
2104.8956773148
 20
604.2622443823
 30
0.0
 11
2104.8956773148
 21
604.0622443823
 31
0.0
  0
LINE
  5
42C
330
1B
100
AcDbEntity
 67
     1
  8
7_ALL_FEATURES
  6
Continuous
 62
     3
100
AcDbLine
 10
2080.5956773148
 20
658.0622443823
 30
0.0
 11
2080.5956773148
 21
658.767586685
 31
0.0
  0
LINE
  5
42D
330
1B
100
AcDbEntity
 67
     1
  8
7_ALL_FEATURES
  6
Continuous
 62
     3
100
AcDbLine
 10
2080.5956773148
 20
658.767586685
 30
0.0
 11
2080.5956773148
 21
659.2622443823
 31
0.0
  0
LINE
  5
42E
330
1B
100
AcDbEntity
 67
     1
  8
7_ALL_FEATURES
  6
Continuous
 62
     3
100
AcDbLine
 10
2205.5956773148
 20
659.2622443823
 30
0.0
 11
2080.5956773148
 21
659.2622443823
 31
0.0
  0
LINE
  5
42F
330
1B
100
AcDbEntity
 67
     1
  8
7_ALL_FEATURES
  6
Continuous
 62
     3
100
AcDbLine
 10
2205.5956773148
 20
658.0622443823
 30
0.0
 11
2205.5956773148
 21
658.767586685
 31
0.0
  0
LINE
  5
430
330
1B
100
AcDbEntity
 67
     1
  8
7_ALL_FEATURES
  6
Continuous
 62
     3
100
AcDbLine
 10
2205.5956773148
 20
658.767586685
 30
0.0
 11
2205.5956773148
 21
659.2622443823
 31
0.0
  0
LINE
  5
431
330
1B
100
AcDbEntity
 67
     1
  8
7_ALL_FEATURES
  6
Continuous
 62
     3
100
AcDbLine
 10
2080.5956773148
 20
589.2622443823
 30
0.0
 11
2092.5956773148
 21
589.2622443823
 31
0.0
  0
LINE
  5
432
330
1B
100
AcDbEntity
 67
     1
  8
7_ALL_FEATURES
  6
Continuous
 62
     3
100
AcDbLine
 10
2193.5956773148
 20
589.2622443823
 30
0.0
 11
2205.5956773148
 21
589.2622443823
 31
0.0
  0
LINE
  5
433
330
1B
100
AcDbEntity
 67
     1
  8
7_ALL_FEATURES
  6
Continuous
 62
     3
100
AcDbLine
 10
2193.5956773148
 20
589.2622443823
 30
0.0
 11
2092.5956773148
 21
589.2622443823
 31
0.0
  0
LINE
  5
434
330
1B
100
AcDbEntity
 67
     1
  8
7_ALL_FEATURES
  6
Continuous
 62
     3
100
AcDbLine
 10
2080.5956773148
 20
589.2622443823
 30
0.0
 11
2080.5956773148
 21
589.8622443823
 31
0.0
  0
LINE
  5
435
330
1B
100
AcDbEntity
 67
     1
  8
7_ALL_FEATURES
  6
Continuous
 62
     3
100
AcDbLine
 10
2205.5956773148
 20
589.2622443823
 30
0.0
 11
2205.5956773148
 21
589.8622443823
 31
0.0
  0
LINE
  5
436
330
1B
100
AcDbEntity
 67
     1
  8
7_ALL_FEATURES
  6
Continuous
 62
     9
100
AcDbLine
 10
2080.5956773148
 20
589.8622443823
 30
0.0
 11
2205.5956773148
 21
589.8622443823
 31
0.0
  0
LINE
  5
437
330
1B
100
AcDbEntity
 67
     1
  8
7_ALL_FEATURES
  6
Continuous
 62
     9
100
AcDbLine
 10
2205.5956773148
 20
658.0622443823
 30
0.0
 11
2080.5956773148
 21
658.0622443823
 31
0.0
  0
LINE
  5
438
330
1B
100
AcDbEntity
 67
     1
  8
7_ALL_FEATURES
  6
Continuous
 62
     3
100
AcDbLine
 10
1310.5956773148
 20
658.0622443823
 30
0.0
 11
1310.5956773148
 21
589.8622443823
 31
0.0
  0
LINE
  5
439
330
1B
100
AcDbEntity
 67
     1
  8
7_ALL_FEATURES
  6
Continuous
 62
     3
100
AcDbLine
 10
1435.5956773148
 20
589.8622443823
 30
0.0
 11
1435.5956773148
 21
658.0622443823
 31
0.0
  0
LINE
  5
43A
330
1B
100
AcDbEntity
 67
     1
  8
02___PRT_ALL_AXES
  6
Continuous
 62
     3
100
AcDbLine
 10
1413.0956773148
 20
604.1622443823
 30
0.0
 11
1413.0956773148
 21
624.1622443823
 31
0.0
  0
ARC
  5
43B
330
1B
100
AcDbEntity
 67
     1
  8
02___PRT_ALL_AXES
  6
Continuous
 62
     3
100
AcDbCircle
 10
1403.0956773148
 20
624.1622443823
 30
0.0
 40
10.0
100
AcDbArc
 50
0.0
 51
90.0
  0
LINE
  5
43C
330
1B
100
AcDbEntity
 67
     1
  8
02___PRT_ALL_AXES
  6
Continuous
 62
     3
100
AcDbLine
 10
1403.0956773148
 20
634.1622443823
 30
0.0
 11
1343.0956773148
 21
634.1622443823
 31
0.0
  0
ARC
  5
43D
330
1B
100
AcDbEntity
 67
     1
  8
02___PRT_ALL_AXES
  6
Continuous
 62
     3
100
AcDbCircle
 10
1343.0956773148
 20
624.1622443823
 30
0.0
 40
10.0
100
AcDbArc
 50
90.0
 51
180.0
  0
LINE
  5
43E
330
1B
100
AcDbEntity
 67
     1
  8
02___PRT_ALL_AXES
  6
Continuous
 62
     3
100
AcDbLine
 10
1333.0956773148
 20
624.1622443823
 30
0.0
 11
1333.0956773148
 21
604.1622443823
 31
0.0
  0
LINE
  5
43F
330
1B
100
AcDbEntity
 67
     1
  8
02___PRT_ALL_AXES
  6
Continuous
 62
     3
100
AcDbLine
 10
1333.0956773148
 20
604.1622443823
 30
0.0
 11
1333.2956773148
 21
604.1622443823
 31
0.0
  0
LINE
  5
440
330
1B
100
AcDbEntity
 67
     1
  8
02___PRT_ALL_AXES
  6
Continuous
 62
     3
100
AcDbLine
 10
1333.2956773148
 20
604.1622443823
 30
0.0
 11
1333.2956773148
 21
624.1622443823
 31
0.0
  0
ARC
  5
441
330
1B
100
AcDbEntity
 67
     1
  8
02___PRT_ALL_AXES
  6
Continuous
 62
     3
100
AcDbCircle
 10
1343.0956773148
 20
624.1622443823
 30
0.0
 40
9.8
100
AcDbArc
 50
90.0
 51
180.0
  0
LINE
  5
442
330
1B
100
AcDbEntity
 67
     1
  8
02___PRT_ALL_AXES
  6
Continuous
 62
     3
100
AcDbLine
 10
1343.0956773148
 20
633.9622443823
 30
0.0
 11
1403.0956773148
 21
633.9622443823
 31
0.0
  0
ARC
  5
443
330
1B
100
AcDbEntity
 67
     1
  8
02___PRT_ALL_AXES
  6
Continuous
 62
     3
100
AcDbCircle
 10
1403.0956773148
 20
624.1622443823
 30
0.0
 40
9.8
100
AcDbArc
 50
0.0
 51
90.0
  0
LINE
  5
444
330
1B
100
AcDbEntity
 67
     1
  8
02___PRT_ALL_AXES
  6
Continuous
 62
     3
100
AcDbLine
 10
1412.8956773148
 20
624.1622443823
 30
0.0
 11
1412.8956773148
 21
604.1622443823
 31
0.0
  0
LINE
  5
445
330
1B
100
AcDbEntity
 67
     1
  8
02___PRT_ALL_AXES
  6
Continuous
 62
     3
100
AcDbLine
 10
1412.8956773148
 20
604.1622443823
 30
0.0
 11
1413.0956773148
 21
604.1622443823
 31
0.0
  0
LINE
  5
446
330
1B
100
AcDbEntity
 67
     1
  8
02___PRT_ALL_AXES
  6
Continuous
 62
     3
100
AcDbLine
 10
1411.2956773148
 20
604.0622443823
 30
0.0
 11
1411.2956773148
 21
604.2622443823
 31
0.0
  0
LINE
  5
447
330
1B
100
AcDbEntity
 67
     1
  8
02___PRT_ALL_AXES
  6
Continuous
 62
     3
100
AcDbLine
 10
1411.2956773148
 20
604.2622443823
 30
0.0
 11
1373.8956773148
 21
604.2622443823
 31
0.0
  0
LINE
  5
448
330
1B
100
AcDbEntity
 67
     1
  8
02___PRT_ALL_AXES
  6
Continuous
 62
     3
100
AcDbLine
 10
1373.8956773148
 20
604.2622443823
 30
0.0
 11
1373.8956773148
 21
604.0622443823
 31
0.0
  0
LINE
  5
449
330
1B
100
AcDbEntity
 67
     1
  8
02___PRT_ALL_AXES
  6
Continuous
 62
     3
100
AcDbLine
 10
1373.8956773148
 20
604.0622443823
 30
0.0
 11
1411.2956773148
 21
604.0622443823
 31
0.0
  0
LINE
  5
44A
330
1B
100
AcDbEntity
 67
     1
  8
02___PRT_ALL_AXES
  6
Continuous
 62
     3
100
AcDbLine
 10
1334.8956773148
 20
604.0622443823
 30
0.0
 11
1372.2956773148
 21
604.0622443823
 31
0.0
  0
LINE
  5
44B
330
1B
100
AcDbEntity
 67
     1
  8
02___PRT_ALL_AXES
  6
Continuous
 62
     3
100
AcDbLine
 10
1372.2956773148
 20
604.0622443823
 30
0.0
 11
1372.2956773148
 21
604.2622443823
 31
0.0
  0
LINE
  5
44C
330
1B
100
AcDbEntity
 67
     1
  8
02___PRT_ALL_AXES
  6
Continuous
 62
     3
100
AcDbLine
 10
1372.2956773148
 20
604.2622443823
 30
0.0
 11
1334.8956773148
 21
604.2622443823
 31
0.0
  0
LINE
  5
44D
330
1B
100
AcDbEntity
 67
     1
  8
02___PRT_ALL_AXES
  6
Continuous
 62
     3
100
AcDbLine
 10
1334.8956773148
 20
604.2622443823
 30
0.0
 11
1334.8956773148
 21
604.0622443823
 31
0.0
  0
LINE
  5
44E
330
1B
100
AcDbEntity
 67
     1
  8
7_ALL_FEATURES
  6
Continuous
 62
     3
100
AcDbLine
 10
1310.5956773148
 20
658.0622443823
 30
0.0
 11
1310.5956773148
 21
658.767586685
 31
0.0
  0
LINE
  5
44F
330
1B
100
AcDbEntity
 67
     1
  8
7_ALL_FEATURES
  6
Continuous
 62
     3
100
AcDbLine
 10
1310.5956773148
 20
658.767586685
 30
0.0
 11
1310.5956773148
 21
659.2622443823
 31
0.0
  0
LINE
  5
450
330
1B
100
AcDbEntity
 67
     1
  8
7_ALL_FEATURES
  6
Continuous
 62
     3
100
AcDbLine
 10
1435.5956773148
 20
659.2622443823
 30
0.0
 11
1310.5956773148
 21
659.2622443823
 31
0.0
  0
LINE
  5
451
330
1B
100
AcDbEntity
 67
     1
  8
7_ALL_FEATURES
  6
Continuous
 62
     3
100
AcDbLine
 10
1435.5956773148
 20
658.0622443823
 30
0.0
 11
1435.5956773148
 21
658.767586685
 31
0.0
  0
LINE
  5
452
330
1B
100
AcDbEntity
 67
     1
  8
7_ALL_FEATURES
  6
Continuous
 62
     3
100
AcDbLine
 10
1435.5956773148
 20
658.767586685
 30
0.0
 11
1435.5956773148
 21
659.2622443823
 31
0.0
  0
LINE
  5
453
330
1B
100
AcDbEntity
 67
     1
  8
7_ALL_FEATURES
  6
Continuous
 62
     3
100
AcDbLine
 10
1310.5956773148
 20
589.2622443823
 30
0.0
 11
1322.5956773148
 21
589.2622443823
 31
0.0
  0
LINE
  5
454
330
1B
100
AcDbEntity
 67
     1
  8
7_ALL_FEATURES
  6
Continuous
 62
     3
100
AcDbLine
 10
1423.5956773148
 20
589.2622443823
 30
0.0
 11
1435.5956773148
 21
589.2622443823
 31
0.0
  0
LINE
  5
455
330
1B
100
AcDbEntity
 67
     1
  8
7_ALL_FEATURES
  6
Continuous
 62
     3
100
AcDbLine
 10
1423.5956773148
 20
589.2622443823
 30
0.0
 11
1322.5956773148
 21
589.2622443823
 31
0.0
  0
LINE
  5
456
330
1B
100
AcDbEntity
 67
     1
  8
7_ALL_FEATURES
  6
Continuous
 62
     3
100
AcDbLine
 10
1310.5956773148
 20
589.2622443823
 30
0.0
 11
1310.5956773148
 21
589.8622443823
 31
0.0
  0
LINE
  5
457
330
1B
100
AcDbEntity
 67
     1
  8
7_ALL_FEATURES
  6
Continuous
 62
     3
100
AcDbLine
 10
1435.5956773148
 20
589.2622443823
 30
0.0
 11
1435.5956773148
 21
589.8622443823
 31
0.0
  0
LINE
  5
458
330
1B
100
AcDbEntity
 67
     1
  8
7_ALL_FEATURES
  6
Continuous
 62
     9
100
AcDbLine
 10
1310.5956773148
 20
589.8622443823
 30
0.0
 11
1435.5956773148
 21
589.8622443823
 31
0.0
  0
LINE
  5
459
330
1B
100
AcDbEntity
 67
     1
  8
7_ALL_FEATURES
  6
Continuous
 62
     9
100
AcDbLine
 10
1435.5956773148
 20
658.0622443823
 30
0.0
 11
1310.5956773148
 21
658.0622443823
 31
0.0
  0
LINE
  5
45A
330
1B
100
AcDbEntity
 67
     1
  8
7_ALL_FEATURES
  6
Continuous
 62
     3
100
AcDbLine
 10
540.5956773148
 20
658.0622443823
 30
0.0
 11
540.5956773148
 21
589.8622443823
 31
0.0
  0
LINE
  5
45B
330
1B
100
AcDbEntity
 67
     1
  8
7_ALL_FEATURES
  6
Continuous
 62
     3
100
AcDbLine
 10
665.5956773148
 20
589.8622443823
 30
0.0
 11
665.5956773148
 21
658.0622443823
 31
0.0
  0
LINE
  5
45C
330
1B
100
AcDbEntity
 67
     1
  8
02___PRT_ALL_AXES
  6
Continuous
 62
     3
100
AcDbLine
 10
643.0956773148
 20
604.1622443823
 30
0.0
 11
643.0956773148
 21
624.1622443823
 31
0.0
  0
ARC
  5
45D
330
1B
100
AcDbEntity
 67
     1
  8
02___PRT_ALL_AXES
  6
Continuous
 62
     3
100
AcDbCircle
 10
633.0956773148
 20
624.1622443823
 30
0.0
 40
10.0
100
AcDbArc
 50
0.0
 51
90.0
  0
LINE
  5
45E
330
1B
100
AcDbEntity
 67
     1
  8
02___PRT_ALL_AXES
  6
Continuous
 62
     3
100
AcDbLine
 10
633.0956773148
 20
634.1622443823
 30
0.0
 11
573.0956773148
 21
634.1622443823
 31
0.0
  0
ARC
  5
45F
330
1B
100
AcDbEntity
 67
     1
  8
02___PRT_ALL_AXES
  6
Continuous
 62
     3
100
AcDbCircle
 10
573.0956773148
 20
624.1622443823
 30
0.0
 40
10.0
100
AcDbArc
 50
90.0
 51
180.0
  0
LINE
  5
460
330
1B
100
AcDbEntity
 67
     1
  8
02___PRT_ALL_AXES
  6
Continuous
 62
     3
100
AcDbLine
 10
563.0956773148
 20
624.1622443823
 30
0.0
 11
563.0956773148
 21
604.1622443823
 31
0.0
  0
LINE
  5
461
330
1B
100
AcDbEntity
 67
     1
  8
02___PRT_ALL_AXES
  6
Continuous
 62
     3
100
AcDbLine
 10
563.0956773148
 20
604.1622443823
 30
0.0
 11
563.2956773148
 21
604.1622443823
 31
0.0
  0
LINE
  5
462
330
1B
100
AcDbEntity
 67
     1
  8
02___PRT_ALL_AXES
  6
Continuous
 62
     3
100
AcDbLine
 10
563.2956773148
 20
604.1622443823
 30
0.0
 11
563.2956773148
 21
624.1622443823
 31
0.0
  0
ARC
  5
463
330
1B
100
AcDbEntity
 67
     1
  8
02___PRT_ALL_AXES
  6
Continuous
 62
     3
100
AcDbCircle
 10
573.0956773148
 20
624.1622443823
 30
0.0
 40
9.8
100
AcDbArc
 50
90.0
 51
180.0
  0
LINE
  5
464
330
1B
100
AcDbEntity
 67
     1
  8
02___PRT_ALL_AXES
  6
Continuous
 62
     3
100
AcDbLine
 10
573.0956773148
 20
633.9622443823
 30
0.0
 11
633.0956773148
 21
633.9622443823
 31
0.0
  0
ARC
  5
465
330
1B
100
AcDbEntity
 67
     1
  8
02___PRT_ALL_AXES
  6
Continuous
 62
     3
100
AcDbCircle
 10
633.0956773148
 20
624.1622443823
 30
0.0
 40
9.8
100
AcDbArc
 50
0.0
 51
90.0
  0
LINE
  5
466
330
1B
100
AcDbEntity
 67
     1
  8
02___PRT_ALL_AXES
  6
Continuous
 62
     3
100
AcDbLine
 10
642.8956773148
 20
624.1622443823
 30
0.0
 11
642.8956773148
 21
604.1622443823
 31
0.0
  0
LINE
  5
467
330
1B
100
AcDbEntity
 67
     1
  8
02___PRT_ALL_AXES
  6
Continuous
 62
     3
100
AcDbLine
 10
642.8956773148
 20
604.1622443823
 30
0.0
 11
643.0956773148
 21
604.1622443823
 31
0.0
  0
LINE
  5
468
330
1B
100
AcDbEntity
 67
     1
  8
02___PRT_ALL_AXES
  6
Continuous
 62
     3
100
AcDbLine
 10
641.2956773148
 20
604.0622443823
 30
0.0
 11
641.2956773148
 21
604.2622443823
 31
0.0
  0
LINE
  5
469
330
1B
100
AcDbEntity
 67
     1
  8
02___PRT_ALL_AXES
  6
Continuous
 62
     3
100
AcDbLine
 10
641.2956773148
 20
604.2622443823
 30
0.0
 11
603.8956773148
 21
604.2622443823
 31
0.0
  0
LINE
  5
46A
330
1B
100
AcDbEntity
 67
     1
  8
02___PRT_ALL_AXES
  6
Continuous
 62
     3
100
AcDbLine
 10
603.8956773148
 20
604.2622443823
 30
0.0
 11
603.8956773148
 21
604.0622443823
 31
0.0
  0
LINE
  5
46B
330
1B
100
AcDbEntity
 67
     1
  8
02___PRT_ALL_AXES
  6
Continuous
 62
     3
100
AcDbLine
 10
603.8956773148
 20
604.0622443823
 30
0.0
 11
641.2956773148
 21
604.0622443823
 31
0.0
  0
LINE
  5
46C
330
1B
100
AcDbEntity
 67
     1
  8
02___PRT_ALL_AXES
  6
Continuous
 62
     3
100
AcDbLine
 10
564.8956773148
 20
604.0622443823
 30
0.0
 11
602.2956773148
 21
604.0622443823
 31
0.0
  0
LINE
  5
46D
330
1B
100
AcDbEntity
 67
     1
  8
02___PRT_ALL_AXES
  6
Continuous
 62
     3
100
AcDbLine
 10
602.2956773148
 20
604.0622443823
 30
0.0
 11
602.2956773148
 21
604.2622443823
 31
0.0
  0
LINE
  5
46E
330
1B
100
AcDbEntity
 67
     1
  8
02___PRT_ALL_AXES
  6
Continuous
 62
     3
100
AcDbLine
 10
602.2956773148
 20
604.2622443823
 30
0.0
 11
564.8956773148
 21
604.2622443823
 31
0.0
  0
LINE
  5
46F
330
1B
100
AcDbEntity
 67
     1
  8
02___PRT_ALL_AXES
  6
Continuous
 62
     3
100
AcDbLine
 10
564.8956773148
 20
604.2622443823
 30
0.0
 11
564.8956773148
 21
604.0622443823
 31
0.0
  0
LINE
  5
470
330
1B
100
AcDbEntity
 67
     1
  8
7_ALL_FEATURES
  6
Continuous
 62
     3
100
AcDbLine
 10
540.5956773148
 20
658.0622443823
 30
0.0
 11
540.5956773148
 21
658.767586685
 31
0.0
  0
LINE
  5
471
330
1B
100
AcDbEntity
 67
     1
  8
7_ALL_FEATURES
  6
Continuous
 62
     3
100
AcDbLine
 10
540.5956773148
 20
658.767586685
 30
0.0
 11
540.5956773148
 21
659.2622443823
 31
0.0
  0
LINE
  5
472
330
1B
100
AcDbEntity
 67
     1
  8
7_ALL_FEATURES
  6
Continuous
 62
     3
100
AcDbLine
 10
665.5956773148
 20
659.2622443823
 30
0.0
 11
540.5956773148
 21
659.2622443823
 31
0.0
  0
LINE
  5
473
330
1B
100
AcDbEntity
 67
     1
  8
7_ALL_FEATURES
  6
Continuous
 62
     3
100
AcDbLine
 10
665.5956773148
 20
658.0622443823
 30
0.0
 11
665.5956773148
 21
658.767586685
 31
0.0
  0
LINE
  5
474
330
1B
100
AcDbEntity
 67
     1
  8
7_ALL_FEATURES
  6
Continuous
 62
     3
100
AcDbLine
 10
665.5956773148
 20
658.767586685
 30
0.0
 11
665.5956773148
 21
659.2622443823
 31
0.0
  0
LINE
  5
475
330
1B
100
AcDbEntity
 67
     1
  8
7_ALL_FEATURES
  6
Continuous
 62
     3
100
AcDbLine
 10
540.5956773148
 20
589.2622443823
 30
0.0
 11
552.5956773148
 21
589.2622443823
 31
0.0
  0
LINE
  5
476
330
1B
100
AcDbEntity
 67
     1
  8
7_ALL_FEATURES
  6
Continuous
 62
     3
100
AcDbLine
 10
653.5956773148
 20
589.2622443823
 30
0.0
 11
665.5956773148
 21
589.2622443823
 31
0.0
  0
LINE
  5
477
330
1B
100
AcDbEntity
 67
     1
  8
7_ALL_FEATURES
  6
Continuous
 62
     3
100
AcDbLine
 10
653.5956773148
 20
589.2622443823
 30
0.0
 11
552.5956773148
 21
589.2622443823
 31
0.0
  0
LINE
  5
478
330
1B
100
AcDbEntity
 67
     1
  8
7_ALL_FEATURES
  6
Continuous
 62
     3
100
AcDbLine
 10
540.5956773148
 20
589.2622443823
 30
0.0
 11
540.5956773148
 21
589.8622443823
 31
0.0
  0
LINE
  5
479
330
1B
100
AcDbEntity
 67
     1
  8
7_ALL_FEATURES
  6
Continuous
 62
     3
100
AcDbLine
 10
665.5956773148
 20
589.2622443823
 30
0.0
 11
665.5956773148
 21
589.8622443823
 31
0.0
  0
LINE
  5
47A
330
1B
100
AcDbEntity
 67
     1
  8
7_ALL_FEATURES
  6
Continuous
 62
     9
100
AcDbLine
 10
540.5956773148
 20
589.8622443823
 30
0.0
 11
665.5956773148
 21
589.8622443823
 31
0.0
  0
LINE
  5
47B
330
1B
100
AcDbEntity
 67
     1
  8
7_ALL_FEATURES
  6
Continuous
 62
     9
100
AcDbLine
 10
665.5956773148
 20
658.0622443823
 30
0.0
 11
540.5956773148
 21
658.0622443823
 31
0.0
  0
LINE
  5
47C
330
1B
100
AcDbEntity
 67
     1
  8
7_ALL_FEATURES
  6
Continuous
 62
     7
100
AcDbLine
 10
503.0956773148
 20
334.1982186575
 30
0.0
 11
504.5956773148
 21
334.1982186575
 31
0.0
  0
LINE
  5
47D
330
1B
100
AcDbEntity
 67
     1
  8
7_ALL_FEATURES
  6
Continuous
 62
     7
100
AcDbLine
 10
503.0956773148
 20
292.1982186575
 30
0.0
 11
504.5956773148
 21
292.1982186575
 31
0.0
  0
LINE
  5
47E
330
1B
100
AcDbEntity
 67
     1
  8
7_ALL_FEATURES
  6
Continuous
 62
     7
100
AcDbLine
 10
503.0956773148
 20
292.1982186575
 30
0.0
 11
503.0956773148
 21
293.1982186575
 31
0.0
  0
LINE
  5
47F
330
1B
100
AcDbEntity
 67
     1
  8
7_ALL_FEATURES
  6
Continuous
 62
     7
100
AcDbLine
 10
503.0956773148
 20
333.1982186575
 30
0.0
 11
503.0956773148
 21
293.1982186575
 31
0.0
  0
LINE
  5
480
330
1B
100
AcDbEntity
 67
     1
  8
7_ALL_FEATURES
  6
Continuous
 62
     7
100
AcDbLine
 10
503.0956773148
 20
333.1982186575
 30
0.0
 11
503.0956773148
 21
334.1982186575
 31
0.0
  0
LINE
  5
481
330
1B
100
AcDbEntity
 67
     1
  8
7_ALL_FEATURES
  6
Continuous
 62
     9
100
AcDbLine
 10
503.0956773148
 20
333.1982186575
 30
0.0
 11
504.5956773148
 21
333.1982186575
 31
0.0
  0
LINE
  5
482
330
1B
100
AcDbEntity
 67
     1
  8
7_ALL_FEATURES
  6
Continuous
 62
     9
100
AcDbLine
 10
503.0956773148
 20
293.1982186575
 30
0.0
 11
504.5956773148
 21
293.1982186575
 31
0.0
  0
LINE
  5
483
330
1B
100
AcDbEntity
 67
     1
  8
7_ALL_FEATURES
  6
Continuous
 62
     7
100
AcDbLine
 10
2266.0956773148
 20
292.1982186575
 30
0.0
 11
2264.5956773148
 21
292.1982186575
 31
0.0
  0
LINE
  5
484
330
1B
100
AcDbEntity
 67
     1
  8
7_ALL_FEATURES
  6
Continuous
 62
     7
100
AcDbLine
 10
2266.0956773148
 20
334.1982186575
 30
0.0
 11
2264.5956773148
 21
334.1982186575
 31
0.0
  0
LINE
  5
485
330
1B
100
AcDbEntity
 67
     1
  8
7_ALL_FEATURES
  6
Continuous
 62
     7
100
AcDbLine
 10
2266.0956773148
 20
334.1982186575
 30
0.0
 11
2266.0956773148
 21
333.1982186575
 31
0.0
  0
LINE
  5
486
330
1B
100
AcDbEntity
 67
     1
  8
7_ALL_FEATURES
  6
Continuous
 62
     7
100
AcDbLine
 10
2266.0956773148
 20
293.1982186575
 30
0.0
 11
2266.0956773148
 21
333.1982186575
 31
0.0
  0
LINE
  5
487
330
1B
100
AcDbEntity
 67
     1
  8
7_ALL_FEATURES
  6
Continuous
 62
     7
100
AcDbLine
 10
2266.0956773148
 20
293.1982186575
 30
0.0
 11
2266.0956773148
 21
292.1982186575
 31
0.0
  0
LINE
  5
488
330
1B
100
AcDbEntity
 67
     1
  8
7_ALL_FEATURES
  6
Continuous
 62
     9
100
AcDbLine
 10
2266.0956773148
 20
293.1982186575
 30
0.0
 11
2264.5956773148
 21
293.1982186575
 31
0.0
  0
LINE
  5
489
330
1B
100
AcDbEntity
 67
     1
  8
7_ALL_FEATURES
  6
Continuous
 62
     9
100
AcDbLine
 10
2266.0956773148
 20
333.1982186575
 30
0.0
 11
2264.5956773148
 21
333.1982186575
 31
0.0
  0
LINE
  5
48A
330
1B
100
AcDbEntity
 67
     1
  8
3_ALL_AXES
  6
Continuous
 62
     7
100
AcDbLine
 10
2266.5956773148
 20
334.1482186575
 30
0.0
 11
2266.5956773148
 21
328.6482186575
 31
0.0
  0
LINE
  5
48B
330
1B
100
AcDbEntity
 67
     1
  8
3_ALL_AXES
  6
Continuous
 62
     7
100
AcDbLine
 10
2266.5956773148
 20
334.1482186575
 30
0.0
 11
2266.4449569851
 21
334.1482186575
 31
0.0
  0
LINE
  5
48C
330
1B
100
AcDbEntity
 67
     1
  8
3_ALL_AXES
  6
Continuous
 62
     7
100
AcDbLine
 10
2266.5956773148
 20
328.6482186575
 30
0.0
 11
2266.4449569851
 21
328.6482186575
 31
0.0
  0
LINE
  5
48D
330
1B
100
AcDbEntity
 67
     1
  8
3_ALL_AXES
  6
Continuous
 62
     7
100
AcDbLine
 10
2266.4449569851
 20
328.6482186575
 30
0.0
 11
2266.0956773148
 21
328.9412991001
 31
0.0
  0
LINE
  5
48E
330
1B
100
AcDbEntity
 67
     1
  8
3_ALL_AXES
  6
Continuous
 62
     7
100
AcDbLine
 10
2266.4449569851
 20
334.1482186575
 30
0.0
 11
2266.0956773148
 21
333.8551382149
 31
0.0
  0
LINE
  5
48F
330
1B
100
AcDbEntity
 67
     1
  8
3_ALL_AXES
  6
Continuous
 62
     7
100
AcDbLine
 10
2266.4449569851
 20
334.1482186575
 30
0.0
 11
2266.4449569851
 21
328.6482186575
 31
0.0
  0
LINE
  5
490
330
1B
100
AcDbEntity
 67
     1
  8
3_ALL_AXES
  6
Continuous
 62
     7
100
AcDbLine
 10
2266.5956773148
 20
297.7482186575
 30
0.0
 11
2266.5956773148
 21
292.2482186575
 31
0.0
  0
LINE
  5
491
330
1B
100
AcDbEntity
 67
     1
  8
3_ALL_AXES
  6
Continuous
 62
     7
100
AcDbLine
 10
2266.5956773148
 20
297.7482186575
 30
0.0
 11
2266.4449569851
 21
297.7482186575
 31
0.0
  0
LINE
  5
492
330
1B
100
AcDbEntity
 67
     1
  8
3_ALL_AXES
  6
Continuous
 62
     7
100
AcDbLine
 10
2266.5956773148
 20
292.2482186575
 30
0.0
 11
2266.4449569851
 21
292.2482186575
 31
0.0
  0
LINE
  5
493
330
1B
100
AcDbEntity
 67
     1
  8
3_ALL_AXES
  6
Continuous
 62
     7
100
AcDbLine
 10
2266.4449569851
 20
292.2482186575
 30
0.0
 11
2266.0956773148
 21
292.5412991001
 31
0.0
  0
LINE
  5
494
330
1B
100
AcDbEntity
 67
     1
  8
3_ALL_AXES
  6
Continuous
 62
     7
100
AcDbLine
 10
2266.4449569851
 20
297.7482186575
 30
0.0
 11
2266.0956773148
 21
297.4551382149
 31
0.0
  0
LINE
  5
495
330
1B
100
AcDbEntity
 67
     1
  8
3_ALL_AXES
  6
Continuous
 62
     7
100
AcDbLine
 10
2266.4449569851
 20
297.7482186575
 30
0.0
 11
2266.4449569851
 21
292.2482186575
 31
0.0
  0
LINE
  5
496
330
1B
100
AcDbEntity
 67
     1
  8
3_ALL_AXES
  6
Continuous
 62
     7
100
AcDbLine
 10
502.5956773148
 20
328.6482186575
 30
0.0
 11
502.5956773148
 21
334.1482186575
 31
0.0
  0
LINE
  5
497
330
1B
100
AcDbEntity
 67
     1
  8
3_ALL_AXES
  6
Continuous
 62
     7
100
AcDbLine
 10
502.5956773148
 20
328.6482186575
 30
0.0
 11
502.7463976444
 21
328.6482186575
 31
0.0
  0
LINE
  5
498
330
1B
100
AcDbEntity
 67
     1
  8
3_ALL_AXES
  6
Continuous
 62
     7
100
AcDbLine
 10
502.5956773148
 20
334.1482186575
 30
0.0
 11
502.7463976444
 21
334.1482186575
 31
0.0
  0
LINE
  5
499
330
1B
100
AcDbEntity
 67
     1
  8
3_ALL_AXES
  6
Continuous
 62
     7
100
AcDbLine
 10
502.7463976444
 20
334.1482186575
 30
0.0
 11
503.0956773148
 21
333.8551382149
 31
0.0
  0
LINE
  5
49A
330
1B
100
AcDbEntity
 67
     1
  8
3_ALL_AXES
  6
Continuous
 62
     7
100
AcDbLine
 10
502.7463976444
 20
328.6482186575
 30
0.0
 11
503.0956773148
 21
328.9412991001
 31
0.0
  0
LINE
  5
49B
330
1B
100
AcDbEntity
 67
     1
  8
3_ALL_AXES
  6
Continuous
 62
     7
100
AcDbLine
 10
502.7463976444
 20
328.6482186575
 30
0.0
 11
502.7463976444
 21
334.1482186575
 31
0.0
  0
LINE
  5
49C
330
1B
100
AcDbEntity
 67
     1
  8
3_ALL_AXES
  6
Continuous
 62
     7
100
AcDbLine
 10
502.5956773148
 20
292.2482186575
 30
0.0
 11
502.5956773148
 21
297.7482186575
 31
0.0
  0
LINE
  5
49D
330
1B
100
AcDbEntity
 67
     1
  8
3_ALL_AXES
  6
Continuous
 62
     7
100
AcDbLine
 10
502.5956773148
 20
292.2482186575
 30
0.0
 11
502.7463976444
 21
292.2482186575
 31
0.0
  0
LINE
  5
49E
330
1B
100
AcDbEntity
 67
     1
  8
3_ALL_AXES
  6
Continuous
 62
     7
100
AcDbLine
 10
502.5956773148
 20
297.7482186575
 30
0.0
 11
502.7463976444
 21
297.7482186575
 31
0.0
  0
LINE
  5
49F
330
1B
100
AcDbEntity
 67
     1
  8
3_ALL_AXES
  6
Continuous
 62
     7
100
AcDbLine
 10
502.7463976444
 20
297.7482186575
 30
0.0
 11
503.0956773148
 21
297.4551382149
 31
0.0
  0
LINE
  5
4A0
330
1B
100
AcDbEntity
 67
     1
  8
3_ALL_AXES
  6
Continuous
 62
     7
100
AcDbLine
 10
502.7463976444
 20
292.2482186575
 30
0.0
 11
503.0956773148
 21
292.5412991001
 31
0.0
  0
LINE
  5
4A1
330
1B
100
AcDbEntity
 67
     1
  8
3_ALL_AXES
  6
Continuous
 62
     7
100
AcDbLine
 10
502.7463976444
 20
292.2482186575
 30
0.0
 11
502.7463976444
 21
297.7482186575
 31
0.0
  0
LINE
  5
4A2
330
1B
100
AcDbEntity
 67
     1
  8
7_ALL_FEATURES
  6
Continuous
 62
     7
100
AcDbLine
 10
2264.5956773148
 20
292.9982186575
 30
0.0
 11
2264.5956773148
 21
292.2911118763
 31
0.0
  0
LINE
  5
4A3
330
1B
100
AcDbEntity
 67
     1
  8
7_ALL_FEATURES
  6
Continuous
 62
     7
100
AcDbLine
 10
2264.5956773148
 20
292.2911118763
 30
0.0
 11
2264.5956773148
 21
292.1982186575
 31
0.0
  0
LINE
  5
4A4
330
1B
100
AcDbEntity
 67
     1
  8
7_ALL_FEATURES
  6
Continuous
 62
     7
100
AcDbLine
 10
2264.5956773148
 20
292.1982186575
 30
0.0
 11
2264.5956773148
 21
291.9982186575
 31
0.0
  0
LINE
  5
4A5
330
1B
100
AcDbEntity
 67
     1
  8
7_ALL_FEATURES
  6
Continuous
 62
     7
100
AcDbLine
 10
2264.5956773148
 20
292.9982186575
 30
0.0
 11
2264.5956773148
 21
293.1982186575
 31
0.0
  0
LINE
  5
4A6
330
1B
100
AcDbEntity
 67
     1
  8
7_ALL_FEATURES
  6
Continuous
 62
     7
100
AcDbLine
 10
2264.5956773148
 20
293.1982186575
 30
0.0
 11
2264.5956773148
 21
311.9776415209
 31
0.0
  0
LINE
  5
4A7
330
1B
100
AcDbEntity
 67
     1
  8
7_ALL_FEATURES
  6
Continuous
 62
     7
100
AcDbLine
 10
2264.5956773148
 20
311.9776415209
 30
0.0
 11
2264.5956773148
 21
312.4776415209
 31
0.0
  0
LINE
  5
4A8
330
1B
100
AcDbEntity
 67
     1
  8
7_ALL_FEATURES
  6
Continuous
 62
     7
100
AcDbLine
 10
2264.5956773148
 20
314.4187957941
 30
0.0
 11
2264.5956773148
 21
333.1982186575
 31
0.0
  0
LINE
  5
4A9
330
1B
100
AcDbEntity
 67
     1
  8
7_ALL_FEATURES
  6
Continuous
 62
     7
100
AcDbLine
 10
2264.5956773148
 20
333.1982186575
 30
0.0
 11
2264.5956773148
 21
333.3982186575
 31
0.0
  0
LINE
  5
4AA
330
1B
100
AcDbEntity
 67
     1
  8
7_ALL_FEATURES
  6
Continuous
 62
     7
100
AcDbLine
 10
2264.5956773148
 20
334.3982186575
 30
0.0
 11
2264.5956773148
 21
334.1982186575
 31
0.0
  0
LINE
  5
4AB
330
1B
100
AcDbEntity
 67
     1
  8
7_ALL_FEATURES
  6
Continuous
 62
     7
100
AcDbLine
 10
2264.5956773148
 20
334.1982186575
 30
0.0
 11
2264.5956773148
 21
334.1053254387
 31
0.0
  0
LINE
  5
4AC
330
1B
100
AcDbEntity
 67
     1
  8
7_ALL_FEATURES
  6
Continuous
 62
     7
100
AcDbLine
 10
2264.5956773148
 20
334.1053254387
 30
0.0
 11
2264.5956773148
 21
333.3982186575
 31
0.0
  0
LINE
  5
4AD
330
1B
100
AcDbEntity
 67
     1
  8
7_ALL_FEATURES
  6
Continuous
 62
     7
100
AcDbLine
 10
504.5956773148
 20
333.3982186575
 30
0.0
 11
504.5956773148
 21
334.1053254387
 31
0.0
  0
LINE
  5
4AE
330
1B
100
AcDbEntity
 67
     1
  8
7_ALL_FEATURES
  6
Continuous
 62
     7
100
AcDbLine
 10
504.5956773148
 20
334.1053254387
 30
0.0
 11
504.5956773148
 21
334.1982186575
 31
0.0
  0
LINE
  5
4AF
330
1B
100
AcDbEntity
 67
     1
  8
7_ALL_FEATURES
  6
Continuous
 62
     7
100
AcDbLine
 10
504.5956773148
 20
334.1982186575
 30
0.0
 11
504.5956773148
 21
334.3982186575
 31
0.0
  0
LINE
  5
4B0
330
1B
100
AcDbEntity
 67
     1
  8
7_ALL_FEATURES
  6
Continuous
 62
     7
100
AcDbLine
 10
504.5956773148
 20
314.4187957941
 30
0.0
 11
504.5956773148
 21
333.1982186575
 31
0.0
  0
LINE
  5
4B1
330
1B
100
AcDbEntity
 67
     1
  8
7_ALL_FEATURES
  6
Continuous
 62
     7
100
AcDbLine
 10
504.5956773148
 20
333.1982186575
 30
0.0
 11
504.5956773148
 21
333.3982186575
 31
0.0
  0
LINE
  5
4B2
330
1B
100
AcDbEntity
 67
     1
  8
7_ALL_FEATURES
  6
Continuous
 62
     7
100
AcDbLine
 10
504.5956773148
 20
314.4187957941
 30
0.0
 11
504.5956773148
 21
313.9187957941
 31
0.0
  0
LINE
  5
4B3
330
1B
100
AcDbEntity
 67
     1
  8
7_ALL_FEATURES
  6
Continuous
 62
     7
100
AcDbLine
 10
504.5956773148
 20
292.9982186575
 30
0.0
 11
504.5956773148
 21
293.1982186575
 31
0.0
  0
LINE
  5
4B4
330
1B
100
AcDbEntity
 67
     1
  8
7_ALL_FEATURES
  6
Continuous
 62
     7
100
AcDbLine
 10
504.5956773148
 20
293.1982186575
 30
0.0
 11
504.5956773148
 21
311.9776415209
 31
0.0
  0
LINE
  5
4B5
330
1B
100
AcDbEntity
 67
     1
  8
7_ALL_FEATURES
  6
Continuous
 62
     7
100
AcDbLine
 10
504.5956773148
 20
291.9982186575
 30
0.0
 11
504.5956773148
 21
292.1982186575
 31
0.0
  0
LINE
  5
4B6
330
1B
100
AcDbEntity
 67
     1
  8
7_ALL_FEATURES
  6
Continuous
 62
     7
100
AcDbLine
 10
504.5956773148
 20
292.1982186575
 30
0.0
 11
504.5956773148
 21
292.2911118763
 31
0.0
  0
LINE
  5
4B7
330
1B
100
AcDbEntity
 67
     1
  8
7_ALL_FEATURES
  6
Continuous
 62
     7
100
AcDbLine
 10
504.5956773148
 20
292.2911118763
 30
0.0
 11
504.5956773148
 21
292.9982186575
 31
0.0
  0
LINE
  5
4B8
330
1B
100
AcDbEntity
 67
     1
  8
7_ALL_FEATURES
  6
Continuous
 62
     7
100
AcDbLine
 10
504.5956773148
 20
334.3982186575
 30
0.0
 11
540.5956773148
 21
334.3982186575
 31
0.0
  0
LINE
  5
4B9
330
1B
100
AcDbEntity
 67
     1
  8
7_ALL_FEATURES
  6
Continuous
 62
     7
100
AcDbLine
 10
665.5956773148
 20
334.3982186575
 30
0.0
 11
1310.5956773148
 21
334.3982186575
 31
0.0
  0
LINE
  5
4BA
330
1B
100
AcDbEntity
 67
     1
  8
7_ALL_FEATURES
  6
Continuous
 62
     7
100
AcDbLine
 10
1435.5956773148
 20
334.3982186575
 30
0.0
 11
2080.5956773148
 21
334.3982186575
 31
0.0
  0
LINE
  5
4BB
330
1B
100
AcDbEntity
 67
     1
  8
7_ALL_FEATURES
  6
Continuous
 62
     7
100
AcDbLine
 10
2205.5956773148
 20
334.3982186575
 30
0.0
 11
2264.5956773148
 21
334.3982186575
 31
0.0
  0
LINE
  5
4BC
330
1B
100
AcDbEntity
 67
     1
  8
7_ALL_FEATURES
  6
Continuous
 62
     7
100
AcDbLine
 10
504.5956773148
 20
291.9982186575
 30
0.0
 11
540.5956773148
 21
291.9982186575
 31
0.0
  0
LINE
  5
4BD
330
1B
100
AcDbEntity
 67
     1
  8
7_ALL_FEATURES
  6
Continuous
 62
     7
100
AcDbLine
 10
665.5956773148
 20
291.9982186575
 30
0.0
 11
1310.5956773148
 21
291.9982186575
 31
0.0
  0
LINE
  5
4BE
330
1B
100
AcDbEntity
 67
     1
  8
7_ALL_FEATURES
  6
Continuous
 62
     7
100
AcDbLine
 10
1435.5956773148
 20
291.9982186575
 30
0.0
 11
2080.5956773148
 21
291.9982186575
 31
0.0
  0
LINE
  5
4BF
330
1B
100
AcDbEntity
 67
     1
  8
7_ALL_FEATURES
  6
Continuous
 62
     7
100
AcDbLine
 10
2205.5956773148
 20
291.9982186575
 30
0.0
 11
2264.5956773148
 21
291.9982186575
 31
0.0
  0
LINE
  5
4C0
330
1B
100
AcDbEntity
 67
     1
  8
7_ALL_FEATURES
  6
Continuous
 62
     9
100
AcDbLine
 10
504.5956773148
 20
313.9187957941
 30
0.0
 11
540.5956773148
 21
313.9187957941
 31
0.0
  0
LINE
  5
4C1
330
1B
100
AcDbEntity
 67
     1
  8
7_ALL_FEATURES
  6
Continuous
 62
     9
100
AcDbLine
 10
665.5956773148
 20
313.9187957941
 30
0.0
 11
1310.5956773148
 21
313.9187957941
 31
0.0
  0
LINE
  5
4C2
330
1B
100
AcDbEntity
 67
     1
  8
7_ALL_FEATURES
  6
Continuous
 62
     9
100
AcDbLine
 10
1435.5956773148
 20
313.9187957941
 30
0.0
 11
2080.5956773148
 21
313.9187957941
 31
0.0
  0
LINE
  5
4C3
330
1B
100
AcDbEntity
 67
     1
  8
7_ALL_FEATURES
  6
Continuous
 62
     9
100
AcDbLine
 10
2205.5956773148
 20
313.9187957941
 30
0.0
 11
2264.5956773148
 21
313.9187957941
 31
0.0
  0
LINE
  5
4C4
330
1B
100
AcDbEntity
 67
     1
  8
7_ALL_FEATURES
  6
Continuous
 62
     9
100
AcDbLine
 10
504.5956773148
 20
312.4776415209
 30
0.0
 11
540.5956773148
 21
312.4776415209
 31
0.0
  0
LINE
  5
4C5
330
1B
100
AcDbEntity
 67
     1
  8
7_ALL_FEATURES
  6
Continuous
 62
     9
100
AcDbLine
 10
665.5956773148
 20
312.4776415209
 30
0.0
 11
1310.5956773148
 21
312.4776415209
 31
0.0
  0
LINE
  5
4C6
330
1B
100
AcDbEntity
 67
     1
  8
7_ALL_FEATURES
  6
Continuous
 62
     9
100
AcDbLine
 10
1435.5956773148
 20
312.4776415209
 30
0.0
 11
2080.5956773148
 21
312.4776415209
 31
0.0
  0
LINE
  5
4C7
330
1B
100
AcDbEntity
 67
     1
  8
7_ALL_FEATURES
  6
Continuous
 62
     9
100
AcDbLine
 10
2205.5956773148
 20
312.4776415209
 30
0.0
 11
2264.5956773148
 21
312.4776415209
 31
0.0
  0
LINE
  5
4C8
330
1B
100
AcDbEntity
 67
     1
  8
7_ALL_FEATURES
  6
Continuous
 62
     9
100
AcDbLine
 10
504.5956773148
 20
292.9982186575
 30
0.0
 11
540.5956773148
 21
292.9982186575
 31
0.0
  0
LINE
  5
4C9
330
1B
100
AcDbEntity
 67
     1
  8
7_ALL_FEATURES
  6
Continuous
 62
     9
100
AcDbLine
 10
665.5956773148
 20
292.9982186575
 30
0.0
 11
1310.5956773148
 21
292.9982186575
 31
0.0
  0
LINE
  5
4CA
330
1B
100
AcDbEntity
 67
     1
  8
7_ALL_FEATURES
  6
Continuous
 62
     9
100
AcDbLine
 10
1435.5956773148
 20
292.9982186575
 30
0.0
 11
2080.5956773148
 21
292.9982186575
 31
0.0
  0
LINE
  5
4CB
330
1B
100
AcDbEntity
 67
     1
  8
7_ALL_FEATURES
  6
Continuous
 62
     9
100
AcDbLine
 10
2205.5956773148
 20
292.9982186575
 30
0.0
 11
2264.5956773148
 21
292.9982186575
 31
0.0
  0
LINE
  5
4CC
330
1B
100
AcDbEntity
 67
     1
  8
7_ALL_FEATURES
  6
Continuous
 62
     9
100
AcDbLine
 10
504.5956773148
 20
311.9776415209
 30
0.0
 11
540.5956773148
 21
311.9776415209
 31
0.0
  0
LINE
  5
4CD
330
1B
100
AcDbEntity
 67
     1
  8
7_ALL_FEATURES
  6
Continuous
 62
     9
100
AcDbLine
 10
665.5956773148
 20
311.9776415209
 30
0.0
 11
1310.5956773148
 21
311.9776415209
 31
0.0
  0
LINE
  5
4CE
330
1B
100
AcDbEntity
 67
     1
  8
7_ALL_FEATURES
  6
Continuous
 62
     9
100
AcDbLine
 10
1435.5956773148
 20
311.9776415209
 30
0.0
 11
2080.5956773148
 21
311.9776415209
 31
0.0
  0
LINE
  5
4CF
330
1B
100
AcDbEntity
 67
     1
  8
7_ALL_FEATURES
  6
Continuous
 62
     9
100
AcDbLine
 10
2205.5956773148
 20
311.9776415209
 30
0.0
 11
2264.5956773148
 21
311.9776415209
 31
0.0
  0
LINE
  5
4D0
330
1B
100
AcDbEntity
 67
     1
  8
7_ALL_FEATURES
  6
Continuous
 62
     9
100
AcDbLine
 10
504.5956773148
 20
333.3982186575
 30
0.0
 11
540.5956773148
 21
333.3982186575
 31
0.0
  0
LINE
  5
4D1
330
1B
100
AcDbEntity
 67
     1
  8
7_ALL_FEATURES
  6
Continuous
 62
     9
100
AcDbLine
 10
665.5956773148
 20
333.3982186575
 30
0.0
 11
1310.5956773148
 21
333.3982186575
 31
0.0
  0
LINE
  5
4D2
330
1B
100
AcDbEntity
 67
     1
  8
7_ALL_FEATURES
  6
Continuous
 62
     9
100
AcDbLine
 10
1435.5956773148
 20
333.3982186575
 30
0.0
 11
2080.5956773148
 21
333.3982186575
 31
0.0
  0
LINE
  5
4D3
330
1B
100
AcDbEntity
 67
     1
  8
7_ALL_FEATURES
  6
Continuous
 62
     9
100
AcDbLine
 10
2205.5956773148
 20
333.3982186575
 30
0.0
 11
2264.5956773148
 21
333.3982186575
 31
0.0
  0
LINE
  5
4D4
330
1B
100
AcDbEntity
 67
     1
  8
7_ALL_FEATURES
  6
Continuous
 62
     9
100
AcDbLine
 10
504.5956773148
 20
314.4187957941
 30
0.0
 11
540.5956773148
 21
314.4187957941
 31
0.0
  0
LINE
  5
4D5
330
1B
100
AcDbEntity
 67
     1
  8
7_ALL_FEATURES
  6
Continuous
 62
     9
100
AcDbLine
 10
665.5956773148
 20
314.4187957941
 30
0.0
 11
1310.5956773148
 21
314.4187957941
 31
0.0
  0
LINE
  5
4D6
330
1B
100
AcDbEntity
 67
     1
  8
7_ALL_FEATURES
  6
Continuous
 62
     9
100
AcDbLine
 10
1435.5956773148
 20
314.4187957941
 30
0.0
 11
2080.5956773148
 21
314.4187957941
 31
0.0
  0
LINE
  5
4D7
330
1B
100
AcDbEntity
 67
     1
  8
7_ALL_FEATURES
  6
Continuous
 62
     9
100
AcDbLine
 10
2205.5956773148
 20
314.4187957941
 30
0.0
 11
2264.5956773148
 21
314.4187957941
 31
0.0
  0
LINE
  5
4D8
330
1B
100
AcDbEntity
 67
     1
  8
7_ALL_FEATURES
  6
Continuous
 62
     7
100
AcDbLine
 10
2264.5956773148
 20
313.1982186575
 30
0.0
 11
2205.5956773148
 21
313.1982186575
 31
0.0
  0
LINE
  5
4D9
330
1B
100
AcDbEntity
 67
     1
  8
7_ALL_FEATURES
  6
Continuous
 62
     7
100
AcDbLine
 10
2080.5956773148
 20
313.1982186575
 30
0.0
 11
1435.5956773148
 21
313.1982186575
 31
0.0
  0
LINE
  5
4DA
330
1B
100
AcDbEntity
 67
     1
  8
7_ALL_FEATURES
  6
Continuous
 62
     7
100
AcDbLine
 10
1310.5956773148
 20
313.1982186575
 30
0.0
 11
665.5956773148
 21
313.1982186575
 31
0.0
  0
LINE
  5
4DB
330
1B
100
AcDbEntity
 67
     1
  8
7_ALL_FEATURES
  6
Continuous
 62
     7
100
AcDbLine
 10
540.5956773148
 20
313.1982186575
 30
0.0
 11
504.5956773148
 21
313.1982186575
 31
0.0
  0
LINE
  5
4DC
330
1B
100
AcDbEntity
 67
     1
  8
7_ALL_FEATURES
  6
Continuous
 62
     3
100
AcDbLine
 10
504.5956773148
 20
293.1982186575
 30
0.0
 11
504.5956773148
 21
293.105950298
 31
0.0
  0
LINE
  5
4DD
330
1B
100
AcDbEntity
 67
     1
  8
7_ALL_FEATURES
  6
Continuous
 62
     3
100
AcDbLine
 10
504.5956773148
 20
333.1982186575
 30
0.0
 11
504.5956773148
 21
314.4187957941
 31
0.0
  0
LINE
  5
4DE
330
1B
100
AcDbEntity
 67
     1
  8
7_ALL_FEATURES
  6
Continuous
 62
     3
100
AcDbLine
 10
504.5956773148
 20
314.4187957941
 30
0.0
 11
504.5956773148
 21
313.9187957941
 31
0.0
  0
LINE
  5
4DF
330
1B
100
AcDbEntity
 67
     1
  8
7_ALL_FEATURES
  6
Continuous
 62
     3
100
AcDbLine
 10
504.5956773148
 20
313.9187957941
 30
0.0
 11
504.5956773148
 21
313.1982186575
 31
0.0
  0
LINE
  5
4E0
330
1B
100
AcDbEntity
 67
     1
  8
7_ALL_FEATURES
  6
Continuous
 62
     3
100
AcDbLine
 10
504.5956773148
 20
313.1982186575
 30
0.0
 11
504.5956773148
 21
312.4776415209
 31
0.0
  0
LINE
  5
4E1
330
1B
100
AcDbEntity
 67
     1
  8
7_ALL_FEATURES
  6
Continuous
 62
     3
100
AcDbLine
 10
504.5956773148
 20
312.4776415209
 30
0.0
 11
504.5956773148
 21
311.9776415209
 31
0.0
  0
LINE
  5
4E2
330
1B
100
AcDbEntity
 67
     1
  8
7_ALL_FEATURES
  6
Continuous
 62
     3
100
AcDbLine
 10
504.5956773148
 20
311.9776415209
 30
0.0
 11
504.5956773148
 21
293.1982186575
 31
0.0
  0
LINE
  5
4E3
330
1B
100
AcDbEntity
 67
     1
  8
7_ALL_FEATURES
  6
Continuous
 62
     3
100
AcDbLine
 10
504.5956773148
 20
333.2904870169
 30
0.0
 11
504.5956773148
 21
333.1982186575
 31
0.0
  0
LINE
  5
4E4
330
1B
100
AcDbEntity
 67
     1
  8
7_ALL_FEATURES
  6
Continuous
 62
     3
100
AcDbLine
 10
2264.5956773148
 20
333.1982186575
 30
0.0
 11
2264.5956773148
 21
333.2904870169
 31
0.0
  0
LINE
  5
4E5
330
1B
100
AcDbEntity
 67
     1
  8
7_ALL_FEATURES
  6
Continuous
 62
     3
100
AcDbLine
 10
2264.5956773148
 20
293.1982186575
 30
0.0
 11
2264.5956773148
 21
311.9776415209
 31
0.0
  0
LINE
  5
4E6
330
1B
100
AcDbEntity
 67
     1
  8
7_ALL_FEATURES
  6
Continuous
 62
     3
100
AcDbLine
 10
2264.5956773148
 20
311.9776415209
 30
0.0
 11
2264.5956773148
 21
312.4776415209
 31
0.0
  0
LINE
  5
4E7
330
1B
100
AcDbEntity
 67
     1
  8
7_ALL_FEATURES
  6
Continuous
 62
     3
100
AcDbLine
 10
2264.5956773148
 20
312.4776415209
 30
0.0
 11
2264.5956773148
 21
313.1982186575
 31
0.0
  0
LINE
  5
4E8
330
1B
100
AcDbEntity
 67
     1
  8
7_ALL_FEATURES
  6
Continuous
 62
     3
100
AcDbLine
 10
2264.5956773148
 20
313.1982186575
 30
0.0
 11
2264.5956773148
 21
313.9187957941
 31
0.0
  0
LINE
  5
4E9
330
1B
100
AcDbEntity
 67
     1
  8
7_ALL_FEATURES
  6
Continuous
 62
     3
100
AcDbLine
 10
2264.5956773148
 20
313.9187957941
 30
0.0
 11
2264.5956773148
 21
314.4187957941
 31
0.0
  0
LINE
  5
4EA
330
1B
100
AcDbEntity
 67
     1
  8
7_ALL_FEATURES
  6
Continuous
 62
     3
100
AcDbLine
 10
2264.5956773148
 20
314.4187957941
 30
0.0
 11
2264.5956773148
 21
333.1982186575
 31
0.0
  0
LINE
  5
4EB
330
1B
100
AcDbEntity
 67
     1
  8
7_ALL_FEATURES
  6
Continuous
 62
     3
100
AcDbLine
 10
2264.5956773148
 20
293.105950298
 30
0.0
 11
2264.5956773148
 21
293.1982186575
 31
0.0
  0
LINE
  5
4EC
330
1B
100
AcDbEntity
 67
     1
  8
7_ALL_FEATURES
  6
Continuous
 62
     3
100
AcDbLine
 10
665.5956773148
 20
291.0482186575
 30
0.0
 11
540.5956773148
 21
291.0482186575
 31
0.0
  0
LINE
  5
4ED
330
1B
100
AcDbEntity
 67
     1
  8
7_ALL_FEATURES
  6
Continuous
 62
     3
100
AcDbLine
 10
540.5956773148
 20
291.0482186575
 30
0.0
 11
540.5956773148
 21
291.6482186575
 31
0.0
  0
LINE
  5
4EE
330
1B
100
AcDbEntity
 67
     1
  8
7_ALL_FEATURES
  6
Continuous
 62
     3
100
AcDbLine
 10
540.5956773148
 20
291.6482186575
 30
0.0
 11
540.5956773148
 21
292.2482186575
 31
0.0
  0
LINE
  5
4EF
330
1B
100
AcDbEntity
 67
     1
  8
7_ALL_FEATURES
  6
Continuous
 62
     3
100
AcDbLine
 10
665.5956773148
 20
291.0482186575
 30
0.0
 11
665.5956773148
 21
291.6482186575
 31
0.0
  0
LINE
  5
4F0
330
1B
100
AcDbEntity
 67
     1
  8
7_ALL_FEATURES
  6
Continuous
 62
     3
100
AcDbLine
 10
665.5956773148
 20
291.6482186575
 30
0.0
 11
665.5956773148
 21
292.2482186575
 31
0.0
  0
LINE
  5
4F1
330
1B
100
AcDbEntity
 67
     1
  8
7_ALL_FEATURES
  6
Continuous
 62
     3
100
AcDbLine
 10
540.5956773148
 20
335.9482186575
 30
0.0
 11
540.5956773148
 21
335.3482186575
 31
0.0
  0
LINE
  5
4F2
330
1B
100
AcDbEntity
 67
     1
  8
7_ALL_FEATURES
  6
Continuous
 62
     3
100
AcDbLine
 10
665.5956773148
 20
335.9482186575
 30
0.0
 11
665.5956773148
 21
335.3482186575
 31
0.0
  0
LINE
  5
4F3
330
1B
100
AcDbEntity
 67
     1
  8
7_ALL_FEATURES
  6
Continuous
 62
     3
100
AcDbLine
 10
540.5956773148
 20
335.9482186575
 30
0.0
 11
540.5956773148
 21
336.7482186575
 31
0.0
  0
LINE
  5
4F4
330
1B
100
AcDbEntity
 67
     1
  8
7_ALL_FEATURES
  6
Continuous
 62
     3
100
AcDbLine
 10
665.5956773148
 20
336.7482186575
 30
0.0
 11
665.5956773148
 21
335.9482186575
 31
0.0
  0
LINE
  5
4F5
330
1B
100
AcDbEntity
 67
     1
  8
7_ALL_FEATURES
  6
Continuous
 62
     3
100
AcDbLine
 10
540.5956773148
 20
289.6482186575
 30
0.0
 11
552.5956773148
 21
266.6482186575
 31
0.0
  0
LINE
  5
4F6
330
1B
100
AcDbEntity
 67
     1
  8
7_ALL_FEATURES
  6
Continuous
 62
     3
100
AcDbLine
 10
540.5956773148
 20
289.6482186575
 30
0.0
 11
540.5956773148
 21
290.4482186575
 31
0.0
  0
LINE
  5
4F7
330
1B
100
AcDbEntity
 67
     1
  8
7_ALL_FEATURES
  6
Continuous
 62
     3
100
AcDbLine
 10
665.5956773148
 20
290.4482186575
 30
0.0
 11
665.5956773148
 21
289.6482186575
 31
0.0
  0
LINE
  5
4F8
330
1B
100
AcDbEntity
 67
     1
  8
7_ALL_FEATURES
  6
Continuous
 62
     3
100
AcDbLine
 10
653.5956773148
 20
266.6482186575
 30
0.0
 11
665.5956773148
 21
289.6482186575
 31
0.0
  0
LINE
  5
4F9
330
1B
100
AcDbEntity
 67
     1
  8
7_ALL_FEATURES
  6
Continuous
 62
     3
100
AcDbLine
 10
653.5956773148
 20
266.6482186575
 30
0.0
 11
552.5956773148
 21
266.6482186575
 31
0.0
  0
LINE
  5
4FA
330
1B
100
AcDbEntity
 67
     1
  8
7_ALL_FEATURES
  6
Continuous
 62
     3
100
AcDbLine
 10
540.5956773148
 20
290.4482186575
 30
0.0
 11
540.5956773148
 21
291.0482186575
 31
0.0
  0
LINE
  5
4FB
330
1B
100
AcDbEntity
 67
     1
  8
7_ALL_FEATURES
  6
Continuous
 62
     3
100
AcDbLine
 10
665.5956773148
 20
290.4482186575
 30
0.0
 11
665.5956773148
 21
291.0482186575
 31
0.0
  0
LINE
  5
4FC
330
1B
100
AcDbEntity
 67
     1
  8
7_ALL_FEATURES
  6
Continuous
 62
     3
100
AcDbLine
 10
540.5956773148
 20
334.1482186575
 30
0.0
 11
540.5956773148
 21
292.2482186575
 31
0.0
  0
LINE
  5
4FD
330
1B
100
AcDbEntity
 67
     1
  8
7_ALL_FEATURES
  6
Continuous
 62
     3
100
AcDbLine
 10
665.5956773148
 20
336.7482186575
 30
0.0
 11
653.5956773148
 21
359.7482186575
 31
0.0
  0
LINE
  5
4FE
330
1B
100
AcDbEntity
 67
     1
  8
7_ALL_FEATURES
  6
Continuous
 62
     3
100
AcDbLine
 10
552.5956773148
 20
359.7482186575
 30
0.0
 11
653.5956773148
 21
359.7482186575
 31
0.0
  0
LINE
  5
4FF
330
1B
100
AcDbEntity
 67
     1
  8
7_ALL_FEATURES
  6
Continuous
 62
     3
100
AcDbLine
 10
665.5956773148
 20
334.1482186575
 30
0.0
 11
665.5956773148
 21
292.2482186575
 31
0.0
  0
LINE
  5
500
330
1B
100
AcDbEntity
 67
     1
  8
7_ALL_FEATURES
  6
Continuous
 62
     3
100
AcDbLine
 10
552.5956773148
 20
359.7482186575
 30
0.0
 11
540.5956773148
 21
336.7482186575
 31
0.0
  0
LINE
  5
501
330
1B
100
AcDbEntity
 67
     1
  8
7_ALL_FEATURES
  6
Continuous
 62
     3
100
AcDbLine
 10
540.5956773148
 20
335.3482186575
 30
0.0
 11
540.5956773148
 21
334.7482186575
 31
0.0
  0
LINE
  5
502
330
1B
100
AcDbEntity
 67
     1
  8
7_ALL_FEATURES
  6
Continuous
 62
     3
100
AcDbLine
 10
540.5956773148
 20
334.7482186575
 30
0.0
 11
540.5956773148
 21
334.1482186575
 31
0.0
  0
LINE
  5
503
330
1B
100
AcDbEntity
 67
     1
  8
7_ALL_FEATURES
  6
Continuous
 62
     3
100
AcDbLine
 10
665.5956773148
 20
335.3482186575
 30
0.0
 11
665.5956773148
 21
334.7482186575
 31
0.0
  0
LINE
  5
504
330
1B
100
AcDbEntity
 67
     1
  8
7_ALL_FEATURES
  6
Continuous
 62
     3
100
AcDbLine
 10
665.5956773148
 20
334.7482186575
 30
0.0
 11
665.5956773148
 21
334.1482186575
 31
0.0
  0
LINE
  5
505
330
1B
100
AcDbEntity
 67
     1
  8
7_ALL_FEATURES
  6
Continuous
 62
     3
100
AcDbLine
 10
540.5956773148
 20
335.3482186575
 30
0.0
 11
665.5956773148
 21
335.3482186575
 31
0.0
  0
LINE
  5
506
330
1B
100
AcDbEntity
 67
     1
  8
7_ALL_FEATURES
  6
Continuous
 62
     9
100
AcDbLine
 10
540.5956773148
 20
290.4482186575
 30
0.0
 11
665.5956773148
 21
290.4482186575
 31
0.0
  0
LINE
  5
507
330
1B
100
AcDbEntity
 67
     1
  8
7_ALL_FEATURES
  6
Continuous
 62
     9
100
AcDbLine
 10
665.5956773148
 20
335.9482186575
 30
0.0
 11
540.5956773148
 21
335.9482186575
 31
0.0
  0
LINE
  5
508
330
1B
100
AcDbEntity
 67
     1
  8
7_ALL_FEATURES
  6
Continuous
 62
     9
100
AcDbLine
 10
665.5956773148
 20
292.2482186575
 30
0.0
 11
540.5956773148
 21
292.2482186575
 31
0.0
  0
LINE
  5
509
330
1B
100
AcDbEntity
 67
     1
  8
7_ALL_FEATURES
  6
Continuous
 62
     9
100
AcDbLine
 10
540.5956773148
 20
334.1482186575
 30
0.0
 11
665.5956773148
 21
334.1482186575
 31
0.0
  0
LINE
  5
50A
330
1B
100
AcDbEntity
 67
     1
  8
7_ALL_FEATURES
  6
Continuous
 62
     3
100
AcDbLine
 10
1435.5956773148
 20
291.0482186575
 30
0.0
 11
1310.5956773148
 21
291.0482186575
 31
0.0
  0
LINE
  5
50B
330
1B
100
AcDbEntity
 67
     1
  8
7_ALL_FEATURES
  6
Continuous
 62
     3
100
AcDbLine
 10
1310.5956773148
 20
291.0482186575
 30
0.0
 11
1310.5956773148
 21
291.6482186575
 31
0.0
  0
LINE
  5
50C
330
1B
100
AcDbEntity
 67
     1
  8
7_ALL_FEATURES
  6
Continuous
 62
     3
100
AcDbLine
 10
1310.5956773148
 20
291.6482186575
 30
0.0
 11
1310.5956773148
 21
292.2482186575
 31
0.0
  0
LINE
  5
50D
330
1B
100
AcDbEntity
 67
     1
  8
7_ALL_FEATURES
  6
Continuous
 62
     3
100
AcDbLine
 10
1435.5956773148
 20
291.0482186575
 30
0.0
 11
1435.5956773148
 21
291.6482186575
 31
0.0
  0
LINE
  5
50E
330
1B
100
AcDbEntity
 67
     1
  8
7_ALL_FEATURES
  6
Continuous
 62
     3
100
AcDbLine
 10
1435.5956773148
 20
291.6482186575
 30
0.0
 11
1435.5956773148
 21
292.2482186575
 31
0.0
  0
LINE
  5
50F
330
1B
100
AcDbEntity
 67
     1
  8
7_ALL_FEATURES
  6
Continuous
 62
     3
100
AcDbLine
 10
1310.5956773148
 20
335.9482186575
 30
0.0
 11
1310.5956773148
 21
335.3482186575
 31
0.0
  0
LINE
  5
510
330
1B
100
AcDbEntity
 67
     1
  8
7_ALL_FEATURES
  6
Continuous
 62
     3
100
AcDbLine
 10
1435.5956773148
 20
335.9482186575
 30
0.0
 11
1435.5956773148
 21
335.3482186575
 31
0.0
  0
LINE
  5
511
330
1B
100
AcDbEntity
 67
     1
  8
7_ALL_FEATURES
  6
Continuous
 62
     3
100
AcDbLine
 10
1310.5956773148
 20
335.9482186575
 30
0.0
 11
1310.5956773148
 21
336.7482186575
 31
0.0
  0
LINE
  5
512
330
1B
100
AcDbEntity
 67
     1
  8
7_ALL_FEATURES
  6
Continuous
 62
     3
100
AcDbLine
 10
1435.5956773148
 20
336.7482186575
 30
0.0
 11
1435.5956773148
 21
335.9482186575
 31
0.0
  0
LINE
  5
513
330
1B
100
AcDbEntity
 67
     1
  8
7_ALL_FEATURES
  6
Continuous
 62
     3
100
AcDbLine
 10
1310.5956773148
 20
289.6482186575
 30
0.0
 11
1322.5956773148
 21
266.6482186575
 31
0.0
  0
LINE
  5
514
330
1B
100
AcDbEntity
 67
     1
  8
7_ALL_FEATURES
  6
Continuous
 62
     3
100
AcDbLine
 10
1310.5956773148
 20
289.6482186575
 30
0.0
 11
1310.5956773148
 21
290.4482186575
 31
0.0
  0
LINE
  5
515
330
1B
100
AcDbEntity
 67
     1
  8
7_ALL_FEATURES
  6
Continuous
 62
     3
100
AcDbLine
 10
1435.5956773148
 20
290.4482186575
 30
0.0
 11
1435.5956773148
 21
289.6482186575
 31
0.0
  0
LINE
  5
516
330
1B
100
AcDbEntity
 67
     1
  8
7_ALL_FEATURES
  6
Continuous
 62
     3
100
AcDbLine
 10
1423.5956773148
 20
266.6482186575
 30
0.0
 11
1435.5956773148
 21
289.6482186575
 31
0.0
  0
LINE
  5
517
330
1B
100
AcDbEntity
 67
     1
  8
7_ALL_FEATURES
  6
Continuous
 62
     3
100
AcDbLine
 10
1423.5956773148
 20
266.6482186575
 30
0.0
 11
1322.5956773148
 21
266.6482186575
 31
0.0
  0
LINE
  5
518
330
1B
100
AcDbEntity
 67
     1
  8
7_ALL_FEATURES
  6
Continuous
 62
     3
100
AcDbLine
 10
1310.5956773148
 20
290.4482186575
 30
0.0
 11
1310.5956773148
 21
291.0482186575
 31
0.0
  0
LINE
  5
519
330
1B
100
AcDbEntity
 67
     1
  8
7_ALL_FEATURES
  6
Continuous
 62
     3
100
AcDbLine
 10
1435.5956773148
 20
290.4482186575
 30
0.0
 11
1435.5956773148
 21
291.0482186575
 31
0.0
  0
LINE
  5
51A
330
1B
100
AcDbEntity
 67
     1
  8
7_ALL_FEATURES
  6
Continuous
 62
     3
100
AcDbLine
 10
1310.5956773148
 20
334.1482186575
 30
0.0
 11
1310.5956773148
 21
292.2482186575
 31
0.0
  0
LINE
  5
51B
330
1B
100
AcDbEntity
 67
     1
  8
7_ALL_FEATURES
  6
Continuous
 62
     3
100
AcDbLine
 10
1435.5956773148
 20
336.7482186575
 30
0.0
 11
1423.5956773148
 21
359.7482186575
 31
0.0
  0
LINE
  5
51C
330
1B
100
AcDbEntity
 67
     1
  8
7_ALL_FEATURES
  6
Continuous
 62
     3
100
AcDbLine
 10
1322.5956773148
 20
359.7482186575
 30
0.0
 11
1423.5956773148
 21
359.7482186575
 31
0.0
  0
LINE
  5
51D
330
1B
100
AcDbEntity
 67
     1
  8
7_ALL_FEATURES
  6
Continuous
 62
     3
100
AcDbLine
 10
1435.5956773148
 20
334.1482186575
 30
0.0
 11
1435.5956773148
 21
292.2482186575
 31
0.0
  0
LINE
  5
51E
330
1B
100
AcDbEntity
 67
     1
  8
7_ALL_FEATURES
  6
Continuous
 62
     3
100
AcDbLine
 10
1322.5956773148
 20
359.7482186575
 30
0.0
 11
1310.5956773148
 21
336.7482186575
 31
0.0
  0
LINE
  5
51F
330
1B
100
AcDbEntity
 67
     1
  8
7_ALL_FEATURES
  6
Continuous
 62
     3
100
AcDbLine
 10
1310.5956773148
 20
335.3482186575
 30
0.0
 11
1310.5956773148
 21
334.7482186575
 31
0.0
  0
LINE
  5
520
330
1B
100
AcDbEntity
 67
     1
  8
7_ALL_FEATURES
  6
Continuous
 62
     3
100
AcDbLine
 10
1310.5956773148
 20
334.7482186575
 30
0.0
 11
1310.5956773148
 21
334.1482186575
 31
0.0
  0
LINE
  5
521
330
1B
100
AcDbEntity
 67
     1
  8
7_ALL_FEATURES
  6
Continuous
 62
     3
100
AcDbLine
 10
1435.5956773148
 20
335.3482186575
 30
0.0
 11
1435.5956773148
 21
334.7482186575
 31
0.0
  0
LINE
  5
522
330
1B
100
AcDbEntity
 67
     1
  8
7_ALL_FEATURES
  6
Continuous
 62
     3
100
AcDbLine
 10
1435.5956773148
 20
334.7482186575
 30
0.0
 11
1435.5956773148
 21
334.1482186575
 31
0.0
  0
LINE
  5
523
330
1B
100
AcDbEntity
 67
     1
  8
7_ALL_FEATURES
  6
Continuous
 62
     3
100
AcDbLine
 10
1310.5956773148
 20
335.3482186575
 30
0.0
 11
1435.5956773148
 21
335.3482186575
 31
0.0
  0
LINE
  5
524
330
1B
100
AcDbEntity
 67
     1
  8
7_ALL_FEATURES
  6
Continuous
 62
     9
100
AcDbLine
 10
1310.5956773148
 20
290.4482186575
 30
0.0
 11
1435.5956773148
 21
290.4482186575
 31
0.0
  0
LINE
  5
525
330
1B
100
AcDbEntity
 67
     1
  8
7_ALL_FEATURES
  6
Continuous
 62
     9
100
AcDbLine
 10
1435.5956773148
 20
335.9482186575
 30
0.0
 11
1310.5956773148
 21
335.9482186575
 31
0.0
  0
LINE
  5
526
330
1B
100
AcDbEntity
 67
     1
  8
7_ALL_FEATURES
  6
Continuous
 62
     9
100
AcDbLine
 10
1435.5956773148
 20
292.2482186575
 30
0.0
 11
1310.5956773148
 21
292.2482186575
 31
0.0
  0
LINE
  5
527
330
1B
100
AcDbEntity
 67
     1
  8
7_ALL_FEATURES
  6
Continuous
 62
     9
100
AcDbLine
 10
1310.5956773148
 20
334.1482186575
 30
0.0
 11
1435.5956773148
 21
334.1482186575
 31
0.0
  0
LINE
  5
528
330
1B
100
AcDbEntity
 67
     1
  8
7_ALL_FEATURES
  6
Continuous
 62
     3
100
AcDbLine
 10
2205.5956773148
 20
291.0482186575
 30
0.0
 11
2080.5956773148
 21
291.0482186575
 31
0.0
  0
LINE
  5
529
330
1B
100
AcDbEntity
 67
     1
  8
7_ALL_FEATURES
  6
Continuous
 62
     3
100
AcDbLine
 10
2080.5956773148
 20
291.0482186575
 30
0.0
 11
2080.5956773148
 21
291.6482186575
 31
0.0
  0
LINE
  5
52A
330
1B
100
AcDbEntity
 67
     1
  8
7_ALL_FEATURES
  6
Continuous
 62
     3
100
AcDbLine
 10
2080.5956773148
 20
291.6482186575
 30
0.0
 11
2080.5956773148
 21
292.2482186575
 31
0.0
  0
LINE
  5
52B
330
1B
100
AcDbEntity
 67
     1
  8
7_ALL_FEATURES
  6
Continuous
 62
     3
100
AcDbLine
 10
2205.5956773148
 20
291.0482186575
 30
0.0
 11
2205.5956773148
 21
291.6482186575
 31
0.0
  0
LINE
  5
52C
330
1B
100
AcDbEntity
 67
     1
  8
7_ALL_FEATURES
  6
Continuous
 62
     3
100
AcDbLine
 10
2205.5956773148
 20
291.6482186575
 30
0.0
 11
2205.5956773148
 21
292.2482186575
 31
0.0
  0
LINE
  5
52D
330
1B
100
AcDbEntity
 67
     1
  8
7_ALL_FEATURES
  6
Continuous
 62
     3
100
AcDbLine
 10
2080.5956773148
 20
335.9482186575
 30
0.0
 11
2080.5956773148
 21
335.3482186575
 31
0.0
  0
LINE
  5
52E
330
1B
100
AcDbEntity
 67
     1
  8
7_ALL_FEATURES
  6
Continuous
 62
     3
100
AcDbLine
 10
2205.5956773148
 20
335.9482186575
 30
0.0
 11
2205.5956773148
 21
335.3482186575
 31
0.0
  0
LINE
  5
52F
330
1B
100
AcDbEntity
 67
     1
  8
7_ALL_FEATURES
  6
Continuous
 62
     3
100
AcDbLine
 10
2080.5956773148
 20
335.9482186575
 30
0.0
 11
2080.5956773148
 21
336.7482186575
 31
0.0
  0
LINE
  5
530
330
1B
100
AcDbEntity
 67
     1
  8
7_ALL_FEATURES
  6
Continuous
 62
     3
100
AcDbLine
 10
2205.5956773148
 20
336.7482186575
 30
0.0
 11
2205.5956773148
 21
335.9482186575
 31
0.0
  0
LINE
  5
531
330
1B
100
AcDbEntity
 67
     1
  8
7_ALL_FEATURES
  6
Continuous
 62
     3
100
AcDbLine
 10
2080.5956773148
 20
289.6482186575
 30
0.0
 11
2092.5956773148
 21
266.6482186575
 31
0.0
  0
LINE
  5
532
330
1B
100
AcDbEntity
 67
     1
  8
7_ALL_FEATURES
  6
Continuous
 62
     3
100
AcDbLine
 10
2080.5956773148
 20
289.6482186575
 30
0.0
 11
2080.5956773148
 21
290.4482186575
 31
0.0
  0
LINE
  5
533
330
1B
100
AcDbEntity
 67
     1
  8
7_ALL_FEATURES
  6
Continuous
 62
     3
100
AcDbLine
 10
2205.5956773148
 20
290.4482186575
 30
0.0
 11
2205.5956773148
 21
289.6482186575
 31
0.0
  0
LINE
  5
534
330
1B
100
AcDbEntity
 67
     1
  8
7_ALL_FEATURES
  6
Continuous
 62
     3
100
AcDbLine
 10
2193.5956773148
 20
266.6482186575
 30
0.0
 11
2205.5956773148
 21
289.6482186575
 31
0.0
  0
LINE
  5
535
330
1B
100
AcDbEntity
 67
     1
  8
7_ALL_FEATURES
  6
Continuous
 62
     3
100
AcDbLine
 10
2193.5956773148
 20
266.6482186575
 30
0.0
 11
2092.5956773148
 21
266.6482186575
 31
0.0
  0
LINE
  5
536
330
1B
100
AcDbEntity
 67
     1
  8
7_ALL_FEATURES
  6
Continuous
 62
     3
100
AcDbLine
 10
2080.5956773148
 20
290.4482186575
 30
0.0
 11
2080.5956773148
 21
291.0482186575
 31
0.0
  0
LINE
  5
537
330
1B
100
AcDbEntity
 67
     1
  8
7_ALL_FEATURES
  6
Continuous
 62
     3
100
AcDbLine
 10
2205.5956773148
 20
290.4482186575
 30
0.0
 11
2205.5956773148
 21
291.0482186575
 31
0.0
  0
LINE
  5
538
330
1B
100
AcDbEntity
 67
     1
  8
7_ALL_FEATURES
  6
Continuous
 62
     3
100
AcDbLine
 10
2080.5956773148
 20
334.1482186575
 30
0.0
 11
2080.5956773148
 21
292.2482186575
 31
0.0
  0
LINE
  5
539
330
1B
100
AcDbEntity
 67
     1
  8
7_ALL_FEATURES
  6
Continuous
 62
     3
100
AcDbLine
 10
2205.5956773148
 20
336.7482186575
 30
0.0
 11
2193.5956773148
 21
359.7482186575
 31
0.0
  0
LINE
  5
53A
330
1B
100
AcDbEntity
 67
     1
  8
7_ALL_FEATURES
  6
Continuous
 62
     3
100
AcDbLine
 10
2092.5956773148
 20
359.7482186575
 30
0.0
 11
2193.5956773148
 21
359.7482186575
 31
0.0
  0
LINE
  5
53B
330
1B
100
AcDbEntity
 67
     1
  8
7_ALL_FEATURES
  6
Continuous
 62
     3
100
AcDbLine
 10
2205.5956773148
 20
334.1482186575
 30
0.0
 11
2205.5956773148
 21
292.2482186575
 31
0.0
  0
LINE
  5
53C
330
1B
100
AcDbEntity
 67
     1
  8
7_ALL_FEATURES
  6
Continuous
 62
     3
100
AcDbLine
 10
2092.5956773148
 20
359.7482186575
 30
0.0
 11
2080.5956773148
 21
336.7482186575
 31
0.0
  0
LINE
  5
53D
330
1B
100
AcDbEntity
 67
     1
  8
7_ALL_FEATURES
  6
Continuous
 62
     3
100
AcDbLine
 10
2080.5956773148
 20
335.3482186575
 30
0.0
 11
2080.5956773148
 21
334.7482186575
 31
0.0
  0
LINE
  5
53E
330
1B
100
AcDbEntity
 67
     1
  8
7_ALL_FEATURES
  6
Continuous
 62
     3
100
AcDbLine
 10
2080.5956773148
 20
334.7482186575
 30
0.0
 11
2080.5956773148
 21
334.1482186575
 31
0.0
  0
LINE
  5
53F
330
1B
100
AcDbEntity
 67
     1
  8
7_ALL_FEATURES
  6
Continuous
 62
     3
100
AcDbLine
 10
2205.5956773148
 20
335.3482186575
 30
0.0
 11
2205.5956773148
 21
334.7482186575
 31
0.0
  0
LINE
  5
540
330
1B
100
AcDbEntity
 67
     1
  8
7_ALL_FEATURES
  6
Continuous
 62
     3
100
AcDbLine
 10
2205.5956773148
 20
334.7482186575
 30
0.0
 11
2205.5956773148
 21
334.1482186575
 31
0.0
  0
LINE
  5
541
330
1B
100
AcDbEntity
 67
     1
  8
7_ALL_FEATURES
  6
Continuous
 62
     3
100
AcDbLine
 10
2080.5956773148
 20
335.3482186575
 30
0.0
 11
2205.5956773148
 21
335.3482186575
 31
0.0
  0
LINE
  5
542
330
1B
100
AcDbEntity
 67
     1
  8
7_ALL_FEATURES
  6
Continuous
 62
     9
100
AcDbLine
 10
2080.5956773148
 20
290.4482186575
 30
0.0
 11
2205.5956773148
 21
290.4482186575
 31
0.0
  0
LINE
  5
543
330
1B
100
AcDbEntity
 67
     1
  8
7_ALL_FEATURES
  6
Continuous
 62
     9
100
AcDbLine
 10
2205.5956773148
 20
335.9482186575
 30
0.0
 11
2080.5956773148
 21
335.9482186575
 31
0.0
  0
LINE
  5
544
330
1B
100
AcDbEntity
 67
     1
  8
7_ALL_FEATURES
  6
Continuous
 62
     9
100
AcDbLine
 10
2205.5956773148
 20
292.2482186575
 30
0.0
 11
2080.5956773148
 21
292.2482186575
 31
0.0
  0
LINE
  5
545
330
1B
100
AcDbEntity
 67
     1
  8
7_ALL_FEATURES
  6
Continuous
 62
     9
100
AcDbLine
 10
2080.5956773148
 20
334.1482186575
 30
0.0
 11
2205.5956773148
 21
334.1482186575
 31
0.0
  0
DIMENSION
  5
546
330
1B
100
AcDbEntity
 67
     1
  8
0
  6
Continuous
 62
     2
100
AcDbDimension
280
     0
  2
*D1
 10
2266.0956773148
 20
687.8515820699
 30
0.0
 11
1384.7221064815
 21
687.8515820699
 31
0.0
 70
   160
 71
     5
 42
-1.0
 73
     0
 74
     0
 75
     0
  3
DIMSTYLE_1
100
AcDbAlignedDimension
 13
503.0956773148
 23
657.6622443823
 33
0.0
 14
2266.0956773148
 24
657.6622443823
 34
0.0
100
AcDbRotatedDimension
  0
DIMENSION
  5
547
330
1B
100
AcDbEntity
 67
     1
  8
0
  6
Continuous
 62
     2
100
AcDbDimension
280
     0
  2
*D2
 10
2346.4172003769
 20
658.6622443823
 30
0.0
 11
2346.4172003769
 21
616.9083034195
 31
0.0
 70
   160
 71
     5
 42
-1.0
 73
     0
 74
     0
 75
     0
  3
DIMSTYLE_2
100
AcDbAlignedDimension
 13
2374.8659495028
 23
575.1622443823
 33
0.0
 14
2374.4260138242
 24
658.6622443823
 34
0.0
 50
90.0
100
AcDbRotatedDimension
  0
DIMENSION
  5
548
330
1B
100
AcDbEntity
 67
     1
  8
0
  6
Continuous
 62
     2
100
AcDbDimension
280
     0
  2
*D3
 10
2424.9398214589
 20
555.6646792433
 30
0.0
 11
2403.6635416667
 21
555.6646792433
 31
0.0
 70
   160
 71
     5
 42
-1.0
 73
     0
 74
     0
 75
     0
  3
DIMSTYLE_2
100
AcDbAlignedDimension
 13
2382.5398214589
 23
572.0620970681
 33
0.0
 14
2424.9398214589
 24
570.2375626472
 34
0.0
100
AcDbRotatedDimension
  0
DIMENSION
  5
549
330
1B
100
AcDbEntity
 67
     1
  8
0
  6
Continuous
 62
     2
100
AcDbDimension
280
     0
  2
*D4
 10
2461.1450512461
 20
659.2622443823
 30
0.0
 11
2461.1450512461
 21
623.9639016244
 31
0.0
 70
   160
 71
     5
 42
-1.0
 73
     0
 74
     0
 75
     0
  3
DIMSTYLE_2
100
AcDbAlignedDimension
 13
2450.2898214589
 23
588.6622443823
 33
0.0
 14
2424.6898214589
 24
659.2622443823
 34
0.0
 50
90.0
100
AcDbRotatedDimension
  0
DIMENSION
  5
54A
330
1B
100
AcDbEntity
 67
     1
  8
0
  6
Continuous
 62
     2
100
AcDbDimension
280
     0
  2
*D5
 10
2301.3919017489
 20
359.7482186575
 30
0.0
 11
2301.3919017489
 21
312.8987429894
 31
0.0
 70
   160
 71
     5
 42
-1.0
 73
     0
 74
     0
 75
     0
  3
DIMSTYLE_2
100
AcDbAlignedDimension
 13
2287.1048243218
 23
266.6482186575
 33
0.0
 14
2283.3974132071
 24
359.7482186575
 34
0.0
 50
90.0
100
AcDbRotatedDimension
  0
LINE
  5
54B
330
1B
100
AcDbEntity
 67
     1
  8
0
  6
Continuous
 62
     2
100
AcDbLine
 10
2364.8956382531
 20
69.8335302746
 30
0.0
 11
2494.8956382531
 21
69.8335302746
 31
0.0
  0
LINE
  5
54C
330
1B
100
AcDbEntity
 67
     1
  8
0
  6
Continuous
 62
     2
100
AcDbLine
 10
2364.8956382531
 20
69.8335302746
 30
0.0
 11
2364.8956382531
 21
3.8335302746
 31
0.0
  0
LINE
  5
54D
330
1B
100
AcDbEntity
 67
     1
  8
0
  6
Continuous
 62
     2
100
AcDbLine
 10
2394.8956382531
 20
61.8335302746
 30
0.0
 11
2494.8956382531
 21
61.8335302746
 31
0.0
  0
LINE
  5
54E
330
1B
100
AcDbEntity
 67
     1
  8
0
  6
Continuous
 62
     2
100
AcDbLine
 10
2364.8956382531
 20
53.8335302746
 30
0.0
 11
2494.8956382531
 21
53.8335302746
 31
0.0
  0
LINE
  5
54F
330
1B
100
AcDbEntity
 67
     1
  8
0
  6
Continuous
 62
     2
100
AcDbLine
 10
2394.8956382531
 20
47.8335302746
 30
0.0
 11
2494.8956382531
 21
47.8335302746
 31
0.0
  0
LINE
  5
550
330
1B
100
AcDbEntity
 67
     1
  8
0
  6
Continuous
 62
     2
100
AcDbLine
 10
2394.8956382531
 20
41.8335302746
 30
0.0
 11
2494.8956382531
 21
41.8335302746
 31
0.0
  0
LINE
  5
551
330
1B
100
AcDbEntity
 67
     1
  8
0
  6
Continuous
 62
     2
100
AcDbLine
 10
2394.8956382531
 20
35.8335302746
 30
0.0
 11
2494.8956382531
 21
35.8335302746
 31
0.0
  0
LINE
  5
552
330
1B
100
AcDbEntity
 67
     1
  8
0
  6
Continuous
 62
     2
100
AcDbLine
 10
2394.8956382531
 20
29.8335302746
 30
0.0
 11
2494.8956382531
 21
29.8335302746
 31
0.0
  0
LINE
  5
553
330
1B
100
AcDbEntity
 67
     1
  8
0
  6
Continuous
 62
     2
100
AcDbLine
 10
2394.8956382531
 20
23.8335302746
 30
0.0
 11
2494.8956382531
 21
23.8335302746
 31
0.0
  0
LINE
  5
554
330
1B
100
AcDbEntity
 67
     1
  8
0
  6
Continuous
 62
     2
100
AcDbLine
 10
2364.8956382531
 20
17.8335302746
 30
0.0
 11
2494.8956382531
 21
17.8335302746
 31
0.0
  0
LINE
  5
555
330
1B
100
AcDbEntity
 67
     1
  8
0
  6
Continuous
 62
     2
100
AcDbLine
 10
2364.8956382531
 20
11.8335302746
 30
0.0
 11
2494.8956382531
 21
11.8335302746
 31
0.0
  0
LINE
  5
556
330
1B
100
AcDbEntity
 67
     1
  8
0
  6
Continuous
 62
     2
100
AcDbLine
 10
2364.8956382531
 20
7.8335302746
 30
0.0
 11
2494.8956382531
 21
7.8335302746
 31
0.0
  0
LINE
  5
557
330
1B
100
AcDbEntity
 67
     1
  8
0
  6
Continuous
 62
     2
100
AcDbLine
 10
2364.8956382531
 20
3.8335302746
 30
0.0
 11
2494.8956382531
 21
3.8335302746
 31
0.0
  0
LINE
  5
558
330
1B
100
AcDbEntity
 67
     1
  8
0
  6
Continuous
 62
     2
100
AcDbLine
 10
2394.8956382531
 20
69.8335302746
 30
0.0
 11
2394.8956382531
 21
11.8335302746
 31
0.0
  0
LINE
  5
559
330
1B
100
AcDbEntity
 67
     1
  8
0
  6
Continuous
 62
     2
100
AcDbLine
 10
2414.8956382531
 20
53.8335302746
 30
0.0
 11
2414.8956382531
 21
47.8335302746
 31
0.0
  0
LINE
  5
55A
330
1B
100
AcDbEntity
 67
     1
  8
0
  6
Continuous
 62
     2
100
AcDbLine
 10
2444.8956382531
 20
23.8335302746
 30
0.0
 11
2444.8956382531
 21
11.8335302746
 31
0.0
  0
LINE
  5
55B
330
1B
100
AcDbEntity
 67
     1
  8
0
  6
Continuous
 62
     2
100
AcDbLine
 10
2454.8956382531
 20
53.8335302746
 30
0.0
 11
2454.8956382531
 21
47.8335302746
 31
0.0
  0
LINE
  5
55C
330
1B
100
AcDbEntity
 67
     1
  8
0
  6
Continuous
 62
     2
100
AcDbLine
 10
2454.8956382531
 20
41.8335302746
 30
0.0
 11
2454.8956382531
 21
35.8335302746
 31
0.0
  0
LINE
  5
55D
330
1B
100
AcDbEntity
 67
     1
  8
0
  6
Continuous
 62
     2
100
AcDbLine
 10
2474.8956382531
 20
53.8335302746
 30
0.0
 11
2474.8956382531
 21
47.8335302746
 31
0.0
  0
LINE
  5
55E
330
1B
100
AcDbEntity
 67
     1
  8
0
  6
Continuous
 62
     2
100
AcDbLine
 10
2484.8956382531
 20
41.8335302746
 30
0.0
 11
2484.8956382531
 21
35.8335302746
 31
0.0
  0
LINE
  5
55F
330
1B
100
AcDbEntity
 67
     1
  8
0
  6
Continuous
 62
     2
100
AcDbLine
 10
2494.8956382531
 20
69.8335302746
 30
0.0
 11
2494.8956382531
 21
3.8335302746
 31
0.0
  0
INSERT
  5
560
330
1B
100
AcDbEntity
 67
     1
  8
0
  6
Continuous
 62
     2
100
AcDbBlockReference
  2
PROIEZIONE_EU_BL0
 10
2379.8956382531
 20
61.4585302746
 30
0.0
  0
MTEXT
  5
561
330
1B
100
AcDbEntity
 67
     1
  8
9_SOLID
  6
Continuous
 62
     2
100
AcDbMText
 10
2396.3831382531
 20
68.2085302746
 30
0.0
 40
1.9
 41
142.3642857143
 46
0.0
 71
     1
 72
     1
  1
EN: Chamfer/radii unlisted 0.3x45°. Remove sharp edges.\PGen. tol.: hole H11, shaft h11, lenght Js12. UNI EN 22768 Medium Grande.
  7
TEXTSTYLE_3
 73
     1
 44
1.0
  0
MTEXT
  5
562
330
1B
100
AcDbEntity
 67
     1
  8
9_SOLID
  6
Continuous
 62
     2
100
AcDbMText
 10
2396.3831382531
 20
60.2085302746
 30
0.0
 40
1.9
 41
148.2678571429
 46
0.0
 71
     1
 72
     1
  1
IT: Sm./rac. non quotati 0.3x45°. Eliminare spigoli taglienti.\PToll. gen.: foro H11, albero h11, lunghezza Js12. UNI EN 22768 Grado Medio.
  7
TEXTSTYLE_3
 73
     1
 44
1.0
  0
INSERT
  5
563
330
1B
100
AcDbEntity
 67
     1
  8
0
  6
Continuous
 62
     2
100
AcDbBlockReference
  2
LOGO2_BL1
 10
2378.7216852978
 20
35.8335302746
 30
0.0
  0
MTEXT
  5
564
330
1B
100
AcDbEntity
 67
     1
  8
9_SOLID
  6
Continuous
 62
     2
100
AcDbMText
 10
2396.3831382531
 20
52.0835302746
 30
0.0
 40
3.0
 41
21.75
 46
0.0
 71
     1
 72
     1
  1
Pj: 565
  7
TEXTSTYLE_3
 73
     1
 44
1.0
  0
MTEXT
  5
565
330
1B
100
AcDbEntity
 67
     1
  8
9_SOLID
  6
Continuous
 62
     2
100
AcDbMText
 10
2416.3831382531
 20
52.0835302746
 30
0.0
 40
3.0
 41
38.0357142857
 46
0.0
 71
     1
 72
     1
  1
% Check: %
  7
TEXTSTYLE_3
 73
     1
 44
1.0
  0
MTEXT
  5
566
330
1B
100
AcDbEntity
 67
     1
  8
9_SOLID
  6
Continuous
 62
     2
100
AcDbMText
 10
2456.3831382531
 20
52.0835302746
 30
0.0
 40
3.0
 41
19.5
 46
0.0
 71
     1
 72
     1
  1
Rev:00
  7
TEXTSTYLE_3
 73
     1
 44
1.0
  0
MTEXT
  5
567
330
1B
100
AcDbEntity
 67
     1
  8
9_SOLID
  6
Continuous
 62
     2
100
AcDbMText
 10
2476.3831382531
 20
52.3335302746
 30
0.0
 40
3.0
 41
19.7142857143
 46
0.0
 71
     1
 72
     1
  1
Ver: A
  7
TEXTSTYLE_3
 73
     1
 44
1.0
  0
MTEXT
  5
568
330
1B
100
AcDbEntity
 67
     1
  8
9_SOLID
  6
Continuous
 62
     2
100
AcDbMText
 10
2396.3831382531
 20
46.0835302746
 30
0.0
 40
3.0
 41
74.3571428571
 46
0.0
 71
     1
 72
     1
  1
Neutral code: 565_C_708
  7
TEXTSTYLE_3
 73
     1
 44
1.0
  0
MTEXT
  5
569
330
1B
100
AcDbEntity
 67
     1
  8
9_SOLID
  6
Continuous
 62
     2
100
AcDbMText
 10
2396.3831382531
 20
40.0835302746
 30
0.0
 40
3.0
 41
19.3928571429
 46
0.0
 71
     1
 72
     1
  1
Code: 
  7
TEXTSTYLE_3
 73
     1
 44
1.0
  0
MTEXT
  5
56A
330
1B
100
AcDbEntity
 67
     1
  8
9_SOLID
  6
Continuous
 62
     2
100
AcDbMText
 10
2456.3831382531
 20
40.3335302746
 30
0.0
 40
3.0
 41
27.8571428571
 46
0.0
 71
     1
 72
     1
  1
Scale: 1:1
  7
TEXTSTYLE_3
 73
     1
 44
1.0
  0
MTEXT
  5
56B
330
1B
100
AcDbEntity
 67
     1
  8
9_SOLID
  6
Continuous
 62
     2
100
AcDbMText
 10
2489.8956382531
 20
40.3335302746
 30
0.0
 40
3.0
 41
41.5714285714
 46
0.0
 71
     2
 72
     1
  1
2500 by 3200
  7
TEXTSTYLE_3
 73
     1
 44
1.0
  0
MTEXT
  5
56C
330
1B
100
AcDbEntity
 67
     1
  8
9_SOLID
  6
Continuous
 62
     2
100
AcDbMText
 10
2396.3831382531
 20
34.0835302746
 30
0.0
 40
2.5
 41
136.3392857143
 46
0.0
 71
     1
 72
     1
  1
It descr.: CASSAF CART.NEVA2.2/5.2/7.2 1763mm ALL
  7
TEXTSTYLE_3
 73
     1
 44
1.0
  0
MTEXT
  5
56D
330
1B
100
AcDbEntity
 67
     1
  8
9_SOLID
  6
Continuous
 62
     2
100
AcDbMText
 10
2396.3831382531
 20
28.3335302746
 30
0.0
 40
3.0
 41
33.9642857143
 46
0.0
 71
     1
 72
     1
  1
En descr.: 
  7
TEXTSTYLE_3
 73
     1
 44
1.0
  0
MTEXT
  5
56E
330
1B
100
AcDbEntity
 67
     1
  8
9_SOLID
  6
Continuous
 62
     2
100
AcDbMText
 10
2396.3831382531
 20
22.3335302746
 30
0.0
 40
3.0
 41
31.2857142857
 46
0.0
 71
     1
 72
     1
  1
Des.: S.Z.
  7
TEXTSTYLE_3
 73
     1
 44
1.0
  0
MTEXT
  5
56F
330
1B
100
AcDbEntity
 67
     1
  8
9_SOLID
  6
Continuous
 62
     2
100
AcDbMText
 10
2446.3831382531
 20
22.3335302746
 30
0.0
 40
3.0
 41
34.8214285714
 46
0.0
 71
     1
 72
     1
  1
Check: A.P.
  7
TEXTSTYLE_3
 73
     1
 44
1.0
  0
MTEXT
  5
570
330
1B
100
AcDbEntity
 67
     1
  8
9_SOLID
  6
Continuous
 62
     2
100
AcDbMText
 10
2366.3831382531
 20
16.3335302746
 30
0.0
 40
3.0
 41
43.1785714286
 46
0.0
 71
     1
 72
     1
  1
Date: 05.12.18
  7
TEXTSTYLE_3
 73
     1
 44
1.0
  0
MTEXT
  5
571
330
1B
100
AcDbEntity
 67
     1
  8
9_SOLID
  6
Continuous
 62
     2
100
AcDbMText
 10
2396.3831382531
 20
16.3335302746
 30
0.0
 40
3.0
 41
18.2142857143
 46
0.0
 71
     1
 72
     1
  1
Mat.: 
  7
TEXTSTYLE_3
 73
     1
 44
1.0
  0
MTEXT
  5
572
330
1B
100
AcDbEntity
 67
     1
  8
9_SOLID
  6
Continuous
 62
     2
100
AcDbMText
 10
2446.3831382531
 20
15.8335302746
 30
0.0
 40
2.0
 41
42.3571428571
 46
0.0
 71
     1
 72
     1
  1
Disegno per catalogo
  7
TEXTSTYLE_3
 73
     1
 44
1.0
  0
MTEXT
  5
573
330
1B
100
AcDbEntity
 67
     1
  8
9_SOLID
  6
Continuous
 62
     2
100
AcDbMText
 10
2366.3831382531
 20
10.7335302746
 30
0.0
 40
1.8
 41
176.2071428571
 46
0.0
 71
     1
 72
     1
  1
It: A norma di legge si diffida da qualsiasi riproduzione senza nostra autorizzazione esplicita.
  7
TEXTSTYLE_3
 73
     1
 44
1.0
  0
MTEXT
  5
574
330
1B
100
AcDbEntity
 67
     1
  8
9_SOLID
  6
Continuous
 62
     2
100
AcDbMText
 10
2366.3831382531
 20
6.7335302746
 30
0.0
 40
1.8
 41
158.1428571429
 46
0.0
 71
     1
 72
     1
  1
En: According to the law, beware of any reproduction made without our authorization.
  7
TEXTSTYLE_3
 73
     1
 44
1.0
  0
ENDSEC
  0
SECTION
  2
OBJECTS
  0
DICTIONARY
  5
575
330
0
100
AcDbDictionary
281
     1
  3
ACAD_DETAILVIEWSTYLE
350
5CB
  3
ACAD_GROUP
350
576
  3
ACAD_LAYOUT
350
59E
  3
ACAD_MATERIAL
350
5BA
  3
ACAD_MLEADERSTYLE
350
5C0
  3
ACAD_MLINESTYLE
350
577
  3
ACAD_PLOTSETTINGS
350
579
  3
ACAD_PLOTSTYLENAME
350
57A
  3
ACAD_SCALELIST
350
57C
  3
ACAD_SECTIONVIEWSTYLE
350
5CC
  3
ACAD_TABLESTYLE
350
5BE
  3
ACAD_VISUALSTYLE
350
5A1
  3
ACDB_RECOMPOSE_DATA
350
5C7
  3
AcDbVariableDictionary
350
5C3
  3
APPDATA
350
5C2
  0
DICTIONARY
  5
5CB
102
{ACAD_REACTORS
330
575
102
}
330
575
100
AcDbDictionary
281
     1
  0
DICTIONARY
  5
576
102
{ACAD_REACTORS
330
575
102
}
330
575
100
AcDbDictionary
281
     1
  0
DICTIONARY
  5
59E
102
{ACAD_REACTORS
330
575
102
}
330
575
100
AcDbDictionary
281
     1
  3
Foglio 1
350
5A0
  3
Model
350
59F
  0
DICTIONARY
  5
5BA
102
{ACAD_REACTORS
330
575
102
}
330
575
100
AcDbDictionary
281
     1
  3
ByBlock
350
5BC
  3
ByLayer
350
5BB
  3
Global
350
5BD
  0
DICTIONARY
  5
5C0
102
{ACAD_REACTORS
330
575
102
}
330
575
100
AcDbDictionary
281
     1
  3
Standard
350
5C1
  0
DICTIONARY
  5
577
102
{ACAD_REACTORS
330
575
102
}
330
575
100
AcDbDictionary
281
     1
  3
STANDARD
350
578
  0
DICTIONARY
  5
579
102
{ACAD_REACTORS
330
575
102
}
330
575
100
AcDbDictionary
281
     1
  0
ACDBDICTIONARYWDFLT
  5
57A
102
{ACAD_REACTORS
330
575
102
}
330
575
100
AcDbDictionary
281
     1
  3
Normal
350
57B
100
AcDbDictionaryWithDefault
340
57B
  0
DICTIONARY
  5
57C
102
{ACAD_REACTORS
330
575
102
}
330
575
100
AcDbDictionary
281
     1
  3
A0
350
57D
  3
A1
350
57E
  3
A2
350
57F
  3
A3
350
580
  3
A4
350
581
  3
A5
350
582
  3
A6
350
583
  3
A7
350
584
  3
A8
350
585
  3
A9
350
586
  3
B0
350
587
  3
B1
350
588
  3
B2
350
589
  3
B3
350
58A
  3
B4
350
58B
  3
B5
350
58C
  3
B6
350
58D
  3
B7
350
58E
  3
B8
350
58F
  3
B9
350
590
  3
C0
350
591
  3
C1
350
592
  3
C2
350
593
  3
C3
350
594
  3
C4
350
595
  3
C5
350
596
  3
C6
350
597
  3
C7
350
598
  3
C8
350
599
  3
C9
350
59A
  3
D0
350
59B
  3
D1
350
59C
  3
D2
350
59D
  0
DICTIONARY
  5
5CC
102
{ACAD_REACTORS
330
575
102
}
330
575
100
AcDbDictionary
281
     1
  0
DICTIONARY
  5
5BE
102
{ACAD_REACTORS
330
575
102
}
330
575
100
AcDbDictionary
281
     1
  3
Standard
350
5BF
  0
DICTIONARY
  5
5A1
102
{ACAD_REACTORS
330
575
102
}
330
575
100
AcDbDictionary
281
     1
  3
2dWireframe
350
5A6
  3
Basic
350
5A9
  3
Brighten
350
5AD
  3
ColorChange
350
5B1
  3
Conceptual
350
5AB
  3
Dim
350
5AC
  3
EdgeColorOff
350
5B4
  3
Facepattern
350
5B0
  3
Flat
350
5A2
  3
FlatWithEdges
350
5A3
  3
Gouraud
350
5A4
  3
GouraudWithEdges
350
5A5
  3
Hidden
350
5A8
  3
JitterOff
350
5B2
  3
Linepattern
350
5AF
  3
OverhangOff
350
5B3
  3
Realistic
350
5AA
  3
Shaded
350
5B9
  3
Shaded with edges
350
5B8
  3
Shades of Gray
350
5B5
  3
Sketchy
350
5B6
  3
Thicken
350
5AE
  3
Wireframe
350
5A7
  3
X-Ray
350
5B7
  0
XRECORD
  5
5C7
102
{ACAD_REACTORS
330
575
102
}
330
575
100
AcDbXrecord
280
     1
 90
        1
330
5BF
  0
DICTIONARY
  5
5C3
102
{ACAD_REACTORS
330
575
102
}
330
575
100
AcDbDictionary
281
     1
  3
CANNOSCALE
350
5C4
  3
CMLEADERSTYLE
350
5C9
  3
CTABLESTYLE
350
5C8
  3
MSLTSCALE
350
5CA
  0
DICTIONARY
  5
5C2
102
{ACAD_REACTORS
330
575
102
}
330
575
100
AcDbDictionary
281
     1
  0
LAYOUT
  5
5A0
102
{ACAD_REACTORS
330
59E
102
}
330
59E
100
AcDbPlotSettings
  1

  2
none_device
  4
ISO_A3_(420.00_x_297.00_MM)
  6

 40
7.5
 41
20.0
 42
7.5
 43
20.0
 44
420.0
 45
297.0
 46
0.0
 47
0.0
 48
0.0
 49
0.0
140
0.0
141
0.0
142
1.0
143
12.45136186770428
 70
   688
 72
     1
 73
     0
 74
     1
  7

 75
     0
 76
     0
 77
     2
 78
   300
147
0.0803125
148
0.0
149
0.0
100
AcDbLayout
  1
Foglio 1
 70
     1
 71
     1
 10
0.0
 20
0.0
 11
412.5
 21
277.0
 12
0.0
 22
0.0
 32
0.0
 14
0.0
 24
0.0
 34
0.0
 15
2503.9206382531
 25
3200.0
 35
0.0
146
0.0
 13
0.0
 23
0.0
 33
0.0
 16
1.0
 26
0.0
 36
0.0
 17
0.0
 27
1.0
 37
0.0
 76
     0
330
1B
331
2AD
  0
LAYOUT
  5
59F
102
{ACAD_REACTORS
330
59E
102
}
330
59E
100
AcDbPlotSettings
  1

  2
none_device
  4
Letter_(8.50_x_11.00_Inches)
  6

 40
6.35
 41
6.35
 42
6.35
 43
6.35
 44
215.9
 45
279.4
 46
0.0
 47
0.0
 48
0.0
 49
0.0
140
0.0
141
0.0
142
1.0
143
312.5
 70
  1712
 72
     0
 73
     0
 74
     0
  7

 75
     0
 76
     0
 77
     2
 78
   300
147
0.0032
148
0.0
149
0.0
100
AcDbLayout
  1
Model
 70
     1
 71
     0
 10
0.0
 20
0.0
 11
2500.0
 21
3200.0
 12
0.0
 22
0.0
 32
0.0
 14
0.0
 24
0.0
 34
0.0
 15
2500.0
 25
3200.0
 35
0.0
146
0.0
 13
0.0
 23
0.0
 33
0.0
 16
1.0
 26
0.0
 36
0.0
 17
0.0
 27
1.0
 37
0.0
 76
     0
330
1F
331
1F4
  0
MATERIAL
  5
5BC
102
{ACAD_REACTORS
330
5BA
102
}
330
5BA
100
AcDbMaterial
  1
ByBlock
 72
     1
 94
      127
  0
MATERIAL
  5
5BB
102
{ACAD_REACTORS
330
5BA
102
}
330
5BA
100
AcDbMaterial
  1
ByLayer
 72
     1
 94
      127
  0
MATERIAL
  5
5BD
102
{ACAD_REACTORS
330
5BA
102
}
330
5BA
100
AcDbMaterial
  1
Global
 72
     1
 94
      127
  0
MLEADERSTYLE
  5
5C1
102
{ACAD_REACTORS
330
5C0
102
}
330
5C0
100
AcDbMLeaderStyle
179
     2
170
     2
171
     1
172
     0
 90
        2
 40
0.0
 41
0.0
173
     1
 91
-1056964608
340
14
 92
       -2
290
     1
 42
2.0
291
     1
 43
8.0
  3
Standard
341
0
 44
4.0
300

342
11
174
     1
178
     1
175
     1
176
     0
 93
-1056964608
 45
4.0
292
     0
297
     0
 46
4.0
343
0
 94
-1056964608
 47
1.0
 49
1.0
140
1.0
293
     1
141
0.0
294
     1
177
     0
142
1.0
295
     0
296
     0
143
3.75
271
     0
272
     9
273
     9
298
     0
  0
MLINESTYLE
  5
578
102
{ACAD_REACTORS
330
577
102
}
330
577
100
AcDbMlineStyle
  2
STANDARD
 70
     0
  3

 62
   256
 51
90.0
 52
90.0
 71
     2
 49
0.5
 62
   256
  6
BYLAYER
 49
-0.5
 62
   256
  6
BYLAYER
  0
ACDBPLACEHOLDER
  5
57B
102
{ACAD_REACTORS
330
57A
102
}
330
57A
  0
SCALE
  5
57D
102
{ACAD_REACTORS
330
57C
102
}
330
57C
100
AcDbScale
 70
     0
300
1:1
140
1.0
141
1.0
290
     1
  0
SCALE
  5
57E
102
{ACAD_REACTORS
330
57C
102
}
330
57C
100
AcDbScale
 70
     0
300
1:2
140
1.0
141
2.0
290
     0
  0
SCALE
  5
57F
102
{ACAD_REACTORS
330
57C
102
}
330
57C
100
AcDbScale
 70
     0
300
1:4
140
1.0
141
4.0
290
     0
  0
SCALE
  5
580
102
{ACAD_REACTORS
330
57C
102
}
330
57C
100
AcDbScale
 70
     0
300
1:5
140
1.0
141
5.0
290
     0
  0
SCALE
  5
581
102
{ACAD_REACTORS
330
57C
102
}
330
57C
100
AcDbScale
 70
     0
300
1:8
140
1.0
141
8.0
290
     0
  0
SCALE
  5
582
102
{ACAD_REACTORS
330
57C
102
}
330
57C
100
AcDbScale
 70
     0
300
1:10
140
1.0
141
10.0
290
     0
  0
SCALE
  5
583
102
{ACAD_REACTORS
330
57C
102
}
330
57C
100
AcDbScale
 70
     0
300
1:16
140
1.0
141
16.0
290
     0
  0
SCALE
  5
584
102
{ACAD_REACTORS
330
57C
102
}
330
57C
100
AcDbScale
 70
     0
300
1:20
140
1.0
141
20.0
290
     0
  0
SCALE
  5
585
102
{ACAD_REACTORS
330
57C
102
}
330
57C
100
AcDbScale
 70
     0
300
1:30
140
1.0
141
30.0
290
     0
  0
SCALE
  5
586
102
{ACAD_REACTORS
330
57C
102
}
330
57C
100
AcDbScale
 70
     0
300
1:40
140
1.0
141
40.0
290
     0
  0
SCALE
  5
587
102
{ACAD_REACTORS
330
57C
102
}
330
57C
100
AcDbScale
 70
     0
300
1:50
140
1.0
141
50.0
290
     0
  0
SCALE
  5
588
102
{ACAD_REACTORS
330
57C
102
}
330
57C
100
AcDbScale
 70
     0
300
1:100
140
1.0
141
100.0
290
     0
  0
SCALE
  5
589
102
{ACAD_REACTORS
330
57C
102
}
330
57C
100
AcDbScale
 70
     0
300
2:1
140
2.0
141
1.0
290
     0
  0
SCALE
  5
58A
102
{ACAD_REACTORS
330
57C
102
}
330
57C
100
AcDbScale
 70
     0
300
4:1
140
4.0
141
1.0
290
     0
  0
SCALE
  5
58B
102
{ACAD_REACTORS
330
57C
102
}
330
57C
100
AcDbScale
 70
     0
300
8:1
140
8.0
141
1.0
290
     0
  0
SCALE
  5
58C
102
{ACAD_REACTORS
330
57C
102
}
330
57C
100
AcDbScale
 70
     0
300
10:1
140
10.0
141
1.0
290
     0
  0
SCALE
  5
58D
102
{ACAD_REACTORS
330
57C
102
}
330
57C
100
AcDbScale
 70
     0
300
100:1
140
100.0
141
1.0
290
     0
  0
SCALE
  5
58E
102
{ACAD_REACTORS
330
57C
102
}
330
57C
100
AcDbScale
 70
     0
300
1/128" = 1'-0"
140
0.0078125
141
12.0
290
     0
  0
SCALE
  5
58F
102
{ACAD_REACTORS
330
57C
102
}
330
57C
100
AcDbScale
 70
     0
300
1/64" = 1'-0"
140
0.015625
141
12.0
290
     0
  0
SCALE
  5
590
102
{ACAD_REACTORS
330
57C
102
}
330
57C
100
AcDbScale
 70
     0
300
1/32" = 1'-0"
140
0.03125
141
12.0
290
     0
  0
SCALE
  5
591
102
{ACAD_REACTORS
330
57C
102
}
330
57C
100
AcDbScale
 70
     0
300
1/16" = 1'-0"
140
0.0625
141
12.0
290
     0
  0
SCALE
  5
592
102
{ACAD_REACTORS
330
57C
102
}
330
57C
100
AcDbScale
 70
     0
300
3/32" = 1'-0"
140
0.09375
141
12.0
290
     0
  0
SCALE
  5
593
102
{ACAD_REACTORS
330
57C
102
}
330
57C
100
AcDbScale
 70
     0
300
1/8" = 1'-0"
140
0.125
141
12.0
290
     0
  0
SCALE
  5
594
102
{ACAD_REACTORS
330
57C
102
}
330
57C
100
AcDbScale
 70
     0
300
3/16" = 1'-0"
140
0.1875
141
12.0
290
     0
  0
SCALE
  5
595
102
{ACAD_REACTORS
330
57C
102
}
330
57C
100
AcDbScale
 70
     0
300
1/4" = 1'-0"
140
0.25
141
12.0
290
     0
  0
SCALE
  5
596
102
{ACAD_REACTORS
330
57C
102
}
330
57C
100
AcDbScale
 70
     0
300
3/8" = 1'-0"
140
0.375
141
12.0
290
     0
  0
SCALE
  5
597
102
{ACAD_REACTORS
330
57C
102
}
330
57C
100
AcDbScale
 70
     0
300
1/2" = 1'-0"
140
0.5
141
12.0
290
     0
  0
SCALE
  5
598
102
{ACAD_REACTORS
330
57C
102
}
330
57C
100
AcDbScale
 70
     0
300
3/4" = 1'-0"
140
0.75
141
12.0
290
     0
  0
SCALE
  5
599
102
{ACAD_REACTORS
330
57C
102
}
330
57C
100
AcDbScale
 70
     0
300
1" = 1'-0"
140
1.0
141
12.0
290
     0
  0
SCALE
  5
59A
102
{ACAD_REACTORS
330
57C
102
}
330
57C
100
AcDbScale
 70
     0
300
1-1/2" = 1'-0"
140
1.5
141
12.0
290
     0
  0
SCALE
  5
59B
102
{ACAD_REACTORS
330
57C
102
}
330
57C
100
AcDbScale
 70
     0
300
3" = 1'-0"
140
3.0
141
12.0
290
     0
  0
SCALE
  5
59C
102
{ACAD_REACTORS
330
57C
102
}
330
57C
100
AcDbScale
 70
     0
300
6" = 1'-0"
140
6.0
141
12.0
290
     0
  0
SCALE
  5
59D
102
{ACAD_REACTORS
330
57C
102
}
330
57C
100
AcDbScale
 70
     0
300
1'-0" = 1'-0"
140
12.0
141
12.0
290
     0
  0
TABLESTYLE
  5
5BF
102
{ACAD_REACTORS
330
5BE
102
}
102
{ACAD_XDICTIONARY
360
5C5
102
}
330
5BE
100
AcDbTableStyle
  3
Standard
 70
     0
 71
     0
 40
0.06
 41
0.06
280
     0
281
     0
  7
STANDARD
140
4.5
170
     2
 62
     0
 63
   257
283
     0
 90
        4
 91
        0
  1

274
    -2
284
     1
 64
     0
275
    -2
285
     1
 65
     0
276
    -2
286
     1
 66
     0
277
    -2
287
     1
 67
     0
278
    -2
288
     1
 68
     0
279
    -2
289
     1
 69
     0
  7
STANDARD
140
6.0
170
     5
 62
     0
 63
   257
283
     0
 90
        4
 91
        0
  1

274
    -2
284
     1
 64
     0
275
    -2
285
     1
 65
     0
276
    -2
286
     1
 66
     0
277
    -2
287
     1
 67
     0
278
    -2
288
     1
 68
     0
279
    -2
289
     1
 69
     0
  7
STANDARD
140
4.5
170
     5
 62
     0
 63
   257
283
     0
 90
        4
 91
        0
  1

274
    -2
284
     1
 64
     0
275
    -2
285
     1
 65
     0
276
    -2
286
     1
 66
     0
277
    -2
287
     1
 67
     0
278
    -2
288
     1
 68
     0
279
    -2
289
     1
 69
     0
  0
VISUALSTYLE
  5
5A6
102
{ACAD_REACTORS
330
5A1
102
}
330
5A1
100
AcDbVisualStyle
  2
2dWireframe
 70
     4
177
     3
291
     0
 70
    58
 90
        0
176
     1
 90
        2
176
     1
 90
        0
176
     1
 90
        0
176
     1
 40
0.6
176
     1
 40
30.0
176
     1
 62
     7
420
 16777215
176
     1
 90
        1
176
     1
 90
        4
176
     1
 62
     7
176
     1
 62
   257
176
     1
 90
        1
176
     1
 90
        1
176
     1
 40
1.0
176
     1
 90
        0
176
     1
 62
   257
176
     1
 40
1.0
176
     1
 90
        1
176
     1
 90
        6
176
     1
 90
        2
176
     1
 62
     7
176
     1
 90
        5
176
     1
 90
        0
176
     1
 90
        0
176
     1
290
     0
176
     1
 90
        1
176
     1
 40
0.0
176
     1
 90
        0
176
     1
290
     1
176
     1
290
     1
176
     1
290
     0
176
     1
290
     0
176
     1
290
     0
176
     1
290
     0
176
     1
290
     0
176
     1
290
     0
176
     1
290
     0
176
     1
 90
       50
176
     1
 40
0.0
176
     1
 40
1.0
176
     1
 90
        0
176
     1
 62
    18
420
        0
176
     1
 90
       50
176
     1
 90
        3
176
     1
 62
     5
420
      255
176
     1
290
     0
176
     1
 90
       50
176
     1
 90
       50
176
     1
 90
       50
176
     1
290
     0
176
     1
 90
       50
176
     1
 62
   256
176
     0
 40
1.0
176
     0
 90
        2
176
     1
  1
strokes_ogs.tif
176
     1
290
     0
176
     1
 40
1.0
176
     1
 40
1.0
176
     1
  0
VISUALSTYLE
  5
5A9
102
{ACAD_REACTORS
330
5A1
102
}
330
5A1
100
AcDbVisualStyle
  2
Basic
 70
     7
177
     3
291
     1
 70
    58
 90
        1
176
     1
 90
        0
176
     1
 90
        1
176
     1
 90
        0
176
     1
 40
0.6
176
     1
 40
30.0
176
     1
 62
     7
420
 16777215
176
     1
 90
        0
176
     1
 90
        4
176
     1
 62
     7
176
     1
 62
   257
176
     1
 90
        1
176
     1
 90
        1
176
     1
 40
1.0
176
     1
 90
        8
176
     1
 62
     7
176
     1
 40
1.0
176
     1
 90
        1
176
     1
 90
        6
176
     1
 90
        2
176
     1
 62
     7
176
     1
 90
        5
176
     1
 90
        0
176
     1
 90
        0
176
     1
290
     0
176
     1
 90
        1
176
     1
 40
0.0
176
     1
 90
        0
176
     1
290
     0
176
     1
290
     1
176
     1
290
     1
176
     1
290
     0
176
     1
290
     0
176
     1
290
     0
176
     1
290
     0
176
     1
290
     0
176
     1
290
     0
176
     1
 90
       50
176
     1
 40
0.0
176
     1
 40
1.0
176
     1
 90
        0
176
     1
 62
    18
420
        0
176
     1
 90
       50
176
     1
 90
        3
176
     1
 62
     5
420
      255
176
     1
290
     0
176
     1
 90
       50
176
     1
 90
       50
176
     1
 90
       50
176
     1
290
     0
176
     1
 90
       50
176
     1
 62
   256
176
     0
 40
1.0
176
     0
 90
        2
176
     1
  1
strokes_ogs.tif
176
     1
290
     0
176
     1
 40
1.0
176
     1
 40
1.0
176
     1
  0
VISUALSTYLE
  5
5AD
102
{ACAD_REACTORS
330
5A1
102
}
330
5A1
100
AcDbVisualStyle
  2
Brighten
 70
    12
177
     3
291
     1
 70
    58
 90
        2
176
     1
 90
        2
176
     1
 90
        0
176
     1
 90
        0
176
     1
 40
0.6
176
     1
 40
30.0
176
     1
 62
     7
420
 16777215
176
     1
 90
        1
176
     1
 90
        4
176
     1
 62
     7
176
     1
 62
   257
176
     1
 90
        1
176
     1
 90
        1
176
     1
 40
1.0
176
     1
 90
        8
176
     1
 62
     7
176
     1
 40
1.0
176
     1
 90
        1
176
     1
 90
        6
176
     1
 90
        2
176
     1
 62
     7
176
     1
 90
        5
176
     1
 90
        0
176
     1
 90
        0
176
     1
290
     0
176
     1
 90
        1
176
     1
 40
50.0
176
     1
 90
        0
176
     1
290
     0
176
     1
290
     1
176
     1
290
     1
176
     1
290
     0
176
     1
290
     0
176
     1
290
     0
176
     1
290
     0
176
     1
290
     0
176
     1
290
     0
176
     1
 90
       50
176
     1
 40
0.0
176
     1
 40
1.0
176
     1
 90
        0
176
     1
 62
    18
420
        0
176
     1
 90
       50
176
     1
 90
        3
176
     1
 62
     5
420
      255
176
     1
290
     0
176
     1
 90
       50
176
     1
 90
       50
176
     1
 90
       50
176
     1
290
     0
176
     1
 90
       50
176
     1
 62
   256
176
     0
 40
1.0
176
     0
 90
        2
176
     1
  1
strokes_ogs.tif
176
     1
290
     0
176
     1
 40
1.0
176
     1
 40
1.0
176
     1
  0
VISUALSTYLE
  5
5B1
102
{ACAD_REACTORS
330
5A1
102
}
330
5A1
100
AcDbVisualStyle
  2
ColorChange
 70
    16
177
     3
291
     1
 70
    58
 90
        2
176
     1
 90
        2
176
     1
 90
        3
176
     1
 90
        0
176
     1
 40
0.6
176
     1
 40
30.0
176
     1
 62
     8
420
  8421504
176
     1
 90
        1
176
     1
 90
        4
176
     1
 62
     7
176
     1
 62
   257
176
     1
 90
        1
176
     1
 90
        1
176
     1
 40
1.0
176
     1
 90
        8
176
     1
 62
     8
420
  8421504
176
     1
 40
1.0
176
     1
 90
        1
176
     1
 90
        6
176
     1
 90
        2
176
     1
 62
     7
176
     1
 90
        5
176
     1
 90
        0
176
     1
 90
        0
176
     1
290
     0
176
     1
 90
        1
176
     1
 40
0.0
176
     1
 90
        0
176
     1
290
     0
176
     1
290
     1
176
     1
290
     1
176
     1
290
     0
176
     1
290
     0
176
     1
290
     0
176
     1
290
     0
176
     1
290
     0
176
     1
290
     0
176
     1
 90
       50
176
     1
 40
0.0
176
     1
 40
1.0
176
     1
 90
        0
176
     1
 62
    18
420
        0
176
     1
 90
       50
176
     1
 90
        3
176
     1
 62
     5
420
      255
176
     1
290
     0
176
     1
 90
       50
176
     1
 90
       50
176
     1
 90
       50
176
     1
290
     0
176
     1
 90
       50
176
     1
 62
   256
176
     0
 40
1.0
176
     0
 90
        2
176
     1
  1
strokes_ogs.tif
176
     1
290
     0
176
     1
 40
1.0
176
     1
 40
1.0
176
     1
  0
VISUALSTYLE
  5
5AB
102
{ACAD_REACTORS
330
5A1
102
}
330
5A1
100
AcDbVisualStyle
  2
Conceptual
 70
     9
177
     3
291
     0
 70
    58
 90
        3
176
     1
 90
        2
176
     1
 90
        0
176
     1
 90
        0
176
     1
 40
0.6
176
     1
 40
30.0
176
     1
 62
     7
420
 16777215
176
     1
 90
        2
176
     1
 90
        2
176
     1
 62
     7
176
     1
 62
   257
176
     1
 90
        1
176
     1
 90
        1
176
     1
 40
179.0
176
     1
 90
        8
176
     1
 62
     7
176
     1
 40
1.0
176
     1
 90
        1
176
     1
 90
        6
176
     1
 90
        2
176
     1
 62
     7
176
     1
 90
        3
176
     1
 90
        0
176
     1
 90
        0
176
     1
290
     0
176
     1
 90
        1
176
     1
 40
0.0
176
     1
 90
        0
176
     1
290
     0
176
     1
290
     1
176
     1
290
     1
176
     1
290
     0
176
     1
290
     0
176
     1
290
     0
176
     1
290
     0
176
     1
290
     0
176
     1
290
     0
176
     1
 90
       50
176
     1
 40
0.0
176
     1
 40
1.0
176
     1
 90
        0
176
     1
 62
    18
420
        0
176
     1
 90
       50
176
     1
 90
        3
176
     1
 62
     5
420
      255
176
     1
290
     0
176
     1
 90
       50
176
     1
 90
       50
176
     1
 90
       50
176
     1
290
     0
176
     1
 90
       50
176
     1
 62
   256
176
     0
 40
1.0
176
     0
 90
        2
176
     1
  1
strokes_ogs.tif
176
     1
290
     0
176
     1
 40
1.0
176
     1
 40
1.0
176
     1
  0
VISUALSTYLE
  5
5AC
102
{ACAD_REACTORS
330
5A1
102
}
330
5A1
100
AcDbVisualStyle
  2
Dim
 70
    11
177
     3
291
     1
 70
    58
 90
        2
176
     1
 90
        2
176
     1
 90
        0
176
     1
 90
        0
176
     1
 40
0.6
176
     1
 40
30.0
176
     1
 62
     7
420
 16777215
176
     1
 90
        1
176
     1
 90
        4
176
     1
 62
     7
176
     1
 62
   257
176
     1
 90
        1
176
     1
 90
        1
176
     1
 40
1.0
176
     1
 90
        8
176
     1
 62
     7
176
     1
 40
1.0
176
     1
 90
        1
176
     1
 90
        6
176
     1
 90
        2
176
     1
 62
     7
176
     1
 90
        5
176
     1
 90
        0
176
     1
 90
        0
176
     1
290
     0
176
     1
 90
        1
176
     1
 40
-50.0
176
     1
 90
        0
176
     1
290
     0
176
     1
290
     1
176
     1
290
     1
176
     1
290
     0
176
     1
290
     0
176
     1
290
     0
176
     1
290
     0
176
     1
290
     0
176
     1
290
     0
176
     1
 90
       50
176
     1
 40
0.0
176
     1
 40
1.0
176
     1
 90
        0
176
     1
 62
    18
420
        0
176
     1
 90
       50
176
     1
 90
        3
176
     1
 62
     5
420
      255
176
     1
290
     0
176
     1
 90
       50
176
     1
 90
       50
176
     1
 90
       50
176
     1
290
     0
176
     1
 90
       50
176
     1
 62
   256
176
     0
 40
1.0
176
     0
 90
        2
176
     1
  1
strokes_ogs.tif
176
     1
290
     0
176
     1
 40
1.0
176
     1
 40
1.0
176
     1
  0
VISUALSTYLE
  5
5B4
102
{ACAD_REACTORS
330
5A1
102
}
330
5A1
100
AcDbVisualStyle
  2
EdgeColorOff
 70
    22
177
     3
291
     1
 70
    58
 90
        2
176
     0
 90
        2
176
     0
 90
        0
176
     0
 90
        0
176
     0
 40
0.6
176
     0
 40
30.0
176
     0
 62
     7
420
 16777215
176
     0
 90
        1
176
     0
 90
        4
176
     0
 62
     7
176
     0
 62
   257
176
     0
 90
        1
176
     0
 90
        1
176
     0
 40
1.0
176
     0
 90
        8
176
     2
 62
     7
176
     0
 40
1.0
176
     0
 90
        1
176
     0
 90
        6
176
     0
 90
        2
176
     0
 62
     7
176
     0
 90
        5
176
     0
 90
        0
176
     0
 90
        0
176
     0
290
     0
176
     0
 90
        1
176
     0
 40
0.0
176
     0
 90
        0
176
     0
290
     0
176
     0
290
     1
176
     0
290
     1
176
     0
290
     0
176
     0
290
     0
176
     0
290
     0
176
     0
290
     0
176
     0
290
     0
176
     0
290
     0
176
     0
 90
       50
176
     0
 40
0.0
176
     0
 40
1.0
176
     0
 90
        0
176
     0
 62
    18
420
        0
176
     0
 90
       50
176
     0
 90
        3
176
     0
 62
     5
420
      255
176
     0
290
     0
176
     0
 90
       50
176
     0
 90
       50
176
     0
 90
       50
176
     0
290
     0
176
     0
 90
       50
176
     0
 62
   256
176
     0
 40
1.0
176
     0
 90
        2
176
     0
  1
strokes_ogs.tif
176
     0
290
     0
176
     0
 40
1.0
176
     0
 40
1.0
176
     0
  0
VISUALSTYLE
  5
5B0
102
{ACAD_REACTORS
330
5A1
102
}
330
5A1
100
AcDbVisualStyle
  2
Facepattern
 70
    15
177
     3
291
     1
 70
    58
 90
        2
176
     1
 90
        2
176
     1
 90
        0
176
     1
 90
        0
176
     1
 40
0.6
176
     1
 40
30.0
176
     1
 62
     7
420
 16777215
176
     1
 90
        1
176
     1
 90
        4
176
     1
 62
     7
176
     1
 62
   257
176
     1
 90
        1
176
     1
 90
        1
176
     1
 40
1.0
176
     1
 90
        8
176
     1
 62
     7
176
     1
 40
1.0
176
     1
 90
        1
176
     1
 90
        6
176
     1
 90
        2
176
     1
 62
     7
176
     1
 90
        5
176
     1
 90
        0
176
     1
 90
        0
176
     1
290
     0
176
     1
 90
        1
176
     1
 40
0.0
176
     1
 90
        0
176
     1
290
     0
176
     1
290
     1
176
     1
290
     1
176
     1
290
     0
176
     1
290
     0
176
     1
290
     0
176
     1
290
     0
176
     1
290
     0
176
     1
290
     0
176
     1
 90
       50
176
     1
 40
0.0
176
     1
 40
1.0
176
     1
 90
        0
176
     1
 62
    18
420
        0
176
     1
 90
       50
176
     1
 90
        3
176
     1
 62
     5
420
      255
176
     1
290
     0
176
     1
 90
       50
176
     1
 90
       50
176
     1
 90
       50
176
     1
290
     0
176
     1
 90
       50
176
     1
 62
   256
176
     0
 40
1.0
176
     0
 90
        2
176
     1
  1
strokes_ogs.tif
176
     1
290
     0
176
     1
 40
1.0
176
     1
 40
1.0
176
     1
  0
VISUALSTYLE
  5
5A2
102
{ACAD_REACTORS
330
5A1
102
}
330
5A1
100
AcDbVisualStyle
  2
Flat
 70
     0
177
     3
291
     1
 70
    58
 90
        2
176
     1
 90
        1
176
     1
 90
        1
176
     1
 90
        2
176
     1
 40
0.6
176
     1
 40
30.0
176
     1
 62
     7
420
 16777215
176
     1
 90
        0
176
     1
 90
        0
176
     1
 62
     7
176
     1
 62
   257
176
     1
 90
        1
176
     1
 90
        1
176
     1
 40
1.0
176
     1
 90
        8
176
     1
 62
     7
176
     1
 40
1.0
176
     1
 90
        1
176
     1
 90
        6
176
     1
 90
        2
176
     1
 62
     7
176
     1
 90
        5
176
     1
 90
        0
176
     1
 90
        0
176
     1
290
     0
176
     1
 90
       13
176
     1
 40
0.0
176
     1
 90
        0
176
     1
290
     0
176
     1
290
     1
176
     1
290
     1
176
     1
290
     0
176
     1
290
     0
176
     1
290
     0
176
     1
290
     0
176
     1
290
     0
176
     1
290
     0
176
     1
 90
       50
176
     1
 40
0.0
176
     1
 40
1.0
176
     1
 90
        0
176
     1
 62
    18
420
        0
176
     1
 90
       50
176
     1
 90
        3
176
     1
 62
     5
420
      255
176
     1
290
     0
176
     1
 90
       50
176
     1
 90
       50
176
     1
 90
       50
176
     1
290
     0
176
     1
 90
       50
176
     1
 62
   256
176
     0
 40
1.0
176
     0
 90
        2
176
     1
  1
strokes_ogs.tif
176
     1
290
     0
176
     1
 40
1.0
176
     1
 40
1.0
176
     1
  0
VISUALSTYLE
  5
5A3
102
{ACAD_REACTORS
330
5A1
102
}
330
5A1
100
AcDbVisualStyle
  2
FlatWithEdges
 70
     1
177
     3
291
     1
 70
    58
 90
        2
176
     1
 90
        1
176
     1
 90
        1
176
     1
 90
        2
176
     1
 40
0.6
176
     1
 40
30.0
176
     1
 62
     7
420
 16777215
176
     1
 90
        1
176
     1
 90
        0
176
     1
 62
     7
176
     1
 62
   257
176
     1
 90
        1
176
     1
 90
        1
176
     1
 40
1.0
176
     1
 90
        0
176
     1
 62
   257
176
     1
 40
1.0
176
     1
 90
        1
176
     1
 90
        6
176
     1
 90
        2
176
     1
 62
     7
176
     1
 90
        5
176
     1
 90
        0
176
     1
 90
        0
176
     1
290
     0
176
     1
 90
       13
176
     1
 40
0.0
176
     1
 90
        0
176
     1
290
     0
176
     1
290
     1
176
     1
290
     1
176
     1
290
     0
176
     1
290
     0
176
     1
290
     0
176
     1
290
     0
176
     1
290
     0
176
     1
290
     0
176
     1
 90
       50
176
     1
 40
0.0
176
     1
 40
1.0
176
     1
 90
        0
176
     1
 62
    18
420
        0
176
     1
 90
       50
176
     1
 90
        3
176
     1
 62
     5
420
      255
176
     1
290
     0
176
     1
 90
       50
176
     1
 90
       50
176
     1
 90
       50
176
     1
290
     0
176
     1
 90
       50
176
     1
 62
   256
176
     0
 40
1.0
176
     0
 90
        2
176
     1
  1
strokes_ogs.tif
176
     1
290
     0
176
     1
 40
1.0
176
     1
 40
1.0
176
     1
  0
VISUALSTYLE
  5
5A4
102
{ACAD_REACTORS
330
5A1
102
}
330
5A1
100
AcDbVisualStyle
  2
Gouraud
 70
     2
177
     3
291
     1
 70
    58
 90
        2
176
     1
 90
        2
176
     1
 90
        1
176
     1
 90
        2
176
     1
 40
0.6
176
     1
 40
30.0
176
     1
 62
     7
420
 16777215
176
     1
 90
        0
176
     1
 90
        0
176
     1
 62
     7
176
     1
 62
   257
176
     1
 90
        1
176
     1
 90
        1
176
     1
 40
1.0
176
     1
 90
        0
176
     1
 62
     7
176
     1
 40
1.0
176
     1
 90
        1
176
     1
 90
        6
176
     1
 90
        2
176
     1
 62
     7
176
     1
 90
        5
176
     1
 90
        0
176
     1
 90
        0
176
     1
290
     0
176
     1
 90
       13
176
     1
 40
0.0
176
     1
 90
        0
176
     1
290
     0
176
     1
290
     1
176
     1
290
     1
176
     1
290
     0
176
     1
290
     0
176
     1
290
     0
176
     1
290
     0
176
     1
290
     0
176
     1
290
     0
176
     1
 90
       50
176
     1
 40
0.0
176
     1
 40
1.0
176
     1
 90
        0
176
     1
 62
    18
420
        0
176
     1
 90
       50
176
     1
 90
        3
176
     1
 62
     5
420
      255
176
     1
290
     0
176
     1
 90
       50
176
     1
 90
       50
176
     1
 90
       50
176
     1
290
     0
176
     1
 90
       50
176
     1
 62
   256
176
     0
 40
1.0
176
     0
 90
        2
176
     1
  1
strokes_ogs.tif
176
     1
290
     0
176
     1
 40
1.0
176
     1
 40
1.0
176
     1
  0
VISUALSTYLE
  5
5A5
102
{ACAD_REACTORS
330
5A1
102
}
330
5A1
100
AcDbVisualStyle
  2
GouraudWithEdges
 70
     3
177
     3
291
     1
 70
    58
 90
        2
176
     1
 90
        2
176
     1
 90
        1
176
     1
 90
        2
176
     1
 40
0.6
176
     1
 40
30.0
176
     1
 62
     7
420
 16777215
176
     1
 90
        1
176
     1
 90
        0
176
     1
 62
     7
176
     1
 62
   257
176
     1
 90
        1
176
     1
 90
        1
176
     1
 40
1.0
176
     1
 90
        0
176
     1
 62
   257
176
     1
 40
1.0
176
     1
 90
        1
176
     1
 90
        6
176
     1
 90
        2
176
     1
 62
     7
176
     1
 90
        5
176
     1
 90
        0
176
     1
 90
        0
176
     1
290
     0
176
     1
 90
       13
176
     1
 40
0.0
176
     1
 90
        0
176
     1
290
     0
176
     1
290
     1
176
     1
290
     1
176
     1
290
     0
176
     1
290
     0
176
     1
290
     0
176
     1
290
     0
176
     1
290
     0
176
     1
290
     0
176
     1
 90
       50
176
     1
 40
0.0
176
     1
 40
1.0
176
     1
 90
        0
176
     1
 62
    18
420
        0
176
     1
 90
       50
176
     1
 90
        3
176
     1
 62
     5
420
      255
176
     1
290
     0
176
     1
 90
       50
176
     1
 90
       50
176
     1
 90
       50
176
     1
290
     0
176
     1
 90
       50
176
     1
 62
   256
176
     0
 40
1.0
176
     0
 90
        2
176
     1
  1
strokes_ogs.tif
176
     1
290
     0
176
     1
 40
1.0
176
     1
 40
1.0
176
     1
  0
VISUALSTYLE
  5
5A8
102
{ACAD_REACTORS
330
5A1
102
}
330
5A1
100
AcDbVisualStyle
  2
Hidden
 70
     6
177
     3
291
     0
 70
    58
 90
        1
176
     1
 90
        2
176
     1
 90
        2
176
     1
 90
        0
176
     1
 40
0.6
176
     1
 40
30.0
176
     1
 62
     7
420
 16777215
176
     1
 90
        2
176
     1
 90
        2
176
     1
 62
     7
176
     1
 62
   257
176
     1
 90
        2
176
     1
 90
        1
176
     1
 40
40.0
176
     1
 90
        0
176
     1
 62
   257
176
     1
 40
1.0
176
     1
 90
        1
176
     1
 90
        6
176
     1
 90
        2
176
     1
 62
     7
176
     1
 90
        3
176
     1
 90
        0
176
     1
 90
        0
176
     1
290
     0
176
     1
 90
        1
176
     1
 40
0.0
176
     1
 90
        0
176
     1
290
     0
176
     1
290
     1
176
     1
290
     1
176
     1
290
     0
176
     1
290
     0
176
     1
290
     0
176
     1
290
     0
176
     1
290
     0
176
     1
290
     0
176
     1
 90
       50
176
     1
 40
0.0
176
     1
 40
1.0
176
     1
 90
        0
176
     1
 62
    18
420
        0
176
     1
 90
       50
176
     1
 90
        3
176
     1
 62
     5
420
      255
176
     1
290
     0
176
     1
 90
       50
176
     1
 90
       50
176
     1
 90
       50
176
     1
290
     0
176
     1
 90
       50
176
     1
 62
   256
176
     0
 40
1.0
176
     0
 90
        2
176
     1
  1
strokes_ogs.tif
176
     1
290
     0
176
     1
 40
1.0
176
     1
 40
1.0
176
     1
  0
VISUALSTYLE
  5
5B2
102
{ACAD_REACTORS
330
5A1
102
}
330
5A1
100
AcDbVisualStyle
  2
JitterOff
 70
    20
177
     3
291
     1
 70
    58
 90
        2
176
     0
 90
        2
176
     0
 90
        0
176
     0
 90
        0
176
     0
 40
0.6
176
     0
 40
30.0
176
     0
 62
     7
420
 16777215
176
     0
 90
        1
176
     0
 90
        4
176
     0
 62
     7
176
     0
 62
   257
176
     0
 90
        1
176
     0
 90
        1
176
     0
 40
1.0
176
     0
 90
       10
176
     2
 62
     7
176
     0
 40
1.0
176
     0
 90
        1
176
     0
 90
        6
176
     0
 90
        2
176
     0
 62
     7
176
     0
 90
        5
176
     0
 90
        0
176
     0
 90
        0
176
     0
290
     0
176
     0
 90
        1
176
     0
 40
0.0
176
     0
 90
        0
176
     0
290
     0
176
     0
290
     1
176
     0
290
     1
176
     0
290
     0
176
     0
290
     0
176
     0
290
     0
176
     0
290
     0
176
     0
290
     0
176
     0
290
     0
176
     0
 90
       50
176
     0
 40
0.0
176
     0
 40
1.0
176
     0
 90
        0
176
     0
 62
    18
420
        0
176
     0
 90
       50
176
     0
 90
        3
176
     0
 62
     5
420
      255
176
     0
290
     0
176
     0
 90
       50
176
     0
 90
       50
176
     0
 90
       50
176
     0
290
     0
176
     0
 90
       50
176
     0
 62
   256
176
     0
 40
1.0
176
     0
 90
        2
176
     0
  1
strokes_ogs.tif
176
     0
290
     0
176
     0
 40
1.0
176
     0
 40
1.0
176
     0
  0
VISUALSTYLE
  5
5AF
102
{ACAD_REACTORS
330
5A1
102
}
330
5A1
100
AcDbVisualStyle
  2
Linepattern
 70
    14
177
     3
291
     1
 70
    58
 90
        2
176
     1
 90
        2
176
     1
 90
        0
176
     1
 90
        0
176
     1
 40
0.6
176
     1
 40
30.0
176
     1
 62
     7
420
 16777215
176
     1
 90
        1
176
     1
 90
        4
176
     1
 62
     7
176
     1
 62
   257
176
     1
 90
        7
176
     1
 90
        7
176
     1
 40
1.0
176
     1
 90
        8
176
     1
 62
     7
176
     1
 40
1.0
176
     1
 90
        1
176
     1
 90
        6
176
     1
 90
        2
176
     1
 62
     7
176
     1
 90
        5
176
     1
 90
        0
176
     1
 90
        0
176
     1
290
     0
176
     1
 90
        1
176
     1
 40
0.0
176
     1
 90
        0
176
     1
290
     0
176
     1
290
     1
176
     1
290
     1
176
     1
290
     0
176
     1
290
     0
176
     1
290
     0
176
     1
290
     0
176
     1
290
     0
176
     1
290
     0
176
     1
 90
       50
176
     1
 40
0.0
176
     1
 40
1.0
176
     1
 90
        0
176
     1
 62
    18
420
        0
176
     1
 90
       50
176
     1
 90
        3
176
     1
 62
     5
420
      255
176
     1
290
     0
176
     1
 90
       50
176
     1
 90
       50
176
     1
 90
       50
176
     1
290
     0
176
     1
 90
       50
176
     1
 62
   256
176
     0
 40
1.0
176
     0
 90
        2
176
     1
  1
strokes_ogs.tif
176
     1
290
     0
176
     1
 40
1.0
176
     1
 40
1.0
176
     1
  0
VISUALSTYLE
  5
5B3
102
{ACAD_REACTORS
330
5A1
102
}
330
5A1
100
AcDbVisualStyle
  2
OverhangOff
 70
    21
177
     3
291
     1
 70
    58
 90
        2
176
     0
 90
        2
176
     0
 90
        0
176
     0
 90
        0
176
     0
 40
0.6
176
     0
 40
30.0
176
     0
 62
     7
420
 16777215
176
     0
 90
        1
176
     0
 90
        4
176
     0
 62
     7
176
     0
 62
   257
176
     0
 90
        1
176
     0
 90
        1
176
     0
 40
1.0
176
     0
 90
        9
176
     2
 62
     7
176
     0
 40
1.0
176
     0
 90
        1
176
     0
 90
        6
176
     0
 90
        2
176
     0
 62
     7
176
     0
 90
        5
176
     0
 90
        0
176
     0
 90
        0
176
     0
290
     0
176
     0
 90
        1
176
     0
 40
0.0
176
     0
 90
        0
176
     0
290
     0
176
     0
290
     1
176
     0
290
     1
176
     0
290
     0
176
     0
290
     0
176
     0
290
     0
176
     0
290
     0
176
     0
290
     0
176
     0
290
     0
176
     0
 90
       50
176
     0
 40
0.0
176
     0
 40
1.0
176
     0
 90
        0
176
     0
 62
    18
420
        0
176
     0
 90
       50
176
     0
 90
        3
176
     0
 62
     5
420
      255
176
     0
290
     0
176
     0
 90
       50
176
     0
 90
       50
176
     0
 90
       50
176
     0
290
     0
176
     0
 90
       50
176
     0
 62
   256
176
     0
 40
1.0
176
     0
 90
        2
176
     0
  1
strokes_ogs.tif
176
     0
290
     0
176
     0
 40
1.0
176
     0
 40
1.0
176
     0
  0
VISUALSTYLE
  5
5AA
102
{ACAD_REACTORS
330
5A1
102
}
330
5A1
100
AcDbVisualStyle
  2
Realistic
 70
     8
177
     3
291
     0
 70
    58
 90
        2
176
     1
 90
        3
176
     1
 90
        0
176
     1
 90
        2
176
     1
 40
0.6
176
     1
 40
30.0
176
     1
 62
     7
420
 16777215
176
     1
 90
        0
176
     1
 90
        0
176
     1
 62
     7
176
     1
 62
   257
176
     1
 90
        1
176
     1
 90
        1
176
     1
 40
1.0
176
     1
 90
        8
176
     1
 62
   257
176
     1
 40
1.0
176
     1
 90
        1
176
     1
 90
        6
176
     1
 90
        2
176
     1
 62
     7
176
     1
 90
        3
176
     1
 90
        0
176
     1
 90
        0
176
     1
290
     0
176
     1
 90
       13
176
     1
 40
0.0
176
     1
 90
        0
176
     1
290
     0
176
     1
290
     1
176
     1
290
     1
176
     1
290
     0
176
     1
290
     0
176
     1
290
     0
176
     1
290
     0
176
     1
290
     0
176
     1
290
     0
176
     1
 90
       50
176
     1
 40
0.0
176
     1
 40
1.0
176
     1
 90
        0
176
     1
 62
    18
420
        0
176
     1
 90
       50
176
     1
 90
        3
176
     1
 62
     5
420
      255
176
     1
290
     0
176
     1
 90
       50
176
     1
 90
       50
176
     1
 90
       50
176
     1
290
     0
176
     1
 90
       50
176
     1
 62
   256
176
     0
 40
1.0
176
     0
 90
        2
176
     1
  1
strokes_ogs.tif
176
     1
290
     0
176
     1
 40
1.0
176
     1
 40
1.0
176
     1
  0
VISUALSTYLE
  5
5B9
102
{ACAD_REACTORS
330
5A1
102
}
330
5A1
100
AcDbVisualStyle
  2
Shaded
 70
    27
177
     3
291
     0
 70
    58
 90
        2
176
     1
 90
        2
176
     1
 90
        1
176
     1
 90
        2
176
     1
 40
0.6
176
     1
 40
30.0
176
     1
 62
     7
420
 16777215
176
     1
 90
        0
176
     1
 90
        4
176
     1
 62
     7
176
     1
 62
   257
176
     1
 90
        1
176
     1
 90
        1
176
     1
 40
1.0
176
     1
 90
        8
176
     1
 62
   257
176
     1
 40
1.0
176
     1
 90
        1
176
     1
 90
        6
176
     1
 90
        2
176
     1
 62
     8
420
  7895160
176
     1
 90
        3
176
     1
 90
        0
176
     1
 90
        0
176
     1
290
     0
176
     1
 90
        5
176
     1
 40
0.0
176
     1
 90
        0
176
     1
290
     0
176
     1
290
     1
176
     1
290
     1
176
     1
290
     0
176
     1
290
     0
176
     1
290
     0
176
     1
290
     0
176
     1
290
     0
176
     1
290
     0
176
     1
 90
       50
176
     1
 40
0.0
176
     1
 40
1.0
176
     1
 90
        0
176
     1
 62
    18
420
        0
176
     1
 90
       50
176
     1
 90
        3
176
     1
 62
     5
420
      255
176
     1
290
     0
176
     1
 90
       50
176
     1
 90
       50
176
     1
 90
       50
176
     1
290
     0
176
     1
 90
       50
176
     1
 62
   256
176
     0
 40
1.0
176
     0
 90
        2
176
     1
  1
strokes_ogs.tif
176
     1
290
     0
176
     1
 40
1.0
176
     1
 40
1.0
176
     1
  0
VISUALSTYLE
  5
5B8
102
{ACAD_REACTORS
330
5A1
102
}
330
5A1
100
AcDbVisualStyle
  2
Shaded with edges
 70
    26
177
     3
291
     0
 70
    58
 90
        2
176
     1
 90
        2
176
     1
 90
        1
176
     1
 90
        2
176
     1
 40
0.6
176
     1
 40
30.0
176
     1
 62
     7
420
 16777215
176
     1
 90
        1
176
     1
 90
       10
176
     1
 62
     7
176
     1
 62
   257
176
     1
 90
        2
176
     1
 90
        1
176
     1
 40
1.0
176
     1
 90
        8
176
     1
 62
   257
176
     1
 40
1.0
176
     1
 90
        1
176
     1
 90
        6
176
     1
 90
        2
176
     1
 62
     7
176
     1
 90
        3
176
     1
 90
        0
176
     1
 90
        0
176
     1
290
     0
176
     1
 90
        5
176
     1
 40
0.0
176
     1
 90
        0
176
     1
290
     0
176
     1
290
     1
176
     1
290
     1
176
     1
290
     0
176
     1
290
     0
176
     1
290
     0
176
     1
290
     0
176
     1
290
     0
176
     1
290
     0
176
     1
 90
       50
176
     1
 40
0.0
176
     1
 40
1.0
176
     1
 90
        0
176
     1
 62
    18
420
        0
176
     1
 90
       50
176
     1
 90
        3
176
     1
 62
     5
420
      255
176
     1
290
     0
176
     1
 90
       50
176
     1
 90
       50
176
     1
 90
       50
176
     1
290
     0
176
     1
 90
       50
176
     1
 62
   256
176
     0
 40
1.0
176
     0
 90
        2
176
     1
  1
strokes_ogs.tif
176
     1
290
     0
176
     1
 40
1.0
176
     1
 40
1.0
176
     1
  0
VISUALSTYLE
  5
5B5
102
{ACAD_REACTORS
330
5A1
102
}
330
5A1
100
AcDbVisualStyle
  2
Shades of Gray
 70
    23
177
     3
291
     0
 70
    58
 90
        2
176
     1
 90
        2
176
     1
 90
        3
176
     1
 90
        0
176
     1
 40
0.6
176
     1
 40
30.0
176
     1
 62
     7
420
 16777215
176
     1
 90
        2
176
     1
 90
        2
176
     1
 62
     7
176
     1
 62
     7
176
     1
 90
        1
176
     1
 90
        1
176
     1
 40
40.0
176
     1
 90
        8
176
     1
 62
     7
176
     1
 40
1.0
176
     1
 90
        1
176
     1
 90
        6
176
     1
 90
        2
176
     1
 62
     7
176
     1
 90
        3
176
     1
 90
        0
176
     1
 90
        0
176
     1
290
     0
176
     1
 90
        1
176
     1
 40
0.0
176
     1
 90
        0
176
     1
290
     0
176
     1
290
     1
176
     1
290
     1
176
     1
290
     0
176
     1
290
     0
176
     1
290
     0
176
     1
290
     0
176
     1
290
     0
176
     1
290
     0
176
     1
 90
       50
176
     1
 40
0.0
176
     1
 40
1.0
176
     1
 90
        0
176
     1
 62
    18
420
        0
176
     1
 90
       50
176
     1
 90
        3
176
     1
 62
     5
420
      255
176
     1
290
     0
176
     1
 90
       50
176
     1
 90
       50
176
     1
 90
       50
176
     1
290
     0
176
     1
 90
       50
176
     1
 62
   256
176
     0
 40
1.0
176
     0
 90
        2
176
     1
  1
strokes_ogs.tif
176
     1
290
     0
176
     1
 40
1.0
176
     1
 40
1.0
176
     1
  0
VISUALSTYLE
  5
5B6
102
{ACAD_REACTORS
330
5A1
102
}
330
5A1
100
AcDbVisualStyle
  2
Sketchy
 70
    24
177
     3
291
     0
 70
    58
 90
        1
176
     1
 90
        2
176
     1
 90
        2
176
     1
 90
        0
176
     1
 40
0.6
176
     1
 40
30.0
176
     1
 62
     7
420
 16777215
176
     1
 90
        2
176
     1
 90
        2
176
     1
 62
     7
176
     1
 62
     7
176
     1
 90
        1
176
     1
 90
        1
176
     1
 40
40.0
176
     1
 90
       11
176
     1
 62
     7
176
     1
 40
1.0
176
     1
 90
        1
176
     1
 90
        6
176
     1
 90
        2
176
     1
 62
     7
176
     1
 90
        6
176
     1
 90
        0
176
     1
 90
        0
176
     1
290
     0
176
     1
 90
        1
176
     1
 40
0.0
176
     1
 90
        0
176
     1
290
     0
176
     1
290
     1
176
     1
290
     1
176
     1
290
     0
176
     1
290
     0
176
     1
290
     0
176
     1
290
     0
176
     1
290
     0
176
     1
290
     0
176
     1
 90
       50
176
     1
 40
0.0
176
     1
 40
1.0
176
     1
 90
        0
176
     1
 62
    18
420
        0
176
     1
 90
       50
176
     1
 90
        3
176
     1
 62
     5
420
      255
176
     1
290
     0
176
     1
 90
       50
176
     1
 90
       50
176
     1
 90
       50
176
     1
290
     0
176
     1
 90
       50
176
     1
 62
   256
176
     0
 40
1.0
176
     0
 90
        2
176
     1
  1
strokes_ogs.tif
176
     1
290
     0
176
     1
 40
1.0
176
     1
 40
1.0
176
     1
  0
VISUALSTYLE
  5
5AE
102
{ACAD_REACTORS
330
5A1
102
}
330
5A1
100
AcDbVisualStyle
  2
Thicken
 70
    13
177
     3
291
     1
 70
    58
 90
        2
176
     1
 90
        2
176
     1
 90
        0
176
     1
 90
        0
176
     1
 40
0.6
176
     1
 40
30.0
176
     1
 62
     7
420
 16777215
176
     1
 90
        1
176
     1
 90
        4
176
     1
 62
     7
176
     1
 62
   257
176
     1
 90
        1
176
     1
 90
        1
176
     1
 40
1.0
176
     1
 90
       12
176
     1
 62
     7
176
     1
 40
1.0
176
     1
 90
        1
176
     1
 90
        6
176
     1
 90
        2
176
     1
 62
     7
176
     1
 90
        5
176
     1
 90
        0
176
     1
 90
        0
176
     1
290
     0
176
     1
 90
        1
176
     1
 40
0.0
176
     1
 90
        0
176
     1
290
     0
176
     1
290
     1
176
     1
290
     1
176
     1
290
     0
176
     1
290
     0
176
     1
290
     0
176
     1
290
     0
176
     1
290
     0
176
     1
290
     0
176
     1
 90
       50
176
     1
 40
0.0
176
     1
 40
1.0
176
     1
 90
        0
176
     1
 62
    18
420
        0
176
     1
 90
       50
176
     1
 90
        3
176
     1
 62
     5
420
      255
176
     1
290
     0
176
     1
 90
       50
176
     1
 90
       50
176
     1
 90
       50
176
     1
290
     0
176
     1
 90
       50
176
     1
 62
   256
176
     0
 40
1.0
176
     0
 90
        2
176
     1
  1
strokes_ogs.tif
176
     1
290
     0
176
     1
 40
1.0
176
     1
 40
1.0
176
     1
  0
VISUALSTYLE
  5
5A7
102
{ACAD_REACTORS
330
5A1
102
}
330
5A1
100
AcDbVisualStyle
  2
Wireframe
 70
     5
177
     3
291
     0
 70
    58
 90
        0
176
     1
 90
        2
176
     1
 90
        0
176
     1
 90
        0
176
     1
 40
0.6
176
     1
 40
30.0
176
     1
 62
     7
420
 16777215
176
     1
 90
        1
176
     1
 90
        4
176
     1
 62
     7
176
     1
 62
   257
176
     1
 90
        1
176
     1
 90
        1
176
     1
 40
1.0
176
     1
 90
        0
176
     1
 62
   257
176
     1
 40
1.0
176
     1
 90
        1
176
     1
 90
        6
176
     1
 90
        2
176
     1
 62
     7
176
     1
 90
        3
176
     1
 90
        0
176
     1
 90
        0
176
     1
290
     0
176
     1
 90
        1
176
     1
 40
0.0
176
     1
 90
        0
176
     1
290
     0
176
     1
290
     1
176
     1
290
     1
176
     1
290
     0
176
     1
290
     0
176
     1
290
     0
176
     1
290
     0
176
     1
290
     0
176
     1
290
     0
176
     1
 90
       50
176
     1
 40
0.0
176
     1
 40
1.0
176
     1
 90
        0
176
     1
 62
    18
420
        0
176
     1
 90
       50
176
     1
 90
        3
176
     1
 62
     5
420
      255
176
     1
290
     0
176
     1
 90
       50
176
     1
 90
       50
176
     1
 90
       50
176
     1
290
     0
176
     1
 90
       50
176
     1
 62
   256
176
     0
 40
1.0
176
     0
 90
        2
176
     1
  1
strokes_ogs.tif
176
     1
290
     0
176
     1
 40
1.0
176
     1
 40
1.0
176
     1
  0
VISUALSTYLE
  5
5B7
102
{ACAD_REACTORS
330
5A1
102
}
330
5A1
100
AcDbVisualStyle
  2
X-Ray
 70
    25
177
     3
291
     0
 70
    58
 90
        2
176
     1
 90
        2
176
     1
 90
        1
176
     1
 90
        1
176
     1
 40
0.5
176
     1
 40
30.0
176
     1
 62
     7
420
 16777215
176
     1
 90
        1
176
     1
 90
        0
176
     1
 62
     7
176
     1
 62
   257
176
     1
 90
        1
176
     1
 90
        1
176
     1
 40
1.0
176
     1
 90
        8
176
     1
 62
     7
176
     1
 40
1.0
176
     1
 90
        1
176
     1
 90
        6
176
     1
 90
        2
176
     1
 62
     7
176
     1
 90
        3
176
     1
 90
        0
176
     1
 90
        0
176
     1
290
     0
176
     1
 90
       13
176
     1
 40
0.0
176
     1
 90
        0
176
     1
290
     0
176
     1
290
     1
176
     1
290
     1
176
     1
290
     0
176
     1
290
     0
176
     1
290
     0
176
     1
290
     0
176
     1
290
     0
176
     1
290
     0
176
     1
 90
       50
176
     1
 40
0.0
176
     1
 40
1.0
176
     1
 90
        0
176
     1
 62
    18
420
        0
176
     1
 90
       50
176
     1
 90
        3
176
     1
 62
     5
420
      255
176
     1
290
     0
176
     1
 90
       50
176
     1
 90
       50
176
     1
 90
       50
176
     1
290
     0
176
     1
 90
       50
176
     1
 62
   256
176
     0
 40
1.0
176
     0
 90
        2
176
     1
  1
strokes_ogs.tif
176
     1
290
     0
176
     1
 40
1.0
176
     1
 40
1.0
176
     1
  0
DICTIONARYVAR
  5
5C4
102
{ACAD_REACTORS
330
5C3
102
}
330
5C3
100
DictionaryVariables
280
     0
  1
1:1
  0
DICTIONARYVAR
  5
5C9
102
{ACAD_REACTORS
330
5C3
102
}
330
5C3
100
DictionaryVariables
280
     0
  1
Standard
  0
DICTIONARYVAR
  5
5C8
102
{ACAD_REACTORS
330
5C3
102
}
330
5C3
100
DictionaryVariables
280
     0
  1
Standard
  0
DICTIONARYVAR
  5
5CA
102
{ACAD_REACTORS
330
5C3
102
}
330
5C3
100
DictionaryVariables
280
     0
  1
0
  0
DICTIONARY
  5
5C5
330
5BF
100
AcDbDictionary
280
     1
281
     1
  3
ACAD_ROUNDTRIP_2008_TABLESTYLE_CELLSTYLEMAP
360
5C6
  0
CELLSTYLEMAP
  5
5C6
102
{ACAD_REACTORS
330
5C5
102
}
330
5C5
100
AcDbCellStyleMap
 90
        3
300
CELLSTYLE
  1
TABLEFORMAT_BEGIN
 90
        5
170
     1
 91
        0
 92
    32768
 62
   257
 93
        1
300
CONTENTFORMAT
  1
CONTENTFORMAT_BEGIN
 90
        0
 91
        0
 92
        4
 93
        0
300

 40
0.0
140
1.0
 94
        5
 62
     0
340
11
144
6.0
309
CONTENTFORMAT_END
171
     1
301
MARGIN
  1
CELLMARGIN_BEGIN
 40
1.5
 40
1.5
 40
1.5
 40
1.5
 40
1.5
 40
1.5
309
CELLMARGIN_END
 94
        6
 95
        1
302
GRIDFORMAT
  1
GRIDFORMAT_BEGIN
 90
        0
 91
        1
 62
     0
 92
       -2
340
14
 93
        0
 40
0.045
309
GRIDFORMAT_END
 95
        2
302
GRIDFORMAT
  1
GRIDFORMAT_BEGIN
 90
        0
 91
        1
 62
     0
 92
       -2
340
14
 93
        0
 40
0.045
309
GRIDFORMAT_END
 95
        4
302
GRIDFORMAT
  1
GRIDFORMAT_BEGIN
 90
        0
 91
        1
 62
     0
 92
       -2
340
14
 93
        0
 40
0.045
309
GRIDFORMAT_END
 95
        8
302
GRIDFORMAT
  1
GRIDFORMAT_BEGIN
 90
        0
 91
        1
 62
     0
 92
       -2
340
14
 93
        0
 40
0.045
309
GRIDFORMAT_END
 95
       16
302
GRIDFORMAT
  1
GRIDFORMAT_BEGIN
 90
        0
 91
        1
 62
     0
 92
       -2
340
14
 93
        0
 40
0.045
309
GRIDFORMAT_END
 95
       32
302
GRIDFORMAT
  1
GRIDFORMAT_BEGIN
 90
        0
 91
        1
 62
     0
 92
       -2
340
14
 93
        0
 40
0.045
309
GRIDFORMAT_END
309
TABLEFORMAT_END
  1
CELLSTYLE_BEGIN
 90
        1
 91
        1
300
_TITLE
309
CELLSTYLE_END
300
CELLSTYLE
  1
TABLEFORMAT_BEGIN
 90
        5
170
     1
 91
        0
 92
        0
 62
   257
 93
        1
300
CONTENTFORMAT
  1
CONTENTFORMAT_BEGIN
 90
        0
 91
        0
 92
        4
 93
        0
300

 40
0.0
140
1.0
 94
        5
 62
     0
340
11
144
4.5
309
CONTENTFORMAT_END
171
     1
301
MARGIN
  1
CELLMARGIN_BEGIN
 40
1.5
 40
1.5
 40
1.5
 40
1.5
 40
1.5
 40
1.5
309
CELLMARGIN_END
 94
        6
 95
        1
302
GRIDFORMAT
  1
GRIDFORMAT_BEGIN
 90
        0
 91
        1
 62
     0
 92
       -2
340
14
 93
        0
 40
0.045
309
GRIDFORMAT_END
 95
        2
302
GRIDFORMAT
  1
GRIDFORMAT_BEGIN
 90
        0
 91
        1
 62
     0
 92
       -2
340
14
 93
        0
 40
0.045
309
GRIDFORMAT_END
 95
        4
302
GRIDFORMAT
  1
GRIDFORMAT_BEGIN
 90
        0
 91
        1
 62
     0
 92
       -2
340
14
 93
        0
 40
0.045
309
GRIDFORMAT_END
 95
        8
302
GRIDFORMAT
  1
GRIDFORMAT_BEGIN
 90
        0
 91
        1
 62
     0
 92
       -2
340
14
 93
        0
 40
0.045
309
GRIDFORMAT_END
 95
       16
302
GRIDFORMAT
  1
GRIDFORMAT_BEGIN
 90
        0
 91
        1
 62
     0
 92
       -2
340
14
 93
        0
 40
0.045
309
GRIDFORMAT_END
 95
       32
302
GRIDFORMAT
  1
GRIDFORMAT_BEGIN
 90
        0
 91
        1
 62
     0
 92
       -2
340
14
 93
        0
 40
0.045
309
GRIDFORMAT_END
309
TABLEFORMAT_END
  1
CELLSTYLE_BEGIN
 90
        2
 91
        1
300
_HEADER
309
CELLSTYLE_END
300
CELLSTYLE
  1
TABLEFORMAT_BEGIN
 90
        5
170
     1
 91
        0
 92
        0
 62
   257
 93
        1
300
CONTENTFORMAT
  1
CONTENTFORMAT_BEGIN
 90
        0
 91
        0
 92
        4
 93
        0
300

 40
0.0
140
1.0
 94
        2
 62
     0
340
11
144
4.5
309
CONTENTFORMAT_END
171
     1
301
MARGIN
  1
CELLMARGIN_BEGIN
 40
1.5
 40
1.5
 40
1.5
 40
1.5
 40
1.5
 40
1.5
309
CELLMARGIN_END
 94
        6
 95
        1
302
GRIDFORMAT
  1
GRIDFORMAT_BEGIN
 90
        0
 91
        1
 62
     0
 92
       -2
340
14
 93
        0
 40
0.045
309
GRIDFORMAT_END
 95
        2
302
GRIDFORMAT
  1
GRIDFORMAT_BEGIN
 90
        0
 91
        1
 62
     0
 92
       -2
340
14
 93
        0
 40
0.045
309
GRIDFORMAT_END
 95
        4
302
GRIDFORMAT
  1
GRIDFORMAT_BEGIN
 90
        0
 91
        1
 62
     0
 92
       -2
340
14
 93
        0
 40
0.045
309
GRIDFORMAT_END
 95
        8
302
GRIDFORMAT
  1
GRIDFORMAT_BEGIN
 90
        0
 91
        1
 62
     0
 92
       -2
340
14
 93
        0
 40
0.045
309
GRIDFORMAT_END
 95
       16
302
GRIDFORMAT
  1
GRIDFORMAT_BEGIN
 90
        0
 91
        1
 62
     0
 92
       -2
340
14
 93
        0
 40
0.045
309
GRIDFORMAT_END
 95
       32
302
GRIDFORMAT
  1
GRIDFORMAT_BEGIN
 90
        0
 91
        1
 62
     0
 92
       -2
340
14
 93
        0
 40
0.045
309
GRIDFORMAT_END
309
TABLEFORMAT_END
  1
CELLSTYLE_BEGIN
 90
        3
 91
        2
300
_DATA
309
CELLSTYLE_END
  0
ENDSEC
  0
EOF
