  0
SECTION
  2
HEADER
  9
$ACADVER
  1
AC1027
  9
$ACADMAINTVER
 70
   105
  9
$DWGCODEPAGE
  3
ANSI_1252
  9
$REQUIREDVERSIONS
160
                 0
  9
$LASTSAVEDBY
  1
andrea.zolin
  9
$INSBASE
 10
0.0
 20
0.0
 30
0.0
  9
$EXTMIN
 10
0.0
 20
0.0
 30
0.0
  9
$EXTMAX
 10
594.0
 20
420.0
 30
0.0
  9
$LIMMIN
 10
0.0
 20
0.0
  9
$LIMMAX
 10
594.0
 20
420.0
  9
$ORTHOMODE
 70
     0
  9
$REGENMODE
 70
     1
  9
$FILLMODE
 70
     1
  9
$QTEXTMODE
 70
     0
  9
$MIRRTEXT
 70
     1
  9
$LTSCALE
 40
32.67
  9
$ATTMODE
 70
     1
  9
$TEXTSIZE
 40
0.2
  9
$TRACEWID
 40
0.05
  9
$TEXTSTYLE
  7
STANDARD
  9
$CLAYER
  8
0
  9
$CELTYPE
  6
BYLAYER
  9
$CECOLOR
 62
   256
  9
$CELTSCALE
 40
1.0
  9
$DISPSILH
 70
     0
  9
$DIMSCALE
 40
1.0
  9
$DIMASZ
 40
2.5
  9
$DIMEXO
 40
0.75
  9
$DIMDLI
 40
22.572
  9
$DIMRND
 40
0.0
  9
$DIMDLE
 40
0.0
  9
$DIMEXE
 40
0.75
  9
$DIMTP
 40
0.01
  9
$DIMTM
 40
0.01
  9
$DIMTXT
 40
3.0
  9
$DIMCEN
 40
5.346
  9
$DIMTSZ
 40
0.0
  9
$DIMTOL
 70
     1
  9
$DIMLIM
 70
     0
  9
$DIMTIH
 70
     1
  9
$DIMTOH
 70
     1
  9
$DIMSE1
 70
     0
  9
$DIMSE2
 70
     0
  9
$DIMTAD
 70
     0
  9
$DIMZIN
 70
     0
  9
$DIMBLK
  1
CLOSED
  9
$DIMASO
 70
     1
  9
$DIMSHO
 70
     1
  9
$DIMPOST
  1

  9
$DIMAPOST
  1

  9
$DIMALT
 70
     0
  9
$DIMALTD
 70
     2
  9
$DIMALTF
 40
25.4
  9
$DIMLFAC
 40
1.0
  9
$DIMTOFL
 70
     0
  9
$DIMTVP
 40
0.0
  9
$DIMTIX
 70
     0
  9
$DIMSOXD
 70
     0
  9
$DIMSAH
 70
     0
  9
$DIMBLK1
  1

  9
$DIMBLK2
  1

  9
$DIMSTYLE
  2
STANDARD
  9
$DIMCLRD
 70
     0
  9
$DIMCLRE
 70
     0
  9
$DIMCLRT
 70
     0
  9
$DIMTFAC
 40
1.0
  9
$DIMGAP
 40
0.625
  9
$DIMJUST
 70
     0
  9
$DIMSD1
 70
     0
  9
$DIMSD2
 70
     0
  9
$DIMTOLJ
 70
     1
  9
$DIMTZIN
 70
     0
  9
$DIMALTZ
 70
     0
  9
$DIMALTTZ
 70
     0
  9
$DIMUPT
 70
     0
  9
$DIMDEC
 70
     4
  9
$DIMTDEC
 70
     4
  9
$DIMALTU
 70
     2
  9
$DIMALTTD
 70
     2
  9
$DIMTXSTY
  7
STANDARD
  9
$DIMAUNIT
 70
     0
  9
$DIMADEC
 70
     0
  9
$DIMALTRND
 40
0.0
  9
$DIMAZIN
 70
     0
  9
$DIMDSEP
 70
    44
  9
$DIMATFIT
 70
     3
  9
$DIMFRAC
 70
     0
  9
$DIMLDRBLK
  1

  9
$DIMLUNIT
 70
     2
  9
$DIMLWD
 70
    -2
  9
$DIMLWE
 70
    -2
  9
$DIMTMOVE
 70
     0
  9
$DIMFXL
 40
1.0
  9
$DIMFXLON
 70
     0
  9
$DIMJOGANG
 40
0.7853981633974483
  9
$DIMTFILL
 70
     0
  9
$DIMTFILLCLR
 70
     0
  9
$DIMARCSYM
 70
     0
  9
$DIMLTYPE
  6

  9
$DIMLTEX1
  6

  9
$DIMLTEX2
  6

  9
$DIMTXTDIRECTION
 70
     0
  9
$LUNITS
 70
     2
  9
$LUPREC
 70
     4
  9
$SKETCHINC
 40
0.1
  9
$FILLETRAD
 40
0.5
  9
$AUNITS
 70
     0
  9
$AUPREC
 70
     0
  9
$MENU
  1
.
  9
$ELEVATION
 40
0.0
  9
$PELEVATION
 40
0.0
  9
$THICKNESS
 40
0.0
  9
$LIMCHECK
 70
     0
  9
$CHAMFERA
 40
0.0
  9
$CHAMFERB
 40
0.0
  9
$CHAMFERC
 40
0.0
  9
$CHAMFERD
 40
0.0
  9
$SKPOLY
 70
     0
  9
$TDCREATE
 40
2447893.041666667
  9
$TDUCREATE
 40
0.0
  9
$TDUPDATE
 40
2458495.328675486
  9
$TDUUPDATE
 40
2458495.28700882
  9
$TDINDWG
 40
0.0001579861
  9
$TDUSRTIMER
 40
0.0001579861
  9
$USRTIMER
 70
     1
  9
$ANGBASE
 50
0.0
  9
$ANGDIR
 70
     0
  9
$PDMODE
 70
     3
  9
$PDSIZE
 40
0.3125
  9
$PLINEWID
 40
0.0
  9
$SPLFRAME
 70
     0
  9
$SPLINETYPE
 70
     6
  9
$SPLINESEGS
 70
     8
  9
$HANDSEED
  5
51C
  9
$SURFTAB1
 70
     6
  9
$SURFTAB2
 70
     6
  9
$SURFTYPE
 70
     6
  9
$SURFU
 70
     6
  9
$SURFV
 70
     6
  9
$UCSBASE
  2

  9
$UCSNAME
  2

  9
$UCSORG
 10
0.0
 20
0.0
 30
0.0
  9
$UCSXDIR
 10
1.0
 20
0.0
 30
0.0
  9
$UCSYDIR
 10
0.0
 20
1.0
 30
0.0
  9
$UCSORTHOREF
  2

  9
$UCSORTHOVIEW
 70
     0
  9
$UCSORGTOP
 10
0.0
 20
0.0
 30
0.0
  9
$UCSORGBOTTOM
 10
0.0
 20
0.0
 30
0.0
  9
$UCSORGLEFT
 10
0.0
 20
0.0
 30
0.0
  9
$UCSORGRIGHT
 10
0.0
 20
0.0
 30
0.0
  9
$UCSORGFRONT
 10
0.0
 20
0.0
 30
0.0
  9
$UCSORGBACK
 10
0.0
 20
0.0
 30
0.0
  9
$PUCSBASE
  2

  9
$PUCSNAME
  2

  9
$PUCSORG
 10
0.0
 20
0.0
 30
0.0
  9
$PUCSXDIR
 10
1.0
 20
0.0
 30
0.0
  9
$PUCSYDIR
 10
0.0
 20
1.0
 30
0.0
  9
$PUCSORTHOREF
  2

  9
$PUCSORTHOVIEW
 70
     0
  9
$PUCSORGTOP
 10
0.0
 20
0.0
 30
0.0
  9
$PUCSORGBOTTOM
 10
0.0
 20
0.0
 30
0.0
  9
$PUCSORGLEFT
 10
0.0
 20
0.0
 30
0.0
  9
$PUCSORGRIGHT
 10
0.0
 20
0.0
 30
0.0
  9
$PUCSORGFRONT
 10
0.0
 20
0.0
 30
0.0
  9
$PUCSORGBACK
 10
0.0
 20
0.0
 30
0.0
  9
$USERI1
 70
     0
  9
$USERI2
 70
     0
  9
$USERI3
 70
     0
  9
$USERI4
 70
     0
  9
$USERI5
 70
     0
  9
$USERR1
 40
0.0
  9
$USERR2
 40
0.0
  9
$USERR3
 40
0.0
  9
$USERR4
 40
0.0
  9
$USERR5
 40
0.0
  9
$WORLDVIEW
 70
     1
  9
$SHADEDGE
 70
     3
  9
$SHADEDIF
 70
    70
  9
$TILEMODE
 70
     0
  9
$MAXACTVP
 70
    64
  9
$PINSBASE
 10
0.0
 20
0.0
 30
0.0
  9
$PLIMCHECK
 70
     0
  9
$PEXTMIN
 10
0.0
 20
0.0
 30
0.0
  9
$PEXTMAX
 10
594.0
 20
420.0
 30
0.0
  9
$PLIMMIN
 10
0.0
 20
0.0
  9
$PLIMMAX
 10
594.0
 20
420.0
  9
$UNITMODE
 70
     0
  9
$VISRETAIN
 70
     1
  9
$PLINEGEN
 70
     0
  9
$PSLTSCALE
 70
     1
  9
$TREEDEPTH
 70
  3020
  9
$CMLSTYLE
  2
Standard
  9
$CMLJUST
 70
     0
  9
$CMLSCALE
 40
1.0
  9
$PROXYGRAPHICS
 70
     1
  9
$MEASUREMENT
 70
     1
  9
$CELWEIGHT
370
    -1
  9
$ENDCAPS
280
     0
  9
$JOINSTYLE
280
     0
  9
$LWDISPLAY
290
     0
  9
$INSUNITS
 70
     4
  9
$HYPERLINKBASE
  1

  9
$STYLESHEET
  1

  9
$XEDIT
290
     1
  9
$CEPSNTYPE
380
     0
  9
$PSTYLEMODE
290
     1
  9
$FINGERPRINTGUID
  2
{B2342EEC-B3D4-4C80-931F-747EB629A173}
  9
$VERSIONGUID
  2
{FAEB1C32-E019-11D5-929B-00C0DF256EC4}
  9
$EXTNAMES
290
     1
  9
$PSVPSCALE
 40
0.0
  9
$OLESTARTUP
290
     0
  9
$SORTENTS
280
   127
  9
$INDEXCTL
280
     0
  9
$HIDETEXT
280
     1
  9
$XCLIPFRAME
280
     2
  9
$HALOGAP
280
     0
  9
$OBSCOLOR
 70
   257
  9
$OBSLTYPE
280
     0
  9
$INTERSECTIONDISPLAY
280
     0
  9
$INTERSECTIONCOLOR
 70
   257
  9
$DIMASSOC
280
     2
  9
$PROJECTNAME
  1

  9
$CAMERADISPLAY
290
     0
  9
$LENSLENGTH
 40
50.0
  9
$CAMERAHEIGHT
 40
0.0
  9
$STEPSPERSEC
 40
2.0
  9
$STEPSIZE
 40
6.0
  9
$3DDWFPREC
 40
2.0
  9
$PSOLWIDTH
 40
0.25
  9
$PSOLHEIGHT
 40
4.0
  9
$LOFTANG1
 40
1.570796326794897
  9
$LOFTANG2
 40
1.570796326794897
  9
$LOFTMAG1
 40
0.0
  9
$LOFTMAG2
 40
0.0
  9
$LOFTPARAM
 70
     7
  9
$LOFTNORMALS
280
     1
  9
$LATITUDE
 40
37.795
  9
$LONGITUDE
 40
-122.394
  9
$NORTHDIRECTION
 40
0.0
  9
$TIMEZONE
 70
 -8000
  9
$LIGHTGLYPHDISPLAY
280
     1
  9
$TILEMODELIGHTSYNCH
280
     1
  9
$SOLIDHIST
280
     0
  9
$SHOWHIST
280
     1
  9
$DWFFRAME
280
     2
  9
$DGNFRAME
280
     2
  9
$REALWORLDSCALE
290
     1
  9
$INTERFERECOLOR
 62
   256
  9
$CSHADOW
280
     0
  9
$SHADOWPLANELOCATION
 40
0.0
  0
ENDSEC
  0
SECTION
  2
CLASSES
  0
CLASS
  1
ACDBDICTIONARYWDFLT
  2
AcDbDictionaryWithDefault
  3
ObjectDBX Classes
 90
        0
 91
        4
280
     0
281
     0
  0
CLASS
  1
ACDBPLACEHOLDER
  2
AcDbPlaceHolder
  3
ObjectDBX Classes
 90
        0
 91
        1
280
     0
281
     0
  0
CLASS
  1
LAYOUT
  2
AcDbLayout
  3
ObjectDBX Classes
 90
        0
 91
        1
280
     0
281
     0
  0
CLASS
  1
TABLESTYLE
  2
AcDbTableStyle
  3
ObjectDBX Classes
 90
     4095
 91
        4
280
     0
281
     0
  0
CLASS
  1
ACAD_TABLE
  2
AcDbTable
  3
ObjectDBX Classes
 90
     1025
 91
        4
280
     0
281
     1
  0
CLASS
  1
SCALE
  2
AcDbScale
  3
ObjectDBX Classes
 90
     1153
 91
        4
280
     0
281
     0
  0
CLASS
  1
VISUALSTYLE
  2
AcDbVisualStyle
  3
ObjectDBX Classes
 90
     4095
 91
        4
280
     0
281
     0
  0
CLASS
  1
TABLEGEOMETRY
  2
AcDbTableGeometry
  3
ObjectDBX Classes
 90
     1152
 91
        4
280
     0
281
     0
  0
CLASS
  1
MATERIAL
  2
AcDbMaterial
  3
ObjectDBX Classes
 90
     1153
 91
        4
280
     0
281
     0
  0
CLASS
  1
MLEADERSTYLE
  2
AcDbMLeaderStyle
  3
ACDB_MLEADERSTYLE_CLASS
 90
     4095
 91
        4
280
     0
281
     0
  0
CLASS
  1
SUN
  2
AcDbSun
  3
SCENEOE
 90
     1153
 91
        4
280
     0
281
     0
  0
CLASS
  1
DICTIONARYVAR
  2
AcDbDictionaryVar
  3
ObjectDBX Classes
 90
        0
 91
        4
280
     0
281
     0
  0
CLASS
  1
CELLSTYLEMAP
  2
AcDbCellStyleMap
  3
ObjectDBX Classes
 90
     1152
 91
        4
280
     0
281
     0
  0
ENDSEC
  0
SECTION
  2
TABLES
  0
TABLE
  2
VPORT
  5
8
330
0
100
AcDbSymbolTable
 70
     1
  0
VPORT
  5
1F4
330
8
100
AcDbSymbolTableRecord
100
AcDbViewportTableRecord
  2
*ACTIVE
 70
     0
 10
0.0
 20
0.0
 11
1.0
 21
1.0
 12
297.0
 22
210.0
 13
0.0
 23
0.0
 14
1.0
 24
1.0
 15
0.0
 25
0.0
 16
0.0
 26
0.0
 36
1.0
 17
0.0
 27
0.0
 37
0.0
 40
420.0
 41
1.4142857143
 42
50.0
 43
0.0
 44
0.0
 50
0.0
 51
0.0
 71
     0
 72
   100
 73
     1
 74
     1
 75
     0
 76
     0
 77
     0
 78
     0
281
     0
 65
     1
110
0.0
120
0.0
130
0.0
111
1.0
121
0.0
131
0.0
112
0.0
122
1.0
132
0.0
 79
     0
146
0.0
348
4F4
 60
     3
 61
     5
292
     1
282
     1
141
0.0
142
0.0
 63
   256
  0
ENDTAB
  0
TABLE
  2
LTYPE
  5
5
330
0
100
AcDbSymbolTable
 70
     6
  0
LTYPE
  5
14
330
5
100
AcDbSymbolTableRecord
100
AcDbLinetypeTableRecord
  2
BYBLOCK
 70
     0
  3

 72
    65
 73
     0
 40
0.0
  0
LTYPE
  5
15
330
5
100
AcDbSymbolTableRecord
100
AcDbLinetypeTableRecord
  2
BYLAYER
 70
     0
  3

 72
    65
 73
     0
 40
0.0
  0
LTYPE
  5
16
330
5
100
AcDbSymbolTableRecord
100
AcDbLinetypeTableRecord
  2
CONTINUOUS
 70
     0
  3
Solid line
 72
    65
 73
     0
 40
0.0
  0
LTYPE
  5
1F5
330
5
100
AcDbSymbolTableRecord
100
AcDbLinetypeTableRecord
  2
CENTER
 70
     0
  3
____ _ ____ _ ____ _ ____ _ ____ _ ____ _ ____
 72
    65
 73
     4
 40
0.6
 49
0.375
 74
     0
 49
-0.075
 74
     0
 49
0.075
 74
     0
 49
-0.075
 74
     0
  0
LTYPE
  5
1F6
330
5
100
AcDbSymbolTableRecord
100
AcDbLinetypeTableRecord
  2
HIDDEN
 70
     0
  3
- - - - - - - - - - - - - - - - - - - -
 72
    65
 73
     2
 40
0.2
 49
0.1
 74
     0
 49
-0.1
 74
     0
  0
LTYPE
  5
1F7
330
5
100
AcDbSymbolTableRecord
100
AcDbLinetypeTableRecord
  2
PHANTOM
 70
     0
  3
_____ _ _ _____ _ _ _____ _ _ _____
 72
    65
 73
     6
 40
0.8
 49
0.45
 74
     0
 49
-0.05
 74
     0
 49
0.1
 74
     0
 49
-0.05
 74
     0
 49
0.1
 74
     0
 49
-0.05
 74
     0
  0
LTYPE
  5
1F8
330
5
100
AcDbSymbolTableRecord
100
AcDbLinetypeTableRecord
  2
DOT
 70
     0
  3
. . . . . . . . . . . . . . . . . . . .
 72
    65
 73
     2
 40
0.2
 49
0.1
 74
     0
 49
-0.1
 74
     0
  0
LTYPE
  5
1F9
330
5
100
AcDbSymbolTableRecord
100
AcDbLinetypeTableRecord
  2
DASHED
 70
     0
  3
- - - - - - - - - - - - - - - - - - - -
 72
    65
 73
     2
 40
0.2
 49
0.1
 74
     0
 49
-0.1
 74
     0
  0
ENDTAB
  0
TABLE
  2
LAYER
  5
2
330
0
100
AcDbSymbolTable
 70
    40
  0
LAYER
  5
10
330
2
100
AcDbSymbolTableRecord
100
AcDbLayerTableRecord
  2
0
 70
     0
 62
     7
  6
CONTINUOUS
370
    -3
390
F
347
50C
348
0
  0
LAYER
  5
1FA
330
2
100
AcDbSymbolTableRecord
100
AcDbLayerTableRecord
  2
DEFAULT_1
 70
     0
 62
     7
  6
CENTER
370
    -3
390
F
347
50C
348
0
  0
LAYER
  5
1FB
330
2
100
AcDbSymbolTableRecord
100
AcDbLayerTableRecord
  2
DEFAULT_2
 70
     0
 62
     8
  6
HIDDEN
370
    -3
390
F
347
50C
348
0
  0
LAYER
  5
1FC
330
2
100
AcDbSymbolTableRecord
100
AcDbLayerTableRecord
  2
DEFAULT_3
 70
     0
 62
     7
  6
PHANTOM
370
    -3
390
F
347
50C
348
0
  0
LAYER
  5
1FD
330
2
100
AcDbSymbolTableRecord
100
AcDbLayerTableRecord
  2
01_ALL_DTM_PLN
 70
     0
 62
     7
  6
CONTINUOUS
370
    -3
390
F
347
50C
348
0
  0
LAYER
  5
1FE
330
2
100
AcDbSymbolTableRecord
100
AcDbLayerTableRecord
  2
01__ASM_ALL_DTM_PLN
 70
     0
 62
     7
  6
CONTINUOUS
370
    -3
390
F
347
50C
348
0
  0
LAYER
  5
1FF
330
2
100
AcDbSymbolTableRecord
100
AcDbLayerTableRecord
  2
01__ASM_DEF_DTM_PLN
 70
     0
 62
     7
  6
CONTINUOUS
370
    -3
390
F
347
50C
348
0
  0
LAYER
  5
200
330
2
100
AcDbSymbolTableRecord
100
AcDbLayerTableRecord
  2
01___PRT_ALL_DTM_PLN
 70
     0
 62
     7
  6
CONTINUOUS
370
    -3
390
F
347
50C
348
0
  0
LAYER
  5
201
330
2
100
AcDbSymbolTableRecord
100
AcDbLayerTableRecord
  2
01___PRT_DEF_DTM_PLN
 70
     0
 62
     7
  6
CONTINUOUS
370
    -3
390
F
347
50C
348
0
  0
LAYER
  5
202
330
2
100
AcDbSymbolTableRecord
100
AcDbLayerTableRecord
  2
02_ALL_AXES
 70
     0
 62
     7
  6
CONTINUOUS
370
    -3
390
F
347
50C
348
0
  0
LAYER
  5
203
330
2
100
AcDbSymbolTableRecord
100
AcDbLayerTableRecord
  2
02__ASM_ALL_AXES
 70
     0
 62
     7
  6
CONTINUOUS
370
    -3
390
F
347
50C
348
0
  0
LAYER
  5
204
330
2
100
AcDbSymbolTableRecord
100
AcDbLayerTableRecord
  2
02___PRT_ALL_AXES
 70
     0
 62
     7
  6
CONTINUOUS
370
    -3
390
F
347
50C
348
0
  0
LAYER
  5
205
330
2
100
AcDbSymbolTableRecord
100
AcDbLayerTableRecord
  2
03_ALL_CURVES
 70
     0
 62
     7
  6
CONTINUOUS
370
    -3
390
F
347
50C
348
0
  0
LAYER
  5
206
330
2
100
AcDbSymbolTableRecord
100
AcDbLayerTableRecord
  2
03__ASM_ALL_CURVES
 70
     0
 62
     7
  6
CONTINUOUS
370
    -3
390
F
347
50C
348
0
  0
LAYER
  5
207
330
2
100
AcDbSymbolTableRecord
100
AcDbLayerTableRecord
  2
03___PRT_ALL_CURVES
 70
     0
 62
     7
  6
CONTINUOUS
370
    -3
390
F
347
50C
348
0
  0
LAYER
  5
208
330
2
100
AcDbSymbolTableRecord
100
AcDbLayerTableRecord
  2
04_ALL_DTM_PNT
 70
     0
 62
     7
  6
CONTINUOUS
370
    -3
390
F
347
50C
348
0
  0
LAYER
  5
209
330
2
100
AcDbSymbolTableRecord
100
AcDbLayerTableRecord
  2
04__ASM_ALL_DTM_PNT
 70
     0
 62
     7
  6
CONTINUOUS
370
    -3
390
F
347
50C
348
0
  0
LAYER
  5
20A
330
2
100
AcDbSymbolTableRecord
100
AcDbLayerTableRecord
  2
04___PRT_ALL_DTM_PNT
 70
     0
 62
     7
  6
CONTINUOUS
370
    -3
390
F
347
50C
348
0
  0
LAYER
  5
20B
330
2
100
AcDbSymbolTableRecord
100
AcDbLayerTableRecord
  2
05_ALL_DTM_CSYS
 70
     0
 62
     7
  6
CONTINUOUS
370
    -3
390
F
347
50C
348
0
  0
LAYER
  5
20C
330
2
100
AcDbSymbolTableRecord
100
AcDbLayerTableRecord
  2
05__ASM_ALL_DTM_CSYS
 70
     0
 62
     7
  6
CONTINUOUS
370
    -3
390
F
347
50C
348
0
  0
LAYER
  5
20D
330
2
100
AcDbSymbolTableRecord
100
AcDbLayerTableRecord
  2
05__ASM_DEF_DTM_CSYS
 70
     0
 62
     7
  6
CONTINUOUS
370
    -3
390
F
347
50C
348
0
  0
LAYER
  5
20E
330
2
100
AcDbSymbolTableRecord
100
AcDbLayerTableRecord
  2
05___PRT_ALL_DTM_CSYS
 70
     0
 62
     7
  6
CONTINUOUS
370
    -3
390
F
347
50C
348
0
  0
LAYER
  5
20F
330
2
100
AcDbSymbolTableRecord
100
AcDbLayerTableRecord
  2
05___PRT_DEF_DTM_CSYS
 70
     0
 62
     7
  6
CONTINUOUS
370
    -3
390
F
347
50C
348
0
  0
LAYER
  5
210
330
2
100
AcDbSymbolTableRecord
100
AcDbLayerTableRecord
  2
06_ALL_SURFS
 70
     0
 62
     7
  6
CONTINUOUS
370
    -3
390
F
347
50C
348
0
  0
LAYER
  5
211
330
2
100
AcDbSymbolTableRecord
100
AcDbLayerTableRecord
  2
06__ASM_ALL_SURFS
 70
     0
 62
     7
  6
CONTINUOUS
370
    -3
390
F
347
50C
348
0
  0
LAYER
  5
212
330
2
100
AcDbSymbolTableRecord
100
AcDbLayerTableRecord
  2
06___PRT_ALL_SURFS
 70
     0
 62
     7
  6
CONTINUOUS
370
    -3
390
F
347
50C
348
0
  0
LAYER
  5
213
330
2
100
AcDbSymbolTableRecord
100
AcDbLayerTableRecord
  2
07__ASM_ALL_SKELETONS
 70
     0
 62
     7
  6
CONTINUOUS
370
    -3
390
F
347
50C
348
0
  0
LAYER
  5
214
330
2
100
AcDbSymbolTableRecord
100
AcDbLayerTableRecord
  2
1_ALL_PLANES
 70
     0
 62
     7
  6
CONTINUOUS
370
    -3
390
F
347
50C
348
0
  0
LAYER
  5
215
330
2
100
AcDbSymbolTableRecord
100
AcDbLayerTableRecord
  2
2_ALL_CSYS
 70
     0
 62
     7
  6
CONTINUOUS
370
    -3
390
F
347
50C
348
0
  0
LAYER
  5
216
330
2
100
AcDbSymbolTableRecord
100
AcDbLayerTableRecord
  2
3_ALL_AXES
 70
     0
 62
     7
  6
CONTINUOUS
370
    -3
390
F
347
50C
348
0
  0
LAYER
  5
217
330
2
100
AcDbSymbolTableRecord
100
AcDbLayerTableRecord
  2
4_ALL_POINTS
 70
     0
 62
     7
  6
CONTINUOUS
370
    -3
390
F
347
50C
348
0
  0
LAYER
  5
218
330
2
100
AcDbSymbolTableRecord
100
AcDbLayerTableRecord
  2
5_ALL_CURVES
 70
     0
 62
     7
  6
CONTINUOUS
370
    -3
390
F
347
50C
348
0
  0
LAYER
  5
219
330
2
100
AcDbSymbolTableRecord
100
AcDbLayerTableRecord
  2
5__COSTRUZIONE
 70
     0
 62
     7
  6
CONTINUOUS
370
    -3
390
F
347
50C
348
0
  0
LAYER
  5
21A
330
2
100
AcDbSymbolTableRecord
100
AcDbLayerTableRecord
  2
6_ALL_SURFS
 70
     0
 62
     7
  6
CONTINUOUS
370
    -3
390
F
347
50C
348
0
  0
LAYER
  5
21B
330
2
100
AcDbSymbolTableRecord
100
AcDbLayerTableRecord
  2
7_ALL_FEATURES
 70
     0
 62
     7
  6
CONTINUOUS
370
    -3
390
F
347
50C
348
0
  0
LAYER
  5
21C
330
2
100
AcDbSymbolTableRecord
100
AcDbLayerTableRecord
  2
9_SOLID
 70
     0
 62
     7
  6
CONTINUOUS
370
    -3
390
F
347
50C
348
0
  0
LAYER
  5
21D
330
2
100
AcDbSymbolTableRecord
100
AcDbLayerTableRecord
  2
INTFCLR_2
 70
     0
 62
     7
  6
CONTINUOUS
370
    -3
390
F
347
50C
348
0
  0
LAYER
  5
21E
330
2
100
AcDbSymbolTableRecord
100
AcDbLayerTableRecord
  2
INTFCLR_4
 70
     0
 62
     7
  6
CONTINUOUS
370
    -3
390
F
347
50C
348
0
  0
LAYER
  5
21F
330
2
100
AcDbSymbolTableRecord
100
AcDbLayerTableRecord
  2
INTF_RED
 70
     0
 62
     7
  6
CONTINUOUS
370
    -3
390
F
347
50C
348
0
  0
LAYER
  5
220
330
2
100
AcDbSymbolTableRecord
100
AcDbLayerTableRecord
  2
XXX_SOLIDO
 70
     0
 62
     7
  6
CONTINUOUS
370
    -3
390
F
347
50C
348
0
  0
ENDTAB
  0
TABLE
  2
STYLE
  5
3
330
0
100
AcDbSymbolTable
 70
     6
  0
STYLE
  5
11
330
3
100
AcDbSymbolTableRecord
100
AcDbTextStyleTableRecord
  2
STANDARD
 70
     0
 40
0.0
 41
1.0
 50
0.0
 71
     0
 42
0.2
  3
arial.ttf
  4

  0
STYLE
  5
221
330
3
100
AcDbSymbolTableRecord
100
AcDbTextStyleTableRecord
  2
TEXTSTYLE_1
 70
     0
 40
0.0
 41
0.8
 50
0.0
 71
     0
 42
0.2
  3
gdt
  4

  0
STYLE
  5
222
330
3
100
AcDbSymbolTableRecord
100
AcDbTextStyleTableRecord
  2
TEXTSTYLE_2
 70
     0
 40
0.0
 41
0.9
 50
0.0
 71
     0
 42
0.2
  3
txt
  4

  0
STYLE
  5
223
330
3
100
AcDbSymbolTableRecord
100
AcDbTextStyleTableRecord
  2
TEXTSTYLE_3
 70
     0
 40
0.0
 41
0.9
 50
0.0
 71
     0
 42
0.2
  3
txt
  4

  0
STYLE
  5
224
330
3
100
AcDbSymbolTableRecord
100
AcDbTextStyleTableRecord
  2
TEXTSTYLE_4
 70
     0
 40
0.0
 41
2.0
 50
0.0
 71
     0
 42
0.2
  3
txt
  4

  0
STYLE
  5
225
330
3
100
AcDbSymbolTableRecord
100
AcDbTextStyleTableRecord
  2
TEXTSTYLE_5
 70
     0
 40
0.0
 41
0.85
 50
0.0
 71
     0
 42
0.2
  3
txt
  4

  0
ENDTAB
  0
TABLE
  2
VIEW
  5
6
330
0
100
AcDbSymbolTable
 70
     0
  0
ENDTAB
  0
TABLE
  2
UCS
  5
7
330
0
100
AcDbSymbolTable
 70
     0
  0
ENDTAB
  0
TABLE
  2
APPID
  5
9
330
0
100
AcDbSymbolTable
 70
     1
  0
APPID
  5
226
330
9
100
AcDbSymbolTableRecord
100
AcDbRegAppTableRecord
  2
ACAD
 70
     0
  0
ENDTAB
  0
TABLE
  2
DIMSTYLE
  5
A
330
0
100
AcDbSymbolTable
 70
     3
100
AcDbDimStyleTable
  0
DIMSTYLE
105
230
330
A
100
AcDbSymbolTableRecord
100
AcDbDimStyleTableRecord
  2
STANDARD
 70
     0
 41
2.5
 42
0.75
 44
0.75
 47
0.01
 48
0.01
 71
     1
 73
     0
 74
     0
 77
     1
 78
     8
 79
     2
140
3.0
147
0.625
171
     1
178
     0
179
     2
271
     2
272
     2
278
    44
284
     8
340
11
341
229
342
229
343
229
344
229
  0
DIMSTYLE
105
231
330
A
100
AcDbSymbolTableRecord
100
AcDbDimStyleTableRecord
  2
DIMSTYLE_1
 70
     0
 41
2.5
 42
0.75
 44
0.75
 47
0.5
 48
0.5
 73
     0
 74
     0
 77
     1
 78
     8
 79
     2
140
3.0
147
0.75
171
     1
178
     0
179
     2
271
     2
272
     2
278
    44
284
     8
340
11
341
229
342
229
343
229
344
229
  0
DIMSTYLE
105
232
330
A
100
AcDbSymbolTableRecord
100
AcDbDimStyleTableRecord
  2
DIMSTYLE_2
 70
     0
 41
2.5
 42
0.75
 44
0.75
 47
0.3
 48
0.3
 73
     0
 74
     0
 77
     1
 78
     8
 79
     2
140
3.0
147
0.75
171
     1
178
     0
179
     2
271
     2
272
     2
278
    44
284
     8
340
11
341
229
342
229
343
229
344
229
  0
ENDTAB
  0
TABLE
  2
BLOCK_RECORD
  5
1
330
0
100
AcDbSymbolTable
 70
     7
  0
BLOCK_RECORD
  5
227
330
1
100
AcDbSymbolTableRecord
100
AcDbBlockTableRecord
  2
*Model_Space
340
4C9
 70
     0
280
     1
281
     0
  0
BLOCK_RECORD
  5
228
330
1
100
AcDbSymbolTableRecord
100
AcDbBlockTableRecord
  2
*Paper_Space
340
4CA
 70
     0
280
     1
281
     0
  0
BLOCK_RECORD
  5
229
330
1
100
AcDbSymbolTableRecord
100
AcDbBlockTableRecord
  2
_CLOSED
340
0
102
{BLKREFS
331
285
331
286
331
28E
331
28F
331
297
331
298
102
}
 70
     0
280
     1
281
     0
  0
BLOCK_RECORD
  5
22A
330
1
100
AcDbSymbolTableRecord
100
AcDbBlockTableRecord
  2
*D1
340
0
 70
     0
280
     1
281
     0
  0
BLOCK_RECORD
  5
22B
330
1
100
AcDbSymbolTableRecord
100
AcDbBlockTableRecord
  2
*D2
340
0
 70
     0
280
     1
281
     0
  0
BLOCK_RECORD
  5
22C
330
1
100
AcDbSymbolTableRecord
100
AcDbBlockTableRecord
  2
*D3
340
0
 70
     0
280
     1
281
     0
  0
BLOCK_RECORD
  5
22D
330
1
100
AcDbSymbolTableRecord
100
AcDbBlockTableRecord
  2
LOGO2_BL1
340
0
102
{BLKREFS
331
4C6
102
}
 70
     0
280
     1
281
     0
  0
BLOCK_RECORD
  5
22E
330
1
100
AcDbSymbolTableRecord
100
AcDbBlockTableRecord
  2
PROIEZIONE_EU_BL0
340
0
102
{BLKREFS
331
4C5
102
}
 70
     0
280
     1
281
     0
  0
BLOCK_RECORD
  5
22F
330
1
100
AcDbSymbolTableRecord
100
AcDbBlockTableRecord
  2
*T6
340
0
102
{BLKREFS
331
4C7
102
}
 70
     0
280
     1
281
     0
  0
ENDTAB
  0
ENDSEC
  0
SECTION
  2
BLOCKS
  0
BLOCK
  5
20
330
227
100
AcDbEntity
  8
0
100
AcDbBlockBegin
  2
*Model_Space
 70
     0
 10
0.0
 20
0.0
 30
0.0
  3
*Model_Space
  1

  0
ENDBLK
  5
21
330
227
100
AcDbEntity
  8
0
100
AcDbBlockEnd
  0
BLOCK
  5
1C
330
228
100
AcDbEntity
 67
     1
  8
0
100
AcDbBlockBegin
  2
*Paper_Space
 70
     0
 10
0.0
 20
0.0
 30
0.0
  3
*Paper_Space
  1

  0
ENDBLK
  5
1D
330
228
100
AcDbEntity
 67
     1
  8
0
100
AcDbBlockEnd
  0
BLOCK
  5
279
330
229
100
AcDbEntity
  8
0
100
AcDbBlockBegin
  2
_CLOSED
 70
     0
 10
0.0
 20
0.0
 30
0.0
  3
_CLOSED
  1

  0
LINE
  5
27A
330
229
100
AcDbEntity
  8
0
  6
ByBlock
 62
     0
100
AcDbLine
 10
0.0
 20
0.0
 30
0.0
 11
-1.0
 21
0.2
 31
0.0
  0
LINE
  5
27B
330
229
100
AcDbEntity
  8
0
  6
ByBlock
 62
     0
100
AcDbLine
 10
-1.0
 20
0.2
 30
0.0
 11
-1.0
 21
-0.2
 31
0.0
  0
LINE
  5
27C
330
229
100
AcDbEntity
  8
0
  6
ByBlock
 62
     0
100
AcDbLine
 10
-1.0
 20
-0.2
 30
0.0
 11
0.0
 21
0.0
 31
0.0
  0
LINE
  5
27D
330
229
100
AcDbEntity
  8
0
  6
ByBlock
 62
     0
100
AcDbLine
 10
-1.0
 20
0.0
 30
0.0
 11
0.0
 21
0.0
 31
0.0
  0
ENDBLK
  5
27E
330
229
100
AcDbEntity
  8
0
  6
ByBlock
 62
     0
100
AcDbBlockEnd
  0
BLOCK
  5
27F
330
22A
100
AcDbEntity
  8
0
100
AcDbBlockBegin
  2
*D1
 70
     1
 10
0.0
 20
0.0
 30
0.0
  3
*D1
  1

  0
MTEXT
  5
280
330
22A
100
AcDbEntity
  8
0
  6
Continuous
 62
     2
100
AcDbMText
 10
201.7172053232
 20
362.5523098785
 30
0.0
 40
3.0
 41
10.4832713755
 46
0.0
 71
     2
 72
     1
  1
321,5
 73
     1
 44
0.9
  0
LINE
  5
281
330
22A
100
AcDbEntity
  8
0
  6
Continuous
 62
     2
100
AcDbLine
 10
40.9672053232
 20
337.699168251
 30
0.0
 11
40.9672053232
 21
359.5523098785
 31
0.0
  0
LINE
  5
282
330
22A
100
AcDbEntity
  8
0
  6
Continuous
 62
     2
100
AcDbLine
 10
362.4672053232
 20
326.699168251
 30
0.0
 11
362.4672053232
 21
359.5523098785
 31
0.0
  0
LINE
  5
283
330
22A
100
AcDbEntity
  8
0
  6
Continuous
 62
     2
100
AcDbLine
 10
40.9672053232
 20
358.8023098785
 30
0.0
 11
201.7172053232
 21
358.8023098785
 31
0.0
  0
LINE
  5
284
330
22A
100
AcDbEntity
  8
0
  6
Continuous
 62
     2
100
AcDbLine
 10
362.4672053232
 20
358.8023098785
 30
0.0
 11
201.7172053232
 21
358.8023098785
 31
0.0
  0
INSERT
  5
285
330
22A
100
AcDbEntity
  8
0
  6
Continuous
 62
     2
100
AcDbBlockReference
  2
_CLOSED
 10
40.9672053232
 20
358.8023098785
 30
0.0
 41
2.5
 42
2.5
 43
2.5
 50
180.0
  0
INSERT
  5
286
330
22A
100
AcDbEntity
  8
0
  6
Continuous
 62
     2
100
AcDbBlockReference
  2
_CLOSED
 10
362.4672053232
 20
358.8023098785
 30
0.0
 41
2.5
 42
2.5
 43
2.5
  0
ENDBLK
  5
287
330
22A
100
AcDbEntity
  8
0
  6
ByBlock
 62
     0
100
AcDbBlockEnd
  0
BLOCK
  5
288
330
22B
100
AcDbEntity
  8
0
100
AcDbBlockBegin
  2
*D2
 70
     1
 10
0.0
 20
0.0
 30
0.0
  3
*D2
  1

  0
MTEXT
  5
289
330
22B
100
AcDbEntity
  8
0
  6
Continuous
 62
     2
100
AcDbMText
 10
550.6998729992
 20
295.899168251
 30
0.0
 40
3.0
 41
8.1524163569
 46
0.0
 71
     2
 72
     1
  1
84,1
 11
0.0
 21
1.0
 31
0.0
 73
     1
 44
0.9
  0
LINE
  5
28A
330
22B
100
AcDbEntity
  8
0
  6
Continuous
 62
     2
100
AcDbLine
 10
509.9131419733
 20
337.949168251
 30
0.0
 11
555.1998729992
 21
337.949168251
 31
0.0
  0
LINE
  5
28B
330
22B
100
AcDbEntity
  8
0
  6
Continuous
 62
     2
100
AcDbLine
 10
510.8631419733
 20
253.849168251
 30
0.0
 11
555.1998729992
 21
253.849168251
 31
0.0
  0
LINE
  5
28C
330
22B
100
AcDbEntity
  8
0
  6
Continuous
 62
     2
100
AcDbLine
 10
554.4498729992
 20
337.949168251
 30
0.0
 11
554.4498729992
 21
295.899168251
 31
0.0
  0
LINE
  5
28D
330
22B
100
AcDbEntity
  8
0
  6
Continuous
 62
     2
100
AcDbLine
 10
554.4498729992
 20
253.849168251
 30
0.0
 11
554.4498729992
 21
295.899168251
 31
0.0
  0
INSERT
  5
28E
330
22B
100
AcDbEntity
  8
0
  6
Continuous
 62
     2
100
AcDbBlockReference
  2
_CLOSED
 10
554.4498729992
 20
337.949168251
 30
0.0
 41
2.5
 42
2.5
 43
2.5
 50
90.0
  0
INSERT
  5
28F
330
22B
100
AcDbEntity
  8
0
  6
Continuous
 62
     2
100
AcDbBlockReference
  2
_CLOSED
 10
554.4498729992
 20
253.849168251
 30
0.0
 41
2.5
 42
2.5
 43
2.5
 50
270.0
  0
ENDBLK
  5
290
330
22B
100
AcDbEntity
  8
0
  6
ByBlock
 62
     0
100
AcDbBlockEnd
  0
BLOCK
  5
291
330
22C
100
AcDbEntity
  8
0
100
AcDbBlockBegin
  2
*D3
 70
     1
 10
0.0
 20
0.0
 30
0.0
  3
*D3
  1

  0
MTEXT
  5
292
330
22C
100
AcDbEntity
  8
0
  6
Continuous
 62
     2
100
AcDbMText
 10
489.1631419733
 20
357.7165499452
 30
0.0
 40
3.0
 41
8.1524163569
 46
0.0
 71
     2
 72
     1
  1
93,1
 73
     1
 44
0.9
  0
LINE
  5
293
330
22C
100
AcDbEntity
  8
0
  6
Continuous
 62
     2
100
AcDbLine
 10
535.7131419733
 20
325.199168251
 30
0.0
 11
535.7131419733
 21
354.7165499452
 31
0.0
  0
LINE
  5
294
330
22C
100
AcDbEntity
  8
0
  6
Continuous
 62
     2
100
AcDbLine
 10
442.6131419733
 20
325.199168251
 30
0.0
 11
442.6131419733
 21
354.7165499452
 31
0.0
  0
LINE
  5
295
330
22C
100
AcDbEntity
  8
0
  6
Continuous
 62
     2
100
AcDbLine
 10
535.7131419733
 20
353.9665499452
 30
0.0
 11
489.1631419733
 21
353.9665499452
 31
0.0
  0
LINE
  5
296
330
22C
100
AcDbEntity
  8
0
  6
Continuous
 62
     2
100
AcDbLine
 10
442.6131419733
 20
353.9665499452
 30
0.0
 11
489.1631419733
 21
353.9665499452
 31
0.0
  0
INSERT
  5
297
330
22C
100
AcDbEntity
  8
0
  6
Continuous
 62
     2
100
AcDbBlockReference
  2
_CLOSED
 10
535.7131419733
 20
353.9665499452
 30
0.0
 41
2.5
 42
2.5
 43
2.5
  0
INSERT
  5
298
330
22C
100
AcDbEntity
  8
0
  6
Continuous
 62
     2
100
AcDbBlockReference
  2
_CLOSED
 10
442.6131419733
 20
353.9665499452
 30
0.0
 41
2.5
 42
2.5
 43
2.5
 50
180.0
  0
ENDBLK
  5
299
330
22C
100
AcDbEntity
  8
0
  6
ByBlock
 62
     0
100
AcDbBlockEnd
  0
BLOCK
  5
233
330
22D
100
AcDbEntity
  8
0
100
AcDbBlockBegin
  2
LOGO2_BL1
 70
     0
 10
467.8360420644
 20
42.025479964
 30
0.0
  3
LOGO2_BL1
  1

  0
LINE
  5
234
330
22D
100
AcDbEntity
  8
0
  6
Continuous
 62
     7
100
AcDbLine
 10
459.5789672926
 20
45.2209713028
 30
0.0
 11
458.2746263632
 21
45.2209713028
 31
0.0
  0
LINE
  5
235
330
22D
100
AcDbEntity
  8
0
  6
Continuous
 62
     7
100
AcDbLine
 10
458.2746263632
 20
45.2209713028
 30
0.0
 11
458.2746263632
 21
34.761905243
 31
0.0
  0
LINE
  5
236
330
22D
100
AcDbEntity
  8
0
  6
Continuous
 62
     7
100
AcDbLine
 10
458.2746263632
 20
34.761905243
 30
0.0
 11
462.7556812515
 21
34.761905243
 31
0.0
  0
LINE
  5
237
330
22D
100
AcDbEntity
  8
0
  6
Continuous
 62
     7
100
AcDbLine
 10
462.7556812515
 20
34.761905243
 30
0.0
 11
462.7556812515
 21
35.954759568
 31
0.0
  0
LINE
  5
238
330
22D
100
AcDbEntity
  8
0
  6
Continuous
 62
     7
100
AcDbLine
 10
462.7556812515
 20
35.954759568
 30
0.0
 11
459.5789672926
 21
35.954759568
 31
0.0
  0
LINE
  5
239
330
22D
100
AcDbEntity
  8
0
  6
Continuous
 62
     7
100
AcDbLine
 10
459.5789672926
 20
35.954759568
 30
0.0
 11
459.5789672926
 21
45.2209713028
 31
0.0
  0
LINE
  5
23A
330
22D
100
AcDbEntity
  8
0
  6
Continuous
 62
     7
100
AcDbLine
 10
474.5152935089
 20
45.2209713028
 30
0.0
 11
473.2114759908
 21
45.2209713028
 31
0.0
  0
LINE
  5
23B
330
22D
100
AcDbEntity
  8
0
  6
Continuous
 62
     7
100
AcDbLine
 10
473.2114759908
 20
45.2209713028
 30
0.0
 11
473.2114759908
 21
34.761905243
 31
0.0
  0
LINE
  5
23C
330
22D
100
AcDbEntity
  8
0
  6
Continuous
 62
     7
100
AcDbLine
 10
473.2114759908
 20
34.761905243
 30
0.0
 11
477.6926617319
 21
34.761905243
 31
0.0
  0
LINE
  5
23D
330
22D
100
AcDbEntity
  8
0
  6
Continuous
 62
     7
100
AcDbLine
 10
477.6926617319
 20
34.761905243
 30
0.0
 11
477.6926617319
 21
35.954759568
 31
0.0
  0
LINE
  5
23E
330
22D
100
AcDbEntity
  8
0
  6
Continuous
 62
     7
100
AcDbLine
 10
477.6926617319
 20
35.954759568
 30
0.0
 11
474.5152935089
 21
35.954759568
 31
0.0
  0
LINE
  5
23F
330
22D
100
AcDbEntity
  8
0
  6
Continuous
 62
     7
100
AcDbLine
 10
474.5152935089
 20
35.954759568
 30
0.0
 11
474.5152935089
 21
45.2209713028
 31
0.0
  0
LWPOLYLINE
  5
240
330
22D
100
AcDbEntity
  8
0
  6
Continuous
 62
     7
100
AcDbPolyline
 90
        2
 70
     0
 43
0.2
 10
456.6290212741
 20
31.4183539361
 10
456.6290212741
 20
29.5612906867
  0
LWPOLYLINE
  5
241
330
22D
100
AcDbEntity
  8
0
  6
Continuous
 62
     7
100
AcDbPolyline
 90
        2
 70
     0
 43
0.2
 10
456.6290212741
 20
29.5612906867
 10
457.4247372845
 20
29.5612906867
  0
LWPOLYLINE
  5
242
330
22D
100
AcDbEntity
  8
0
  6
Continuous
 62
     7
100
AcDbPolyline
 90
        2
 70
     0
 43
0.2
 10
457.4247372845
 20
29.5612906867
 10
457.4247372845
 20
29.7732722583
  0
LWPOLYLINE
  5
243
330
22D
100
AcDbEntity
  8
0
  6
Continuous
 62
     7
100
AcDbPolyline
 90
        2
 70
     0
 43
0.2
 10
457.4247372845
 20
29.7732722583
 10
456.860630769
 20
29.7732722583
  0
LWPOLYLINE
  5
244
330
22D
100
AcDbEntity
  8
0
  6
Continuous
 62
     7
100
AcDbPolyline
 90
        2
 70
     0
 43
0.2
 10
456.860630769
 20
29.7732722583
 10
456.860630769
 20
31.4183539361
  0
LWPOLYLINE
  5
245
330
22D
100
AcDbEntity
  8
0
  6
Continuous
 62
     7
100
AcDbPolyline
 90
        2
 70
     0
 43
0.2
 10
456.860630769
 20
31.4183539361
 10
456.6290212741
 20
31.4183539361
  0
SPLINE
  5
246
330
22D
100
AcDbEntity
  8
0
  6
Continuous
 62
     7
100
AcDbSpline
 70
     3
 71
     3
 72
    35
 73
    31
 74
     0
 42
0.000000001
 43
0.0000001
 40
0.0
 40
0.0
 40
0.0
 40
0.0
 40
1.0
 40
1.0
 40
1.0
 40
2.0
 40
2.0
 40
2.0
 40
3.0
 40
3.0
 40
3.0
 40
4.0
 40
4.0
 40
4.0
 40
5.0
 40
5.0
 40
5.0
 40
6.0
 40
6.0
 40
6.0
 40
7.0
 40
7.0
 40
7.0
 40
8.0
 40
8.0
 40
8.0
 40
9.0
 40
9.0
 40
9.0
 40
10.0
 40
10.0
 40
10.0
 40
10.0
 10
458.82303054
 20
30.7138423426
 30
0.0
 10
458.82303054
 20
30.7138423426
 30
0.0
 10
458.82303054
 20
30.0517270634
 30
0.0
 10
458.82303054
 20
30.0517270634
 30
0.0
 10
458.82303054
 20
29.7366334681
 30
0.0
 10
458.9708942289
 20
29.5220348401
 30
0.0
 10
459.3109807132
 20
29.5220348401
 30
0.0
 10
459.6505437862
 20
29.5220348401
 30
0.0
 10
459.7986691806
 20
29.7366334681
 30
0.0
 10
459.7986691806
 20
30.0517270634
 30
0.0
 10
459.7986691806
 20
30.0517270634
 30
0.0
 10
459.7986691806
 20
30.7138423426
 30
0.0
 10
459.7986691806
 20
30.7138423426
 30
0.0
 10
459.7986691806
 20
30.7138423426
 30
0.0
 10
459.5766119418
 20
30.7138423426
 30
0.0
 10
459.5766119418
 20
30.7138423426
 30
0.0
 10
459.5766119418
 20
30.7138423426
 30
0.0
 10
459.5766119418
 20
30.0768508053
 30
0.0
 10
459.5766119418
 20
30.0768508053
 30
0.0
 10
459.5766119418
 20
29.8910397981
 30
0.0
 10
459.5298974843
 20
29.7282588875
 30
0.0
 10
459.3109807132
 20
29.7282588875
 30
0.0
 10
459.0915405307
 20
29.7282588875
 30
0.0
 10
459.0448260733
 20
29.8910397981
 30
0.0
 10
459.0448260733
 20
30.0768508053
 30
0.0
 10
459.0448260733
 20
30.0768508053
 30
0.0
 10
459.0448260733
 20
30.7138423426
 30
0.0
 10
459.0448260733
 20
30.7138423426
 30
0.0
 10
459.0448260733
 20
30.7138423426
 30
0.0
 10
458.82303054
 20
30.7138423426
 30
0.0
 10
458.82303054
 20
30.7138423426
 30
0.0
  0
SPLINE
  5
247
330
22D
100
AcDbEntity
  8
0
  6
Continuous
 62
     7
100
AcDbSpline
 70
     3
 71
     3
 72
    35
 73
    31
 74
     0
 42
0.000000001
 43
0.0000001
 40
0.0
 40
0.0
 40
0.0
 40
0.0
 40
1.0
 40
1.0
 40
1.0
 40
2.0
 40
2.0
 40
2.0
 40
3.0
 40
3.0
 40
3.0
 40
4.0
 40
4.0
 40
4.0
 40
5.0
 40
5.0
 40
5.0
 40
6.0
 40
6.0
 40
6.0
 40
7.0
 40
7.0
 40
7.0
 40
8.0
 40
8.0
 40
8.0
 40
9.0
 40
9.0
 40
9.0
 40
10.0
 40
10.0
 40
10.0
 40
10.0
 10
462.2218017378
 20
30.6724928509
 30
0.0
 10
462.1333452302
 20
30.7237871571
 30
0.0
 10
462.0198958335
 20
30.7489108989
 30
0.0
 10
461.9162603985
 20
30.7489108989
 30
0.0
 10
461.5613875454
 20
30.7489108989
 30
0.0
 10
461.2859423551
 20
30.4851116098
 30
0.0
 10
461.2859423551
 20
30.1276217002
 30
0.0
 10
461.2859423551
 20
29.7826936615
 30
0.0
 10
461.5643971603
 20
29.5225582514
 30
0.0
 10
461.9039602333
 20
29.5225582514
 30
0.0
 10
462.0198958335
 20
29.5225582514
 30
0.0
 10
462.1206525065
 20
29.5445415255
 30
0.0
 10
462.2218017378
 20
29.5984528881
 30
0.0
 10
462.2218017378
 20
29.5984528881
 30
0.0
 10
462.2218017378
 20
29.8810949836
 30
0.0
 10
462.2218017378
 20
29.8810949836
 30
0.0
 10
462.137925079
 20
29.7879277744
 30
0.0
 10
462.0344204968
 20
29.7287822988
 30
0.0
 10
461.9063155841
 20
29.7287822988
 30
0.0
 10
461.672612444
 20
29.7287822988
 30
0.0
 10
461.5073453299
 20
29.9009846125
 30
0.0
 10
461.5073453299
 20
30.1375665147
 30
0.0
 10
461.5073453299
 20
30.3495480862
 30
0.0
 10
461.6750986477
 20
30.5416400289
 30
0.0
 10
461.8919217737
 20
30.5416400289
 30
0.0
 10
462.024737388
 20
30.5416400289
 30
0.0
 10
462.1333452302
 20
30.4877286662
 30
0.0
 10
462.2218017378
 20
30.3867102877
 30
0.0
 10
462.2218017378
 20
30.3867102877
 30
0.0
 10
462.2218017378
 20
30.6724928509
 30
0.0
 10
462.2218017378
 20
30.6724928509
 30
0.0
  0
SPLINE
  5
248
330
22D
100
AcDbEntity
  8
0
  6
Continuous
 62
     7
100
AcDbSpline
 70
     3
 71
     3
 72
    32
 73
    28
 74
     0
 42
0.000000001
 43
0.0000001
 40
0.0
 40
0.0
 40
0.0
 40
0.0
 40
1.0
 40
1.0
 40
1.0
 40
2.0
 40
2.0
 40
2.0
 40
3.0
 40
3.0
 40
3.0
 40
4.0
 40
4.0
 40
4.0
 40
5.0
 40
5.0
 40
5.0
 40
6.0
 40
6.0
 40
6.0
 40
7.0
 40
7.0
 40
7.0
 40
8.0
 40
8.0
 40
8.0
 40
9.0
 40
9.0
 40
9.0
 40
9.0
 10
464.7536729901
 20
30.1009277245
 30
0.0
 10
464.7536729901
 20
30.1009277245
 30
0.0
 10
464.7536729901
 20
30.1349494582
 30
0.0
 10
464.7536729901
 20
30.1349494582
 30
0.0
 10
464.7536729901
 20
30.4772604405
 30
0.0
 10
464.5808164123
 20
30.7489108989
 30
0.0
 10
464.2141668051
 20
30.7489108989
 30
0.0
 10
463.8425447907
 20
30.7489108989
 30
0.0
 10
463.6528081989
 20
30.4824945534
 30
0.0
 10
463.6528081989
 20
30.1276217002
 30
0.0
 10
463.6528081989
 20
29.7879277744
 30
0.0
 10
463.8668834156
 20
29.5220348401
 30
0.0
 10
464.2190083595
 20
29.5220348401
 30
0.0
 10
464.4430283907
 20
29.5220348401
 30
0.0
 10
464.6451960007
 20
29.6377087347
 30
0.0
 10
464.7536729901
 20
29.8371284354
 30
0.0
 10
464.7536729901
 20
29.8371284354
 30
0.0
 10
464.5660300434
 20
29.9439043381
 30
0.0
 10
464.5660300434
 20
29.9439043381
 30
0.0
 10
464.482545943
 20
29.8052003469
 30
0.0
 10
464.3913415261
 20
29.7193608956
 30
0.0
 10
464.2217562688
 20
29.7193608956
 30
0.0
 10
464.0097746972
 20
29.7193608956
 30
0.0
 10
463.8768282301
 20
29.9041250803
 30
0.0
 10
463.8744728793
 20
30.1009277245
 30
0.0
 10
463.8744728793
 20
30.1009277245
 30
0.0
 10
464.7536729901
 20
30.1009277245
 30
0.0
 10
464.7536729901
 20
30.1009277245
 30
0.0
  0
SPLINE
  5
249
330
22D
100
AcDbEntity
  8
0
  6
Continuous
 62
     7
100
AcDbSpline
 70
     3
 71
     3
 72
    14
 73
    10
 74
     0
 42
0.000000001
 43
0.0000001
 40
0.0
 40
0.0
 40
0.0
 40
0.0
 40
1.0
 40
1.0
 40
1.0
 40
2.0
 40
2.0
 40
2.0
 40
3.0
 40
3.0
 40
3.0
 40
3.0
 10
463.8865113389
 20
30.2684193366
 30
0.0
 10
463.9141212843
 20
30.4332938923
 30
0.0
 10
464.0419644914
 20
30.5562955449
 30
0.0
 10
464.2141668051
 20
30.5562955449
 30
0.0
 10
464.3913415261
 20
30.5562955449
 30
0.0
 10
464.5047909227
 20
30.4406216503
 30
0.0
 10
464.5320083097
 20
30.2684193366
 30
0.0
 10
464.5320083097
 20
30.2684193366
 30
0.0
 10
463.8865113389
 20
30.2684193366
 30
0.0
 10
463.8865113389
 20
30.2684193366
 30
0.0
  0
SPLINE
  5
24A
330
22D
100
AcDbEntity
  8
0
  6
Continuous
 62
     7
100
AcDbSpline
 70
     3
 71
     3
 72
    20
 73
    16
 74
     0
 42
0.000000001
 43
0.0000001
 40
0.0
 40
0.0
 40
0.0
 40
0.0
 40
1.0
 40
1.0
 40
1.0
 40
2.0
 40
2.0
 40
2.0
 40
3.0
 40
3.0
 40
3.0
 40
4.0
 40
4.0
 40
4.0
 40
5.0
 40
5.0
 40
5.0
 40
5.0
 10
466.7777044403
 20
30.4777838518
 30
0.0
 10
466.7777044403
 20
30.4777838518
 30
0.0
 10
467.1888440069
 20
29.9753090154
 30
0.0
 10
467.1888440069
 20
29.9753090154
 30
0.0
 10
467.0727775538
 20
29.8596351208
 30
0.0
 10
466.9349895323
 20
29.7293057101
 30
0.0
 10
466.7630489242
 20
29.7293057101
 30
0.0
 10
466.5856124976
 20
29.7293057101
 30
0.0
 10
466.4181208855
 20
29.8936568545
 30
0.0
 10
466.4181208855
 20
30.0705698698
 30
0.0
 10
466.4181208855
 20
30.2485297077
 30
0.0
 10
466.6278779591
 20
30.3746718281
 30
0.0
 10
466.7554594605
 20
30.4626049244
 30
0.0
 10
466.7554594605
 20
30.4626049244
 30
0.0
 10
466.7777044403
 20
30.4777838518
 30
0.0
 10
466.7777044403
 20
30.4777838518
 30
0.0
  0
SPLINE
  5
24B
330
22D
100
AcDbEntity
  8
0
  6
Continuous
 62
     7
100
AcDbSpline
 70
     3
 71
     3
 72
    23
 73
    19
 74
     0
 42
0.000000001
 43
0.0000001
 40
0.0
 40
0.0
 40
0.0
 40
0.0
 40
1.0
 40
1.0
 40
1.0
 40
2.0
 40
2.0
 40
2.0
 40
3.0
 40
3.0
 40
3.0
 40
4.0
 40
4.0
 40
4.0
 40
5.0
 40
5.0
 40
5.0
 40
6.0
 40
6.0
 40
6.0
 40
6.0
 10
466.8270359542
 20
30.7688005278
 30
0.0
 10
466.8270359542
 20
30.7688005278
 30
0.0
 10
466.765404275
 20
30.847312221
 30
0.0
 10
466.765404275
 20
30.847312221
 30
0.0
 10
466.7114929124
 20
30.9158790997
 30
0.0
 10
466.6547027876
 20
30.9849693897
 30
0.0
 10
466.6547027876
 20
31.0786600102
 30
0.0
 10
466.6547027876
 20
31.1974743726
 30
0.0
 10
466.7506179061
 20
31.2749392432
 30
0.0
 10
466.8615810992
 20
31.2749392432
 30
0.0
 10
466.9848444575
 20
31.2749392432
 30
0.0
 10
467.0781425195
 20
31.203755308
 30
0.0
 10
467.0781425195
 20
31.0734258974
 30
0.0
 10
467.0781425195
 20
30.9383857851
 30
0.0
 10
466.9500376068
 20
30.8619677371
 30
0.0
 10
466.8564778391
 20
30.7881667455
 30
0.0
 10
466.8564778391
 20
30.7881667455
 30
0.0
 10
466.8270359542
 20
30.7688005278
 30
0.0
 10
466.8270359542
 20
30.7688005278
 30
0.0
  0
SPLINE
  5
24C
330
22D
100
AcDbEntity
  8
0
  6
Continuous
 62
     7
100
AcDbSpline
 70
     3
 71
     3
 72
    50
 73
    46
 74
     0
 42
0.000000001
 43
0.0000001
 40
0.0
 40
0.0
 40
0.0
 40
0.0
 40
1.0
 40
1.0
 40
1.0
 40
2.0
 40
2.0
 40
2.0
 40
3.0
 40
3.0
 40
3.0
 40
4.0
 40
4.0
 40
4.0
 40
5.0
 40
5.0
 40
5.0
 40
6.0
 40
6.0
 40
6.0
 40
7.0
 40
7.0
 40
7.0
 40
8.0
 40
8.0
 40
8.0
 40
9.0
 40
9.0
 40
9.0
 40
10.0
 40
10.0
 40
10.0
 40
11.0
 40
11.0
 40
11.0
 40
12.0
 40
12.0
 40
12.0
 40
13.0
 40
13.0
 40
13.0
 40
14.0
 40
14.0
 40
14.0
 40
15.0
 40
15.0
 40
15.0
 40
15.0
 10
467.5291921968
 20
29.561814098
 30
0.0
 10
467.5291921968
 20
29.561814098
 30
0.0
 10
467.8145822015
 20
29.561814098
 30
0.0
 10
467.8145822015
 20
29.561814098
 30
0.0
 10
467.8145822015
 20
29.561814098
 30
0.0
 10
467.4822160338
 20
29.972691959
 30
0.0
 10
467.4822160338
 20
29.972691959
 30
0.0
 10
467.4822160338
 20
29.972691959
 30
0.0
 10
467.7087222686
 20
30.2385848932
 30
0.0
 10
467.7087222686
 20
30.2385848932
 30
0.0
 10
467.7087222686
 20
30.2385848932
 30
0.0
 10
467.5604660213
 20
30.3914209893
 30
0.0
 10
467.5604660213
 20
30.3914209893
 30
0.0
 10
467.5604660213
 20
30.3914209893
 30
0.0
 10
467.344558865
 20
30.1401835711
 30
0.0
 10
467.344558865
 20
30.1401835711
 30
0.0
 10
467.344558865
 20
30.1401835711
 30
0.0
 10
466.9574962177
 20
30.6081132624
 30
0.0
 10
466.9574962177
 20
30.6081132624
 30
0.0
 10
467.1129493702
 20
30.7222169232
 30
0.0
 10
467.2952273512
 20
30.8619677371
 30
0.0
 10
467.2952273512
 20
31.0713322522
 30
0.0
 10
467.2952273512
 20
31.3152419124
 30
0.0
 10
467.093190594
 20
31.4586566052
 30
0.0
 10
466.8666843592
 20
31.4586566052
 30
0.0
 10
466.6225129934
 20
31.4586566052
 30
0.0
 10
466.4381413673
 20
31.3079141543
 30
0.0
 10
466.4381413673
 20
31.0514426233
 30
0.0
 10
466.4381413673
 20
30.8938958256
 30
0.0
 10
466.536804395
 20
30.7562386569
 30
0.0
 10
466.6421409167
 20
30.6452754639
 30
0.0
 10
466.6421409167
 20
30.6452754639
 30
0.0
 10
466.5265978749
 20
30.5615296578
 30
0.0
 10
466.5265978749
 20
30.5615296578
 30
0.0
 10
466.3488997427
 20
30.4332938923
 30
0.0
 10
466.2015594652
 20
30.3055815381
 30
0.0
 10
466.2015594652
 20
30.0684762247
 30
0.0
 10
466.2015594652
 20
29.7481485165
 30
0.0
 10
466.4601246414
 20
29.5220348401
 30
0.0
 10
466.7705075351
 20
29.5220348401
 30
0.0
 10
466.9894243062
 20
29.5220348401
 30
0.0
 10
467.1866195089
 20
29.6471301379
 30
0.0
 10
467.3268937341
 20
29.8130515162
 30
0.0
 10
467.3268937341
 20
29.8130515162
 30
0.0
 10
467.5291921968
 20
29.561814098
 30
0.0
 10
467.5291921968
 20
29.561814098
 30
0.0
  0
LWPOLYLINE
  5
24D
330
22D
100
AcDbEntity
  8
0
  6
Continuous
 62
     7
100
AcDbPolyline
 90
        2
 70
     0
 43
0.2
 10
469.4646362866
 20
31.4183539361
 10
469.2332884973
 20
31.4183539361
  0
LWPOLYLINE
  5
24E
330
22D
100
AcDbEntity
  8
0
  6
Continuous
 62
     7
100
AcDbPolyline
 90
        2
 70
     0
 43
0.2
 10
469.2332884973
 20
31.4183539361
 10
469.2332884973
 20
29.5612906867
  0
LWPOLYLINE
  5
24F
330
22D
100
AcDbEntity
  8
0
  6
Continuous
 62
     7
100
AcDbPolyline
 90
        2
 70
     0
 43
0.2
 10
469.2332884973
 20
29.5612906867
 10
470.0286119492
 20
29.5612906867
  0
LWPOLYLINE
  5
250
330
22D
100
AcDbEntity
  8
0
  6
Continuous
 62
     7
100
AcDbPolyline
 90
        2
 70
     0
 43
0.2
 10
470.0286119492
 20
29.5612906867
 10
470.0286119492
 20
29.7732722583
  0
LWPOLYLINE
  5
251
330
22D
100
AcDbEntity
  8
0
  6
Continuous
 62
     7
100
AcDbPolyline
 90
        2
 70
     0
 43
0.2
 10
470.0286119492
 20
29.7732722583
 10
469.4646362866
 20
29.7732722583
  0
LWPOLYLINE
  5
252
330
22D
100
AcDbEntity
  8
0
  6
Continuous
 62
     7
100
AcDbPolyline
 90
        2
 70
     0
 43
0.2
 10
469.4646362866
 20
29.7732722583
 10
469.4646362866
 20
31.4183539361
  0
LWPOLYLINE
  5
253
330
22D
100
AcDbEntity
  8
0
  6
Continuous
 62
     7
100
AcDbPolyline
 90
        2
 70
     0
 43
0.2
 10
471.7077153607
 20
30.7138423426
 10
471.4865740916
 20
30.7138423426
  0
LWPOLYLINE
  5
254
330
22D
100
AcDbEntity
  8
0
  6
Continuous
 62
     7
100
AcDbPolyline
 90
        2
 70
     0
 43
0.2
 10
471.4865740916
 20
30.7138423426
 10
471.4865740916
 20
29.561814098
  0
LWPOLYLINE
  5
255
330
22D
100
AcDbEntity
  8
0
  6
Continuous
 62
     7
100
AcDbPolyline
 90
        2
 70
     0
 43
0.2
 10
471.4865740916
 20
29.561814098
 10
471.7077153607
 20
29.561814098
  0
LWPOLYLINE
  5
256
330
22D
100
AcDbEntity
  8
0
  6
Continuous
 62
     7
100
AcDbPolyline
 90
        2
 70
     0
 43
0.2
 10
471.7077153607
 20
29.561814098
 10
471.7077153607
 20
30.7138423426
  0
LWPOLYLINE
  5
257
330
22D
100
AcDbEntity
  8
0
  6
Continuous
 62
     7
100
AcDbPolyline
 90
        2
 70
     1
 43
0.2
 10
471.4446920835
 20
31.2437962716
 42
1.0
 10
471.7498590744
 20
31.2437962716
 42
1.0
  0
SPLINE
  5
258
330
22D
100
AcDbEntity
  8
0
  6
Continuous
 62
     7
100
AcDbSpline
 70
     3
 71
     3
 72
    17
 73
    13
 74
     0
 42
0.000000001
 43
0.0000001
 40
0.0
 40
0.0
 40
0.0
 40
0.0
 40
1.0
 40
1.0
 40
1.0
 40
2.0
 40
2.0
 40
2.0
 40
3.0
 40
3.0
 40
3.0
 40
4.0
 40
4.0
 40
4.0
 40
4.0
 10
473.8379993024
 20
29.7193608956
 30
0.0
 10
473.6040344567
 20
29.7193608956
 30
0.0
 10
473.473705046
 20
29.9213976528
 30
0.0
 10
473.473705046
 20
30.1375665147
 30
0.0
 10
473.473705046
 20
30.3521651427
 30
0.0
 10
473.6095302752
 20
30.5510614321
 30
0.0
 10
473.8379993024
 20
30.5510614321
 30
0.0
 10
474.0774599666
 20
30.5510614321
 30
0.0
 10
474.2130234901
 20
30.3621099571
 30
0.0
 10
474.2130234901
 20
30.1375665147
 30
0.0
 10
474.2130234901
 20
29.9114528383
 30
0.0
 10
474.0798153174
 20
29.7193608956
 30
0.0
 10
473.8379993024
 20
29.7193608956
 30
0.0
  0
SPLINE
  5
259
330
22D
100
AcDbEntity
  8
0
  6
Continuous
 62
     7
100
AcDbSpline
 70
     3
 71
     3
 72
    50
 73
    46
 74
     0
 42
0.000000001
 43
0.0000001
 40
0.0
 40
0.0
 40
0.0
 40
0.0
 40
1.0
 40
1.0
 40
1.0
 40
2.0
 40
2.0
 40
2.0
 40
3.0
 40
3.0
 40
3.0
 40
4.0
 40
4.0
 40
4.0
 40
5.0
 40
5.0
 40
5.0
 40
6.0
 40
6.0
 40
6.0
 40
7.0
 40
7.0
 40
7.0
 40
8.0
 40
8.0
 40
8.0
 40
9.0
 40
9.0
 40
9.0
 40
10.0
 40
10.0
 40
10.0
 40
11.0
 40
11.0
 40
11.0
 40
12.0
 40
12.0
 40
12.0
 40
13.0
 40
13.0
 40
13.0
 40
14.0
 40
14.0
 40
14.0
 40
15.0
 40
15.0
 40
15.0
 40
15.0
 10
474.4221262996
 20
30.7143657539
 30
0.0
 10
474.4221262996
 20
30.7143657539
 30
0.0
 10
474.2004616192
 20
30.7143657539
 30
0.0
 10
474.2004616192
 20
30.7143657539
 30
0.0
 10
474.2004616192
 20
30.7143657539
 30
0.0
 10
474.2004616192
 20
30.5170396984
 30
0.0
 10
474.2004616192
 20
30.5170396984
 30
0.0
 10
474.2004616192
 20
30.5170396984
 30
0.0
 10
474.1957509176
 20
30.5170396984
 30
0.0
 10
474.1957509176
 20
30.5170396984
 30
0.0
 10
474.1044156479
 20
30.6599309799
 30
0.0
 10
473.9664967735
 20
30.7483874876
 30
0.0
 10
473.7937710485
 20
30.7483874876
 30
0.0
 10
473.4614048807
 20
30.7483874876
 30
0.0
 10
473.2523020712
 20
30.4605112793
 30
0.0
 10
473.2523020712
 20
30.1448942727
 30
0.0
 10
473.2523020712
 20
29.8151451613
 30
0.0
 10
473.4493664211
 20
29.5220348401
 30
0.0
 10
473.8042392743
 20
29.5220348401
 30
0.0
 10
473.9664967735
 20
29.5220348401
 30
0.0
 10
474.106509293
 20
29.6104913478
 30
0.0
 10
474.1957509176
 20
29.7413441697
 30
0.0
 10
474.1957509176
 20
29.7413441697
 30
0.0
 10
474.2004616192
 20
29.7413441697
 30
0.0
 10
474.2004616192
 20
29.7413441697
 30
0.0
 10
474.2004616192
 20
29.7413441697
 30
0.0
 10
474.2004616192
 20
29.5220348401
 30
0.0
 10
474.2004616192
 20
29.5220348401
 30
0.0
 10
474.2004616192
 20
29.285452938
 30
0.0
 10
474.1439332001
 20
29.0985951082
 30
0.0
 10
473.8707125078
 20
29.0985951082
 30
0.0
 10
473.6684140451
 20
29.0985951082
 30
0.0
 10
473.5257844691
 20
29.2168860593
 30
0.0
 10
473.5257844691
 20
29.4231101067
 30
0.0
 10
473.5257844691
 20
29.4231101067
 30
0.0
 10
473.3041197887
 20
29.4231101067
 30
0.0
 10
473.3041197887
 20
29.4231101067
 30
0.0
 10
473.309092196
 20
29.0985951082
 30
0.0
 10
473.5401782796
 20
28.901792464
 30
0.0
 10
473.8605059877
 20
28.901792464
 30
0.0
 10
474.3085460502
 20
28.901792464
 30
0.0
 10
474.4221262996
 20
29.1870516159
 30
0.0
 10
474.4221262996
 20
29.5837973721
 30
0.0
 10
474.4221262996
 20
29.5837973721
 30
0.0
 10
474.4221262996
 20
30.7143657539
 30
0.0
 10
474.4221262996
 20
30.7143657539
 30
0.0
  0
SPLINE
  5
25A
330
22D
100
AcDbEntity
  8
0
  6
Continuous
 62
     7
100
AcDbSpline
 70
     3
 71
     3
 72
    44
 73
    40
 74
     0
 42
0.000000001
 43
0.0000001
 40
0.0
 40
0.0
 40
0.0
 40
0.0
 40
1.0
 40
1.0
 40
1.0
 40
2.0
 40
2.0
 40
2.0
 40
3.0
 40
3.0
 40
3.0
 40
4.0
 40
4.0
 40
4.0
 40
5.0
 40
5.0
 40
5.0
 40
6.0
 40
6.0
 40
6.0
 40
7.0
 40
7.0
 40
7.0
 40
8.0
 40
8.0
 40
8.0
 40
9.0
 40
9.0
 40
9.0
 40
10.0
 40
10.0
 40
10.0
 40
11.0
 40
11.0
 40
11.0
 40
12.0
 40
12.0
 40
12.0
 40
13.0
 40
13.0
 40
13.0
 40
13.0
 10
475.991051635
 20
31.6994257977
 30
0.0
 10
475.991051635
 20
31.6994257977
 30
0.0
 10
475.991051635
 20
29.5612906867
 30
0.0
 10
475.991051635
 20
29.5612906867
 30
0.0
 10
475.991051635
 20
29.5612906867
 30
0.0
 10
476.2124546098
 20
29.5612906867
 30
0.0
 10
476.2124546098
 20
29.5612906867
 30
0.0
 10
476.2124546098
 20
29.5612906867
 30
0.0
 10
476.2124546098
 20
30.09098291
 30
0.0
 10
476.2124546098
 20
30.09098291
 30
0.0
 10
476.2124546098
 20
30.3008708365
 30
0.0
 10
476.2124546098
 20
30.5515848434
 30
0.0
 10
476.4977137617
 20
30.5515848434
 30
0.0
 10
476.724612555
 20
30.5515848434
 30
0.0
 10
476.7515682363
 20
30.4186383762
 30
0.0
 10
476.7515682363
 20
30.2223591433
 30
0.0
 10
476.7515682363
 20
30.2223591433
 30
0.0
 10
476.7515682363
 20
29.5612906867
 30
0.0
 10
476.7515682363
 20
29.5612906867
 30
0.0
 10
476.7515682363
 20
29.5612906867
 30
0.0
 10
476.9734946223
 20
29.5612906867
 30
0.0
 10
476.9734946223
 20
29.5612906867
 30
0.0
 10
476.9734946223
 20
29.5612906867
 30
0.0
 10
476.9734946223
 20
30.2485297077
 30
0.0
 10
476.9734946223
 20
30.2485297077
 30
0.0
 10
476.9734946223
 20
30.529078158
 30
0.0
 10
476.8894871106
 20
30.7489108989
 30
0.0
 10
476.5644487009
 20
30.7489108989
 30
0.0
 10
476.424697887
 20
30.7489108989
 30
0.0
 10
476.286517307
 20
30.6824376653
 30
0.0
 10
476.2171653114
 20
30.5594360127
 30
0.0
 10
476.2171653114
 20
30.5594360127
 30
0.0
 10
476.2124546098
 20
30.5594360127
 30
0.0
 10
476.2124546098
 20
30.5594360127
 30
0.0
 10
476.2124546098
 20
30.5594360127
 30
0.0
 10
476.2124546098
 20
31.6994257977
 30
0.0
 10
476.2124546098
 20
31.6994257977
 30
0.0
 10
476.2124546098
 20
31.6994257977
 30
0.0
 10
475.991051635
 20
31.6994257977
 30
0.0
 10
475.991051635
 20
31.6994257977
 30
0.0
  0
LWPOLYLINE
  5
25B
330
22D
100
AcDbEntity
  8
0
  6
Continuous
 62
     7
100
AcDbPolyline
 90
        2
 70
     0
 43
0.2
 10
478.8132852992
 20
30.5070948839
 10
479.0297158667
 20
30.5070948839
  0
LWPOLYLINE
  5
25C
330
22D
100
AcDbEntity
  8
0
  6
Continuous
 62
     7
100
AcDbPolyline
 90
        2
 70
     0
 43
0.2
 10
479.0297158667
 20
30.5070948839
 10
479.0297158667
 20
30.7138423426
  0
LWPOLYLINE
  5
25D
330
22D
100
AcDbEntity
  8
0
  6
Continuous
 62
     7
100
AcDbPolyline
 90
        2
 70
     0
 43
0.2
 10
479.0297158667
 20
30.7138423426
 10
478.8132852992
 20
30.7138423426
  0
LWPOLYLINE
  5
25E
330
22D
100
AcDbEntity
  8
0
  6
Continuous
 62
     7
100
AcDbPolyline
 90
        2
 70
     0
 43
0.2
 10
478.8132852992
 20
30.7138423426
 10
478.8132852992
 20
31.154554647
  0
LWPOLYLINE
  5
25F
330
22D
100
AcDbEntity
  8
0
  6
Continuous
 62
     7
100
AcDbPolyline
 90
        2
 70
     0
 43
0.2
 10
478.8132852992
 20
31.154554647
 10
478.5916206188
 20
31.154554647
  0
LWPOLYLINE
  5
260
330
22D
100
AcDbEntity
  8
0
  6
Continuous
 62
     7
100
AcDbPolyline
 90
        2
 70
     0
 43
0.2
 10
478.5916206188
 20
31.154554647
 10
478.5916206188
 20
30.7138423426
  0
LWPOLYLINE
  5
261
330
22D
100
AcDbEntity
  8
0
  6
Continuous
 62
     7
100
AcDbPolyline
 90
        2
 70
     0
 43
0.2
 10
478.5916206188
 20
30.7138423426
 10
478.4709743169
 20
30.7138423426
  0
LWPOLYLINE
  5
262
330
22D
100
AcDbEntity
  8
0
  6
Continuous
 62
     7
100
AcDbPolyline
 90
        2
 70
     0
 43
0.2
 10
478.4709743169
 20
30.7138423426
 10
478.4709743169
 20
30.5070948839
  0
LWPOLYLINE
  5
263
330
22D
100
AcDbEntity
  8
0
  6
Continuous
 62
     7
100
AcDbPolyline
 90
        2
 70
     0
 43
0.2
 10
478.4709743169
 20
30.5070948839
 10
478.5916206188
 20
30.5070948839
  0
LWPOLYLINE
  5
264
330
22D
100
AcDbEntity
  8
0
  6
Continuous
 62
     7
100
AcDbPolyline
 90
        2
 70
     0
 43
0.2
 10
478.5916206188
 20
30.5070948839
 10
478.5916206188
 20
29.5612906867
  0
LWPOLYLINE
  5
265
330
22D
100
AcDbEntity
  8
0
  6
Continuous
 62
     7
100
AcDbPolyline
 90
        2
 70
     0
 43
0.2
 10
478.5916206188
 20
29.5612906867
 10
478.8132852992
 20
29.5612906867
  0
LWPOLYLINE
  5
266
330
22D
100
AcDbEntity
  8
0
  6
Continuous
 62
     7
100
AcDbPolyline
 90
        2
 70
     0
 43
0.2
 10
478.8132852992
 20
29.5612906867
 10
478.8132852992
 20
30.5070948839
  0
SPLINE
  5
267
330
22D
100
AcDbEntity
  8
0
  6
Continuous
 62
     7
100
AcDbSpline
 70
     3
 71
     3
 72
    20
 73
    16
 74
     0
 42
0.000000001
 43
0.0000001
 40
0.0
 40
0.0
 40
0.0
 40
0.0
 40
1.0
 40
1.0
 40
1.0
 40
2.0
 40
2.0
 40
2.0
 40
3.0
 40
3.0
 40
3.0
 40
4.0
 40
4.0
 40
4.0
 40
5.0
 40
5.0
 40
5.0
 40
5.0
 10
466.5952956065
 20
39.9222171301
 30
0.0
 10
466.5952956065
 20
39.9222171301
 30
0.0
 10
468.9116522609
 20
37.0926557079
 30
0.0
 10
468.9116522609
 20
37.0926557079
 30
0.0
 10
468.2600052075
 20
36.4404852432
 30
0.0
 10
467.4831320035
 20
35.7045689724
 30
0.0
 10
466.5119423589
 20
35.7045689724
 30
0.0
 10
465.5134044744
 20
35.7045689724
 30
0.0
 10
464.5700864809
 20
36.6341474197
 30
0.0
 10
464.5700864809
 20
37.6333395682
 30
0.0
 10
464.5700864809
 20
38.6325317168
 30
0.0
 10
465.748939554
 20
39.3391369554
 30
0.0
 10
466.4704620143
 20
39.8389947353
 30
0.0
 10
466.4704620143
 20
39.8389947353
 30
0.0
 10
466.5952956065
 20
39.9222171301
 30
0.0
 10
466.5952956065
 20
39.9222171301
 30
0.0
  0
SPLINE
  5
268
330
22D
100
AcDbEntity
  8
0
  6
Continuous
 62
     7
100
AcDbSpline
 70
     3
 71
     3
 72
    23
 73
    19
 74
     0
 42
0.000000001
 43
0.0000001
 40
0.0
 40
0.0
 40
0.0
 40
0.0
 40
1.0
 40
1.0
 40
1.0
 40
2.0
 40
2.0
 40
2.0
 40
3.0
 40
3.0
 40
3.0
 40
4.0
 40
4.0
 40
4.0
 40
5.0
 40
5.0
 40
5.0
 40
6.0
 40
6.0
 40
6.0
 40
6.0
 10
466.872703589
 20
41.5599710498
 30
0.0
 10
466.872703589
 20
41.5599710498
 30
0.0
 10
466.5262053165
 20
42.0033004107
 30
0.0
 10
466.5262053165
 20
42.0033004107
 30
0.0
 10
466.2204022715
 20
42.3914098806
 30
0.0
 10
465.9015139444
 20
42.779911909
 30
0.0
 10
465.9015139444
 20
43.3068562231
 30
0.0
 10
465.9015139444
 20
43.9730279397
 30
0.0
 10
466.4428520689
 20
44.416749859
 30
0.0
 10
467.066758324
 20
44.416749859
 30
0.0
 10
467.7605399861
 20
44.416749859
 30
0.0
 10
468.2877460058
 20
44.0145082843
 30
0.0
 10
468.2877460058
 20
43.2795079833
 30
0.0
 10
468.2877460058
 20
42.5162434728
 30
0.0
 10
467.5664852511
 20
42.086130247
 30
0.0
 10
467.0394100842
 20
41.6704108316
 30
0.0
 10
467.0394100842
 20
41.6704108316
 30
0.0
 10
466.872703589
 20
41.5599710498
 30
0.0
 10
466.872703589
 20
41.5599710498
 30
0.0
  0
SPLINE
  5
269
330
22D
100
AcDbEntity
  8
0
  6
Continuous
 62
     7
100
AcDbSpline
 70
     3
 71
     3
 72
    50
 73
    46
 74
     0
 42
0.000000001
 43
0.0000001
 40
0.0
 40
0.0
 40
0.0
 40
0.0
 40
1.0
 40
1.0
 40
1.0
 40
2.0
 40
2.0
 40
2.0
 40
3.0
 40
3.0
 40
3.0
 40
4.0
 40
4.0
 40
4.0
 40
5.0
 40
5.0
 40
5.0
 40
6.0
 40
6.0
 40
6.0
 40
7.0
 40
7.0
 40
7.0
 40
8.0
 40
8.0
 40
8.0
 40
9.0
 40
9.0
 40
9.0
 40
10.0
 40
10.0
 40
10.0
 40
11.0
 40
11.0
 40
11.0
 40
12.0
 40
12.0
 40
12.0
 40
13.0
 40
13.0
 40
13.0
 40
14.0
 40
14.0
 40
14.0
 40
15.0
 40
15.0
 40
15.0
 40
15.0
 10
470.826290752
 20
34.7613818317
 30
0.0
 10
470.826290752
 20
34.7613818317
 30
0.0
 10
472.4355187565
 20
34.7613818317
 30
0.0
 10
472.4355187565
 20
34.7613818317
 30
0.0
 10
472.4355187565
 20
34.7613818317
 30
0.0
 10
470.5624914629
 20
37.0785236031
 30
0.0
 10
470.5624914629
 20
37.0785236031
 30
0.0
 10
470.5624914629
 20
37.0785236031
 30
0.0
 10
471.8388298883
 20
38.5760032977
 30
0.0
 10
471.8388298883
 20
38.5760032977
 30
0.0
 10
471.8388298883
 20
38.5760032977
 30
0.0
 10
471.0066059406
 20
39.4370148662
 30
0.0
 10
471.0066059406
 20
39.4370148662
 30
0.0
 10
471.0066059406
 20
39.4370148662
 30
0.0
 10
469.7860108173
 20
38.0217107438
 30
0.0
 10
469.7860108173
 20
38.0217107438
 30
0.0
 10
469.7860108173
 20
38.0217107438
 30
0.0
 10
467.6080964485
 20
40.6570865783
 30
0.0
 10
467.6080964485
 20
40.6570865783
 30
0.0
 10
468.4816698879
 20
41.2951249382
 30
0.0
 10
469.5083411291
 20
42.086130247
 30
0.0
 10
469.5083411291
 20
43.2649833201
 30
0.0
 10
469.5083411291
 20
44.6386762451
 30
0.0
 10
468.3704449893
 20
45.4431593945
 30
0.0
 10
467.0951533864
 20
45.4431593945
 30
0.0
 10
465.721722167
 20
45.4431593945
 30
0.0
 10
464.6807879682
 20
44.5969341949
 30
0.0
 10
464.6807879682
 20
43.1542818327
 30
0.0
 10
464.6807879682
 20
42.2667071413
 30
0.0
 10
465.2361273447
 20
41.4898339373
 30
0.0
 10
465.8322928016
 20
40.8654042708
 30
0.0
 10
465.8322928016
 20
40.8654042708
 30
0.0
 10
465.1803840425
 20
40.3938107005
 30
0.0
 10
465.1803840425
 20
40.3938107005
 30
0.0
 10
464.1818461581
 20
39.6725499458
 30
0.0
 10
463.3489679463
 20
38.9512891911
 30
0.0
 10
463.3489679463
 20
37.6197308748
 30
0.0
 10
463.3489679463
 20
35.8160555768
 30
0.0
 10
464.8060141189
 20
34.5394554456
 30
0.0
 10
466.5535535562
 20
34.5394554456
 30
0.0
 10
467.7884116372
 20
34.5394554456
 30
0.0
 10
468.8977818618
 20
35.2476309181
 30
0.0
 10
469.6886563178
 20
36.1761625428
 30
0.0
 10
469.6886563178
 20
36.1761625428
 30
0.0
 10
470.826290752
 20
34.7613818317
 30
0.0
 10
470.826290752
 20
34.7613818317
 30
0.0
  0
LINE
  5
26A
330
22D
100
AcDbEntity
  8
0
  6
Continuous
 62
     7
100
AcDbLine
 10
456.6291521269
 20
32.7352567364
 30
0.0
 11
479.0430628546
 21
32.7352567364
 31
0.0
  0
LINE
  5
26B
330
22D
100
AcDbEntity
  8
0
  6
Continuous
 62
     7
100
AcDbLine
 10
479.0430628546
 20
32.7352567364
 30
0.0
 11
479.0430628546
 21
55.149167464
 31
0.0
  0
LINE
  5
26C
330
22D
100
AcDbEntity
  8
0
  6
Continuous
 62
     7
100
AcDbLine
 10
479.0430628546
 20
55.149167464
 30
0.0
 11
456.6291521269
 21
55.149167464
 31
0.0
  0
LINE
  5
26D
330
22D
100
AcDbEntity
  8
0
  6
Continuous
 62
     7
100
AcDbLine
 10
456.6291521269
 20
55.149167464
 30
0.0
 11
456.6291521269
 21
32.7352567364
 31
0.0
  0
ENDBLK
  5
26E
330
22D
100
AcDbEntity
  8
0
  6
ByBlock
 62
     0
100
AcDbBlockEnd
  0
BLOCK
  5
26F
330
22E
100
AcDbEntity
  8
0
100
AcDbBlockBegin
  2
PROIEZIONE_EU_BL0
 70
     0
 10
469.0099950196
 20
67.650479964
 30
0.0
  3
PROIEZIONE_EU_BL0
  1

  0
LWPOLYLINE
  5
270
330
22E
100
AcDbEntity
  8
DEFAULT_1
  6
CENTER
 62
     7
100
AcDbPolyline
 90
        2
 70
     0
 43
0.25
 10
475.1366156812
 20
72.6501740959
 10
475.1366566636
 20
62.6507858321
  0
LWPOLYLINE
  5
271
330
22E
100
AcDbEntity
  8
DEFAULT_1
  6
CENTER
 62
     7
100
AcDbPolyline
 90
        2
 70
     0
 43
0.25
 10
481.1366455063
 20
67.6507510991
 10
456.8833445328
 20
67.6504804387
  0
LWPOLYLINE
  5
272
330
22E
100
AcDbEntity
  8
0
  6
Continuous
 62
     7
100
AcDbPolyline
 90
        2
 70
     1
 43
0.25
 10
471.5895055054
 20
67.6319322098
 42
1.0
 10
478.6958346041
 20
67.6319322098
 42
1.0
  0
LWPOLYLINE
  5
273
330
22E
100
AcDbEntity
  8
0
  6
Continuous
 62
     7
100
AcDbPolyline
 90
        2
 70
     1
 43
0.25
 10
473.1392493338
 20
67.6498302544
 42
1.0
 10
477.1510010839
 20
67.6498302544
 42
1.0
  0
LWPOLYLINE
  5
274
330
22E
100
AcDbEntity
  8
0
  6
Continuous
 62
     7
100
AcDbPolyline
 90
        2
 70
     0
 43
0.25
 10
469.1366433003
 20
71.2256834592
 10
469.1366429457
 20
64.1254805509
  0
LWPOLYLINE
  5
275
330
22E
100
AcDbEntity
  8
0
  6
Continuous
 62
     7
100
AcDbPolyline
 90
        2
 70
     0
 43
0.25
 10
469.1366713821
 20
64.1254521145
 10
459.1421141109
 20
65.6455455274
  0
LWPOLYLINE
  5
276
330
22E
100
AcDbEntity
  8
0
  6
Continuous
 62
     7
100
AcDbPolyline
 90
        2
 70
     0
 43
0.25
 10
459.1398041253
 20
65.6448679858
 10
459.1371372212
 20
69.6505065973
  0
LWPOLYLINE
  5
277
330
22E
100
AcDbEntity
  8
0
  6
Continuous
 62
     7
100
AcDbPolyline
 90
        2
 70
     0
 43
0.25
 10
459.1371289452
 20
69.6504983212
 10
469.1368721825
 20
71.2256555413
  0
ENDBLK
  5
278
330
22E
100
AcDbEntity
  8
0
  6
ByBlock
 62
     0
100
AcDbBlockEnd
  0
BLOCK
  5
29A
330
22F
100
AcDbEntity
  8
0
100
AcDbBlockBegin
  2
*T6
 70
     1
 10
0.0
 20
0.0
 30
0.0
  3
*T6
  1

  0
LINE
  5
29B
330
22F
100
AcDbEntity
  8
0
  6
Continuous
 62
     2
100
AcDbLine
 10
0.0
 20
0.0
 30
0.0
 11
130.0
 21
0.0
 31
0.0
  0
LINE
  5
29C
330
22F
100
AcDbEntity
  8
0
  6
Continuous
 62
     2
100
AcDbLine
 10
0.0
 20
0.0
 30
0.0
 11
0.0
 21
-66.0
 31
0.0
  0
LINE
  5
29D
330
22F
100
AcDbEntity
  8
0
  6
Continuous
 62
     2
100
AcDbLine
 10
30.0
 20
-8.0
 30
0.0
 11
130.0
 21
-8.0
 31
0.0
  0
LINE
  5
29E
330
22F
100
AcDbEntity
  8
0
  6
Continuous
 62
     2
100
AcDbLine
 10
0.0
 20
-16.0
 30
0.0
 11
130.0
 21
-16.0
 31
0.0
  0
LINE
  5
29F
330
22F
100
AcDbEntity
  8
0
  6
Continuous
 62
     2
100
AcDbLine
 10
30.0
 20
-22.0
 30
0.0
 11
130.0
 21
-22.0
 31
0.0
  0
LINE
  5
2A0
330
22F
100
AcDbEntity
  8
0
  6
Continuous
 62
     2
100
AcDbLine
 10
30.0
 20
-28.0
 30
0.0
 11
130.0
 21
-28.0
 31
0.0
  0
LINE
  5
2A1
330
22F
100
AcDbEntity
  8
0
  6
Continuous
 62
     2
100
AcDbLine
 10
30.0
 20
-34.0
 30
0.0
 11
130.0
 21
-34.0
 31
0.0
  0
LINE
  5
2A2
330
22F
100
AcDbEntity
  8
0
  6
Continuous
 62
     2
100
AcDbLine
 10
30.0
 20
-40.0
 30
0.0
 11
130.0
 21
-40.0
 31
0.0
  0
LINE
  5
2A3
330
22F
100
AcDbEntity
  8
0
  6
Continuous
 62
     2
100
AcDbLine
 10
30.0
 20
-46.0
 30
0.0
 11
130.0
 21
-46.0
 31
0.0
  0
LINE
  5
2A4
330
22F
100
AcDbEntity
  8
0
  6
Continuous
 62
     2
100
AcDbLine
 10
0.0
 20
-52.0
 30
0.0
 11
130.0
 21
-52.0
 31
0.0
  0
LINE
  5
2A5
330
22F
100
AcDbEntity
  8
0
  6
Continuous
 62
     2
100
AcDbLine
 10
0.0
 20
-58.0
 30
0.0
 11
130.0
 21
-58.0
 31
0.0
  0
LINE
  5
2A6
330
22F
100
AcDbEntity
  8
0
  6
Continuous
 62
     2
100
AcDbLine
 10
0.0
 20
-62.0
 30
0.0
 11
130.0
 21
-62.0
 31
0.0
  0
LINE
  5
2A7
330
22F
100
AcDbEntity
  8
0
  6
Continuous
 62
     2
100
AcDbLine
 10
0.0
 20
-66.0
 30
0.0
 11
130.0
 21
-66.0
 31
0.0
  0
LINE
  5
2A8
330
22F
100
AcDbEntity
  8
0
  6
Continuous
 62
     2
100
AcDbLine
 10
30.0
 20
0.0
 30
0.0
 11
30.0
 21
-58.0
 31
0.0
  0
LINE
  5
2A9
330
22F
100
AcDbEntity
  8
0
  6
Continuous
 62
     2
100
AcDbLine
 10
50.0
 20
-16.0
 30
0.0
 11
50.0
 21
-22.0
 31
0.0
  0
LINE
  5
2AA
330
22F
100
AcDbEntity
  8
0
  6
Continuous
 62
     2
100
AcDbLine
 10
80.0
 20
-46.0
 30
0.0
 11
80.0
 21
-58.0
 31
0.0
  0
LINE
  5
2AB
330
22F
100
AcDbEntity
  8
0
  6
Continuous
 62
     2
100
AcDbLine
 10
90.0
 20
-16.0
 30
0.0
 11
90.0
 21
-22.0
 31
0.0
  0
LINE
  5
2AC
330
22F
100
AcDbEntity
  8
0
  6
Continuous
 62
     2
100
AcDbLine
 10
90.0
 20
-28.0
 30
0.0
 11
90.0
 21
-34.0
 31
0.0
  0
LINE
  5
2AD
330
22F
100
AcDbEntity
  8
0
  6
Continuous
 62
     2
100
AcDbLine
 10
110.0
 20
-16.0
 30
0.0
 11
110.0
 21
-22.0
 31
0.0
  0
LINE
  5
2AE
330
22F
100
AcDbEntity
  8
0
  6
Continuous
 62
     2
100
AcDbLine
 10
120.0
 20
-28.0
 30
0.0
 11
120.0
 21
-34.0
 31
0.0
  0
LINE
  5
2AF
330
22F
100
AcDbEntity
  8
0
  6
Continuous
 62
     2
100
AcDbLine
 10
130.0
 20
0.0
 30
0.0
 11
130.0
 21
-66.0
 31
0.0
  0
MTEXT
  5
2B0
330
22F
100
AcDbEntity
  8
9_SOLID
  6
Continuous
 62
     2
100
AcDbMText
 10
31.4875
 20
-1.625
 30
0.0
 40
1.9
 41
189.819047619
 46
0.0
 71
     1
 72
     1
  1
EN: Chamfer/radii unlisted 0.3x45°. Remove sharp edges.\PGen. tol.: hole H11, shaft h11, lenght Js12. UNI EN 22768 Medium Grande.
  7
TEXTSTYLE_5
 73
     1
 44
0.9
  0
MTEXT
  5
2B1
330
22F
100
AcDbEntity
  8
9_SOLID
  6
Continuous
 62
     2
100
AcDbMText
 10
31.4875
 20
-9.625
 30
0.0
 40
1.9
 41
197.6904761905
 46
0.0
 71
     1
 72
     1
  1
IT: Sm./rac. non quotati 0.3x45°. Eliminare spigoli taglienti.\PToll. gen.: foro H11, albero h11, lunghezza Js12. UNI EN 22768 Grado Medio.
  7
TEXTSTYLE_5
 73
     1
 44
0.9
  0
MTEXT
  5
2B2
330
22F
100
AcDbEntity
  8
9_SOLID
  6
Continuous
 62
     2
100
AcDbMText
 10
31.4875
 20
-17.75
 30
0.0
 40
3.0
 41
29.0
 46
0.0
 71
     1
 72
     1
  1
Pj: 565
  7
TEXTSTYLE_5
 73
     1
 44
0.9
  0
MTEXT
  5
2B3
330
22F
100
AcDbEntity
  8
9_SOLID
  6
Continuous
 62
     2
100
AcDbMText
 10
51.4875
 20
-17.75
 30
0.0
 40
3.0
 41
50.7142857143
 46
0.0
 71
     1
 72
     1
  1
% Check: %
  7
TEXTSTYLE_5
 73
     1
 44
0.9
  0
MTEXT
  5
2B4
330
22F
100
AcDbEntity
  8
9_SOLID
  6
Continuous
 62
     2
100
AcDbMText
 10
91.4875
 20
-17.75
 30
0.0
 40
3.0
 41
26.0
 46
0.0
 71
     1
 72
     1
  1
Rev:00
  7
TEXTSTYLE_5
 73
     1
 44
0.9
  0
MTEXT
  5
2B5
330
22F
100
AcDbEntity
  8
9_SOLID
  6
Continuous
 62
     2
100
AcDbMText
 10
111.4875
 20
-17.5
 30
0.0
 40
3.0
 41
26.2857142857
 46
0.0
 71
     1
 72
     1
  1
Ver: A
  7
TEXTSTYLE_5
 73
     1
 44
0.9
  0
MTEXT
  5
2B6
330
22F
100
AcDbEntity
  8
9_SOLID
  6
Continuous
 62
     2
100
AcDbMText
 10
31.4875
 20
-23.75
 30
0.0
 40
3.0
 41
97.8571428571
 46
0.0
 71
     1
 72
     1
  1
Neutral code: 565_C_710
  7
TEXTSTYLE_5
 73
     1
 44
0.9
  0
MTEXT
  5
2B7
330
22F
100
AcDbEntity
  8
9_SOLID
  6
Continuous
 62
     2
100
AcDbMText
 10
31.4875
 20
-29.75
 30
0.0
 40
3.0
 41
25.8571428571
 46
0.0
 71
     1
 72
     1
  1
Code: 
  7
TEXTSTYLE_5
 73
     1
 44
0.9
  0
MTEXT
  5
2B8
330
22F
100
AcDbEntity
  8
9_SOLID
  6
Continuous
 62
     2
100
AcDbMText
 10
91.4875
 20
-29.5
 30
0.0
 40
3.0
 41
36.0
 46
0.0
 71
     1
 72
     1
  1
Scale: 1:1
  7
TEXTSTYLE_5
 73
     1
 44
0.9
  0
MTEXT
  5
2B9
330
22F
100
AcDbEntity
  8
9_SOLID
  6
Continuous
 62
     2
100
AcDbMText
 10
125.0
 20
-29.5
 30
0.0
 40
3.0
 41
9.8571428571
 46
0.0
 71
     2
 72
     1
  1
A2
  7
TEXTSTYLE_5
 73
     1
 44
0.9
  0
MTEXT
  5
2BA
330
22F
100
AcDbEntity
  8
9_SOLID
  6
Continuous
 62
     2
100
AcDbMText
 10
31.4875
 20
-35.65
 30
0.0
 40
2.7
 41
186.5571428571
 46
0.0
 71
     1
 72
     1
  1
It descr.: DISEGNO CATALOGO CASS. COD. WC6700
  7
TEXTSTYLE_5
 73
     1
 44
0.9
  0
MTEXT
  5
2BB
330
22F
100
AcDbEntity
  8
9_SOLID
  6
Continuous
 62
     2
100
AcDbMText
 10
31.4875
 20
-41.5
 30
0.0
 40
3.0
 41
45.2857142857
 46
0.0
 71
     1
 72
     1
  1
En descr.: 
  7
TEXTSTYLE_5
 73
     1
 44
0.9
  0
MTEXT
  5
2BC
330
22F
100
AcDbEntity
  8
9_SOLID
  6
Continuous
 62
     2
100
AcDbMText
 10
31.4875
 20
-47.5
 30
0.0
 40
3.0
 41
41.2857142857
 46
0.0
 71
     1
 72
     1
  1
Des.: F.B.
  7
TEXTSTYLE_5
 73
     1
 44
0.9
  0
MTEXT
  5
2BD
330
22F
100
AcDbEntity
  8
9_SOLID
  6
Continuous
 62
     2
100
AcDbMText
 10
81.4875
 20
-47.5
 30
0.0
 40
3.0
 41
46.4285714286
 46
0.0
 71
     1
 72
     1
  1
Check: A.P.
  7
TEXTSTYLE_5
 73
     1
 44
0.9
  0
MTEXT
  5
2BE
330
22F
100
AcDbEntity
  8
9_SOLID
  6
Continuous
 62
     2
100
AcDbMText
 10
1.4875
 20
-53.5
 30
0.0
 40
3.0
 41
56.7142857143
 46
0.0
 71
     1
 72
     1
  1
Date: 10.01.19
  7
TEXTSTYLE_5
 73
     1
 44
0.9
  0
MTEXT
  5
2BF
330
22F
100
AcDbEntity
  8
9_SOLID
  6
Continuous
 62
     2
100
AcDbMText
 10
31.4875
 20
-53.5
 30
0.0
 40
3.0
 41
24.2857142857
 46
0.0
 71
     1
 72
     1
  1
Mat.: 
  7
TEXTSTYLE_5
 73
     1
 44
0.9
  0
MTEXT
  5
2C0
330
22F
100
AcDbEntity
  8
9_SOLID
  6
Continuous
 62
     2
100
AcDbMText
 10
81.4875
 20
-54.0
 30
0.0
 40
2.0
 41
56.4761904762
 46
0.0
 71
     1
 72
     1
  1
Disegno per catalogo
  7
TEXTSTYLE_5
 73
     1
 44
0.9
  0
MTEXT
  5
2C1
330
22F
100
AcDbEntity
  8
9_SOLID
  6
Continuous
 62
     2
100
AcDbMText
 10
1.4875
 20
-59.1
 30
0.0
 40
1.8
 41
234.2571428571
 46
0.0
 71
     1
 72
     1
  1
It: A norma di legge si diffida da qualsiasi riproduzione senza nostra autorizzazione esplicita.
  7
TEXTSTYLE_5
 73
     1
 44
0.9
  0
MTEXT
  5
2C2
330
22F
100
AcDbEntity
  8
9_SOLID
  6
Continuous
 62
     2
100
AcDbMText
 10
1.4875
 20
-63.1
 30
0.0
 40
1.8
 41
210.1714285714
 46
0.0
 71
     1
 72
     1
  1
En: According to the law, beware of any reproduction made without our authorization.
  7
TEXTSTYLE_5
 73
     1
 44
0.9
  0
ENDBLK
  5
2C3
330
22F
100
AcDbEntity
  8
0
  6
ByBlock
 62
     0
100
AcDbBlockEnd
  0
ENDSEC
  0
SECTION
  2
ENTITIES
  0
LINE
  5
2C4
330
228
100
AcDbEntity
 67
     1
  8
0
  6
Continuous
 62
     7
100
AcDbLine
 10
0.0
 20
0.0
 30
0.0
 11
594.0
 21
0.0
 31
0.0
  0
LINE
  5
2C5
330
228
100
AcDbEntity
 67
     1
  8
0
  6
Continuous
 62
     7
100
AcDbLine
 10
594.0
 20
0.0
 30
0.0
 11
594.0
 21
420.0
 31
0.0
  0
LINE
  5
2C6
330
228
100
AcDbEntity
 67
     1
  8
0
  6
Continuous
 62
     7
100
AcDbLine
 10
0.0
 20
420.0
 30
0.0
 11
594.0
 21
420.0
 31
0.0
  0
LINE
  5
2C7
330
228
100
AcDbEntity
 67
     1
  8
0
  6
Continuous
 62
     7
100
AcDbLine
 10
0.0
 20
0.0
 30
0.0
 11
0.0
 21
420.0
 31
0.0
  0
LWPOLYLINE
  5
2C8
330
228
100
AcDbEntity
 67
     1
  8
0
  6
Continuous
 62
     7
100
AcDbPolyline
 90
        2
 70
     0
 43
0.5
 10
584.0
 20
10.0318435754
 10
584.0
 20
410.0
  0
LWPOLYLINE
  5
2C9
330
228
100
AcDbEntity
 67
     1
  8
0
  6
Continuous
 62
     7
100
AcDbPolyline
 90
        2
 70
     0
 43
0.5
 10
10.0536312849
 20
10.0318435754
 10
10.0536312849
 20
410.0
  0
LWPOLYLINE
  5
2CA
330
228
100
AcDbEntity
 67
     1
  8
0
  6
Continuous
 62
     7
100
AcDbPolyline
 90
        2
 70
     0
 43
0.5
 10
10.0536312849
 20
10.0318435754
 10
584.0
 20
10.0318435754
  0
LWPOLYLINE
  5
2CB
330
228
100
AcDbEntity
 67
     1
  8
0
  6
Continuous
 62
     7
100
AcDbPolyline
 90
        2
 70
     0
 43
0.1
 10
297.0
 20
10.0
 10
297.0
 20
0.0
  0
LWPOLYLINE
  5
2CC
330
228
100
AcDbEntity
 67
     1
  8
0
  6
Continuous
 62
     7
100
AcDbPolyline
 90
        2
 70
     0
 43
0.1
 10
297.0
 20
410.0
 10
297.0
 20
420.0
  0
LWPOLYLINE
  5
2CD
330
228
100
AcDbEntity
 67
     1
  8
0
  6
Continuous
 62
     7
100
AcDbPolyline
 90
        2
 70
     0
 43
0.1
 10
584.0
 20
210.0
 10
594.0
 20
210.0
  0
LWPOLYLINE
  5
2CE
330
228
100
AcDbEntity
 67
     1
  8
0
  6
Continuous
 62
     7
100
AcDbPolyline
 90
        2
 70
     0
 43
0.1
 10
10.0
 20
210.0
 10
0.0
 20
210.0
  0
LWPOLYLINE
  5
2CF
330
228
100
AcDbEntity
 67
     1
  8
0
  6
Continuous
 62
     7
100
AcDbPolyline
 90
        2
 70
     0
 43
0.5
 10
10.0536312849
 20
410.0
 10
584.0
 20
410.0
  0
LWPOLYLINE
  5
2D0
330
228
100
AcDbEntity
 67
     1
  8
0
  6
Continuous
 62
     7
100
AcDbPolyline
 90
        2
 70
     0
 43
0.1
 10
0.0
 20
413.0
 10
594.0
 20
413.0
  0
LWPOLYLINE
  5
2D1
330
228
100
AcDbEntity
 67
     1
  8
0
  6
Continuous
 62
     7
100
AcDbPolyline
 90
        2
 70
     0
 43
0.1
 10
7.0536312849
 20
0.0
 10
7.0536312849
 20
420.0
  0
LWPOLYLINE
  5
2D2
330
228
100
AcDbEntity
 67
     1
  8
0
  6
Continuous
 62
     7
100
AcDbPolyline
 90
        2
 70
     0
 43
0.1
 10
587.0
 20
0.0
 10
587.0
 20
420.0
  0
LWPOLYLINE
  5
2D3
330
228
100
AcDbEntity
 67
     1
  8
0
  6
Continuous
 62
     7
100
AcDbPolyline
 90
        2
 70
     0
 43
0.1
 10
0.0
 20
7.0318435754
 10
594.0
 20
7.0318435754
  0
LINE
  5
2D4
330
228
100
AcDbEntity
 67
     1
  8
0
  6
Continuous
 62
     7
100
AcDbLine
 10
384.0
 20
0.0
 30
0.0
 11
384.0
 21
10.0
 31
0.0
  0
LINE
  5
2D5
330
228
100
AcDbEntity
 67
     1
  8
0
  6
Continuous
 62
     7
100
AcDbLine
 10
487.0
 20
7.0
 30
0.0
 11
487.0
 21
0.0
 31
0.0
  0
LINE
  5
2D6
330
228
100
AcDbEntity
 67
     1
  8
0
  6
Continuous
 62
     7
100
AcDbLine
 10
287.0
 20
7.0
 30
0.0
 11
287.0
 21
0.0
 31
0.0
  0
LINE
  5
2D7
330
228
100
AcDbEntity
 67
     1
  8
0
  6
Continuous
 62
     7
100
AcDbLine
 10
187.0
 20
7.0
 30
0.0
 11
187.0
 21
0.0
 31
0.0
  0
LINE
  5
2D8
330
228
100
AcDbEntity
 67
     1
  8
0
  6
Continuous
 62
     7
100
AcDbLine
 10
87.0
 20
7.0
 30
0.0
 11
87.0
 21
0.0
 31
0.0
  0
LINE
  5
2D9
330
228
100
AcDbEntity
 67
     1
  8
0
  6
Continuous
 62
     7
100
AcDbLine
 10
173.5
 20
420.0
 30
0.0
 11
173.5
 21
410.0
 31
0.0
  0
LINE
  5
2DA
330
228
100
AcDbEntity
 67
     1
  8
0
  6
Continuous
 62
     7
100
AcDbLine
 10
384.0
 20
410.0
 30
0.0
 11
384.0
 21
420.0
 31
0.0
  0
LINE
  5
2DB
330
228
100
AcDbEntity
 67
     1
  8
0
  6
Continuous
 62
     7
100
AcDbLine
 10
487.0
 20
420.0
 30
0.0
 11
487.0
 21
413.0
 31
0.0
  0
LINE
  5
2DC
330
228
100
AcDbEntity
 67
     1
  8
0
  6
Continuous
 62
     7
100
AcDbLine
 10
287.0
 20
420.0
 30
0.0
 11
287.0
 21
413.0
 31
0.0
  0
LINE
  5
2DD
330
228
100
AcDbEntity
 67
     1
  8
0
  6
Continuous
 62
     7
100
AcDbLine
 10
187.0
 20
420.0
 30
0.0
 11
187.0
 21
413.0
 31
0.0
  0
LINE
  5
2DE
330
228
100
AcDbEntity
 67
     1
  8
0
  6
Continuous
 62
     7
100
AcDbLine
 10
87.0
 20
420.0
 30
0.0
 11
87.0
 21
413.0
 31
0.0
  0
LINE
  5
2DF
330
228
100
AcDbEntity
 67
     1
  8
0
  6
Continuous
 62
     7
100
AcDbLine
 10
587.0
 20
307.0
 30
0.0
 11
594.0
 21
307.0
 31
0.0
  0
LINE
  5
2E0
330
228
100
AcDbEntity
 67
     1
  8
0
  6
Continuous
 62
     7
100
AcDbLine
 10
0.0
 20
107.0
 30
0.0
 11
7.0
 21
107.0
 31
0.0
  0
LINE
  5
2E1
330
228
100
AcDbEntity
 67
     1
  8
0
  6
Continuous
 62
     7
100
AcDbLine
 10
0.0
 20
207.0
 30
0.0
 11
7.0
 21
207.0
 31
0.0
  0
LINE
  5
2E2
330
228
100
AcDbEntity
 67
     1
  8
0
  6
Continuous
 62
     7
100
AcDbLine
 10
0.0
 20
307.0
 30
0.0
 11
7.0
 21
307.0
 31
0.0
  0
MTEXT
  5
2E3
330
228
100
AcDbEntity
 67
     1
  8
0
  6
Continuous
 62
     2
100
AcDbMText
 10
536.154890719
 20
5.35876025
 30
0.0
 40
4.0
 41
3.6
 46
0.0
 71
     1
 72
     1
  1
A
  7
TEXTSTYLE_2
 73
     1
 44
0.9
  0
MTEXT
  5
2E4
330
228
100
AcDbEntity
 67
     1
  8
0
  6
Continuous
 62
     2
100
AcDbMText
 10
436.154890719
 20
5.35876025
 30
0.0
 40
4.0
 41
3.6
 46
0.0
 71
     1
 72
     1
  1
B
  7
TEXTSTYLE_2
 73
     1
 44
0.9
  0
MTEXT
  5
2E5
330
228
100
AcDbEntity
 67
     1
  8
0
  6
Continuous
 62
     2
100
AcDbMText
 10
336.154890719
 20
5.35876025
 30
0.0
 40
4.0
 41
3.6
 46
0.0
 71
     1
 72
     1
  1
C
  7
TEXTSTYLE_2
 73
     1
 44
0.9
  0
MTEXT
  5
2E6
330
228
100
AcDbEntity
 67
     1
  8
0
  6
Continuous
 62
     2
100
AcDbMText
 10
236.154890719
 20
5.35876025
 30
0.0
 40
4.0
 41
3.6
 46
0.0
 71
     1
 72
     1
  1
D
  7
TEXTSTYLE_2
 73
     1
 44
0.9
  0
MTEXT
  5
2E7
330
228
100
AcDbEntity
 67
     1
  8
0
  6
Continuous
 62
     2
100
AcDbMText
 10
136.154890719
 20
5.35876025
 30
0.0
 40
4.0
 41
3.6
 46
0.0
 71
     1
 72
     1
  1
E
  7
TEXTSTYLE_2
 73
     1
 44
0.9
  0
MTEXT
  5
2E8
330
228
100
AcDbEntity
 67
     1
  8
0
  6
Continuous
 62
     2
100
AcDbMText
 10
588.6467220993
 20
60.6268709614
 30
0.0
 40
4.0
 41
3.4285714286
 46
0.0
 71
     1
 72
     1
  1
1
  7
TEXTSTYLE_3
 73
     1
 44
0.9
  0
MTEXT
  5
2E9
330
228
100
AcDbEntity
 67
     1
  8
0
  6
Continuous
 62
     2
100
AcDbMText
 10
588.6467220993
 20
260.6268709614
 30
0.0
 40
4.0
 41
4.2857142857
 46
0.0
 71
     1
 72
     1
  1
3
  7
TEXTSTYLE_3
 73
     1
 44
0.9
  0
MTEXT
  5
2EA
330
228
100
AcDbEntity
 67
     1
  8
0
  6
Continuous
 62
     2
100
AcDbMText
 10
588.6467220993
 20
360.6268709614
 30
0.0
 40
4.0
 41
4.7142857143
 46
0.0
 71
     1
 72
     1
  1
4
  7
TEXTSTYLE_3
 73
     1
 44
0.9
  0
MTEXT
  5
2EB
330
228
100
AcDbEntity
 67
     1
  8
0
  6
Continuous
 62
     2
100
AcDbMText
 10
36.154890719
 20
5.35876025
 30
0.0
 40
4.0
 41
3.6
 46
0.0
 71
     1
 72
     1
  1
F
  7
TEXTSTYLE_2
 73
     1
 44
0.9
  0
MTEXT
  5
2EC
330
228
100
AcDbEntity
 67
     1
  8
0
  6
Continuous
 62
     2
100
AcDbMText
 10
536.154890719
 20
418.35876025
 30
0.0
 40
4.0
 41
3.6
 46
0.0
 71
     1
 72
     1
  1
A
  7
TEXTSTYLE_2
 73
     1
 44
0.9
  0
MTEXT
  5
2ED
330
228
100
AcDbEntity
 67
     1
  8
0
  6
Continuous
 62
     2
100
AcDbMText
 10
436.154890719
 20
418.35876025
 30
0.0
 40
4.0
 41
3.6
 46
0.0
 71
     1
 72
     1
  1
B
  7
TEXTSTYLE_2
 73
     1
 44
0.9
  0
MTEXT
  5
2EE
330
228
100
AcDbEntity
 67
     1
  8
0
  6
Continuous
 62
     2
100
AcDbMText
 10
336.154890719
 20
418.35876025
 30
0.0
 40
4.0
 41
3.6
 46
0.0
 71
     1
 72
     1
  1
C
  7
TEXTSTYLE_2
 73
     1
 44
0.9
  0
MTEXT
  5
2EF
330
228
100
AcDbEntity
 67
     1
  8
0
  6
Continuous
 62
     2
100
AcDbMText
 10
236.154890719
 20
418.35876025
 30
0.0
 40
4.0
 41
3.6
 46
0.0
 71
     1
 72
     1
  1
D
  7
TEXTSTYLE_2
 73
     1
 44
0.9
  0
MTEXT
  5
2F0
330
228
100
AcDbEntity
 67
     1
  8
0
  6
Continuous
 62
     2
100
AcDbMText
 10
136.154890719
 20
418.35876025
 30
0.0
 40
4.0
 41
3.6
 46
0.0
 71
     1
 72
     1
  1
E
  7
TEXTSTYLE_2
 73
     1
 44
0.9
  0
MTEXT
  5
2F1
330
228
100
AcDbEntity
 67
     1
  8
0
  6
Continuous
 62
     2
100
AcDbMText
 10
36.154890719
 20
418.35876025
 30
0.0
 40
4.0
 41
3.6
 46
0.0
 71
     1
 72
     1
  1
F
  7
TEXTSTYLE_2
 73
     1
 44
0.9
  0
MTEXT
  5
2F2
330
228
100
AcDbEntity
 67
     1
  8
0
  6
Continuous
 62
     2
100
AcDbMText
 10
1.6467220993
 20
60.6268709614
 30
0.0
 40
4.0
 41
3.4285714286
 46
0.0
 71
     1
 72
     1
  1
1
  7
TEXTSTYLE_3
 73
     1
 44
0.9
  0
MTEXT
  5
2F3
330
228
100
AcDbEntity
 67
     1
  8
0
  6
Continuous
 62
     2
100
AcDbMText
 10
1.6467220993
 20
160.6268709614
 30
0.0
 40
4.0
 41
4.7142857143
 46
0.0
 71
     1
 72
     1
  1
2
  7
TEXTSTYLE_3
 73
     1
 44
0.9
  0
MTEXT
  5
2F4
330
228
100
AcDbEntity
 67
     1
  8
0
  6
Continuous
 62
     2
100
AcDbMText
 10
1.6467220993
 20
260.6268709614
 30
0.0
 40
4.0
 41
4.2857142857
 46
0.0
 71
     1
 72
     1
  1
3
  7
TEXTSTYLE_3
 73
     1
 44
0.9
  0
MTEXT
  5
2F5
330
228
100
AcDbEntity
 67
     1
  8
0
  6
Continuous
 62
     2
100
AcDbMText
 10
1.6467220993
 20
360.6268709614
 30
0.0
 40
4.0
 41
4.7142857143
 46
0.0
 71
     1
 72
     1
  1
4
  7
TEXTSTYLE_3
 73
     1
 44
0.9
  0
VIEWPORT
  5
2F6
330
228
100
AcDbEntity
 67
     1
  8
0
100
AcDbViewport
 10
297.0
 20
210.0
 30
0.0
 40
594.0
 41
420.0
 68
     1
 69
     1
 12
297.0
 22
210.0
 13
0.0
 23
0.0
 14
10.0
 24
10.0
 15
10.0
 25
10.0
 16
0.0
 26
0.0
 36
1.0
 17
0.0
 27
0.0
 37
0.0
 42
50.0
 43
0.0
 44
0.0
 45
420.0
 50
0.0
 51
0.0
 72
   100
 90
    32864
  1

281
     0
 71
     1
 74
     0
110
0.0
120
0.0
130
0.0
111
1.0
121
0.0
131
0.0
112
0.0
122
1.0
132
0.0
 79
     0
146
0.0
170
     0
 61
     5
348
4F4
292
     1
282
     1
141
0.0
142
0.0
 63
   256
361
510
  0
LINE
  5
2F7
330
228
100
AcDbEntity
 67
     1
  8
3_ALL_AXES
  6
Continuous
 62
     7
100
AcDbLine
 10
40.9672053232
 20
308.6560878084
 30
0.0
 11
40.6179256528
 21
308.949168251
 31
0.0
  0
LINE
  5
2F8
330
228
100
AcDbEntity
 67
     1
  8
3_ALL_AXES
  6
Continuous
 62
     7
100
AcDbLine
 10
40.4672053232
 20
308.9491201848
 30
0.0
 11
40.4672053232
 21
306.199168251
 31
0.0
  0
LINE
  5
2F9
330
228
100
AcDbEntity
 67
     1
  8
3_ALL_AXES
  6
Continuous
 62
     7
100
AcDbLine
 10
40.6179256528
 20
308.949168251
 30
0.0
 11
40.4672053232
 21
308.949168251
 31
0.0
  0
LINE
  5
2FA
330
228
100
AcDbEntity
 67
     1
  8
3_ALL_AXES
  6
Continuous
 62
     7
100
AcDbLine
 10
40.9672053232
 20
303.7422486935
 30
0.0
 11
40.6179256528
 21
303.449168251
 31
0.0
  0
LINE
  5
2FB
330
228
100
AcDbEntity
 67
     1
  8
3_ALL_AXES
  6
Continuous
 62
     7
100
AcDbLine
 10
40.4672053232
 20
303.4492163171
 30
0.0
 11
40.4672053232
 21
306.199168251
 31
0.0
  0
LINE
  5
2FC
330
228
100
AcDbEntity
 67
     1
  8
3_ALL_AXES
  6
Continuous
 62
     7
100
AcDbLine
 10
40.6179256528
 20
303.449168251
 30
0.0
 11
40.4672053232
 21
303.449168251
 31
0.0
  0
LINE
  5
2FD
330
228
100
AcDbEntity
 67
     1
  8
3_ALL_AXES
  6
Continuous
 62
     7
100
AcDbLine
 10
40.6179256528
 20
308.949168251
 30
0.0
 11
40.6179256528
 21
306.199168251
 31
0.0
  0
LINE
  5
2FE
330
228
100
AcDbEntity
 67
     1
  8
3_ALL_AXES
  6
Continuous
 62
     7
100
AcDbLine
 10
40.6179256528
 20
303.449168251
 30
0.0
 11
40.6179256528
 21
306.199168251
 31
0.0
  0
LINE
  5
2FF
330
228
100
AcDbEntity
 67
     1
  8
3_ALL_AXES
  6
Continuous
 62
     7
100
AcDbLine
 10
40.9672053232
 20
259.9060878084
 30
0.0
 11
40.6179256528
 21
260.199168251
 31
0.0
  0
LINE
  5
300
330
228
100
AcDbEntity
 67
     1
  8
3_ALL_AXES
  6
Continuous
 62
     7
100
AcDbLine
 10
40.4672053232
 20
260.1991201848
 30
0.0
 11
40.4672053232
 21
257.449168251
 31
0.0
  0
LINE
  5
301
330
228
100
AcDbEntity
 67
     1
  8
3_ALL_AXES
  6
Continuous
 62
     7
100
AcDbLine
 10
40.6179256528
 20
260.199168251
 30
0.0
 11
40.4672053232
 21
260.199168251
 31
0.0
  0
LINE
  5
302
330
228
100
AcDbEntity
 67
     1
  8
3_ALL_AXES
  6
Continuous
 62
     7
100
AcDbLine
 10
40.9672053232
 20
254.9922486935
 30
0.0
 11
40.6179256528
 21
254.699168251
 31
0.0
  0
LINE
  5
303
330
228
100
AcDbEntity
 67
     1
  8
3_ALL_AXES
  6
Continuous
 62
     7
100
AcDbLine
 10
40.4672053232
 20
254.6992163171
 30
0.0
 11
40.4672053232
 21
257.449168251
 31
0.0
  0
LINE
  5
304
330
228
100
AcDbEntity
 67
     1
  8
3_ALL_AXES
  6
Continuous
 62
     7
100
AcDbLine
 10
40.6179256528
 20
254.699168251
 30
0.0
 11
40.4672053232
 21
254.699168251
 31
0.0
  0
LINE
  5
305
330
228
100
AcDbEntity
 67
     1
  8
3_ALL_AXES
  6
Continuous
 62
     7
100
AcDbLine
 10
40.6179256528
 20
260.199168251
 30
0.0
 11
40.6179256528
 21
257.449168251
 31
0.0
  0
LINE
  5
306
330
228
100
AcDbEntity
 67
     1
  8
3_ALL_AXES
  6
Continuous
 62
     7
100
AcDbLine
 10
40.6179256528
 20
254.699168251
 30
0.0
 11
40.6179256528
 21
257.449168251
 31
0.0
  0
LINE
  5
307
330
228
100
AcDbEntity
 67
     1
  8
3_ALL_AXES
  6
Continuous
 62
     7
100
AcDbLine
 10
362.4672053232
 20
259.9060878084
 30
0.0
 11
362.8164849936
 21
260.199168251
 31
0.0
  0
LINE
  5
308
330
228
100
AcDbEntity
 67
     1
  8
3_ALL_AXES
  6
Continuous
 62
     7
100
AcDbLine
 10
362.8164849936
 20
260.199168251
 30
0.0
 11
362.9672053232
 21
260.199168251
 31
0.0
  0
LINE
  5
309
330
228
100
AcDbEntity
 67
     1
  8
3_ALL_AXES
  6
Continuous
 62
     7
100
AcDbLine
 10
362.9672053232
 20
257.449168251
 30
0.0
 11
362.9672053232
 21
254.6992163171
 31
0.0
  0
LINE
  5
30A
330
228
100
AcDbEntity
 67
     1
  8
3_ALL_AXES
  6
Continuous
 62
     7
100
AcDbLine
 10
362.9672053232
 20
257.449168251
 30
0.0
 11
362.9672053232
 21
260.1991201848
 31
0.0
  0
LINE
  5
30B
330
228
100
AcDbEntity
 67
     1
  8
3_ALL_AXES
  6
Continuous
 62
     7
100
AcDbLine
 10
362.4672053232
 20
254.9922486935
 30
0.0
 11
362.8164849936
 21
254.699168251
 31
0.0
  0
LINE
  5
30C
330
228
100
AcDbEntity
 67
     1
  8
3_ALL_AXES
  6
Continuous
 62
     7
100
AcDbLine
 10
362.8164849936
 20
254.699168251
 30
0.0
 11
362.9672053232
 21
254.699168251
 31
0.0
  0
LINE
  5
30D
330
228
100
AcDbEntity
 67
     1
  8
3_ALL_AXES
  6
Continuous
 62
     7
100
AcDbLine
 10
362.8164849936
 20
257.449168251
 30
0.0
 11
362.8164849936
 21
260.199168251
 31
0.0
  0
LINE
  5
30E
330
228
100
AcDbEntity
 67
     1
  8
3_ALL_AXES
  6
Continuous
 62
     7
100
AcDbLine
 10
362.8164849936
 20
257.449168251
 30
0.0
 11
362.8164849936
 21
254.699168251
 31
0.0
  0
LINE
  5
30F
330
228
100
AcDbEntity
 67
     1
  8
3_ALL_AXES
  6
Continuous
 62
     7
100
AcDbLine
 10
362.4672053232
 20
308.6560878084
 30
0.0
 11
362.8164849936
 21
308.949168251
 31
0.0
  0
LINE
  5
310
330
228
100
AcDbEntity
 67
     1
  8
3_ALL_AXES
  6
Continuous
 62
     7
100
AcDbLine
 10
362.8164849936
 20
308.949168251
 30
0.0
 11
362.9672053232
 21
308.949168251
 31
0.0
  0
LINE
  5
311
330
228
100
AcDbEntity
 67
     1
  8
3_ALL_AXES
  6
Continuous
 62
     7
100
AcDbLine
 10
362.9672053232
 20
306.199168251
 30
0.0
 11
362.9672053232
 21
303.4492163171
 31
0.0
  0
LINE
  5
312
330
228
100
AcDbEntity
 67
     1
  8
3_ALL_AXES
  6
Continuous
 62
     7
100
AcDbLine
 10
362.9672053232
 20
306.199168251
 30
0.0
 11
362.9672053232
 21
308.9491201848
 31
0.0
  0
LINE
  5
313
330
228
100
AcDbEntity
 67
     1
  8
3_ALL_AXES
  6
Continuous
 62
     7
100
AcDbLine
 10
362.4672053232
 20
303.7422486935
 30
0.0
 11
362.8164849936
 21
303.449168251
 31
0.0
  0
LINE
  5
314
330
228
100
AcDbEntity
 67
     1
  8
3_ALL_AXES
  6
Continuous
 62
     7
100
AcDbLine
 10
362.8164849936
 20
303.449168251
 30
0.0
 11
362.9672053232
 21
303.449168251
 31
0.0
  0
LINE
  5
315
330
228
100
AcDbEntity
 67
     1
  8
3_ALL_AXES
  6
Continuous
 62
     7
100
AcDbLine
 10
362.8164849936
 20
306.199168251
 30
0.0
 11
362.8164849936
 21
308.949168251
 31
0.0
  0
LINE
  5
316
330
228
100
AcDbEntity
 67
     1
  8
3_ALL_AXES
  6
Continuous
 62
     7
100
AcDbLine
 10
362.8164849936
 20
306.199168251
 30
0.0
 11
362.8164849936
 21
303.449168251
 31
0.0
  0
LINE
  5
317
330
228
100
AcDbEntity
 67
     1
  8
7_ALL_FEATURES
  6
Continuous
 62
     7
100
AcDbLine
 10
362.4672053232
 20
329.149168251
 30
0.0
 11
362.4672053232
 21
326.749168251
 31
0.0
  0
LINE
  5
318
330
228
100
AcDbEntity
 67
     1
  8
7_ALL_FEATURES
  6
Continuous
 62
     7
100
AcDbLine
 10
362.4672053232
 20
326.749168251
 30
0.0
 11
362.4672053232
 21
325.949168251
 31
0.0
  0
LINE
  5
319
330
228
100
AcDbEntity
 67
     1
  8
7_ALL_FEATURES
  6
Continuous
 62
     7
100
AcDbLine
 10
362.4672053232
 20
255.449168251
 30
0.0
 11
362.4672053232
 21
325.949168251
 31
0.0
  0
LINE
  5
31A
330
228
100
AcDbEntity
 67
     1
  8
7_ALL_FEATURES
  6
Continuous
 62
     7
100
AcDbLine
 10
362.4672053232
 20
255.449168251
 30
0.0
 11
362.4672053232
 21
254.449168251
 31
0.0
  0
LINE
  5
31B
330
228
100
AcDbEntity
 67
     1
  8
7_ALL_FEATURES
  6
Continuous
 62
     7
100
AcDbLine
 10
362.4672053232
 20
337.949168251
 30
0.0
 11
362.4672053232
 21
336.949168251
 31
0.0
  0
LINE
  5
31C
330
228
100
AcDbEntity
 67
     1
  8
7_ALL_FEATURES
  6
Continuous
 62
     7
100
AcDbLine
 10
362.4672053232
 20
329.949168251
 30
0.0
 11
362.4672053232
 21
336.949168251
 31
0.0
  0
LINE
  5
31D
330
228
100
AcDbEntity
 67
     1
  8
7_ALL_FEATURES
  6
Continuous
 62
     7
100
AcDbLine
 10
362.4672053232
 20
329.949168251
 30
0.0
 11
362.4672053232
 21
329.149168251
 31
0.0
  0
LINE
  5
31E
330
228
100
AcDbEntity
 67
     1
  8
7_ALL_FEATURES
  6
Continuous
 62
     7
100
AcDbLine
 10
362.4672053232
 20
254.449168251
 30
0.0
 11
360.9672053232
 21
254.449168251
 31
0.0
  0
LINE
  5
31F
330
228
100
AcDbEntity
 67
     1
  8
7_ALL_FEATURES
  6
Continuous
 62
     7
100
AcDbLine
 10
362.4672053232
 20
337.949168251
 30
0.0
 11
360.9672053232
 21
337.949168251
 31
0.0
  0
LINE
  5
320
330
228
100
AcDbEntity
 67
     1
  8
7_ALL_FEATURES
  6
Continuous
 62
     9
100
AcDbLine
 10
362.4672053232
 20
255.449168251
 30
0.0
 11
360.9672053232
 21
255.449168251
 31
0.0
  0
LINE
  5
321
330
228
100
AcDbEntity
 67
     1
  8
7_ALL_FEATURES
  6
Continuous
 62
     9
100
AcDbLine
 10
362.4672053232
 20
326.749168251
 30
0.0
 11
360.9672053232
 21
326.749168251
 31
0.0
  0
LINE
  5
322
330
228
100
AcDbEntity
 67
     1
  8
7_ALL_FEATURES
  6
Continuous
 62
     9
100
AcDbLine
 10
362.4672053232
 20
329.149168251
 30
0.0
 11
360.9672053232
 21
329.149168251
 31
0.0
  0
LINE
  5
323
330
228
100
AcDbEntity
 67
     1
  8
7_ALL_FEATURES
  6
Continuous
 62
     9
100
AcDbLine
 10
362.4672053232
 20
325.949168251
 30
0.0
 11
360.9672053232
 21
325.949168251
 31
0.0
  0
LINE
  5
324
330
228
100
AcDbEntity
 67
     1
  8
7_ALL_FEATURES
  6
Continuous
 62
     9
100
AcDbLine
 10
362.4672053232
 20
336.949168251
 30
0.0
 11
360.9672053232
 21
336.949168251
 31
0.0
  0
LINE
  5
325
330
228
100
AcDbEntity
 67
     1
  8
7_ALL_FEATURES
  6
Continuous
 62
     9
100
AcDbLine
 10
362.4672053232
 20
329.949168251
 30
0.0
 11
360.9672053232
 21
329.949168251
 31
0.0
  0
LINE
  5
326
330
228
100
AcDbEntity
 67
     1
  8
7_ALL_FEATURES
  6
Continuous
 62
     7
100
AcDbLine
 10
40.9672053232
 20
254.449168251
 30
0.0
 11
40.9672053232
 21
255.449168251
 31
0.0
  0
LINE
  5
327
330
228
100
AcDbEntity
 67
     1
  8
7_ALL_FEATURES
  6
Continuous
 62
     7
100
AcDbLine
 10
40.9672053232
 20
265.949168251
 30
0.0
 11
40.9672053232
 21
255.449168251
 31
0.0
  0
LINE
  5
328
330
228
100
AcDbEntity
 67
     1
  8
7_ALL_FEATURES
  6
Continuous
 62
     7
100
AcDbLine
 10
40.9672053232
 20
265.949168251
 30
0.0
 11
40.9672053232
 21
266.749168251
 31
0.0
  0
LINE
  5
329
330
228
100
AcDbEntity
 67
     1
  8
7_ALL_FEATURES
  6
Continuous
 62
     7
100
AcDbLine
 10
40.9672053232
 20
266.749168251
 30
0.0
 11
40.9672053232
 21
269.149168251
 31
0.0
  0
LINE
  5
32A
330
228
100
AcDbEntity
 67
     1
  8
7_ALL_FEATURES
  6
Continuous
 62
     7
100
AcDbLine
 10
40.9672053232
 20
269.149168251
 30
0.0
 11
40.9672053232
 21
269.949168251
 31
0.0
  0
LINE
  5
32B
330
228
100
AcDbEntity
 67
     1
  8
7_ALL_FEATURES
  6
Continuous
 62
     7
100
AcDbLine
 10
40.9672053232
 20
336.949168251
 30
0.0
 11
40.9672053232
 21
269.949168251
 31
0.0
  0
LINE
  5
32C
330
228
100
AcDbEntity
 67
     1
  8
7_ALL_FEATURES
  6
Continuous
 62
     7
100
AcDbLine
 10
40.9672053232
 20
336.949168251
 30
0.0
 11
40.9672053232
 21
337.949168251
 31
0.0
  0
LINE
  5
32D
330
228
100
AcDbEntity
 67
     1
  8
7_ALL_FEATURES
  6
Continuous
 62
     7
100
AcDbLine
 10
40.9672053232
 20
254.449168251
 30
0.0
 11
42.4672053232
 21
254.449168251
 31
0.0
  0
LINE
  5
32E
330
228
100
AcDbEntity
 67
     1
  8
7_ALL_FEATURES
  6
Continuous
 62
     7
100
AcDbLine
 10
40.9672053232
 20
337.949168251
 30
0.0
 11
42.4672053232
 21
337.949168251
 31
0.0
  0
LINE
  5
32F
330
228
100
AcDbEntity
 67
     1
  8
7_ALL_FEATURES
  6
Continuous
 62
     9
100
AcDbLine
 10
40.9672053232
 20
266.749168251
 30
0.0
 11
42.4672053232
 21
266.749168251
 31
0.0
  0
LINE
  5
330
330
228
100
AcDbEntity
 67
     1
  8
7_ALL_FEATURES
  6
Continuous
 62
     9
100
AcDbLine
 10
40.9672053232
 20
269.149168251
 30
0.0
 11
42.4672053232
 21
269.149168251
 31
0.0
  0
LINE
  5
331
330
228
100
AcDbEntity
 67
     1
  8
7_ALL_FEATURES
  6
Continuous
 62
     9
100
AcDbLine
 10
40.9672053232
 20
255.449168251
 30
0.0
 11
42.4672053232
 21
255.449168251
 31
0.0
  0
LINE
  5
332
330
228
100
AcDbEntity
 67
     1
  8
7_ALL_FEATURES
  6
Continuous
 62
     9
100
AcDbLine
 10
40.9672053232
 20
265.949168251
 30
0.0
 11
42.4672053232
 21
265.949168251
 31
0.0
  0
LINE
  5
333
330
228
100
AcDbEntity
 67
     1
  8
7_ALL_FEATURES
  6
Continuous
 62
     9
100
AcDbLine
 10
40.9672053232
 20
336.949168251
 30
0.0
 11
42.4672053232
 21
336.949168251
 31
0.0
  0
LINE
  5
334
330
228
100
AcDbEntity
 67
     1
  8
7_ALL_FEATURES
  6
Continuous
 62
     9
100
AcDbLine
 10
40.9672053232
 20
269.949168251
 30
0.0
 11
42.4672053232
 21
269.949168251
 31
0.0
  0
LINE
  5
335
330
228
100
AcDbEntity
 67
     1
  8
7_ALL_FEATURES
  6
Continuous
 62
     7
100
AcDbLine
 10
252.2172053232
 20
324.449168251
 30
0.0
 11
264.2172053232
 21
324.449168251
 31
0.0
  0
LINE
  5
336
330
228
100
AcDbEntity
 67
     1
  8
7_ALL_FEATURES
  6
Continuous
 62
     7
100
AcDbLine
 10
151.2172053232
 20
324.449168251
 30
0.0
 11
252.2172053232
 21
324.449168251
 31
0.0
  0
LINE
  5
337
330
228
100
AcDbEntity
 67
     1
  8
7_ALL_FEATURES
  6
Continuous
 62
     7
100
AcDbLine
 10
139.2172053232
 20
324.449168251
 30
0.0
 11
151.2172053232
 21
324.449168251
 31
0.0
  0
LINE
  5
338
330
228
100
AcDbEntity
 67
     1
  8
7_ALL_FEATURES
  6
Continuous
 62
     7
100
AcDbLine
 10
139.2172053232
 20
323.849168251
 30
0.0
 11
139.2172053232
 21
324.449168251
 31
0.0
  0
LINE
  5
339
330
228
100
AcDbEntity
 67
     1
  8
7_ALL_FEATURES
  6
Continuous
 62
     7
100
AcDbLine
 10
264.2172053232
 20
323.849168251
 30
0.0
 11
264.2172053232
 21
324.449168251
 31
0.0
  0
LINE
  5
33A
330
228
100
AcDbEntity
 67
     1
  8
7_ALL_FEATURES
  6
Continuous
 62
     7
100
AcDbLine
 10
252.2172053232
 20
323.849168251
 30
0.0
 11
252.2172053232
 21
324.449168251
 31
0.0
  0
LINE
  5
33B
330
228
100
AcDbEntity
 67
     1
  8
7_ALL_FEATURES
  6
Continuous
 62
     7
100
AcDbLine
 10
151.2172053232
 20
323.849168251
 30
0.0
 11
151.2172053232
 21
324.449168251
 31
0.0
  0
LINE
  5
33C
330
228
100
AcDbEntity
 67
     1
  8
7_ALL_FEATURES
  6
Continuous
 62
     7
100
AcDbLine
 10
42.4672053232
 20
337.869081096
 30
0.0
 11
42.4672053232
 21
337.949168251
 31
0.0
  0
LINE
  5
33D
330
228
100
AcDbEntity
 67
     1
  8
7_ALL_FEATURES
  6
Continuous
 62
     7
100
AcDbLine
 10
42.4672053232
 20
333.771503489
 30
0.0
 11
42.4672053232
 21
332.7397231369
 31
0.0
  0
LINE
  5
33E
330
228
100
AcDbEntity
 67
     1
  8
7_ALL_FEATURES
  6
Continuous
 62
     7
100
AcDbLine
 10
42.4672053232
 20
331.7607766953
 30
0.0
 11
42.4672053232
 21
332.7397231369
 31
0.0
  0
LINE
  5
33F
330
228
100
AcDbEntity
 67
     1
  8
7_ALL_FEATURES
  6
Continuous
 62
     7
100
AcDbLine
 10
42.4672053232
 20
331.7607766953
 30
0.0
 11
42.4672053232
 21
302.149168251
 31
0.0
  0
LINE
  5
340
330
228
100
AcDbEntity
 67
     1
  8
7_ALL_FEATURES
  6
Continuous
 62
     7
100
AcDbLine
 10
42.4672053232
 20
301.949168251
 30
0.0
 11
42.4672053232
 21
302.149168251
 31
0.0
  0
LINE
  5
341
330
228
100
AcDbEntity
 67
     1
  8
7_ALL_FEATURES
  6
Continuous
 62
     7
100
AcDbLine
 10
42.4672053232
 20
297.249168251
 30
0.0
 11
42.4672053232
 21
297.449168251
 31
0.0
  0
LINE
  5
342
330
228
100
AcDbEntity
 67
     1
  8
7_ALL_FEATURES
  6
Continuous
 62
     7
100
AcDbLine
 10
42.4672053232
 20
297.249168251
 30
0.0
 11
42.4672053232
 21
284.249168251
 31
0.0
  0
LINE
  5
343
330
228
100
AcDbEntity
 67
     1
  8
7_ALL_FEATURES
  6
Continuous
 62
     7
100
AcDbLine
 10
42.4672053232
 20
283.9665621776
 30
0.0
 11
42.4672053232
 21
284.249168251
 31
0.0
  0
LINE
  5
344
330
228
100
AcDbEntity
 67
     1
  8
7_ALL_FEATURES
  6
Continuous
 62
     7
100
AcDbLine
 10
42.4672053232
 20
279.149168251
 30
0.0
 11
42.4672053232
 21
279.4317743243
 31
0.0
  0
LINE
  5
345
330
228
100
AcDbEntity
 67
     1
  8
7_ALL_FEATURES
  6
Continuous
 62
     7
100
AcDbLine
 10
42.4672053232
 20
279.149168251
 30
0.0
 11
42.4672053232
 21
255.449168251
 31
0.0
  0
LINE
  5
346
330
228
100
AcDbEntity
 67
     1
  8
7_ALL_FEATURES
  6
Continuous
 62
     7
100
AcDbLine
 10
42.4672053232
 20
254.449168251
 30
0.0
 11
42.4672053232
 21
255.449168251
 31
0.0
  0
ARC
  5
347
330
228
100
AcDbEntity
 67
     1
  8
02___PRT_ALL_AXES
  6
Continuous
 62
     7
100
AcDbCircle
 10
260.9672053232
 20
271.949168251
 30
0.0
 40
13.0
100
AcDbArc
 50
67.380135052
 51
71.11211804909999
  0
ARC
  5
348
330
228
100
AcDbEntity
 67
     1
  8
02___PRT_ALL_AXES
  6
Continuous
 62
     7
100
AcDbCircle
 10
260.9672053232
 20
271.949168251
 30
0.0
 40
13.0
100
AcDbArc
 50
33.6312774479
 51
35.2344179846
  0
LINE
  5
349
330
228
100
AcDbEntity
 67
     1
  8
7_ALL_FEATURES
  6
Continuous
 62
     7
100
AcDbLine
 10
360.9672053232
 20
255.449168251
 30
0.0
 11
360.9672053232
 21
254.449168251
 31
0.0
  0
LINE
  5
34A
330
228
100
AcDbEntity
 67
     1
  8
7_ALL_FEATURES
  6
Continuous
 62
     7
100
AcDbLine
 10
360.9672053232
 20
279.149168251
 30
0.0
 11
360.9672053232
 21
255.449168251
 31
0.0
  0
LINE
  5
34B
330
228
100
AcDbEntity
 67
     1
  8
7_ALL_FEATURES
  6
Continuous
 62
     7
100
AcDbLine
 10
360.9672053232
 20
279.4317743243
 30
0.0
 11
360.9672053232
 21
279.149168251
 31
0.0
  0
LINE
  5
34C
330
228
100
AcDbEntity
 67
     1
  8
7_ALL_FEATURES
  6
Continuous
 62
     7
100
AcDbLine
 10
360.9672053232
 20
284.249168251
 30
0.0
 11
360.9672053232
 21
283.9665621776
 31
0.0
  0
LINE
  5
34D
330
228
100
AcDbEntity
 67
     1
  8
7_ALL_FEATURES
  6
Continuous
 62
     7
100
AcDbLine
 10
360.9672053232
 20
297.249168251
 30
0.0
 11
360.9672053232
 21
284.249168251
 31
0.0
  0
LINE
  5
34E
330
228
100
AcDbEntity
 67
     1
  8
7_ALL_FEATURES
  6
Continuous
 62
     7
100
AcDbLine
 10
360.9672053232
 20
297.449168251
 30
0.0
 11
360.9672053232
 21
297.249168251
 31
0.0
  0
LINE
  5
34F
330
228
100
AcDbEntity
 67
     1
  8
02___PRT_ALL_AXES
  6
Continuous
 62
     7
100
AcDbLine
 10
234.6829632316
 20
279.449168251
 30
0.0
 11
233.9973020138
 21
279.449168251
 31
0.0
  0
LINE
  5
350
330
228
100
AcDbEntity
 67
     1
  8
02___PRT_ALL_AXES
  6
Continuous
 62
     7
100
AcDbLine
 10
169.4371086326
 20
279.449168251
 30
0.0
 11
168.7514474148
 21
279.449168251
 31
0.0
  0
LINE
  5
351
330
228
100
AcDbEntity
 67
     1
  8
02___PRT_ALL_AXES
  6
Continuous
 62
     7
100
AcDbLine
 10
139.2172053232
 20
279.449168251
 30
0.0
 11
42.4672053232
 21
279.449168251
 31
0.0
  0
LINE
  5
352
330
228
100
AcDbEntity
 67
     1
  8
02___PRT_ALL_AXES
  6
Continuous
 62
     7
100
AcDbLine
 10
360.9672053232
 20
279.449168251
 30
0.0
 11
271.585585614
 21
279.449168251
 31
0.0
  0
LINE
  5
353
330
228
100
AcDbEntity
 67
     1
  8
7_ALL_FEATURES
  6
Continuous
 62
     7
100
AcDbLine
 10
360.9672053232
 20
302.149168251
 30
0.0
 11
360.9672053232
 21
301.949168251
 31
0.0
  0
LINE
  5
354
330
228
100
AcDbEntity
 67
     1
  8
7_ALL_FEATURES
  6
Continuous
 62
     7
100
AcDbLine
 10
360.9672053232
 20
331.7607766953
 30
0.0
 11
360.9672053232
 21
302.149168251
 31
0.0
  0
LINE
  5
355
330
228
100
AcDbEntity
 67
     1
  8
7_ALL_FEATURES
  6
Continuous
 62
     7
100
AcDbLine
 10
360.9672053232
 20
332.7397231369
 30
0.0
 11
360.9672053232
 21
331.7607766953
 31
0.0
  0
LINE
  5
356
330
228
100
AcDbEntity
 67
     1
  8
7_ALL_FEATURES
  6
Continuous
 62
     7
100
AcDbLine
 10
360.9672053232
 20
333.771503489
 30
0.0
 11
360.9672053232
 21
332.7397231369
 31
0.0
  0
LINE
  5
357
330
228
100
AcDbEntity
 67
     1
  8
7_ALL_FEATURES
  6
Continuous
 62
     7
100
AcDbLine
 10
360.9672053232
 20
337.949168251
 30
0.0
 11
360.9672053232
 21
337.869081096
 31
0.0
  0
LINE
  5
358
330
228
100
AcDbEntity
 67
     1
  8
02___PRT_ALL_AXES
  6
Continuous
 62
     7
100
AcDbLine
 10
42.4672053232
 20
283.949168251
 30
0.0
 11
139.2172053232
 21
283.949168251
 31
0.0
  0
LINE
  5
359
330
228
100
AcDbEntity
 67
     1
  8
02___PRT_ALL_AXES
  6
Continuous
 62
     7
100
AcDbLine
 10
163.1054801164
 20
283.949168251
 30
0.0
 11
163.3311657341
 21
283.949168251
 31
0.0
  0
LINE
  5
35A
330
228
100
AcDbEntity
 67
     1
  8
02___PRT_ALL_AXES
  6
Continuous
 62
     7
100
AcDbLine
 10
240.1032449123
 20
283.949168251
 30
0.0
 11
240.32893053
 21
283.949168251
 31
0.0
  0
LINE
  5
35B
330
228
100
AcDbEntity
 67
     1
  8
02___PRT_ALL_AXES
  6
Continuous
 62
     7
100
AcDbLine
 10
265.9672053232
 20
283.949168251
 30
0.0
 11
360.9672053232
 21
283.949168251
 31
0.0
  0
ARC
  5
35C
330
228
100
AcDbEntity
 67
     1
  8
02___PRT_ALL_AXES
  6
Continuous
 62
     7
100
AcDbCircle
 10
260.9672053232
 20
271.949168251
 30
0.0
 40
13.0
100
AcDbArc
 50
35.2346346164
 51
67.11950940260002
  0
ARC
  5
35D
330
228
100
AcDbEntity
 67
     1
  8
02___PRT_ALL_AXES
  6
Continuous
 62
     7
100
AcDbCircle
 10
260.9672053232
 20
271.949168251
 30
0.0
 40
13.0
100
AcDbArc
 50
67.11950940260002
 51
67.379902663
  0
LINE
  5
35E
330
228
100
AcDbEntity
 67
     1
  8
7_ALL_FEATURES
  6
Continuous
 62
     7
100
AcDbLine
 10
360.9672053232
 20
254.449168251
 30
0.0
 11
264.2172053232
 21
254.449168251
 31
0.0
  0
LINE
  5
35F
330
228
100
AcDbEntity
 67
     1
  8
7_ALL_FEATURES
  6
Continuous
 62
     7
100
AcDbLine
 10
139.2172053232
 20
254.449168251
 30
0.0
 11
42.4672053232
 21
254.449168251
 31
0.0
  0
ARC
  5
360
330
228
100
AcDbEntity
 67
     1
  8
02___PRT_ALL_AXES
  6
Continuous
 62
     7
100
AcDbCircle
 10
260.9672053232
 20
271.949168251
 30
0.0
 40
13.0
100
AcDbArc
 50
71.11211804909999
 51
75.51802605649999
  0
ARC
  5
361
330
228
100
AcDbEntity
 67
     1
  8
02___PRT_ALL_AXES
  6
Continuous
 62
     7
100
AcDbCircle
 10
260.9672053232
 20
271.949168251
 30
0.0
 40
13.0
100
AcDbArc
 50
0.0
 51
33.6312774479
  0
ARC
  5
362
330
228
100
AcDbEntity
 67
     1
  8
02___PRT_ALL_AXES
  6
Continuous
 62
     7
100
AcDbCircle
 10
260.9672053232
 20
271.949168251
 30
0.0
 40
13.0
100
AcDbArc
 50
284.4847379624
 51
360.0
  0
LINE
  5
363
330
228
100
AcDbEntity
 67
     1
  8
7_ALL_FEATURES
  6
Continuous
 62
     7
100
AcDbLine
 10
360.9672053232
 20
297.449168251
 30
0.0
 11
264.2172053232
 21
297.449168251
 31
0.0
  0
LINE
  5
364
330
228
100
AcDbEntity
 67
     1
  8
7_ALL_FEATURES
  6
Continuous
 62
     7
100
AcDbLine
 10
241.7172053232
 20
297.449168251
 30
0.0
 11
241.5172053232
 21
297.449168251
 31
0.0
  0
LINE
  5
365
330
228
100
AcDbEntity
 67
     1
  8
7_ALL_FEATURES
  6
Continuous
 62
     7
100
AcDbLine
 10
161.9172053232
 20
297.449168251
 30
0.0
 11
161.7172053232
 21
297.449168251
 31
0.0
  0
LINE
  5
366
330
228
100
AcDbEntity
 67
     1
  8
7_ALL_FEATURES
  6
Continuous
 62
     7
100
AcDbLine
 10
139.2172053232
 20
297.449168251
 30
0.0
 11
42.4672053232
 21
297.449168251
 31
0.0
  0
LINE
  5
367
330
228
100
AcDbEntity
 67
     1
  8
7_ALL_FEATURES
  6
Continuous
 62
     7
100
AcDbLine
 10
360.9672053232
 20
301.949168251
 30
0.0
 11
264.2172053232
 21
301.949168251
 31
0.0
  0
LINE
  5
368
330
228
100
AcDbEntity
 67
     1
  8
7_ALL_FEATURES
  6
Continuous
 62
     7
100
AcDbLine
 10
241.7172053232
 20
301.949168251
 30
0.0
 11
241.5172053232
 21
301.949168251
 31
0.0
  0
LINE
  5
369
330
228
100
AcDbEntity
 67
     1
  8
7_ALL_FEATURES
  6
Continuous
 62
     7
100
AcDbLine
 10
161.9172053232
 20
301.949168251
 30
0.0
 11
161.7172053232
 21
301.949168251
 31
0.0
  0
LINE
  5
36A
330
228
100
AcDbEntity
 67
     1
  8
7_ALL_FEATURES
  6
Continuous
 62
     7
100
AcDbLine
 10
139.2172053232
 20
301.949168251
 30
0.0
 11
42.4672053232
 21
301.949168251
 31
0.0
  0
LINE
  5
36B
330
228
100
AcDbEntity
 67
     1
  8
7_ALL_FEATURES
  6
Continuous
 62
     7
100
AcDbLine
 10
360.9672053232
 20
337.949168251
 30
0.0
 11
42.4672053232
 21
337.949168251
 31
0.0
  0
LINE
  5
36C
330
228
100
AcDbEntity
 67
     1
  8
02___PRT_ALL_AXES
  6
Continuous
 62
     9
100
AcDbLine
 10
42.4672053232
 20
284.249168251
 30
0.0
 11
139.2172053232
 21
284.249168251
 31
0.0
  0
LINE
  5
36D
330
228
100
AcDbEntity
 67
     1
  8
02___PRT_ALL_AXES
  6
Continuous
 62
     9
100
AcDbLine
 10
162.9451267756
 20
284.249168251
 30
0.0
 11
163.1708123934
 21
284.249168251
 31
0.0
  0
LINE
  5
36E
330
228
100
AcDbEntity
 67
     1
  8
02___PRT_ALL_AXES
  6
Continuous
 62
     9
100
AcDbLine
 10
240.263598253
 20
284.249168251
 30
0.0
 11
240.4892838708
 21
284.249168251
 31
0.0
  0
LINE
  5
36F
330
228
100
AcDbEntity
 67
     1
  8
02___PRT_ALL_AXES
  6
Continuous
 62
     9
100
AcDbLine
 10
233.693995769
 20
279.149168251
 30
0.0
 11
231.7172053232
 21
279.149168251
 31
0.0
  0
LINE
  5
370
330
228
100
AcDbEntity
 67
     1
  8
02___PRT_ALL_AXES
  6
Continuous
 62
     9
100
AcDbLine
 10
171.7172053232
 20
279.149168251
 30
0.0
 11
169.7404148774
 21
279.149168251
 31
0.0
  0
LINE
  5
371
330
228
100
AcDbEntity
 67
     1
  8
02___PRT_ALL_AXES
  6
Continuous
 62
     9
100
AcDbLine
 10
139.2172053232
 20
279.149168251
 30
0.0
 11
42.4672053232
 21
279.149168251
 31
0.0
  0
LINE
  5
372
330
228
100
AcDbEntity
 67
     1
  8
7_ALL_FEATURES
  6
Continuous
 62
     9
100
AcDbLine
 10
360.9672053232
 20
255.449168251
 30
0.0
 11
264.2172053232
 21
255.449168251
 31
0.0
  0
LINE
  5
373
330
228
100
AcDbEntity
 67
     1
  8
7_ALL_FEATURES
  6
Continuous
 62
     9
100
AcDbLine
 10
139.2172053232
 20
255.449168251
 30
0.0
 11
42.4672053232
 21
255.449168251
 31
0.0
  0
LINE
  5
374
330
228
100
AcDbEntity
 67
     1
  8
02___PRT_ALL_AXES
  6
Continuous
 62
     9
100
AcDbLine
 10
360.9672053232
 20
279.149168251
 30
0.0
 11
271.7912526254
 21
279.149168251
 31
0.0
  0
LINE
  5
375
330
228
100
AcDbEntity
 67
     1
  8
7_ALL_FEATURES
  6
Continuous
 62
     9
100
AcDbLine
 10
360.9672053232
 20
331.7607766953
 30
0.0
 11
42.4672053232
 21
331.7607766953
 31
0.0
  0
LINE
  5
376
330
228
100
AcDbEntity
 67
     1
  8
7_ALL_FEATURES
  6
Continuous
 62
     9
100
AcDbLine
 10
360.9672053232
 20
302.149168251
 30
0.0
 11
264.2172053232
 21
302.149168251
 31
0.0
  0
LINE
  5
377
330
228
100
AcDbEntity
 67
     1
  8
7_ALL_FEATURES
  6
Continuous
 62
     9
100
AcDbLine
 10
241.7172053232
 20
302.149168251
 30
0.0
 11
241.5172053232
 21
302.149168251
 31
0.0
  0
LINE
  5
378
330
228
100
AcDbEntity
 67
     1
  8
7_ALL_FEATURES
  6
Continuous
 62
     9
100
AcDbLine
 10
161.9172053232
 20
302.149168251
 30
0.0
 11
161.7172053232
 21
302.149168251
 31
0.0
  0
LINE
  5
379
330
228
100
AcDbEntity
 67
     1
  8
7_ALL_FEATURES
  6
Continuous
 62
     9
100
AcDbLine
 10
139.2172053232
 20
302.149168251
 30
0.0
 11
42.4672053232
 21
302.149168251
 31
0.0
  0
LINE
  5
37A
330
228
100
AcDbEntity
 67
     1
  8
7_ALL_FEATURES
  6
Continuous
 62
     9
100
AcDbLine
 10
360.9672053232
 20
332.7397231369
 30
0.0
 11
42.4672053232
 21
332.7397231369
 31
0.0
  0
LINE
  5
37B
330
228
100
AcDbEntity
 67
     1
  8
7_ALL_FEATURES
  6
Continuous
 62
     9
100
AcDbLine
 10
360.9672053232
 20
337.6883261086
 30
0.0
 11
42.4672053232
 21
337.6883261086
 31
0.0
  0
LINE
  5
37C
330
228
100
AcDbEntity
 67
     1
  8
02___PRT_ALL_AXES
  6
Continuous
 62
     9
100
AcDbLine
 10
265.1755304057
 20
284.249168251
 30
0.0
 11
360.9672053232
 21
284.249168251
 31
0.0
  0
LINE
  5
37D
330
228
100
AcDbEntity
 67
     1
  8
7_ALL_FEATURES
  6
Continuous
 62
     9
100
AcDbLine
 10
360.9672053232
 20
297.249168251
 30
0.0
 11
264.2172053232
 21
297.249168251
 31
0.0
  0
LINE
  5
37E
330
228
100
AcDbEntity
 67
     1
  8
7_ALL_FEATURES
  6
Continuous
 62
     9
100
AcDbLine
 10
241.7172053232
 20
297.249168251
 30
0.0
 11
241.5172053232
 21
297.249168251
 31
0.0
  0
LINE
  5
37F
330
228
100
AcDbEntity
 67
     1
  8
7_ALL_FEATURES
  6
Continuous
 62
     9
100
AcDbLine
 10
161.9172053232
 20
297.249168251
 30
0.0
 11
161.7172053232
 21
297.249168251
 31
0.0
  0
LINE
  5
380
330
228
100
AcDbEntity
 67
     1
  8
7_ALL_FEATURES
  6
Continuous
 62
     9
100
AcDbLine
 10
139.2172053232
 20
297.249168251
 30
0.0
 11
42.4672053232
 21
297.249168251
 31
0.0
  0
LINE
  5
381
330
228
100
AcDbEntity
 67
     1
  8
7_ALL_FEATURES
  6
Continuous
 62
     3
100
AcDbLine
 10
360.9672053232
 20
279.4317743243
 30
0.0
 11
360.9672053232
 21
279.449168251
 31
0.0
  0
LINE
  5
382
330
228
100
AcDbEntity
 67
     1
  8
7_ALL_FEATURES
  6
Continuous
 62
     3
100
AcDbLine
 10
360.9672053232
 20
279.449168251
 30
0.0
 11
360.9672053232
 21
283.949168251
 31
0.0
  0
LINE
  5
383
330
228
100
AcDbEntity
 67
     1
  8
7_ALL_FEATURES
  6
Continuous
 62
     3
100
AcDbLine
 10
360.9672053232
 20
283.949168251
 30
0.0
 11
360.9672053232
 21
283.9665621776
 31
0.0
  0
LINE
  5
384
330
228
100
AcDbEntity
 67
     1
  8
7_ALL_FEATURES
  6
Continuous
 62
     3
100
AcDbLine
 10
360.9672053232
 20
297.449168251
 30
0.0
 11
360.9672053232
 21
301.949168251
 31
0.0
  0
LINE
  5
385
330
228
100
AcDbEntity
 67
     1
  8
7_ALL_FEATURES
  6
Continuous
 62
     3
100
AcDbLine
 10
360.9672053232
 20
336.949168251
 30
0.0
 11
360.9672053232
 21
337.6881771682
 31
0.0
  0
LINE
  5
386
330
228
100
AcDbEntity
 67
     1
  8
7_ALL_FEATURES
  6
Continuous
 62
     3
100
AcDbLine
 10
360.9672053232
 20
337.6881771682
 30
0.0
 11
360.9672053232
 21
337.869081096
 31
0.0
  0
LINE
  5
387
330
228
100
AcDbEntity
 67
     1
  8
7_ALL_FEATURES
  6
Continuous
 62
     3
100
AcDbLine
 10
360.9672053232
 20
333.771503489
 30
0.0
 11
360.9672053232
 21
336.949168251
 31
0.0
  0
LINE
  5
388
330
228
100
AcDbEntity
 67
     1
  8
7_ALL_FEATURES
  6
Continuous
 62
     3
100
AcDbLine
 10
42.4672053232
 20
336.949168251
 30
0.0
 11
42.4672053232
 21
333.771503489
 31
0.0
  0
LINE
  5
389
330
228
100
AcDbEntity
 67
     1
  8
7_ALL_FEATURES
  6
Continuous
 62
     3
100
AcDbLine
 10
42.4672053232
 20
301.949168251
 30
0.0
 11
42.4672053232
 21
297.449168251
 31
0.0
  0
LINE
  5
38A
330
228
100
AcDbEntity
 67
     1
  8
7_ALL_FEATURES
  6
Continuous
 62
     3
100
AcDbLine
 10
42.4672053232
 20
283.9665621776
 30
0.0
 11
42.4672053232
 21
283.949168251
 31
0.0
  0
LINE
  5
38B
330
228
100
AcDbEntity
 67
     1
  8
7_ALL_FEATURES
  6
Continuous
 62
     3
100
AcDbLine
 10
42.4672053232
 20
283.949168251
 30
0.0
 11
42.4672053232
 21
279.449168251
 31
0.0
  0
LINE
  5
38C
330
228
100
AcDbEntity
 67
     1
  8
7_ALL_FEATURES
  6
Continuous
 62
     3
100
AcDbLine
 10
42.4672053232
 20
279.449168251
 30
0.0
 11
42.4672053232
 21
279.4317743243
 31
0.0
  0
LINE
  5
38D
330
228
100
AcDbEntity
 67
     1
  8
7_ALL_FEATURES
  6
Continuous
 62
     3
100
AcDbLine
 10
42.4672053232
 20
337.869081096
 30
0.0
 11
42.4672053232
 21
337.6883261086
 31
0.0
  0
LINE
  5
38E
330
228
100
AcDbEntity
 67
     1
  8
7_ALL_FEATURES
  6
Continuous
 62
     3
100
AcDbLine
 10
42.4672053232
 20
337.6883261086
 30
0.0
 11
42.4672053232
 21
336.949168251
 31
0.0
  0
LINE
  5
38F
330
228
100
AcDbEntity
 67
     1
  8
7_ALL_FEATURES
  6
Continuous
 62
     3
100
AcDbLine
 10
264.2172053232
 20
255.049168251
 30
0.0
 11
264.2172053232
 21
323.249168251
 31
0.0
  0
LINE
  5
390
330
228
100
AcDbEntity
 67
     1
  8
7_ALL_FEATURES
  6
Continuous
 62
     3
100
AcDbLine
 10
139.2172053232
 20
323.249168251
 30
0.0
 11
139.2172053232
 21
255.049168251
 31
0.0
  0
LINE
  5
391
330
228
100
AcDbEntity
 67
     1
  8
02___PRT_ALL_AXES
  6
Continuous
 62
     3
100
AcDbLine
 10
161.7172053232
 20
308.949168251
 30
0.0
 11
161.7172053232
 21
288.949168251
 31
0.0
  0
ARC
  5
392
330
228
100
AcDbEntity
 67
     1
  8
02___PRT_ALL_AXES
  6
Continuous
 62
     3
100
AcDbCircle
 10
171.7172053232
 20
288.949168251
 30
0.0
 40
10.0
100
AcDbArc
 50
180.0
 51
270.0
  0
LINE
  5
393
330
228
100
AcDbEntity
 67
     1
  8
02___PRT_ALL_AXES
  6
Continuous
 62
     3
100
AcDbLine
 10
171.7172053232
 20
278.949168251
 30
0.0
 11
231.7172053232
 21
278.949168251
 31
0.0
  0
ARC
  5
394
330
228
100
AcDbEntity
 67
     1
  8
02___PRT_ALL_AXES
  6
Continuous
 62
     3
100
AcDbCircle
 10
231.7172053232
 20
288.949168251
 30
0.0
 40
10.0
100
AcDbArc
 50
270.0
 51
360.0
  0
LINE
  5
395
330
228
100
AcDbEntity
 67
     1
  8
02___PRT_ALL_AXES
  6
Continuous
 62
     3
100
AcDbLine
 10
241.7172053232
 20
288.949168251
 30
0.0
 11
241.7172053232
 21
308.949168251
 31
0.0
  0
LINE
  5
396
330
228
100
AcDbEntity
 67
     1
  8
02___PRT_ALL_AXES
  6
Continuous
 62
     3
100
AcDbLine
 10
241.7172053232
 20
308.949168251
 30
0.0
 11
241.5172053232
 21
308.949168251
 31
0.0
  0
LINE
  5
397
330
228
100
AcDbEntity
 67
     1
  8
02___PRT_ALL_AXES
  6
Continuous
 62
     3
100
AcDbLine
 10
241.5172053232
 20
308.949168251
 30
0.0
 11
241.5172053232
 21
288.949168251
 31
0.0
  0
ARC
  5
398
330
228
100
AcDbEntity
 67
     1
  8
02___PRT_ALL_AXES
  6
Continuous
 62
     3
100
AcDbCircle
 10
231.7172053232
 20
288.949168251
 30
0.0
 40
9.8
100
AcDbArc
 50
270.0
 51
360.0
  0
LINE
  5
399
330
228
100
AcDbEntity
 67
     1
  8
02___PRT_ALL_AXES
  6
Continuous
 62
     3
100
AcDbLine
 10
231.7172053232
 20
279.149168251
 30
0.0
 11
171.7172053232
 21
279.149168251
 31
0.0
  0
ARC
  5
39A
330
228
100
AcDbEntity
 67
     1
  8
02___PRT_ALL_AXES
  6
Continuous
 62
     3
100
AcDbCircle
 10
171.7172053232
 20
288.949168251
 30
0.0
 40
9.8
100
AcDbArc
 50
180.0
 51
270.0
  0
LINE
  5
39B
330
228
100
AcDbEntity
 67
     1
  8
02___PRT_ALL_AXES
  6
Continuous
 62
     3
100
AcDbLine
 10
161.9172053232
 20
288.949168251
 30
0.0
 11
161.9172053232
 21
308.949168251
 31
0.0
  0
LINE
  5
39C
330
228
100
AcDbEntity
 67
     1
  8
02___PRT_ALL_AXES
  6
Continuous
 62
     3
100
AcDbLine
 10
161.9172053232
 20
308.949168251
 30
0.0
 11
161.7172053232
 21
308.949168251
 31
0.0
  0
LINE
  5
39D
330
228
100
AcDbEntity
 67
     1
  8
02___PRT_ALL_AXES
  6
Continuous
 62
     3
100
AcDbLine
 10
163.5172053232
 20
309.049168251
 30
0.0
 11
163.5172053232
 21
308.849168251
 31
0.0
  0
LINE
  5
39E
330
228
100
AcDbEntity
 67
     1
  8
02___PRT_ALL_AXES
  6
Continuous
 62
     3
100
AcDbLine
 10
163.5172053232
 20
308.849168251
 30
0.0
 11
200.9172053232
 21
308.849168251
 31
0.0
  0
LINE
  5
39F
330
228
100
AcDbEntity
 67
     1
  8
02___PRT_ALL_AXES
  6
Continuous
 62
     3
100
AcDbLine
 10
200.9172053232
 20
308.849168251
 30
0.0
 11
200.9172053232
 21
309.049168251
 31
0.0
  0
LINE
  5
3A0
330
228
100
AcDbEntity
 67
     1
  8
02___PRT_ALL_AXES
  6
Continuous
 62
     3
100
AcDbLine
 10
200.9172053232
 20
309.049168251
 30
0.0
 11
163.5172053232
 21
309.049168251
 31
0.0
  0
LINE
  5
3A1
330
228
100
AcDbEntity
 67
     1
  8
02___PRT_ALL_AXES
  6
Continuous
 62
     3
100
AcDbLine
 10
239.9172053232
 20
309.049168251
 30
0.0
 11
202.5172053232
 21
309.049168251
 31
0.0
  0
LINE
  5
3A2
330
228
100
AcDbEntity
 67
     1
  8
02___PRT_ALL_AXES
  6
Continuous
 62
     3
100
AcDbLine
 10
202.5172053232
 20
309.049168251
 30
0.0
 11
202.5172053232
 21
308.849168251
 31
0.0
  0
LINE
  5
3A3
330
228
100
AcDbEntity
 67
     1
  8
02___PRT_ALL_AXES
  6
Continuous
 62
     3
100
AcDbLine
 10
202.5172053232
 20
308.849168251
 30
0.0
 11
239.9172053232
 21
308.849168251
 31
0.0
  0
LINE
  5
3A4
330
228
100
AcDbEntity
 67
     1
  8
02___PRT_ALL_AXES
  6
Continuous
 62
     3
100
AcDbLine
 10
239.9172053232
 20
308.849168251
 30
0.0
 11
239.9172053232
 21
309.049168251
 31
0.0
  0
LINE
  5
3A5
330
228
100
AcDbEntity
 67
     1
  8
7_ALL_FEATURES
  6
Continuous
 62
     3
100
AcDbLine
 10
264.2172053232
 20
255.049168251
 30
0.0
 11
264.2172053232
 21
254.3438259482
 31
0.0
  0
LINE
  5
3A6
330
228
100
AcDbEntity
 67
     1
  8
7_ALL_FEATURES
  6
Continuous
 62
     3
100
AcDbLine
 10
264.2172053232
 20
254.3438259482
 30
0.0
 11
264.2172053232
 21
253.849168251
 31
0.0
  0
LINE
  5
3A7
330
228
100
AcDbEntity
 67
     1
  8
7_ALL_FEATURES
  6
Continuous
 62
     3
100
AcDbLine
 10
139.2172053232
 20
253.849168251
 30
0.0
 11
264.2172053232
 21
253.849168251
 31
0.0
  0
LINE
  5
3A8
330
228
100
AcDbEntity
 67
     1
  8
7_ALL_FEATURES
  6
Continuous
 62
     3
100
AcDbLine
 10
139.2172053232
 20
255.049168251
 30
0.0
 11
139.2172053232
 21
254.3438259482
 31
0.0
  0
LINE
  5
3A9
330
228
100
AcDbEntity
 67
     1
  8
7_ALL_FEATURES
  6
Continuous
 62
     3
100
AcDbLine
 10
139.2172053232
 20
254.3438259482
 30
0.0
 11
139.2172053232
 21
253.849168251
 31
0.0
  0
LINE
  5
3AA
330
228
100
AcDbEntity
 67
     1
  8
7_ALL_FEATURES
  6
Continuous
 62
     3
100
AcDbLine
 10
264.2172053232
 20
323.849168251
 30
0.0
 11
252.2172053232
 21
323.849168251
 31
0.0
  0
LINE
  5
3AB
330
228
100
AcDbEntity
 67
     1
  8
7_ALL_FEATURES
  6
Continuous
 62
     3
100
AcDbLine
 10
151.2172053232
 20
323.849168251
 30
0.0
 11
139.2172053232
 21
323.849168251
 31
0.0
  0
LINE
  5
3AC
330
228
100
AcDbEntity
 67
     1
  8
7_ALL_FEATURES
  6
Continuous
 62
     3
100
AcDbLine
 10
151.2172053232
 20
323.849168251
 30
0.0
 11
252.2172053232
 21
323.849168251
 31
0.0
  0
LINE
  5
3AD
330
228
100
AcDbEntity
 67
     1
  8
7_ALL_FEATURES
  6
Continuous
 62
     3
100
AcDbLine
 10
264.2172053232
 20
323.849168251
 30
0.0
 11
264.2172053232
 21
323.249168251
 31
0.0
  0
LINE
  5
3AE
330
228
100
AcDbEntity
 67
     1
  8
7_ALL_FEATURES
  6
Continuous
 62
     3
100
AcDbLine
 10
139.2172053232
 20
323.849168251
 30
0.0
 11
139.2172053232
 21
323.249168251
 31
0.0
  0
LINE
  5
3AF
330
228
100
AcDbEntity
 67
     1
  8
7_ALL_FEATURES
  6
Continuous
 62
     9
100
AcDbLine
 10
264.2172053232
 20
323.249168251
 30
0.0
 11
139.2172053232
 21
323.249168251
 31
0.0
  0
LINE
  5
3B0
330
228
100
AcDbEntity
 67
     1
  8
7_ALL_FEATURES
  6
Continuous
 62
     9
100
AcDbLine
 10
139.2172053232
 20
255.049168251
 30
0.0
 11
264.2172053232
 21
255.049168251
 31
0.0
  0
LINE
  5
3B1
330
228
100
AcDbEntity
 67
     1
  8
7_ALL_FEATURES
  6
Continuous
 62
     7
100
AcDbLine
 10
470.5881419733
 20
307.449168251
 30
0.0
 11
470.5881419733
 21
306.574168251
 31
0.0
  0
LINE
  5
3B2
330
228
100
AcDbEntity
 67
     1
  8
7_ALL_FEATURES
  6
Continuous
 62
     7
100
AcDbLine
 10
470.5881419733
 20
306.574168251
 30
0.0
 11
469.7131419733
 21
306.574168251
 31
0.0
  0
LINE
  5
3B3
330
228
100
AcDbEntity
 67
     1
  8
7_ALL_FEATURES
  6
Continuous
 62
     7
100
AcDbLine
 10
469.7131419733
 20
305.824168251
 30
0.0
 11
470.5881419733
 21
305.824168251
 31
0.0
  0
LINE
  5
3B4
330
228
100
AcDbEntity
 67
     1
  8
7_ALL_FEATURES
  6
Continuous
 62
     7
100
AcDbLine
 10
470.5881419733
 20
305.824168251
 30
0.0
 11
470.5881419733
 21
304.949168251
 31
0.0
  0
LINE
  5
3B5
330
228
100
AcDbEntity
 67
     1
  8
7_ALL_FEATURES
  6
Continuous
 62
     7
100
AcDbLine
 10
471.3381419733
 20
304.949168251
 30
0.0
 11
471.3381419733
 21
305.824168251
 31
0.0
  0
LINE
  5
3B6
330
228
100
AcDbEntity
 67
     1
  8
7_ALL_FEATURES
  6
Continuous
 62
     7
100
AcDbLine
 10
471.3381419733
 20
305.824168251
 30
0.0
 11
472.2131419733
 21
305.824168251
 31
0.0
  0
LINE
  5
3B7
330
228
100
AcDbEntity
 67
     1
  8
7_ALL_FEATURES
  6
Continuous
 62
     7
100
AcDbLine
 10
472.2131419733
 20
306.574168251
 30
0.0
 11
471.3381419733
 21
306.574168251
 31
0.0
  0
LINE
  5
3B8
330
228
100
AcDbEntity
 67
     1
  8
7_ALL_FEATURES
  6
Continuous
 62
     7
100
AcDbLine
 10
471.3381419733
 20
306.574168251
 30
0.0
 11
471.3381419733
 21
307.449168251
 31
0.0
  0
ARC
  5
3B9
330
228
100
AcDbEntity
 67
     1
  8
3_ALL_AXES
  6
Continuous
 62
     7
100
AcDbCircle
 10
470.9631419733
 20
306.199168251
 30
0.0
 40
2.75
100
AcDbArc
 50
180.0
 51
360.0
  0
LINE
  5
3BA
330
228
100
AcDbEntity
 67
     1
  8
7_ALL_FEATURES
  6
Continuous
 62
     7
100
AcDbLine
 10
471.3381419733
 20
304.949168251
 30
0.0
 11
470.5881419733
 21
304.949168251
 31
0.0
  0
LINE
  5
3BB
330
228
100
AcDbEntity
 67
     1
  8
7_ALL_FEATURES
  6
Continuous
 62
     7
100
AcDbLine
 10
469.7131419733
 20
305.824168251
 30
0.0
 11
469.7131419733
 21
306.574168251
 31
0.0
  0
LINE
  5
3BC
330
228
100
AcDbEntity
 67
     1
  8
7_ALL_FEATURES
  6
Continuous
 62
     7
100
AcDbLine
 10
470.5881419733
 20
307.449168251
 30
0.0
 11
471.3381419733
 21
307.449168251
 31
0.0
  0
LINE
  5
3BD
330
228
100
AcDbEntity
 67
     1
  8
7_ALL_FEATURES
  6
Continuous
 62
     7
100
AcDbLine
 10
472.2131419733
 20
306.574168251
 30
0.0
 11
472.2131419733
 21
305.824168251
 31
0.0
  0
ARC
  5
3BE
330
228
100
AcDbEntity
 67
     1
  8
3_ALL_AXES
  6
Continuous
 62
     7
100
AcDbCircle
 10
470.9631419733
 20
306.199168251
 30
0.0
 40
2.75
100
AcDbArc
 50
0.0
 51
180.0
  0
LINE
  5
3BF
330
228
100
AcDbEntity
 67
     1
  8
7_ALL_FEATURES
  6
Continuous
 62
     7
100
AcDbLine
 10
506.9881419733
 20
258.699168251
 30
0.0
 11
506.9881419733
 21
257.824168251
 31
0.0
  0
LINE
  5
3C0
330
228
100
AcDbEntity
 67
     1
  8
7_ALL_FEATURES
  6
Continuous
 62
     7
100
AcDbLine
 10
506.9881419733
 20
257.824168251
 30
0.0
 11
506.1131419733
 21
257.824168251
 31
0.0
  0
LINE
  5
3C1
330
228
100
AcDbEntity
 67
     1
  8
7_ALL_FEATURES
  6
Continuous
 62
     7
100
AcDbLine
 10
506.1131419733
 20
257.074168251
 30
0.0
 11
506.9881419733
 21
257.074168251
 31
0.0
  0
LINE
  5
3C2
330
228
100
AcDbEntity
 67
     1
  8
7_ALL_FEATURES
  6
Continuous
 62
     7
100
AcDbLine
 10
506.9881419733
 20
257.074168251
 30
0.0
 11
506.9881419733
 21
256.199168251
 31
0.0
  0
LINE
  5
3C3
330
228
100
AcDbEntity
 67
     1
  8
7_ALL_FEATURES
  6
Continuous
 62
     7
100
AcDbLine
 10
507.7381419733
 20
256.199168251
 30
0.0
 11
507.7381419733
 21
257.074168251
 31
0.0
  0
LINE
  5
3C4
330
228
100
AcDbEntity
 67
     1
  8
7_ALL_FEATURES
  6
Continuous
 62
     7
100
AcDbLine
 10
507.7381419733
 20
257.074168251
 30
0.0
 11
508.6131419733
 21
257.074168251
 31
0.0
  0
LINE
  5
3C5
330
228
100
AcDbEntity
 67
     1
  8
7_ALL_FEATURES
  6
Continuous
 62
     7
100
AcDbLine
 10
508.6131419733
 20
257.824168251
 30
0.0
 11
507.7381419733
 21
257.824168251
 31
0.0
  0
LINE
  5
3C6
330
228
100
AcDbEntity
 67
     1
  8
7_ALL_FEATURES
  6
Continuous
 62
     7
100
AcDbLine
 10
507.7381419733
 20
257.824168251
 30
0.0
 11
507.7381419733
 21
258.699168251
 31
0.0
  0
ARC
  5
3C7
330
228
100
AcDbEntity
 67
     1
  8
3_ALL_AXES
  6
Continuous
 62
     7
100
AcDbCircle
 10
507.3631419733
 20
257.449168251
 30
0.0
 40
2.75
100
AcDbArc
 50
180.0
 51
360.0
  0
LINE
  5
3C8
330
228
100
AcDbEntity
 67
     1
  8
7_ALL_FEATURES
  6
Continuous
 62
     7
100
AcDbLine
 10
507.7381419733
 20
256.199168251
 30
0.0
 11
506.9881419733
 21
256.199168251
 31
0.0
  0
LINE
  5
3C9
330
228
100
AcDbEntity
 67
     1
  8
7_ALL_FEATURES
  6
Continuous
 62
     7
100
AcDbLine
 10
506.1131419733
 20
257.074168251
 30
0.0
 11
506.1131419733
 21
257.824168251
 31
0.0
  0
LINE
  5
3CA
330
228
100
AcDbEntity
 67
     1
  8
7_ALL_FEATURES
  6
Continuous
 62
     7
100
AcDbLine
 10
506.9881419733
 20
258.699168251
 30
0.0
 11
507.7381419733
 21
258.699168251
 31
0.0
  0
LINE
  5
3CB
330
228
100
AcDbEntity
 67
     1
  8
7_ALL_FEATURES
  6
Continuous
 62
     7
100
AcDbLine
 10
508.6131419733
 20
257.824168251
 30
0.0
 11
508.6131419733
 21
257.074168251
 31
0.0
  0
ARC
  5
3CC
330
228
100
AcDbEntity
 67
     1
  8
3_ALL_AXES
  6
Continuous
 62
     7
100
AcDbCircle
 10
507.3631419733
 20
257.449168251
 30
0.0
 40
2.75
100
AcDbArc
 50
0.0
 51
180.0
  0
LINE
  5
3CD
330
228
100
AcDbEntity
 67
     1
  8
7_ALL_FEATURES
  6
Continuous
 62
     7
100
AcDbLine
 10
470.5881419733
 20
258.699168251
 30
0.0
 11
470.5881419733
 21
257.824168251
 31
0.0
  0
LINE
  5
3CE
330
228
100
AcDbEntity
 67
     1
  8
7_ALL_FEATURES
  6
Continuous
 62
     7
100
AcDbLine
 10
470.5881419733
 20
257.824168251
 30
0.0
 11
469.7131419733
 21
257.824168251
 31
0.0
  0
LINE
  5
3CF
330
228
100
AcDbEntity
 67
     1
  8
7_ALL_FEATURES
  6
Continuous
 62
     7
100
AcDbLine
 10
469.7131419733
 20
257.074168251
 30
0.0
 11
470.5881419733
 21
257.074168251
 31
0.0
  0
LINE
  5
3D0
330
228
100
AcDbEntity
 67
     1
  8
7_ALL_FEATURES
  6
Continuous
 62
     7
100
AcDbLine
 10
470.5881419733
 20
257.074168251
 30
0.0
 11
470.5881419733
 21
256.199168251
 31
0.0
  0
LINE
  5
3D1
330
228
100
AcDbEntity
 67
     1
  8
7_ALL_FEATURES
  6
Continuous
 62
     7
100
AcDbLine
 10
471.3381419733
 20
256.199168251
 30
0.0
 11
471.3381419733
 21
257.074168251
 31
0.0
  0
LINE
  5
3D2
330
228
100
AcDbEntity
 67
     1
  8
7_ALL_FEATURES
  6
Continuous
 62
     7
100
AcDbLine
 10
471.3381419733
 20
257.074168251
 30
0.0
 11
472.2131419733
 21
257.074168251
 31
0.0
  0
LINE
  5
3D3
330
228
100
AcDbEntity
 67
     1
  8
7_ALL_FEATURES
  6
Continuous
 62
     7
100
AcDbLine
 10
472.2131419733
 20
257.824168251
 30
0.0
 11
471.3381419733
 21
257.824168251
 31
0.0
  0
LINE
  5
3D4
330
228
100
AcDbEntity
 67
     1
  8
7_ALL_FEATURES
  6
Continuous
 62
     7
100
AcDbLine
 10
471.3381419733
 20
257.824168251
 30
0.0
 11
471.3381419733
 21
258.699168251
 31
0.0
  0
ARC
  5
3D5
330
228
100
AcDbEntity
 67
     1
  8
3_ALL_AXES
  6
Continuous
 62
     7
100
AcDbCircle
 10
470.9631419733
 20
257.449168251
 30
0.0
 40
2.75
100
AcDbArc
 50
180.0
 51
360.0
  0
LINE
  5
3D6
330
228
100
AcDbEntity
 67
     1
  8
7_ALL_FEATURES
  6
Continuous
 62
     7
100
AcDbLine
 10
471.3381419733
 20
256.199168251
 30
0.0
 11
470.5881419733
 21
256.199168251
 31
0.0
  0
LINE
  5
3D7
330
228
100
AcDbEntity
 67
     1
  8
7_ALL_FEATURES
  6
Continuous
 62
     7
100
AcDbLine
 10
469.7131419733
 20
257.074168251
 30
0.0
 11
469.7131419733
 21
257.824168251
 31
0.0
  0
LINE
  5
3D8
330
228
100
AcDbEntity
 67
     1
  8
7_ALL_FEATURES
  6
Continuous
 62
     7
100
AcDbLine
 10
470.5881419733
 20
258.699168251
 30
0.0
 11
471.3381419733
 21
258.699168251
 31
0.0
  0
LINE
  5
3D9
330
228
100
AcDbEntity
 67
     1
  8
7_ALL_FEATURES
  6
Continuous
 62
     7
100
AcDbLine
 10
472.2131419733
 20
257.824168251
 30
0.0
 11
472.2131419733
 21
257.074168251
 31
0.0
  0
ARC
  5
3DA
330
228
100
AcDbEntity
 67
     1
  8
3_ALL_AXES
  6
Continuous
 62
     7
100
AcDbCircle
 10
470.9631419733
 20
257.449168251
 30
0.0
 40
2.75
100
AcDbArc
 50
0.0
 51
180.0
  0
LINE
  5
3DB
330
228
100
AcDbEntity
 67
     1
  8
7_ALL_FEATURES
  6
Continuous
 62
     7
100
AcDbLine
 10
506.9881419733
 20
307.449168251
 30
0.0
 11
506.9881419733
 21
306.574168251
 31
0.0
  0
LINE
  5
3DC
330
228
100
AcDbEntity
 67
     1
  8
7_ALL_FEATURES
  6
Continuous
 62
     7
100
AcDbLine
 10
506.9881419733
 20
306.574168251
 30
0.0
 11
506.1131419733
 21
306.574168251
 31
0.0
  0
LINE
  5
3DD
330
228
100
AcDbEntity
 67
     1
  8
7_ALL_FEATURES
  6
Continuous
 62
     7
100
AcDbLine
 10
506.1131419733
 20
305.824168251
 30
0.0
 11
506.9881419733
 21
305.824168251
 31
0.0
  0
LINE
  5
3DE
330
228
100
AcDbEntity
 67
     1
  8
7_ALL_FEATURES
  6
Continuous
 62
     7
100
AcDbLine
 10
506.9881419733
 20
305.824168251
 30
0.0
 11
506.9881419733
 21
304.949168251
 31
0.0
  0
LINE
  5
3DF
330
228
100
AcDbEntity
 67
     1
  8
7_ALL_FEATURES
  6
Continuous
 62
     7
100
AcDbLine
 10
507.7381419733
 20
304.949168251
 30
0.0
 11
507.7381419733
 21
305.824168251
 31
0.0
  0
LINE
  5
3E0
330
228
100
AcDbEntity
 67
     1
  8
7_ALL_FEATURES
  6
Continuous
 62
     7
100
AcDbLine
 10
507.7381419733
 20
305.824168251
 30
0.0
 11
508.6131419733
 21
305.824168251
 31
0.0
  0
LINE
  5
3E1
330
228
100
AcDbEntity
 67
     1
  8
7_ALL_FEATURES
  6
Continuous
 62
     7
100
AcDbLine
 10
508.6131419733
 20
306.574168251
 30
0.0
 11
507.7381419733
 21
306.574168251
 31
0.0
  0
LINE
  5
3E2
330
228
100
AcDbEntity
 67
     1
  8
7_ALL_FEATURES
  6
Continuous
 62
     7
100
AcDbLine
 10
507.7381419733
 20
306.574168251
 30
0.0
 11
507.7381419733
 21
307.449168251
 31
0.0
  0
ARC
  5
3E3
330
228
100
AcDbEntity
 67
     1
  8
3_ALL_AXES
  6
Continuous
 62
     7
100
AcDbCircle
 10
507.3631419733
 20
306.199168251
 30
0.0
 40
2.75
100
AcDbArc
 50
180.0
 51
360.0
  0
LINE
  5
3E4
330
228
100
AcDbEntity
 67
     1
  8
7_ALL_FEATURES
  6
Continuous
 62
     7
100
AcDbLine
 10
507.7381419733
 20
304.949168251
 30
0.0
 11
506.9881419733
 21
304.949168251
 31
0.0
  0
LINE
  5
3E5
330
228
100
AcDbEntity
 67
     1
  8
7_ALL_FEATURES
  6
Continuous
 62
     7
100
AcDbLine
 10
506.1131419733
 20
305.824168251
 30
0.0
 11
506.1131419733
 21
306.574168251
 31
0.0
  0
LINE
  5
3E6
330
228
100
AcDbEntity
 67
     1
  8
7_ALL_FEATURES
  6
Continuous
 62
     7
100
AcDbLine
 10
506.9881419733
 20
307.449168251
 30
0.0
 11
507.7381419733
 21
307.449168251
 31
0.0
  0
LINE
  5
3E7
330
228
100
AcDbEntity
 67
     1
  8
7_ALL_FEATURES
  6
Continuous
 62
     7
100
AcDbLine
 10
508.6131419733
 20
306.574168251
 30
0.0
 11
508.6131419733
 21
305.824168251
 31
0.0
  0
ARC
  5
3E8
330
228
100
AcDbEntity
 67
     1
  8
3_ALL_AXES
  6
Continuous
 62
     7
100
AcDbCircle
 10
507.3631419733
 20
306.199168251
 30
0.0
 40
2.75
100
AcDbArc
 50
0.0
 51
180.0
  0
ARC
  5
3E9
330
228
100
AcDbEntity
 67
     1
  8
7_ALL_FEATURES
  6
Continuous
 62
     7
100
AcDbCircle
 10
467.6631419733
 20
327.949168251
 30
0.0
 40
1.5
100
AcDbArc
 50
306.8698976459
 51
53.1301023541
  0
ARC
  5
3EA
330
228
100
AcDbEntity
 67
     1
  8
7_ALL_FEATURES
  6
Continuous
 62
     7
100
AcDbCircle
 10
469.1631419733
 20
325.949168251
 30
0.0
 40
1.0
100
AcDbArc
 50
126.8698976458
 51
180.0
  0
LINE
  5
3EB
330
228
100
AcDbEntity
 67
     1
  8
7_ALL_FEATURES
  6
Continuous
 62
     7
100
AcDbLine
 10
468.1631419733
 20
255.449168251
 30
0.0
 11
468.1631419733
 21
325.949168251
 31
0.0
  0
ARC
  5
3EC
330
228
100
AcDbEntity
 67
     1
  8
7_ALL_FEATURES
  6
Continuous
 62
     7
100
AcDbCircle
 10
469.1631419733
 20
255.449168251
 30
0.0
 40
1.0
100
AcDbArc
 50
180.0
 51
270.0
  0
LINE
  5
3ED
330
228
100
AcDbEntity
 67
     1
  8
7_ALL_FEATURES
  6
Continuous
 62
     7
100
AcDbLine
 10
509.1631419733
 20
254.449168251
 30
0.0
 11
469.1631419733
 21
254.449168251
 31
0.0
  0
ARC
  5
3EE
330
228
100
AcDbEntity
 67
     1
  8
7_ALL_FEATURES
  6
Continuous
 62
     7
100
AcDbCircle
 10
509.1631419733
 20
255.449168251
 30
0.0
 40
1.0
100
AcDbArc
 50
270.0
 51
360.0
  0
LINE
  5
3EF
330
228
100
AcDbEntity
 67
     1
  8
7_ALL_FEATURES
  6
Continuous
 62
     7
100
AcDbLine
 10
510.1631419733
 20
265.949168251
 30
0.0
 11
510.1631419733
 21
255.449168251
 31
0.0
  0
ARC
  5
3F0
330
228
100
AcDbEntity
 67
     1
  8
7_ALL_FEATURES
  6
Continuous
 62
     7
100
AcDbCircle
 10
509.1631419733
 20
265.949168251
 30
0.0
 40
1.0
100
AcDbArc
 50
0.0
 51
53.1301023542
  0
ARC
  5
3F1
330
228
100
AcDbEntity
 67
     1
  8
7_ALL_FEATURES
  6
Continuous
 62
     7
100
AcDbCircle
 10
510.6631419733
 20
267.949168251
 30
0.0
 40
1.5
100
AcDbArc
 50
126.8698976458
 51
233.1301023542
  0
ARC
  5
3F2
330
228
100
AcDbEntity
 67
     1
  8
7_ALL_FEATURES
  6
Continuous
 62
     7
100
AcDbCircle
 10
509.1631419733
 20
269.949168251
 30
0.0
 40
1.0
100
AcDbArc
 50
306.8698976458
 51
360.0
  0
LINE
  5
3F3
330
228
100
AcDbEntity
 67
     1
  8
7_ALL_FEATURES
  6
Continuous
 62
     7
100
AcDbLine
 10
510.1631419733
 20
336.949168251
 30
0.0
 11
510.1631419733
 21
269.949168251
 31
0.0
  0
ARC
  5
3F4
330
228
100
AcDbEntity
 67
     1
  8
7_ALL_FEATURES
  6
Continuous
 62
     7
100
AcDbCircle
 10
509.1631419733
 20
336.949168251
 30
0.0
 40
1.0
100
AcDbArc
 50
0.0
 51
90.0
  0
LINE
  5
3F5
330
228
100
AcDbEntity
 67
     1
  8
7_ALL_FEATURES
  6
Continuous
 62
     7
100
AcDbLine
 10
469.1631419733
 20
337.949168251
 30
0.0
 11
509.1631419733
 21
337.949168251
 31
0.0
  0
ARC
  5
3F6
330
228
100
AcDbEntity
 67
     1
  8
7_ALL_FEATURES
  6
Continuous
 62
     7
100
AcDbCircle
 10
469.1631419733
 20
336.949168251
 30
0.0
 40
1.0
100
AcDbArc
 50
90.0
 51
180.0
  0
LINE
  5
3F7
330
228
100
AcDbEntity
 67
     1
  8
7_ALL_FEATURES
  6
Continuous
 62
     7
100
AcDbLine
 10
468.1631419733
 20
329.949168251
 30
0.0
 11
468.1631419733
 21
336.949168251
 31
0.0
  0
ARC
  5
3F8
330
228
100
AcDbEntity
 67
     1
  8
7_ALL_FEATURES
  6
Continuous
 62
     7
100
AcDbCircle
 10
469.1631419733
 20
329.949168251
 30
0.0
 40
1.0
100
AcDbArc
 50
180.0
 51
233.1301023542
  0
ARC
  5
3F9
330
228
100
AcDbEntity
 67
     1
  8
02___PRT_ALL_AXES
  6
Continuous
 62
     7
100
AcDbCircle
 10
489.1631419733
 20
277.6176230323
 30
0.0
 40
9.5
100
AcDbArc
 50
182.0
 51
358.0
  0
LINE
  5
3FA
330
228
100
AcDbEntity
 67
     1
  8
02___PRT_ALL_AXES
  6
Continuous
 62
     7
100
AcDbLine
 10
499.1570502435
 20
277.2686280653
 30
0.0
 11
498.65735483
 21
277.2860778136
 31
0.0
  0
ARC
  5
3FB
330
228
100
AcDbEntity
 67
     1
  8
02___PRT_ALL_AXES
  6
Continuous
 62
     7
100
AcDbCircle
 10
489.1631419733
 20
277.6176230323
 30
0.0
 40
10.0
100
AcDbArc
 50
182.0
 51
358.0
  0
LINE
  5
3FC
330
228
100
AcDbEntity
 67
     1
  8
02___PRT_ALL_AXES
  6
Continuous
 62
     7
100
AcDbLine
 10
479.6689291166
 20
277.2860778136
 30
0.0
 11
479.1692337031
 21
277.2686280653
 31
0.0
  0
LINE
  5
3FD
330
228
100
AcDbEntity
 67
     1
  8
02___PRT_ALL_AXES
  6
Continuous
 62
     7
100
AcDbLine
 10
479.1692337031
 20
277.9666179993
 30
0.0
 11
479.6689291166
 21
277.949168251
 31
0.0
  0
ARC
  5
3FE
330
228
100
AcDbEntity
 67
     1
  8
02___PRT_ALL_AXES
  6
Continuous
 62
     7
100
AcDbCircle
 10
489.1631419733
 20
277.6176230323
 30
0.0
 40
10.0
100
AcDbArc
 50
2.0
 51
178.0
  0
LINE
  5
3FF
330
228
100
AcDbEntity
 67
     1
  8
02___PRT_ALL_AXES
  6
Continuous
 62
     7
100
AcDbLine
 10
498.65735483
 20
277.949168251
 30
0.0
 11
499.1570502435
 21
277.9666179993
 31
0.0
  0
ARC
  5
400
330
228
100
AcDbEntity
 67
     1
  8
02___PRT_ALL_AXES
  6
Continuous
 62
     7
100
AcDbCircle
 10
489.1631419733
 20
277.6176230323
 30
0.0
 40
9.5
100
AcDbArc
 50
2.0
 51
178.0
  0
LINE
  5
401
330
228
100
AcDbEntity
 67
     1
  8
7_ALL_FEATURES
  6
Continuous
 62
     7
100
AcDbLine
 10
509.1631419733
 20
337.949168251
 30
0.0
 11
509.3500490344
 21
337.949168251
 31
0.0
  0
ARC
  5
402
330
228
100
AcDbEntity
 67
     1
  8
7_ALL_FEATURES
  6
Continuous
 62
     7
100
AcDbCircle
 10
509.3500490344
 20
337.649168251
 30
0.0
 40
0.3
100
AcDbArc
 50
47.32123208630001
 51
90.0
  0
LINE
  5
403
330
228
100
AcDbEntity
 67
     1
  8
7_ALL_FEATURES
  6
Continuous
 62
     7
100
AcDbLine
 10
510.1631419733
 20
333.771503489
 30
0.0
 11
510.2989784336
 21
332.7397231369
 31
0.0
  0
ARC
  5
404
330
228
100
AcDbEntity
 67
     1
  8
7_ALL_FEATURES
  6
Continuous
 62
     7
100
AcDbCircle
 10
502.8631419733
 20
331.7607766953
 30
0.0
 40
7.5
100
AcDbArc
 50
0.0
 51
7.5
  0
LINE
  5
405
330
228
100
AcDbEntity
 67
     1
  8
7_ALL_FEATURES
  6
Continuous
 62
     7
100
AcDbLine
 10
510.3631419733
 20
331.7607766953
 30
0.0
 11
510.3631419733
 21
302.149168251
 31
0.0
  0
ARC
  5
406
330
228
100
AcDbEntity
 67
     1
  8
7_ALL_FEATURES
  6
Continuous
 62
     7
100
AcDbCircle
 10
510.1631419733
 20
302.149168251
 30
0.0
 40
0.2
100
AcDbArc
 50
270.0
 51
360.0
  0
ARC
  5
407
330
228
100
AcDbEntity
 67
     1
  8
7_ALL_FEATURES
  6
Continuous
 62
     7
100
AcDbCircle
 10
510.1631419733
 20
297.249168251
 30
0.0
 40
0.2
100
AcDbArc
 50
0.0
 51
90.0
  0
LINE
  5
408
330
228
100
AcDbEntity
 67
     1
  8
7_ALL_FEATURES
  6
Continuous
 62
     7
100
AcDbLine
 10
510.3631419733
 20
297.249168251
 30
0.0
 11
510.3631419733
 21
284.249168251
 31
0.0
  0
ARC
  5
409
330
228
100
AcDbEntity
 67
     1
  8
7_ALL_FEATURES
  6
Continuous
 62
     7
100
AcDbCircle
 10
510.0631419733
 20
284.249168251
 30
0.0
 40
0.3
100
AcDbArc
 50
289.4862967604
 51
360.0
  0
ARC
  5
40A
330
228
100
AcDbEntity
 67
     1
  8
7_ALL_FEATURES
  6
Continuous
 62
     7
100
AcDbCircle
 10
510.0631419733
 20
279.149168251
 30
0.0
 40
0.3
100
AcDbArc
 50
0.0
 51
70.5137032396
  0
LINE
  5
40B
330
228
100
AcDbEntity
 67
     1
  8
7_ALL_FEATURES
  6
Continuous
 62
     7
100
AcDbLine
 10
510.3631419733
 20
279.149168251
 30
0.0
 11
510.3631419733
 21
255.449168251
 31
0.0
  0
ARC
  5
40C
330
228
100
AcDbEntity
 67
     1
  8
7_ALL_FEATURES
  6
Continuous
 62
     7
100
AcDbCircle
 10
509.3631419733
 20
255.449168251
 30
0.0
 40
1.0
100
AcDbArc
 50
270.0
 51
360.0
  0
LINE
  5
40D
330
228
100
AcDbEntity
 67
     1
  8
7_ALL_FEATURES
  6
Continuous
 62
     7
100
AcDbLine
 10
509.3631419733
 20
254.449168251
 30
0.0
 11
509.1631419733
 21
254.449168251
 31
0.0
  0
LINE
  5
40E
330
228
100
AcDbEntity
 67
     1
  8
7_ALL_FEATURES
  6
Continuous
 62
     7
100
AcDbLine
 10
469.1631419733
 20
254.449168251
 30
0.0
 11
468.9631419733
 21
254.449168251
 31
0.0
  0
ARC
  5
40F
330
228
100
AcDbEntity
 67
     1
  8
7_ALL_FEATURES
  6
Continuous
 62
     7
100
AcDbCircle
 10
468.9631419733
 20
255.449168251
 30
0.0
 40
1.0
100
AcDbArc
 50
180.0
 51
270.0
  0
LINE
  5
410
330
228
100
AcDbEntity
 67
     1
  8
7_ALL_FEATURES
  6
Continuous
 62
     7
100
AcDbLine
 10
467.9631419733
 20
255.449168251
 30
0.0
 11
467.9631419733
 21
279.149168251
 31
0.0
  0
ARC
  5
411
330
228
100
AcDbEntity
 67
     1
  8
7_ALL_FEATURES
  6
Continuous
 62
     7
100
AcDbCircle
 10
468.2631419733
 20
279.149168251
 30
0.0
 40
0.3
100
AcDbArc
 50
109.4862967604
 51
180.0
  0
ARC
  5
412
330
228
100
AcDbEntity
 67
     1
  8
7_ALL_FEATURES
  6
Continuous
 62
     7
100
AcDbCircle
 10
468.2631419733
 20
284.249168251
 30
0.0
 40
0.3
100
AcDbArc
 50
180.0
 51
250.5137032396
  0
LINE
  5
413
330
228
100
AcDbEntity
 67
     1
  8
7_ALL_FEATURES
  6
Continuous
 62
     7
100
AcDbLine
 10
467.9631419733
 20
284.249168251
 30
0.0
 11
467.9631419733
 21
297.249168251
 31
0.0
  0
ARC
  5
414
330
228
100
AcDbEntity
 67
     1
  8
7_ALL_FEATURES
  6
Continuous
 62
     7
100
AcDbCircle
 10
468.1631419733
 20
297.249168251
 30
0.0
 40
0.2
100
AcDbArc
 50
90.0
 51
180.0
  0
ARC
  5
415
330
228
100
AcDbEntity
 67
     1
  8
7_ALL_FEATURES
  6
Continuous
 62
     7
100
AcDbCircle
 10
468.1631419733
 20
302.149168251
 30
0.0
 40
0.2
100
AcDbArc
 50
180.0
 51
270.0
  0
LINE
  5
416
330
228
100
AcDbEntity
 67
     1
  8
7_ALL_FEATURES
  6
Continuous
 62
     7
100
AcDbLine
 10
467.9631419733
 20
302.149168251
 30
0.0
 11
467.9631419733
 21
331.7607766953
 31
0.0
  0
ARC
  5
417
330
228
100
AcDbEntity
 67
     1
  8
7_ALL_FEATURES
  6
Continuous
 62
     7
100
AcDbCircle
 10
475.4631419733
 20
331.7607766953
 30
0.0
 40
7.5
100
AcDbArc
 50
172.5
 51
180.0
  0
LINE
  5
418
330
228
100
AcDbEntity
 67
     1
  8
7_ALL_FEATURES
  6
Continuous
 62
     7
100
AcDbLine
 10
468.027305513
 20
332.7397231369
 30
0.0
 11
468.1631419733
 21
333.771503489
 31
0.0
  0
ARC
  5
419
330
228
100
AcDbEntity
 67
     1
  8
7_ALL_FEATURES
  6
Continuous
 62
     7
100
AcDbCircle
 10
468.9762349122
 20
337.649168251
 30
0.0
 40
0.3
100
AcDbArc
 50
90.0
 51
132.6787679137
  0
LINE
  5
41A
330
228
100
AcDbEntity
 67
     1
  8
7_ALL_FEATURES
  6
Continuous
 62
     7
100
AcDbLine
 10
468.9762349122
 20
337.949168251
 30
0.0
 11
469.1631419733
 21
337.949168251
 31
0.0
  0
LINE
  5
41B
330
228
100
AcDbEntity
 67
     1
  8
7_ALL_FEATURES
  6
Continuous
 62
     7
100
AcDbLine
 10
467.6131419733
 20
255.049168251
 30
0.0
 11
467.6131419733
 21
323.249168251
 31
0.0
  0
ARC
  5
41C
330
228
100
AcDbEntity
 67
     1
  8
7_ALL_FEATURES
  6
Continuous
 62
     7
100
AcDbCircle
 10
510.1131419733
 20
255.049168251
 30
0.0
 40
0.6
100
AcDbArc
 50
270.0
 51
360.0
  0
LINE
  5
41D
330
228
100
AcDbEntity
 67
     1
  8
7_ALL_FEATURES
  6
Continuous
 62
     7
100
AcDbLine
 10
512.7131419733
 20
324.449168251
 30
0.0
 11
535.7131419733
 21
324.449168251
 31
0.0
  0
LINE
  5
41E
330
228
100
AcDbEntity
 67
     1
  8
7_ALL_FEATURES
  6
Continuous
 62
     7
100
AcDbLine
 10
511.9131419733
 20
324.449168251
 30
0.0
 11
512.7131419733
 21
324.449168251
 31
0.0
  0
LINE
  5
41F
330
228
100
AcDbEntity
 67
     1
  8
7_ALL_FEATURES
  6
Continuous
 62
     7
100
AcDbLine
 10
510.7131419733
 20
323.249168251
 30
0.0
 11
510.7131419733
 21
255.049168251
 31
0.0
  0
ARC
  5
420
330
228
100
AcDbEntity
 67
     1
  8
7_ALL_FEATURES
  6
Continuous
 62
     7
100
AcDbCircle
 10
511.9131419733
 20
323.249168251
 30
0.0
 40
1.2
100
AcDbArc
 50
90.0
 51
180.0
  0
LINE
  5
421
330
228
100
AcDbEntity
 67
     1
  8
7_ALL_FEATURES
  6
Continuous
 62
     7
100
AcDbLine
 10
535.7131419733
 20
323.849168251
 30
0.0
 11
535.7131419733
 21
324.449168251
 31
0.0
  0
LINE
  5
422
330
228
100
AcDbEntity
 67
     1
  8
7_ALL_FEATURES
  6
Continuous
 62
     7
100
AcDbLine
 10
442.6131419733
 20
323.849168251
 30
0.0
 11
442.6131419733
 21
324.449168251
 31
0.0
  0
ARC
  5
423
330
228
100
AcDbEntity
 67
     1
  8
7_ALL_FEATURES
  6
Continuous
 62
     7
100
AcDbCircle
 10
466.4131419733
 20
323.249168251
 30
0.0
 40
1.2
100
AcDbArc
 50
0.0
 51
90.0
  0
LINE
  5
424
330
228
100
AcDbEntity
 67
     1
  8
7_ALL_FEATURES
  6
Continuous
 62
     7
100
AcDbLine
 10
442.6131419733
 20
324.449168251
 30
0.0
 11
465.6131419733
 21
324.449168251
 31
0.0
  0
LINE
  5
425
330
228
100
AcDbEntity
 67
     1
  8
7_ALL_FEATURES
  6
Continuous
 62
     7
100
AcDbLine
 10
465.6131419733
 20
324.449168251
 30
0.0
 11
466.4131419733
 21
324.449168251
 31
0.0
  0
ARC
  5
426
330
228
100
AcDbEntity
 67
     1
  8
7_ALL_FEATURES
  6
Continuous
 62
     7
100
AcDbCircle
 10
468.2131419733
 20
255.049168251
 30
0.0
 40
0.6
100
AcDbArc
 50
180.0
 51
270.0
  0
LINE
  5
427
330
228
100
AcDbEntity
 67
     1
  8
7_ALL_FEATURES
  6
Continuous
 62
     7
100
AcDbLine
 10
468.2131419733
 20
254.449168251
 30
0.0
 11
468.9631419733
 21
254.449168251
 31
0.0
  0
LINE
  5
428
330
228
100
AcDbEntity
 67
     1
  8
7_ALL_FEATURES
  6
Continuous
 62
     7
100
AcDbLine
 10
509.3631419733
 20
254.449168251
 30
0.0
 11
510.1131419733
 21
254.449168251
 31
0.0
  0
LINE
  5
429
330
228
100
AcDbEntity
 67
     1
  8
7_ALL_FEATURES
  6
Continuous
 62
     9
100
AcDbLine
 10
510.1131419733
 20
253.849168251
 30
0.0
 11
510.1131419733
 21
254.449168251
 31
0.0
  0
LINE
  5
42A
330
228
100
AcDbEntity
 67
     1
  8
7_ALL_FEATURES
  6
Continuous
 62
     9
100
AcDbLine
 10
467.0131419733
 20
255.049168251
 30
0.0
 11
467.6131419733
 21
255.049168251
 31
0.0
  0
LINE
  5
42B
330
228
100
AcDbEntity
 67
     1
  8
7_ALL_FEATURES
  6
Continuous
 62
     9
100
AcDbLine
 10
511.9131419733
 20
324.449168251
 30
0.0
 11
511.9131419733
 21
323.849168251
 31
0.0
  0
LINE
  5
42C
330
228
100
AcDbEntity
 67
     1
  8
7_ALL_FEATURES
  6
Continuous
 62
     9
100
AcDbLine
 10
467.6131419733
 20
323.249168251
 30
0.0
 11
467.0131419733
 21
323.249168251
 31
0.0
  0
LINE
  5
42D
330
228
100
AcDbEntity
 67
     1
  8
7_ALL_FEATURES
  6
Continuous
 62
     9
100
AcDbLine
 10
468.2131419733
 20
253.849168251
 30
0.0
 11
468.2131419733
 21
254.449168251
 31
0.0
  0
LINE
  5
42E
330
228
100
AcDbEntity
 67
     1
  8
7_ALL_FEATURES
  6
Continuous
 62
     9
100
AcDbLine
 10
466.4131419733
 20
324.449168251
 30
0.0
 11
466.4131419733
 21
323.849168251
 31
0.0
  0
LINE
  5
42F
330
228
100
AcDbEntity
 67
     1
  8
7_ALL_FEATURES
  6
Continuous
 62
     9
100
AcDbLine
 10
510.7131419733
 20
323.249168251
 30
0.0
 11
511.3131419733
 21
323.249168251
 31
0.0
  0
LINE
  5
430
330
228
100
AcDbEntity
 67
     1
  8
7_ALL_FEATURES
  6
Continuous
 62
     9
100
AcDbLine
 10
511.3131419733
 20
255.049168251
 30
0.0
 11
510.7131419733
 21
255.049168251
 31
0.0
  0
LINE
  5
431
330
228
100
AcDbEntity
 67
     1
  8
7_ALL_FEATURES
  6
Continuous
 62
     7
100
AcDbLine
 10
465.6131419733
 20
323.849168251
 30
0.0
 11
465.6131419733
 21
324.449168251
 31
0.0
  0
LINE
  5
432
330
228
100
AcDbEntity
 67
     1
  8
7_ALL_FEATURES
  6
Continuous
 62
     7
100
AcDbLine
 10
512.7131419733
 20
323.849168251
 30
0.0
 11
512.7131419733
 21
324.449168251
 31
0.0
  0
LINE
  5
433
330
228
100
AcDbEntity
 67
     1
  8
7_ALL_FEATURES
  6
Continuous
 62
     3
100
AcDbLine
 10
511.3131419733
 20
323.249168251
 30
0.0
 11
511.3131419733
 21
255.049168251
 31
0.0
  0
ARC
  5
434
330
228
100
AcDbEntity
 67
     1
  8
7_ALL_FEATURES
  6
Continuous
 62
     3
100
AcDbCircle
 10
510.1131419733
 20
255.049168251
 30
0.0
 40
1.2
100
AcDbArc
 50
270.0
 51
360.0
  0
ARC
  5
435
330
228
100
AcDbEntity
 67
     1
  8
7_ALL_FEATURES
  6
Continuous
 62
     3
100
AcDbCircle
 10
466.4131419733
 20
323.249168251
 30
0.0
 40
0.6
100
AcDbArc
 50
0.0
 51
90.0
  0
LINE
  5
436
330
228
100
AcDbEntity
 67
     1
  8
7_ALL_FEATURES
  6
Continuous
 62
     3
100
AcDbLine
 10
465.6131419733
 20
323.849168251
 30
0.0
 11
466.4131419733
 21
323.849168251
 31
0.0
  0
LINE
  5
437
330
228
100
AcDbEntity
 67
     1
  8
7_ALL_FEATURES
  6
Continuous
 62
     3
100
AcDbLine
 10
465.6131419733
 20
323.849168251
 30
0.0
 11
442.6131419733
 21
323.849168251
 31
0.0
  0
LINE
  5
438
330
228
100
AcDbEntity
 67
     1
  8
7_ALL_FEATURES
  6
Continuous
 62
     3
100
AcDbLine
 10
511.9131419733
 20
323.849168251
 30
0.0
 11
512.7131419733
 21
323.849168251
 31
0.0
  0
LINE
  5
439
330
228
100
AcDbEntity
 67
     1
  8
7_ALL_FEATURES
  6
Continuous
 62
     3
100
AcDbLine
 10
535.7131419733
 20
323.849168251
 30
0.0
 11
512.7131419733
 21
323.849168251
 31
0.0
  0
ARC
  5
43A
330
228
100
AcDbEntity
 67
     1
  8
7_ALL_FEATURES
  6
Continuous
 62
     3
100
AcDbCircle
 10
511.9131419733
 20
323.249168251
 30
0.0
 40
0.6
100
AcDbArc
 50
90.0
 51
180.0
  0
ARC
  5
43B
330
228
100
AcDbEntity
 67
     1
  8
7_ALL_FEATURES
  6
Continuous
 62
     3
100
AcDbCircle
 10
468.2131419733
 20
255.049168251
 30
0.0
 40
1.2
100
AcDbArc
 50
180.0
 51
270.0
  0
LINE
  5
43C
330
228
100
AcDbEntity
 67
     1
  8
7_ALL_FEATURES
  6
Continuous
 62
     3
100
AcDbLine
 10
468.2131419733
 20
253.849168251
 30
0.0
 11
510.1131419733
 21
253.849168251
 31
0.0
  0
LINE
  5
43D
330
228
100
AcDbEntity
 67
     1
  8
7_ALL_FEATURES
  6
Continuous
 62
     3
100
AcDbLine
 10
467.0131419733
 20
255.049168251
 30
0.0
 11
467.0131419733
 21
323.249168251
 31
0.0
  0
LINE
  5
43E
330
228
100
AcDbEntity
 67
     1
  8
3_ALL_AXES
  6
Continuous
 62
     7
100
AcDbLine
 10
362.8164849936
 20
150.1941627325
 30
0.0
 11
362.4672053232
 21
149.9010822899
 31
0.0
  0
LINE
  5
43F
330
228
100
AcDbEntity
 67
     1
  8
3_ALL_AXES
  6
Continuous
 62
     7
100
AcDbLine
 10
362.9672053232
 20
144.6941627325
 30
0.0
 11
362.8164849936
 21
144.6941627325
 31
0.0
  0
LINE
  5
440
330
228
100
AcDbEntity
 67
     1
  8
3_ALL_AXES
  6
Continuous
 62
     7
100
AcDbLine
 10
362.9672053232
 20
150.1941627325
 30
0.0
 11
362.8164849936
 21
150.1941627325
 31
0.0
  0
LINE
  5
441
330
228
100
AcDbEntity
 67
     1
  8
3_ALL_AXES
  6
Continuous
 62
     7
100
AcDbLine
 10
362.9672053232
 20
144.6941627325
 30
0.0
 11
362.9672053232
 21
150.1941627325
 31
0.0
  0
LINE
  5
442
330
228
100
AcDbEntity
 67
     1
  8
3_ALL_AXES
  6
Continuous
 62
     7
100
AcDbLine
 10
362.8164849936
 20
144.6941627325
 30
0.0
 11
362.4672053232
 21
144.9872431751
 31
0.0
  0
LINE
  5
443
330
228
100
AcDbEntity
 67
     1
  8
3_ALL_AXES
  6
Continuous
 62
     7
100
AcDbLine
 10
362.8164849936
 20
144.6941627325
 30
0.0
 11
362.8164849936
 21
150.1941627325
 31
0.0
  0
LINE
  5
444
330
228
100
AcDbEntity
 67
     1
  8
3_ALL_AXES
  6
Continuous
 62
     7
100
AcDbLine
 10
40.6179256528
 20
144.6941627325
 30
0.0
 11
40.9672053232
 21
144.9872431751
 31
0.0
  0
LINE
  5
445
330
228
100
AcDbEntity
 67
     1
  8
3_ALL_AXES
  6
Continuous
 62
     7
100
AcDbLine
 10
40.4672053232
 20
150.1941627325
 30
0.0
 11
40.6179256528
 21
150.1941627325
 31
0.0
  0
LINE
  5
446
330
228
100
AcDbEntity
 67
     1
  8
3_ALL_AXES
  6
Continuous
 62
     7
100
AcDbLine
 10
40.4672053232
 20
144.6941627325
 30
0.0
 11
40.6179256528
 21
144.6941627325
 31
0.0
  0
LINE
  5
447
330
228
100
AcDbEntity
 67
     1
  8
3_ALL_AXES
  6
Continuous
 62
     7
100
AcDbLine
 10
40.4672053232
 20
150.1941627325
 30
0.0
 11
40.4672053232
 21
144.6941627325
 31
0.0
  0
LINE
  5
448
330
228
100
AcDbEntity
 67
     1
  8
3_ALL_AXES
  6
Continuous
 62
     7
100
AcDbLine
 10
40.6179256528
 20
150.1941627325
 30
0.0
 11
40.9672053232
 21
149.9010822899
 31
0.0
  0
LINE
  5
449
330
228
100
AcDbEntity
 67
     1
  8
3_ALL_AXES
  6
Continuous
 62
     7
100
AcDbLine
 10
40.6179256528
 20
150.1941627325
 30
0.0
 11
40.6179256528
 21
144.6941627325
 31
0.0
  0
LINE
  5
44A
330
228
100
AcDbEntity
 67
     1
  8
3_ALL_AXES
  6
Continuous
 62
     7
100
AcDbLine
 10
40.6179256528
 20
108.2941627325
 30
0.0
 11
40.9672053232
 21
108.5872431751
 31
0.0
  0
LINE
  5
44B
330
228
100
AcDbEntity
 67
     1
  8
3_ALL_AXES
  6
Continuous
 62
     7
100
AcDbLine
 10
40.4672053232
 20
113.7941627325
 30
0.0
 11
40.6179256528
 21
113.7941627325
 31
0.0
  0
LINE
  5
44C
330
228
100
AcDbEntity
 67
     1
  8
3_ALL_AXES
  6
Continuous
 62
     7
100
AcDbLine
 10
40.4672053232
 20
108.2941627325
 30
0.0
 11
40.6179256528
 21
108.2941627325
 31
0.0
  0
LINE
  5
44D
330
228
100
AcDbEntity
 67
     1
  8
3_ALL_AXES
  6
Continuous
 62
     7
100
AcDbLine
 10
40.4672053232
 20
113.7941627325
 30
0.0
 11
40.4672053232
 21
108.2941627325
 31
0.0
  0
LINE
  5
44E
330
228
100
AcDbEntity
 67
     1
  8
3_ALL_AXES
  6
Continuous
 62
     7
100
AcDbLine
 10
40.6179256528
 20
113.7941627325
 30
0.0
 11
40.9672053232
 21
113.5010822899
 31
0.0
  0
LINE
  5
44F
330
228
100
AcDbEntity
 67
     1
  8
3_ALL_AXES
  6
Continuous
 62
     7
100
AcDbLine
 10
40.6179256528
 20
113.7941627325
 30
0.0
 11
40.6179256528
 21
108.2941627325
 31
0.0
  0
LINE
  5
450
330
228
100
AcDbEntity
 67
     1
  8
3_ALL_AXES
  6
Continuous
 62
     7
100
AcDbLine
 10
362.8164849936
 20
113.7941627325
 30
0.0
 11
362.4672053232
 21
113.5010822899
 31
0.0
  0
LINE
  5
451
330
228
100
AcDbEntity
 67
     1
  8
3_ALL_AXES
  6
Continuous
 62
     7
100
AcDbLine
 10
362.9672053232
 20
108.2941627325
 30
0.0
 11
362.8164849936
 21
108.2941627325
 31
0.0
  0
LINE
  5
452
330
228
100
AcDbEntity
 67
     1
  8
3_ALL_AXES
  6
Continuous
 62
     7
100
AcDbLine
 10
362.9672053232
 20
113.7941627325
 30
0.0
 11
362.8164849936
 21
113.7941627325
 31
0.0
  0
LINE
  5
453
330
228
100
AcDbEntity
 67
     1
  8
3_ALL_AXES
  6
Continuous
 62
     7
100
AcDbLine
 10
362.9672053232
 20
108.2941627325
 30
0.0
 11
362.9672053232
 21
113.7941627325
 31
0.0
  0
LINE
  5
454
330
228
100
AcDbEntity
 67
     1
  8
3_ALL_AXES
  6
Continuous
 62
     7
100
AcDbLine
 10
362.8164849936
 20
108.2941627325
 30
0.0
 11
362.4672053232
 21
108.5872431751
 31
0.0
  0
LINE
  5
455
330
228
100
AcDbEntity
 67
     1
  8
3_ALL_AXES
  6
Continuous
 62
     7
100
AcDbLine
 10
362.8164849936
 20
108.2941627325
 30
0.0
 11
362.8164849936
 21
113.7941627325
 31
0.0
  0
LINE
  5
456
330
228
100
AcDbEntity
 67
     1
  8
7_ALL_FEATURES
  6
Continuous
 62
     7
100
AcDbLine
 10
40.9672053232
 20
108.2441627325
 30
0.0
 11
42.4672053232
 21
108.2441627325
 31
0.0
  0
LINE
  5
457
330
228
100
AcDbEntity
 67
     1
  8
7_ALL_FEATURES
  6
Continuous
 62
     7
100
AcDbLine
 10
40.9672053232
 20
150.2441627325
 30
0.0
 11
42.4672053232
 21
150.2441627325
 31
0.0
  0
LINE
  5
458
330
228
100
AcDbEntity
 67
     1
  8
7_ALL_FEATURES
  6
Continuous
 62
     7
100
AcDbLine
 10
40.9672053232
 20
108.2441627325
 30
0.0
 11
40.9672053232
 21
109.2441627325
 31
0.0
  0
LINE
  5
459
330
228
100
AcDbEntity
 67
     1
  8
7_ALL_FEATURES
  6
Continuous
 62
     7
100
AcDbLine
 10
40.9672053232
 20
149.2441627325
 30
0.0
 11
40.9672053232
 21
109.2441627325
 31
0.0
  0
LINE
  5
45A
330
228
100
AcDbEntity
 67
     1
  8
7_ALL_FEATURES
  6
Continuous
 62
     7
100
AcDbLine
 10
40.9672053232
 20
149.2441627325
 30
0.0
 11
40.9672053232
 21
150.2441627325
 31
0.0
  0
LINE
  5
45B
330
228
100
AcDbEntity
 67
     1
  8
7_ALL_FEATURES
  6
Continuous
 62
     9
100
AcDbLine
 10
40.9672053232
 20
149.2441627325
 30
0.0
 11
42.4672053232
 21
149.2441627325
 31
0.0
  0
LINE
  5
45C
330
228
100
AcDbEntity
 67
     1
  8
7_ALL_FEATURES
  6
Continuous
 62
     9
100
AcDbLine
 10
40.9672053232
 20
109.2441627325
 30
0.0
 11
42.4672053232
 21
109.2441627325
 31
0.0
  0
LINE
  5
45D
330
228
100
AcDbEntity
 67
     1
  8
7_ALL_FEATURES
  6
Continuous
 62
     7
100
AcDbLine
 10
362.4672053232
 20
150.2441627325
 30
0.0
 11
360.9672053232
 21
150.2441627325
 31
0.0
  0
LINE
  5
45E
330
228
100
AcDbEntity
 67
     1
  8
7_ALL_FEATURES
  6
Continuous
 62
     7
100
AcDbLine
 10
362.4672053232
 20
108.2441627325
 30
0.0
 11
360.9672053232
 21
108.2441627325
 31
0.0
  0
LINE
  5
45F
330
228
100
AcDbEntity
 67
     1
  8
7_ALL_FEATURES
  6
Continuous
 62
     7
100
AcDbLine
 10
362.4672053232
 20
150.2441627325
 30
0.0
 11
362.4672053232
 21
149.2441627325
 31
0.0
  0
LINE
  5
460
330
228
100
AcDbEntity
 67
     1
  8
7_ALL_FEATURES
  6
Continuous
 62
     7
100
AcDbLine
 10
362.4672053232
 20
109.2441627325
 30
0.0
 11
362.4672053232
 21
149.2441627325
 31
0.0
  0
LINE
  5
461
330
228
100
AcDbEntity
 67
     1
  8
7_ALL_FEATURES
  6
Continuous
 62
     7
100
AcDbLine
 10
362.4672053232
 20
109.2441627325
 30
0.0
 11
362.4672053232
 21
108.2441627325
 31
0.0
  0
LINE
  5
462
330
228
100
AcDbEntity
 67
     1
  8
7_ALL_FEATURES
  6
Continuous
 62
     9
100
AcDbLine
 10
362.4672053232
 20
109.2441627325
 30
0.0
 11
360.9672053232
 21
109.2441627325
 31
0.0
  0
LINE
  5
463
330
228
100
AcDbEntity
 67
     1
  8
7_ALL_FEATURES
  6
Continuous
 62
     9
100
AcDbLine
 10
362.4672053232
 20
149.2441627325
 30
0.0
 11
360.9672053232
 21
149.2441627325
 31
0.0
  0
LINE
  5
464
330
228
100
AcDbEntity
 67
     1
  8
7_ALL_FEATURES
  6
Continuous
 62
     7
100
AcDbLine
 10
139.2172053232
 20
107.6941627325
 30
0.0
 11
139.2172053232
 21
108.0441627325
 31
0.0
  0
LINE
  5
465
330
228
100
AcDbEntity
 67
     1
  8
7_ALL_FEATURES
  6
Continuous
 62
     7
100
AcDbLine
 10
264.2172053232
 20
107.6941627325
 30
0.0
 11
264.2172053232
 21
108.0441627325
 31
0.0
  0
LINE
  5
466
330
228
100
AcDbEntity
 67
     1
  8
7_ALL_FEATURES
  6
Continuous
 62
     7
100
AcDbLine
 10
252.2172053232
 20
82.6941627325
 30
0.0
 11
264.2172053232
 21
105.6941627325
 31
0.0
  0
LINE
  5
467
330
228
100
AcDbEntity
 67
     1
  8
7_ALL_FEATURES
  6
Continuous
 62
     7
100
AcDbLine
 10
151.2172053232
 20
82.6941627325
 30
0.0
 11
252.2172053232
 21
82.6941627325
 31
0.0
  0
LINE
  5
468
330
228
100
AcDbEntity
 67
     1
  8
7_ALL_FEATURES
  6
Continuous
 62
     7
100
AcDbLine
 10
139.2172053232
 20
105.6941627325
 30
0.0
 11
151.2172053232
 21
82.6941627325
 31
0.0
  0
LINE
  5
469
330
228
100
AcDbEntity
 67
     1
  8
7_ALL_FEATURES
  6
Continuous
 62
     7
100
AcDbLine
 10
139.2172053232
 20
106.4941627325
 30
0.0
 11
139.2172053232
 21
105.6941627325
 31
0.0
  0
LINE
  5
46A
330
228
100
AcDbEntity
 67
     1
  8
7_ALL_FEATURES
  6
Continuous
 62
     7
100
AcDbLine
 10
264.2172053232
 20
105.6941627325
 30
0.0
 11
264.2172053232
 21
106.4941627325
 31
0.0
  0
LINE
  5
46B
330
228
100
AcDbEntity
 67
     1
  8
7_ALL_FEATURES
  6
Continuous
 62
     7
100
AcDbLine
 10
139.2172053232
 20
106.4941627325
 30
0.0
 11
139.2172053232
 21
107.1995050353
 31
0.0
  0
LINE
  5
46C
330
228
100
AcDbEntity
 67
     1
  8
7_ALL_FEATURES
  6
Continuous
 62
     7
100
AcDbLine
 10
139.2172053232
 20
107.1995050353
 30
0.0
 11
139.2172053232
 21
107.6941627325
 31
0.0
  0
LINE
  5
46D
330
228
100
AcDbEntity
 67
     1
  8
7_ALL_FEATURES
  6
Continuous
 62
     7
100
AcDbLine
 10
264.2172053232
 20
107.6941627325
 30
0.0
 11
139.2172053232
 21
107.6941627325
 31
0.0
  0
LINE
  5
46E
330
228
100
AcDbEntity
 67
     1
  8
7_ALL_FEATURES
  6
Continuous
 62
     7
100
AcDbLine
 10
264.2172053232
 20
106.4941627325
 30
0.0
 11
264.2172053232
 21
107.1995050353
 31
0.0
  0
LINE
  5
46F
330
228
100
AcDbEntity
 67
     1
  8
7_ALL_FEATURES
  6
Continuous
 62
     7
100
AcDbLine
 10
264.2172053232
 20
107.1995050353
 30
0.0
 11
264.2172053232
 21
107.6941627325
 31
0.0
  0
LINE
  5
470
330
228
100
AcDbEntity
 67
     1
  8
7_ALL_FEATURES
  6
Continuous
 62
     7
100
AcDbLine
 10
139.2172053232
 20
151.9941627325
 30
0.0
 11
139.2172053232
 21
151.2888204298
 31
0.0
  0
LINE
  5
471
330
228
100
AcDbEntity
 67
     1
  8
7_ALL_FEATURES
  6
Continuous
 62
     7
100
AcDbLine
 10
139.2172053232
 20
151.2888204298
 30
0.0
 11
139.2172053232
 21
150.7941627325
 31
0.0
  0
LINE
  5
472
330
228
100
AcDbEntity
 67
     1
  8
7_ALL_FEATURES
  6
Continuous
 62
     7
100
AcDbLine
 10
139.2172053232
 20
150.7941627325
 30
0.0
 11
264.2172053232
 21
150.7941627325
 31
0.0
  0
LINE
  5
473
330
228
100
AcDbEntity
 67
     1
  8
7_ALL_FEATURES
  6
Continuous
 62
     7
100
AcDbLine
 10
264.2172053232
 20
151.9941627325
 30
0.0
 11
264.2172053232
 21
151.2888204298
 31
0.0
  0
LINE
  5
474
330
228
100
AcDbEntity
 67
     1
  8
7_ALL_FEATURES
  6
Continuous
 62
     7
100
AcDbLine
 10
264.2172053232
 20
151.2888204298
 30
0.0
 11
264.2172053232
 21
150.7941627325
 31
0.0
  0
LINE
  5
475
330
228
100
AcDbEntity
 67
     1
  8
7_ALL_FEATURES
  6
Continuous
 62
     7
100
AcDbLine
 10
252.2172053232
 20
175.7941627325
 30
0.0
 11
151.2172053232
 21
175.7941627325
 31
0.0
  0
LINE
  5
476
330
228
100
AcDbEntity
 67
     1
  8
7_ALL_FEATURES
  6
Continuous
 62
     7
100
AcDbLine
 10
151.2172053232
 20
175.7941627325
 30
0.0
 11
139.2172053232
 21
152.7941627325
 31
0.0
  0
LINE
  5
477
330
228
100
AcDbEntity
 67
     1
  8
7_ALL_FEATURES
  6
Continuous
 62
     7
100
AcDbLine
 10
139.2172053232
 20
152.7941627325
 30
0.0
 11
139.2172053232
 21
151.9941627325
 31
0.0
  0
LINE
  5
478
330
228
100
AcDbEntity
 67
     1
  8
7_ALL_FEATURES
  6
Continuous
 62
     7
100
AcDbLine
 10
264.2172053232
 20
151.9941627325
 30
0.0
 11
264.2172053232
 21
152.7941627325
 31
0.0
  0
LINE
  5
479
330
228
100
AcDbEntity
 67
     1
  8
7_ALL_FEATURES
  6
Continuous
 62
     7
100
AcDbLine
 10
264.2172053232
 20
152.7941627325
 30
0.0
 11
252.2172053232
 21
175.7941627325
 31
0.0
  0
LINE
  5
47A
330
228
100
AcDbEntity
 67
     1
  8
7_ALL_FEATURES
  6
Continuous
 62
     7
100
AcDbLine
 10
139.2172053232
 20
150.7941627325
 30
0.0
 11
139.2172053232
 21
150.4441627325
 31
0.0
  0
LINE
  5
47B
330
228
100
AcDbEntity
 67
     1
  8
7_ALL_FEATURES
  6
Continuous
 62
     7
100
AcDbLine
 10
264.2172053232
 20
150.7941627325
 30
0.0
 11
264.2172053232
 21
150.4441627325
 31
0.0
  0
LINE
  5
47C
330
228
100
AcDbEntity
 67
     1
  8
7_ALL_FEATURES
  6
Continuous
 62
     9
100
AcDbLine
 10
139.2172053232
 20
151.9941627325
 30
0.0
 11
264.2172053232
 21
151.9941627325
 31
0.0
  0
LINE
  5
47D
330
228
100
AcDbEntity
 67
     1
  8
7_ALL_FEATURES
  6
Continuous
 62
     9
100
AcDbLine
 10
264.2172053232
 20
106.4941627325
 30
0.0
 11
139.2172053232
 21
106.4941627325
 31
0.0
  0
LINE
  5
47E
330
228
100
AcDbEntity
 67
     1
  8
7_ALL_FEATURES
  6
Continuous
 62
     7
100
AcDbLine
 10
42.4672053232
 20
109.9441627325
 30
0.0
 11
42.4672053232
 21
109.2441627325
 31
0.0
  0
LINE
  5
47F
330
228
100
AcDbEntity
 67
     1
  8
7_ALL_FEATURES
  6
Continuous
 62
     7
100
AcDbLine
 10
42.4672053232
 20
109.2441627325
 30
0.0
 11
42.4672053232
 21
109.0572556714
 31
0.0
  0
LINE
  5
480
330
228
100
AcDbEntity
 67
     1
  8
7_ALL_FEATURES
  6
Continuous
 62
     7
100
AcDbLine
 10
42.4672053232
 20
108.8544767724
 30
0.0
 11
42.4672053232
 21
109.0572556714
 31
0.0
  0
LINE
  5
481
330
228
100
AcDbEntity
 67
     1
  8
7_ALL_FEATURES
  6
Continuous
 62
     7
100
AcDbLine
 10
42.4672053232
 20
108.2441627325
 30
0.0
 11
42.4672053232
 21
108.1083262722
 31
0.0
  0
LINE
  5
482
330
228
100
AcDbEntity
 67
     1
  8
7_ALL_FEATURES
  6
Continuous
 62
     7
100
AcDbLine
 10
42.4672053232
 20
108.0441627325
 30
0.0
 11
42.4672053232
 21
108.1083262722
 31
0.0
  0
LINE
  5
483
330
228
100
AcDbEntity
 67
     1
  8
7_ALL_FEATURES
  6
Continuous
 62
     7
100
AcDbLine
 10
42.4672053232
 20
150.3799991928
 30
0.0
 11
42.4672053232
 21
150.4441627325
 31
0.0
  0
LINE
  5
484
330
228
100
AcDbEntity
 67
     1
  8
7_ALL_FEATURES
  6
Continuous
 62
     7
100
AcDbLine
 10
42.4672053232
 20
150.3799991928
 30
0.0
 11
42.4672053232
 21
150.2441627325
 31
0.0
  0
LINE
  5
485
330
228
100
AcDbEntity
 67
     1
  8
7_ALL_FEATURES
  6
Continuous
 62
     7
100
AcDbLine
 10
42.4672053232
 20
149.4310697936
 30
0.0
 11
42.4672053232
 21
149.6338486927
 31
0.0
  0
LINE
  5
486
330
228
100
AcDbEntity
 67
     1
  8
7_ALL_FEATURES
  6
Continuous
 62
     7
100
AcDbLine
 10
42.4672053232
 20
149.4310697936
 30
0.0
 11
42.4672053232
 21
149.2441627325
 31
0.0
  0
LINE
  5
487
330
228
100
AcDbEntity
 67
     1
  8
7_ALL_FEATURES
  6
Continuous
 62
     7
100
AcDbLine
 10
42.4672053232
 20
149.2441627325
 30
0.0
 11
42.4672053232
 21
148.5441627325
 31
0.0
  0
ARC
  5
488
330
228
100
AcDbEntity
 67
     1
  8
02___PRT_ALL_AXES
  6
Continuous
 62
     7
100
AcDbCircle
 10
350.9672053232
 20
129.2441627325
 30
0.0
 40
5.0
100
AcDbArc
 50
90.0
 51
270.0
  0
ARC
  5
489
330
228
100
AcDbEntity
 67
     1
  8
02___PRT_ALL_AXES
  6
Continuous
 62
     7
100
AcDbCircle
 10
350.9672053232
 20
129.2441627325
 30
0.0
 40
5.0
100
AcDbArc
 50
270.0
 51
90.0
  0
LINE
  5
48A
330
228
100
AcDbEntity
 67
     1
  8
7_ALL_FEATURES
  6
Continuous
 62
     7
100
AcDbLine
 10
360.9672053232
 20
149.4310697936
 30
0.0
 11
360.9672053232
 21
149.2441627325
 31
0.0
  0
LINE
  5
48B
330
228
100
AcDbEntity
 67
     1
  8
7_ALL_FEATURES
  6
Continuous
 62
     7
100
AcDbLine
 10
360.9672053232
 20
149.2441627325
 30
0.0
 11
360.9672053232
 21
148.5441627325
 31
0.0
  0
LINE
  5
48C
330
228
100
AcDbEntity
 67
     1
  8
7_ALL_FEATURES
  6
Continuous
 62
     7
100
AcDbLine
 10
360.9672053232
 20
149.6338486927
 30
0.0
 11
360.9672053232
 21
149.4310697936
 31
0.0
  0
LINE
  5
48D
330
228
100
AcDbEntity
 67
     1
  8
7_ALL_FEATURES
  6
Continuous
 62
     7
100
AcDbLine
 10
360.9672053232
 20
150.3799991928
 30
0.0
 11
360.9672053232
 21
150.2441627325
 31
0.0
  0
LINE
  5
48E
330
228
100
AcDbEntity
 67
     1
  8
7_ALL_FEATURES
  6
Continuous
 62
     7
100
AcDbLine
 10
360.9672053232
 20
150.4441627325
 30
0.0
 11
360.9672053232
 21
150.3799991928
 31
0.0
  0
LINE
  5
48F
330
228
100
AcDbEntity
 67
     1
  8
7_ALL_FEATURES
  6
Continuous
 62
     7
100
AcDbLine
 10
360.9672053232
 20
108.1083262722
 30
0.0
 11
360.9672053232
 21
108.0441627325
 31
0.0
  0
LINE
  5
490
330
228
100
AcDbEntity
 67
     1
  8
7_ALL_FEATURES
  6
Continuous
 62
     7
100
AcDbLine
 10
360.9672053232
 20
108.2441627325
 30
0.0
 11
360.9672053232
 21
108.1083262722
 31
0.0
  0
LINE
  5
491
330
228
100
AcDbEntity
 67
     1
  8
7_ALL_FEATURES
  6
Continuous
 62
     7
100
AcDbLine
 10
360.9672053232
 20
109.0572556714
 30
0.0
 11
360.9672053232
 21
108.8544767724
 31
0.0
  0
LINE
  5
492
330
228
100
AcDbEntity
 67
     1
  8
7_ALL_FEATURES
  6
Continuous
 62
     7
100
AcDbLine
 10
360.9672053232
 20
109.9441627325
 30
0.0
 11
360.9672053232
 21
109.2441627325
 31
0.0
  0
LINE
  5
493
330
228
100
AcDbEntity
 67
     1
  8
7_ALL_FEATURES
  6
Continuous
 62
     7
100
AcDbLine
 10
360.9672053232
 20
109.2441627325
 30
0.0
 11
360.9672053232
 21
109.0572556714
 31
0.0
  0
LINE
  5
494
330
228
100
AcDbEntity
 67
     1
  8
7_ALL_FEATURES
  6
Continuous
 62
     7
100
AcDbLine
 10
360.9672053232
 20
148.2441627325
 30
0.0
 11
42.4672053232
 21
148.2441627325
 31
0.0
  0
LINE
  5
495
330
228
100
AcDbEntity
 67
     1
  8
7_ALL_FEATURES
  6
Continuous
 62
     7
100
AcDbLine
 10
360.9672053232
 20
150.4441627325
 30
0.0
 11
42.4672053232
 21
150.4441627325
 31
0.0
  0
LINE
  5
496
330
228
100
AcDbEntity
 67
     1
  8
7_ALL_FEATURES
  6
Continuous
 62
     7
100
AcDbLine
 10
360.9672053232
 20
108.0441627325
 30
0.0
 11
42.4672053232
 21
108.0441627325
 31
0.0
  0
LINE
  5
497
330
228
100
AcDbEntity
 67
     1
  8
7_ALL_FEATURES
  6
Continuous
 62
     7
100
AcDbLine
 10
360.9672053232
 20
110.2441627325
 30
0.0
 11
42.4672053232
 21
110.2441627325
 31
0.0
  0
LINE
  5
498
330
228
100
AcDbEntity
 67
     1
  8
7_ALL_FEATURES
  6
Continuous
 62
     9
100
AcDbLine
 10
42.4672053232
 20
147.8781373287
 30
0.0
 11
360.9672053232
 21
147.8781373287
 31
0.0
  0
LINE
  5
499
330
228
100
AcDbEntity
 67
     1
  8
7_ALL_FEATURES
  6
Continuous
 62
     9
100
AcDbLine
 10
42.4672053232
 20
110.6101881363
 30
0.0
 11
360.9672053232
 21
110.6101881363
 31
0.0
  0
LINE
  5
49A
330
228
100
AcDbEntity
 67
     1
  8
7_ALL_FEATURES
  6
Continuous
 62
     9
100
AcDbLine
 10
360.9672053232
 20
149.4310697936
 30
0.0
 11
42.4672053232
 21
149.4310697936
 31
0.0
  0
LINE
  5
49B
330
228
100
AcDbEntity
 67
     1
  8
7_ALL_FEATURES
  6
Continuous
 62
     9
100
AcDbLine
 10
360.9672053232
 20
148.5441627325
 30
0.0
 11
42.4672053232
 21
148.5441627325
 31
0.0
  0
LINE
  5
49C
330
228
100
AcDbEntity
 67
     1
  8
7_ALL_FEATURES
  6
Continuous
 62
     9
100
AcDbLine
 10
346.3988581031
 20
131.2683909805
 30
0.0
 11
355.5355525433
 21
131.2683909805
 31
0.0
  0
LINE
  5
49D
330
228
100
AcDbEntity
 67
     1
  8
7_ALL_FEATURES
  6
Continuous
 62
     9
100
AcDbLine
 10
346.2082270707
 20
130.7623339185
 30
0.0
 11
355.7261835757
 21
130.7623339185
 31
0.0
  0
LINE
  5
49E
330
228
100
AcDbEntity
 67
     1
  8
7_ALL_FEATURES
  6
Continuous
 62
     9
100
AcDbLine
 10
346.2082270707
 20
127.7259915465
 30
0.0
 11
355.7261835757
 21
127.7259915465
 31
0.0
  0
LINE
  5
49F
330
228
100
AcDbEntity
 67
     1
  8
7_ALL_FEATURES
  6
Continuous
 62
     9
100
AcDbLine
 10
346.3988581031
 20
127.2199344845
 30
0.0
 11
355.5355525433
 21
127.2199344845
 31
0.0
  0
LINE
  5
4A0
330
228
100
AcDbEntity
 67
     1
  8
7_ALL_FEATURES
  6
Continuous
 62
     9
100
AcDbLine
 10
360.9672053232
 20
150.3799991928
 30
0.0
 11
42.4672053232
 21
150.3799991928
 31
0.0
  0
LINE
  5
4A1
330
228
100
AcDbEntity
 67
     1
  8
7_ALL_FEATURES
  6
Continuous
 62
     9
100
AcDbLine
 10
42.4672053232
 20
110.8601881363
 30
0.0
 11
360.9672053232
 21
110.8601881363
 31
0.0
  0
LINE
  5
4A2
330
228
100
AcDbEntity
 67
     1
  8
7_ALL_FEATURES
  6
Continuous
 62
     9
100
AcDbLine
 10
360.9672053232
 20
112.0137779748
 30
0.0
 11
42.4672053232
 21
112.0137779748
 31
0.0
  0
LINE
  5
4A3
330
228
100
AcDbEntity
 67
     1
  8
7_ALL_FEATURES
  6
Continuous
 62
     9
100
AcDbLine
 10
360.9672053232
 20
146.2245474902
 30
0.0
 11
42.4672053232
 21
146.2245474902
 31
0.0
  0
LINE
  5
4A4
330
228
100
AcDbEntity
 67
     1
  8
7_ALL_FEATURES
  6
Continuous
 62
     9
100
AcDbLine
 10
360.9672053232
 20
149.728503252
 30
0.0
 11
42.4672053232
 21
149.728503252
 31
0.0
  0
LINE
  5
4A5
330
228
100
AcDbEntity
 67
     1
  8
7_ALL_FEATURES
  6
Continuous
 62
     9
100
AcDbLine
 10
360.9672053232
 20
112.2637779748
 30
0.0
 11
42.4672053232
 21
112.2637779748
 31
0.0
  0
LINE
  5
4A6
330
228
100
AcDbEntity
 67
     1
  8
7_ALL_FEATURES
  6
Continuous
 62
     9
100
AcDbLine
 10
42.4672053232
 20
147.6281373287
 30
0.0
 11
360.9672053232
 21
147.6281373287
 31
0.0
  0
LINE
  5
4A7
330
228
100
AcDbEntity
 67
     1
  8
7_ALL_FEATURES
  6
Continuous
 62
     9
100
AcDbLine
 10
360.9672053232
 20
146.4745474902
 30
0.0
 11
42.4672053232
 21
146.4745474902
 31
0.0
  0
LINE
  5
4A8
330
228
100
AcDbEntity
 67
     1
  8
7_ALL_FEATURES
  6
Continuous
 62
     9
100
AcDbLine
 10
360.9672053232
 20
108.1083262722
 30
0.0
 11
42.4672053232
 21
108.1083262722
 31
0.0
  0
LINE
  5
4A9
330
228
100
AcDbEntity
 67
     1
  8
7_ALL_FEATURES
  6
Continuous
 62
     9
100
AcDbLine
 10
360.9672053232
 20
108.759822213
 30
0.0
 11
42.4672053232
 21
108.759822213
 31
0.0
  0
LINE
  5
4AA
330
228
100
AcDbEntity
 67
     1
  8
7_ALL_FEATURES
  6
Continuous
 62
     9
100
AcDbLine
 10
360.9672053232
 20
109.0572556714
 30
0.0
 11
42.4672053232
 21
109.0572556714
 31
0.0
  0
LINE
  5
4AB
330
228
100
AcDbEntity
 67
     1
  8
7_ALL_FEATURES
  6
Continuous
 62
     9
100
AcDbLine
 10
360.9672053232
 20
109.9441627325
 30
0.0
 11
42.4672053232
 21
109.9441627325
 31
0.0
  0
LINE
  5
4AC
330
228
100
AcDbEntity
 67
     1
  8
7_ALL_FEATURES
  6
Continuous
 62
     3
100
AcDbLine
 10
42.4672053232
 20
108.8544767724
 30
0.0
 11
42.4672053232
 21
108.7984243767
 31
0.0
  0
LINE
  5
4AD
330
228
100
AcDbEntity
 67
     1
  8
7_ALL_FEATURES
  6
Continuous
 62
     3
100
AcDbLine
 10
42.4672053232
 20
108.7984243767
 30
0.0
 11
42.4672053232
 21
108.7177305696
 31
0.0
  0
LINE
  5
4AE
330
228
100
AcDbEntity
 67
     1
  8
7_ALL_FEATURES
  6
Continuous
 62
     3
100
AcDbLine
 10
42.4672053232
 20
108.7177305696
 30
0.0
 11
42.4672053232
 21
108.2441627325
 31
0.0
  0
LINE
  5
4AF
330
228
100
AcDbEntity
 67
     1
  8
7_ALL_FEATURES
  6
Continuous
 62
     3
100
AcDbLine
 10
42.4672053232
 20
149.2441627325
 30
0.0
 11
42.4672053232
 21
148.5441627325
 31
0.0
  0
LINE
  5
4B0
330
228
100
AcDbEntity
 67
     1
  8
7_ALL_FEATURES
  6
Continuous
 62
     3
100
AcDbLine
 10
42.4672053232
 20
148.5441627325
 30
0.0
 11
42.4672053232
 21
148.2441627325
 31
0.0
  0
LINE
  5
4B1
330
228
100
AcDbEntity
 67
     1
  8
7_ALL_FEATURES
  6
Continuous
 62
     3
100
AcDbLine
 10
42.4672053232
 20
148.2441627325
 30
0.0
 11
42.4672053232
 21
110.2441627325
 31
0.0
  0
LINE
  5
4B2
330
228
100
AcDbEntity
 67
     1
  8
7_ALL_FEATURES
  6
Continuous
 62
     3
100
AcDbLine
 10
42.4672053232
 20
110.2441627325
 30
0.0
 11
42.4672053232
 21
109.9441627325
 31
0.0
  0
LINE
  5
4B3
330
228
100
AcDbEntity
 67
     1
  8
7_ALL_FEATURES
  6
Continuous
 62
     3
100
AcDbLine
 10
42.4672053232
 20
109.9441627325
 30
0.0
 11
42.4672053232
 21
109.2441627325
 31
0.0
  0
LINE
  5
4B4
330
228
100
AcDbEntity
 67
     1
  8
7_ALL_FEATURES
  6
Continuous
 62
     3
100
AcDbLine
 10
42.4672053232
 20
150.2441627325
 30
0.0
 11
42.4672053232
 21
149.7705948954
 31
0.0
  0
LINE
  5
4B5
330
228
100
AcDbEntity
 67
     1
  8
7_ALL_FEATURES
  6
Continuous
 62
     3
100
AcDbLine
 10
42.4672053232
 20
149.7705948954
 30
0.0
 11
42.4672053232
 21
149.6899010883
 31
0.0
  0
LINE
  5
4B6
330
228
100
AcDbEntity
 67
     1
  8
7_ALL_FEATURES
  6
Continuous
 62
     3
100
AcDbLine
 10
42.4672053232
 20
149.6899010883
 30
0.0
 11
42.4672053232
 21
149.6338486927
 31
0.0
  0
LINE
  5
4B7
330
228
100
AcDbEntity
 67
     1
  8
7_ALL_FEATURES
  6
Continuous
 62
     3
100
AcDbLine
 10
360.9672053232
 20
149.6338486927
 30
0.0
 11
360.9672053232
 21
149.6899010883
 31
0.0
  0
LINE
  5
4B8
330
228
100
AcDbEntity
 67
     1
  8
7_ALL_FEATURES
  6
Continuous
 62
     3
100
AcDbLine
 10
360.9672053232
 20
149.6899010883
 30
0.0
 11
360.9672053232
 21
149.7705948954
 31
0.0
  0
LINE
  5
4B9
330
228
100
AcDbEntity
 67
     1
  8
7_ALL_FEATURES
  6
Continuous
 62
     3
100
AcDbLine
 10
360.9672053232
 20
149.7705948954
 30
0.0
 11
360.9672053232
 21
150.2441627325
 31
0.0
  0
LINE
  5
4BA
330
228
100
AcDbEntity
 67
     1
  8
7_ALL_FEATURES
  6
Continuous
 62
     3
100
AcDbLine
 10
360.9672053232
 20
109.2441627325
 30
0.0
 11
360.9672053232
 21
109.9441627325
 31
0.0
  0
LINE
  5
4BB
330
228
100
AcDbEntity
 67
     1
  8
7_ALL_FEATURES
  6
Continuous
 62
     3
100
AcDbLine
 10
360.9672053232
 20
109.9441627325
 30
0.0
 11
360.9672053232
 21
110.2441627325
 31
0.0
  0
LINE
  5
4BC
330
228
100
AcDbEntity
 67
     1
  8
7_ALL_FEATURES
  6
Continuous
 62
     3
100
AcDbLine
 10
360.9672053232
 20
110.2441627325
 30
0.0
 11
360.9672053232
 21
148.2441627325
 31
0.0
  0
LINE
  5
4BD
330
228
100
AcDbEntity
 67
     1
  8
7_ALL_FEATURES
  6
Continuous
 62
     3
100
AcDbLine
 10
360.9672053232
 20
148.2441627325
 30
0.0
 11
360.9672053232
 21
148.5441627325
 31
0.0
  0
LINE
  5
4BE
330
228
100
AcDbEntity
 67
     1
  8
7_ALL_FEATURES
  6
Continuous
 62
     3
100
AcDbLine
 10
360.9672053232
 20
148.5441627325
 30
0.0
 11
360.9672053232
 21
149.2441627325
 31
0.0
  0
LINE
  5
4BF
330
228
100
AcDbEntity
 67
     1
  8
7_ALL_FEATURES
  6
Continuous
 62
     3
100
AcDbLine
 10
360.9672053232
 20
108.2441627325
 30
0.0
 11
360.9672053232
 21
108.7177305696
 31
0.0
  0
LINE
  5
4C0
330
228
100
AcDbEntity
 67
     1
  8
7_ALL_FEATURES
  6
Continuous
 62
     3
100
AcDbLine
 10
360.9672053232
 20
108.7177305696
 30
0.0
 11
360.9672053232
 21
108.7984243767
 31
0.0
  0
LINE
  5
4C1
330
228
100
AcDbEntity
 67
     1
  8
7_ALL_FEATURES
  6
Continuous
 62
     3
100
AcDbLine
 10
360.9672053232
 20
108.7984243767
 30
0.0
 11
360.9672053232
 21
108.8544767724
 31
0.0
  0
DIMENSION
  5
4C2
330
228
100
AcDbEntity
 67
     1
  8
0
  6
Continuous
 62
     2
100
AcDbDimension
280
     0
  2
*D1
 10
362.4672053232
 20
358.8023098785
 30
0.0
 11
201.7219866943
 21
358.8023098785
 31
0.0
 70
   160
 71
     2
 42
321.5
 73
     0
 74
     0
 75
     0
  3
DIMSTYLE_1
100
AcDbAlignedDimension
 13
40.9672053232
 23
336.949168251
 33
0.0
 14
362.4672053232
 24
325.949168251
 34
0.0
100
AcDbRotatedDimension
  0
DIMENSION
  5
4C3
330
228
100
AcDbEntity
 67
     1
  8
0
  6
Continuous
 62
     2
100
AcDbDimension
280
     0
  2
*D2
 10
554.4498729992
 20
253.849168251
 30
0.0
 11
554.4498729992
 21
295.5941536016
 31
0.0
 70
   160
 71
     2
 42
84.1
 73
     0
 74
     0
 75
     0
  3
DIMSTYLE_2
100
AcDbAlignedDimension
 13
509.1631419733
 23
337.949168251
 33
0.0
 14
510.1131419733
 24
253.849168251
 34
0.0
 50
270.0
100
AcDbRotatedDimension
  0
DIMENSION
  5
4C4
330
228
100
AcDbEntity
 67
     1
  8
0
  6
Continuous
 62
     2
100
AcDbDimension
280
     0
  2
*D3
 10
442.6131419733
 20
353.9665499452
 30
0.0
 11
488.8637039795
 21
353.9665499452
 31
0.0
 70
   160
 71
     2
 42
93.1
 73
     0
 74
     0
 75
     0
  3
DIMSTYLE_2
100
AcDbAlignedDimension
 13
535.7131419733
 23
324.449168251
 33
0.0
 14
442.6131419733
 24
324.449168251
 34
0.0
 50
180.0
100
AcDbRotatedDimension
  0
INSERT
  5
4C5
330
228
100
AcDbEntity
 67
     1
  8
0
  6
Continuous
 62
     2
100
AcDbBlockReference
  2
PROIEZIONE_EU_BL0
 10
469.0099950196
 20
67.650479964
 30
0.0
  0
INSERT
  5
4C6
330
228
100
AcDbEntity
 67
     1
  8
0
  6
Continuous
 62
     2
100
AcDbBlockReference
  2
LOGO2_BL1
 10
467.8360420644
 20
42.025479964
 30
0.0
  0
ACAD_TABLE
  5
4C7
330
228
100
AcDbEntity
 67
     1
  8
0
  6
Continuous
 62
     2
160
              7016
310
681B00002F000000880000001D000000000000000000F03F00000000000000000000000000000000E1A489F028607C400000000000000000000000000000F03F00000000000000005405B776A101534000000000000000000000000000000000000000000000F03F0000000000000000000000000000000000000000000000
310
000000000000000000000000000000F03F54000000200000000200000000000000000000000000000000000000000000000000000000000000004060400000000000000000000000000000000000000000000000000000000000000000000000000000F03F5400000020000000020000000000000000000000000000000000
310
00000000000000000000000000000000000000000000008050C0000000000000000000000000000000000000000000000000000000000000F03F5400000020000000020000000000000000003E4000000000000020C00000000000000000000000000040604000000000000020C00000000000000000000000000000000000
310
00000000000000000000000000F03F540000002000000002000000000000000000000000000000000030C00000000000000000000000000040604000000000000030C0000000000000000000000000000000000000000000000000000000000000F03F5400000020000000020000000000000000003E4000000000000036C0
310
0000000000000000000000000040604000000000000036C0000000000000000000000000000000000000000000000000000000000000F03F5400000020000000020000000000000000003E400000000000003CC0000000000000000000000000004060400000000000003CC000000000000000000000000000000000000000
310
0000000000000000000000F03F5400000020000000020000000000000000003E4000000000000041C00000000000000000000000000040604000000000000041C0000000000000000000000000000000000000000000000000000000000000F03F5400000020000000020000000000000000003E4000000000000044C00000
310
000000000000000000000040604000000000000044C0000000000000000000000000000000000000000000000000000000000000F03F5400000020000000020000000000000000003E4000000000000047C00000000000000000000000000040604000000000000047C0000000000000000000000000000000000000000000
310
000000000000000000F03F54000000200000000200000000000000000000000000000000004AC0000000000000000000000000004060400000000000004AC0000000000000000000000000000000000000000000000000000000000000F03F54000000200000000200000000000000000000000000000000004DC000000000
310
0000000000000000004060400000000000004DC0000000000000000000000000000000000000000000000000000000000000F03F54000000200000000200000000000000000000000000000000004FC0000000000000000000000000004060400000000000004FC00000000000000000000000000000000000000000000000
310
00000000000000F03F540000002000000002000000000000000000000000000000008050C00000000000000000000000000040604000000000008050C0000000000000000000000000000000000000000000000000000000000000F03F5400000020000000020000000000000000003E400000000000000000000000000000
310
00000000000000003E400000000000004DC0000000000000000000000000000000000000000000000000000000000000F03F540000002000000002000000000000000000494000000000000030C00000000000000000000000000000494000000000000036C000000000000000000000000000000000000000000000000000
310
0000000000F03F540000002000000002000000000000000000544000000000000047C0000000000000000000000000000054400000000000004DC0000000000000000000000000000000000000000000000000000000000000F03F540000002000000002000000000000000080564000000000000030C00000000000000000
310
000000000080564000000000000036C0000000000000000000000000000000000000000000000000000000000000F03F54000000200000000200000000000000008056400000000000003CC00000000000000000000000000080564000000000000041C0000000000000000000000000000000000000000000000000000000
310
000000F03F5400000020000000020000000000000000805B4000000000000030C000000000000000000000000000805B4000000000000036C0000000000000000000000000000000000000000000000000000000000000F03F5400000020000000020000000000000000005E400000000000003CC000000000000000000000
310
000000005E4000000000000041C0000000000000000000000000000000000000000000000000000000000000F03F540000002000000002000000000000000040604000000000000000000000000000000000000000000040604000000000008050C00000000000000000000000000000000000000000000000000000000000
310
00F03F0C00000010000000230000001C01000026000000CDCCCCCCCC7C3F403333333333330CC0000000000000000000000000000000000000000000000000000000000000F03F000000000000F03F0000000000000000000000000000000045004E003A0020004300680061006D006600650072002F007200610064006900
310
6900200075006E006C0069007300740065006400200030002E003300780034003500B0002E002000520065006D006F00760065002000730068006100720070002000650064006700650073002E0000003700000001000000666666666666FE3F333333333333EB3F0000000000000000000000000000F03F00000000000000
310
0000000000000000000000000000000000000000000000000000000000000000007400780074000000000000004001000026000000CDCCCCCCCC7C3F4000000000008019C0000000000000000000000000000000000000000000000000000000000000F03F000000000000F03F000000000000000000000000000000004700
310
65006E002E00200074006F006C002E003A00200068006F006C00650020004800310031002C0020007300680061006600740020006800310031002C0020006C0065006E0067006800740020004A007300310032002E00200055004E004900200045004E0020003200320037003600380020004D0065006400690075006D0020
310
004700720061006E00640065002E00000000004800000001000000666666666666FE3F333333333333EB3F0000000000000000000000000000F03F000000000000000000000000000000000000000000000000000000000000000000000000000000007400780074000000000000002C01000026000000CDCCCCCCCC7C3F40
310
CDCCCCCCCC0C27C0000000000000000000000000000000000000000000000000000000000000F03F000000000000F03F00000000000000000000000000000000490054003A00200053006D002E002F007200610063002E0020006E006F006E002000710075006F007400610074006900200030002E003300780034003500B0
310
002E00200045006C0069006D0069006E00610072006500200073007000690067006F006C00690020007400610067006C00690065006E00740069002E00000000003E00000001000000666666666666FE3F333333333333EB3F0000000000000000000000000000F03F00000000000000000000000000000000000000000000
310
0000000000000000000000000000000000007400780074000000000000004401000026000000CDCCCCCCCC7C3F400000000000C02CC0000000000000000000000000000000000000000000000000000000000000F03F000000000000F03F0000000000000000000000000000000054006F006C006C002E002000670065006E
310
002E003A00200066006F0072006F0020004800310031002C00200061006C006200650072006F0020006800310031002C0020006C0075006E006700680065007A007A00610020004A007300310032002E00200055004E004900200045004E00200032003200370036003800200047007200610064006F0020004D0065006400
310
69006F002E0000004B00000001000000666666666666FE3F333333333333EB3F0000000000000000000000000000F03F00000000000000000000000000000000000000000000000000000000000000000000000000000000740078007400000000000000BC00000026000000CDCCCCCCCC7C3F400000000000C034C0000000
310
000000000000000000000000000000000000000000000000000000F03F000000000000F03F0000000000000000000000000000000050006A003A002000350036003500000007000000010000000000000000000840333333333333EB3F0000000000000000000000000000F03F000000000000000000000000000000000000
310
00000000000000000000000000000000000000000000740078007400000000000000C4000000260000006666666666BE49400000000000C034C0000000000000000000000000000000000000000000000000000000000000F03F000000000000F03F000000000000000000000000000000002500200043006800650063006B
310
003A0020002500000000000A000000010000000000000000000840333333333333EB3F0000000000000000000000000000F03F00000000000000000000000000000000000000000000000000000000000000000000000000000000740078007400000000000000BC000000260000003333333333DF56400000000000C034C0
310
000000000000000000000000000000000000000000000000000000000000F03F000000000000F03F000000000000000000000000000000005200650076003A00300030000000000006000000010000000000000000000840333333333333EB3F0000000000000000000000000000F03F000000000000000000000000000000
310
00000000000000000000000000000000000000000000000000740078007400000000000000BC000000260000003333333333DF5B4000000000008034C0000000000000000000000000000000000000000000000000000000000000F03F000000000000F03F000000000000000000000000000000005600650072003A002000
310
41000000000006000000010000000000000000000840333333333333EB3F0000000000000000000000000000F03F00000000000000000000000000000000000000000000000000000000000000000000000000000000740078007400000000000000DC00000026000000CDCCCCCCCC7C3F400000000000C03AC00000000000
310
00000000000000000000000000000000000000000000000000F03F000000000000F03F000000000000000000000000000000004E00650075007400720061006C00200063006F00640065003A0020003500360035005F0043005F00370031003000000017000000010000000000000000000840333333333333EB3F00000000
310
00000000000000000000F03F00000000000000000000000000000000000000000000000000000000000000000000000000000000740078007400000000000000BC00000026000000CDCCCCCCCC7C3F4000000000006040C0000000000000000000000000000000000000000000000000000000000000F03F000000000000F0
310
3F0000000000000000000000000000000043006F00640065003A0020000000000006000000010000000000000000000840333333333333EB3F0000000000000000000000000000F03F00000000000000000000000000000000000000000000000000000000000000000000000000000000740078007400000000000000C400
310
0000260000003333333333DF564000000000004040C0000000000000000000000000000000000000000000000000000000000000F03F000000000000F03F000000000000000000000000000000005300630061006C0065003A00200031003A003100000000000A000000010000000000000000000840333333333333EB3F00
310
00000000000000000000000000F03F00000000000000000000000000000000000000000000000000000000000000000000000000000000740078007400000000000000B4000000260000000000000000B85E4000000000004040C0000000000000000000000000000000000000000000000000000000000000F03F00000000
310
0000F03F00000000000000000000000000000000410032000000000002000000010000000000000000000840333333333333EB3F0000000000000000000000000000F03F0000000000000000000000000000000000000000000000000000000000000000000000000000000074007800740000000000000008010000260000
310
00CDCCCCCCCC7C3F40CDCCCCCCCC2C43C0000000000000000000000000000000000000000000000000000000000000F03F000000000000F03F00000000000000000000000000000000490074002000640065007300630072002E003A002000440049005300450047004E004F00200043004100540041004C004F0047004F00
310
200043004100530053002E00200043004F0044002E00200057004300360037003000300000002D000000010000009A99999999990540333333333333EB3F0000000000000000000000000000F03F00000000000000000000000000000000000000000000000000000000000000000000000000000000740078007400000000
310
000000C400000026000000CDCCCCCCCC7C3F4000000000004046C0000000000000000000000000000000000000000000000000000000000000F03F000000000000F03F0000000000000000000000000000000045006E002000640065007300630072002E003A00200000000B00000001000000000000000000084033333333
310
3333EB3F0000000000000000000000000000F03F00000000000000000000000000000000000000000000000000000000000000000000000000000000740078007400000000000000C400000026000000CDCCCCCCCC7C3F4000000000004049C0000000000000000000000000000000000000000000000000000000000000F0
310
3F000000000000F03F000000000000000000000000000000004400650073002E003A00200046002E0042002E00000000000A000000010000000000000000000840333333333333EB3F0000000000000000000000000000F03F0000000000000000000000000000000000000000000000000000000000000000000000000000
310
0000740078007400000000000000C40000002600000033333333335F544000000000004049C0000000000000000000000000000000000000000000000000000000000000F03F000000000000F03F0000000000000000000000000000000043006800650063006B003A00200041002E0050002E0000000B0000000100000000
310
00000000000840333333333333EB3F0000000000000000000000000000F03F00000000000000000000000000000000000000000000000000000000000000000000000000000000740078007400000000000000CC00000026000000CDCCCCCCCCCCF73F0000000000404CC00000000000000000000000000000000000000000
310
00000000000000000000F03F000000000000F03F0000000000000000000000000000000044006100740065003A002000310030002E00300031002E0031003900000000000E000000010000000000000000000840333333333333EB3F0000000000000000000000000000F03F00000000000000000000000000000000000000
310
000000000000000000000000000000000000000000740078007400000000000000BC00000026000000CDCCCCCCCC7C3F400000000000404CC0000000000000000000000000000000000000000000000000000000000000F03F000000000000F03F000000000000000000000000000000004D00610074002E003A0020000000
310
000006000000010000000000000000000840333333333333EB3F0000000000000000000000000000F03F00000000000000000000000000000000000000000000000000000000000000000000000000000000740078007400000000000000D80000002600000033333333335F54400000000000004CC0000000000000000000
310
000000000000000000000000000000000000000000F03F000000000000F03F00000000000000000000000000000000440069007300650067006E006F002000700065007200200063006100740061006C006F0067006F000000000014000000010000000000000000000040333333333333EB3F000000000000000000000000
310
0000F03F000000000000000000000000000000000000000000000000000000000000000000000000000000007400780074000000000000007001000026000000CDCCCCCCCCCCF73F3333333333734EC0000000000000000000000000000000000000000000000000000000000000F03F000000000000F03F00000000000000
310
000000000000000000490074003A002000410020006E006F0072006D00610020006400690020006C0065006700670065002000730069002000640069006600660069006400610020006400610020007100750061006C0073006900610073006900200072006900700072006F00640075007A0069006F006E00650020007300
310
65006E007A00610020006E006F00730074007200610020006100750074006F00720069007A007A0061007A0069006F006E00650020006500730070006C00690063006900740061002E00000000006000000001000000CDCCCCCCCCCCFC3F333333333333EB3F0000000000000000000000000000F03F000000000000000000
310
000000000000000000000000000000000000000000000000000000000000007400780074000000000000005801000026000000CDCCCCCCCCCCF73F9A999999993950C0000000000000000000000000000000000000000000000000000000000000F03F000000000000F03F0000000000000000000000000000000045006E00
310
3A0020004100630063006F007200640069006E006700200074006F00200074006800650020006C00610077002C00200062006500770061007200650020006F006600200061006E007900200072006500700072006F00640075006300740069006F006E0020006D00610064006500200077006900740068006F007500740020
310
006F0075007200200061007500740068006F00720069007A006100740069006F006E002E00000000005400000001000000CDCCCCCCCCCCFC3F333333333333EB3F0000000000000000000000000000F03F00000000000000000000000000000000000000000000000000000000000000000000000000000000740078007400
310
000000000000080000001F000000880000001D000000000000000000F03F0000000000000000000000000000000000000000000000000000000000000000000000000000F03F0000000000000000000000000000000000000000000000000000000000000000000000000000F03F0000000000000000000000000000000000
310
000000000000000000000000000000000000000000F03F080000001F000000
100
AcDbBlockReference
  2
*T6
 10
454.0099950196
 20
76.025479964
 30
0.0
100
AcDbTable
342
4CB
343
22F
 11
1.0
 21
0.0
 31
0.0
 90
       54
 91
       13
 92
       13
 93
        0
 94
        0
 95
        0
 96
        0
141
4.0
141
4.0
141
4.0
141
4.0
141
6.0
141
6.0
141
6.0
141
6.0
141
6.0
141
6.0
141
6.0
141
4.0
141
4.0
142
10.0
142
10.0
142
10.0
142
10.0
142
10.0
142
10.0
142
10.0
142
10.0
142
10.0
142
10.0
142
10.0
142
10.0
142
10.0
171
     1
172
     0
173
     0
174
     0
175
     3
176
     4
 91
       49
178
     0
145
0.0
170
     5
  7
TEXTSTYLE_4
140
0.5
 92
        0
301
CELL_VALUE
 93
        4
 90
        4
  1
 \P \P \P \P 
 94
        0
300

302
 \P \P \P \P 
304
ACVALUE_END
171
     1
172
     0
173
     1
174
     0
175
     1
176
     1
 91
        0
178
     0
145
0.0
 92
        0
301
CELL_VALUE
 93
        3
 90
        0
 91
        0
 94
        0
300

302

304
ACVALUE_END
171
     1
172
     0
173
     1
174
     0
175
     1
176
     1
 91
        0
178
     0
145
0.0
 92
        0
301
CELL_VALUE
 93
        3
 90
        0
 91
        0
 94
        0
300

302

304
ACVALUE_END
171
     1
172
     0
173
     0
174
     0
175
    10
176
     2
 91
       49
178
     0
145
0.0
170
     4
  7
TEXTSTYLE_5
140
1.9
 92
        0
301
CELL_VALUE
 93
        4
 90
        4
  1
EN: Chamfer/radii unlisted 0.3x45°. Remove sharp edges.\PGen. tol.: hole H11, shaft h11, lenght Js12. UNI EN 22768 Medium Grande.
 94
        0
300

302
EN: Chamfer/radii unlisted 0.3x45°. Remove sharp edges.\PGen. tol.: hole H11, shaft h11, lenght Js12. UNI EN 22768 Medium Grande.
304
ACVALUE_END
171
     1
172
     0
173
     1
174
     0
175
     1
176
     1
 91
        0
178
     0
145
0.0
 92
        0
301
CELL_VALUE
 93
        3
 90
        0
 91
        0
 94
        0
300

302

304
ACVALUE_END
171
     1
172
     0
173
     1
174
     0
175
     1
176
     1
 91
        0
178
     0
145
0.0
 92
        0
301
CELL_VALUE
 93
        3
 90
        0
 91
        0
 94
        0
300

302

304
ACVALUE_END
171
     1
172
     0
173
     1
174
     0
175
     1
176
     1
 91
        0
178
     0
145
0.0
 92
        0
301
CELL_VALUE
 93
        3
 90
        0
 91
        0
 94
        0
300

302

304
ACVALUE_END
171
     1
172
     0
173
     1
174
     0
175
     1
176
     1
 91
        0
178
     0
145
0.0
 92
        0
301
CELL_VALUE
 93
        3
 90
        0
 91
        0
 94
        0
300

302

304
ACVALUE_END
171
     1
172
     0
173
     1
174
     0
175
     1
176
     1
 91
        0
178
     0
145
0.0
 92
        0
301
CELL_VALUE
 93
        3
 90
        0
 91
        0
 94
        0
300

302

304
ACVALUE_END
171
     1
172
     0
173
     1
174
     0
175
     1
176
     1
 91
        0
178
     0
145
0.0
 92
        0
301
CELL_VALUE
 93
        3
 90
        0
 91
        0
 94
        0
300

302

304
ACVALUE_END
171
     1
172
     0
173
     1
174
     0
175
     1
176
     1
 91
        0
178
     0
145
0.0
 92
        0
301
CELL_VALUE
 93
        3
 90
        0
 91
        0
 94
        0
300

302

304
ACVALUE_END
171
     1
172
     0
173
     1
174
     0
175
     1
176
     1
 91
        0
178
     0
145
0.0
 92
        0
301
CELL_VALUE
 93
        3
 90
        0
 91
        0
 94
        0
300

302

304
ACVALUE_END
171
     1
172
     0
173
     1
174
     0
175
     1
176
     1
 91
        0
178
     0
145
0.0
 92
        0
301
CELL_VALUE
 93
        3
 90
        0
 91
        0
 94
        0
300

302

304
ACVALUE_END
171
     1
172
     0
173
     1
174
     0
175
     1
176
     1
 91
        0
178
     0
145
0.0
 92
        0
301
CELL_VALUE
 93
        3
 90
        0
 91
        0
 94
        0
300

302

304
ACVALUE_END
171
     1
172
     0
173
     1
174
     0
175
     1
176
     1
 91
        0
178
     0
145
0.0
 92
        0
301
CELL_VALUE
 93
        3
 90
        0
 91
        0
 94
        0
300

302

304
ACVALUE_END
171
     1
172
     0
173
     1
174
     0
175
     1
176
     1
 91
        0
178
     0
145
0.0
 92
        0
301
CELL_VALUE
 93
        3
 90
        0
 91
        0
 94
        0
300

302

304
ACVALUE_END
171
     1
172
     0
173
     1
174
     0
175
     1
176
     1
 91
        0
178
     0
145
0.0
 92
        0
301
CELL_VALUE
 93
        3
 90
        0
 91
        0
 94
        0
300

302

304
ACVALUE_END
171
     1
172
     0
173
     1
174
     0
175
     1
176
     1
 91
        0
178
     0
145
0.0
 92
        0
301
CELL_VALUE
 93
        3
 90
        0
 91
        0
 94
        0
300

302

304
ACVALUE_END
171
     1
172
     0
173
     1
174
     0
175
     1
176
     1
 91
        0
178
     0
145
0.0
 92
        0
301
CELL_VALUE
 93
        3
 90
        0
 91
        0
 94
        0
300

302

304
ACVALUE_END
171
     1
172
     0
173
     1
174
     0
175
     1
176
     1
 91
        0
178
     0
145
0.0
 92
        0
301
CELL_VALUE
 93
        3
 90
        0
 91
        0
 94
        0
300

302

304
ACVALUE_END
171
     1
172
     0
173
     1
174
     0
175
     1
176
     1
 91
        0
178
     0
145
0.0
 92
        0
301
CELL_VALUE
 93
        3
 90
        0
 91
        0
 94
        0
300

302

304
ACVALUE_END
171
     1
172
     0
173
     1
174
     0
175
     1
176
     1
 91
        0
178
     0
145
0.0
 92
        0
301
CELL_VALUE
 93
        3
 90
        0
 91
        0
 94
        0
300

302

304
ACVALUE_END
171
     1
172
     0
173
     1
174
     0
175
     1
176
     1
 91
        0
178
     0
145
0.0
 92
        0
301
CELL_VALUE
 93
        3
 90
        0
 91
        0
 94
        0
300

302

304
ACVALUE_END
171
     1
172
     0
173
     1
174
     0
175
     1
176
     1
 91
        0
178
     0
145
0.0
 92
        0
301
CELL_VALUE
 93
        3
 90
        0
 91
        0
 94
        0
300

302

304
ACVALUE_END
171
     1
172
     0
173
     1
174
     0
175
     1
176
     1
 91
        0
178
     0
145
0.0
 92
        0
301
CELL_VALUE
 93
        3
 90
        0
 91
        0
 94
        0
300

302

304
ACVALUE_END
171
     1
172
     0
173
     1
174
     0
175
     1
176
     1
 91
        0
178
     0
145
0.0
 92
        0
301
CELL_VALUE
 93
        3
 90
        0
 91
        0
 94
        0
300

302

304
ACVALUE_END
171
     1
172
     0
173
     1
174
     0
175
     1
176
     1
 91
        0
178
     0
145
0.0
 92
        0
301
CELL_VALUE
 93
        3
 90
        0
 91
        0
 94
        0
300

302

304
ACVALUE_END
171
     1
172
     0
173
     1
174
     0
175
     1
176
     1
 91
        0
178
     0
145
0.0
 92
        0
301
CELL_VALUE
 93
        3
 90
        0
 91
        0
 94
        0
300

302

304
ACVALUE_END
171
     1
172
     0
173
     1
174
     0
175
     1
176
     1
 91
        0
178
     0
145
0.0
 92
        0
301
CELL_VALUE
 93
        3
 90
        0
 91
        0
 94
        0
300

302

304
ACVALUE_END
171
     1
172
     0
173
     0
174
     0
175
    10
176
     2
 91
       49
178
     0
145
0.0
170
     4
  7
TEXTSTYLE_5
140
1.9
 92
        0
301
CELL_VALUE
 93
        4
 90
        4
  1
IT: Sm./rac. non quotati 0.3x45°. Eliminare spigoli taglienti.\PToll. gen.: foro H11, albero h11, lunghezza Js12. UNI EN 22768 Grado Medio.
 94
        0
300

302
IT: Sm./rac. non quotati 0.3x45°. Eliminare spigoli taglienti.\PToll. gen.: foro H11, albero h11, lunghezza Js12. UNI EN 22768 Grado Medio.
304
ACVALUE_END
171
     1
172
     0
173
     1
174
     0
175
     1
176
     1
 91
        0
178
     0
145
0.0
 92
        0
301
CELL_VALUE
 93
        3
 90
        0
 91
        0
 94
        0
300

302

304
ACVALUE_END
171
     1
172
     0
173
     1
174
     0
175
     1
176
     1
 91
        0
178
     0
145
0.0
 92
        0
301
CELL_VALUE
 93
        3
 90
        0
 91
        0
 94
        0
300

302

304
ACVALUE_END
171
     1
172
     0
173
     1
174
     0
175
     1
176
     1
 91
        0
178
     0
145
0.0
 92
        0
301
CELL_VALUE
 93
        3
 90
        0
 91
        0
 94
        0
300

302

304
ACVALUE_END
171
     1
172
     0
173
     1
174
     0
175
     1
176
     1
 91
        0
178
     0
145
0.0
 92
        0
301
CELL_VALUE
 93
        3
 90
        0
 91
        0
 94
        0
300

302

304
ACVALUE_END
171
     1
172
     0
173
     1
174
     0
175
     1
176
     1
 91
        0
178
     0
145
0.0
 92
        0
301
CELL_VALUE
 93
        3
 90
        0
 91
        0
 94
        0
300

302

304
ACVALUE_END
171
     1
172
     0
173
     1
174
     0
175
     1
176
     1
 91
        0
178
     0
145
0.0
 92
        0
301
CELL_VALUE
 93
        3
 90
        0
 91
        0
 94
        0
300

302

304
ACVALUE_END
171
     1
172
     0
173
     1
174
     0
175
     1
176
     1
 91
        0
178
     0
145
0.0
 92
        0
301
CELL_VALUE
 93
        3
 90
        0
 91
        0
 94
        0
300

302

304
ACVALUE_END
171
     1
172
     0
173
     1
174
     0
175
     1
176
     1
 91
        0
178
     0
145
0.0
 92
        0
301
CELL_VALUE
 93
        3
 90
        0
 91
        0
 94
        0
300

302

304
ACVALUE_END
171
     1
172
     0
173
     1
174
     0
175
     1
176
     1
 91
        0
178
     0
145
0.0
 92
        0
301
CELL_VALUE
 93
        3
 90
        0
 91
        0
 94
        0
300

302

304
ACVALUE_END
171
     1
172
     0
173
     1
174
     0
175
     1
176
     1
 91
        0
178
     0
145
0.0
 92
        0
301
CELL_VALUE
 93
        3
 90
        0
 91
        0
 94
        0
300

302

304
ACVALUE_END
171
     1
172
     0
173
     1
174
     0
175
     1
176
     1
 91
        0
178
     0
145
0.0
 92
        0
301
CELL_VALUE
 93
        3
 90
        0
 91
        0
 94
        0
300

302

304
ACVALUE_END
171
     1
172
     0
173
     1
174
     0
175
     1
176
     1
 91
        0
178
     0
145
0.0
 92
        0
301
CELL_VALUE
 93
        3
 90
        0
 91
        0
 94
        0
300

302

304
ACVALUE_END
171
     1
172
     0
173
     1
174
     0
175
     1
176
     1
 91
        0
178
     0
145
0.0
 92
        0
301
CELL_VALUE
 93
        3
 90
        0
 91
        0
 94
        0
300

302

304
ACVALUE_END
171
     1
172
     0
173
     1
174
     0
175
     1
176
     1
 91
        0
178
     0
145
0.0
 92
        0
301
CELL_VALUE
 93
        3
 90
        0
 91
        0
 94
        0
300

302

304
ACVALUE_END
171
     1
172
     0
173
     1
174
     0
175
     1
176
     1
 91
        0
178
     0
145
0.0
 92
        0
301
CELL_VALUE
 93
        3
 90
        0
 91
        0
 94
        0
300

302

304
ACVALUE_END
171
     1
172
     0
173
     1
174
     0
175
     1
176
     1
 91
        0
178
     0
145
0.0
 92
        0
301
CELL_VALUE
 93
        3
 90
        0
 91
        0
 94
        0
300

302

304
ACVALUE_END
171
     1
172
     0
173
     1
174
     0
175
     1
176
     1
 91
        0
178
     0
145
0.0
 92
        0
301
CELL_VALUE
 93
        3
 90
        0
 91
        0
 94
        0
300

302

304
ACVALUE_END
171
     1
172
     0
173
     1
174
     0
175
     1
176
     1
 91
        0
178
     0
145
0.0
 92
        0
301
CELL_VALUE
 93
        3
 90
        0
 91
        0
 94
        0
300

302

304
ACVALUE_END
171
     1
172
     0
173
     1
174
     0
175
     1
176
     1
 91
        0
178
     0
145
0.0
 92
        0
301
CELL_VALUE
 93
        3
 90
        0
 91
        0
 94
        0
300

302

304
ACVALUE_END
171
     1
172
     0
173
     1
174
     0
175
     1
176
     1
 91
        0
178
     0
145
0.0
 92
        0
301
CELL_VALUE
 93
        3
 90
        0
 91
        0
 94
        0
300

302

304
ACVALUE_END
171
     1
172
     0
173
     1
174
     0
175
     1
176
     1
 91
        0
178
     0
145
0.0
 92
        0
301
CELL_VALUE
 93
        3
 90
        0
 91
        0
 94
        0
300

302

304
ACVALUE_END
171
     1
172
     0
173
     1
174
     0
175
     1
176
     1
 91
        0
178
     0
145
0.0
 92
        0
301
CELL_VALUE
 93
        3
 90
        0
 91
        0
 94
        0
300

302

304
ACVALUE_END
171
     1
172
     0
173
     0
174
     0
175
     3
176
     6
 91
       33
178
     0
145
0.0
170
     5
140
3.5
 92
        0
301
CELL_VALUE
 93
        4
 90
        4
  1
 
 94
        0
300

302
 
304
ACVALUE_END
171
     1
172
     0
173
     1
174
     0
175
     1
176
     1
 91
        0
178
     0
145
0.0
 92
        0
301
CELL_VALUE
 93
        3
 90
        0
 91
        0
 94
        0
300

302

304
ACVALUE_END
171
     1
172
     0
173
     1
174
     0
175
     1
176
     1
 91
        0
178
     0
145
0.0
 92
        0
301
CELL_VALUE
 93
        3
 90
        0
 91
        0
 94
        0
300

302

304
ACVALUE_END
171
     1
172
     0
173
     0
174
     0
175
     2
176
     1
 91
       48
178
     0
145
0.0
  7
TEXTSTYLE_5
140
3.0
 92
        0
301
CELL_VALUE
 93
        4
 90
        4
  1
Pj: 565
 94
        0
300

302
Pj: 565
304
ACVALUE_END
171
     1
172
     0
173
     1
174
     0
175
     1
176
     1
 91
        0
178
     0
145
0.0
 92
        0
301
CELL_VALUE
 93
        3
 90
        0
 91
        0
 94
        0
300

302

304
ACVALUE_END
171
     1
172
     0
173
     0
174
     0
175
     4
176
     1
 91
       48
178
     0
145
0.0
  7
TEXTSTYLE_5
140
3.0
 92
        0
301
CELL_VALUE
 93
        4
 90
        4
  1
% Check: %
 94
        0
300

302
% Check: %
304
ACVALUE_END
171
     1
172
     0
173
     1
174
     0
175
     1
176
     1
 91
        0
178
     0
145
0.0
 92
        0
301
CELL_VALUE
 93
        3
 90
        0
 91
        0
 94
        0
300

302

304
ACVALUE_END
171
     1
172
     0
173
     1
174
     0
175
     1
176
     1
 91
        0
178
     0
145
0.0
 92
        0
301
CELL_VALUE
 93
        3
 90
        0
 91
        0
 94
        0
300

302

304
ACVALUE_END
171
     1
172
     0
173
     1
174
     0
175
     1
176
     1
 91
        0
178
     0
145
0.0
 92
        0
301
CELL_VALUE
 93
        3
 90
        0
 91
        0
 94
        0
300

302

304
ACVALUE_END
171
     1
172
     0
173
     0
174
     0
175
     2
176
     1
 91
       48
178
     0
145
0.0
  7
TEXTSTYLE_5
140
3.0
 92
        0
301
CELL_VALUE
 93
        4
 90
        4
  1
Rev:00
 94
        0
300

302
Rev:00
304
ACVALUE_END
171
     1
172
     0
173
     1
174
     0
175
     1
176
     1
 91
        0
178
     0
145
0.0
 92
        0
301
CELL_VALUE
 93
        3
 90
        0
 91
        0
 94
        0
300

302

304
ACVALUE_END
171
     1
172
     0
173
     0
174
     0
175
     2
176
     1
 91
       49
178
     0
145
0.0
170
     4
  7
TEXTSTYLE_5
140
3.0
 92
        0
301
CELL_VALUE
 93
        4
 90
        4
  1
Ver: A
 94
        0
300

302
Ver: A
304
ACVALUE_END
171
     1
172
     0
173
     1
174
     0
175
     1
176
     1
 91
        0
178
     0
145
0.0
 92
        0
301
CELL_VALUE
 93
        3
 90
        0
 91
        0
 94
        0
300

302

304
ACVALUE_END
171
     1
172
     0
173
     1
174
     0
175
     1
176
     1
 91
        0
178
     0
145
0.0
 92
        0
301
CELL_VALUE
 93
        3
 90
        0
 91
        0
 94
        0
300

302

304
ACVALUE_END
171
     1
172
     0
173
     1
174
     0
175
     1
176
     1
 91
        0
178
     0
145
0.0
 92
        0
301
CELL_VALUE
 93
        3
 90
        0
 91
        0
 94
        0
300

302

304
ACVALUE_END
171
     1
172
     0
173
     1
174
     0
175
     1
176
     1
 91
        0
178
     0
145
0.0
 92
        0
301
CELL_VALUE
 93
        3
 90
        0
 91
        0
 94
        0
300

302

304
ACVALUE_END
171
     1
172
     0
173
     0
174
     0
175
    10
176
     1
 91
       48
178
     0
145
0.0
  7
TEXTSTYLE_5
140
3.0
 92
        0
301
CELL_VALUE
 93
        4
 90
        4
  1
Neutral code: 565_C_710
 94
        0
300

302
Neutral code: 565_C_710
304
ACVALUE_END
171
     1
172
     0
173
     1
174
     0
175
     1
176
     1
 91
        0
178
     0
145
0.0
 92
        0
301
CELL_VALUE
 93
        3
 90
        0
 91
        0
 94
        0
300

302

304
ACVALUE_END
171
     1
172
     0
173
     1
174
     0
175
     1
176
     1
 91
        0
178
     0
145
0.0
 92
        0
301
CELL_VALUE
 93
        3
 90
        0
 91
        0
 94
        0
300

302

304
ACVALUE_END
171
     1
172
     0
173
     1
174
     0
175
     1
176
     1
 91
        0
178
     0
145
0.0
 92
        0
301
CELL_VALUE
 93
        3
 90
        0
 91
        0
 94
        0
300

302

304
ACVALUE_END
171
     1
172
     0
173
     1
174
     0
175
     1
176
     1
 91
        0
178
     0
145
0.0
 92
        0
301
CELL_VALUE
 93
        3
 90
        0
 91
        0
 94
        0
300

302

304
ACVALUE_END
171
     1
172
     0
173
     1
174
     0
175
     1
176
     1
 91
        0
178
     0
145
0.0
 92
        0
301
CELL_VALUE
 93
        3
 90
        0
 91
        0
 94
        0
300

302

304
ACVALUE_END
171
     1
172
     0
173
     1
174
     0
175
     1
176
     1
 91
        0
178
     0
145
0.0
 92
        0
301
CELL_VALUE
 93
        3
 90
        0
 91
        0
 94
        0
300

302

304
ACVALUE_END
171
     1
172
     0
173
     1
174
     0
175
     1
176
     1
 91
        0
178
     0
145
0.0
 92
        0
301
CELL_VALUE
 93
        3
 90
        0
 91
        0
 94
        0
300

302

304
ACVALUE_END
171
     1
172
     0
173
     1
174
     0
175
     1
176
     1
 91
        0
178
     0
145
0.0
 92
        0
301
CELL_VALUE
 93
        3
 90
        0
 91
        0
 94
        0
300

302

304
ACVALUE_END
171
     1
172
     0
173
     1
174
     0
175
     1
176
     1
 91
        0
178
     0
145
0.0
 92
        0
301
CELL_VALUE
 93
        3
 90
        0
 91
        0
 94
        0
300

302

304
ACVALUE_END
171
     1
172
     0
173
     1
174
     0
175
     1
176
     1
 91
        0
178
     0
145
0.0
 92
        0
301
CELL_VALUE
 93
        3
 90
        0
 91
        0
 94
        0
300

302

304
ACVALUE_END
171
     1
172
     0
173
     1
174
     0
175
     1
176
     1
 91
        0
178
     0
145
0.0
 92
        0
301
CELL_VALUE
 93
        3
 90
        0
 91
        0
 94
        0
300

302

304
ACVALUE_END
171
     1
172
     0
173
     1
174
     0
175
     1
176
     1
 91
        0
178
     0
145
0.0
 92
        0
301
CELL_VALUE
 93
        3
 90
        0
 91
        0
 94
        0
300

302

304
ACVALUE_END
171
     1
172
     0
173
     0
174
     0
175
     6
176
     1
 91
       48
178
     0
145
0.0
  7
TEXTSTYLE_5
140
3.0
 92
        0
301
CELL_VALUE
 93
        4
 90
        4
  1
Code: 
 94
        0
300

302
Code: 
304
ACVALUE_END
171
     1
172
     0
173
     1
174
     0
175
     1
176
     1
 91
        0
178
     0
145
0.0
 92
        0
301
CELL_VALUE
 93
        3
 90
        0
 91
        0
 94
        0
300

302

304
ACVALUE_END
171
     1
172
     0
173
     1
174
     0
175
     1
176
     1
 91
        0
178
     0
145
0.0
 92
        0
301
CELL_VALUE
 93
        3
 90
        0
 91
        0
 94
        0
300

302

304
ACVALUE_END
171
     1
172
     0
173
     1
174
     0
175
     1
176
     1
 91
        0
178
     0
145
0.0
 92
        0
301
CELL_VALUE
 93
        3
 90
        0
 91
        0
 94
        0
300

302

304
ACVALUE_END
171
     1
172
     0
173
     1
174
     0
175
     1
176
     1
 91
        0
178
     0
145
0.0
 92
        0
301
CELL_VALUE
 93
        3
 90
        0
 91
        0
 94
        0
300

302

304
ACVALUE_END
171
     1
172
     0
173
     1
174
     0
175
     1
176
     1
 91
        0
178
     0
145
0.0
 92
        0
301
CELL_VALUE
 93
        3
 90
        0
 91
        0
 94
        0
300

302

304
ACVALUE_END
171
     1
172
     0
173
     0
174
     0
175
     3
176
     1
 91
       49
178
     0
145
0.0
170
     4
  7
TEXTSTYLE_5
140
3.0
 92
        0
301
CELL_VALUE
 93
        4
 90
        4
  1
Scale: 1:1
 94
        0
300

302
Scale: 1:1
304
ACVALUE_END
171
     1
172
     0
173
     1
174
     0
175
     1
176
     1
 91
        0
178
     0
145
0.0
 92
        0
301
CELL_VALUE
 93
        3
 90
        0
 91
        0
 94
        0
300

302

304
ACVALUE_END
171
     1
172
     0
173
     1
174
     0
175
     1
176
     1
 91
        0
178
     0
145
0.0
 92
        0
301
CELL_VALUE
 93
        3
 90
        0
 91
        0
 94
        0
300

302

304
ACVALUE_END
171
     1
172
     0
173
     0
174
     0
175
     1
176
     1
 91
       49
178
     0
145
0.0
170
     5
  7
TEXTSTYLE_5
140
3.0
 92
        0
301
CELL_VALUE
 93
        4
 90
        4
  1
A2
 94
        0
300

302
A2
304
ACVALUE_END
171
     1
172
     0
173
     1
174
     0
175
     1
176
     1
 91
        0
178
     0
145
0.0
 92
        0
301
CELL_VALUE
 93
        3
 90
        0
 91
        0
 94
        0
300

302

304
ACVALUE_END
171
     1
172
     0
173
     1
174
     0
175
     1
176
     1
 91
        0
178
     0
145
0.0
 92
        0
301
CELL_VALUE
 93
        3
 90
        0
 91
        0
 94
        0
300

302

304
ACVALUE_END
171
     1
172
     0
173
     1
174
     0
175
     1
176
     1
 91
        0
178
     0
145
0.0
 92
        0
301
CELL_VALUE
 93
        3
 90
        0
 91
        0
 94
        0
300

302

304
ACVALUE_END
171
     1
172
     0
173
     0
174
     0
175
    10
176
     1
 91
       49
178
     0
145
0.0
170
     4
  7
TEXTSTYLE_5
140
2.7
 92
        0
301
CELL_VALUE
 93
        4
 90
        4
  1
It descr.: DISEGNO CATALOGO CASS. COD. WC6700
 94
        0
300

302
It descr.: DISEGNO CATALOGO CASS. COD. WC6700
304
ACVALUE_END
171
     1
172
     0
173
     1
174
     0
175
     1
176
     1
 91
        0
178
     0
145
0.0
 92
        0
301
CELL_VALUE
 93
        3
 90
        0
 91
        0
 94
        0
300

302

304
ACVALUE_END
171
     1
172
     0
173
     1
174
     0
175
     1
176
     1
 91
        0
178
     0
145
0.0
 92
        0
301
CELL_VALUE
 93
        3
 90
        0
 91
        0
 94
        0
300

302

304
ACVALUE_END
171
     1
172
     0
173
     1
174
     0
175
     1
176
     1
 91
        0
178
     0
145
0.0
 92
        0
301
CELL_VALUE
 93
        3
 90
        0
 91
        0
 94
        0
300

302

304
ACVALUE_END
171
     1
172
     0
173
     1
174
     0
175
     1
176
     1
 91
        0
178
     0
145
0.0
 92
        0
301
CELL_VALUE
 93
        3
 90
        0
 91
        0
 94
        0
300

302

304
ACVALUE_END
171
     1
172
     0
173
     1
174
     0
175
     1
176
     1
 91
        0
178
     0
145
0.0
 92
        0
301
CELL_VALUE
 93
        3
 90
        0
 91
        0
 94
        0
300

302

304
ACVALUE_END
171
     1
172
     0
173
     1
174
     0
175
     1
176
     1
 91
        0
178
     0
145
0.0
 92
        0
301
CELL_VALUE
 93
        3
 90
        0
 91
        0
 94
        0
300

302

304
ACVALUE_END
171
     1
172
     0
173
     1
174
     0
175
     1
176
     1
 91
        0
178
     0
145
0.0
 92
        0
301
CELL_VALUE
 93
        3
 90
        0
 91
        0
 94
        0
300

302

304
ACVALUE_END
171
     1
172
     0
173
     1
174
     0
175
     1
176
     1
 91
        0
178
     0
145
0.0
 92
        0
301
CELL_VALUE
 93
        3
 90
        0
 91
        0
 94
        0
300

302

304
ACVALUE_END
171
     1
172
     0
173
     1
174
     0
175
     1
176
     1
 91
        0
178
     0
145
0.0
 92
        0
301
CELL_VALUE
 93
        3
 90
        0
 91
        0
 94
        0
300

302

304
ACVALUE_END
171
     1
172
     0
173
     1
174
     0
175
     1
176
     1
 91
        0
178
     0
145
0.0
 92
        0
301
CELL_VALUE
 93
        3
 90
        0
 91
        0
 94
        0
300

302

304
ACVALUE_END
171
     1
172
     0
173
     1
174
     0
175
     1
176
     1
 91
        0
178
     0
145
0.0
 92
        0
301
CELL_VALUE
 93
        3
 90
        0
 91
        0
 94
        0
300

302

304
ACVALUE_END
171
     1
172
     0
173
     1
174
     0
175
     1
176
     1
 91
        0
178
     0
145
0.0
 92
        0
301
CELL_VALUE
 93
        3
 90
        0
 91
        0
 94
        0
300

302

304
ACVALUE_END
171
     1
172
     0
173
     0
174
     0
175
    10
176
     1
 91
       49
178
     0
145
0.0
170
     4
  7
TEXTSTYLE_5
140
3.0
 92
        0
301
CELL_VALUE
 93
        4
 90
        4
  1
En descr.: 
 94
        0
300

302
En descr.: 
304
ACVALUE_END
171
     1
172
     0
173
     1
174
     0
175
     1
176
     1
 91
        0
178
     0
145
0.0
 92
        0
301
CELL_VALUE
 93
        3
 90
        0
 91
        0
 94
        0
300

302

304
ACVALUE_END
171
     1
172
     0
173
     1
174
     0
175
     1
176
     1
 91
        0
178
     0
145
0.0
 92
        0
301
CELL_VALUE
 93
        3
 90
        0
 91
        0
 94
        0
300

302

304
ACVALUE_END
171
     1
172
     0
173
     1
174
     0
175
     1
176
     1
 91
        0
178
     0
145
0.0
 92
        0
301
CELL_VALUE
 93
        3
 90
        0
 91
        0
 94
        0
300

302

304
ACVALUE_END
171
     1
172
     0
173
     1
174
     0
175
     1
176
     1
 91
        0
178
     0
145
0.0
 92
        0
301
CELL_VALUE
 93
        3
 90
        0
 91
        0
 94
        0
300

302

304
ACVALUE_END
171
     1
172
     0
173
     1
174
     0
175
     1
176
     1
 91
        0
178
     0
145
0.0
 92
        0
301
CELL_VALUE
 93
        3
 90
        0
 91
        0
 94
        0
300

302

304
ACVALUE_END
171
     1
172
     0
173
     1
174
     0
175
     1
176
     1
 91
        0
178
     0
145
0.0
 92
        0
301
CELL_VALUE
 93
        3
 90
        0
 91
        0
 94
        0
300

302

304
ACVALUE_END
171
     1
172
     0
173
     1
174
     0
175
     1
176
     1
 91
        0
178
     0
145
0.0
 92
        0
301
CELL_VALUE
 93
        3
 90
        0
 91
        0
 94
        0
300

302

304
ACVALUE_END
171
     1
172
     0
173
     1
174
     0
175
     1
176
     1
 91
        0
178
     0
145
0.0
 92
        0
301
CELL_VALUE
 93
        3
 90
        0
 91
        0
 94
        0
300

302

304
ACVALUE_END
171
     1
172
     0
173
     1
174
     0
175
     1
176
     1
 91
        0
178
     0
145
0.0
 92
        0
301
CELL_VALUE
 93
        3
 90
        0
 91
        0
 94
        0
300

302

304
ACVALUE_END
171
     1
172
     0
173
     1
174
     0
175
     1
176
     1
 91
        0
178
     0
145
0.0
 92
        0
301
CELL_VALUE
 93
        3
 90
        0
 91
        0
 94
        0
300

302

304
ACVALUE_END
171
     1
172
     0
173
     1
174
     0
175
     1
176
     1
 91
        0
178
     0
145
0.0
 92
        0
301
CELL_VALUE
 93
        3
 90
        0
 91
        0
 94
        0
300

302

304
ACVALUE_END
171
     1
172
     0
173
     1
174
     0
175
     1
176
     1
 91
        0
178
     0
145
0.0
 92
        0
301
CELL_VALUE
 93
        3
 90
        0
 91
        0
 94
        0
300

302

304
ACVALUE_END
171
     1
172
     0
173
     0
174
     0
175
     5
176
     1
 91
       49
178
     0
145
0.0
170
     4
  7
TEXTSTYLE_5
140
3.0
 92
        0
301
CELL_VALUE
 93
        4
 90
        4
  1
Des.: F.B.
 94
        0
300

302
Des.: F.B.
304
ACVALUE_END
171
     1
172
     0
173
     1
174
     0
175
     1
176
     1
 91
        0
178
     0
145
0.0
 92
        0
301
CELL_VALUE
 93
        3
 90
        0
 91
        0
 94
        0
300

302

304
ACVALUE_END
171
     1
172
     0
173
     1
174
     0
175
     1
176
     1
 91
        0
178
     0
145
0.0
 92
        0
301
CELL_VALUE
 93
        3
 90
        0
 91
        0
 94
        0
300

302

304
ACVALUE_END
171
     1
172
     0
173
     1
174
     0
175
     1
176
     1
 91
        0
178
     0
145
0.0
 92
        0
301
CELL_VALUE
 93
        3
 90
        0
 91
        0
 94
        0
300

302

304
ACVALUE_END
171
     1
172
     0
173
     1
174
     0
175
     1
176
     1
 91
        0
178
     0
145
0.0
 92
        0
301
CELL_VALUE
 93
        3
 90
        0
 91
        0
 94
        0
300

302

304
ACVALUE_END
171
     1
172
     0
173
     0
174
     0
175
     5
176
     1
 91
       49
178
     0
145
0.0
170
     4
  7
TEXTSTYLE_5
140
3.0
 92
        0
301
CELL_VALUE
 93
        4
 90
        4
  1
Check: A.P.
 94
        0
300

302
Check: A.P.
304
ACVALUE_END
171
     1
172
     0
173
     1
174
     0
175
     1
176
     1
 91
        0
178
     0
145
0.0
 92
        0
301
CELL_VALUE
 93
        3
 90
        0
 91
        0
 94
        0
300

302

304
ACVALUE_END
171
     1
172
     0
173
     1
174
     0
175
     1
176
     1
 91
        0
178
     0
145
0.0
 92
        0
301
CELL_VALUE
 93
        3
 90
        0
 91
        0
 94
        0
300

302

304
ACVALUE_END
171
     1
172
     0
173
     1
174
     0
175
     1
176
     1
 91
        0
178
     0
145
0.0
 92
        0
301
CELL_VALUE
 93
        3
 90
        0
 91
        0
 94
        0
300

302

304
ACVALUE_END
171
     1
172
     0
173
     1
174
     0
175
     1
176
     1
 91
        0
178
     0
145
0.0
 92
        0
301
CELL_VALUE
 93
        3
 90
        0
 91
        0
 94
        0
300

302

304
ACVALUE_END
171
     1
172
     0
173
     0
174
     0
175
     3
176
     1
 91
       49
178
     0
145
0.0
170
     4
  7
TEXTSTYLE_5
140
3.0
 92
        0
301
CELL_VALUE
 93
        4
 90
        4
  1
Date: 10.01.19
 94
        0
300

302
Date: 10.01.19
304
ACVALUE_END
171
     1
172
     0
173
     1
174
     0
175
     1
176
     1
 91
        0
178
     0
145
0.0
 92
        0
301
CELL_VALUE
 93
        3
 90
        0
 91
        0
 94
        0
300

302

304
ACVALUE_END
171
     1
172
     0
173
     1
174
     0
175
     1
176
     1
 91
        0
178
     0
145
0.0
 92
        0
301
CELL_VALUE
 93
        3
 90
        0
 91
        0
 94
        0
300

302

304
ACVALUE_END
171
     1
172
     0
173
     0
174
     0
175
     5
176
     1
 91
       49
178
     0
145
0.0
170
     4
  7
TEXTSTYLE_5
140
3.0
 92
        0
301
CELL_VALUE
 93
        4
 90
        4
  1
Mat.: 
 94
        0
300

302
Mat.: 
304
ACVALUE_END
171
     1
172
     0
173
     1
174
     0
175
     1
176
     1
 91
        0
178
     0
145
0.0
 92
        0
301
CELL_VALUE
 93
        3
 90
        0
 91
        0
 94
        0
300

302

304
ACVALUE_END
171
     1
172
     0
173
     1
174
     0
175
     1
176
     1
 91
        0
178
     0
145
0.0
 92
        0
301
CELL_VALUE
 93
        3
 90
        0
 91
        0
 94
        0
300

302

304
ACVALUE_END
171
     1
172
     0
173
     1
174
     0
175
     1
176
     1
 91
        0
178
     0
145
0.0
 92
        0
301
CELL_VALUE
 93
        3
 90
        0
 91
        0
 94
        0
300

302

304
ACVALUE_END
171
     1
172
     0
173
     1
174
     0
175
     1
176
     1
 91
        0
178
     0
145
0.0
 92
        0
301
CELL_VALUE
 93
        3
 90
        0
 91
        0
 94
        0
300

302

304
ACVALUE_END
171
     1
172
     0
173
     0
174
     0
175
     5
176
     1
 91
       49
178
     0
145
0.0
170
     4
  7
TEXTSTYLE_5
140
2.0
 92
        0
301
CELL_VALUE
 93
        4
 90
        4
  1
Disegno per catalogo
 94
        0
300

302
Disegno per catalogo
304
ACVALUE_END
171
     1
172
     0
173
     1
174
     0
175
     1
176
     1
 91
        0
178
     0
145
0.0
 92
        0
301
CELL_VALUE
 93
        3
 90
        0
 91
        0
 94
        0
300

302

304
ACVALUE_END
171
     1
172
     0
173
     1
174
     0
175
     1
176
     1
 91
        0
178
     0
145
0.0
 92
        0
301
CELL_VALUE
 93
        3
 90
        0
 91
        0
 94
        0
300

302

304
ACVALUE_END
171
     1
172
     0
173
     1
174
     0
175
     1
176
     1
 91
        0
178
     0
145
0.0
 92
        0
301
CELL_VALUE
 93
        3
 90
        0
 91
        0
 94
        0
300

302

304
ACVALUE_END
171
     1
172
     0
173
     1
174
     0
175
     1
176
     1
 91
        0
178
     0
145
0.0
 92
        0
301
CELL_VALUE
 93
        3
 90
        0
 91
        0
 94
        0
300

302

304
ACVALUE_END
171
     1
172
     0
173
     0
174
     0
175
    13
176
     1
 91
       49
178
     0
145
0.0
170
     4
  7
TEXTSTYLE_5
140
1.8
 92
        0
301
CELL_VALUE
 93
        4
 90
        4
  1
It: A norma di legge si diffida da qualsiasi riproduzione senza nostra autorizzazione esplicita.
 94
        0
300

302
It: A norma di legge si diffida da qualsiasi riproduzione senza nostra autorizzazione esplicita.
304
ACVALUE_END
171
     1
172
     0
173
     1
174
     0
175
     1
176
     1
 91
        0
178
     0
145
0.0
 92
        0
301
CELL_VALUE
 93
        3
 90
        0
 91
        0
 94
        0
300

302

304
ACVALUE_END
171
     1
172
     0
173
     1
174
     0
175
     1
176
     1
 91
        0
178
     0
145
0.0
 92
        0
301
CELL_VALUE
 93
        3
 90
        0
 91
        0
 94
        0
300

302

304
ACVALUE_END
171
     1
172
     0
173
     1
174
     0
175
     1
176
     1
 91
        0
178
     0
145
0.0
 92
        0
301
CELL_VALUE
 93
        3
 90
        0
 91
        0
 94
        0
300

302

304
ACVALUE_END
171
     1
172
     0
173
     1
174
     0
175
     1
176
     1
 91
        0
178
     0
145
0.0
 92
        0
301
CELL_VALUE
 93
        3
 90
        0
 91
        0
 94
        0
300

302

304
ACVALUE_END
171
     1
172
     0
173
     1
174
     0
175
     1
176
     1
 91
        0
178
     0
145
0.0
 92
        0
301
CELL_VALUE
 93
        3
 90
        0
 91
        0
 94
        0
300

302

304
ACVALUE_END
171
     1
172
     0
173
     1
174
     0
175
     1
176
     1
 91
        0
178
     0
145
0.0
 92
        0
301
CELL_VALUE
 93
        3
 90
        0
 91
        0
 94
        0
300

302

304
ACVALUE_END
171
     1
172
     0
173
     1
174
     0
175
     1
176
     1
 91
        0
178
     0
145
0.0
 92
        0
301
CELL_VALUE
 93
        3
 90
        0
 91
        0
 94
        0
300

302

304
ACVALUE_END
171
     1
172
     0
173
     1
174
     0
175
     1
176
     1
 91
        0
178
     0
145
0.0
 92
        0
301
CELL_VALUE
 93
        3
 90
        0
 91
        0
 94
        0
300

302

304
ACVALUE_END
171
     1
172
     0
173
     1
174
     0
175
     1
176
     1
 91
        0
178
     0
145
0.0
 92
        0
301
CELL_VALUE
 93
        3
 90
        0
 91
        0
 94
        0
300

302

304
ACVALUE_END
171
     1
172
     0
173
     1
174
     0
175
     1
176
     1
 91
        0
178
     0
145
0.0
 92
        0
301
CELL_VALUE
 93
        3
 90
        0
 91
        0
 94
        0
300

302

304
ACVALUE_END
171
     1
172
     0
173
     1
174
     0
175
     1
176
     1
 91
        0
178
     0
145
0.0
 92
        0
301
CELL_VALUE
 93
        3
 90
        0
 91
        0
 94
        0
300

302

304
ACVALUE_END
171
     1
172
     0
173
     1
174
     0
175
     1
176
     1
 91
        0
178
     0
145
0.0
 92
        0
301
CELL_VALUE
 93
        3
 90
        0
 91
        0
 94
        0
300

302

304
ACVALUE_END
171
     1
172
     0
173
     0
174
     0
175
    13
176
     1
 91
       49
178
     0
145
0.0
170
     4
  7
TEXTSTYLE_5
140
1.8
 92
        0
301
CELL_VALUE
 93
        4
 90
        4
  1
En: According to the law, beware of any reproduction made without our authorization.
 94
        0
300

302
En: According to the law, beware of any reproduction made without our authorization.
304
ACVALUE_END
171
     1
172
     0
173
     1
174
     0
175
     1
176
     1
 91
        0
178
     0
145
0.0
 92
        0
301
CELL_VALUE
 93
        3
 90
        0
 91
        0
 94
        0
300

302

304
ACVALUE_END
171
     1
172
     0
173
     1
174
     0
175
     1
176
     1
 91
        0
178
     0
145
0.0
 92
        0
301
CELL_VALUE
 93
        3
 90
        0
 91
        0
 94
        0
300

302

304
ACVALUE_END
171
     1
172
     0
173
     1
174
     0
175
     1
176
     1
 91
        0
178
     0
145
0.0
 92
        0
301
CELL_VALUE
 93
        3
 90
        0
 91
        0
 94
        0
300

302

304
ACVALUE_END
171
     1
172
     0
173
     1
174
     0
175
     1
176
     1
 91
        0
178
     0
145
0.0
 92
        0
301
CELL_VALUE
 93
        3
 90
        0
 91
        0
 94
        0
300

302

304
ACVALUE_END
171
     1
172
     0
173
     1
174
     0
175
     1
176
     1
 91
        0
178
     0
145
0.0
 92
        0
301
CELL_VALUE
 93
        3
 90
        0
 91
        0
 94
        0
300

302

304
ACVALUE_END
171
     1
172
     0
173
     1
174
     0
175
     1
176
     1
 91
        0
178
     0
145
0.0
 92
        0
301
CELL_VALUE
 93
        3
 90
        0
 91
        0
 94
        0
300

302

304
ACVALUE_END
171
     1
172
     0
173
     1
174
     0
175
     1
176
     1
 91
        0
178
     0
145
0.0
 92
        0
301
CELL_VALUE
 93
        3
 90
        0
 91
        0
 94
        0
300

302

304
ACVALUE_END
171
     1
172
     0
173
     1
174
     0
175
     1
176
     1
 91
        0
178
     0
145
0.0
 92
        0
301
CELL_VALUE
 93
        3
 90
        0
 91
        0
 94
        0
300

302

304
ACVALUE_END
171
     1
172
     0
173
     1
174
     0
175
     1
176
     1
 91
        0
178
     0
145
0.0
 92
        0
301
CELL_VALUE
 93
        3
 90
        0
 91
        0
 94
        0
300

302

304
ACVALUE_END
171
     1
172
     0
173
     1
174
     0
175
     1
176
     1
 91
        0
178
     0
145
0.0
 92
        0
301
CELL_VALUE
 93
        3
 90
        0
 91
        0
 94
        0
300

302

304
ACVALUE_END
171
     1
172
     0
173
     1
174
     0
175
     1
176
     1
 91
        0
178
     0
145
0.0
 92
        0
301
CELL_VALUE
 93
        3
 90
        0
 91
        0
 94
        0
300

302

304
ACVALUE_END
171
     1
172
     0
173
     1
174
     0
175
     1
176
     1
 91
        0
178
     0
145
0.0
 92
        0
301
CELL_VALUE
 93
        3
 90
        0
 91
        0
 94
        0
300

302

304
ACVALUE_END
  0
ENDSEC
  0
SECTION
  2
OBJECTS
  0
DICTIONARY
  5
C
330
0
100
AcDbDictionary
281
     1
  3
ACAD_DETAILVIEWSTYLE
350
51A
  3
ACAD_GROUP
350
D
  3
ACAD_LAYOUT
350
1A
  3
ACAD_MATERIAL
350
509
  3
ACAD_MLEADERSTYLE
350
50D
  3
ACAD_MLINESTYLE
350
17
  3
ACAD_PLOTSETTINGS
350
19
  3
ACAD_PLOTSTYLENAME
350
E
  3
ACAD_SCALELIST
350
4CD
  3
ACAD_SECTIONVIEWSTYLE
350
51B
  3
ACAD_TABLESTYLE
350
4C8
  3
ACAD_VISUALSTYLE
350
4EF
  3
ACDB_RECOMPOSE_DATA
350
517
  3
AcDbVariableDictionary
350
511
  3
APPDATA
350
50F
  0
SUN
  5
510
330
2F6
100
AcDbSun
 90
        1
290
     0
 63
     7
421
 16777215
 40
1.0
291
     1
 91
  2455826
 92
 54000000
292
     0
 70
     2
 71
   256
280
     1
  0
DICTIONARY
  5
51A
102
{ACAD_REACTORS
330
C
102
}
330
C
100
AcDbDictionary
281
     1
  0
DICTIONARY
  5
D
102
{ACAD_REACTORS
330
C
102
}
330
C
100
AcDbDictionary
281
     1
  0
DICTIONARY
  5
1A
102
{ACAD_REACTORS
330
C
102
}
330
C
100
AcDbDictionary
281
     1
  3
164533_1
350
4CA
  3
Model
350
4C9
  0
DICTIONARY
  5
509
102
{ACAD_REACTORS
330
C
102
}
330
C
100
AcDbDictionary
281
     1
  3
ByBlock
350
50B
  3
ByLayer
350
50A
  3
Global
350
50C
  0
DICTIONARY
  5
50D
102
{ACAD_REACTORS
330
C
102
}
330
C
100
AcDbDictionary
281
     1
  3
Standard
350
50E
  0
DICTIONARY
  5
17
102
{ACAD_REACTORS
330
C
102
}
330
C
100
AcDbDictionary
281
     1
  3
Standard
350
18
  0
DICTIONARY
  5
19
102
{ACAD_REACTORS
330
C
102
}
330
C
100
AcDbDictionary
281
     1
  0
ACDBDICTIONARYWDFLT
  5
E
102
{ACAD_REACTORS
330
C
102
}
330
C
100
AcDbDictionary
281
     1
  3
Normal
350
F
100
AcDbDictionaryWithDefault
340
F
  0
DICTIONARY
  5
4CD
102
{ACAD_REACTORS
330
C
102
}
330
C
100
AcDbDictionary
281
     1
  3
A0
350
4CE
  3
A1
350
4CF
  3
A2
350
4D0
  3
A3
350
4D1
  3
A4
350
4D2
  3
A5
350
4D3
  3
A6
350
4D4
  3
A7
350
4D5
  3
A8
350
4D6
  3
A9
350
4D7
  3
B0
350
4D8
  3
B1
350
4D9
  3
B2
350
4DA
  3
B3
350
4DB
  3
B4
350
4DC
  3
B5
350
4DD
  3
B6
350
4DE
  3
B7
350
4DF
  3
B8
350
4E0
  3
B9
350
4E1
  3
C0
350
4E2
  3
C1
350
4E3
  3
C2
350
4E4
  3
C3
350
4E5
  3
C4
350
4E6
  3
C5
350
4E7
  3
C6
350
4E8
  3
C7
350
4E9
  3
C8
350
4EA
  3
C9
350
4EB
  3
D0
350
4EC
  3
D1
350
4ED
  3
D2
350
4EE
  0
DICTIONARY
  5
51B
102
{ACAD_REACTORS
330
C
102
}
330
C
100
AcDbDictionary
281
     1
  0
DICTIONARY
  5
4C8
330
C
100
AcDbDictionary
281
     1
  3
Standard
350
4CB
  3
Standard1
350
4CC
  0
DICTIONARY
  5
4EF
102
{ACAD_REACTORS
330
C
102
}
330
C
100
AcDbDictionary
281
     1
  3
2dWireframe
350
4F4
  3
Basic
350
4F7
  3
Brighten
350
4FB
  3
ColorChange
350
4FF
  3
Conceptual
350
4F9
  3
Dim
350
4FA
  3
EdgeColorOff
350
502
  3
Facepattern
350
4FE
  3
Flat
350
4F0
  3
FlatWithEdges
350
4F1
  3
Gouraud
350
4F2
  3
GouraudWithEdges
350
4F3
  3
Hidden
350
4F6
  3
JitterOff
350
500
  3
Linepattern
350
4FD
  3
OverhangOff
350
501
  3
Realistic
350
4F8
  3
Shaded
350
507
  3
Shaded with edges
350
506
  3
Shades of Gray
350
503
  3
Sketchy
350
504
  3
Thicken
350
4FC
  3
Wireframe
350
4F5
  3
X-Ray
350
505
  0
XRECORD
  5
517
102
{ACAD_REACTORS
330
C
102
}
330
C
100
AcDbXrecord
280
     1
 90
        1
330
4CB
330
4CC
  0
DICTIONARY
  5
511
102
{ACAD_REACTORS
330
C
102
}
330
C
100
AcDbDictionary
281
     1
  3
CANNOSCALE
350
512
  3
CMLEADERSTYLE
350
519
  3
CTABLESTYLE
350
518
  0
DICTIONARY
  5
50F
102
{ACAD_REACTORS
330
C
102
}
330
C
100
AcDbDictionary
281
     1
  0
LAYOUT
  5
4CA
102
{ACAD_REACTORS
330
1A
102
}
330
1A
100
AcDbPlotSettings
  1

  2
none_device
  4
ISO_A2_(594.00_x_420.00_MM)
  6

 40
0.0
 41
0.0
 42
0.0
 43
0.0
 44
594.0
 45
420.0
 46
0.0
 47
0.0
 48
0.0
 49
0.0
140
0.0
141
0.0
142
1.0
143
1.0
 70
     0
 72
     1
 73
     0
 74
     0
  7

 75
     0
 76
     0
 77
     2
 78
   300
147
1.0
148
0.0
149
0.0
100
AcDbLayout
  1
164533_1
 70
     0
 71
     1
 10
0.0
 20
0.0
 11
594.0
 21
420.0
 12
0.0
 22
0.0
 32
0.0
 14
0.0
 24
0.0
 34
0.0
 15
594.0
 25
420.0
 35
0.0
146
0.0
 13
0.0
 23
0.0
 33
0.0
 16
1.0
 26
0.0
 36
0.0
 17
0.0
 27
1.0
 37
0.0
 76
     0
330
228
331
2F6
  0
LAYOUT
  5
4C9
102
{ACAD_REACTORS
330
1A
102
}
330
1A
100
AcDbPlotSettings
  1

  2
none_device
  4

  6

 40
0.0
 41
0.0
 42
0.0
 43
0.0
 44
594.0
 45
420.0
 46
0.0
 47
0.0
 48
0.0
 49
0.0
140
0.0
141
0.0
142
1.0
143
1.0
 70
  1024
 72
     1
 73
     0
 74
     0
  7

 75
     0
 76
     0
 77
     2
 78
   300
147
1.0
148
0.0
149
0.0
100
AcDbLayout
  1
Model
 70
     0
 71
     0
 10
0.0
 20
0.0
 11
594.0
 21
420.0
 12
0.0
 22
0.0
 32
0.0
 14
0.0
 24
0.0
 34
0.0
 15
0.0
 25
0.0
 35
0.0
146
0.0
 13
0.0
 23
0.0
 33
0.0
 16
1.0
 26
0.0
 36
0.0
 17
0.0
 27
1.0
 37
0.0
 76
     0
330
227
331
1F4
  0
MATERIAL
  5
50B
102
{ACAD_REACTORS
330
509
102
}
330
509
100
AcDbMaterial
  1
ByBlock
 72
     1
 94
      127
  0
MATERIAL
  5
50A
102
{ACAD_REACTORS
330
509
102
}
330
509
100
AcDbMaterial
  1
ByLayer
 72
     1
 94
      127
  0
MATERIAL
  5
50C
102
{ACAD_REACTORS
330
509
102
}
330
509
100
AcDbMaterial
  1
Global
 72
     1
 94
      127
  0
MLEADERSTYLE
  5
50E
102
{ACAD_REACTORS
330
50D
102
}
330
50D
100
AcDbMLeaderStyle
179
     2
170
     2
171
     1
172
     0
 90
        2
 40
0.0
 41
0.0
173
     1
 91
-1056964608
340
14
 92
       -2
290
     1
 42
2.0
291
     1
 43
8.0
  3
Standard
341
0
 44
4.0
300

342
11
174
     1
178
     1
175
     1
176
     0
 93
-1056964608
 45
4.0
292
     0
297
     0
 46
4.0
343
0
 94
-1056964608
 47
1.0
 49
1.0
140
1.0
293
     1
141
0.0
294
     1
177
     0
142
1.0
295
     0
296
     0
143
3.75
271
     0
272
     9
273
     9
298
     0
  0
MLINESTYLE
  5
18
102
{ACAD_REACTORS
330
17
102
}
330
17
100
AcDbMlineStyle
  2
STANDARD
 70
     0
  3

 62
   256
 51
90.0
 52
90.0
 71
     2
 49
0.5
 62
   256
  6
BYLAYER
 49
-0.5
 62
   256
  6
BYLAYER
  0
ACDBPLACEHOLDER
  5
F
102
{ACAD_REACTORS
330
E
102
}
330
E
  0
SCALE
  5
4CE
102
{ACAD_REACTORS
330
4CD
102
}
330
4CD
100
AcDbScale
 70
     0
300
1:1
140
1.0
141
1.0
290
     1
  0
SCALE
  5
4CF
102
{ACAD_REACTORS
330
4CD
102
}
330
4CD
100
AcDbScale
 70
     0
300
1:2
140
1.0
141
2.0
290
     0
  0
SCALE
  5
4D0
102
{ACAD_REACTORS
330
4CD
102
}
330
4CD
100
AcDbScale
 70
     0
300
1:4
140
1.0
141
4.0
290
     0
  0
SCALE
  5
4D1
102
{ACAD_REACTORS
330
4CD
102
}
330
4CD
100
AcDbScale
 70
     0
300
1:5
140
1.0
141
5.0
290
     0
  0
SCALE
  5
4D2
102
{ACAD_REACTORS
330
4CD
102
}
330
4CD
100
AcDbScale
 70
     0
300
1:8
140
1.0
141
8.0
290
     0
  0
SCALE
  5
4D3
102
{ACAD_REACTORS
330
4CD
102
}
330
4CD
100
AcDbScale
 70
     0
300
1:10
140
1.0
141
10.0
290
     0
  0
SCALE
  5
4D4
102
{ACAD_REACTORS
330
4CD
102
}
330
4CD
100
AcDbScale
 70
     0
300
1:16
140
1.0
141
16.0
290
     0
  0
SCALE
  5
4D5
102
{ACAD_REACTORS
330
4CD
102
}
330
4CD
100
AcDbScale
 70
     0
300
1:20
140
1.0
141
20.0
290
     0
  0
SCALE
  5
4D6
102
{ACAD_REACTORS
330
4CD
102
}
330
4CD
100
AcDbScale
 70
     0
300
1:30
140
1.0
141
30.0
290
     0
  0
SCALE
  5
4D7
102
{ACAD_REACTORS
330
4CD
102
}
330
4CD
100
AcDbScale
 70
     0
300
1:40
140
1.0
141
40.0
290
     0
  0
SCALE
  5
4D8
102
{ACAD_REACTORS
330
4CD
102
}
330
4CD
100
AcDbScale
 70
     0
300
1:50
140
1.0
141
50.0
290
     0
  0
SCALE
  5
4D9
102
{ACAD_REACTORS
330
4CD
102
}
330
4CD
100
AcDbScale
 70
     0
300
1:100
140
1.0
141
100.0
290
     0
  0
SCALE
  5
4DA
102
{ACAD_REACTORS
330
4CD
102
}
330
4CD
100
AcDbScale
 70
     0
300
2:1
140
2.0
141
1.0
290
     0
  0
SCALE
  5
4DB
102
{ACAD_REACTORS
330
4CD
102
}
330
4CD
100
AcDbScale
 70
     0
300
4:1
140
4.0
141
1.0
290
     0
  0
SCALE
  5
4DC
102
{ACAD_REACTORS
330
4CD
102
}
330
4CD
100
AcDbScale
 70
     0
300
8:1
140
8.0
141
1.0
290
     0
  0
SCALE
  5
4DD
102
{ACAD_REACTORS
330
4CD
102
}
330
4CD
100
AcDbScale
 70
     0
300
10:1
140
10.0
141
1.0
290
     0
  0
SCALE
  5
4DE
102
{ACAD_REACTORS
330
4CD
102
}
330
4CD
100
AcDbScale
 70
     0
300
100:1
140
100.0
141
1.0
290
     0
  0
SCALE
  5
4DF
102
{ACAD_REACTORS
330
4CD
102
}
330
4CD
100
AcDbScale
 70
     0
300
1/128" = 1'-0"
140
0.0078125
141
12.0
290
     0
  0
SCALE
  5
4E0
102
{ACAD_REACTORS
330
4CD
102
}
330
4CD
100
AcDbScale
 70
     0
300
1/64" = 1'-0"
140
0.015625
141
12.0
290
     0
  0
SCALE
  5
4E1
102
{ACAD_REACTORS
330
4CD
102
}
330
4CD
100
AcDbScale
 70
     0
300
1/32" = 1'-0"
140
0.03125
141
12.0
290
     0
  0
SCALE
  5
4E2
102
{ACAD_REACTORS
330
4CD
102
}
330
4CD
100
AcDbScale
 70
     0
300
1/16" = 1'-0"
140
0.0625
141
12.0
290
     0
  0
SCALE
  5
4E3
102
{ACAD_REACTORS
330
4CD
102
}
330
4CD
100
AcDbScale
 70
     0
300
3/32" = 1'-0"
140
0.09375
141
12.0
290
     0
  0
SCALE
  5
4E4
102
{ACAD_REACTORS
330
4CD
102
}
330
4CD
100
AcDbScale
 70
     0
300
1/8" = 1'-0"
140
0.125
141
12.0
290
     0
  0
SCALE
  5
4E5
102
{ACAD_REACTORS
330
4CD
102
}
330
4CD
100
AcDbScale
 70
     0
300
3/16" = 1'-0"
140
0.1875
141
12.0
290
     0
  0
SCALE
  5
4E6
102
{ACAD_REACTORS
330
4CD
102
}
330
4CD
100
AcDbScale
 70
     0
300
1/4" = 1'-0"
140
0.25
141
12.0
290
     0
  0
SCALE
  5
4E7
102
{ACAD_REACTORS
330
4CD
102
}
330
4CD
100
AcDbScale
 70
     0
300
3/8" = 1'-0"
140
0.375
141
12.0
290
     0
  0
SCALE
  5
4E8
102
{ACAD_REACTORS
330
4CD
102
}
330
4CD
100
AcDbScale
 70
     0
300
1/2" = 1'-0"
140
0.5
141
12.0
290
     0
  0
SCALE
  5
4E9
102
{ACAD_REACTORS
330
4CD
102
}
330
4CD
100
AcDbScale
 70
     0
300
3/4" = 1'-0"
140
0.75
141
12.0
290
     0
  0
SCALE
  5
4EA
102
{ACAD_REACTORS
330
4CD
102
}
330
4CD
100
AcDbScale
 70
     0
300
1" = 1'-0"
140
1.0
141
12.0
290
     0
  0
SCALE
  5
4EB
102
{ACAD_REACTORS
330
4CD
102
}
330
4CD
100
AcDbScale
 70
     0
300
1-1/2" = 1'-0"
140
1.5
141
12.0
290
     0
  0
SCALE
  5
4EC
102
{ACAD_REACTORS
330
4CD
102
}
330
4CD
100
AcDbScale
 70
     0
300
3" = 1'-0"
140
3.0
141
12.0
290
     0
  0
SCALE
  5
4ED
102
{ACAD_REACTORS
330
4CD
102
}
330
4CD
100
AcDbScale
 70
     0
300
6" = 1'-0"
140
6.0
141
12.0
290
     0
  0
SCALE
  5
4EE
102
{ACAD_REACTORS
330
4CD
102
}
330
4CD
100
AcDbScale
 70
     0
300
1'-0" = 1'-0"
140
12.0
141
12.0
290
     0
  0
TABLESTYLE
  5
4CB
102
{ACAD_REACTORS
330
4C8
330
4C7
102
}
102
{ACAD_XDICTIONARY
360
513
102
}
330
4C8
100
AcDbTableStyle
  3
Standard
 70
     0
 71
     0
 40
0.06
 41
0.06
280
     1
281
     1
  7
STANDARD
140
0.18
170
     1
 62
     0
 63
   257
283
     0
 90
        4
 91
        0
  1

274
    -2
284
     1
 64
     0
275
    -2
285
     1
 65
     0
276
    -2
286
     1
 66
     0
277
    -2
287
     1
 67
     0
278
    -2
288
     1
 68
     0
279
    -2
289
     1
 69
     0
  7
STANDARD
140
0.18
170
     1
 62
     0
 63
   257
283
     0
 90
        4
 91
        0
  1

274
    -2
284
     1
 64
     0
275
    -2
285
     1
 65
     0
276
    -2
286
     1
 66
     0
277
    -2
287
     1
 67
     0
278
    -2
288
     1
 68
     0
279
    -2
289
     1
 69
     0
  7
STANDARD
140
0.18
170
     1
 62
     0
 63
   257
283
     0
 90
        4
 91
        0
  1

274
    -2
284
     1
 64
     0
275
    -2
285
     1
 65
     0
276
    -2
286
     1
 66
     0
277
    -2
287
     1
 67
     0
278
    -2
288
     1
 68
     0
279
    -2
289
     1
 69
     0
  0
TABLESTYLE
  5
4CC
102
{ACAD_REACTORS
330
4C8
102
}
102
{ACAD_XDICTIONARY
360
515
102
}
330
4C8
100
AcDbTableStyle
  3
Standard1
 70
     1
 71
     0
 40
0.06
 41
0.06
280
     1
281
     1
  7
STANDARD
140
0.18
170
     1
 62
     0
 63
   257
283
     0
 90
        4
 91
        0
  1

274
    -2
284
     1
 64
     0
275
    -2
285
     1
 65
     0
276
    -2
286
     1
 66
     0
277
    -2
287
     1
 67
     0
278
    -2
288
     1
 68
     0
279
    -2
289
     1
 69
     0
  7
STANDARD
140
0.18
170
     1
 62
     0
 63
   257
283
     0
 90
        4
 91
        0
  1

274
    -2
284
     1
 64
     0
275
    -2
285
     1
 65
     0
276
    -2
286
     1
 66
     0
277
    -2
287
     1
 67
     0
278
    -2
288
     1
 68
     0
279
    -2
289
     1
 69
     0
  7
STANDARD
140
0.18
170
     1
 62
     0
 63
   257
283
     0
 90
        4
 91
        0
  1

274
    -2
284
     1
 64
     0
275
    -2
285
     1
 65
     0
276
    -2
286
     1
 66
     0
277
    -2
287
     1
 67
     0
278
    -2
288
     1
 68
     0
279
    -2
289
     1
 69
     0
  0
VISUALSTYLE
  5
4F4
102
{ACAD_REACTORS
330
4EF
102
}
330
4EF
100
AcDbVisualStyle
  2
2dWireframe
 70
     4
177
     3
291
     0
 70
    58
 90
        0
176
     1
 90
        2
176
     1
 90
        0
176
     1
 90
        0
176
     1
 40
0.6
176
     1
 40
30.0
176
     1
 62
     7
420
 16777215
176
     1
 90
        1
176
     1
 90
        4
176
     1
 62
     7
176
     1
 62
   257
176
     1
 90
        1
176
     1
 90
        1
176
     1
 40
1.0
176
     1
 90
        0
176
     1
 62
   257
176
     1
 40
1.0
176
     1
 90
        1
176
     1
 90
        6
176
     1
 90
        2
176
     1
 62
     7
176
     1
 90
        5
176
     1
 90
        0
176
     1
 90
        0
176
     1
290
     0
176
     1
 90
        1
176
     1
 40
0.0
176
     1
 90
        0
176
     1
290
     1
176
     1
290
     1
176
     1
290
     0
176
     1
290
     0
176
     1
290
     0
176
     1
290
     0
176
     1
290
     0
176
     1
290
     0
176
     1
290
     0
176
     1
 90
       50
176
     1
 40
0.0
176
     1
 40
1.0
176
     1
 90
        0
176
     1
 62
    18
420
        0
176
     1
 90
       50
176
     1
 90
        3
176
     1
 62
     5
420
      255
176
     1
290
     0
176
     1
 90
       50
176
     1
 90
       50
176
     1
 90
       50
176
     1
290
     0
176
     1
 90
       50
176
     1
 62
   256
176
     0
 40
1.0
176
     0
 90
        2
176
     1
  1
strokes_ogs.tif
176
     1
290
     0
176
     1
 40
1.0
176
     1
 40
1.0
176
     1
  0
VISUALSTYLE
  5
4F7
102
{ACAD_REACTORS
330
4EF
102
}
330
4EF
100
AcDbVisualStyle
  2
Basic
 70
     7
177
     3
291
     1
 70
    58
 90
        1
176
     1
 90
        0
176
     1
 90
        1
176
     1
 90
        0
176
     1
 40
0.6
176
     1
 40
30.0
176
     1
 62
     7
420
 16777215
176
     1
 90
        0
176
     1
 90
        4
176
     1
 62
     7
176
     1
 62
   257
176
     1
 90
        1
176
     1
 90
        1
176
     1
 40
1.0
176
     1
 90
        8
176
     1
 62
     7
176
     1
 40
1.0
176
     1
 90
        1
176
     1
 90
        6
176
     1
 90
        2
176
     1
 62
     7
176
     1
 90
        5
176
     1
 90
        0
176
     1
 90
        0
176
     1
290
     0
176
     1
 90
        1
176
     1
 40
0.0
176
     1
 90
        0
176
     1
290
     0
176
     1
290
     1
176
     1
290
     1
176
     1
290
     0
176
     1
290
     0
176
     1
290
     0
176
     1
290
     0
176
     1
290
     0
176
     1
290
     0
176
     1
 90
       50
176
     1
 40
0.0
176
     1
 40
1.0
176
     1
 90
        0
176
     1
 62
    18
420
        0
176
     1
 90
       50
176
     1
 90
        3
176
     1
 62
     5
420
      255
176
     1
290
     0
176
     1
 90
       50
176
     1
 90
       50
176
     1
 90
       50
176
     1
290
     0
176
     1
 90
       50
176
     1
 62
   256
176
     0
 40
1.0
176
     0
 90
        2
176
     1
  1
strokes_ogs.tif
176
     1
290
     0
176
     1
 40
1.0
176
     1
 40
1.0
176
     1
  0
VISUALSTYLE
  5
4FB
102
{ACAD_REACTORS
330
4EF
102
}
330
4EF
100
AcDbVisualStyle
  2
Brighten
 70
    12
177
     3
291
     1
 70
    58
 90
        2
176
     1
 90
        2
176
     1
 90
        0
176
     1
 90
        0
176
     1
 40
0.6
176
     1
 40
30.0
176
     1
 62
     7
420
 16777215
176
     1
 90
        1
176
     1
 90
        4
176
     1
 62
     7
176
     1
 62
   257
176
     1
 90
        1
176
     1
 90
        1
176
     1
 40
1.0
176
     1
 90
        8
176
     1
 62
     7
176
     1
 40
1.0
176
     1
 90
        1
176
     1
 90
        6
176
     1
 90
        2
176
     1
 62
     7
176
     1
 90
        5
176
     1
 90
        0
176
     1
 90
        0
176
     1
290
     0
176
     1
 90
        1
176
     1
 40
50.0
176
     1
 90
        0
176
     1
290
     0
176
     1
290
     1
176
     1
290
     1
176
     1
290
     0
176
     1
290
     0
176
     1
290
     0
176
     1
290
     0
176
     1
290
     0
176
     1
290
     0
176
     1
 90
       50
176
     1
 40
0.0
176
     1
 40
1.0
176
     1
 90
        0
176
     1
 62
    18
420
        0
176
     1
 90
       50
176
     1
 90
        3
176
     1
 62
     5
420
      255
176
     1
290
     0
176
     1
 90
       50
176
     1
 90
       50
176
     1
 90
       50
176
     1
290
     0
176
     1
 90
       50
176
     1
 62
   256
176
     0
 40
1.0
176
     0
 90
        2
176
     1
  1
strokes_ogs.tif
176
     1
290
     0
176
     1
 40
1.0
176
     1
 40
1.0
176
     1
  0
VISUALSTYLE
  5
4FF
102
{ACAD_REACTORS
330
4EF
102
}
330
4EF
100
AcDbVisualStyle
  2
ColorChange
 70
    16
177
     3
291
     1
 70
    58
 90
        2
176
     1
 90
        2
176
     1
 90
        3
176
     1
 90
        0
176
     1
 40
0.6
176
     1
 40
30.0
176
     1
 62
     8
420
  8421504
176
     1
 90
        1
176
     1
 90
        4
176
     1
 62
     7
176
     1
 62
   257
176
     1
 90
        1
176
     1
 90
        1
176
     1
 40
1.0
176
     1
 90
        8
176
     1
 62
     8
420
  8421504
176
     1
 40
1.0
176
     1
 90
        1
176
     1
 90
        6
176
     1
 90
        2
176
     1
 62
     7
176
     1
 90
        5
176
     1
 90
        0
176
     1
 90
        0
176
     1
290
     0
176
     1
 90
        1
176
     1
 40
0.0
176
     1
 90
        0
176
     1
290
     0
176
     1
290
     1
176
     1
290
     1
176
     1
290
     0
176
     1
290
     0
176
     1
290
     0
176
     1
290
     0
176
     1
290
     0
176
     1
290
     0
176
     1
 90
       50
176
     1
 40
0.0
176
     1
 40
1.0
176
     1
 90
        0
176
     1
 62
    18
420
        0
176
     1
 90
       50
176
     1
 90
        3
176
     1
 62
     5
420
      255
176
     1
290
     0
176
     1
 90
       50
176
     1
 90
       50
176
     1
 90
       50
176
     1
290
     0
176
     1
 90
       50
176
     1
 62
   256
176
     0
 40
1.0
176
     0
 90
        2
176
     1
  1
strokes_ogs.tif
176
     1
290
     0
176
     1
 40
1.0
176
     1
 40
1.0
176
     1
  0
VISUALSTYLE
  5
4F9
102
{ACAD_REACTORS
330
4EF
102
}
330
4EF
100
AcDbVisualStyle
  2
Conceptual
 70
     9
177
     3
291
     0
 70
    58
 90
        3
176
     1
 90
        2
176
     1
 90
        0
176
     1
 90
        0
176
     1
 40
0.6
176
     1
 40
30.0
176
     1
 62
     7
420
 16777215
176
     1
 90
        2
176
     1
 90
        2
176
     1
 62
     7
176
     1
 62
   257
176
     1
 90
        1
176
     1
 90
        1
176
     1
 40
179.0
176
     1
 90
        8
176
     1
 62
     7
176
     1
 40
1.0
176
     1
 90
        1
176
     1
 90
        6
176
     1
 90
        2
176
     1
 62
     7
176
     1
 90
        3
176
     1
 90
        0
176
     1
 90
        0
176
     1
290
     0
176
     1
 90
        1
176
     1
 40
0.0
176
     1
 90
        0
176
     1
290
     0
176
     1
290
     1
176
     1
290
     1
176
     1
290
     0
176
     1
290
     0
176
     1
290
     0
176
     1
290
     0
176
     1
290
     0
176
     1
290
     0
176
     1
 90
       50
176
     1
 40
0.0
176
     1
 40
1.0
176
     1
 90
        0
176
     1
 62
    18
420
        0
176
     1
 90
       50
176
     1
 90
        3
176
     1
 62
     5
420
      255
176
     1
290
     0
176
     1
 90
       50
176
     1
 90
       50
176
     1
 90
       50
176
     1
290
     0
176
     1
 90
       50
176
     1
 62
   256
176
     0
 40
1.0
176
     0
 90
        2
176
     1
  1
strokes_ogs.tif
176
     1
290
     0
176
     1
 40
1.0
176
     1
 40
1.0
176
     1
  0
VISUALSTYLE
  5
4FA
102
{ACAD_REACTORS
330
4EF
102
}
330
4EF
100
AcDbVisualStyle
  2
Dim
 70
    11
177
     3
291
     1
 70
    58
 90
        2
176
     1
 90
        2
176
     1
 90
        0
176
     1
 90
        0
176
     1
 40
0.6
176
     1
 40
30.0
176
     1
 62
     7
420
 16777215
176
     1
 90
        1
176
     1
 90
        4
176
     1
 62
     7
176
     1
 62
   257
176
     1
 90
        1
176
     1
 90
        1
176
     1
 40
1.0
176
     1
 90
        8
176
     1
 62
     7
176
     1
 40
1.0
176
     1
 90
        1
176
     1
 90
        6
176
     1
 90
        2
176
     1
 62
     7
176
     1
 90
        5
176
     1
 90
        0
176
     1
 90
        0
176
     1
290
     0
176
     1
 90
        1
176
     1
 40
-50.0
176
     1
 90
        0
176
     1
290
     0
176
     1
290
     1
176
     1
290
     1
176
     1
290
     0
176
     1
290
     0
176
     1
290
     0
176
     1
290
     0
176
     1
290
     0
176
     1
290
     0
176
     1
 90
       50
176
     1
 40
0.0
176
     1
 40
1.0
176
     1
 90
        0
176
     1
 62
    18
420
        0
176
     1
 90
       50
176
     1
 90
        3
176
     1
 62
     5
420
      255
176
     1
290
     0
176
     1
 90
       50
176
     1
 90
       50
176
     1
 90
       50
176
     1
290
     0
176
     1
 90
       50
176
     1
 62
   256
176
     0
 40
1.0
176
     0
 90
        2
176
     1
  1
strokes_ogs.tif
176
     1
290
     0
176
     1
 40
1.0
176
     1
 40
1.0
176
     1
  0
VISUALSTYLE
  5
502
102
{ACAD_REACTORS
330
4EF
102
}
330
4EF
100
AcDbVisualStyle
  2
EdgeColorOff
 70
    22
177
     3
291
     1
 70
    58
 90
        2
176
     0
 90
        2
176
     0
 90
        0
176
     0
 90
        0
176
     0
 40
0.6
176
     0
 40
30.0
176
     0
 62
     7
420
 16777215
176
     0
 90
        1
176
     0
 90
        4
176
     0
 62
     7
176
     0
 62
   257
176
     0
 90
        1
176
     0
 90
        1
176
     0
 40
1.0
176
     0
 90
        8
176
     2
 62
     7
176
     0
 40
1.0
176
     0
 90
        1
176
     0
 90
        6
176
     0
 90
        2
176
     0
 62
     7
176
     0
 90
        5
176
     0
 90
        0
176
     0
 90
        0
176
     0
290
     0
176
     0
 90
        1
176
     0
 40
0.0
176
     0
 90
        0
176
     0
290
     0
176
     0
290
     1
176
     0
290
     1
176
     0
290
     0
176
     0
290
     0
176
     0
290
     0
176
     0
290
     0
176
     0
290
     0
176
     0
290
     0
176
     0
 90
       50
176
     0
 40
0.0
176
     0
 40
1.0
176
     0
 90
        0
176
     0
 62
    18
420
        0
176
     0
 90
       50
176
     0
 90
        3
176
     0
 62
     5
420
      255
176
     0
290
     0
176
     0
 90
       50
176
     0
 90
       50
176
     0
 90
       50
176
     0
290
     0
176
     0
 90
       50
176
     0
 62
   256
176
     0
 40
1.0
176
     0
 90
        2
176
     0
  1
strokes_ogs.tif
176
     0
290
     0
176
     0
 40
1.0
176
     0
 40
1.0
176
     0
  0
VISUALSTYLE
  5
4FE
102
{ACAD_REACTORS
330
4EF
102
}
330
4EF
100
AcDbVisualStyle
  2
Facepattern
 70
    15
177
     3
291
     1
 70
    58
 90
        2
176
     1
 90
        2
176
     1
 90
        0
176
     1
 90
        0
176
     1
 40
0.6
176
     1
 40
30.0
176
     1
 62
     7
420
 16777215
176
     1
 90
        1
176
     1
 90
        4
176
     1
 62
     7
176
     1
 62
   257
176
     1
 90
        1
176
     1
 90
        1
176
     1
 40
1.0
176
     1
 90
        8
176
     1
 62
     7
176
     1
 40
1.0
176
     1
 90
        1
176
     1
 90
        6
176
     1
 90
        2
176
     1
 62
     7
176
     1
 90
        5
176
     1
 90
        0
176
     1
 90
        0
176
     1
290
     0
176
     1
 90
        1
176
     1
 40
0.0
176
     1
 90
        0
176
     1
290
     0
176
     1
290
     1
176
     1
290
     1
176
     1
290
     0
176
     1
290
     0
176
     1
290
     0
176
     1
290
     0
176
     1
290
     0
176
     1
290
     0
176
     1
 90
       50
176
     1
 40
0.0
176
     1
 40
1.0
176
     1
 90
        0
176
     1
 62
    18
420
        0
176
     1
 90
       50
176
     1
 90
        3
176
     1
 62
     5
420
      255
176
     1
290
     0
176
     1
 90
       50
176
     1
 90
       50
176
     1
 90
       50
176
     1
290
     0
176
     1
 90
       50
176
     1
 62
   256
176
     0
 40
1.0
176
     0
 90
        2
176
     1
  1
strokes_ogs.tif
176
     1
290
     0
176
     1
 40
1.0
176
     1
 40
1.0
176
     1
  0
VISUALSTYLE
  5
4F0
102
{ACAD_REACTORS
330
4EF
102
}
330
4EF
100
AcDbVisualStyle
  2
Flat
 70
     0
177
     3
291
     1
 70
    58
 90
        2
176
     1
 90
        1
176
     1
 90
        1
176
     1
 90
        2
176
     1
 40
0.6
176
     1
 40
30.0
176
     1
 62
     7
420
 16777215
176
     1
 90
        0
176
     1
 90
        0
176
     1
 62
     7
176
     1
 62
   257
176
     1
 90
        1
176
     1
 90
        1
176
     1
 40
1.0
176
     1
 90
        8
176
     1
 62
     7
176
     1
 40
1.0
176
     1
 90
        1
176
     1
 90
        6
176
     1
 90
        2
176
     1
 62
     7
176
     1
 90
        5
176
     1
 90
        0
176
     1
 90
        0
176
     1
290
     0
176
     1
 90
       13
176
     1
 40
0.0
176
     1
 90
        0
176
     1
290
     0
176
     1
290
     1
176
     1
290
     1
176
     1
290
     0
176
     1
290
     0
176
     1
290
     0
176
     1
290
     0
176
     1
290
     0
176
     1
290
     0
176
     1
 90
       50
176
     1
 40
0.0
176
     1
 40
1.0
176
     1
 90
        0
176
     1
 62
    18
420
        0
176
     1
 90
       50
176
     1
 90
        3
176
     1
 62
     5
420
      255
176
     1
290
     0
176
     1
 90
       50
176
     1
 90
       50
176
     1
 90
       50
176
     1
290
     0
176
     1
 90
       50
176
     1
 62
   256
176
     0
 40
1.0
176
     0
 90
        2
176
     1
  1
strokes_ogs.tif
176
     1
290
     0
176
     1
 40
1.0
176
     1
 40
1.0
176
     1
  0
VISUALSTYLE
  5
4F1
102
{ACAD_REACTORS
330
4EF
102
}
330
4EF
100
AcDbVisualStyle
  2
FlatWithEdges
 70
     1
177
     3
291
     1
 70
    58
 90
        2
176
     1
 90
        1
176
     1
 90
        1
176
     1
 90
        2
176
     1
 40
0.6
176
     1
 40
30.0
176
     1
 62
     7
420
 16777215
176
     1
 90
        1
176
     1
 90
        0
176
     1
 62
     7
176
     1
 62
   257
176
     1
 90
        1
176
     1
 90
        1
176
     1
 40
1.0
176
     1
 90
        0
176
     1
 62
   257
176
     1
 40
1.0
176
     1
 90
        1
176
     1
 90
        6
176
     1
 90
        2
176
     1
 62
     7
176
     1
 90
        5
176
     1
 90
        0
176
     1
 90
        0
176
     1
290
     0
176
     1
 90
       13
176
     1
 40
0.0
176
     1
 90
        0
176
     1
290
     0
176
     1
290
     1
176
     1
290
     1
176
     1
290
     0
176
     1
290
     0
176
     1
290
     0
176
     1
290
     0
176
     1
290
     0
176
     1
290
     0
176
     1
 90
       50
176
     1
 40
0.0
176
     1
 40
1.0
176
     1
 90
        0
176
     1
 62
    18
420
        0
176
     1
 90
       50
176
     1
 90
        3
176
     1
 62
     5
420
      255
176
     1
290
     0
176
     1
 90
       50
176
     1
 90
       50
176
     1
 90
       50
176
     1
290
     0
176
     1
 90
       50
176
     1
 62
   256
176
     0
 40
1.0
176
     0
 90
        2
176
     1
  1
strokes_ogs.tif
176
     1
290
     0
176
     1
 40
1.0
176
     1
 40
1.0
176
     1
  0
VISUALSTYLE
  5
4F2
102
{ACAD_REACTORS
330
4EF
102
}
330
4EF
100
AcDbVisualStyle
  2
Gouraud
 70
     2
177
     3
291
     1
 70
    58
 90
        2
176
     1
 90
        2
176
     1
 90
        1
176
     1
 90
        2
176
     1
 40
0.6
176
     1
 40
30.0
176
     1
 62
     7
420
 16777215
176
     1
 90
        0
176
     1
 90
        0
176
     1
 62
     7
176
     1
 62
   257
176
     1
 90
        1
176
     1
 90
        1
176
     1
 40
1.0
176
     1
 90
        0
176
     1
 62
     7
176
     1
 40
1.0
176
     1
 90
        1
176
     1
 90
        6
176
     1
 90
        2
176
     1
 62
     7
176
     1
 90
        5
176
     1
 90
        0
176
     1
 90
        0
176
     1
290
     0
176
     1
 90
       13
176
     1
 40
0.0
176
     1
 90
        0
176
     1
290
     0
176
     1
290
     1
176
     1
290
     1
176
     1
290
     0
176
     1
290
     0
176
     1
290
     0
176
     1
290
     0
176
     1
290
     0
176
     1
290
     0
176
     1
 90
       50
176
     1
 40
0.0
176
     1
 40
1.0
176
     1
 90
        0
176
     1
 62
    18
420
        0
176
     1
 90
       50
176
     1
 90
        3
176
     1
 62
     5
420
      255
176
     1
290
     0
176
     1
 90
       50
176
     1
 90
       50
176
     1
 90
       50
176
     1
290
     0
176
     1
 90
       50
176
     1
 62
   256
176
     0
 40
1.0
176
     0
 90
        2
176
     1
  1
strokes_ogs.tif
176
     1
290
     0
176
     1
 40
1.0
176
     1
 40
1.0
176
     1
  0
VISUALSTYLE
  5
4F3
102
{ACAD_REACTORS
330
4EF
102
}
330
4EF
100
AcDbVisualStyle
  2
GouraudWithEdges
 70
     3
177
     3
291
     1
 70
    58
 90
        2
176
     1
 90
        2
176
     1
 90
        1
176
     1
 90
        2
176
     1
 40
0.6
176
     1
 40
30.0
176
     1
 62
     7
420
 16777215
176
     1
 90
        1
176
     1
 90
        0
176
     1
 62
     7
176
     1
 62
   257
176
     1
 90
        1
176
     1
 90
        1
176
     1
 40
1.0
176
     1
 90
        0
176
     1
 62
   257
176
     1
 40
1.0
176
     1
 90
        1
176
     1
 90
        6
176
     1
 90
        2
176
     1
 62
     7
176
     1
 90
        5
176
     1
 90
        0
176
     1
 90
        0
176
     1
290
     0
176
     1
 90
       13
176
     1
 40
0.0
176
     1
 90
        0
176
     1
290
     0
176
     1
290
     1
176
     1
290
     1
176
     1
290
     0
176
     1
290
     0
176
     1
290
     0
176
     1
290
     0
176
     1
290
     0
176
     1
290
     0
176
     1
 90
       50
176
     1
 40
0.0
176
     1
 40
1.0
176
     1
 90
        0
176
     1
 62
    18
420
        0
176
     1
 90
       50
176
     1
 90
        3
176
     1
 62
     5
420
      255
176
     1
290
     0
176
     1
 90
       50
176
     1
 90
       50
176
     1
 90
       50
176
     1
290
     0
176
     1
 90
       50
176
     1
 62
   256
176
     0
 40
1.0
176
     0
 90
        2
176
     1
  1
strokes_ogs.tif
176
     1
290
     0
176
     1
 40
1.0
176
     1
 40
1.0
176
     1
  0
VISUALSTYLE
  5
4F6
102
{ACAD_REACTORS
330
4EF
102
}
330
4EF
100
AcDbVisualStyle
  2
Hidden
 70
     6
177
     3
291
     0
 70
    58
 90
        1
176
     1
 90
        2
176
     1
 90
        2
176
     1
 90
        0
176
     1
 40
0.6
176
     1
 40
30.0
176
     1
 62
     7
420
 16777215
176
     1
 90
        2
176
     1
 90
        2
176
     1
 62
     7
176
     1
 62
   257
176
     1
 90
        2
176
     1
 90
        1
176
     1
 40
40.0
176
     1
 90
        0
176
     1
 62
   257
176
     1
 40
1.0
176
     1
 90
        1
176
     1
 90
        6
176
     1
 90
        2
176
     1
 62
     7
176
     1
 90
        3
176
     1
 90
        0
176
     1
 90
        0
176
     1
290
     0
176
     1
 90
        1
176
     1
 40
0.0
176
     1
 90
        0
176
     1
290
     0
176
     1
290
     1
176
     1
290
     1
176
     1
290
     0
176
     1
290
     0
176
     1
290
     0
176
     1
290
     0
176
     1
290
     0
176
     1
290
     0
176
     1
 90
       50
176
     1
 40
0.0
176
     1
 40
1.0
176
     1
 90
        0
176
     1
 62
    18
420
        0
176
     1
 90
       50
176
     1
 90
        3
176
     1
 62
     5
420
      255
176
     1
290
     0
176
     1
 90
       50
176
     1
 90
       50
176
     1
 90
       50
176
     1
290
     0
176
     1
 90
       50
176
     1
 62
   256
176
     0
 40
1.0
176
     0
 90
        2
176
     1
  1
strokes_ogs.tif
176
     1
290
     0
176
     1
 40
1.0
176
     1
 40
1.0
176
     1
  0
VISUALSTYLE
  5
500
102
{ACAD_REACTORS
330
4EF
102
}
330
4EF
100
AcDbVisualStyle
  2
JitterOff
 70
    20
177
     3
291
     1
 70
    58
 90
        2
176
     0
 90
        2
176
     0
 90
        0
176
     0
 90
        0
176
     0
 40
0.6
176
     0
 40
30.0
176
     0
 62
     7
420
 16777215
176
     0
 90
        1
176
     0
 90
        4
176
     0
 62
     7
176
     0
 62
   257
176
     0
 90
        1
176
     0
 90
        1
176
     0
 40
1.0
176
     0
 90
       10
176
     2
 62
     7
176
     0
 40
1.0
176
     0
 90
        1
176
     0
 90
        6
176
     0
 90
        2
176
     0
 62
     7
176
     0
 90
        5
176
     0
 90
        0
176
     0
 90
        0
176
     0
290
     0
176
     0
 90
        1
176
     0
 40
0.0
176
     0
 90
        0
176
     0
290
     0
176
     0
290
     1
176
     0
290
     1
176
     0
290
     0
176
     0
290
     0
176
     0
290
     0
176
     0
290
     0
176
     0
290
     0
176
     0
290
     0
176
     0
 90
       50
176
     0
 40
0.0
176
     0
 40
1.0
176
     0
 90
        0
176
     0
 62
    18
420
        0
176
     0
 90
       50
176
     0
 90
        3
176
     0
 62
     5
420
      255
176
     0
290
     0
176
     0
 90
       50
176
     0
 90
       50
176
     0
 90
       50
176
     0
290
     0
176
     0
 90
       50
176
     0
 62
   256
176
     0
 40
1.0
176
     0
 90
        2
176
     0
  1
strokes_ogs.tif
176
     0
290
     0
176
     0
 40
1.0
176
     0
 40
1.0
176
     0
  0
VISUALSTYLE
  5
4FD
102
{ACAD_REACTORS
330
4EF
102
}
330
4EF
100
AcDbVisualStyle
  2
Linepattern
 70
    14
177
     3
291
     1
 70
    58
 90
        2
176
     1
 90
        2
176
     1
 90
        0
176
     1
 90
        0
176
     1
 40
0.6
176
     1
 40
30.0
176
     1
 62
     7
420
 16777215
176
     1
 90
        1
176
     1
 90
        4
176
     1
 62
     7
176
     1
 62
   257
176
     1
 90
        7
176
     1
 90
        7
176
     1
 40
1.0
176
     1
 90
        8
176
     1
 62
     7
176
     1
 40
1.0
176
     1
 90
        1
176
     1
 90
        6
176
     1
 90
        2
176
     1
 62
     7
176
     1
 90
        5
176
     1
 90
        0
176
     1
 90
        0
176
     1
290
     0
176
     1
 90
        1
176
     1
 40
0.0
176
     1
 90
        0
176
     1
290
     0
176
     1
290
     1
176
     1
290
     1
176
     1
290
     0
176
     1
290
     0
176
     1
290
     0
176
     1
290
     0
176
     1
290
     0
176
     1
290
     0
176
     1
 90
       50
176
     1
 40
0.0
176
     1
 40
1.0
176
     1
 90
        0
176
     1
 62
    18
420
        0
176
     1
 90
       50
176
     1
 90
        3
176
     1
 62
     5
420
      255
176
     1
290
     0
176
     1
 90
       50
176
     1
 90
       50
176
     1
 90
       50
176
     1
290
     0
176
     1
 90
       50
176
     1
 62
   256
176
     0
 40
1.0
176
     0
 90
        2
176
     1
  1
strokes_ogs.tif
176
     1
290
     0
176
     1
 40
1.0
176
     1
 40
1.0
176
     1
  0
VISUALSTYLE
  5
501
102
{ACAD_REACTORS
330
4EF
102
}
330
4EF
100
AcDbVisualStyle
  2
OverhangOff
 70
    21
177
     3
291
     1
 70
    58
 90
        2
176
     0
 90
        2
176
     0
 90
        0
176
     0
 90
        0
176
     0
 40
0.6
176
     0
 40
30.0
176
     0
 62
     7
420
 16777215
176
     0
 90
        1
176
     0
 90
        4
176
     0
 62
     7
176
     0
 62
   257
176
     0
 90
        1
176
     0
 90
        1
176
     0
 40
1.0
176
     0
 90
        9
176
     2
 62
     7
176
     0
 40
1.0
176
     0
 90
        1
176
     0
 90
        6
176
     0
 90
        2
176
     0
 62
     7
176
     0
 90
        5
176
     0
 90
        0
176
     0
 90
        0
176
     0
290
     0
176
     0
 90
        1
176
     0
 40
0.0
176
     0
 90
        0
176
     0
290
     0
176
     0
290
     1
176
     0
290
     1
176
     0
290
     0
176
     0
290
     0
176
     0
290
     0
176
     0
290
     0
176
     0
290
     0
176
     0
290
     0
176
     0
 90
       50
176
     0
 40
0.0
176
     0
 40
1.0
176
     0
 90
        0
176
     0
 62
    18
420
        0
176
     0
 90
       50
176
     0
 90
        3
176
     0
 62
     5
420
      255
176
     0
290
     0
176
     0
 90
       50
176
     0
 90
       50
176
     0
 90
       50
176
     0
290
     0
176
     0
 90
       50
176
     0
 62
   256
176
     0
 40
1.0
176
     0
 90
        2
176
     0
  1
strokes_ogs.tif
176
     0
290
     0
176
     0
 40
1.0
176
     0
 40
1.0
176
     0
  0
VISUALSTYLE
  5
4F8
102
{ACAD_REACTORS
330
4EF
102
}
330
4EF
100
AcDbVisualStyle
  2
Realistic
 70
     8
177
     3
291
     0
 70
    58
 90
        2
176
     1
 90
        3
176
     1
 90
        0
176
     1
 90
        2
176
     1
 40
0.6
176
     1
 40
30.0
176
     1
 62
     7
420
 16777215
176
     1
 90
        0
176
     1
 90
        0
176
     1
 62
     7
176
     1
 62
   257
176
     1
 90
        1
176
     1
 90
        1
176
     1
 40
1.0
176
     1
 90
        8
176
     1
 62
   257
176
     1
 40
1.0
176
     1
 90
        1
176
     1
 90
        6
176
     1
 90
        2
176
     1
 62
     7
176
     1
 90
        3
176
     1
 90
        0
176
     1
 90
        0
176
     1
290
     0
176
     1
 90
       13
176
     1
 40
0.0
176
     1
 90
        0
176
     1
290
     0
176
     1
290
     1
176
     1
290
     1
176
     1
290
     0
176
     1
290
     0
176
     1
290
     0
176
     1
290
     0
176
     1
290
     0
176
     1
290
     0
176
     1
 90
       50
176
     1
 40
0.0
176
     1
 40
1.0
176
     1
 90
        0
176
     1
 62
    18
420
        0
176
     1
 90
       50
176
     1
 90
        3
176
     1
 62
     5
420
      255
176
     1
290
     0
176
     1
 90
       50
176
     1
 90
       50
176
     1
 90
       50
176
     1
290
     0
176
     1
 90
       50
176
     1
 62
   256
176
     0
 40
1.0
176
     0
 90
        2
176
     1
  1
strokes_ogs.tif
176
     1
290
     0
176
     1
 40
1.0
176
     1
 40
1.0
176
     1
  0
VISUALSTYLE
  5
507
102
{ACAD_REACTORS
330
4EF
102
}
330
4EF
100
AcDbVisualStyle
  2
Shaded
 70
    27
177
     3
291
     0
 70
    58
 90
        2
176
     1
 90
        2
176
     1
 90
        1
176
     1
 90
        2
176
     1
 40
0.6
176
     1
 40
30.0
176
     1
 62
     7
420
 16777215
176
     1
 90
        0
176
     1
 90
        4
176
     1
 62
     7
176
     1
 62
   257
176
     1
 90
        1
176
     1
 90
        1
176
     1
 40
1.0
176
     1
 90
        8
176
     1
 62
   257
176
     1
 40
1.0
176
     1
 90
        1
176
     1
 90
        6
176
     1
 90
        2
176
     1
 62
     8
420
  7895160
176
     1
 90
        3
176
     1
 90
        0
176
     1
 90
        0
176
     1
290
     0
176
     1
 90
        5
176
     1
 40
0.0
176
     1
 90
        0
176
     1
290
     0
176
     1
290
     1
176
     1
290
     1
176
     1
290
     0
176
     1
290
     0
176
     1
290
     0
176
     1
290
     0
176
     1
290
     0
176
     1
290
     0
176
     1
 90
       50
176
     1
 40
0.0
176
     1
 40
1.0
176
     1
 90
        0
176
     1
 62
    18
420
        0
176
     1
 90
       50
176
     1
 90
        3
176
     1
 62
     5
420
      255
176
     1
290
     0
176
     1
 90
       50
176
     1
 90
       50
176
     1
 90
       50
176
     1
290
     0
176
     1
 90
       50
176
     1
 62
   256
176
     0
 40
1.0
176
     0
 90
        2
176
     1
  1
strokes_ogs.tif
176
     1
290
     0
176
     1
 40
1.0
176
     1
 40
1.0
176
     1
  0
VISUALSTYLE
  5
506
102
{ACAD_REACTORS
330
4EF
102
}
330
4EF
100
AcDbVisualStyle
  2
Shaded with edges
 70
    26
177
     3
291
     0
 70
    58
 90
        2
176
     1
 90
        2
176
     1
 90
        1
176
     1
 90
        2
176
     1
 40
0.6
176
     1
 40
30.0
176
     1
 62
     7
420
 16777215
176
     1
 90
        1
176
     1
 90
       10
176
     1
 62
     7
176
     1
 62
   257
176
     1
 90
        2
176
     1
 90
        1
176
     1
 40
1.0
176
     1
 90
        8
176
     1
 62
   257
176
     1
 40
1.0
176
     1
 90
        1
176
     1
 90
        6
176
     1
 90
        2
176
     1
 62
     7
176
     1
 90
        3
176
     1
 90
        0
176
     1
 90
        0
176
     1
290
     0
176
     1
 90
        5
176
     1
 40
0.0
176
     1
 90
        0
176
     1
290
     0
176
     1
290
     1
176
     1
290
     1
176
     1
290
     0
176
     1
290
     0
176
     1
290
     0
176
     1
290
     0
176
     1
290
     0
176
     1
290
     0
176
     1
 90
       50
176
     1
 40
0.0
176
     1
 40
1.0
176
     1
 90
        0
176
     1
 62
    18
420
        0
176
     1
 90
       50
176
     1
 90
        3
176
     1
 62
     5
420
      255
176
     1
290
     0
176
     1
 90
       50
176
     1
 90
       50
176
     1
 90
       50
176
     1
290
     0
176
     1
 90
       50
176
     1
 62
   256
176
     0
 40
1.0
176
     0
 90
        2
176
     1
  1
strokes_ogs.tif
176
     1
290
     0
176
     1
 40
1.0
176
     1
 40
1.0
176
     1
  0
VISUALSTYLE
  5
503
102
{ACAD_REACTORS
330
4EF
102
}
330
4EF
100
AcDbVisualStyle
  2
Shades of Gray
 70
    23
177
     3
291
     0
 70
    58
 90
        2
176
     1
 90
        2
176
     1
 90
        3
176
     1
 90
        0
176
     1
 40
0.6
176
     1
 40
30.0
176
     1
 62
     7
420
 16777215
176
     1
 90
        2
176
     1
 90
        2
176
     1
 62
     7
176
     1
 62
     7
176
     1
 90
        1
176
     1
 90
        1
176
     1
 40
40.0
176
     1
 90
        8
176
     1
 62
     7
176
     1
 40
1.0
176
     1
 90
        1
176
     1
 90
        6
176
     1
 90
        2
176
     1
 62
     7
176
     1
 90
        3
176
     1
 90
        0
176
     1
 90
        0
176
     1
290
     0
176
     1
 90
        1
176
     1
 40
0.0
176
     1
 90
        0
176
     1
290
     0
176
     1
290
     1
176
     1
290
     1
176
     1
290
     0
176
     1
290
     0
176
     1
290
     0
176
     1
290
     0
176
     1
290
     0
176
     1
290
     0
176
     1
 90
       50
176
     1
 40
0.0
176
     1
 40
1.0
176
     1
 90
        0
176
     1
 62
    18
420
        0
176
     1
 90
       50
176
     1
 90
        3
176
     1
 62
     5
420
      255
176
     1
290
     0
176
     1
 90
       50
176
     1
 90
       50
176
     1
 90
       50
176
     1
290
     0
176
     1
 90
       50
176
     1
 62
   256
176
     0
 40
1.0
176
     0
 90
        2
176
     1
  1
strokes_ogs.tif
176
     1
290
     0
176
     1
 40
1.0
176
     1
 40
1.0
176
     1
  0
VISUALSTYLE
  5
504
102
{ACAD_REACTORS
330
4EF
102
}
330
4EF
100
AcDbVisualStyle
  2
Sketchy
 70
    24
177
     3
291
     0
 70
    58
 90
        1
176
     1
 90
        2
176
     1
 90
        2
176
     1
 90
        0
176
     1
 40
0.6
176
     1
 40
30.0
176
     1
 62
     7
420
 16777215
176
     1
 90
        2
176
     1
 90
        2
176
     1
 62
     7
176
     1
 62
     7
176
     1
 90
        1
176
     1
 90
        1
176
     1
 40
40.0
176
     1
 90
       11
176
     1
 62
     7
176
     1
 40
1.0
176
     1
 90
        1
176
     1
 90
        6
176
     1
 90
        2
176
     1
 62
     7
176
     1
 90
        6
176
     1
 90
        0
176
     1
 90
        0
176
     1
290
     0
176
     1
 90
        1
176
     1
 40
0.0
176
     1
 90
        0
176
     1
290
     0
176
     1
290
     1
176
     1
290
     1
176
     1
290
     0
176
     1
290
     0
176
     1
290
     0
176
     1
290
     0
176
     1
290
     0
176
     1
290
     0
176
     1
 90
       50
176
     1
 40
0.0
176
     1
 40
1.0
176
     1
 90
        0
176
     1
 62
    18
420
        0
176
     1
 90
       50
176
     1
 90
        3
176
     1
 62
     5
420
      255
176
     1
290
     0
176
     1
 90
       50
176
     1
 90
       50
176
     1
 90
       50
176
     1
290
     0
176
     1
 90
       50
176
     1
 62
   256
176
     0
 40
1.0
176
     0
 90
        2
176
     1
  1
strokes_ogs.tif
176
     1
290
     0
176
     1
 40
1.0
176
     1
 40
1.0
176
     1
  0
VISUALSTYLE
  5
4FC
102
{ACAD_REACTORS
330
4EF
102
}
330
4EF
100
AcDbVisualStyle
  2
Thicken
 70
    13
177
     3
291
     1
 70
    58
 90
        2
176
     1
 90
        2
176
     1
 90
        0
176
     1
 90
        0
176
     1
 40
0.6
176
     1
 40
30.0
176
     1
 62
     7
420
 16777215
176
     1
 90
        1
176
     1
 90
        4
176
     1
 62
     7
176
     1
 62
   257
176
     1
 90
        1
176
     1
 90
        1
176
     1
 40
1.0
176
     1
 90
       12
176
     1
 62
     7
176
     1
 40
1.0
176
     1
 90
        1
176
     1
 90
        6
176
     1
 90
        2
176
     1
 62
     7
176
     1
 90
        5
176
     1
 90
        0
176
     1
 90
        0
176
     1
290
     0
176
     1
 90
        1
176
     1
 40
0.0
176
     1
 90
        0
176
     1
290
     0
176
     1
290
     1
176
     1
290
     1
176
     1
290
     0
176
     1
290
     0
176
     1
290
     0
176
     1
290
     0
176
     1
290
     0
176
     1
290
     0
176
     1
 90
       50
176
     1
 40
0.0
176
     1
 40
1.0
176
     1
 90
        0
176
     1
 62
    18
420
        0
176
     1
 90
       50
176
     1
 90
        3
176
     1
 62
     5
420
      255
176
     1
290
     0
176
     1
 90
       50
176
     1
 90
       50
176
     1
 90
       50
176
     1
290
     0
176
     1
 90
       50
176
     1
 62
   256
176
     0
 40
1.0
176
     0
 90
        2
176
     1
  1
strokes_ogs.tif
176
     1
290
     0
176
     1
 40
1.0
176
     1
 40
1.0
176
     1
  0
VISUALSTYLE
  5
4F5
102
{ACAD_REACTORS
330
4EF
102
}
330
4EF
100
AcDbVisualStyle
  2
Wireframe
 70
     5
177
     3
291
     0
 70
    58
 90
        0
176
     1
 90
        2
176
     1
 90
        0
176
     1
 90
        0
176
     1
 40
0.6
176
     1
 40
30.0
176
     1
 62
     7
420
 16777215
176
     1
 90
        1
176
     1
 90
        4
176
     1
 62
     7
176
     1
 62
   257
176
     1
 90
        1
176
     1
 90
        1
176
     1
 40
1.0
176
     1
 90
        0
176
     1
 62
   257
176
     1
 40
1.0
176
     1
 90
        1
176
     1
 90
        6
176
     1
 90
        2
176
     1
 62
     7
176
     1
 90
        3
176
     1
 90
        0
176
     1
 90
        0
176
     1
290
     0
176
     1
 90
        1
176
     1
 40
0.0
176
     1
 90
        0
176
     1
290
     0
176
     1
290
     1
176
     1
290
     1
176
     1
290
     0
176
     1
290
     0
176
     1
290
     0
176
     1
290
     0
176
     1
290
     0
176
     1
290
     0
176
     1
 90
       50
176
     1
 40
0.0
176
     1
 40
1.0
176
     1
 90
        0
176
     1
 62
    18
420
        0
176
     1
 90
       50
176
     1
 90
        3
176
     1
 62
     5
420
      255
176
     1
290
     0
176
     1
 90
       50
176
     1
 90
       50
176
     1
 90
       50
176
     1
290
     0
176
     1
 90
       50
176
     1
 62
   256
176
     0
 40
1.0
176
     0
 90
        2
176
     1
  1
strokes_ogs.tif
176
     1
290
     0
176
     1
 40
1.0
176
     1
 40
1.0
176
     1
  0
VISUALSTYLE
  5
505
102
{ACAD_REACTORS
330
4EF
102
}
330
4EF
100
AcDbVisualStyle
  2
X-Ray
 70
    25
177
     3
291
     0
 70
    58
 90
        2
176
     1
 90
        2
176
     1
 90
        1
176
     1
 90
        1
176
     1
 40
0.5
176
     1
 40
30.0
176
     1
 62
     7
420
 16777215
176
     1
 90
        1
176
     1
 90
        0
176
     1
 62
     7
176
     1
 62
   257
176
     1
 90
        1
176
     1
 90
        1
176
     1
 40
1.0
176
     1
 90
        8
176
     1
 62
     7
176
     1
 40
1.0
176
     1
 90
        1
176
     1
 90
        6
176
     1
 90
        2
176
     1
 62
     7
176
     1
 90
        3
176
     1
 90
        0
176
     1
 90
        0
176
     1
290
     0
176
     1
 90
       13
176
     1
 40
0.0
176
     1
 90
        0
176
     1
290
     0
176
     1
290
     1
176
     1
290
     1
176
     1
290
     0
176
     1
290
     0
176
     1
290
     0
176
     1
290
     0
176
     1
290
     0
176
     1
290
     0
176
     1
 90
       50
176
     1
 40
0.0
176
     1
 40
1.0
176
     1
 90
        0
176
     1
 62
    18
420
        0
176
     1
 90
       50
176
     1
 90
        3
176
     1
 62
     5
420
      255
176
     1
290
     0
176
     1
 90
       50
176
     1
 90
       50
176
     1
 90
       50
176
     1
290
     0
176
     1
 90
       50
176
     1
 62
   256
176
     0
 40
1.0
176
     0
 90
        2
176
     1
  1
strokes_ogs.tif
176
     1
290
     0
176
     1
 40
1.0
176
     1
 40
1.0
176
     1
  0
DICTIONARYVAR
  5
512
102
{ACAD_REACTORS
330
511
102
}
330
511
100
DictionaryVariables
280
     0
  1
1:1
  0
DICTIONARYVAR
  5
519
102
{ACAD_REACTORS
330
511
102
}
330
511
100
DictionaryVariables
280
     0
  1
Standard
  0
DICTIONARYVAR
  5
518
102
{ACAD_REACTORS
330
511
102
}
330
511
100
DictionaryVariables
280
     0
  1
Standard
  0
DICTIONARY
  5
513
330
4CB
100
AcDbDictionary
280
     1
281
     1
  3
ACAD_ROUNDTRIP_2008_TABLESTYLE_CELLSTYLEMAP
360
514
  0
DICTIONARY
  5
515
330
4CC
100
AcDbDictionary
280
     1
281
     1
  3
ACAD_ROUNDTRIP_2008_TABLESTYLE_CELLSTYLEMAP
360
516
  0
CELLSTYLEMAP
  5
514
102
{ACAD_REACTORS
330
513
102
}
330
513
100
AcDbCellStyleMap
 90
        3
300
CELLSTYLE
  1
TABLEFORMAT_BEGIN
 90
        5
170
     1
 91
        0
 92
    32768
 62
   257
 93
        1
300
CONTENTFORMAT
  1
CONTENTFORMAT_BEGIN
 90
        0
 91
        0
 92
        4
 93
        0
300

 40
0.0
140
1.0
 94
        1
 62
     0
340
11
144
0.18
309
CONTENTFORMAT_END
171
     1
301
MARGIN
  1
CELLMARGIN_BEGIN
 40
0.06
 40
0.06
 40
0.06
 40
0.06
 40
0.18
 40
0.18
309
CELLMARGIN_END
 94
        6
 95
        1
302
GRIDFORMAT
  1
GRIDFORMAT_BEGIN
 90
        0
 91
        1
 62
     0
 92
       -2
340
0
 93
        0
 40
0.045
309
GRIDFORMAT_END
 95
        2
302
GRIDFORMAT
  1
GRIDFORMAT_BEGIN
 90
        0
 91
        1
 62
     0
 92
       -2
340
0
 93
        0
 40
0.045
309
GRIDFORMAT_END
 95
        4
302
GRIDFORMAT
  1
GRIDFORMAT_BEGIN
 90
        0
 91
        1
 62
     0
 92
       -2
340
0
 93
        0
 40
0.045
309
GRIDFORMAT_END
 95
        8
302
GRIDFORMAT
  1
GRIDFORMAT_BEGIN
 90
        0
 91
        1
 62
     0
 92
       -2
340
0
 93
        0
 40
0.045
309
GRIDFORMAT_END
 95
       16
302
GRIDFORMAT
  1
GRIDFORMAT_BEGIN
 90
        0
 91
        1
 62
     0
 92
       -2
340
0
 93
        0
 40
0.045
309
GRIDFORMAT_END
 95
       32
302
GRIDFORMAT
  1
GRIDFORMAT_BEGIN
 90
        0
 91
        1
 62
     0
 92
       -2
340
0
 93
        0
 40
0.045
309
GRIDFORMAT_END
309
TABLEFORMAT_END
  1
CELLSTYLE_BEGIN
 90
        1
 91
        1
300
_TITLE
309
CELLSTYLE_END
300
CELLSTYLE
  1
TABLEFORMAT_BEGIN
 90
        5
170
     1
 91
        0
 92
        0
 62
   257
 93
        1
300
CONTENTFORMAT
  1
CONTENTFORMAT_BEGIN
 90
        0
 91
        0
 92
        4
 93
        0
300

 40
0.0
140
1.0
 94
        1
 62
     0
340
11
144
0.18
309
CONTENTFORMAT_END
171
     1
301
MARGIN
  1
CELLMARGIN_BEGIN
 40
0.06
 40
0.06
 40
0.06
 40
0.06
 40
0.18
 40
0.18
309
CELLMARGIN_END
 94
        6
 95
        1
302
GRIDFORMAT
  1
GRIDFORMAT_BEGIN
 90
        0
 91
        1
 62
     0
 92
       -2
340
0
 93
        0
 40
0.045
309
GRIDFORMAT_END
 95
        2
302
GRIDFORMAT
  1
GRIDFORMAT_BEGIN
 90
        0
 91
        1
 62
     0
 92
       -2
340
0
 93
        0
 40
0.045
309
GRIDFORMAT_END
 95
        4
302
GRIDFORMAT
  1
GRIDFORMAT_BEGIN
 90
        0
 91
        1
 62
     0
 92
       -2
340
0
 93
        0
 40
0.045
309
GRIDFORMAT_END
 95
        8
302
GRIDFORMAT
  1
GRIDFORMAT_BEGIN
 90
        0
 91
        1
 62
     0
 92
       -2
340
0
 93
        0
 40
0.045
309
GRIDFORMAT_END
 95
       16
302
GRIDFORMAT
  1
GRIDFORMAT_BEGIN
 90
        0
 91
        1
 62
     0
 92
       -2
340
0
 93
        0
 40
0.045
309
GRIDFORMAT_END
 95
       32
302
GRIDFORMAT
  1
GRIDFORMAT_BEGIN
 90
        0
 91
        1
 62
     0
 92
       -2
340
0
 93
        0
 40
0.045
309
GRIDFORMAT_END
309
TABLEFORMAT_END
  1
CELLSTYLE_BEGIN
 90
        2
 91
        1
300
_HEADER
309
CELLSTYLE_END
300
CELLSTYLE
  1
TABLEFORMAT_BEGIN
 90
        5
170
     1
 91
        0
 92
        0
 62
   257
 93
        1
300
CONTENTFORMAT
  1
CONTENTFORMAT_BEGIN
 90
        0
 91
        0
 92
        4
 93
        0
300

 40
0.0
140
1.0
 94
        1
 62
     0
340
11
144
0.18
309
CONTENTFORMAT_END
171
     1
301
MARGIN
  1
CELLMARGIN_BEGIN
 40
0.06
 40
0.06
 40
0.06
 40
0.06
 40
0.18
 40
0.18
309
CELLMARGIN_END
 94
        6
 95
        1
302
GRIDFORMAT
  1
GRIDFORMAT_BEGIN
 90
        0
 91
        1
 62
     0
 92
       -2
340
0
 93
        0
 40
0.045
309
GRIDFORMAT_END
 95
        2
302
GRIDFORMAT
  1
GRIDFORMAT_BEGIN
 90
        0
 91
        1
 62
     0
 92
       -2
340
0
 93
        0
 40
0.045
309
GRIDFORMAT_END
 95
        4
302
GRIDFORMAT
  1
GRIDFORMAT_BEGIN
 90
        0
 91
        1
 62
     0
 92
       -2
340
0
 93
        0
 40
0.045
309
GRIDFORMAT_END
 95
        8
302
GRIDFORMAT
  1
GRIDFORMAT_BEGIN
 90
        0
 91
        1
 62
     0
 92
       -2
340
0
 93
        0
 40
0.045
309
GRIDFORMAT_END
 95
       16
302
GRIDFORMAT
  1
GRIDFORMAT_BEGIN
 90
        0
 91
        1
 62
     0
 92
       -2
340
0
 93
        0
 40
0.045
309
GRIDFORMAT_END
 95
       32
302
GRIDFORMAT
  1
GRIDFORMAT_BEGIN
 90
        0
 91
        1
 62
     0
 92
       -2
340
0
 93
        0
 40
0.045
309
GRIDFORMAT_END
309
TABLEFORMAT_END
  1
CELLSTYLE_BEGIN
 90
        3
 91
        2
300
_DATA
309
CELLSTYLE_END
  0
CELLSTYLEMAP
  5
516
102
{ACAD_REACTORS
330
515
102
}
330
515
100
AcDbCellStyleMap
 90
        3
300
CELLSTYLE
  1
TABLEFORMAT_BEGIN
 90
        5
170
     1
 91
        0
 92
    32768
 62
   257
 93
        1
300
CONTENTFORMAT
  1
CONTENTFORMAT_BEGIN
 90
        0
 91
        0
 92
        4
 93
        0
300

 40
0.0
140
1.0
 94
        1
 62
     0
340
11
144
0.18
309
CONTENTFORMAT_END
171
     1
301
MARGIN
  1
CELLMARGIN_BEGIN
 40
0.06
 40
0.06
 40
0.06
 40
0.06
 40
0.18
 40
0.18
309
CELLMARGIN_END
 94
        6
 95
        1
302
GRIDFORMAT
  1
GRIDFORMAT_BEGIN
 90
        0
 91
        1
 62
     0
 92
       -2
340
0
 93
        0
 40
0.045
309
GRIDFORMAT_END
 95
        2
302
GRIDFORMAT
  1
GRIDFORMAT_BEGIN
 90
        0
 91
        1
 62
     0
 92
       -2
340
0
 93
        0
 40
0.045
309
GRIDFORMAT_END
 95
        4
302
GRIDFORMAT
  1
GRIDFORMAT_BEGIN
 90
        0
 91
        1
 62
     0
 92
       -2
340
0
 93
        0
 40
0.045
309
GRIDFORMAT_END
 95
        8
302
GRIDFORMAT
  1
GRIDFORMAT_BEGIN
 90
        0
 91
        1
 62
     0
 92
       -2
340
0
 93
        0
 40
0.045
309
GRIDFORMAT_END
 95
       16
302
GRIDFORMAT
  1
GRIDFORMAT_BEGIN
 90
        0
 91
        1
 62
     0
 92
       -2
340
0
 93
        0
 40
0.045
309
GRIDFORMAT_END
 95
       32
302
GRIDFORMAT
  1
GRIDFORMAT_BEGIN
 90
        0
 91
        1
 62
     0
 92
       -2
340
0
 93
        0
 40
0.045
309
GRIDFORMAT_END
309
TABLEFORMAT_END
  1
CELLSTYLE_BEGIN
 90
        1
 91
        1
300
_TITLE
309
CELLSTYLE_END
300
CELLSTYLE
  1
TABLEFORMAT_BEGIN
 90
        5
170
     1
 91
        0
 92
        0
 62
   257
 93
        1
300
CONTENTFORMAT
  1
CONTENTFORMAT_BEGIN
 90
        0
 91
        0
 92
        4
 93
        0
300

 40
0.0
140
1.0
 94
        1
 62
     0
340
11
144
0.18
309
CONTENTFORMAT_END
171
     1
301
MARGIN
  1
CELLMARGIN_BEGIN
 40
0.06
 40
0.06
 40
0.06
 40
0.06
 40
0.18
 40
0.18
309
CELLMARGIN_END
 94
        6
 95
        1
302
GRIDFORMAT
  1
GRIDFORMAT_BEGIN
 90
        0
 91
        1
 62
     0
 92
       -2
340
0
 93
        0
 40
0.045
309
GRIDFORMAT_END
 95
        2
302
GRIDFORMAT
  1
GRIDFORMAT_BEGIN
 90
        0
 91
        1
 62
     0
 92
       -2
340
0
 93
        0
 40
0.045
309
GRIDFORMAT_END
 95
        4
302
GRIDFORMAT
  1
GRIDFORMAT_BEGIN
 90
        0
 91
        1
 62
     0
 92
       -2
340
0
 93
        0
 40
0.045
309
GRIDFORMAT_END
 95
        8
302
GRIDFORMAT
  1
GRIDFORMAT_BEGIN
 90
        0
 91
        1
 62
     0
 92
       -2
340
0
 93
        0
 40
0.045
309
GRIDFORMAT_END
 95
       16
302
GRIDFORMAT
  1
GRIDFORMAT_BEGIN
 90
        0
 91
        1
 62
     0
 92
       -2
340
0
 93
        0
 40
0.045
309
GRIDFORMAT_END
 95
       32
302
GRIDFORMAT
  1
GRIDFORMAT_BEGIN
 90
        0
 91
        1
 62
     0
 92
       -2
340
0
 93
        0
 40
0.045
309
GRIDFORMAT_END
309
TABLEFORMAT_END
  1
CELLSTYLE_BEGIN
 90
        2
 91
        1
300
_HEADER
309
CELLSTYLE_END
300
CELLSTYLE
  1
TABLEFORMAT_BEGIN
 90
        5
170
     1
 91
        0
 92
        0
 62
   257
 93
        1
300
CONTENTFORMAT
  1
CONTENTFORMAT_BEGIN
 90
        0
 91
        0
 92
        4
 93
        0
300

 40
0.0
140
1.0
 94
        1
 62
     0
340
11
144
0.18
309
CONTENTFORMAT_END
171
     1
301
MARGIN
  1
CELLMARGIN_BEGIN
 40
0.06
 40
0.06
 40
0.06
 40
0.06
 40
0.18
 40
0.18
309
CELLMARGIN_END
 94
        6
 95
        1
302
GRIDFORMAT
  1
GRIDFORMAT_BEGIN
 90
        0
 91
        1
 62
     0
 92
       -2
340
0
 93
        0
 40
0.045
309
GRIDFORMAT_END
 95
        2
302
GRIDFORMAT
  1
GRIDFORMAT_BEGIN
 90
        0
 91
        1
 62
     0
 92
       -2
340
0
 93
        0
 40
0.045
309
GRIDFORMAT_END
 95
        4
302
GRIDFORMAT
  1
GRIDFORMAT_BEGIN
 90
        0
 91
        1
 62
     0
 92
       -2
340
0
 93
        0
 40
0.045
309
GRIDFORMAT_END
 95
        8
302
GRIDFORMAT
  1
GRIDFORMAT_BEGIN
 90
        0
 91
        1
 62
     0
 92
       -2
340
0
 93
        0
 40
0.045
309
GRIDFORMAT_END
 95
       16
302
GRIDFORMAT
  1
GRIDFORMAT_BEGIN
 90
        0
 91
        1
 62
     0
 92
       -2
340
0
 93
        0
 40
0.045
309
GRIDFORMAT_END
 95
       32
302
GRIDFORMAT
  1
GRIDFORMAT_BEGIN
 90
        0
 91
        1
 62
     0
 92
       -2
340
0
 93
        0
 40
0.045
309
GRIDFORMAT_END
309
TABLEFORMAT_END
  1
CELLSTYLE_BEGIN
 90
        3
 91
        2
300
_DATA
309
CELLSTYLE_END
  0
ENDSEC
  0
EOF
