  0
SECTION
  2
HEADER
  9
$ACADVER
  1
AC1027
  9
$ACADMAINTVER
 70
   105
  9
$DWGCODEPAGE
  3
ANSI_1252
  9
$REQUIREDVERSIONS
160
                 0
  9
$LASTSAVEDBY
  1
andrea.zolin
  9
$INSBASE
 10
0.0
 20
0.0
 30
0.0
  9
$EXTMIN
 10
0.0
 20
0.0
 30
0.0
  9
$EXTMAX
 10
1189.0
 20
841.0
 30
0.0
  9
$LIMMIN
 10
0.0
 20
0.0
  9
$LIMMAX
 10
1189.0
 20
841.0
  9
$ORTHOMODE
 70
     0
  9
$REGENMODE
 70
     1
  9
$FILLMODE
 70
     1
  9
$QTEXTMODE
 70
     0
  9
$MIRRTEXT
 70
     1
  9
$LTSCALE
 40
65.395
  9
$ATTMODE
 70
     1
  9
$TEXTSIZE
 40
0.2
  9
$TRACEWID
 40
0.05
  9
$TEXTSTYLE
  7
STANDARD
  9
$CLAYER
  8
0
  9
$CELTYPE
  6
BYLAYER
  9
$CECOLOR
 62
   256
  9
$CELTSCALE
 40
1.0
  9
$DISPSILH
 70
     0
  9
$DIMSCALE
 40
1.0
  9
$DIMASZ
 40
2.5
  9
$DIMEXO
 40
0.75
  9
$DIMDLI
 40
45.182
  9
$DIMRND
 40
0.0
  9
$DIMDLE
 40
0.0
  9
$DIMEXE
 40
0.75
  9
$DIMTP
 40
0.01
  9
$DIMTM
 40
0.01
  9
$DIMTXT
 40
3.0
  9
$DIMCEN
 40
10.701
  9
$DIMTSZ
 40
0.0
  9
$DIMTOL
 70
     1
  9
$DIMLIM
 70
     0
  9
$DIMTIH
 70
     1
  9
$DIMTOH
 70
     1
  9
$DIMSE1
 70
     0
  9
$DIMSE2
 70
     0
  9
$DIMTAD
 70
     0
  9
$DIMZIN
 70
     0
  9
$DIMBLK
  1
CLOSED
  9
$DIMASO
 70
     1
  9
$DIMSHO
 70
     1
  9
$DIMPOST
  1

  9
$DIMAPOST
  1

  9
$DIMALT
 70
     0
  9
$DIMALTD
 70
     2
  9
$DIMALTF
 40
25.4
  9
$DIMLFAC
 40
1.0
  9
$DIMTOFL
 70
     0
  9
$DIMTVP
 40
0.0
  9
$DIMTIX
 70
     0
  9
$DIMSOXD
 70
     0
  9
$DIMSAH
 70
     0
  9
$DIMBLK1
  1

  9
$DIMBLK2
  1

  9
$DIMSTYLE
  2
STANDARD
  9
$DIMCLRD
 70
     0
  9
$DIMCLRE
 70
     0
  9
$DIMCLRT
 70
     0
  9
$DIMTFAC
 40
1.0
  9
$DIMGAP
 40
0.625
  9
$DIMJUST
 70
     0
  9
$DIMSD1
 70
     0
  9
$DIMSD2
 70
     0
  9
$DIMTOLJ
 70
     1
  9
$DIMTZIN
 70
     0
  9
$DIMALTZ
 70
     0
  9
$DIMALTTZ
 70
     0
  9
$DIMUPT
 70
     0
  9
$DIMDEC
 70
     4
  9
$DIMTDEC
 70
     4
  9
$DIMALTU
 70
     2
  9
$DIMALTTD
 70
     2
  9
$DIMTXSTY
  7
STANDARD
  9
$DIMAUNIT
 70
     0
  9
$DIMADEC
 70
     0
  9
$DIMALTRND
 40
0.0
  9
$DIMAZIN
 70
     0
  9
$DIMDSEP
 70
    46
  9
$DIMATFIT
 70
     3
  9
$DIMFRAC
 70
     0
  9
$DIMLDRBLK
  1

  9
$DIMLUNIT
 70
     2
  9
$DIMLWD
 70
    -2
  9
$DIMLWE
 70
    -2
  9
$DIMTMOVE
 70
     2
  9
$DIMFXL
 40
1.0
  9
$DIMFXLON
 70
     0
  9
$DIMJOGANG
 40
0.7853981633974483
  9
$DIMTFILL
 70
     0
  9
$DIMTFILLCLR
 70
     0
  9
$DIMARCSYM
 70
     0
  9
$DIMLTYPE
  6

  9
$DIMLTEX1
  6

  9
$DIMLTEX2
  6

  9
$DIMTXTDIRECTION
 70
     0
  9
$LUNITS
 70
     2
  9
$LUPREC
 70
     4
  9
$SKETCHINC
 40
0.1
  9
$FILLETRAD
 40
0.5
  9
$AUNITS
 70
     0
  9
$AUPREC
 70
     0
  9
$MENU
  1
.
  9
$ELEVATION
 40
0.0
  9
$PELEVATION
 40
0.0
  9
$THICKNESS
 40
0.0
  9
$LIMCHECK
 70
     0
  9
$CHAMFERA
 40
0.0
  9
$CHAMFERB
 40
0.0
  9
$CHAMFERC
 40
0.0
  9
$CHAMFERD
 40
0.0
  9
$SKPOLY
 70
     0
  9
$TDCREATE
 40
2447893.041666667
  9
$TDUCREATE
 40
0.0
  9
$TDUPDATE
 40
2458466.463936887
  9
$TDUUPDATE
 40
2458466.42227022
  9
$TDINDWG
 40
0.0002375347
  9
$TDUSRTIMER
 40
0.0002375347
  9
$USRTIMER
 70
     1
  9
$ANGBASE
 50
0.0
  9
$ANGDIR
 70
     0
  9
$PDMODE
 70
     3
  9
$PDSIZE
 40
0.3125
  9
$PLINEWID
 40
0.0
  9
$SPLFRAME
 70
     0
  9
$SPLINETYPE
 70
     6
  9
$SPLINESEGS
 70
     8
  9
$HANDSEED
  5
4EA
  9
$SURFTAB1
 70
     6
  9
$SURFTAB2
 70
     6
  9
$SURFTYPE
 70
     6
  9
$SURFU
 70
     6
  9
$SURFV
 70
     6
  9
$UCSBASE
  2

  9
$UCSNAME
  2

  9
$UCSORG
 10
0.0
 20
0.0
 30
0.0
  9
$UCSXDIR
 10
1.0
 20
0.0
 30
0.0
  9
$UCSYDIR
 10
0.0
 20
1.0
 30
0.0
  9
$UCSORTHOREF
  2

  9
$UCSORTHOVIEW
 70
     0
  9
$UCSORGTOP
 10
0.0
 20
0.0
 30
0.0
  9
$UCSORGBOTTOM
 10
0.0
 20
0.0
 30
0.0
  9
$UCSORGLEFT
 10
0.0
 20
0.0
 30
0.0
  9
$UCSORGRIGHT
 10
0.0
 20
0.0
 30
0.0
  9
$UCSORGFRONT
 10
0.0
 20
0.0
 30
0.0
  9
$UCSORGBACK
 10
0.0
 20
0.0
 30
0.0
  9
$PUCSBASE
  2

  9
$PUCSNAME
  2

  9
$PUCSORG
 10
0.0
 20
0.0
 30
0.0
  9
$PUCSXDIR
 10
1.0
 20
0.0
 30
0.0
  9
$PUCSYDIR
 10
0.0
 20
1.0
 30
0.0
  9
$PUCSORTHOREF
  2

  9
$PUCSORTHOVIEW
 70
     0
  9
$PUCSORGTOP
 10
0.0
 20
0.0
 30
0.0
  9
$PUCSORGBOTTOM
 10
0.0
 20
0.0
 30
0.0
  9
$PUCSORGLEFT
 10
0.0
 20
0.0
 30
0.0
  9
$PUCSORGRIGHT
 10
0.0
 20
0.0
 30
0.0
  9
$PUCSORGFRONT
 10
0.0
 20
0.0
 30
0.0
  9
$PUCSORGBACK
 10
0.0
 20
0.0
 30
0.0
  9
$USERI1
 70
     0
  9
$USERI2
 70
     0
  9
$USERI3
 70
     0
  9
$USERI4
 70
     0
  9
$USERI5
 70
     0
  9
$USERR1
 40
0.0
  9
$USERR2
 40
0.0
  9
$USERR3
 40
0.0
  9
$USERR4
 40
0.0
  9
$USERR5
 40
0.0
  9
$WORLDVIEW
 70
     1
  9
$SHADEDGE
 70
     3
  9
$SHADEDIF
 70
    70
  9
$TILEMODE
 70
     0
  9
$MAXACTVP
 70
    64
  9
$PINSBASE
 10
0.0
 20
0.0
 30
0.0
  9
$PLIMCHECK
 70
     0
  9
$PEXTMIN
 10
-3.0
 20
0.0
 30
0.0
  9
$PEXTMAX
 10
1189.0
 20
841.0
 30
0.0
  9
$PLIMMIN
 10
-27.54280155642023
 20
-65.44747081712062
  9
$PLIMMAX
 10
1346.854085603113
 20
906.4474708171206
  9
$UNITMODE
 70
     0
  9
$VISRETAIN
 70
     1
  9
$PLINEGEN
 70
     0
  9
$PSLTSCALE
 70
     1
  9
$TREEDEPTH
 70
  3020
  9
$CMLSTYLE
  2
STANDARD
  9
$CMLJUST
 70
     0
  9
$CMLSCALE
 40
1.0
  9
$PROXYGRAPHICS
 70
     1
  9
$MEASUREMENT
 70
     1
  9
$CELWEIGHT
370
    -1
  9
$ENDCAPS
280
     0
  9
$JOINSTYLE
280
     0
  9
$LWDISPLAY
290
     0
  9
$INSUNITS
 70
     0
  9
$HYPERLINKBASE
  1

  9
$STYLESHEET
  1

  9
$XEDIT
290
     1
  9
$CEPSNTYPE
380
     0
  9
$PSTYLEMODE
290
     1
  9
$FINGERPRINTGUID
  2
{81D91A89-50C9-4AE9-942E-376D2FF806ED}
  9
$VERSIONGUID
  2
{FAEB1C32-E019-11D5-929B-00C0DF256EC4}
  9
$EXTNAMES
290
     1
  9
$PSVPSCALE
 40
0.0
  9
$OLESTARTUP
290
     0
  9
$SORTENTS
280
   127
  9
$INDEXCTL
280
     0
  9
$HIDETEXT
280
     1
  9
$XCLIPFRAME
280
     2
  9
$HALOGAP
280
     0
  9
$OBSCOLOR
 70
   257
  9
$OBSLTYPE
280
     0
  9
$INTERSECTIONDISPLAY
280
     0
  9
$INTERSECTIONCOLOR
 70
   257
  9
$DIMASSOC
280
     2
  9
$PROJECTNAME
  1

  9
$CAMERADISPLAY
290
     0
  9
$LENSLENGTH
 40
50.0
  9
$CAMERAHEIGHT
 40
0.0
  9
$STEPSPERSEC
 40
2.0
  9
$STEPSIZE
 40
6.0
  9
$3DDWFPREC
 40
2.0
  9
$PSOLWIDTH
 40
0.25
  9
$PSOLHEIGHT
 40
4.0
  9
$LOFTANG1
 40
1.570796326794897
  9
$LOFTANG2
 40
1.570796326794897
  9
$LOFTMAG1
 40
0.0
  9
$LOFTMAG2
 40
0.0
  9
$LOFTPARAM
 70
     7
  9
$LOFTNORMALS
280
     1
  9
$LATITUDE
 40
37.795
  9
$LONGITUDE
 40
-122.394
  9
$NORTHDIRECTION
 40
0.0
  9
$TIMEZONE
 70
 -8000
  9
$LIGHTGLYPHDISPLAY
280
     1
  9
$TILEMODELIGHTSYNCH
280
     1
  9
$SOLIDHIST
280
     0
  9
$SHOWHIST
280
     1
  9
$DWFFRAME
280
     2
  9
$DGNFRAME
280
     2
  9
$REALWORLDSCALE
290
     1
  9
$INTERFERECOLOR
 62
   256
  9
$CSHADOW
280
     0
  9
$SHADOWPLANELOCATION
 40
0.0
  0
ENDSEC
  0
SECTION
  2
CLASSES
  0
CLASS
  1
ACDBDICTIONARYWDFLT
  2
AcDbDictionaryWithDefault
  3
ObjectDBX Classes
 90
        0
 91
        4
280
     0
281
     0
  0
CLASS
  1
SCALE
  2
AcDbScale
  3
ObjectDBX Classes
 90
     1153
 91
        4
280
     0
281
     0
  0
CLASS
  1
VISUALSTYLE
  2
AcDbVisualStyle
  3
ObjectDBX Classes
 90
     4095
 91
        4
280
     0
281
     0
  0
CLASS
  1
MATERIAL
  2
AcDbMaterial
  3
ObjectDBX Classes
 90
     1153
 91
        4
280
     0
281
     0
  0
CLASS
  1
TABLESTYLE
  2
AcDbTableStyle
  3
ObjectDBX Classes
 90
     4095
 91
        4
280
     0
281
     0
  0
CLASS
  1
MLEADERSTYLE
  2
AcDbMLeaderStyle
  3
ACDB_MLEADERSTYLE_CLASS
 90
     4095
 91
        4
280
     0
281
     0
  0
CLASS
  1
DICTIONARYVAR
  2
AcDbDictionaryVar
  3
ObjectDBX Classes
 90
        0
 91
        4
280
     0
281
     0
  0
CLASS
  1
CELLSTYLEMAP
  2
AcDbCellStyleMap
  3
ObjectDBX Classes
 90
     1152
 91
        4
280
     0
281
     0
  0
ENDSEC
  0
SECTION
  2
TABLES
  0
TABLE
  2
VPORT
  5
8
330
0
100
AcDbSymbolTable
 70
     1
  0
VPORT
  5
1F4
330
8
100
AcDbSymbolTableRecord
100
AcDbViewportTableRecord
  2
*ACTIVE
 70
     0
 10
0.0
 20
0.0
 11
1.0
 21
1.0
 12
594.5
 22
420.5
 13
0.0
 23
0.0
 14
1.0
 24
1.0
 15
0.0
 25
0.0
 16
0.0
 26
0.0
 36
1.0
 17
0.0
 27
0.0
 37
0.0
 40
841.0
 41
1.4137931034
 42
50.0
 43
0.0
 44
0.0
 50
0.0
 51
0.0
 71
     0
 72
   100
 73
     1
 74
     1
 75
     0
 76
     0
 77
     0
 78
     0
281
     0
 65
     1
110
0.0
120
0.0
130
0.0
111
1.0
121
0.0
131
0.0
112
0.0
122
1.0
132
0.0
 79
     0
146
0.0
348
4C3
 60
     3
 61
     5
292
     1
282
     1
141
0.0
142
0.0
 63
   256
  0
ENDTAB
  0
TABLE
  2
LTYPE
  5
5
330
0
100
AcDbSymbolTable
 70
     6
  0
LTYPE
  5
14
330
5
100
AcDbSymbolTableRecord
100
AcDbLinetypeTableRecord
  2
BYBLOCK
 70
     0
  3

 72
    65
 73
     0
 40
0.0
  0
LTYPE
  5
15
330
5
100
AcDbSymbolTableRecord
100
AcDbLinetypeTableRecord
  2
BYLAYER
 70
     0
  3

 72
    65
 73
     0
 40
0.0
  0
LTYPE
  5
16
330
5
100
AcDbSymbolTableRecord
100
AcDbLinetypeTableRecord
  2
CONTINUOUS
 70
     0
  3
Solid line
 72
    65
 73
     0
 40
0.0
  0
LTYPE
  5
1F5
330
5
100
AcDbSymbolTableRecord
100
AcDbLinetypeTableRecord
  2
CENTER
 70
     0
  3
____ _ ____ _ ____ _ ____ _ ____ _ ____ _ ____
 72
    65
 73
     4
 40
0.6
 49
0.375
 74
     0
 49
-0.075
 74
     0
 49
0.075
 74
     0
 49
-0.075
 74
     0
  0
LTYPE
  5
1F6
330
5
100
AcDbSymbolTableRecord
100
AcDbLinetypeTableRecord
  2
HIDDEN
 70
     0
  3
- - - - - - - - - - - - - - - - - - - -
 72
    65
 73
     2
 40
0.2
 49
0.1
 74
     0
 49
-0.1
 74
     0
  0
LTYPE
  5
1F7
330
5
100
AcDbSymbolTableRecord
100
AcDbLinetypeTableRecord
  2
PHANTOM
 70
     0
  3
_____ _ _ _____ _ _ _____ _ _ _____
 72
    65
 73
     6
 40
0.8
 49
0.45
 74
     0
 49
-0.05
 74
     0
 49
0.1
 74
     0
 49
-0.05
 74
     0
 49
0.1
 74
     0
 49
-0.05
 74
     0
  0
LTYPE
  5
1F8
330
5
100
AcDbSymbolTableRecord
100
AcDbLinetypeTableRecord
  2
DOT
 70
     0
  3
. . . . . . . . . . . . . . . . . . . .
 72
    65
 73
     2
 40
0.2
 49
0.1
 74
     0
 49
-0.1
 74
     0
  0
LTYPE
  5
1F9
330
5
100
AcDbSymbolTableRecord
100
AcDbLinetypeTableRecord
  2
DASHED
 70
     0
  3
- - - - - - - - - - - - - - - - - - - -
 72
    65
 73
     2
 40
0.2
 49
0.1
 74
     0
 49
-0.1
 74
     0
  0
ENDTAB
  0
TABLE
  2
LAYER
  5
2
330
0
100
AcDbSymbolTable
 70
    40
  0
LAYER
  5
10
330
2
100
AcDbSymbolTableRecord
100
AcDbLayerTableRecord
  2
0
 70
     0
 62
     7
  6
CONTINUOUS
370
    -3
390
498
347
4DA
348
0
  0
LAYER
  5
1FA
330
2
100
AcDbSymbolTableRecord
100
AcDbLayerTableRecord
  2
DEFAULT_1
 70
     0
 62
     7
  6
CENTER
370
    -3
390
498
347
4DA
348
0
  0
LAYER
  5
1FB
330
2
100
AcDbSymbolTableRecord
100
AcDbLayerTableRecord
  2
DEFAULT_2
 70
     0
 62
     8
  6
HIDDEN
370
    -3
390
498
347
4DA
348
0
  0
LAYER
  5
1FC
330
2
100
AcDbSymbolTableRecord
100
AcDbLayerTableRecord
  2
DEFAULT_3
 70
     0
 62
     7
  6
PHANTOM
370
    -3
390
498
347
4DA
348
0
  0
LAYER
  5
1FD
330
2
100
AcDbSymbolTableRecord
100
AcDbLayerTableRecord
  2
01_ALL_DTM_PLN
 70
     0
 62
     7
  6
CONTINUOUS
370
    -3
390
498
347
4DA
348
0
  0
LAYER
  5
1FE
330
2
100
AcDbSymbolTableRecord
100
AcDbLayerTableRecord
  2
01__ASM_ALL_DTM_PLN
 70
     0
 62
     7
  6
CONTINUOUS
370
    -3
390
498
347
4DA
348
0
  0
LAYER
  5
1FF
330
2
100
AcDbSymbolTableRecord
100
AcDbLayerTableRecord
  2
01__ASM_DEF_DTM_PLN
 70
     0
 62
     7
  6
CONTINUOUS
370
    -3
390
498
347
4DA
348
0
  0
LAYER
  5
200
330
2
100
AcDbSymbolTableRecord
100
AcDbLayerTableRecord
  2
01___PRT_ALL_DTM_PLN
 70
     0
 62
     7
  6
CONTINUOUS
370
    -3
390
498
347
4DA
348
0
  0
LAYER
  5
201
330
2
100
AcDbSymbolTableRecord
100
AcDbLayerTableRecord
  2
01___PRT_DEF_DTM_PLN
 70
     0
 62
     7
  6
CONTINUOUS
370
    -3
390
498
347
4DA
348
0
  0
LAYER
  5
202
330
2
100
AcDbSymbolTableRecord
100
AcDbLayerTableRecord
  2
02_ALL_AXES
 70
     0
 62
     7
  6
CONTINUOUS
370
    -3
390
498
347
4DA
348
0
  0
LAYER
  5
203
330
2
100
AcDbSymbolTableRecord
100
AcDbLayerTableRecord
  2
02__ASM_ALL_AXES
 70
     0
 62
     7
  6
CONTINUOUS
370
    -3
390
498
347
4DA
348
0
  0
LAYER
  5
204
330
2
100
AcDbSymbolTableRecord
100
AcDbLayerTableRecord
  2
02___PRT_ALL_AXES
 70
     0
 62
     7
  6
CONTINUOUS
370
    -3
390
498
347
4DA
348
0
  0
LAYER
  5
205
330
2
100
AcDbSymbolTableRecord
100
AcDbLayerTableRecord
  2
03_ALL_CURVES
 70
     0
 62
     7
  6
CONTINUOUS
370
    -3
390
498
347
4DA
348
0
  0
LAYER
  5
206
330
2
100
AcDbSymbolTableRecord
100
AcDbLayerTableRecord
  2
03__ASM_ALL_CURVES
 70
     0
 62
     7
  6
CONTINUOUS
370
    -3
390
498
347
4DA
348
0
  0
LAYER
  5
207
330
2
100
AcDbSymbolTableRecord
100
AcDbLayerTableRecord
  2
03___PRT_ALL_CURVES
 70
     0
 62
     7
  6
CONTINUOUS
370
    -3
390
498
347
4DA
348
0
  0
LAYER
  5
208
330
2
100
AcDbSymbolTableRecord
100
AcDbLayerTableRecord
  2
04_ALL_DTM_PNT
 70
     0
 62
     7
  6
CONTINUOUS
370
    -3
390
498
347
4DA
348
0
  0
LAYER
  5
209
330
2
100
AcDbSymbolTableRecord
100
AcDbLayerTableRecord
  2
04__ASM_ALL_DTM_PNT
 70
     0
 62
     7
  6
CONTINUOUS
370
    -3
390
498
347
4DA
348
0
  0
LAYER
  5
20A
330
2
100
AcDbSymbolTableRecord
100
AcDbLayerTableRecord
  2
04___PRT_ALL_DTM_PNT
 70
     0
 62
     7
  6
CONTINUOUS
370
    -3
390
498
347
4DA
348
0
  0
LAYER
  5
20B
330
2
100
AcDbSymbolTableRecord
100
AcDbLayerTableRecord
  2
05_ALL_DTM_CSYS
 70
     0
 62
     7
  6
CONTINUOUS
370
    -3
390
498
347
4DA
348
0
  0
LAYER
  5
20C
330
2
100
AcDbSymbolTableRecord
100
AcDbLayerTableRecord
  2
05__ASM_ALL_DTM_CSYS
 70
     0
 62
     7
  6
CONTINUOUS
370
    -3
390
498
347
4DA
348
0
  0
LAYER
  5
20D
330
2
100
AcDbSymbolTableRecord
100
AcDbLayerTableRecord
  2
05__ASM_DEF_DTM_CSYS
 70
     0
 62
     7
  6
CONTINUOUS
370
    -3
390
498
347
4DA
348
0
  0
LAYER
  5
20E
330
2
100
AcDbSymbolTableRecord
100
AcDbLayerTableRecord
  2
05___PRT_ALL_DTM_CSYS
 70
     0
 62
     7
  6
CONTINUOUS
370
    -3
390
498
347
4DA
348
0
  0
LAYER
  5
20F
330
2
100
AcDbSymbolTableRecord
100
AcDbLayerTableRecord
  2
05___PRT_DEF_DTM_CSYS
 70
     0
 62
     7
  6
CONTINUOUS
370
    -3
390
498
347
4DA
348
0
  0
LAYER
  5
210
330
2
100
AcDbSymbolTableRecord
100
AcDbLayerTableRecord
  2
06_ALL_SURFS
 70
     0
 62
     7
  6
CONTINUOUS
370
    -3
390
498
347
4DA
348
0
  0
LAYER
  5
211
330
2
100
AcDbSymbolTableRecord
100
AcDbLayerTableRecord
  2
06__ASM_ALL_SURFS
 70
     0
 62
     7
  6
CONTINUOUS
370
    -3
390
498
347
4DA
348
0
  0
LAYER
  5
212
330
2
100
AcDbSymbolTableRecord
100
AcDbLayerTableRecord
  2
06___PRT_ALL_SURFS
 70
     0
 62
     7
  6
CONTINUOUS
370
    -3
390
498
347
4DA
348
0
  0
LAYER
  5
213
330
2
100
AcDbSymbolTableRecord
100
AcDbLayerTableRecord
  2
07__ASM_ALL_SKELETONS
 70
     0
 62
     7
  6
CONTINUOUS
370
    -3
390
498
347
4DA
348
0
  0
LAYER
  5
214
330
2
100
AcDbSymbolTableRecord
100
AcDbLayerTableRecord
  2
1_ALL_PLANES
 70
     0
 62
     7
  6
CONTINUOUS
370
    -3
390
498
347
4DA
348
0
  0
LAYER
  5
215
330
2
100
AcDbSymbolTableRecord
100
AcDbLayerTableRecord
  2
2_ALL_CSYS
 70
     0
 62
     7
  6
CONTINUOUS
370
    -3
390
498
347
4DA
348
0
  0
LAYER
  5
216
330
2
100
AcDbSymbolTableRecord
100
AcDbLayerTableRecord
  2
3_ALL_AXES
 70
     0
 62
     7
  6
CONTINUOUS
370
    -3
390
498
347
4DA
348
0
  0
LAYER
  5
217
330
2
100
AcDbSymbolTableRecord
100
AcDbLayerTableRecord
  2
4_ALL_POINTS
 70
     0
 62
     7
  6
CONTINUOUS
370
    -3
390
498
347
4DA
348
0
  0
LAYER
  5
218
330
2
100
AcDbSymbolTableRecord
100
AcDbLayerTableRecord
  2
5_ALL_CURVES
 70
     0
 62
     7
  6
CONTINUOUS
370
    -3
390
498
347
4DA
348
0
  0
LAYER
  5
219
330
2
100
AcDbSymbolTableRecord
100
AcDbLayerTableRecord
  2
5__COSTRUZIONE
 70
     0
 62
     7
  6
CONTINUOUS
370
    -3
390
498
347
4DA
348
0
  0
LAYER
  5
21A
330
2
100
AcDbSymbolTableRecord
100
AcDbLayerTableRecord
  2
6_ALL_SURFS
 70
     0
 62
     7
  6
CONTINUOUS
370
    -3
390
498
347
4DA
348
0
  0
LAYER
  5
21B
330
2
100
AcDbSymbolTableRecord
100
AcDbLayerTableRecord
  2
7_ALL_FEATURES
 70
     0
 62
     7
  6
CONTINUOUS
370
    -3
390
498
347
4DA
348
0
  0
LAYER
  5
21C
330
2
100
AcDbSymbolTableRecord
100
AcDbLayerTableRecord
  2
8_ALL_NOTES_BALLOONS_SYMBOLS_GT
 70
     0
 62
     7
  6
CONTINUOUS
370
    -3
390
498
347
4DA
348
0
  0
LAYER
  5
21D
330
2
100
AcDbSymbolTableRecord
100
AcDbLayerTableRecord
  2
9_SOLID
 70
     0
 62
     7
  6
CONTINUOUS
370
    -3
390
498
347
4DA
348
0
  0
LAYER
  5
21E
330
2
100
AcDbSymbolTableRecord
100
AcDbLayerTableRecord
  2
INTFCLR_4
 70
     0
 62
     7
  6
CONTINUOUS
370
    -3
390
498
347
4DA
348
0
  0
LAYER
  5
21F
330
2
100
AcDbSymbolTableRecord
100
AcDbLayerTableRecord
  2
INTF_RED
 70
     0
 62
     7
  6
CONTINUOUS
370
    -3
390
498
347
4DA
348
0
  0
LAYER
  5
220
330
2
100
AcDbSymbolTableRecord
100
AcDbLayerTableRecord
  2
XXX_SOLIDO
 70
     0
 62
     7
  6
CONTINUOUS
370
    -3
390
498
347
4DA
348
0
  0
ENDTAB
  0
TABLE
  2
STYLE
  5
3
330
0
100
AcDbSymbolTable
 70
     4
  0
STYLE
  5
11
330
3
100
AcDbSymbolTableRecord
100
AcDbTextStyleTableRecord
  2
STANDARD
 70
     0
 40
0.0
 41
0.85
 50
0.0
 71
     0
 42
0.2
  3
txt
  4

  0
STYLE
  5
221
330
3
100
AcDbSymbolTableRecord
100
AcDbTextStyleTableRecord
  2
TEXTSTYLE_1
 70
     0
 40
0.0
 41
0.8
 50
0.0
 71
     0
 42
0.2
  3
gdt
  4

  0
STYLE
  5
222
330
3
100
AcDbSymbolTableRecord
100
AcDbTextStyleTableRecord
  2
TEXTSTYLE_2
 70
     0
 40
0.0
 41
0.9
 50
0.0
 71
     0
 42
0.2
  3
txt
  4

  0
STYLE
  5
223
330
3
100
AcDbSymbolTableRecord
100
AcDbTextStyleTableRecord
  2
TEXTSTYLE_3
 70
     0
 40
0.0
 41
2.0
 50
0.0
 71
     0
 42
0.2
  3
txt
  4

  0
ENDTAB
  0
TABLE
  2
VIEW
  5
6
330
0
100
AcDbSymbolTable
 70
     0
  0
ENDTAB
  0
TABLE
  2
UCS
  5
7
330
0
100
AcDbSymbolTable
 70
     0
  0
ENDTAB
  0
TABLE
  2
APPID
  5
9
330
0
100
AcDbSymbolTable
 70
     1
  0
APPID
  5
224
330
9
100
AcDbSymbolTableRecord
100
AcDbRegAppTableRecord
  2
ACAD
 70
     0
  0
ENDTAB
  0
TABLE
  2
DIMSTYLE
  5
A
330
0
100
AcDbSymbolTable
 70
     3
100
AcDbDimStyleTable
  0
DIMSTYLE
105
22B
330
A
100
AcDbSymbolTableRecord
100
AcDbDimStyleTableRecord
  2
STANDARD
 70
     0
 41
2.5
 42
0.75
 44
0.75
 47
0.01
 48
0.01
 71
     1
 73
     0
 74
     0
 77
     1
 78
     8
 79
     2
140
3.0
147
0.625
171
     1
178
     0
179
     2
271
     2
272
     2
284
     8
340
11
341
225
342
225
343
225
344
225
  0
DIMSTYLE
105
22C
330
A
100
AcDbSymbolTableRecord
100
AcDbDimStyleTableRecord
  2
DIMSTYLE_1
 70
     0
 41
2.5
 42
0.75
 44
0.75
 47
1.2
 48
1.2
 73
     0
 74
     0
 77
     1
 78
     8
 79
     2
140
3.0
147
0.75
171
     1
178
     0
179
     2
271
     2
272
     2
284
     8
340
11
341
225
342
225
343
225
344
225
  0
DIMSTYLE
105
22D
330
A
100
AcDbSymbolTableRecord
100
AcDbDimStyleTableRecord
  2
DIMSTYLE_2
 70
     0
 41
2.5
 42
0.75
 44
0.75
 47
0.3
 48
0.3
 73
     0
 74
     0
 77
     1
 78
     8
 79
     2
140
3.0
147
0.75
171
     1
178
     0
179
     2
271
     2
272
     2
284
     8
340
11
341
225
342
225
343
225
344
225
  0
ENDTAB
  0
TABLE
  2
BLOCK_RECORD
  5
1
330
0
100
AcDbSymbolTable
 70
     6
  0
BLOCK_RECORD
  5
1F
330
1
100
AcDbSymbolTableRecord
100
AcDbBlockTableRecord
  2
*MODEL_SPACE
340
4BC
 70
     0
280
     1
281
     0
  0
BLOCK_RECORD
  5
1B
330
1
100
AcDbSymbolTableRecord
100
AcDbBlockTableRecord
  2
*PAPER_SPACE
340
4BD
 70
     0
280
     1
281
     0
  0
BLOCK_RECORD
  5
225
330
1
100
AcDbSymbolTableRecord
100
AcDbBlockTableRecord
  2
_CLOSED
340
0
102
{BLKREFS
331
280
331
281
331
289
331
28A
331
292
331
293
102
}
 70
     0
280
     1
281
     0
  0
BLOCK_RECORD
  5
226
330
1
100
AcDbSymbolTableRecord
100
AcDbBlockTableRecord
  2
*D1
340
0
 70
     0
280
     1
281
     0
  0
BLOCK_RECORD
  5
227
330
1
100
AcDbSymbolTableRecord
100
AcDbBlockTableRecord
  2
*D2
340
0
 70
     0
280
     1
281
     0
  0
BLOCK_RECORD
  5
228
330
1
100
AcDbSymbolTableRecord
100
AcDbBlockTableRecord
  2
*D3
340
0
 70
     0
280
     1
281
     0
  0
BLOCK_RECORD
  5
229
330
1
100
AcDbSymbolTableRecord
100
AcDbBlockTableRecord
  2
LOGO2_BL1
340
0
102
{BLKREFS
331
480
102
}
 70
     0
280
     1
281
     0
  0
BLOCK_RECORD
  5
22A
330
1
100
AcDbSymbolTableRecord
100
AcDbBlockTableRecord
  2
PROIEZIONE_EU_BL0
340
0
102
{BLKREFS
331
47D
102
}
 70
     0
280
     1
281
     0
  0
ENDTAB
  0
ENDSEC
  0
SECTION
  2
BLOCKS
  0
BLOCK
  5
20
330
1F
100
AcDbEntity
  8
0
100
AcDbBlockBegin
  2
*MODEL_SPACE
 70
     0
 10
0.0
 20
0.0
 30
0.0
  3
*MODEL_SPACE
  1

  0
ENDBLK
  5
21
330
1F
100
AcDbEntity
  8
0
100
AcDbBlockEnd
  0
BLOCK
  5
1C
330
1B
100
AcDbEntity
 67
     1
  8
0
100
AcDbBlockBegin
  2
*PAPER_SPACE
 70
     0
 10
0.0
 20
0.0
 30
0.0
  3
*PAPER_SPACE
  1

  0
ENDBLK
  5
1D
330
1B
100
AcDbEntity
 67
     1
  8
0
100
AcDbBlockEnd
  0
BLOCK
  5
274
330
225
100
AcDbEntity
  8
0
100
AcDbBlockBegin
  2
_CLOSED
 70
     0
 10
0.0
 20
0.0
 30
0.0
  3
_CLOSED
  1

  0
LINE
  5
275
330
225
100
AcDbEntity
  8
0
  6
ByBlock
 62
     0
100
AcDbLine
 10
0.0
 20
0.0
 30
0.0
 11
-1.0
 21
0.2
 31
0.0
  0
LINE
  5
276
330
225
100
AcDbEntity
  8
0
  6
ByBlock
 62
     0
100
AcDbLine
 10
-1.0
 20
0.2
 30
0.0
 11
-1.0
 21
-0.2
 31
0.0
  0
LINE
  5
277
330
225
100
AcDbEntity
  8
0
  6
ByBlock
 62
     0
100
AcDbLine
 10
-1.0
 20
-0.2
 30
0.0
 11
0.0
 21
0.0
 31
0.0
  0
LINE
  5
278
330
225
100
AcDbEntity
  8
0
  6
ByBlock
 62
     0
100
AcDbLine
 10
-1.0
 20
0.0
 30
0.0
 11
0.0
 21
0.0
 31
0.0
  0
ENDBLK
  5
279
330
225
100
AcDbEntity
  8
0
  6
ByBlock
 62
     0
100
AcDbBlockEnd
  0
BLOCK
  5
27A
330
226
100
AcDbEntity
  8
0
100
AcDbBlockBegin
  2
*D1
 70
     1
 10
0.0
 20
0.0
 30
0.0
  3
*D1
  1

  0
MTEXT
  5
27B
330
226
100
AcDbEntity
  8
0
  6
Continuous
 62
     2
100
AcDbMText
 10
564.169478684
 20
326.5521154759
 30
0.0
 40
3.0
 41
13.1785714286
 46
0.0
 71
     2
 72
     1
  1
1042
 73
     1
 44
1.0
  0
LINE
  5
27C
330
226
100
AcDbEntity
  8
0
  6
Continuous
 62
     2
100
AcDbLine
 10
43.169478684
 20
311.9723192465
 30
0.0
 11
43.169478684
 21
323.5521154759
 31
0.0
  0
LINE
  5
27D
330
226
100
AcDbEntity
  8
0
  6
Continuous
 62
     2
100
AcDbLine
 10
1085.169478684
 20
311.9723192465
 30
0.0
 11
1085.169478684
 21
323.5521154759
 31
0.0
  0
LINE
  5
27E
330
226
100
AcDbEntity
  8
0
  6
Continuous
 62
     2
100
AcDbLine
 10
43.169478684
 20
322.8021154759
 30
0.0
 11
564.169478684
 21
322.8021154759
 31
0.0
  0
LINE
  5
27F
330
226
100
AcDbEntity
  8
0
  6
Continuous
 62
     2
100
AcDbLine
 10
1085.169478684
 20
322.8021154759
 30
0.0
 11
564.169478684
 21
322.8021154759
 31
0.0
  0
INSERT
  5
280
330
226
100
AcDbEntity
  8
0
  6
Continuous
 62
     2
100
AcDbBlockReference
  2
_CLOSED
 10
43.169478684
 20
322.8021154759
 30
0.0
 41
2.5
 42
2.5
 43
2.5
 50
180.0
  0
INSERT
  5
281
330
226
100
AcDbEntity
  8
0
  6
Continuous
 62
     2
100
AcDbBlockReference
  2
_CLOSED
 10
1085.169478684
 20
322.8021154759
 30
0.0
 41
2.5
 42
2.5
 43
2.5
  0
ENDBLK
  5
282
330
226
100
AcDbEntity
  8
0
  6
ByBlock
 62
     0
100
AcDbBlockEnd
  0
BLOCK
  5
283
330
227
100
AcDbEntity
  8
0
100
AcDbBlockBegin
  2
*D2
 70
     1
 10
0.0
 20
0.0
 30
0.0
  3
*D2
  1

  0
MTEXT
  5
284
330
227
100
AcDbEntity
  8
0
  6
Continuous
 62
     2
100
AcDbMText
 10
1093.8463793705
 20
261.3419815493
 30
0.0
 40
3.0
 41
12.5357142857
 46
0.0
 71
     2
 72
     1
  1
83,5
 11
0.0
 21
1.0
 31
0.0
 73
     1
 44
1.0
  0
LINE
  5
285
330
227
100
AcDbEntity
  8
0
  6
Continuous
 62
     2
100
AcDbLine
 10
1106.0673527484
 20
303.0919815493
 30
0.0
 11
1096.8463793705
 21
303.0919815493
 31
0.0
  0
LINE
  5
286
330
227
100
AcDbEntity
  8
0
  6
Continuous
 62
     2
100
AcDbLine
 10
1108.6827040998
 20
219.5919815493
 30
0.0
 11
1096.8463793705
 21
219.5919815493
 31
0.0
  0
LINE
  5
287
330
227
100
AcDbEntity
  8
0
  6
Continuous
 62
     2
100
AcDbLine
 10
1097.5963793705
 20
303.0919815493
 30
0.0
 11
1097.5963793705
 21
261.3419815493
 31
0.0
  0
LINE
  5
288
330
227
100
AcDbEntity
  8
0
  6
Continuous
 62
     2
100
AcDbLine
 10
1097.5963793705
 20
219.5919815493
 30
0.0
 11
1097.5963793705
 21
261.3419815493
 31
0.0
  0
INSERT
  5
289
330
227
100
AcDbEntity
  8
0
  6
Continuous
 62
     2
100
AcDbBlockReference
  2
_CLOSED
 10
1097.5963793705
 20
303.0919815493
 30
0.0
 41
2.5
 42
2.5
 43
2.5
 50
90.0
  0
INSERT
  5
28A
330
227
100
AcDbEntity
  8
0
  6
Continuous
 62
     2
100
AcDbBlockReference
  2
_CLOSED
 10
1097.5963793705
 20
219.5919815493
 30
0.0
 41
2.5
 42
2.5
 43
2.5
 50
270.0
  0
ENDBLK
  5
28B
330
227
100
AcDbEntity
  8
0
  6
ByBlock
 62
     0
100
AcDbBlockEnd
  0
BLOCK
  5
28C
330
228
100
AcDbEntity
  8
0
100
AcDbBlockBegin
  2
*D3
 70
     1
 10
0.0
 20
0.0
 30
0.0
  3
*D3
  1

  0
MTEXT
  5
28D
330
228
100
AcDbEntity
  8
0
  6
Continuous
 62
     2
100
AcDbMText
 10
1134.3364878835
 20
326.5521154759
 30
0.0
 40
3.0
 41
13.1785714286
 46
0.0
 71
     2
 72
     1
  1
42,4
 73
     1
 44
1.0
  0
LINE
  5
28E
330
228
100
AcDbEntity
  8
0
  6
Continuous
 62
     2
100
AcDbLine
 10
1113.1364878835
 20
310.8229312098
 30
0.0
 11
1113.1364878835
 21
323.5521154759
 31
0.0
  0
LINE
  5
28F
330
228
100
AcDbEntity
  8
0
  6
Continuous
 62
     2
100
AcDbLine
 10
1155.5364878835
 20
311.9723192465
 30
0.0
 11
1155.5364878835
 21
323.5521154759
 31
0.0
  0
LINE
  5
290
330
228
100
AcDbEntity
  8
0
  6
Continuous
 62
     2
100
AcDbLine
 10
1113.1364878835
 20
322.8021154759
 30
0.0
 11
1134.3364878835
 21
322.8021154759
 31
0.0
  0
LINE
  5
291
330
228
100
AcDbEntity
  8
0
  6
Continuous
 62
     2
100
AcDbLine
 10
1155.5364878835
 20
322.8021154759
 30
0.0
 11
1134.3364878835
 21
322.8021154759
 31
0.0
  0
INSERT
  5
292
330
228
100
AcDbEntity
  8
0
  6
Continuous
 62
     2
100
AcDbBlockReference
  2
_CLOSED
 10
1113.1364878835
 20
322.8021154759
 30
0.0
 41
2.5
 42
2.5
 43
2.5
 50
180.0
  0
INSERT
  5
293
330
228
100
AcDbEntity
  8
0
  6
Continuous
 62
     2
100
AcDbBlockReference
  2
_CLOSED
 10
1155.5364878835
 20
322.8021154759
 30
0.0
 41
2.5
 42
2.5
 43
2.5
  0
ENDBLK
  5
294
330
228
100
AcDbEntity
  8
0
  6
ByBlock
 62
     0
100
AcDbBlockEnd
  0
BLOCK
  5
22E
330
229
100
AcDbEntity
  8
0
100
AcDbBlockBegin
  2
LOGO2_BL1
 70
     0
 10
1062.9671105372
 20
41.972460076
 30
0.0
  3
LOGO2_BL1
  1

  0
LINE
  5
22F
330
229
100
AcDbEntity
  8
0
  6
Continuous
 62
     7
100
AcDbLine
 10
1054.7100357654
 20
45.1679514148
 30
0.0
 11
1053.4056948361
 21
45.1679514148
 31
0.0
  0
LINE
  5
230
330
229
100
AcDbEntity
  8
0
  6
Continuous
 62
     7
100
AcDbLine
 10
1053.4056948361
 20
45.1679514148
 30
0.0
 11
1053.4056948361
 21
34.708885355
 31
0.0
  0
LINE
  5
231
330
229
100
AcDbEntity
  8
0
  6
Continuous
 62
     7
100
AcDbLine
 10
1053.4056948361
 20
34.708885355
 30
0.0
 11
1057.8867497243
 21
34.708885355
 31
0.0
  0
LINE
  5
232
330
229
100
AcDbEntity
  8
0
  6
Continuous
 62
     7
100
AcDbLine
 10
1057.8867497243
 20
34.708885355
 30
0.0
 11
1057.8867497243
 21
35.90173968
 31
0.0
  0
LINE
  5
233
330
229
100
AcDbEntity
  8
0
  6
Continuous
 62
     7
100
AcDbLine
 10
1057.8867497243
 20
35.90173968
 30
0.0
 11
1054.7100357654
 21
35.90173968
 31
0.0
  0
LINE
  5
234
330
229
100
AcDbEntity
  8
0
  6
Continuous
 62
     7
100
AcDbLine
 10
1054.7100357654
 20
35.90173968
 30
0.0
 11
1054.7100357654
 21
45.1679514148
 31
0.0
  0
LINE
  5
235
330
229
100
AcDbEntity
  8
0
  6
Continuous
 62
     7
100
AcDbLine
 10
1069.6463619817
 20
45.1679514148
 30
0.0
 11
1068.3425444636
 21
45.1679514148
 31
0.0
  0
LINE
  5
236
330
229
100
AcDbEntity
  8
0
  6
Continuous
 62
     7
100
AcDbLine
 10
1068.3425444636
 20
45.1679514148
 30
0.0
 11
1068.3425444636
 21
34.708885355
 31
0.0
  0
LINE
  5
237
330
229
100
AcDbEntity
  8
0
  6
Continuous
 62
     7
100
AcDbLine
 10
1068.3425444636
 20
34.708885355
 30
0.0
 11
1072.8237302047
 21
34.708885355
 31
0.0
  0
LINE
  5
238
330
229
100
AcDbEntity
  8
0
  6
Continuous
 62
     7
100
AcDbLine
 10
1072.8237302047
 20
34.708885355
 30
0.0
 11
1072.8237302047
 21
35.90173968
 31
0.0
  0
LINE
  5
239
330
229
100
AcDbEntity
  8
0
  6
Continuous
 62
     7
100
AcDbLine
 10
1072.8237302047
 20
35.90173968
 30
0.0
 11
1069.6463619817
 21
35.90173968
 31
0.0
  0
LINE
  5
23A
330
229
100
AcDbEntity
  8
0
  6
Continuous
 62
     7
100
AcDbLine
 10
1069.6463619817
 20
35.90173968
 30
0.0
 11
1069.6463619817
 21
45.1679514148
 31
0.0
  0
LWPOLYLINE
  5
23B
330
229
100
AcDbEntity
  8
0
  6
Continuous
 62
     7
100
AcDbPolyline
 90
        2
 70
     0
 43
0.2
 10
1051.760089747
 20
31.3653340481
 10
1051.760089747
 20
29.5082707987
  0
LWPOLYLINE
  5
23C
330
229
100
AcDbEntity
  8
0
  6
Continuous
 62
     7
100
AcDbPolyline
 90
        2
 70
     0
 43
0.2
 10
1051.760089747
 20
29.5082707987
 10
1052.5558057574
 20
29.5082707987
  0
LWPOLYLINE
  5
23D
330
229
100
AcDbEntity
  8
0
  6
Continuous
 62
     7
100
AcDbPolyline
 90
        2
 70
     0
 43
0.2
 10
1052.5558057574
 20
29.5082707987
 10
1052.5558057574
 20
29.7202523703
  0
LWPOLYLINE
  5
23E
330
229
100
AcDbEntity
  8
0
  6
Continuous
 62
     7
100
AcDbPolyline
 90
        2
 70
     0
 43
0.2
 10
1052.5558057574
 20
29.7202523703
 10
1051.9916992419
 20
29.7202523703
  0
LWPOLYLINE
  5
23F
330
229
100
AcDbEntity
  8
0
  6
Continuous
 62
     7
100
AcDbPolyline
 90
        2
 70
     0
 43
0.2
 10
1051.9916992419
 20
29.7202523703
 10
1051.9916992419
 20
31.3653340481
  0
LWPOLYLINE
  5
240
330
229
100
AcDbEntity
  8
0
  6
Continuous
 62
     7
100
AcDbPolyline
 90
        2
 70
     0
 43
0.2
 10
1051.9916992419
 20
31.3653340481
 10
1051.760089747
 20
31.3653340481
  0
SPLINE
  5
241
330
229
100
AcDbEntity
  8
0
  6
Continuous
 62
     7
100
AcDbSpline
 70
     3
 71
     3
 72
    35
 73
    31
 74
     0
 42
0.000000001
 43
0.0000001
 40
0.0
 40
0.0
 40
0.0
 40
0.0
 40
1.0
 40
1.0
 40
1.0
 40
2.0
 40
2.0
 40
2.0
 40
3.0
 40
3.0
 40
3.0
 40
4.0
 40
4.0
 40
4.0
 40
5.0
 40
5.0
 40
5.0
 40
6.0
 40
6.0
 40
6.0
 40
7.0
 40
7.0
 40
7.0
 40
8.0
 40
8.0
 40
8.0
 40
9.0
 40
9.0
 40
9.0
 40
10.0
 40
10.0
 40
10.0
 40
10.0
 10
1053.9540990129
 20
30.6608224546
 30
0.0
 10
1053.9540990129
 20
30.6608224546
 30
0.0
 10
1053.9540990129
 20
29.9987071754
 30
0.0
 10
1053.9540990129
 20
29.9987071754
 30
0.0
 10
1053.9540990129
 20
29.6836135801
 30
0.0
 10
1054.1019627017
 20
29.4690149521
 30
0.0
 10
1054.442049186
 20
29.4690149521
 30
0.0
 10
1054.781612259
 20
29.4690149521
 30
0.0
 10
1054.9297376535
 20
29.6836135801
 30
0.0
 10
1054.9297376535
 20
29.9987071754
 30
0.0
 10
1054.9297376535
 20
29.9987071754
 30
0.0
 10
1054.9297376535
 20
30.6608224546
 30
0.0
 10
1054.9297376535
 20
30.6608224546
 30
0.0
 10
1054.9297376535
 20
30.6608224546
 30
0.0
 10
1054.7076804146
 20
30.6608224546
 30
0.0
 10
1054.7076804146
 20
30.6608224546
 30
0.0
 10
1054.7076804146
 20
30.6608224546
 30
0.0
 10
1054.7076804146
 20
30.0238309172
 30
0.0
 10
1054.7076804146
 20
30.0238309172
 30
0.0
 10
1054.7076804146
 20
29.8380199101
 30
0.0
 10
1054.6609659572
 20
29.6752389995
 30
0.0
 10
1054.442049186
 20
29.6752389995
 30
0.0
 10
1054.2226090036
 20
29.6752389995
 30
0.0
 10
1054.1758945462
 20
29.8380199101
 30
0.0
 10
1054.1758945462
 20
30.0238309172
 30
0.0
 10
1054.1758945462
 20
30.0238309172
 30
0.0
 10
1054.1758945462
 20
30.6608224546
 30
0.0
 10
1054.1758945462
 20
30.6608224546
 30
0.0
 10
1054.1758945462
 20
30.6608224546
 30
0.0
 10
1053.9540990129
 20
30.6608224546
 30
0.0
 10
1053.9540990129
 20
30.6608224546
 30
0.0
  0
SPLINE
  5
242
330
229
100
AcDbEntity
  8
0
  6
Continuous
 62
     7
100
AcDbSpline
 70
     3
 71
     3
 72
    35
 73
    31
 74
     0
 42
0.000000001
 43
0.0000001
 40
0.0
 40
0.0
 40
0.0
 40
0.0
 40
1.0
 40
1.0
 40
1.0
 40
2.0
 40
2.0
 40
2.0
 40
3.0
 40
3.0
 40
3.0
 40
4.0
 40
4.0
 40
4.0
 40
5.0
 40
5.0
 40
5.0
 40
6.0
 40
6.0
 40
6.0
 40
7.0
 40
7.0
 40
7.0
 40
8.0
 40
8.0
 40
8.0
 40
9.0
 40
9.0
 40
9.0
 40
10.0
 40
10.0
 40
10.0
 40
10.0
 10
1057.3528702107
 20
30.6194729628
 30
0.0
 10
1057.2644137031
 20
30.6707672691
 30
0.0
 10
1057.1509643064
 20
30.6958910109
 30
0.0
 10
1057.0473288714
 20
30.6958910109
 30
0.0
 10
1056.6924560182
 20
30.6958910109
 30
0.0
 10
1056.417010828
 20
30.4320917218
 30
0.0
 10
1056.417010828
 20
30.0746018122
 30
0.0
 10
1056.417010828
 20
29.7296737735
 30
0.0
 10
1056.6954656331
 20
29.4695383634
 30
0.0
 10
1057.0350287061
 20
29.4695383634
 30
0.0
 10
1057.1509643064
 20
29.4695383634
 30
0.0
 10
1057.2517209793
 20
29.4915216375
 30
0.0
 10
1057.3528702107
 20
29.5454330001
 30
0.0
 10
1057.3528702107
 20
29.5454330001
 30
0.0
 10
1057.3528702107
 20
29.8280750956
 30
0.0
 10
1057.3528702107
 20
29.8280750956
 30
0.0
 10
1057.2689935518
 20
29.7349078863
 30
0.0
 10
1057.1654889696
 20
29.6757624108
 30
0.0
 10
1057.0373840569
 20
29.6757624108
 30
0.0
 10
1056.8036809169
 20
29.6757624108
 30
0.0
 10
1056.6384138028
 20
29.8479647245
 30
0.0
 10
1056.6384138028
 20
30.0845466266
 30
0.0
 10
1056.6384138028
 20
30.2965281982
 30
0.0
 10
1056.8061671205
 20
30.4886201409
 30
0.0
 10
1057.0229902465
 20
30.4886201409
 30
0.0
 10
1057.1558058608
 20
30.4886201409
 30
0.0
 10
1057.2644137031
 20
30.4347087782
 30
0.0
 10
1057.3528702107
 20
30.3336903997
 30
0.0
 10
1057.3528702107
 20
30.3336903997
 30
0.0
 10
1057.3528702107
 20
30.6194729628
 30
0.0
 10
1057.3528702107
 20
30.6194729628
 30
0.0
  0
SPLINE
  5
243
330
229
100
AcDbEntity
  8
0
  6
Continuous
 62
     7
100
AcDbSpline
 70
     3
 71
     3
 72
    32
 73
    28
 74
     0
 42
0.000000001
 43
0.0000001
 40
0.0
 40
0.0
 40
0.0
 40
0.0
 40
1.0
 40
1.0
 40
1.0
 40
2.0
 40
2.0
 40
2.0
 40
3.0
 40
3.0
 40
3.0
 40
4.0
 40
4.0
 40
4.0
 40
5.0
 40
5.0
 40
5.0
 40
6.0
 40
6.0
 40
6.0
 40
7.0
 40
7.0
 40
7.0
 40
8.0
 40
8.0
 40
8.0
 40
9.0
 40
9.0
 40
9.0
 40
9.0
 10
1059.884741463
 20
30.0479078365
 30
0.0
 10
1059.884741463
 20
30.0479078365
 30
0.0
 10
1059.884741463
 20
30.0819295702
 30
0.0
 10
1059.884741463
 20
30.0819295702
 30
0.0
 10
1059.884741463
 20
30.4242405525
 30
0.0
 10
1059.7118848851
 20
30.6958910109
 30
0.0
 10
1059.345235278
 20
30.6958910109
 30
0.0
 10
1058.9736132636
 20
30.6958910109
 30
0.0
 10
1058.7838766717
 20
30.4294746653
 30
0.0
 10
1058.7838766717
 20
30.0746018122
 30
0.0
 10
1058.7838766717
 20
29.7349078863
 30
0.0
 10
1058.9979518885
 20
29.4690149521
 30
0.0
 10
1059.3500768324
 20
29.4690149521
 30
0.0
 10
1059.5740968636
 20
29.4690149521
 30
0.0
 10
1059.7762644735
 20
29.5846888467
 30
0.0
 10
1059.884741463
 20
29.7841085474
 30
0.0
 10
1059.884741463
 20
29.7841085474
 30
0.0
 10
1059.6970985163
 20
29.8908844501
 30
0.0
 10
1059.6970985163
 20
29.8908844501
 30
0.0
 10
1059.6136144158
 20
29.7521804588
 30
0.0
 10
1059.5224099989
 20
29.6663410076
 30
0.0
 10
1059.3528247417
 20
29.6663410076
 30
0.0
 10
1059.1408431701
 20
29.6663410076
 30
0.0
 10
1059.007896703
 20
29.8511051922
 30
0.0
 10
1059.0055413522
 20
30.0479078365
 30
0.0
 10
1059.0055413522
 20
30.0479078365
 30
0.0
 10
1059.884741463
 20
30.0479078365
 30
0.0
 10
1059.884741463
 20
30.0479078365
 30
0.0
  0
SPLINE
  5
244
330
229
100
AcDbEntity
  8
0
  6
Continuous
 62
     7
100
AcDbSpline
 70
     3
 71
     3
 72
    14
 73
    10
 74
     0
 42
0.000000001
 43
0.0000001
 40
0.0
 40
0.0
 40
0.0
 40
0.0
 40
1.0
 40
1.0
 40
1.0
 40
2.0
 40
2.0
 40
2.0
 40
3.0
 40
3.0
 40
3.0
 40
3.0
 10
1059.0175798118
 20
30.2153994486
 30
0.0
 10
1059.0451897572
 20
30.3802740043
 30
0.0
 10
1059.1730329643
 20
30.5032756569
 30
0.0
 10
1059.345235278
 20
30.5032756569
 30
0.0
 10
1059.5224099989
 20
30.5032756569
 30
0.0
 10
1059.6358593956
 20
30.3876017623
 30
0.0
 10
1059.6630767825
 20
30.2153994486
 30
0.0
 10
1059.6630767825
 20
30.2153994486
 30
0.0
 10
1059.0175798118
 20
30.2153994486
 30
0.0
 10
1059.0175798118
 20
30.2153994486
 30
0.0
  0
SPLINE
  5
245
330
229
100
AcDbEntity
  8
0
  6
Continuous
 62
     7
100
AcDbSpline
 70
     3
 71
     3
 72
    20
 73
    16
 74
     0
 42
0.000000001
 43
0.0000001
 40
0.0
 40
0.0
 40
0.0
 40
0.0
 40
1.0
 40
1.0
 40
1.0
 40
2.0
 40
2.0
 40
2.0
 40
3.0
 40
3.0
 40
3.0
 40
4.0
 40
4.0
 40
4.0
 40
5.0
 40
5.0
 40
5.0
 40
5.0
 10
1061.9087729132
 20
30.4247639638
 30
0.0
 10
1061.9087729132
 20
30.4247639638
 30
0.0
 10
1062.3199124798
 20
29.9222891274
 30
0.0
 10
1062.3199124798
 20
29.9222891274
 30
0.0
 10
1062.2038460267
 20
29.8066152328
 30
0.0
 10
1062.0660580052
 20
29.6762858221
 30
0.0
 10
1061.8941173971
 20
29.6762858221
 30
0.0
 10
1061.7166809705
 20
29.6762858221
 30
0.0
 10
1061.5491893584
 20
29.8406369665
 30
0.0
 10
1061.5491893584
 20
30.0175499818
 30
0.0
 10
1061.5491893584
 20
30.1955098197
 30
0.0
 10
1061.758946432
 20
30.32165194
 30
0.0
 10
1061.8865279334
 20
30.4095850364
 30
0.0
 10
1061.8865279334
 20
30.4095850364
 30
0.0
 10
1061.9087729132
 20
30.4247639638
 30
0.0
 10
1061.9087729132
 20
30.4247639638
 30
0.0
  0
SPLINE
  5
246
330
229
100
AcDbEntity
  8
0
  6
Continuous
 62
     7
100
AcDbSpline
 70
     3
 71
     3
 72
    23
 73
    19
 74
     0
 42
0.000000001
 43
0.0000001
 40
0.0
 40
0.0
 40
0.0
 40
0.0
 40
1.0
 40
1.0
 40
1.0
 40
2.0
 40
2.0
 40
2.0
 40
3.0
 40
3.0
 40
3.0
 40
4.0
 40
4.0
 40
4.0
 40
5.0
 40
5.0
 40
5.0
 40
6.0
 40
6.0
 40
6.0
 40
6.0
 10
1061.958104427
 20
30.7157806398
 30
0.0
 10
1061.958104427
 20
30.7157806398
 30
0.0
 10
1061.8964727479
 20
30.794292333
 30
0.0
 10
1061.8964727479
 20
30.794292333
 30
0.0
 10
1061.8425613852
 20
30.8628592117
 30
0.0
 10
1061.7857712605
 20
30.9319495017
 30
0.0
 10
1061.7857712605
 20
31.0256401222
 30
0.0
 10
1061.7857712605
 20
31.1444544846
 30
0.0
 10
1061.881686379
 20
31.2219193552
 30
0.0
 10
1061.992649572
 20
31.2219193552
 30
0.0
 10
1062.1159129303
 20
31.2219193552
 30
0.0
 10
1062.2092109924
 20
31.15073542
 30
0.0
 10
1062.2092109924
 20
31.0204060094
 30
0.0
 10
1062.2092109924
 20
30.8853658971
 30
0.0
 10
1062.0811060797
 20
30.8089478491
 30
0.0
 10
1061.987546312
 20
30.7351468575
 30
0.0
 10
1061.987546312
 20
30.7351468575
 30
0.0
 10
1061.958104427
 20
30.7157806398
 30
0.0
 10
1061.958104427
 20
30.7157806398
 30
0.0
  0
SPLINE
  5
247
330
229
100
AcDbEntity
  8
0
  6
Continuous
 62
     7
100
AcDbSpline
 70
     3
 71
     3
 72
    50
 73
    46
 74
     0
 42
0.000000001
 43
0.0000001
 40
0.0
 40
0.0
 40
0.0
 40
0.0
 40
1.0
 40
1.0
 40
1.0
 40
2.0
 40
2.0
 40
2.0
 40
3.0
 40
3.0
 40
3.0
 40
4.0
 40
4.0
 40
4.0
 40
5.0
 40
5.0
 40
5.0
 40
6.0
 40
6.0
 40
6.0
 40
7.0
 40
7.0
 40
7.0
 40
8.0
 40
8.0
 40
8.0
 40
9.0
 40
9.0
 40
9.0
 40
10.0
 40
10.0
 40
10.0
 40
11.0
 40
11.0
 40
11.0
 40
12.0
 40
12.0
 40
12.0
 40
13.0
 40
13.0
 40
13.0
 40
14.0
 40
14.0
 40
14.0
 40
15.0
 40
15.0
 40
15.0
 40
15.0
 10
1062.6602606697
 20
29.50879421
 30
0.0
 10
1062.6602606697
 20
29.50879421
 30
0.0
 10
1062.9456506744
 20
29.50879421
 30
0.0
 10
1062.9456506744
 20
29.50879421
 30
0.0
 10
1062.9456506744
 20
29.50879421
 30
0.0
 10
1062.6132845066
 20
29.919672071
 30
0.0
 10
1062.6132845066
 20
29.919672071
 30
0.0
 10
1062.6132845066
 20
29.919672071
 30
0.0
 10
1062.8397907414
 20
30.1855650052
 30
0.0
 10
1062.8397907414
 20
30.1855650052
 30
0.0
 10
1062.8397907414
 20
30.1855650052
 30
0.0
 10
1062.6915344942
 20
30.3384011013
 30
0.0
 10
1062.6915344942
 20
30.3384011013
 30
0.0
 10
1062.6915344942
 20
30.3384011013
 30
0.0
 10
1062.4756273379
 20
30.0871636831
 30
0.0
 10
1062.4756273379
 20
30.0871636831
 30
0.0
 10
1062.4756273379
 20
30.0871636831
 30
0.0
 10
1062.0885646905
 20
30.5550933744
 30
0.0
 10
1062.0885646905
 20
30.5550933744
 30
0.0
 10
1062.244017843
 20
30.6691970352
 30
0.0
 10
1062.426295824
 20
30.8089478491
 30
0.0
 10
1062.426295824
 20
31.0183123642
 30
0.0
 10
1062.426295824
 20
31.2622220243
 30
0.0
 10
1062.2242590669
 20
31.4056367172
 30
0.0
 10
1061.9977528321
 20
31.4056367172
 30
0.0
 10
1061.7535814663
 20
31.4056367172
 30
0.0
 10
1061.5692098401
 20
31.2548942663
 30
0.0
 10
1061.5692098401
 20
30.9984227353
 30
0.0
 10
1061.5692098401
 20
30.8408759376
 30
0.0
 10
1061.6678728679
 20
30.7032187689
 30
0.0
 10
1061.7732093896
 20
30.5922555759
 30
0.0
 10
1061.7732093896
 20
30.5922555759
 30
0.0
 10
1061.6576663478
 20
30.5085097698
 30
0.0
 10
1061.6576663478
 20
30.5085097698
 30
0.0
 10
1061.4799682156
 20
30.3802740043
 30
0.0
 10
1061.332627938
 20
30.25256165
 30
0.0
 10
1061.332627938
 20
30.0154563366
 30
0.0
 10
1061.332627938
 20
29.6951286285
 30
0.0
 10
1061.5911931142
 20
29.4690149521
 30
0.0
 10
1061.9015760079
 20
29.4690149521
 30
0.0
 10
1062.1204927791
 20
29.4690149521
 30
0.0
 10
1062.3176879818
 20
29.5941102499
 30
0.0
 10
1062.4579622069
 20
29.7600316282
 30
0.0
 10
1062.4579622069
 20
29.7600316282
 30
0.0
 10
1062.6602606697
 20
29.50879421
 30
0.0
 10
1062.6602606697
 20
29.50879421
 30
0.0
  0
LWPOLYLINE
  5
248
330
229
100
AcDbEntity
  8
0
  6
Continuous
 62
     7
100
AcDbPolyline
 90
        2
 70
     0
 43
0.2
 10
1064.5957047594
 20
31.3653340481
 10
1064.3643569702
 20
31.3653340481
  0
LWPOLYLINE
  5
249
330
229
100
AcDbEntity
  8
0
  6
Continuous
 62
     7
100
AcDbPolyline
 90
        2
 70
     0
 43
0.2
 10
1064.3643569702
 20
31.3653340481
 10
1064.3643569702
 20
29.5082707987
  0
LWPOLYLINE
  5
24A
330
229
100
AcDbEntity
  8
0
  6
Continuous
 62
     7
100
AcDbPolyline
 90
        2
 70
     0
 43
0.2
 10
1064.3643569702
 20
29.5082707987
 10
1065.1596804221
 20
29.5082707987
  0
LWPOLYLINE
  5
24B
330
229
100
AcDbEntity
  8
0
  6
Continuous
 62
     7
100
AcDbPolyline
 90
        2
 70
     0
 43
0.2
 10
1065.1596804221
 20
29.5082707987
 10
1065.1596804221
 20
29.7202523703
  0
LWPOLYLINE
  5
24C
330
229
100
AcDbEntity
  8
0
  6
Continuous
 62
     7
100
AcDbPolyline
 90
        2
 70
     0
 43
0.2
 10
1065.1596804221
 20
29.7202523703
 10
1064.5957047594
 20
29.7202523703
  0
LWPOLYLINE
  5
24D
330
229
100
AcDbEntity
  8
0
  6
Continuous
 62
     7
100
AcDbPolyline
 90
        2
 70
     0
 43
0.2
 10
1064.5957047594
 20
29.7202523703
 10
1064.5957047594
 20
31.3653340481
  0
LWPOLYLINE
  5
24E
330
229
100
AcDbEntity
  8
0
  6
Continuous
 62
     7
100
AcDbPolyline
 90
        2
 70
     0
 43
0.2
 10
1066.8387838336
 20
30.6608224546
 10
1066.6176425645
 20
30.6608224546
  0
LWPOLYLINE
  5
24F
330
229
100
AcDbEntity
  8
0
  6
Continuous
 62
     7
100
AcDbPolyline
 90
        2
 70
     0
 43
0.2
 10
1066.6176425645
 20
30.6608224546
 10
1066.6176425645
 20
29.50879421
  0
LWPOLYLINE
  5
250
330
229
100
AcDbEntity
  8
0
  6
Continuous
 62
     7
100
AcDbPolyline
 90
        2
 70
     0
 43
0.2
 10
1066.6176425645
 20
29.50879421
 10
1066.8387838336
 20
29.50879421
  0
LWPOLYLINE
  5
251
330
229
100
AcDbEntity
  8
0
  6
Continuous
 62
     7
100
AcDbPolyline
 90
        2
 70
     0
 43
0.2
 10
1066.8387838336
 20
29.50879421
 10
1066.8387838336
 20
30.6608224546
  0
LWPOLYLINE
  5
252
330
229
100
AcDbEntity
  8
0
  6
Continuous
 62
     7
100
AcDbPolyline
 90
        2
 70
     1
 43
0.2
 10
1066.5757605564
 20
31.1907763836
 42
1.0
 10
1066.8809275473
 20
31.1907763836
 42
1.0
  0
SPLINE
  5
253
330
229
100
AcDbEntity
  8
0
  6
Continuous
 62
     7
100
AcDbSpline
 70
     3
 71
     3
 72
    17
 73
    13
 74
     0
 42
0.000000001
 43
0.0000001
 40
0.0
 40
0.0
 40
0.0
 40
0.0
 40
1.0
 40
1.0
 40
1.0
 40
2.0
 40
2.0
 40
2.0
 40
3.0
 40
3.0
 40
3.0
 40
4.0
 40
4.0
 40
4.0
 40
4.0
 10
1068.9690677752
 20
29.6663410076
 30
0.0
 10
1068.7351029296
 20
29.6663410076
 30
0.0
 10
1068.6047735189
 20
29.8683777647
 30
0.0
 10
1068.6047735189
 20
30.0845466266
 30
0.0
 10
1068.6047735189
 20
30.2991452547
 30
0.0
 10
1068.7405987481
 20
30.4980415441
 30
0.0
 10
1068.9690677752
 20
30.4980415441
 30
0.0
 10
1069.2085284394
 20
30.4980415441
 30
0.0
 10
1069.344091963
 20
30.3090900691
 30
0.0
 10
1069.344091963
 20
30.0845466266
 30
0.0
 10
1069.344091963
 20
29.8584329503
 30
0.0
 10
1069.2108837902
 20
29.6663410076
 30
0.0
 10
1068.9690677752
 20
29.6663410076
 30
0.0
  0
SPLINE
  5
254
330
229
100
AcDbEntity
  8
0
  6
Continuous
 62
     7
100
AcDbSpline
 70
     3
 71
     3
 72
    50
 73
    46
 74
     0
 42
0.000000001
 43
0.0000001
 40
0.0
 40
0.0
 40
0.0
 40
0.0
 40
1.0
 40
1.0
 40
1.0
 40
2.0
 40
2.0
 40
2.0
 40
3.0
 40
3.0
 40
3.0
 40
4.0
 40
4.0
 40
4.0
 40
5.0
 40
5.0
 40
5.0
 40
6.0
 40
6.0
 40
6.0
 40
7.0
 40
7.0
 40
7.0
 40
8.0
 40
8.0
 40
8.0
 40
9.0
 40
9.0
 40
9.0
 40
10.0
 40
10.0
 40
10.0
 40
11.0
 40
11.0
 40
11.0
 40
12.0
 40
12.0
 40
12.0
 40
13.0
 40
13.0
 40
13.0
 40
14.0
 40
14.0
 40
14.0
 40
15.0
 40
15.0
 40
15.0
 40
15.0
 10
1069.5531947725
 20
30.6613458659
 30
0.0
 10
1069.5531947725
 20
30.6613458659
 30
0.0
 10
1069.3315300921
 20
30.6613458659
 30
0.0
 10
1069.3315300921
 20
30.6613458659
 30
0.0
 10
1069.3315300921
 20
30.6613458659
 30
0.0
 10
1069.3315300921
 20
30.4640198103
 30
0.0
 10
1069.3315300921
 20
30.4640198103
 30
0.0
 10
1069.3315300921
 20
30.4640198103
 30
0.0
 10
1069.3268193905
 20
30.4640198103
 30
0.0
 10
1069.3268193905
 20
30.4640198103
 30
0.0
 10
1069.2354841208
 20
30.6069110919
 30
0.0
 10
1069.0975652464
 20
30.6953675996
 30
0.0
 10
1068.9248395214
 20
30.6953675996
 30
0.0
 10
1068.5924733536
 20
30.6953675996
 30
0.0
 10
1068.3833705441
 20
30.4074913913
 30
0.0
 10
1068.3833705441
 20
30.0918743847
 30
0.0
 10
1068.3833705441
 20
29.7621252733
 30
0.0
 10
1068.580434894
 20
29.4690149521
 30
0.0
 10
1068.9353077472
 20
29.4690149521
 30
0.0
 10
1069.0975652464
 20
29.4690149521
 30
0.0
 10
1069.2375777659
 20
29.5574714598
 30
0.0
 10
1069.3268193905
 20
29.6883242817
 30
0.0
 10
1069.3268193905
 20
29.6883242817
 30
0.0
 10
1069.3315300921
 20
29.6883242817
 30
0.0
 10
1069.3315300921
 20
29.6883242817
 30
0.0
 10
1069.3315300921
 20
29.6883242817
 30
0.0
 10
1069.3315300921
 20
29.4690149521
 30
0.0
 10
1069.3315300921
 20
29.4690149521
 30
0.0
 10
1069.3315300921
 20
29.23243305
 30
0.0
 10
1069.275001673
 20
29.0455752202
 30
0.0
 10
1069.0017809807
 20
29.0455752202
 30
0.0
 10
1068.799482518
 20
29.0455752202
 30
0.0
 10
1068.656852942
 20
29.1638661713
 30
0.0
 10
1068.656852942
 20
29.3700902187
 30
0.0
 10
1068.656852942
 20
29.3700902187
 30
0.0
 10
1068.4351882616
 20
29.3700902187
 30
0.0
 10
1068.4351882616
 20
29.3700902187
 30
0.0
 10
1068.4401606688
 20
29.0455752202
 30
0.0
 10
1068.6712467524
 20
28.848772576
 30
0.0
 10
1068.9915744606
 20
28.848772576
 30
0.0
 10
1069.439614523
 20
28.848772576
 30
0.0
 10
1069.5531947725
 20
29.1340317279
 30
0.0
 10
1069.5531947725
 20
29.5307774841
 30
0.0
 10
1069.5531947725
 20
29.5307774841
 30
0.0
 10
1069.5531947725
 20
30.6613458659
 30
0.0
 10
1069.5531947725
 20
30.6613458659
 30
0.0
  0
SPLINE
  5
255
330
229
100
AcDbEntity
  8
0
  6
Continuous
 62
     7
100
AcDbSpline
 70
     3
 71
     3
 72
    44
 73
    40
 74
     0
 42
0.000000001
 43
0.0000001
 40
0.0
 40
0.0
 40
0.0
 40
0.0
 40
1.0
 40
1.0
 40
1.0
 40
2.0
 40
2.0
 40
2.0
 40
3.0
 40
3.0
 40
3.0
 40
4.0
 40
4.0
 40
4.0
 40
5.0
 40
5.0
 40
5.0
 40
6.0
 40
6.0
 40
6.0
 40
7.0
 40
7.0
 40
7.0
 40
8.0
 40
8.0
 40
8.0
 40
9.0
 40
9.0
 40
9.0
 40
10.0
 40
10.0
 40
10.0
 40
11.0
 40
11.0
 40
11.0
 40
12.0
 40
12.0
 40
12.0
 40
13.0
 40
13.0
 40
13.0
 40
13.0
 10
1071.1221201079
 20
31.6464059096
 30
0.0
 10
1071.1221201079
 20
31.6464059096
 30
0.0
 10
1071.1221201079
 20
29.5082707987
 30
0.0
 10
1071.1221201079
 20
29.5082707987
 30
0.0
 10
1071.1221201079
 20
29.5082707987
 30
0.0
 10
1071.3435230827
 20
29.5082707987
 30
0.0
 10
1071.3435230827
 20
29.5082707987
 30
0.0
 10
1071.3435230827
 20
29.5082707987
 30
0.0
 10
1071.3435230827
 20
30.037963022
 30
0.0
 10
1071.3435230827
 20
30.037963022
 30
0.0
 10
1071.3435230827
 20
30.2478509485
 30
0.0
 10
1071.3435230827
 20
30.4985649553
 30
0.0
 10
1071.6287822345
 20
30.4985649553
 30
0.0
 10
1071.8556810278
 20
30.4985649553
 30
0.0
 10
1071.8826367092
 20
30.3656184882
 30
0.0
 10
1071.8826367092
 20
30.1693392553
 30
0.0
 10
1071.8826367092
 20
30.1693392553
 30
0.0
 10
1071.8826367092
 20
29.5082707987
 30
0.0
 10
1071.8826367092
 20
29.5082707987
 30
0.0
 10
1071.8826367092
 20
29.5082707987
 30
0.0
 10
1072.1045630952
 20
29.5082707987
 30
0.0
 10
1072.1045630952
 20
29.5082707987
 30
0.0
 10
1072.1045630952
 20
29.5082707987
 30
0.0
 10
1072.1045630952
 20
30.1955098197
 30
0.0
 10
1072.1045630952
 20
30.1955098197
 30
0.0
 10
1072.1045630952
 20
30.47605827
 30
0.0
 10
1072.0205555835
 20
30.6958910109
 30
0.0
 10
1071.6955171737
 20
30.6958910109
 30
0.0
 10
1071.5557663599
 20
30.6958910109
 30
0.0
 10
1071.4175857799
 20
30.6294177773
 30
0.0
 10
1071.3482337842
 20
30.5064161247
 30
0.0
 10
1071.3482337842
 20
30.5064161247
 30
0.0
 10
1071.3435230827
 20
30.5064161247
 30
0.0
 10
1071.3435230827
 20
30.5064161247
 30
0.0
 10
1071.3435230827
 20
30.5064161247
 30
0.0
 10
1071.3435230827
 20
31.6464059096
 30
0.0
 10
1071.3435230827
 20
31.6464059096
 30
0.0
 10
1071.3435230827
 20
31.6464059096
 30
0.0
 10
1071.1221201079
 20
31.6464059096
 30
0.0
 10
1071.1221201079
 20
31.6464059096
 30
0.0
  0
LWPOLYLINE
  5
256
330
229
100
AcDbEntity
  8
0
  6
Continuous
 62
     7
100
AcDbPolyline
 90
        2
 70
     0
 43
0.2
 10
1073.9443537721
 20
30.4540749959
 10
1074.1607843396
 20
30.4540749959
  0
LWPOLYLINE
  5
257
330
229
100
AcDbEntity
  8
0
  6
Continuous
 62
     7
100
AcDbPolyline
 90
        2
 70
     0
 43
0.2
 10
1074.1607843396
 20
30.4540749959
 10
1074.1607843396
 20
30.6608224546
  0
LWPOLYLINE
  5
258
330
229
100
AcDbEntity
  8
0
  6
Continuous
 62
     7
100
AcDbPolyline
 90
        2
 70
     0
 43
0.2
 10
1074.1607843396
 20
30.6608224546
 10
1073.9443537721
 20
30.6608224546
  0
LWPOLYLINE
  5
259
330
229
100
AcDbEntity
  8
0
  6
Continuous
 62
     7
100
AcDbPolyline
 90
        2
 70
     0
 43
0.2
 10
1073.9443537721
 20
30.6608224546
 10
1073.9443537721
 20
31.101534759
  0
LWPOLYLINE
  5
25A
330
229
100
AcDbEntity
  8
0
  6
Continuous
 62
     7
100
AcDbPolyline
 90
        2
 70
     0
 43
0.2
 10
1073.9443537721
 20
31.101534759
 10
1073.7226890917
 20
31.101534759
  0
LWPOLYLINE
  5
25B
330
229
100
AcDbEntity
  8
0
  6
Continuous
 62
     7
100
AcDbPolyline
 90
        2
 70
     0
 43
0.2
 10
1073.7226890917
 20
31.101534759
 10
1073.7226890917
 20
30.6608224546
  0
LWPOLYLINE
  5
25C
330
229
100
AcDbEntity
  8
0
  6
Continuous
 62
     7
100
AcDbPolyline
 90
        2
 70
     0
 43
0.2
 10
1073.7226890917
 20
30.6608224546
 10
1073.6020427898
 20
30.6608224546
  0
LWPOLYLINE
  5
25D
330
229
100
AcDbEntity
  8
0
  6
Continuous
 62
     7
100
AcDbPolyline
 90
        2
 70
     0
 43
0.2
 10
1073.6020427898
 20
30.6608224546
 10
1073.6020427898
 20
30.4540749959
  0
LWPOLYLINE
  5
25E
330
229
100
AcDbEntity
  8
0
  6
Continuous
 62
     7
100
AcDbPolyline
 90
        2
 70
     0
 43
0.2
 10
1073.6020427898
 20
30.4540749959
 10
1073.7226890917
 20
30.4540749959
  0
LWPOLYLINE
  5
25F
330
229
100
AcDbEntity
  8
0
  6
Continuous
 62
     7
100
AcDbPolyline
 90
        2
 70
     0
 43
0.2
 10
1073.7226890917
 20
30.4540749959
 10
1073.7226890917
 20
29.5082707987
  0
LWPOLYLINE
  5
260
330
229
100
AcDbEntity
  8
0
  6
Continuous
 62
     7
100
AcDbPolyline
 90
        2
 70
     0
 43
0.2
 10
1073.7226890917
 20
29.5082707987
 10
1073.9443537721
 20
29.5082707987
  0
LWPOLYLINE
  5
261
330
229
100
AcDbEntity
  8
0
  6
Continuous
 62
     7
100
AcDbPolyline
 90
        2
 70
     0
 43
0.2
 10
1073.9443537721
 20
29.5082707987
 10
1073.9443537721
 20
30.4540749959
  0
SPLINE
  5
262
330
229
100
AcDbEntity
  8
0
  6
Continuous
 62
     7
100
AcDbSpline
 70
     3
 71
     3
 72
    20
 73
    16
 74
     0
 42
0.000000001
 43
0.0000001
 40
0.0
 40
0.0
 40
0.0
 40
0.0
 40
1.0
 40
1.0
 40
1.0
 40
2.0
 40
2.0
 40
2.0
 40
3.0
 40
3.0
 40
3.0
 40
4.0
 40
4.0
 40
4.0
 40
5.0
 40
5.0
 40
5.0
 40
5.0
 10
1061.7263640793
 20
39.8691972421
 30
0.0
 10
1061.7263640793
 20
39.8691972421
 30
0.0
 10
1064.0427207338
 20
37.0396358199
 30
0.0
 10
1064.0427207338
 20
37.0396358199
 30
0.0
 10
1063.3910736804
 20
36.3874653552
 30
0.0
 10
1062.6142004764
 20
35.6515490844
 30
0.0
 10
1061.6430108317
 20
35.6515490844
 30
0.0
 10
1060.6444729473
 20
35.6515490844
 30
0.0
 10
1059.7011549537
 20
36.5811275317
 30
0.0
 10
1059.7011549537
 20
37.5803196802
 30
0.0
 10
1059.7011549537
 20
38.5795118288
 30
0.0
 10
1060.8800080268
 20
39.2861170674
 30
0.0
 10
1061.6015304872
 20
39.7859748473
 30
0.0
 10
1061.6015304872
 20
39.7859748473
 30
0.0
 10
1061.7263640793
 20
39.8691972421
 30
0.0
 10
1061.7263640793
 20
39.8691972421
 30
0.0
  0
SPLINE
  5
263
330
229
100
AcDbEntity
  8
0
  6
Continuous
 62
     7
100
AcDbSpline
 70
     3
 71
     3
 72
    23
 73
    19
 74
     0
 42
0.000000001
 43
0.0000001
 40
0.0
 40
0.0
 40
0.0
 40
0.0
 40
1.0
 40
1.0
 40
1.0
 40
2.0
 40
2.0
 40
2.0
 40
3.0
 40
3.0
 40
3.0
 40
4.0
 40
4.0
 40
4.0
 40
5.0
 40
5.0
 40
5.0
 40
6.0
 40
6.0
 40
6.0
 40
6.0
 10
1062.0037720619
 20
41.5069511618
 30
0.0
 10
1062.0037720619
 20
41.5069511618
 30
0.0
 10
1061.6572737893
 20
41.9502805227
 30
0.0
 10
1061.6572737893
 20
41.9502805227
 30
0.0
 10
1061.3514707444
 20
42.3383899926
 30
0.0
 10
1061.0325824173
 20
42.726892021
 30
0.0
 10
1061.0325824173
 20
43.2538363351
 30
0.0
 10
1061.0325824173
 20
43.9200080517
 30
0.0
 10
1061.5739205417
 20
44.363729971
 30
0.0
 10
1062.1978267969
 20
44.363729971
 30
0.0
 10
1062.8916084589
 20
44.363729971
 30
0.0
 10
1063.4188144787
 20
43.9614883963
 30
0.0
 10
1063.4188144787
 20
43.2264880953
 30
0.0
 10
1063.4188144787
 20
42.4632235848
 30
0.0
 10
1062.697553724
 20
42.033110359
 30
0.0
 10
1062.1704785571
 20
41.6173909436
 30
0.0
 10
1062.1704785571
 20
41.6173909436
 30
0.0
 10
1062.0037720619
 20
41.5069511618
 30
0.0
 10
1062.0037720619
 20
41.5069511618
 30
0.0
  0
SPLINE
  5
264
330
229
100
AcDbEntity
  8
0
  6
Continuous
 62
     7
100
AcDbSpline
 70
     3
 71
     3
 72
    50
 73
    46
 74
     0
 42
0.000000001
 43
0.0000001
 40
0.0
 40
0.0
 40
0.0
 40
0.0
 40
1.0
 40
1.0
 40
1.0
 40
2.0
 40
2.0
 40
2.0
 40
3.0
 40
3.0
 40
3.0
 40
4.0
 40
4.0
 40
4.0
 40
5.0
 40
5.0
 40
5.0
 40
6.0
 40
6.0
 40
6.0
 40
7.0
 40
7.0
 40
7.0
 40
8.0
 40
8.0
 40
8.0
 40
9.0
 40
9.0
 40
9.0
 40
10.0
 40
10.0
 40
10.0
 40
11.0
 40
11.0
 40
11.0
 40
12.0
 40
12.0
 40
12.0
 40
13.0
 40
13.0
 40
13.0
 40
14.0
 40
14.0
 40
14.0
 40
15.0
 40
15.0
 40
15.0
 40
15.0
 10
1065.9573592248
 20
34.7083619437
 30
0.0
 10
1065.9573592248
 20
34.7083619437
 30
0.0
 10
1067.5665872294
 20
34.7083619437
 30
0.0
 10
1067.5665872294
 20
34.7083619437
 30
0.0
 10
1067.5665872294
 20
34.7083619437
 30
0.0
 10
1065.6935599357
 20
37.0255037151
 30
0.0
 10
1065.6935599357
 20
37.0255037151
 30
0.0
 10
1065.6935599357
 20
37.0255037151
 30
0.0
 10
1066.9698983612
 20
38.5229834097
 30
0.0
 10
1066.9698983612
 20
38.5229834097
 30
0.0
 10
1066.9698983612
 20
38.5229834097
 30
0.0
 10
1066.1376744135
 20
39.3839949782
 30
0.0
 10
1066.1376744135
 20
39.3839949782
 30
0.0
 10
1066.1376744135
 20
39.3839949782
 30
0.0
 10
1064.9170792902
 20
37.9686908558
 30
0.0
 10
1064.9170792902
 20
37.9686908558
 30
0.0
 10
1064.9170792902
 20
37.9686908558
 30
0.0
 10
1062.7391649214
 20
40.6040666903
 30
0.0
 10
1062.7391649214
 20
40.6040666903
 30
0.0
 10
1063.6127383608
 20
41.2421050502
 30
0.0
 10
1064.639409602
 20
42.033110359
 30
0.0
 10
1064.639409602
 20
43.2119634321
 30
0.0
 10
1064.639409602
 20
44.5856563571
 30
0.0
 10
1063.5015134621
 20
45.3901395065
 30
0.0
 10
1062.2262218592
 20
45.3901395065
 30
0.0
 10
1060.8527906399
 20
45.3901395065
 30
0.0
 10
1059.8118564411
 20
44.5439143069
 30
0.0
 10
1059.8118564411
 20
43.1012619447
 30
0.0
 10
1059.8118564411
 20
42.2136872533
 30
0.0
 10
1060.3671958176
 20
41.4368140493
 30
0.0
 10
1060.9633612744
 20
40.8123843828
 30
0.0
 10
1060.9633612744
 20
40.8123843828
 30
0.0
 10
1060.3114525154
 20
40.3407908125
 30
0.0
 10
1060.3114525154
 20
40.3407908125
 30
0.0
 10
1059.312914631
 20
39.6195300578
 30
0.0
 10
1058.4800364191
 20
38.8982693031
 30
0.0
 10
1058.4800364191
 20
37.5667109867
 30
0.0
 10
1058.4800364191
 20
35.7630356887
 30
0.0
 10
1059.9370825917
 20
34.4864355576
 30
0.0
 10
1061.6846220291
 20
34.4864355576
 30
0.0
 10
1062.91948011
 20
34.4864355576
 30
0.0
 10
1064.0288503347
 20
35.1946110301
 30
0.0
 10
1064.8197247906
 20
36.1231426548
 30
0.0
 10
1064.8197247906
 20
36.1231426548
 30
0.0
 10
1065.9573592248
 20
34.7083619437
 30
0.0
 10
1065.9573592248
 20
34.7083619437
 30
0.0
  0
LINE
  5
265
330
229
100
AcDbEntity
  8
0
  6
Continuous
 62
     7
100
AcDbLine
 10
1051.7602205998
 20
32.6822368483
 30
0.0
 11
1074.1741313275
 21
32.6822368483
 31
0.0
  0
LINE
  5
266
330
229
100
AcDbEntity
  8
0
  6
Continuous
 62
     7
100
AcDbLine
 10
1074.1741313275
 20
32.6822368483
 30
0.0
 11
1074.1741313275
 21
55.096147576
 31
0.0
  0
LINE
  5
267
330
229
100
AcDbEntity
  8
0
  6
Continuous
 62
     7
100
AcDbLine
 10
1074.1741313275
 20
55.096147576
 30
0.0
 11
1051.7602205998
 21
55.096147576
 31
0.0
  0
LINE
  5
268
330
229
100
AcDbEntity
  8
0
  6
Continuous
 62
     7
100
AcDbLine
 10
1051.7602205998
 20
55.096147576
 30
0.0
 11
1051.7602205998
 21
32.6822368483
 31
0.0
  0
ENDBLK
  5
269
330
229
100
AcDbEntity
  8
0
  6
ByBlock
 62
     0
100
AcDbBlockEnd
  0
BLOCK
  5
26A
330
22A
100
AcDbEntity
  8
0
100
AcDbBlockBegin
  2
PROIEZIONE_EU_BL0
 70
     0
 10
1064.1410634924
 20
67.597460076
 30
0.0
  3
PROIEZIONE_EU_BL0
  1

  0
LWPOLYLINE
  5
26B
330
22A
100
AcDbEntity
  8
DEFAULT_1
  6
CENTER
 62
     7
100
AcDbPolyline
 90
        2
 70
     0
 43
0.25
 10
1070.2676841541
 20
72.5971542079
 10
1070.2677251365
 20
62.5977659441
  0
LWPOLYLINE
  5
26C
330
22A
100
AcDbEntity
  8
DEFAULT_1
  6
CENTER
 62
     7
100
AcDbPolyline
 90
        2
 70
     0
 43
0.25
 10
1076.2677139792
 20
67.5977312111
 10
1052.0144130057
 20
67.5974605507
  0
LWPOLYLINE
  5
26D
330
22A
100
AcDbEntity
  8
0
  6
Continuous
 62
     7
100
AcDbPolyline
 90
        2
 70
     1
 43
0.25
 10
1066.7205739783
 20
67.5789123218
 42
1.0
 10
1073.8269030769
 20
67.5789123218
 42
1.0
  0
LWPOLYLINE
  5
26E
330
22A
100
AcDbEntity
  8
0
  6
Continuous
 62
     7
100
AcDbPolyline
 90
        2
 70
     1
 43
0.25
 10
1068.2703178067
 20
67.5968103664
 42
1.0
 10
1072.2820695567
 20
67.5968103664
 42
1.0
  0
LWPOLYLINE
  5
26F
330
22A
100
AcDbEntity
  8
0
  6
Continuous
 62
     7
100
AcDbPolyline
 90
        2
 70
     0
 43
0.25
 10
1064.2677117732
 20
71.1726635712
 10
1064.2677114186
 20
64.0724606629
  0
LWPOLYLINE
  5
270
330
22A
100
AcDbEntity
  8
0
  6
Continuous
 62
     7
100
AcDbPolyline
 90
        2
 70
     0
 43
0.25
 10
1064.267739855
 20
64.0724322265
 10
1054.2731825838
 20
65.5925256394
  0
LWPOLYLINE
  5
271
330
22A
100
AcDbEntity
  8
0
  6
Continuous
 62
     7
100
AcDbPolyline
 90
        2
 70
     0
 43
0.25
 10
1054.2708725982
 20
65.5918480978
 10
1054.2682056941
 20
69.5974867093
  0
LWPOLYLINE
  5
272
330
22A
100
AcDbEntity
  8
0
  6
Continuous
 62
     7
100
AcDbPolyline
 90
        2
 70
     0
 43
0.25
 10
1054.268197418
 20
69.5974784332
 10
1064.2679406553
 20
71.1726356533
  0
ENDBLK
  5
273
330
22A
100
AcDbEntity
  8
0
  6
ByBlock
 62
     0
100
AcDbBlockEnd
  0
ENDSEC
  0
SECTION
  2
ENTITIES
  0
LINE
  5
295
330
1B
100
AcDbEntity
 67
     1
  8
0
  6
Continuous
 62
     7
100
AcDbLine
 10
1189.0
 20
0.0
 30
0.0
 11
1189.0
 21
841.0
 31
0.0
  0
LINE
  5
296
330
1B
100
AcDbEntity
 67
     1
  8
0
  6
Continuous
 62
     7
100
AcDbLine
 10
0.0
 20
841.0
 30
0.0
 11
1189.0
 21
841.0
 31
0.0
  0
LINE
  5
297
330
1B
100
AcDbEntity
 67
     1
  8
0
  6
Continuous
 62
     7
100
AcDbLine
 10
0.0
 20
0.0
 30
0.0
 11
0.0
 21
841.0
 31
0.0
  0
LINE
  5
298
330
1B
100
AcDbEntity
 67
     1
  8
0
  6
Continuous
 62
     7
100
AcDbLine
 10
7.0
 20
834.0
 30
0.0
 11
1182.0
 21
834.0
 31
0.0
  0
LINE
  5
299
330
1B
100
AcDbEntity
 67
     1
  8
0
  6
Continuous
 62
     7
100
AcDbLine
 10
1182.0
 20
7.0
 30
0.0
 11
1182.0
 21
834.0
 31
0.0
  0
LINE
  5
29A
330
1B
100
AcDbEntity
 67
     1
  8
0
  6
Continuous
 62
     7
100
AcDbLine
 10
7.0
 20
7.0
 30
0.0
 11
7.0
 21
841.0
 31
0.0
  0
LINE
  5
29B
330
1B
100
AcDbEntity
 67
     1
  8
0
  6
Continuous
 62
     7
100
AcDbLine
 10
7.0
 20
7.0
 30
0.0
 11
1182.0
 21
7.0
 31
0.0
  0
LINE
  5
29C
330
1B
100
AcDbEntity
 67
     1
  8
0
  6
Continuous
 62
     7
100
AcDbLine
 10
10.0
 20
831.0
 30
0.0
 11
1179.0
 21
831.0
 31
0.0
  0
LINE
  5
29D
330
1B
100
AcDbEntity
 67
     1
  8
0
  6
Continuous
 62
     7
100
AcDbLine
 10
10.0
 20
10.0
 30
0.0
 11
10.0
 21
831.0
 31
0.0
  0
LINE
  5
29E
330
1B
100
AcDbEntity
 67
     1
  8
0
  6
Continuous
 62
     7
100
AcDbLine
 10
10.0
 20
10.0
 30
0.0
 11
1179.0
 21
10.0
 31
0.0
  0
LINE
  5
29F
330
1B
100
AcDbEntity
 67
     1
  8
0
  6
Continuous
 62
     7
100
AcDbLine
 10
1179.0
 20
10.0
 30
0.0
 11
1179.0
 21
831.0
 31
0.0
  0
LINE
  5
2A0
330
1B
100
AcDbEntity
 67
     1
  8
0
  6
Continuous
 62
     7
100
AcDbLine
 10
594.5
 20
841.0
 30
0.0
 11
594.5
 21
830.9963547375
 31
0.0
  0
LINE
  5
2A1
330
1B
100
AcDbEntity
 67
     1
  8
0
  6
Continuous
 62
     7
100
AcDbLine
 10
1189.0
 20
420.5
 30
0.0
 11
1179.0324714513
 21
420.5
 31
0.0
  0
LINE
  5
2A2
330
1B
100
AcDbEntity
 67
     1
  8
0
  6
Continuous
 62
     7
100
AcDbLine
 10
979.0
 20
0.0
 30
0.0
 11
979.0
 21
10.0
 31
0.0
  0
LINE
  5
2A3
330
1B
100
AcDbEntity
 67
     1
  8
0
  6
Continuous
 62
     7
100
AcDbLine
 10
0.0
 20
0.0
 30
0.0
 11
1189.0
 21
0.0
 31
0.0
  0
LINE
  5
2A4
330
1B
100
AcDbEntity
 67
     1
  8
0
  6
Continuous
 62
     7
100
AcDbLine
 10
1182.0
 20
7.0
 30
0.0
 11
1182.0
 21
0.0
 31
0.0
  0
LINE
  5
2A5
330
1B
100
AcDbEntity
 67
     1
  8
0
  6
Continuous
 62
     7
100
AcDbLine
 10
1182.0
 20
7.0
 30
0.0
 11
1189.0
 21
7.0
 31
0.0
  0
LINE
  5
2A6
330
1B
100
AcDbEntity
 67
     1
  8
0
  6
Continuous
 62
     7
100
AcDbLine
 10
1082.0
 20
7.0
 30
0.0
 11
1082.0
 21
0.0
 31
0.0
  0
LINE
  5
2A7
330
1B
100
AcDbEntity
 67
     1
  8
0
  6
Continuous
 62
     7
100
AcDbLine
 10
882.0
 20
7.0
 30
0.0
 11
882.0
 21
0.0
 31
0.0
  0
LINE
  5
2A8
330
1B
100
AcDbEntity
 67
     1
  8
0
  6
Continuous
 62
     7
100
AcDbLine
 10
782.0
 20
7.0
 30
0.0
 11
782.0
 21
0.0
 31
0.0
  0
LINE
  5
2A9
330
1B
100
AcDbEntity
 67
     1
  8
0
  6
Continuous
 62
     7
100
AcDbLine
 10
682.0
 20
7.0
 30
0.0
 11
682.0
 21
0.0
 31
0.0
  0
LINE
  5
2AA
330
1B
100
AcDbEntity
 67
     1
  8
0
  6
Continuous
 62
     7
100
AcDbLine
 10
582.0
 20
7.0
 30
0.0
 11
582.0
 21
0.0
 31
0.0
  0
LINE
  5
2AB
330
1B
100
AcDbEntity
 67
     1
  8
0
  6
Continuous
 62
     7
100
AcDbLine
 10
482.0
 20
7.0
 30
0.0
 11
482.0
 21
0.0
 31
0.0
  0
LINE
  5
2AC
330
1B
100
AcDbEntity
 67
     1
  8
0
  6
Continuous
 62
     7
100
AcDbLine
 10
382.0
 20
7.0
 30
0.0
 11
382.0
 21
0.0
 31
0.0
  0
LINE
  5
2AD
330
1B
100
AcDbEntity
 67
     1
  8
0
  6
Continuous
 62
     7
100
AcDbLine
 10
282.0
 20
7.0
 30
0.0
 11
282.0
 21
0.0
 31
0.0
  0
LINE
  5
2AE
330
1B
100
AcDbEntity
 67
     1
  8
0
  6
Continuous
 62
     7
100
AcDbLine
 10
182.0
 20
7.0
 30
0.0
 11
182.0
 21
0.0
 31
0.0
  0
LINE
  5
2AF
330
1B
100
AcDbEntity
 67
     1
  8
0
  6
Continuous
 62
     7
100
AcDbLine
 10
82.0
 20
7.0
 30
0.0
 11
82.0
 21
0.0
 31
0.0
  0
LINE
  5
2B0
330
1B
100
AcDbEntity
 67
     1
  8
0
  6
Continuous
 62
     7
100
AcDbLine
 10
7.0
 20
7.0
 30
0.0
 11
0.0
 21
7.0
 31
0.0
  0
LINE
  5
2B1
330
1B
100
AcDbEntity
 67
     1
  8
0
  6
Continuous
 62
     7
100
AcDbLine
 10
7.0
 20
7.0
 30
0.0
 11
7.0
 21
0.0
 31
0.0
  0
LINE
  5
2B2
330
1B
100
AcDbEntity
 67
     1
  8
0
  6
Continuous
 62
     7
100
AcDbLine
 10
1182.0
 20
107.0
 30
0.0
 11
1189.0
 21
107.0
 31
0.0
  0
LINE
  5
2B3
330
1B
100
AcDbEntity
 67
     1
  8
0
  6
Continuous
 62
     7
100
AcDbLine
 10
1182.0
 20
207.0
 30
0.0
 11
1189.0
 21
207.0
 31
0.0
  0
LINE
  5
2B4
330
1B
100
AcDbEntity
 67
     1
  8
0
  6
Continuous
 62
     7
100
AcDbLine
 10
1182.0
 20
307.0
 30
0.0
 11
1189.0
 21
307.0
 31
0.0
  0
LINE
  5
2B5
330
1B
100
AcDbEntity
 67
     1
  8
0
  6
Continuous
 62
     7
100
AcDbLine
 10
1179.0
 20
507.0
 30
0.0
 11
1189.0
 21
507.0
 31
0.0
  0
LINE
  5
2B6
330
1B
100
AcDbEntity
 67
     1
  8
0
  6
Continuous
 62
     7
100
AcDbLine
 10
1182.0
 20
607.0
 30
0.0
 11
1189.0
 21
607.0
 31
0.0
  0
LINE
  5
2B7
330
1B
100
AcDbEntity
 67
     1
  8
0
  6
Continuous
 62
     7
100
AcDbLine
 10
1182.0
 20
707.0
 30
0.0
 11
1189.0
 21
707.0
 31
0.0
  0
LINE
  5
2B8
330
1B
100
AcDbEntity
 67
     1
  8
0
  6
Continuous
 62
     7
100
AcDbLine
 10
1182.0
 20
834.0
 30
0.0
 11
1189.0
 21
834.0
 31
0.0
  0
LINE
  5
2B9
330
1B
100
AcDbEntity
 67
     1
  8
0
  6
Continuous
 62
     7
100
AcDbLine
 10
1182.0
 20
834.0
 30
0.0
 11
1182.0
 21
841.0
 31
0.0
  0
LINE
  5
2BA
330
1B
100
AcDbEntity
 67
     1
  8
0
  6
Continuous
 62
     7
100
AcDbLine
 10
0.0
 20
834.0
 30
0.0
 11
1189.0
 21
834.0
 31
0.0
  0
LINE
  5
2BB
330
1B
100
AcDbEntity
 67
     1
  8
0
  6
Continuous
 62
     7
100
AcDbLine
 10
979.0
 20
831.0
 30
0.0
 11
979.0
 21
841.0
 31
0.0
  0
LINE
  5
2BC
330
1B
100
AcDbEntity
 67
     1
  8
0
  6
Continuous
 62
     7
100
AcDbLine
 10
1082.0
 20
841.0
 30
0.0
 11
1082.0
 21
834.0
 31
0.0
  0
LINE
  5
2BD
330
1B
100
AcDbEntity
 67
     1
  8
0
  6
Continuous
 62
     7
100
AcDbLine
 10
882.0
 20
841.0
 30
0.0
 11
882.0
 21
834.0
 31
0.0
  0
LINE
  5
2BE
330
1B
100
AcDbEntity
 67
     1
  8
0
  6
Continuous
 62
     7
100
AcDbLine
 10
782.0
 20
841.0
 30
0.0
 11
782.0
 21
834.0
 31
0.0
  0
LINE
  5
2BF
330
1B
100
AcDbEntity
 67
     1
  8
0
  6
Continuous
 62
     7
100
AcDbLine
 10
682.0
 20
841.0
 30
0.0
 11
682.0
 21
834.0
 31
0.0
  0
LINE
  5
2C0
330
1B
100
AcDbEntity
 67
     1
  8
0
  6
Continuous
 62
     7
100
AcDbLine
 10
582.0
 20
841.0
 30
0.0
 11
582.0
 21
834.0
 31
0.0
  0
LINE
  5
2C1
330
1B
100
AcDbEntity
 67
     1
  8
0
  6
Continuous
 62
     7
100
AcDbLine
 10
482.0
 20
841.0
 30
0.0
 11
482.0
 21
834.0
 31
0.0
  0
LINE
  5
2C2
330
1B
100
AcDbEntity
 67
     1
  8
0
  6
Continuous
 62
     7
100
AcDbLine
 10
382.0
 20
841.0
 30
0.0
 11
382.0
 21
834.0
 31
0.0
  0
LINE
  5
2C3
330
1B
100
AcDbEntity
 67
     1
  8
0
  6
Continuous
 62
     7
100
AcDbLine
 10
282.0
 20
841.0
 30
0.0
 11
282.0
 21
834.0
 31
0.0
  0
LINE
  5
2C4
330
1B
100
AcDbEntity
 67
     1
  8
0
  6
Continuous
 62
     7
100
AcDbLine
 10
182.0
 20
841.0
 30
0.0
 11
182.0
 21
834.0
 31
0.0
  0
LINE
  5
2C5
330
1B
100
AcDbEntity
 67
     1
  8
0
  6
Continuous
 62
     7
100
AcDbLine
 10
82.0
 20
841.0
 30
0.0
 11
82.0
 21
834.0
 31
0.0
  0
LINE
  5
2C6
330
1B
100
AcDbEntity
 67
     1
  8
0
  6
Continuous
 62
     7
100
AcDbLine
 10
7.0
 20
420.5
 30
0.0
 11
-2.9675285487
 21
420.5
 31
0.0
  0
LINE
  5
2C7
330
1B
100
AcDbEntity
 67
     1
  8
0
  6
Continuous
 62
     7
100
AcDbLine
 10
0.0
 20
107.0
 30
0.0
 11
7.0
 21
107.0
 31
0.0
  0
LINE
  5
2C8
330
1B
100
AcDbEntity
 67
     1
  8
0
  6
Continuous
 62
     7
100
AcDbLine
 10
0.0
 20
207.0
 30
0.0
 11
7.0
 21
207.0
 31
0.0
  0
LINE
  5
2C9
330
1B
100
AcDbEntity
 67
     1
  8
0
  6
Continuous
 62
     7
100
AcDbLine
 10
0.0
 20
307.0
 30
0.0
 11
7.0
 21
307.0
 31
0.0
  0
LINE
  5
2CA
330
1B
100
AcDbEntity
 67
     1
  8
0
  6
Continuous
 62
     7
100
AcDbLine
 10
-3.0
 20
507.0
 30
0.0
 11
7.0
 21
507.0
 31
0.0
  0
LINE
  5
2CB
330
1B
100
AcDbEntity
 67
     1
  8
0
  6
Continuous
 62
     7
100
AcDbLine
 10
0.0
 20
607.0
 30
0.0
 11
7.0
 21
607.0
 31
0.0
  0
LINE
  5
2CC
330
1B
100
AcDbEntity
 67
     1
  8
0
  6
Continuous
 62
     7
100
AcDbLine
 10
0.0
 20
707.0
 30
0.0
 11
7.0
 21
707.0
 31
0.0
  0
MTEXT
  5
2CD
330
1B
100
AcDbEntity
 67
     1
  8
0
  6
Continuous
 62
     2
100
AcDbMText
 10
1131.154890719
 20
5.35876025
 30
0.0
 40
4.0
 41
5.1428571429
 46
0.0
 71
     1
 72
     1
  1
A
  7
TEXTSTYLE_2
 73
     1
 44
1.0
  0
MTEXT
  5
2CE
330
1B
100
AcDbEntity
 67
     1
  8
0
  6
Continuous
 62
     2
100
AcDbMText
 10
1031.154890719
 20
5.35876025
 30
0.0
 40
4.0
 41
4.7142857143
 46
0.0
 71
     1
 72
     1
  1
B
  7
TEXTSTYLE_2
 73
     1
 44
1.0
  0
MTEXT
  5
2CF
330
1B
100
AcDbEntity
 67
     1
  8
0
  6
Continuous
 62
     2
100
AcDbMText
 10
931.154890719
 20
5.35876025
 30
0.0
 40
4.0
 41
5.0
 46
0.0
 71
     1
 72
     1
  1
C
  7
TEXTSTYLE_2
 73
     1
 44
1.0
  0
MTEXT
  5
2D0
330
1B
100
AcDbEntity
 67
     1
  8
0
  6
Continuous
 62
     2
100
AcDbMText
 10
831.154890719
 20
5.35876025
 30
0.0
 40
4.0
 41
5.4285714286
 46
0.0
 71
     1
 72
     1
  1
D
  7
TEXTSTYLE_2
 73
     1
 44
1.0
  0
MTEXT
  5
2D1
330
1B
100
AcDbEntity
 67
     1
  8
0
  6
Continuous
 62
     2
100
AcDbMText
 10
731.154890719
 20
5.35876025
 30
0.0
 40
4.0
 41
4.2857142857
 46
0.0
 71
     1
 72
     1
  1
E
  7
TEXTSTYLE_2
 73
     1
 44
1.0
  0
MTEXT
  5
2D2
330
1B
100
AcDbEntity
 67
     1
  8
0
  6
Continuous
 62
     2
100
AcDbMText
 10
631.154890719
 20
5.35876025
 30
0.0
 40
4.0
 41
4.2857142857
 46
0.0
 71
     1
 72
     1
  1
F
  7
TEXTSTYLE_2
 73
     1
 44
1.0
  0
MTEXT
  5
2D3
330
1B
100
AcDbEntity
 67
     1
  8
0
  6
Continuous
 62
     2
100
AcDbMText
 10
531.154890719
 20
5.35876025
 30
0.0
 40
4.0
 41
4.7142857143
 46
0.0
 71
     1
 72
     1
  1
G
  7
TEXTSTYLE_2
 73
     1
 44
1.0
  0
MTEXT
  5
2D4
330
1B
100
AcDbEntity
 67
     1
  8
0
  6
Continuous
 62
     2
100
AcDbMText
 10
431.154890719
 20
5.35876025
 30
0.0
 40
4.0
 41
4.7142857143
 46
0.0
 71
     1
 72
     1
  1
H
  7
TEXTSTYLE_2
 73
     1
 44
1.0
  0
MTEXT
  5
2D5
330
1B
100
AcDbEntity
 67
     1
  8
0
  6
Continuous
 62
     2
100
AcDbMText
 10
331.154890719
 20
5.35876025
 30
0.0
 40
4.0
 41
3.8571428571
 46
0.0
 71
     1
 72
     1
  1
I
  7
TEXTSTYLE_2
 73
     1
 44
1.0
  0
MTEXT
  5
2D6
330
1B
100
AcDbEntity
 67
     1
  8
0
  6
Continuous
 62
     2
100
AcDbMText
 10
231.154890719
 20
5.35876025
 30
0.0
 40
4.0
 41
3.8571428571
 46
0.0
 71
     1
 72
     1
  1
L
  7
TEXTSTYLE_2
 73
     1
 44
1.0
  0
MTEXT
  5
2D7
330
1B
100
AcDbEntity
 67
     1
  8
0
  6
Continuous
 62
     2
100
AcDbMText
 10
131.154890719
 20
5.35876025
 30
0.0
 40
4.0
 41
5.1428571429
 46
0.0
 71
     1
 72
     1
  1
M
  7
TEXTSTYLE_2
 73
     1
 44
1.0
  0
MTEXT
  5
2D8
330
1B
100
AcDbEntity
 67
     1
  8
0
  6
Continuous
 62
     2
100
AcDbMText
 10
31.154890719
 20
5.35876025
 30
0.0
 40
4.0
 41
4.7142857143
 46
0.0
 71
     1
 72
     1
  1
N
  7
TEXTSTYLE_2
 73
     1
 44
1.0
  0
MTEXT
  5
2D9
330
1B
100
AcDbEntity
 67
     1
  8
0
  6
Continuous
 62
     2
100
AcDbMText
 10
1183.6467220993
 20
60.6268709614
 30
0.0
 40
4.0
 41
3.4285714286
 46
0.0
 71
     1
 72
     1
  1
1
  7
TEXTSTYLE_2
 73
     1
 44
1.0
  0
MTEXT
  5
2DA
330
1B
100
AcDbEntity
 67
     1
  8
0
  6
Continuous
 62
     2
100
AcDbMText
 10
1183.6467220993
 20
160.6268709614
 30
0.0
 40
4.0
 41
4.7142857143
 46
0.0
 71
     1
 72
     1
  1
2
  7
TEXTSTYLE_2
 73
     1
 44
1.0
  0
MTEXT
  5
2DB
330
1B
100
AcDbEntity
 67
     1
  8
0
  6
Continuous
 62
     2
100
AcDbMText
 10
1183.6467220993
 20
260.6268709614
 30
0.0
 40
4.0
 41
4.2857142857
 46
0.0
 71
     1
 72
     1
  1
3
  7
TEXTSTYLE_2
 73
     1
 44
1.0
  0
MTEXT
  5
2DC
330
1B
100
AcDbEntity
 67
     1
  8
0
  6
Continuous
 62
     2
100
AcDbMText
 10
1183.6467220993
 20
360.6268709614
 30
0.0
 40
4.0
 41
4.7142857143
 46
0.0
 71
     1
 72
     1
  1
4
  7
TEXTSTYLE_2
 73
     1
 44
1.0
  0
MTEXT
  5
2DD
330
1B
100
AcDbEntity
 67
     1
  8
0
  6
Continuous
 62
     2
100
AcDbMText
 10
1183.6467220993
 20
460.6268709614
 30
0.0
 40
4.0
 41
4.2857142857
 46
0.0
 71
     1
 72
     1
  1
5
  7
TEXTSTYLE_2
 73
     1
 44
1.0
  0
MTEXT
  5
2DE
330
1B
100
AcDbEntity
 67
     1
  8
0
  6
Continuous
 62
     2
100
AcDbMText
 10
1183.6467220993
 20
560.6268709614
 30
0.0
 40
4.0
 41
4.7142857143
 46
0.0
 71
     1
 72
     1
  1
6
  7
TEXTSTYLE_2
 73
     1
 44
1.0
  0
MTEXT
  5
2DF
330
1B
100
AcDbEntity
 67
     1
  8
0
  6
Continuous
 62
     2
100
AcDbMText
 10
1183.6467220993
 20
660.6268709614
 30
0.0
 40
4.0
 41
4.7142857143
 46
0.0
 71
     1
 72
     1
  1
7
  7
TEXTSTYLE_2
 73
     1
 44
1.0
  0
MTEXT
  5
2E0
330
1B
100
AcDbEntity
 67
     1
  8
0
  6
Continuous
 62
     2
100
AcDbMText
 10
1183.8487460335
 20
775.1725942251
 30
0.0
 40
4.0
 41
4.7142857143
 46
0.0
 71
     1
 72
     1
  1
8
  7
TEXTSTYLE_2
 73
     1
 44
1.0
  0
MTEXT
  5
2E1
330
1B
100
AcDbEntity
 67
     1
  8
0
  6
Continuous
 62
     2
100
AcDbMText
 10
1131.154890719
 20
839.35876025
 30
0.0
 40
4.0
 41
5.1428571429
 46
0.0
 71
     1
 72
     1
  1
A
  7
TEXTSTYLE_2
 73
     1
 44
1.0
  0
MTEXT
  5
2E2
330
1B
100
AcDbEntity
 67
     1
  8
0
  6
Continuous
 62
     2
100
AcDbMText
 10
1031.154890719
 20
839.35876025
 30
0.0
 40
4.0
 41
4.7142857143
 46
0.0
 71
     1
 72
     1
  1
B
  7
TEXTSTYLE_2
 73
     1
 44
1.0
  0
MTEXT
  5
2E3
330
1B
100
AcDbEntity
 67
     1
  8
0
  6
Continuous
 62
     2
100
AcDbMText
 10
931.154890719
 20
839.35876025
 30
0.0
 40
4.0
 41
5.0
 46
0.0
 71
     1
 72
     1
  1
C
  7
TEXTSTYLE_2
 73
     1
 44
1.0
  0
MTEXT
  5
2E4
330
1B
100
AcDbEntity
 67
     1
  8
0
  6
Continuous
 62
     2
100
AcDbMText
 10
831.154890719
 20
839.35876025
 30
0.0
 40
4.0
 41
5.4285714286
 46
0.0
 71
     1
 72
     1
  1
D
  7
TEXTSTYLE_2
 73
     1
 44
1.0
  0
MTEXT
  5
2E5
330
1B
100
AcDbEntity
 67
     1
  8
0
  6
Continuous
 62
     2
100
AcDbMText
 10
731.154890719
 20
839.35876025
 30
0.0
 40
4.0
 41
4.2857142857
 46
0.0
 71
     1
 72
     1
  1
E
  7
TEXTSTYLE_2
 73
     1
 44
1.0
  0
MTEXT
  5
2E6
330
1B
100
AcDbEntity
 67
     1
  8
0
  6
Continuous
 62
     2
100
AcDbMText
 10
631.154890719
 20
839.35876025
 30
0.0
 40
4.0
 41
4.2857142857
 46
0.0
 71
     1
 72
     1
  1
F
  7
TEXTSTYLE_2
 73
     1
 44
1.0
  0
MTEXT
  5
2E7
330
1B
100
AcDbEntity
 67
     1
  8
0
  6
Continuous
 62
     2
100
AcDbMText
 10
531.154890719
 20
839.35876025
 30
0.0
 40
4.0
 41
4.7142857143
 46
0.0
 71
     1
 72
     1
  1
G
  7
TEXTSTYLE_2
 73
     1
 44
1.0
  0
MTEXT
  5
2E8
330
1B
100
AcDbEntity
 67
     1
  8
0
  6
Continuous
 62
     2
100
AcDbMText
 10
431.154890719
 20
839.35876025
 30
0.0
 40
4.0
 41
4.7142857143
 46
0.0
 71
     1
 72
     1
  1
H
  7
TEXTSTYLE_2
 73
     1
 44
1.0
  0
MTEXT
  5
2E9
330
1B
100
AcDbEntity
 67
     1
  8
0
  6
Continuous
 62
     2
100
AcDbMText
 10
331.154890719
 20
839.35876025
 30
0.0
 40
4.0
 41
3.8571428571
 46
0.0
 71
     1
 72
     1
  1
I
  7
TEXTSTYLE_2
 73
     1
 44
1.0
  0
MTEXT
  5
2EA
330
1B
100
AcDbEntity
 67
     1
  8
0
  6
Continuous
 62
     2
100
AcDbMText
 10
231.154890719
 20
839.35876025
 30
0.0
 40
4.0
 41
3.8571428571
 46
0.0
 71
     1
 72
     1
  1
L
  7
TEXTSTYLE_2
 73
     1
 44
1.0
  0
MTEXT
  5
2EB
330
1B
100
AcDbEntity
 67
     1
  8
0
  6
Continuous
 62
     2
100
AcDbMText
 10
131.154890719
 20
839.35876025
 30
0.0
 40
4.0
 41
5.1428571429
 46
0.0
 71
     1
 72
     1
  1
M
  7
TEXTSTYLE_2
 73
     1
 44
1.0
  0
MTEXT
  5
2EC
330
1B
100
AcDbEntity
 67
     1
  8
0
  6
Continuous
 62
     2
100
AcDbMText
 10
31.154890719
 20
839.35876025
 30
0.0
 40
4.0
 41
4.7142857143
 46
0.0
 71
     1
 72
     1
  1
N
  7
TEXTSTYLE_2
 73
     1
 44
1.0
  0
MTEXT
  5
2ED
330
1B
100
AcDbEntity
 67
     1
  8
0
  6
Continuous
 62
     2
100
AcDbMText
 10
1.6467220993
 20
60.6268709614
 30
0.0
 40
4.0
 41
3.4285714286
 46
0.0
 71
     1
 72
     1
  1
1
  7
TEXTSTYLE_2
 73
     1
 44
1.0
  0
MTEXT
  5
2EE
330
1B
100
AcDbEntity
 67
     1
  8
0
  6
Continuous
 62
     2
100
AcDbMText
 10
1.6467220993
 20
160.6268709614
 30
0.0
 40
4.0
 41
4.7142857143
 46
0.0
 71
     1
 72
     1
  1
2
  7
TEXTSTYLE_2
 73
     1
 44
1.0
  0
MTEXT
  5
2EF
330
1B
100
AcDbEntity
 67
     1
  8
0
  6
Continuous
 62
     2
100
AcDbMText
 10
1.6467220993
 20
260.6268709614
 30
0.0
 40
4.0
 41
4.2857142857
 46
0.0
 71
     1
 72
     1
  1
3
  7
TEXTSTYLE_2
 73
     1
 44
1.0
  0
MTEXT
  5
2F0
330
1B
100
AcDbEntity
 67
     1
  8
0
  6
Continuous
 62
     2
100
AcDbMText
 10
1.6467220993
 20
360.6268709614
 30
0.0
 40
4.0
 41
4.7142857143
 46
0.0
 71
     1
 72
     1
  1
4
  7
TEXTSTYLE_2
 73
     1
 44
1.0
  0
MTEXT
  5
2F1
330
1B
100
AcDbEntity
 67
     1
  8
0
  6
Continuous
 62
     2
100
AcDbMText
 10
1.6467220993
 20
460.6268709614
 30
0.0
 40
4.0
 41
4.2857142857
 46
0.0
 71
     1
 72
     1
  1
5
  7
TEXTSTYLE_2
 73
     1
 44
1.0
  0
MTEXT
  5
2F2
330
1B
100
AcDbEntity
 67
     1
  8
0
  6
Continuous
 62
     2
100
AcDbMText
 10
1.6467220993
 20
560.6268709614
 30
0.0
 40
4.0
 41
4.7142857143
 46
0.0
 71
     1
 72
     1
  1
6
  7
TEXTSTYLE_2
 73
     1
 44
1.0
  0
MTEXT
  5
2F3
330
1B
100
AcDbEntity
 67
     1
  8
0
  6
Continuous
 62
     2
100
AcDbMText
 10
1.6467220993
 20
660.6268709614
 30
0.0
 40
4.0
 41
4.7142857143
 46
0.0
 71
     1
 72
     1
  1
7
  7
TEXTSTYLE_2
 73
     1
 44
1.0
  0
MTEXT
  5
2F4
330
1B
100
AcDbEntity
 67
     1
  8
0
  6
Continuous
 62
     2
100
AcDbMText
 10
1.8487460335
 20
775.1725942251
 30
0.0
 40
4.0
 41
4.7142857143
 46
0.0
 71
     1
 72
     1
  1
8
  7
TEXTSTYLE_2
 73
     1
 44
1.0
  0
VIEWPORT
  5
2F5
330
1B
100
AcDbEntity
 67
     1
  8
0
100
AcDbViewport
 10
0.0
 20
0.0
 30
0.0
 40
1401.884824902724
 41
991.332840466926
 68
     1
 69
     1
 12
659.6556420233462
 22
420.4999999999999
 13
0.0
 23
0.0
 14
1.0
 24
1.0
 15
0.0
 25
0.0
 16
0.0
 26
0.0
 36
1.0
 17
0.0
 27
0.0
 37
0.0
 42
50.0
 43
0.0
 44
0.0
 45
991.332840466926
 50
0.0
 51
0.0
 72
   100
 90
   557216
  1

281
     0
 71
     1
 74
     0
110
0.0
120
0.0
130
0.0
111
1.0
121
0.0
131
0.0
112
0.0
122
1.0
132
0.0
 79
     0
146
0.0
170
     0
 61
     5
348
4C3
292
     1
282
     1
141
0.0
142
0.0
 63
   256
  0
LINE
  5
2F6
330
1B
100
AcDbEntity
 67
     1
  8
3_ALL_AXES
  6
Continuous
 62
     7
100
AcDbLine
 10
42.669478684
 20
119.5674217337
 30
0.0
 11
42.8201990136
 21
119.5674217337
 31
0.0
  0
LINE
  5
2F7
330
1B
100
AcDbEntity
 67
     1
  8
3_ALL_AXES
  6
Continuous
 62
     7
100
AcDbLine
 10
42.669478684
 20
114.0674217337
 30
0.0
 11
42.8201990136
 21
114.0674217337
 31
0.0
  0
LINE
  5
2F8
330
1B
100
AcDbEntity
 67
     1
  8
3_ALL_AXES
  6
Continuous
 62
     7
100
AcDbLine
 10
42.669478684
 20
119.5674217337
 30
0.0
 11
42.669478684
 21
114.0674217337
 31
0.0
  0
LINE
  5
2F9
330
1B
100
AcDbEntity
 67
     1
  8
3_ALL_AXES
  6
Continuous
 62
     7
100
AcDbLine
 10
42.8201990136
 20
119.5674217337
 30
0.0
 11
43.169478684
 21
119.2743412911
 31
0.0
  0
LINE
  5
2FA
330
1B
100
AcDbEntity
 67
     1
  8
3_ALL_AXES
  6
Continuous
 62
     7
100
AcDbLine
 10
42.8201990136
 20
114.0674217337
 30
0.0
 11
43.169478684
 21
114.3605021763
 31
0.0
  0
LINE
  5
2FB
330
1B
100
AcDbEntity
 67
     1
  8
3_ALL_AXES
  6
Continuous
 62
     7
100
AcDbLine
 10
42.8201990136
 20
119.5674217337
 30
0.0
 11
42.669478684
 21
119.5674217337
 31
0.0
  0
LINE
  5
2FC
330
1B
100
AcDbEntity
 67
     1
  8
3_ALL_AXES
  6
Continuous
 62
     7
100
AcDbLine
 10
43.169478684
 20
119.2743412911
 30
0.0
 11
42.8201990136
 21
119.5674217337
 31
0.0
  0
LINE
  5
2FD
330
1B
100
AcDbEntity
 67
     1
  8
3_ALL_AXES
  6
Continuous
 62
     7
100
AcDbLine
 10
42.8201990136
 20
114.0674217337
 30
0.0
 11
42.669478684
 21
114.0674217337
 31
0.0
  0
LINE
  5
2FE
330
1B
100
AcDbEntity
 67
     1
  8
3_ALL_AXES
  6
Continuous
 62
     7
100
AcDbLine
 10
43.169478684
 20
114.3605021763
 30
0.0
 11
42.8201990136
 21
114.0674217337
 31
0.0
  0
LINE
  5
2FF
330
1B
100
AcDbEntity
 67
     1
  8
3_ALL_AXES
  6
Continuous
 62
     7
100
AcDbLine
 10
42.8201990136
 20
119.5674217337
 30
0.0
 11
42.8201990136
 21
114.0674217337
 31
0.0
  0
LINE
  5
300
330
1B
100
AcDbEntity
 67
     1
  8
3_ALL_AXES
  6
Continuous
 62
     7
100
AcDbLine
 10
42.669478684
 20
155.9674217337
 30
0.0
 11
42.8201990136
 21
155.9674217337
 31
0.0
  0
LINE
  5
301
330
1B
100
AcDbEntity
 67
     1
  8
3_ALL_AXES
  6
Continuous
 62
     7
100
AcDbLine
 10
42.669478684
 20
150.4674217337
 30
0.0
 11
42.8201990136
 21
150.4674217337
 31
0.0
  0
LINE
  5
302
330
1B
100
AcDbEntity
 67
     1
  8
3_ALL_AXES
  6
Continuous
 62
     7
100
AcDbLine
 10
42.669478684
 20
155.9674217337
 30
0.0
 11
42.669478684
 21
150.4674217337
 31
0.0
  0
LINE
  5
303
330
1B
100
AcDbEntity
 67
     1
  8
3_ALL_AXES
  6
Continuous
 62
     7
100
AcDbLine
 10
42.8201990136
 20
155.9674217337
 30
0.0
 11
43.169478684
 21
155.6743412911
 31
0.0
  0
LINE
  5
304
330
1B
100
AcDbEntity
 67
     1
  8
3_ALL_AXES
  6
Continuous
 62
     7
100
AcDbLine
 10
42.8201990136
 20
150.4674217337
 30
0.0
 11
43.169478684
 21
150.7605021763
 31
0.0
  0
LINE
  5
305
330
1B
100
AcDbEntity
 67
     1
  8
3_ALL_AXES
  6
Continuous
 62
     7
100
AcDbLine
 10
42.8201990136
 20
155.9674217337
 30
0.0
 11
42.669478684
 21
155.9674217337
 31
0.0
  0
LINE
  5
306
330
1B
100
AcDbEntity
 67
     1
  8
3_ALL_AXES
  6
Continuous
 62
     7
100
AcDbLine
 10
43.169478684
 20
155.6743412911
 30
0.0
 11
42.8201990136
 21
155.9674217337
 31
0.0
  0
LINE
  5
307
330
1B
100
AcDbEntity
 67
     1
  8
3_ALL_AXES
  6
Continuous
 62
     7
100
AcDbLine
 10
42.8201990136
 20
150.4674217337
 30
0.0
 11
42.669478684
 21
150.4674217337
 31
0.0
  0
LINE
  5
308
330
1B
100
AcDbEntity
 67
     1
  8
3_ALL_AXES
  6
Continuous
 62
     7
100
AcDbLine
 10
43.169478684
 20
150.7605021763
 30
0.0
 11
42.8201990136
 21
150.4674217337
 31
0.0
  0
LINE
  5
309
330
1B
100
AcDbEntity
 67
     1
  8
3_ALL_AXES
  6
Continuous
 62
     7
100
AcDbLine
 10
42.8201990136
 20
155.9674217337
 30
0.0
 11
42.8201990136
 21
150.4674217337
 31
0.0
  0
LINE
  5
30A
330
1B
100
AcDbEntity
 67
     1
  8
3_ALL_AXES
  6
Continuous
 62
     7
100
AcDbLine
 10
1085.669478684
 20
114.0674217337
 30
0.0
 11
1085.5187583544
 21
114.0674217337
 31
0.0
  0
LINE
  5
30B
330
1B
100
AcDbEntity
 67
     1
  8
3_ALL_AXES
  6
Continuous
 62
     7
100
AcDbLine
 10
1085.669478684
 20
119.5674217337
 30
0.0
 11
1085.5187583544
 21
119.5674217337
 31
0.0
  0
LINE
  5
30C
330
1B
100
AcDbEntity
 67
     1
  8
3_ALL_AXES
  6
Continuous
 62
     7
100
AcDbLine
 10
1085.669478684
 20
114.0674217337
 30
0.0
 11
1085.669478684
 21
119.5674217337
 31
0.0
  0
LINE
  5
30D
330
1B
100
AcDbEntity
 67
     1
  8
3_ALL_AXES
  6
Continuous
 62
     7
100
AcDbLine
 10
1085.5187583544
 20
114.0674217337
 30
0.0
 11
1085.169478684
 21
114.3605021763
 31
0.0
  0
LINE
  5
30E
330
1B
100
AcDbEntity
 67
     1
  8
3_ALL_AXES
  6
Continuous
 62
     7
100
AcDbLine
 10
1085.5187583544
 20
119.5674217337
 30
0.0
 11
1085.169478684
 21
119.2743412911
 31
0.0
  0
LINE
  5
30F
330
1B
100
AcDbEntity
 67
     1
  8
3_ALL_AXES
  6
Continuous
 62
     7
100
AcDbLine
 10
1085.5187583544
 20
114.0674217337
 30
0.0
 11
1085.669478684
 21
114.0674217337
 31
0.0
  0
LINE
  5
310
330
1B
100
AcDbEntity
 67
     1
  8
3_ALL_AXES
  6
Continuous
 62
     7
100
AcDbLine
 10
1085.169478684
 20
114.3605021763
 30
0.0
 11
1085.5187583544
 21
114.0674217337
 31
0.0
  0
LINE
  5
311
330
1B
100
AcDbEntity
 67
     1
  8
3_ALL_AXES
  6
Continuous
 62
     7
100
AcDbLine
 10
1085.5187583544
 20
119.5674217337
 30
0.0
 11
1085.669478684
 21
119.5674217337
 31
0.0
  0
LINE
  5
312
330
1B
100
AcDbEntity
 67
     1
  8
3_ALL_AXES
  6
Continuous
 62
     7
100
AcDbLine
 10
1085.169478684
 20
119.2743412911
 30
0.0
 11
1085.5187583544
 21
119.5674217337
 31
0.0
  0
LINE
  5
313
330
1B
100
AcDbEntity
 67
     1
  8
3_ALL_AXES
  6
Continuous
 62
     7
100
AcDbLine
 10
1085.5187583544
 20
114.0674217337
 30
0.0
 11
1085.5187583544
 21
119.5674217337
 31
0.0
  0
LINE
  5
314
330
1B
100
AcDbEntity
 67
     1
  8
3_ALL_AXES
  6
Continuous
 62
     7
100
AcDbLine
 10
1085.669478684
 20
150.4674217337
 30
0.0
 11
1085.5187583544
 21
150.4674217337
 31
0.0
  0
LINE
  5
315
330
1B
100
AcDbEntity
 67
     1
  8
3_ALL_AXES
  6
Continuous
 62
     7
100
AcDbLine
 10
1085.669478684
 20
155.9674217337
 30
0.0
 11
1085.5187583544
 21
155.9674217337
 31
0.0
  0
LINE
  5
316
330
1B
100
AcDbEntity
 67
     1
  8
3_ALL_AXES
  6
Continuous
 62
     7
100
AcDbLine
 10
1085.669478684
 20
150.4674217337
 30
0.0
 11
1085.669478684
 21
155.9674217337
 31
0.0
  0
LINE
  5
317
330
1B
100
AcDbEntity
 67
     1
  8
3_ALL_AXES
  6
Continuous
 62
     7
100
AcDbLine
 10
1085.5187583544
 20
150.4674217337
 30
0.0
 11
1085.169478684
 21
150.7605021763
 31
0.0
  0
LINE
  5
318
330
1B
100
AcDbEntity
 67
     1
  8
3_ALL_AXES
  6
Continuous
 62
     7
100
AcDbLine
 10
1085.5187583544
 20
155.9674217337
 30
0.0
 11
1085.169478684
 21
155.6743412911
 31
0.0
  0
LINE
  5
319
330
1B
100
AcDbEntity
 67
     1
  8
3_ALL_AXES
  6
Continuous
 62
     7
100
AcDbLine
 10
1085.5187583544
 20
150.4674217337
 30
0.0
 11
1085.669478684
 21
150.4674217337
 31
0.0
  0
LINE
  5
31A
330
1B
100
AcDbEntity
 67
     1
  8
3_ALL_AXES
  6
Continuous
 62
     7
100
AcDbLine
 10
1085.169478684
 20
150.7605021763
 30
0.0
 11
1085.5187583544
 21
150.4674217337
 31
0.0
  0
LINE
  5
31B
330
1B
100
AcDbEntity
 67
     1
  8
3_ALL_AXES
  6
Continuous
 62
     7
100
AcDbLine
 10
1085.5187583544
 20
155.9674217337
 30
0.0
 11
1085.669478684
 21
155.9674217337
 31
0.0
  0
LINE
  5
31C
330
1B
100
AcDbEntity
 67
     1
  8
3_ALL_AXES
  6
Continuous
 62
     7
100
AcDbLine
 10
1085.169478684
 20
155.6743412911
 30
0.0
 11
1085.5187583544
 21
155.9674217337
 31
0.0
  0
LINE
  5
31D
330
1B
100
AcDbEntity
 67
     1
  8
3_ALL_AXES
  6
Continuous
 62
     7
100
AcDbLine
 10
1085.5187583544
 20
150.4674217337
 30
0.0
 11
1085.5187583544
 21
155.9674217337
 31
0.0
  0
LINE
  5
31E
330
1B
100
AcDbEntity
 67
     1
  8
7_ALL_FEATURES
  6
Continuous
 62
     7
100
AcDbLine
 10
1085.169478684
 20
115.0174217337
 30
0.0
 11
1085.169478684
 21
114.0174217337
 31
0.0
  0
LINE
  5
31F
330
1B
100
AcDbEntity
 67
     1
  8
7_ALL_FEATURES
  6
Continuous
 62
     7
100
AcDbLine
 10
1085.169478684
 20
115.0174217337
 30
0.0
 11
1085.169478684
 21
155.0174217337
 31
0.0
  0
LINE
  5
320
330
1B
100
AcDbEntity
 67
     1
  8
7_ALL_FEATURES
  6
Continuous
 62
     7
100
AcDbLine
 10
1085.169478684
 20
156.0174217337
 30
0.0
 11
1085.169478684
 21
155.0174217337
 31
0.0
  0
LINE
  5
321
330
1B
100
AcDbEntity
 67
     1
  8
7_ALL_FEATURES
  6
Continuous
 62
     7
100
AcDbLine
 10
1085.169478684
 20
114.0174217337
 30
0.0
 11
1083.669478684
 21
114.0174217337
 31
0.0
  0
LINE
  5
322
330
1B
100
AcDbEntity
 67
     1
  8
7_ALL_FEATURES
  6
Continuous
 62
     7
100
AcDbLine
 10
1085.169478684
 20
156.0174217337
 30
0.0
 11
1083.669478684
 21
156.0174217337
 31
0.0
  0
LINE
  5
323
330
1B
100
AcDbEntity
 67
     1
  8
7_ALL_FEATURES
  6
Continuous
 62
     7
100
AcDbLine
 10
1085.169478684
 20
114.0174217337
 30
0.0
 11
1083.669478684
 21
114.0174217337
 31
0.0
  0
LINE
  5
324
330
1B
100
AcDbEntity
 67
     1
  8
7_ALL_FEATURES
  6
Continuous
 62
     9
100
AcDbLine
 10
1085.169478684
 20
155.0174217337
 30
0.0
 11
1083.669478684
 21
155.0174217337
 31
0.0
  0
LINE
  5
325
330
1B
100
AcDbEntity
 67
     1
  8
7_ALL_FEATURES
  6
Continuous
 62
     9
100
AcDbLine
 10
1085.169478684
 20
115.0174217337
 30
0.0
 11
1083.669478684
 21
115.0174217337
 31
0.0
  0
LINE
  5
326
330
1B
100
AcDbEntity
 67
     1
  8
7_ALL_FEATURES
  6
Continuous
 62
     7
100
AcDbLine
 10
43.169478684
 20
155.0174217337
 30
0.0
 11
43.169478684
 21
156.0174217337
 31
0.0
  0
LINE
  5
327
330
1B
100
AcDbEntity
 67
     1
  8
7_ALL_FEATURES
  6
Continuous
 62
     7
100
AcDbLine
 10
43.169478684
 20
155.0174217337
 30
0.0
 11
43.169478684
 21
115.0174217337
 31
0.0
  0
LINE
  5
328
330
1B
100
AcDbEntity
 67
     1
  8
7_ALL_FEATURES
  6
Continuous
 62
     7
100
AcDbLine
 10
43.169478684
 20
114.0174217337
 30
0.0
 11
43.169478684
 21
115.0174217337
 31
0.0
  0
LINE
  5
329
330
1B
100
AcDbEntity
 67
     1
  8
7_ALL_FEATURES
  6
Continuous
 62
     7
100
AcDbLine
 10
43.169478684
 20
156.0174217337
 30
0.0
 11
44.669478684
 21
156.0174217337
 31
0.0
  0
LINE
  5
32A
330
1B
100
AcDbEntity
 67
     1
  8
7_ALL_FEATURES
  6
Continuous
 62
     7
100
AcDbLine
 10
43.169478684
 20
114.0174217337
 30
0.0
 11
44.669478684
 21
114.0174217337
 31
0.0
  0
LINE
  5
32B
330
1B
100
AcDbEntity
 67
     1
  8
7_ALL_FEATURES
  6
Continuous
 62
     7
100
AcDbLine
 10
43.169478684
 20
156.0174217337
 30
0.0
 11
44.669478684
 21
156.0174217337
 31
0.0
  0
LINE
  5
32C
330
1B
100
AcDbEntity
 67
     1
  8
7_ALL_FEATURES
  6
Continuous
 62
     9
100
AcDbLine
 10
43.169478684
 20
115.0174217337
 30
0.0
 11
44.669478684
 21
115.0174217337
 31
0.0
  0
LINE
  5
32D
330
1B
100
AcDbEntity
 67
     1
  8
7_ALL_FEATURES
  6
Continuous
 62
     9
100
AcDbLine
 10
43.169478684
 20
155.0174217337
 30
0.0
 11
44.669478684
 21
155.0174217337
 31
0.0
  0
LINE
  5
32E
330
1B
100
AcDbEntity
 67
     1
  8
7_ALL_FEATURES
  6
Continuous
 62
     7
100
AcDbLine
 10
1083.669478684
 20
154.3174217337
 30
0.0
 11
1083.669478684
 21
155.0174217337
 31
0.0
  0
LINE
  5
32F
330
1B
100
AcDbEntity
 67
     1
  8
7_ALL_FEATURES
  6
Continuous
 62
     7
100
AcDbLine
 10
1083.669478684
 20
155.0174217337
 30
0.0
 11
1083.669478684
 21
155.2043287948
 31
0.0
  0
LINE
  5
330
330
1B
100
AcDbEntity
 67
     1
  8
7_ALL_FEATURES
  6
Continuous
 62
     7
100
AcDbLine
 10
1083.669478684
 20
155.405195635
 30
0.0
 11
1083.669478684
 21
155.2043287948
 31
0.0
  0
LINE
  5
331
330
1B
100
AcDbEntity
 67
     1
  8
7_ALL_FEATURES
  6
Continuous
 62
     7
100
AcDbLine
 10
1083.669478684
 20
156.0174217337
 30
0.0
 11
1083.669478684
 21
156.153258194
 31
0.0
  0
LINE
  5
332
330
1B
100
AcDbEntity
 67
     1
  8
7_ALL_FEATURES
  6
Continuous
 62
     7
100
AcDbLine
 10
1083.669478684
 20
156.2174217337
 30
0.0
 11
1083.669478684
 21
156.153258194
 31
0.0
  0
LINE
  5
333
330
1B
100
AcDbEntity
 67
     1
  8
7_ALL_FEATURES
  6
Continuous
 62
     7
100
AcDbLine
 10
1083.669478684
 20
113.8815852734
 30
0.0
 11
1083.669478684
 21
113.8174217337
 31
0.0
  0
LINE
  5
334
330
1B
100
AcDbEntity
 67
     1
  8
7_ALL_FEATURES
  6
Continuous
 62
     7
100
AcDbLine
 10
1083.669478684
 20
113.8815852734
 30
0.0
 11
1083.669478684
 21
114.0174217337
 31
0.0
  0
LINE
  5
335
330
1B
100
AcDbEntity
 67
     1
  8
7_ALL_FEATURES
  6
Continuous
 62
     7
100
AcDbLine
 10
1083.669478684
 20
114.8305146726
 30
0.0
 11
1083.669478684
 21
114.6296478324
 31
0.0
  0
LINE
  5
336
330
1B
100
AcDbEntity
 67
     1
  8
7_ALL_FEATURES
  6
Continuous
 62
     7
100
AcDbLine
 10
1083.669478684
 20
114.8305146726
 30
0.0
 11
1083.669478684
 21
115.0174217337
 31
0.0
  0
LINE
  5
337
330
1B
100
AcDbEntity
 67
     1
  8
7_ALL_FEATURES
  6
Continuous
 62
     7
100
AcDbLine
 10
1083.669478684
 20
115.0174217337
 30
0.0
 11
1083.669478684
 21
115.7174217337
 31
0.0
  0
LINE
  5
338
330
1B
100
AcDbEntity
 67
     1
  8
7_ALL_FEATURES
  6
Continuous
 62
     7
100
AcDbLine
 10
44.669478684
 20
116.0174217337
 30
0.0
 11
1083.669478684
 21
116.0174217337
 31
0.0
  0
LINE
  5
339
330
1B
100
AcDbEntity
 67
     1
  8
7_ALL_FEATURES
  6
Continuous
 62
     7
100
AcDbLine
 10
44.669478684
 20
154.0174217337
 30
0.0
 11
1083.669478684
 21
154.0174217337
 31
0.0
  0
ARC
  5
33A
330
1B
100
AcDbEntity
 67
     1
  8
02___PRT_ALL_AXES
  6
Continuous
 62
     7
100
AcDbCircle
 10
54.669478684
 20
135.0174217337
 30
0.0
 40
5.0
100
AcDbArc
 50
270.0
 51
90.0
  0
ARC
  5
33B
330
1B
100
AcDbEntity
 67
     1
  8
02___PRT_ALL_AXES
  6
Continuous
 62
     7
100
AcDbCircle
 10
54.669478684
 20
135.0174217337
 30
0.0
 40
5.0
100
AcDbArc
 50
90.0
 51
270.0
  0
LINE
  5
33C
330
1B
100
AcDbEntity
 67
     1
  8
7_ALL_FEATURES
  6
Continuous
 62
     7
100
AcDbLine
 10
44.669478684
 20
114.8305146726
 30
0.0
 11
44.669478684
 21
115.0174217337
 31
0.0
  0
LINE
  5
33D
330
1B
100
AcDbEntity
 67
     1
  8
7_ALL_FEATURES
  6
Continuous
 62
     7
100
AcDbLine
 10
44.669478684
 20
115.0174217337
 30
0.0
 11
44.669478684
 21
115.7174217337
 31
0.0
  0
LINE
  5
33E
330
1B
100
AcDbEntity
 67
     1
  8
7_ALL_FEATURES
  6
Continuous
 62
     7
100
AcDbLine
 10
44.669478684
 20
114.6296478324
 30
0.0
 11
44.669478684
 21
114.8305146726
 31
0.0
  0
LINE
  5
33F
330
1B
100
AcDbEntity
 67
     1
  8
7_ALL_FEATURES
  6
Continuous
 62
     7
100
AcDbLine
 10
44.669478684
 20
113.8815852734
 30
0.0
 11
44.669478684
 21
114.0174217337
 31
0.0
  0
LINE
  5
340
330
1B
100
AcDbEntity
 67
     1
  8
7_ALL_FEATURES
  6
Continuous
 62
     7
100
AcDbLine
 10
44.669478684
 20
113.8174217337
 30
0.0
 11
44.669478684
 21
113.8815852734
 31
0.0
  0
LINE
  5
341
330
1B
100
AcDbEntity
 67
     1
  8
7_ALL_FEATURES
  6
Continuous
 62
     7
100
AcDbLine
 10
44.669478684
 20
156.153258194
 30
0.0
 11
44.669478684
 21
156.2174217337
 31
0.0
  0
LINE
  5
342
330
1B
100
AcDbEntity
 67
     1
  8
7_ALL_FEATURES
  6
Continuous
 62
     7
100
AcDbLine
 10
44.669478684
 20
156.0174217337
 30
0.0
 11
44.669478684
 21
156.153258194
 31
0.0
  0
LINE
  5
343
330
1B
100
AcDbEntity
 67
     1
  8
7_ALL_FEATURES
  6
Continuous
 62
     7
100
AcDbLine
 10
44.669478684
 20
155.2043287948
 30
0.0
 11
44.669478684
 21
155.405195635
 31
0.0
  0
LINE
  5
344
330
1B
100
AcDbEntity
 67
     1
  8
7_ALL_FEATURES
  6
Continuous
 62
     7
100
AcDbLine
 10
44.669478684
 20
154.3174217337
 30
0.0
 11
44.669478684
 21
155.0174217337
 31
0.0
  0
LINE
  5
345
330
1B
100
AcDbEntity
 67
     1
  8
7_ALL_FEATURES
  6
Continuous
 62
     7
100
AcDbLine
 10
44.669478684
 20
155.0174217337
 30
0.0
 11
44.669478684
 21
155.2043287948
 31
0.0
  0
LINE
  5
346
330
1B
100
AcDbEntity
 67
     1
  8
7_ALL_FEATURES
  6
Continuous
 62
     7
100
AcDbLine
 10
44.669478684
 20
116.0174217337
 30
0.0
 11
1083.669478684
 21
116.0174217337
 31
0.0
  0
LINE
  5
347
330
1B
100
AcDbEntity
 67
     1
  8
7_ALL_FEATURES
  6
Continuous
 62
     7
100
AcDbLine
 10
44.669478684
 20
113.8174217337
 30
0.0
 11
1083.669478684
 21
113.8174217337
 31
0.0
  0
LINE
  5
348
330
1B
100
AcDbEntity
 67
     1
  8
7_ALL_FEATURES
  6
Continuous
 62
     7
100
AcDbLine
 10
44.669478684
 20
154.0174217337
 30
0.0
 11
1083.669478684
 21
154.0174217337
 31
0.0
  0
LINE
  5
349
330
1B
100
AcDbEntity
 67
     1
  8
7_ALL_FEATURES
  6
Continuous
 62
     7
100
AcDbLine
 10
44.669478684
 20
156.2174217337
 30
0.0
 11
1083.669478684
 21
156.2174217337
 31
0.0
  0
LINE
  5
34A
330
1B
100
AcDbEntity
 67
     1
  8
7_ALL_FEATURES
  6
Continuous
 62
     9
100
AcDbLine
 10
1083.669478684
 20
153.4013963299
 30
0.0
 11
44.669478684
 21
153.4013963299
 31
0.0
  0
LINE
  5
34B
330
1B
100
AcDbEntity
 67
     1
  8
7_ALL_FEATURES
  6
Continuous
 62
     9
100
AcDbLine
 10
44.669478684
 20
152.2478064914
 30
0.0
 11
1083.669478684
 21
152.2478064914
 31
0.0
  0
LINE
  5
34C
330
1B
100
AcDbEntity
 67
     1
  8
7_ALL_FEATURES
  6
Continuous
 62
     9
100
AcDbLine
 10
44.669478684
 20
114.8305146726
 30
0.0
 11
1083.669478684
 21
114.8305146726
 31
0.0
  0
LINE
  5
34D
330
1B
100
AcDbEntity
 67
     1
  8
7_ALL_FEATURES
  6
Continuous
 62
     9
100
AcDbLine
 10
44.669478684
 20
115.7174217337
 30
0.0
 11
1083.669478684
 21
115.7174217337
 31
0.0
  0
LINE
  5
34E
330
1B
100
AcDbEntity
 67
     1
  8
7_ALL_FEATURES
  6
Continuous
 62
     9
100
AcDbLine
 10
44.669478684
 20
113.8815852734
 30
0.0
 11
1083.669478684
 21
113.8815852734
 31
0.0
  0
LINE
  5
34F
330
1B
100
AcDbEntity
 67
     1
  8
7_ALL_FEATURES
  6
Continuous
 62
     9
100
AcDbLine
 10
44.669478684
 20
114.5330812142
 30
0.0
 11
1083.669478684
 21
114.5330812142
 31
0.0
  0
LINE
  5
350
330
1B
100
AcDbEntity
 67
     1
  8
7_ALL_FEATURES
  6
Continuous
 62
     9
100
AcDbLine
 10
59.2385472575
 20
132.9931934857
 30
0.0
 11
50.1004101105
 21
132.9931934857
 31
0.0
  0
LINE
  5
351
330
1B
100
AcDbEntity
 67
     1
  8
7_ALL_FEATURES
  6
Continuous
 62
     9
100
AcDbLine
 10
59.4287963223
 20
133.4992505477
 30
0.0
 11
49.9101610457
 21
133.4992505477
 31
0.0
  0
LINE
  5
352
330
1B
100
AcDbEntity
 67
     1
  8
7_ALL_FEATURES
  6
Continuous
 62
     9
100
AcDbLine
 10
59.4287963223
 20
136.5355929197
 30
0.0
 11
49.9101610457
 21
136.5355929197
 31
0.0
  0
LINE
  5
353
330
1B
100
AcDbEntity
 67
     1
  8
7_ALL_FEATURES
  6
Continuous
 62
     9
100
AcDbLine
 10
59.2385472575
 20
137.0416499817
 30
0.0
 11
50.1004101105
 21
137.0416499817
 31
0.0
  0
LINE
  5
354
330
1B
100
AcDbEntity
 67
     1
  8
7_ALL_FEATURES
  6
Continuous
 62
     9
100
AcDbLine
 10
44.669478684
 20
117.787036976
 30
0.0
 11
1083.669478684
 21
117.787036976
 31
0.0
  0
LINE
  5
355
330
1B
100
AcDbEntity
 67
     1
  8
7_ALL_FEATURES
  6
Continuous
 62
     9
100
AcDbLine
 10
1083.669478684
 20
116.3834471375
 30
0.0
 11
44.669478684
 21
116.3834471375
 31
0.0
  0
LINE
  5
356
330
1B
100
AcDbEntity
 67
     1
  8
7_ALL_FEATURES
  6
Continuous
 62
     9
100
AcDbLine
 10
1083.669478684
 20
153.6513963299
 30
0.0
 11
44.669478684
 21
153.6513963299
 31
0.0
  0
LINE
  5
357
330
1B
100
AcDbEntity
 67
     1
  8
7_ALL_FEATURES
  6
Continuous
 62
     9
100
AcDbLine
 10
44.669478684
 20
118.037036976
 30
0.0
 11
1083.669478684
 21
118.037036976
 31
0.0
  0
LINE
  5
358
330
1B
100
AcDbEntity
 67
     1
  8
7_ALL_FEATURES
  6
Continuous
 62
     9
100
AcDbLine
 10
44.669478684
 20
151.9978064914
 30
0.0
 11
1083.669478684
 21
151.9978064914
 31
0.0
  0
LINE
  5
359
330
1B
100
AcDbEntity
 67
     1
  8
7_ALL_FEATURES
  6
Continuous
 62
     9
100
AcDbLine
 10
1083.669478684
 20
116.6334471375
 30
0.0
 11
44.669478684
 21
116.6334471375
 31
0.0
  0
LINE
  5
35A
330
1B
100
AcDbEntity
 67
     1
  8
7_ALL_FEATURES
  6
Continuous
 62
     9
100
AcDbLine
 10
44.669478684
 20
154.3174217337
 30
0.0
 11
1083.669478684
 21
154.3174217337
 31
0.0
  0
LINE
  5
35B
330
1B
100
AcDbEntity
 67
     1
  8
7_ALL_FEATURES
  6
Continuous
 62
     9
100
AcDbLine
 10
44.669478684
 20
155.2043287948
 30
0.0
 11
1083.669478684
 21
155.2043287948
 31
0.0
  0
LINE
  5
35C
330
1B
100
AcDbEntity
 67
     1
  8
7_ALL_FEATURES
  6
Continuous
 62
     9
100
AcDbLine
 10
44.669478684
 20
155.5017622532
 30
0.0
 11
1083.669478684
 21
155.5017622532
 31
0.0
  0
LINE
  5
35D
330
1B
100
AcDbEntity
 67
     1
  8
7_ALL_FEATURES
  6
Continuous
 62
     9
100
AcDbLine
 10
44.669478684
 20
156.153258194
 30
0.0
 11
1083.669478684
 21
156.153258194
 31
0.0
  0
LINE
  5
35E
330
1B
100
AcDbEntity
 67
     1
  8
7_ALL_FEATURES
  6
Continuous
 62
     3
100
AcDbLine
 10
1083.669478684
 20
155.0174217337
 30
0.0
 11
1083.669478684
 21
155.1096900932
 31
0.0
  0
LINE
  5
35F
330
1B
100
AcDbEntity
 67
     1
  8
7_ALL_FEATURES
  6
Continuous
 62
     3
100
AcDbLine
 10
1083.669478684
 20
155.405195635
 30
0.0
 11
1083.669478684
 21
155.4631600895
 31
0.0
  0
LINE
  5
360
330
1B
100
AcDbEntity
 67
     1
  8
7_ALL_FEATURES
  6
Continuous
 62
     3
100
AcDbLine
 10
1083.669478684
 20
155.4631600895
 30
0.0
 11
1083.669478684
 21
155.5438538966
 31
0.0
  0
LINE
  5
361
330
1B
100
AcDbEntity
 67
     1
  8
7_ALL_FEATURES
  6
Continuous
 62
     3
100
AcDbLine
 10
1083.669478684
 20
155.5438538966
 30
0.0
 11
1083.669478684
 21
156.0174217337
 31
0.0
  0
LINE
  5
362
330
1B
100
AcDbEntity
 67
     1
  8
7_ALL_FEATURES
  6
Continuous
 62
     3
100
AcDbLine
 10
1083.669478684
 20
115.0174217337
 30
0.0
 11
1083.669478684
 21
115.7174217337
 31
0.0
  0
LINE
  5
363
330
1B
100
AcDbEntity
 67
     1
  8
7_ALL_FEATURES
  6
Continuous
 62
     3
100
AcDbLine
 10
1083.669478684
 20
115.7174217337
 30
0.0
 11
1083.669478684
 21
116.0174217337
 31
0.0
  0
LINE
  5
364
330
1B
100
AcDbEntity
 67
     1
  8
7_ALL_FEATURES
  6
Continuous
 62
     3
100
AcDbLine
 10
1083.669478684
 20
116.0174217337
 30
0.0
 11
1083.669478684
 21
154.0174217337
 31
0.0
  0
LINE
  5
365
330
1B
100
AcDbEntity
 67
     1
  8
7_ALL_FEATURES
  6
Continuous
 62
     3
100
AcDbLine
 10
1083.669478684
 20
154.0174217337
 30
0.0
 11
1083.669478684
 21
154.3174217337
 31
0.0
  0
LINE
  5
366
330
1B
100
AcDbEntity
 67
     1
  8
7_ALL_FEATURES
  6
Continuous
 62
     3
100
AcDbLine
 10
1083.669478684
 20
154.3174217337
 30
0.0
 11
1083.669478684
 21
155.0174217337
 31
0.0
  0
LINE
  5
367
330
1B
100
AcDbEntity
 67
     1
  8
7_ALL_FEATURES
  6
Continuous
 62
     3
100
AcDbLine
 10
1083.669478684
 20
114.0174217337
 30
0.0
 11
1083.669478684
 21
114.4909895708
 31
0.0
  0
LINE
  5
368
330
1B
100
AcDbEntity
 67
     1
  8
7_ALL_FEATURES
  6
Continuous
 62
     3
100
AcDbLine
 10
1083.669478684
 20
114.4909895708
 30
0.0
 11
1083.669478684
 21
114.5716833779
 31
0.0
  0
LINE
  5
369
330
1B
100
AcDbEntity
 67
     1
  8
7_ALL_FEATURES
  6
Continuous
 62
     3
100
AcDbLine
 10
1083.669478684
 20
114.5716833779
 30
0.0
 11
1083.669478684
 21
114.6296478324
 31
0.0
  0
LINE
  5
36A
330
1B
100
AcDbEntity
 67
     1
  8
7_ALL_FEATURES
  6
Continuous
 62
     3
100
AcDbLine
 10
1083.669478684
 20
114.9251533742
 30
0.0
 11
1083.669478684
 21
115.0174217337
 31
0.0
  0
LINE
  5
36B
330
1B
100
AcDbEntity
 67
     1
  8
7_ALL_FEATURES
  6
Continuous
 62
     3
100
AcDbLine
 10
44.669478684
 20
115.0174217337
 30
0.0
 11
44.669478684
 21
114.9251533742
 31
0.0
  0
LINE
  5
36C
330
1B
100
AcDbEntity
 67
     1
  8
7_ALL_FEATURES
  6
Continuous
 62
     3
100
AcDbLine
 10
44.669478684
 20
114.6296478324
 30
0.0
 11
44.669478684
 21
114.5716833779
 31
0.0
  0
LINE
  5
36D
330
1B
100
AcDbEntity
 67
     1
  8
7_ALL_FEATURES
  6
Continuous
 62
     3
100
AcDbLine
 10
44.669478684
 20
114.5716833779
 30
0.0
 11
44.669478684
 21
114.4909895708
 31
0.0
  0
LINE
  5
36E
330
1B
100
AcDbEntity
 67
     1
  8
7_ALL_FEATURES
  6
Continuous
 62
     3
100
AcDbLine
 10
44.669478684
 20
114.4909895708
 30
0.0
 11
44.669478684
 21
114.0174217337
 31
0.0
  0
LINE
  5
36F
330
1B
100
AcDbEntity
 67
     1
  8
7_ALL_FEATURES
  6
Continuous
 62
     3
100
AcDbLine
 10
44.669478684
 20
155.0174217337
 30
0.0
 11
44.669478684
 21
154.3174217337
 31
0.0
  0
LINE
  5
370
330
1B
100
AcDbEntity
 67
     1
  8
7_ALL_FEATURES
  6
Continuous
 62
     3
100
AcDbLine
 10
44.669478684
 20
154.3174217337
 30
0.0
 11
44.669478684
 21
154.0174217337
 31
0.0
  0
LINE
  5
371
330
1B
100
AcDbEntity
 67
     1
  8
7_ALL_FEATURES
  6
Continuous
 62
     3
100
AcDbLine
 10
44.669478684
 20
154.0174217337
 30
0.0
 11
44.669478684
 21
116.0174217337
 31
0.0
  0
LINE
  5
372
330
1B
100
AcDbEntity
 67
     1
  8
7_ALL_FEATURES
  6
Continuous
 62
     3
100
AcDbLine
 10
44.669478684
 20
116.0174217337
 30
0.0
 11
44.669478684
 21
115.7174217337
 31
0.0
  0
LINE
  5
373
330
1B
100
AcDbEntity
 67
     1
  8
7_ALL_FEATURES
  6
Continuous
 62
     3
100
AcDbLine
 10
44.669478684
 20
115.7174217337
 30
0.0
 11
44.669478684
 21
115.0174217337
 31
0.0
  0
LINE
  5
374
330
1B
100
AcDbEntity
 67
     1
  8
7_ALL_FEATURES
  6
Continuous
 62
     3
100
AcDbLine
 10
44.669478684
 20
156.0174217337
 30
0.0
 11
44.669478684
 21
155.5438538966
 31
0.0
  0
LINE
  5
375
330
1B
100
AcDbEntity
 67
     1
  8
7_ALL_FEATURES
  6
Continuous
 62
     3
100
AcDbLine
 10
44.669478684
 20
155.5438538966
 30
0.0
 11
44.669478684
 21
155.4631600895
 31
0.0
  0
LINE
  5
376
330
1B
100
AcDbEntity
 67
     1
  8
7_ALL_FEATURES
  6
Continuous
 62
     3
100
AcDbLine
 10
44.669478684
 20
155.4631600895
 30
0.0
 11
44.669478684
 21
155.405195635
 31
0.0
  0
LINE
  5
377
330
1B
100
AcDbEntity
 67
     1
  8
7_ALL_FEATURES
  6
Continuous
 62
     3
100
AcDbLine
 10
44.669478684
 20
155.1096900932
 30
0.0
 11
44.669478684
 21
155.0174217337
 31
0.0
  0
LINE
  5
378
330
1B
100
AcDbEntity
 67
     1
  8
3_ALL_AXES
  6
Continuous
 62
     7
100
AcDbLine
 10
1085.669478684
 20
271.3419815493
 30
0.0
 11
1085.669478684
 21
268.5920296155
 31
0.0
  0
LINE
  5
379
330
1B
100
AcDbEntity
 67
     1
  8
3_ALL_AXES
  6
Continuous
 62
     7
100
AcDbLine
 10
1085.669478684
 20
271.3419815493
 30
0.0
 11
1085.669478684
 21
274.0919334831
 31
0.0
  0
LINE
  5
37A
330
1B
100
AcDbEntity
 67
     1
  8
3_ALL_AXES
  6
Continuous
 62
     7
100
AcDbLine
 10
1085.5187583544
 20
268.5919815493
 30
0.0
 11
1085.669478684
 21
268.5919815493
 31
0.0
  0
LINE
  5
37B
330
1B
100
AcDbEntity
 67
     1
  8
3_ALL_AXES
  6
Continuous
 62
     7
100
AcDbLine
 10
1085.169478684
 20
268.8850619919
 30
0.0
 11
1085.5187583544
 21
268.5919815493
 31
0.0
  0
LINE
  5
37C
330
1B
100
AcDbEntity
 67
     1
  8
3_ALL_AXES
  6
Continuous
 62
     7
100
AcDbLine
 10
1085.5187583544
 20
274.0919815493
 30
0.0
 11
1085.669478684
 21
274.0919815493
 31
0.0
  0
LINE
  5
37D
330
1B
100
AcDbEntity
 67
     1
  8
3_ALL_AXES
  6
Continuous
 62
     7
100
AcDbLine
 10
1085.169478684
 20
273.7989011067
 30
0.0
 11
1085.5187583544
 21
274.0919815493
 31
0.0
  0
LINE
  5
37E
330
1B
100
AcDbEntity
 67
     1
  8
3_ALL_AXES
  6
Continuous
 62
     7
100
AcDbLine
 10
1085.5187583544
 20
271.3419815493
 30
0.0
 11
1085.5187583544
 21
268.5919815493
 31
0.0
  0
LINE
  5
37F
330
1B
100
AcDbEntity
 67
     1
  8
3_ALL_AXES
  6
Continuous
 62
     7
100
AcDbLine
 10
1085.5187583544
 20
271.3419815493
 30
0.0
 11
1085.5187583544
 21
274.0919815493
 31
0.0
  0
LINE
  5
380
330
1B
100
AcDbEntity
 67
     1
  8
3_ALL_AXES
  6
Continuous
 62
     7
100
AcDbLine
 10
1085.669478684
 20
222.5919815493
 30
0.0
 11
1085.669478684
 21
219.8420296155
 31
0.0
  0
LINE
  5
381
330
1B
100
AcDbEntity
 67
     1
  8
3_ALL_AXES
  6
Continuous
 62
     7
100
AcDbLine
 10
1085.669478684
 20
222.5919815493
 30
0.0
 11
1085.669478684
 21
225.3419334831
 31
0.0
  0
LINE
  5
382
330
1B
100
AcDbEntity
 67
     1
  8
3_ALL_AXES
  6
Continuous
 62
     7
100
AcDbLine
 10
1085.5187583544
 20
219.8419815493
 30
0.0
 11
1085.669478684
 21
219.8419815493
 31
0.0
  0
LINE
  5
383
330
1B
100
AcDbEntity
 67
     1
  8
3_ALL_AXES
  6
Continuous
 62
     7
100
AcDbLine
 10
1085.169478684
 20
220.1350619919
 30
0.0
 11
1085.5187583544
 21
219.8419815493
 31
0.0
  0
LINE
  5
384
330
1B
100
AcDbEntity
 67
     1
  8
3_ALL_AXES
  6
Continuous
 62
     7
100
AcDbLine
 10
1085.5187583544
 20
225.3419815493
 30
0.0
 11
1085.669478684
 21
225.3419815493
 31
0.0
  0
LINE
  5
385
330
1B
100
AcDbEntity
 67
     1
  8
3_ALL_AXES
  6
Continuous
 62
     7
100
AcDbLine
 10
1085.169478684
 20
225.0489011067
 30
0.0
 11
1085.5187583544
 21
225.3419815493
 31
0.0
  0
LINE
  5
386
330
1B
100
AcDbEntity
 67
     1
  8
3_ALL_AXES
  6
Continuous
 62
     7
100
AcDbLine
 10
1085.5187583544
 20
222.5919815493
 30
0.0
 11
1085.5187583544
 21
219.8419815493
 31
0.0
  0
LINE
  5
387
330
1B
100
AcDbEntity
 67
     1
  8
3_ALL_AXES
  6
Continuous
 62
     7
100
AcDbLine
 10
1085.5187583544
 20
222.5919815493
 30
0.0
 11
1085.5187583544
 21
225.3419815493
 31
0.0
  0
LINE
  5
388
330
1B
100
AcDbEntity
 67
     1
  8
3_ALL_AXES
  6
Continuous
 62
     7
100
AcDbLine
 10
42.8201990136
 20
268.5919815493
 30
0.0
 11
42.669478684
 21
268.5919815493
 31
0.0
  0
LINE
  5
389
330
1B
100
AcDbEntity
 67
     1
  8
3_ALL_AXES
  6
Continuous
 62
     7
100
AcDbLine
 10
42.669478684
 20
268.5920296155
 30
0.0
 11
42.669478684
 21
271.3419815493
 31
0.0
  0
LINE
  5
38A
330
1B
100
AcDbEntity
 67
     1
  8
3_ALL_AXES
  6
Continuous
 62
     7
100
AcDbLine
 10
43.169478684
 20
268.8850619919
 30
0.0
 11
42.8201990136
 21
268.5919815493
 31
0.0
  0
LINE
  5
38B
330
1B
100
AcDbEntity
 67
     1
  8
3_ALL_AXES
  6
Continuous
 62
     7
100
AcDbLine
 10
42.8201990136
 20
274.0919815493
 30
0.0
 11
42.669478684
 21
274.0919815493
 31
0.0
  0
LINE
  5
38C
330
1B
100
AcDbEntity
 67
     1
  8
3_ALL_AXES
  6
Continuous
 62
     7
100
AcDbLine
 10
42.669478684
 20
274.0919334831
 30
0.0
 11
42.669478684
 21
271.3419815493
 31
0.0
  0
LINE
  5
38D
330
1B
100
AcDbEntity
 67
     1
  8
3_ALL_AXES
  6
Continuous
 62
     7
100
AcDbLine
 10
43.169478684
 20
273.7989011067
 30
0.0
 11
42.8201990136
 21
274.0919815493
 31
0.0
  0
LINE
  5
38E
330
1B
100
AcDbEntity
 67
     1
  8
3_ALL_AXES
  6
Continuous
 62
     7
100
AcDbLine
 10
42.8201990136
 20
274.0919815493
 30
0.0
 11
42.8201990136
 21
271.3419815493
 31
0.0
  0
LINE
  5
38F
330
1B
100
AcDbEntity
 67
     1
  8
3_ALL_AXES
  6
Continuous
 62
     7
100
AcDbLine
 10
42.8201990136
 20
268.5919815493
 30
0.0
 11
42.8201990136
 21
271.3419815493
 31
0.0
  0
LINE
  5
390
330
1B
100
AcDbEntity
 67
     1
  8
3_ALL_AXES
  6
Continuous
 62
     7
100
AcDbLine
 10
42.8201990136
 20
219.8419815493
 30
0.0
 11
42.669478684
 21
219.8419815493
 31
0.0
  0
LINE
  5
391
330
1B
100
AcDbEntity
 67
     1
  8
3_ALL_AXES
  6
Continuous
 62
     7
100
AcDbLine
 10
42.669478684
 20
219.8420296155
 30
0.0
 11
42.669478684
 21
222.5919815493
 31
0.0
  0
LINE
  5
392
330
1B
100
AcDbEntity
 67
     1
  8
3_ALL_AXES
  6
Continuous
 62
     7
100
AcDbLine
 10
43.169478684
 20
220.1350619919
 30
0.0
 11
42.8201990136
 21
219.8419815493
 31
0.0
  0
LINE
  5
393
330
1B
100
AcDbEntity
 67
     1
  8
3_ALL_AXES
  6
Continuous
 62
     7
100
AcDbLine
 10
42.8201990136
 20
225.3419815493
 30
0.0
 11
42.669478684
 21
225.3419815493
 31
0.0
  0
LINE
  5
394
330
1B
100
AcDbEntity
 67
     1
  8
3_ALL_AXES
  6
Continuous
 62
     7
100
AcDbLine
 10
42.669478684
 20
225.3419334831
 30
0.0
 11
42.669478684
 21
222.5919815493
 31
0.0
  0
LINE
  5
395
330
1B
100
AcDbEntity
 67
     1
  8
3_ALL_AXES
  6
Continuous
 62
     7
100
AcDbLine
 10
43.169478684
 20
225.0489011067
 30
0.0
 11
42.8201990136
 21
225.3419815493
 31
0.0
  0
LINE
  5
396
330
1B
100
AcDbEntity
 67
     1
  8
3_ALL_AXES
  6
Continuous
 62
     7
100
AcDbLine
 10
42.8201990136
 20
225.3419815493
 30
0.0
 11
42.8201990136
 21
222.5919815493
 31
0.0
  0
LINE
  5
397
330
1B
100
AcDbEntity
 67
     1
  8
3_ALL_AXES
  6
Continuous
 62
     7
100
AcDbLine
 10
42.8201990136
 20
219.8419815493
 30
0.0
 11
42.8201990136
 21
222.5919815493
 31
0.0
  0
LINE
  5
398
330
1B
100
AcDbEntity
 67
     1
  8
7_ALL_FEATURES
  6
Continuous
 62
     7
100
AcDbLine
 10
1085.169478684
 20
219.5919815493
 30
0.0
 11
1083.669478684
 21
219.5919815493
 31
0.0
  0
LINE
  5
399
330
1B
100
AcDbEntity
 67
     1
  8
7_ALL_FEATURES
  6
Continuous
 62
     7
100
AcDbLine
 10
1085.169478684
 20
294.2919815493
 30
0.0
 11
1085.169478684
 21
291.8919815493
 31
0.0
  0
LINE
  5
39A
330
1B
100
AcDbEntity
 67
     1
  8
7_ALL_FEATURES
  6
Continuous
 62
     7
100
AcDbLine
 10
1085.169478684
 20
291.8919815493
 30
0.0
 11
1085.169478684
 21
291.0919815493
 31
0.0
  0
LINE
  5
39B
330
1B
100
AcDbEntity
 67
     1
  8
7_ALL_FEATURES
  6
Continuous
 62
     7
100
AcDbLine
 10
1085.169478684
 20
220.5919815493
 30
0.0
 11
1085.169478684
 21
291.0919815493
 31
0.0
  0
LINE
  5
39C
330
1B
100
AcDbEntity
 67
     1
  8
7_ALL_FEATURES
  6
Continuous
 62
     7
100
AcDbLine
 10
1085.169478684
 20
220.5919815493
 30
0.0
 11
1085.169478684
 21
219.5919815493
 31
0.0
  0
LINE
  5
39D
330
1B
100
AcDbEntity
 67
     1
  8
7_ALL_FEATURES
  6
Continuous
 62
     7
100
AcDbLine
 10
1085.169478684
 20
303.0919815493
 30
0.0
 11
1085.169478684
 21
302.0919815493
 31
0.0
  0
LINE
  5
39E
330
1B
100
AcDbEntity
 67
     1
  8
7_ALL_FEATURES
  6
Continuous
 62
     7
100
AcDbLine
 10
1085.169478684
 20
219.5919815493
 30
0.0
 11
1083.669478684
 21
219.5919815493
 31
0.0
  0
LINE
  5
39F
330
1B
100
AcDbEntity
 67
     1
  8
7_ALL_FEATURES
  6
Continuous
 62
     7
100
AcDbLine
 10
1085.169478684
 20
303.0919815493
 30
0.0
 11
1083.669478684
 21
303.0919815493
 31
0.0
  0
LINE
  5
3A0
330
1B
100
AcDbEntity
 67
     1
  8
7_ALL_FEATURES
  6
Continuous
 62
     7
100
AcDbLine
 10
1085.169478684
 20
295.0919815493
 30
0.0
 11
1085.169478684
 21
302.0919815493
 31
0.0
  0
LINE
  5
3A1
330
1B
100
AcDbEntity
 67
     1
  8
7_ALL_FEATURES
  6
Continuous
 62
     7
100
AcDbLine
 10
1085.169478684
 20
295.0919815493
 30
0.0
 11
1085.169478684
 21
294.2919815493
 31
0.0
  0
LINE
  5
3A2
330
1B
100
AcDbEntity
 67
     1
  8
7_ALL_FEATURES
  6
Continuous
 62
     9
100
AcDbLine
 10
1085.169478684
 20
295.0919815493
 30
0.0
 11
1083.669478684
 21
295.0919815493
 31
0.0
  0
LINE
  5
3A3
330
1B
100
AcDbEntity
 67
     1
  8
7_ALL_FEATURES
  6
Continuous
 62
     9
100
AcDbLine
 10
1085.169478684
 20
291.8919815493
 30
0.0
 11
1083.669478684
 21
291.8919815493
 31
0.0
  0
LINE
  5
3A4
330
1B
100
AcDbEntity
 67
     1
  8
7_ALL_FEATURES
  6
Continuous
 62
     9
100
AcDbLine
 10
1085.169478684
 20
294.2919815493
 30
0.0
 11
1083.669478684
 21
294.2919815493
 31
0.0
  0
LINE
  5
3A5
330
1B
100
AcDbEntity
 67
     1
  8
7_ALL_FEATURES
  6
Continuous
 62
     9
100
AcDbLine
 10
1085.169478684
 20
220.5919815493
 30
0.0
 11
1083.669478684
 21
220.5919815493
 31
0.0
  0
LINE
  5
3A6
330
1B
100
AcDbEntity
 67
     1
  8
7_ALL_FEATURES
  6
Continuous
 62
     9
100
AcDbLine
 10
1085.169478684
 20
291.0919815493
 30
0.0
 11
1083.669478684
 21
291.0919815493
 31
0.0
  0
LINE
  5
3A7
330
1B
100
AcDbEntity
 67
     1
  8
7_ALL_FEATURES
  6
Continuous
 62
     9
100
AcDbLine
 10
1085.169478684
 20
302.0919815493
 30
0.0
 11
1083.669478684
 21
302.0919815493
 31
0.0
  0
LINE
  5
3A8
330
1B
100
AcDbEntity
 67
     1
  8
7_ALL_FEATURES
  6
Continuous
 62
     7
100
AcDbLine
 10
43.169478684
 20
303.0919815493
 30
0.0
 11
44.669478684
 21
303.0919815493
 31
0.0
  0
LINE
  5
3A9
330
1B
100
AcDbEntity
 67
     1
  8
7_ALL_FEATURES
  6
Continuous
 62
     7
100
AcDbLine
 10
43.169478684
 20
219.5919815493
 30
0.0
 11
43.169478684
 21
220.5919815493
 31
0.0
  0
LINE
  5
3AA
330
1B
100
AcDbEntity
 67
     1
  8
7_ALL_FEATURES
  6
Continuous
 62
     7
100
AcDbLine
 10
43.169478684
 20
231.0919815493
 30
0.0
 11
43.169478684
 21
220.5919815493
 31
0.0
  0
LINE
  5
3AB
330
1B
100
AcDbEntity
 67
     1
  8
7_ALL_FEATURES
  6
Continuous
 62
     7
100
AcDbLine
 10
43.169478684
 20
231.0919815493
 30
0.0
 11
43.169478684
 21
231.8919815493
 31
0.0
  0
LINE
  5
3AC
330
1B
100
AcDbEntity
 67
     1
  8
7_ALL_FEATURES
  6
Continuous
 62
     7
100
AcDbLine
 10
43.169478684
 20
231.8919815493
 30
0.0
 11
43.169478684
 21
234.2919815493
 31
0.0
  0
LINE
  5
3AD
330
1B
100
AcDbEntity
 67
     1
  8
7_ALL_FEATURES
  6
Continuous
 62
     7
100
AcDbLine
 10
43.169478684
 20
234.2919815493
 30
0.0
 11
43.169478684
 21
235.0919815493
 31
0.0
  0
LINE
  5
3AE
330
1B
100
AcDbEntity
 67
     1
  8
7_ALL_FEATURES
  6
Continuous
 62
     7
100
AcDbLine
 10
43.169478684
 20
219.5919815493
 30
0.0
 11
44.669478684
 21
219.5919815493
 31
0.0
  0
LINE
  5
3AF
330
1B
100
AcDbEntity
 67
     1
  8
7_ALL_FEATURES
  6
Continuous
 62
     7
100
AcDbLine
 10
43.169478684
 20
302.0919815493
 30
0.0
 11
43.169478684
 21
235.0919815493
 31
0.0
  0
LINE
  5
3B0
330
1B
100
AcDbEntity
 67
     1
  8
7_ALL_FEATURES
  6
Continuous
 62
     7
100
AcDbLine
 10
43.169478684
 20
303.0919815493
 30
0.0
 11
44.669478684
 21
303.0919815493
 31
0.0
  0
LINE
  5
3B1
330
1B
100
AcDbEntity
 67
     1
  8
7_ALL_FEATURES
  6
Continuous
 62
     7
100
AcDbLine
 10
43.169478684
 20
302.0919815493
 30
0.0
 11
43.169478684
 21
303.0919815493
 31
0.0
  0
LINE
  5
3B2
330
1B
100
AcDbEntity
 67
     1
  8
7_ALL_FEATURES
  6
Continuous
 62
     9
100
AcDbLine
 10
43.169478684
 20
235.0919815493
 30
0.0
 11
44.669478684
 21
235.0919815493
 31
0.0
  0
LINE
  5
3B3
330
1B
100
AcDbEntity
 67
     1
  8
7_ALL_FEATURES
  6
Continuous
 62
     9
100
AcDbLine
 10
43.169478684
 20
231.8919815493
 30
0.0
 11
44.669478684
 21
231.8919815493
 31
0.0
  0
LINE
  5
3B4
330
1B
100
AcDbEntity
 67
     1
  8
7_ALL_FEATURES
  6
Continuous
 62
     9
100
AcDbLine
 10
43.169478684
 20
234.2919815493
 30
0.0
 11
44.669478684
 21
234.2919815493
 31
0.0
  0
LINE
  5
3B5
330
1B
100
AcDbEntity
 67
     1
  8
7_ALL_FEATURES
  6
Continuous
 62
     9
100
AcDbLine
 10
43.169478684
 20
220.5919815493
 30
0.0
 11
44.669478684
 21
220.5919815493
 31
0.0
  0
LINE
  5
3B6
330
1B
100
AcDbEntity
 67
     1
  8
7_ALL_FEATURES
  6
Continuous
 62
     9
100
AcDbLine
 10
43.169478684
 20
231.0919815493
 30
0.0
 11
44.669478684
 21
231.0919815493
 31
0.0
  0
LINE
  5
3B7
330
1B
100
AcDbEntity
 67
     1
  8
7_ALL_FEATURES
  6
Continuous
 62
     9
100
AcDbLine
 10
43.169478684
 20
302.0919815493
 30
0.0
 11
44.669478684
 21
302.0919815493
 31
0.0
  0
LINE
  5
3B8
330
1B
100
AcDbEntity
 67
     1
  8
7_ALL_FEATURES
  6
Continuous
 62
     7
100
AcDbLine
 10
1083.669478684
 20
220.5919815493
 30
0.0
 11
1083.669478684
 21
219.5919815493
 31
0.0
  0
LINE
  5
3B9
330
1B
100
AcDbEntity
 67
     1
  8
7_ALL_FEATURES
  6
Continuous
 62
     7
100
AcDbLine
 10
1083.669478684
 20
220.5919815493
 30
0.0
 11
1083.669478684
 21
244.2919815493
 31
0.0
  0
LINE
  5
3BA
330
1B
100
AcDbEntity
 67
     1
  8
7_ALL_FEATURES
  6
Continuous
 62
     7
100
AcDbLine
 10
1083.669478684
 20
244.5728274423
 30
0.0
 11
1083.669478684
 21
244.2919815493
 31
0.0
  0
LINE
  5
3BB
330
1B
100
AcDbEntity
 67
     1
  8
7_ALL_FEATURES
  6
Continuous
 62
     7
100
AcDbLine
 10
1083.669478684
 20
303.0919815493
 30
0.0
 11
1083.669478684
 21
303.0127386509
 31
0.0
  0
LINE
  5
3BC
330
1B
100
AcDbEntity
 67
     1
  8
7_ALL_FEATURES
  6
Continuous
 62
     7
100
AcDbLine
 10
44.669478684
 20
303.0919815493
 30
0.0
 11
1083.669478684
 21
303.0919815493
 31
0.0
  0
LINE
  5
3BD
330
1B
100
AcDbEntity
 67
     1
  8
7_ALL_FEATURES
  6
Continuous
 62
     7
100
AcDbLine
 10
1083.669478684
 20
249.3919815493
 30
0.0
 11
1083.669478684
 21
249.1111356563
 31
0.0
  0
LINE
  5
3BE
330
1B
100
AcDbEntity
 67
     1
  8
7_ALL_FEATURES
  6
Continuous
 62
     7
100
AcDbLine
 10
1083.669478684
 20
249.3919815493
 30
0.0
 11
1083.669478684
 21
262.3919815493
 31
0.0
  0
LINE
  5
3BF
330
1B
100
AcDbEntity
 67
     1
  8
7_ALL_FEATURES
  6
Continuous
 62
     7
100
AcDbLine
 10
1083.669478684
 20
262.5919815493
 30
0.0
 11
1083.669478684
 21
262.3919815493
 31
0.0
  0
LINE
  5
3C0
330
1B
100
AcDbEntity
 67
     1
  8
7_ALL_FEATURES
  6
Continuous
 62
     7
100
AcDbLine
 10
1083.669478684
 20
267.2919815493
 30
0.0
 11
1083.669478684
 21
267.0919815493
 31
0.0
  0
LINE
  5
3C1
330
1B
100
AcDbEntity
 67
     1
  8
7_ALL_FEATURES
  6
Continuous
 62
     7
100
AcDbLine
 10
1083.669478684
 20
267.2919815493
 30
0.0
 11
1083.669478684
 21
296.9035899936
 31
0.0
  0
LINE
  5
3C2
330
1B
100
AcDbEntity
 67
     1
  8
7_ALL_FEATURES
  6
Continuous
 62
     7
100
AcDbLine
 10
1083.669478684
 20
297.8825364353
 30
0.0
 11
1083.669478684
 21
296.9035899936
 31
0.0
  0
LINE
  5
3C3
330
1B
100
AcDbEntity
 67
     1
  8
7_ALL_FEATURES
  6
Continuous
 62
     7
100
AcDbLine
 10
1083.669478684
 20
297.8825364353
 30
0.0
 11
1083.669478684
 21
298.9143167873
 31
0.0
  0
ARC
  5
3C4
330
1B
100
AcDbEntity
 67
     1
  8
02___PRT_ALL_AXES
  6
Continuous
 62
     7
100
AcDbCircle
 10
144.669478684
 20
237.0919815493
 30
0.0
 40
13.0
100
AcDbArc
 50
108.8878819509
 51
112.619864948
  0
ARC
  5
3C5
330
1B
100
AcDbEntity
 67
     1
  8
02___PRT_ALL_AXES
  6
Continuous
 62
     7
100
AcDbCircle
 10
144.669478684
 20
237.0919815493
 30
0.0
 40
13.0
100
AcDbArc
 50
67.380135052
 51
71.11211804909999
  0
ARC
  5
3C6
330
1B
100
AcDbEntity
 67
     1
  8
02___PRT_ALL_AXES
  6
Continuous
 62
     7
100
AcDbCircle
 10
144.669478684
 20
237.0919815493
 30
0.0
 40
13.0
100
AcDbArc
 50
33.6312774479
 51
35.2344179846
  0
ARC
  5
3C7
330
1B
100
AcDbEntity
 67
     1
  8
02___PRT_ALL_AXES
  6
Continuous
 62
     7
100
AcDbCircle
 10
144.669478684
 20
237.0919815493
 30
0.0
 40
13.0
100
AcDbArc
 50
144.7655820154
 51
146.3687225521
  0
LINE
  5
3C8
330
1B
100
AcDbEntity
 67
     1
  8
7_ALL_FEATURES
  6
Continuous
 62
     7
100
AcDbLine
 10
44.669478684
 20
303.0127386509
 30
0.0
 11
44.669478684
 21
303.0919815493
 31
0.0
  0
LINE
  5
3C9
330
1B
100
AcDbEntity
 67
     1
  8
7_ALL_FEATURES
  6
Continuous
 62
     7
100
AcDbLine
 10
44.669478684
 20
297.8825364353
 30
0.0
 11
44.669478684
 21
298.9143167873
 31
0.0
  0
LINE
  5
3CA
330
1B
100
AcDbEntity
 67
     1
  8
7_ALL_FEATURES
  6
Continuous
 62
     7
100
AcDbLine
 10
44.669478684
 20
296.9035899936
 30
0.0
 11
44.669478684
 21
297.8825364353
 31
0.0
  0
LINE
  5
3CB
330
1B
100
AcDbEntity
 67
     1
  8
7_ALL_FEATURES
  6
Continuous
 62
     7
100
AcDbLine
 10
44.669478684
 20
267.2919815493
 30
0.0
 11
44.669478684
 21
296.9035899936
 31
0.0
  0
LINE
  5
3CC
330
1B
100
AcDbEntity
 67
     1
  8
7_ALL_FEATURES
  6
Continuous
 62
     7
100
AcDbLine
 10
44.669478684
 20
267.0919815493
 30
0.0
 11
44.669478684
 21
267.2919815493
 31
0.0
  0
LINE
  5
3CD
330
1B
100
AcDbEntity
 67
     1
  8
7_ALL_FEATURES
  6
Continuous
 62
     7
100
AcDbLine
 10
44.669478684
 20
262.3919815493
 30
0.0
 11
44.669478684
 21
262.5919815493
 31
0.0
  0
LINE
  5
3CE
330
1B
100
AcDbEntity
 67
     1
  8
7_ALL_FEATURES
  6
Continuous
 62
     7
100
AcDbLine
 10
44.669478684
 20
249.3919815493
 30
0.0
 11
44.669478684
 21
262.3919815493
 31
0.0
  0
LINE
  5
3CF
330
1B
100
AcDbEntity
 67
     1
  8
7_ALL_FEATURES
  6
Continuous
 62
     7
100
AcDbLine
 10
44.669478684
 20
249.1111356563
 30
0.0
 11
44.669478684
 21
249.3919815493
 31
0.0
  0
LINE
  5
3D0
330
1B
100
AcDbEntity
 67
     1
  8
7_ALL_FEATURES
  6
Continuous
 62
     7
100
AcDbLine
 10
44.669478684
 20
244.2919815493
 30
0.0
 11
44.669478684
 21
244.5728274423
 31
0.0
  0
LINE
  5
3D1
330
1B
100
AcDbEntity
 67
     1
  8
7_ALL_FEATURES
  6
Continuous
 62
     7
100
AcDbLine
 10
44.669478684
 20
220.5919815493
 30
0.0
 11
44.669478684
 21
244.2919815493
 31
0.0
  0
LINE
  5
3D2
330
1B
100
AcDbEntity
 67
     1
  8
7_ALL_FEATURES
  6
Continuous
 62
     7
100
AcDbLine
 10
44.669478684
 20
219.5919815493
 30
0.0
 11
44.669478684
 21
220.5919815493
 31
0.0
  0
LINE
  5
3D3
330
1B
100
AcDbEntity
 67
     1
  8
02___PRT_ALL_AXES
  6
Continuous
 62
     7
100
AcDbLine
 10
149.669478684
 20
249.0919815493
 30
0.0
 11
1083.669478684
 21
249.0919815493
 31
0.0
  0
LINE
  5
3D4
330
1B
100
AcDbEntity
 67
     1
  8
02___PRT_ALL_AXES
  6
Continuous
 62
     7
100
AcDbLine
 10
44.669478684
 20
249.0919815493
 30
0.0
 11
139.669478684
 21
249.0919815493
 31
0.0
  0
LINE
  5
3D5
330
1B
100
AcDbEntity
 67
     1
  8
02___PRT_ALL_AXES
  6
Continuous
 62
     7
100
AcDbLine
 10
1083.669478684
 20
244.5919815493
 30
0.0
 11
155.2878589748
 21
244.5919815493
 31
0.0
  0
LINE
  5
3D6
330
1B
100
AcDbEntity
 67
     1
  8
02___PRT_ALL_AXES
  6
Continuous
 62
     7
100
AcDbLine
 10
134.0510983932
 20
244.5919815493
 30
0.0
 11
44.669478684
 21
244.5919815493
 31
0.0
  0
ARC
  5
3D7
330
1B
100
AcDbEntity
 67
     1
  8
02___PRT_ALL_AXES
  6
Continuous
 62
     7
100
AcDbCircle
 10
144.669478684
 20
237.0919815493
 30
0.0
 40
13.0
100
AcDbArc
 50
112.6196115861
 51
144.7665404285
  0
ARC
  5
3D8
330
1B
100
AcDbEntity
 67
     1
  8
02___PRT_ALL_AXES
  6
Continuous
 62
     7
100
AcDbCircle
 10
144.669478684
 20
237.0919815493
 30
0.0
 40
13.0
100
AcDbArc
 50
35.2334595715
 51
67.3803884139
  0
LINE
  5
3D9
330
1B
100
AcDbEntity
 67
     1
  8
7_ALL_FEATURES
  6
Continuous
 62
     7
100
AcDbLine
 10
44.669478684
 20
303.0919815493
 30
0.0
 11
1083.669478684
 21
303.0919815493
 31
0.0
  0
LINE
  5
3DA
330
1B
100
AcDbEntity
 67
     1
  8
7_ALL_FEATURES
  6
Continuous
 62
     7
100
AcDbLine
 10
44.669478684
 20
267.0919815493
 30
0.0
 11
1083.669478684
 21
267.0919815493
 31
0.0
  0
LINE
  5
3DB
330
1B
100
AcDbEntity
 67
     1
  8
7_ALL_FEATURES
  6
Continuous
 62
     7
100
AcDbLine
 10
44.669478684
 20
262.5919815493
 30
0.0
 11
1083.669478684
 21
262.5919815493
 31
0.0
  0
ARC
  5
3DC
330
1B
100
AcDbEntity
 67
     1
  8
02___PRT_ALL_AXES
  6
Continuous
 62
     7
100
AcDbCircle
 10
144.669478684
 20
237.0919815493
 30
0.0
 40
13.0
100
AcDbArc
 50
71.11211804909999
 51
108.8878819509
  0
ARC
  5
3DD
330
1B
100
AcDbEntity
 67
     1
  8
02___PRT_ALL_AXES
  6
Continuous
 62
     7
100
AcDbCircle
 10
144.669478684
 20
237.0919815493
 30
0.0
 40
13.0
100
AcDbArc
 50
146.3687225521
 51
180.0
  0
ARC
  5
3DE
330
1B
100
AcDbEntity
 67
     1
  8
02___PRT_ALL_AXES
  6
Continuous
 62
     7
100
AcDbCircle
 10
144.669478684
 20
237.0919815493
 30
0.0
 40
13.0
100
AcDbArc
 50
0.0
 51
33.6312774479
  0
ARC
  5
3DF
330
1B
100
AcDbEntity
 67
     1
  8
02___PRT_ALL_AXES
  6
Continuous
 62
     7
100
AcDbCircle
 10
144.669478684
 20
237.0919815493
 30
0.0
 40
13.0
100
AcDbArc
 50
180.0
 51
360.0
  0
LINE
  5
3E0
330
1B
100
AcDbEntity
 67
     1
  8
7_ALL_FEATURES
  6
Continuous
 62
     7
100
AcDbLine
 10
44.669478684
 20
219.5919815493
 30
0.0
 11
1083.669478684
 21
219.5919815493
 31
0.0
  0
LINE
  5
3E1
330
1B
100
AcDbEntity
 67
     1
  8
02___PRT_ALL_AXES
  6
Continuous
 62
     9
100
AcDbLine
 10
1083.669478684
 20
244.2919815493
 30
0.0
 11
155.4935259862
 21
244.2919815493
 31
0.0
  0
LINE
  5
3E2
330
1B
100
AcDbEntity
 67
     1
  8
7_ALL_FEATURES
  6
Continuous
 62
     9
100
AcDbLine
 10
44.669478684
 20
297.8825364353
 30
0.0
 11
1083.669478684
 21
297.8825364353
 31
0.0
  0
LINE
  5
3E3
330
1B
100
AcDbEntity
 67
     1
  8
7_ALL_FEATURES
  6
Continuous
 62
     9
100
AcDbLine
 10
44.669478684
 20
302.831139407
 30
0.0
 11
1083.669478684
 21
302.831139407
 31
0.0
  0
LINE
  5
3E4
330
1B
100
AcDbEntity
 67
     1
  8
7_ALL_FEATURES
  6
Continuous
 62
     9
100
AcDbLine
 10
44.669478684
 20
296.9035899936
 30
0.0
 11
1083.669478684
 21
296.9035899936
 31
0.0
  0
LINE
  5
3E5
330
1B
100
AcDbEntity
 67
     1
  8
7_ALL_FEATURES
  6
Continuous
 62
     9
100
AcDbLine
 10
44.669478684
 20
267.2919815493
 30
0.0
 11
1083.669478684
 21
267.2919815493
 31
0.0
  0
LINE
  5
3E6
330
1B
100
AcDbEntity
 67
     1
  8
02___PRT_ALL_AXES
  6
Continuous
 62
     9
100
AcDbLine
 10
148.8778037665
 20
249.3919815493
 30
0.0
 11
1083.669478684
 21
249.3919815493
 31
0.0
  0
LINE
  5
3E7
330
1B
100
AcDbEntity
 67
     1
  8
7_ALL_FEATURES
  6
Continuous
 62
     9
100
AcDbLine
 10
44.669478684
 20
262.3919815493
 30
0.0
 11
1083.669478684
 21
262.3919815493
 31
0.0
  0
LINE
  5
3E8
330
1B
100
AcDbEntity
 67
     1
  8
02___PRT_ALL_AXES
  6
Continuous
 62
     9
100
AcDbLine
 10
44.669478684
 20
249.3919815493
 30
0.0
 11
140.4611536015
 21
249.3919815493
 31
0.0
  0
LINE
  5
3E9
330
1B
100
AcDbEntity
 67
     1
  8
02___PRT_ALL_AXES
  6
Continuous
 62
     9
100
AcDbLine
 10
133.8454313818
 20
244.2919815493
 30
0.0
 11
44.669478684
 21
244.2919815493
 31
0.0
  0
LINE
  5
3EA
330
1B
100
AcDbEntity
 67
     1
  8
7_ALL_FEATURES
  6
Continuous
 62
     9
100
AcDbLine
 10
44.669478684
 20
220.5919815493
 30
0.0
 11
1083.669478684
 21
220.5919815493
 31
0.0
  0
LINE
  5
3EB
330
1B
100
AcDbEntity
 67
     1
  8
7_ALL_FEATURES
  6
Continuous
 62
     3
100
AcDbLine
 10
1083.669478684
 20
244.5728274423
 30
0.0
 11
1083.669478684
 21
244.5919815493
 31
0.0
  0
LINE
  5
3EC
330
1B
100
AcDbEntity
 67
     1
  8
7_ALL_FEATURES
  6
Continuous
 62
     3
100
AcDbLine
 10
1083.669478684
 20
244.5919815493
 30
0.0
 11
1083.669478684
 21
249.0919815493
 31
0.0
  0
LINE
  5
3ED
330
1B
100
AcDbEntity
 67
     1
  8
7_ALL_FEATURES
  6
Continuous
 62
     3
100
AcDbLine
 10
1083.669478684
 20
249.0919815493
 30
0.0
 11
1083.669478684
 21
249.1111356563
 31
0.0
  0
LINE
  5
3EE
330
1B
100
AcDbEntity
 67
     1
  8
7_ALL_FEATURES
  6
Continuous
 62
     3
100
AcDbLine
 10
1083.669478684
 20
262.5919815493
 30
0.0
 11
1083.669478684
 21
267.0919815493
 31
0.0
  0
LINE
  5
3EF
330
1B
100
AcDbEntity
 67
     1
  8
7_ALL_FEATURES
  6
Continuous
 62
     3
100
AcDbLine
 10
1083.669478684
 20
302.0919815493
 30
0.0
 11
1083.669478684
 21
302.7656771929
 31
0.0
  0
LINE
  5
3F0
330
1B
100
AcDbEntity
 67
     1
  8
7_ALL_FEATURES
  6
Continuous
 62
     3
100
AcDbLine
 10
1083.669478684
 20
302.7656771929
 30
0.0
 11
1083.669478684
 21
302.942198685
 31
0.0
  0
LINE
  5
3F1
330
1B
100
AcDbEntity
 67
     1
  8
7_ALL_FEATURES
  6
Continuous
 62
     3
100
AcDbLine
 10
1083.669478684
 20
302.942198685
 30
0.0
 11
1083.669478684
 21
303.0127386509
 31
0.0
  0
LINE
  5
3F2
330
1B
100
AcDbEntity
 67
     1
  8
7_ALL_FEATURES
  6
Continuous
 62
     3
100
AcDbLine
 10
1083.669478684
 20
298.9143167873
 30
0.0
 11
1083.669478684
 21
302.0919815493
 31
0.0
  0
LINE
  5
3F3
330
1B
100
AcDbEntity
 67
     1
  8
7_ALL_FEATURES
  6
Continuous
 62
     3
100
AcDbLine
 10
44.669478684
 20
303.0127386509
 30
0.0
 11
44.669478684
 21
302.942198685
 31
0.0
  0
LINE
  5
3F4
330
1B
100
AcDbEntity
 67
     1
  8
7_ALL_FEATURES
  6
Continuous
 62
     3
100
AcDbLine
 10
44.669478684
 20
302.942198685
 30
0.0
 11
44.669478684
 21
302.7656771929
 31
0.0
  0
LINE
  5
3F5
330
1B
100
AcDbEntity
 67
     1
  8
7_ALL_FEATURES
  6
Continuous
 62
     3
100
AcDbLine
 10
44.669478684
 20
302.7656771929
 30
0.0
 11
44.669478684
 21
302.0919815493
 31
0.0
  0
LINE
  5
3F6
330
1B
100
AcDbEntity
 67
     1
  8
7_ALL_FEATURES
  6
Continuous
 62
     3
100
AcDbLine
 10
44.669478684
 20
302.0919815493
 30
0.0
 11
44.669478684
 21
298.9143167873
 31
0.0
  0
LINE
  5
3F7
330
1B
100
AcDbEntity
 67
     1
  8
7_ALL_FEATURES
  6
Continuous
 62
     3
100
AcDbLine
 10
44.669478684
 20
267.0919815493
 30
0.0
 11
44.669478684
 21
262.5919815493
 31
0.0
  0
LINE
  5
3F8
330
1B
100
AcDbEntity
 67
     1
  8
7_ALL_FEATURES
  6
Continuous
 62
     3
100
AcDbLine
 10
44.669478684
 20
249.1111356563
 30
0.0
 11
44.669478684
 21
249.0919815493
 31
0.0
  0
LINE
  5
3F9
330
1B
100
AcDbEntity
 67
     1
  8
7_ALL_FEATURES
  6
Continuous
 62
     3
100
AcDbLine
 10
44.669478684
 20
249.0919815493
 30
0.0
 11
44.669478684
 21
244.5919815493
 31
0.0
  0
LINE
  5
3FA
330
1B
100
AcDbEntity
 67
     1
  8
7_ALL_FEATURES
  6
Continuous
 62
     3
100
AcDbLine
 10
44.669478684
 20
244.5919815493
 30
0.0
 11
44.669478684
 21
244.5728274423
 31
0.0
  0
LINE
  5
3FB
330
1B
100
AcDbEntity
 67
     1
  8
7_ALL_FEATURES
  6
Continuous
 62
     7
100
AcDbLine
 10
1115.7614878835
 20
272.5919815493
 30
0.0
 11
1115.7614878835
 21
271.7169815493
 31
0.0
  0
LINE
  5
3FC
330
1B
100
AcDbEntity
 67
     1
  8
7_ALL_FEATURES
  6
Continuous
 62
     7
100
AcDbLine
 10
1115.7614878835
 20
271.7169815493
 30
0.0
 11
1114.8864878835
 21
271.7169815493
 31
0.0
  0
LINE
  5
3FD
330
1B
100
AcDbEntity
 67
     1
  8
7_ALL_FEATURES
  6
Continuous
 62
     7
100
AcDbLine
 10
1114.8864878835
 20
270.9669815493
 30
0.0
 11
1115.7614878835
 21
270.9669815493
 31
0.0
  0
LINE
  5
3FE
330
1B
100
AcDbEntity
 67
     1
  8
7_ALL_FEATURES
  6
Continuous
 62
     7
100
AcDbLine
 10
1115.7614878835
 20
270.9669815493
 30
0.0
 11
1115.7614878835
 21
270.0919815493
 31
0.0
  0
LINE
  5
3FF
330
1B
100
AcDbEntity
 67
     1
  8
7_ALL_FEATURES
  6
Continuous
 62
     7
100
AcDbLine
 10
1116.5114878835
 20
270.0919815493
 30
0.0
 11
1116.5114878835
 21
270.9669815493
 31
0.0
  0
LINE
  5
400
330
1B
100
AcDbEntity
 67
     1
  8
7_ALL_FEATURES
  6
Continuous
 62
     7
100
AcDbLine
 10
1116.5114878835
 20
270.9669815493
 30
0.0
 11
1117.3864878835
 21
270.9669815493
 31
0.0
  0
LINE
  5
401
330
1B
100
AcDbEntity
 67
     1
  8
7_ALL_FEATURES
  6
Continuous
 62
     7
100
AcDbLine
 10
1117.3864878835
 20
271.7169815493
 30
0.0
 11
1116.5114878835
 21
271.7169815493
 31
0.0
  0
LINE
  5
402
330
1B
100
AcDbEntity
 67
     1
  8
7_ALL_FEATURES
  6
Continuous
 62
     7
100
AcDbLine
 10
1116.5114878835
 20
271.7169815493
 30
0.0
 11
1116.5114878835
 21
272.5919815493
 31
0.0
  0
ARC
  5
403
330
1B
100
AcDbEntity
 67
     1
  8
3_ALL_AXES
  6
Continuous
 62
     7
100
AcDbCircle
 10
1116.1364878835
 20
271.3419815493
 30
0.0
 40
2.75
100
AcDbArc
 50
180.0
 51
360.0
  0
ARC
  5
404
330
1B
100
AcDbEntity
 67
     1
  8
3_ALL_AXES
  6
Continuous
 62
     7
100
AcDbCircle
 10
1116.1364878835
 20
271.3419815493
 30
0.0
 40
2.75
100
AcDbArc
 50
0.0
 51
180.0
  0
LINE
  5
405
330
1B
100
AcDbEntity
 67
     1
  8
7_ALL_FEATURES
  6
Continuous
 62
     7
100
AcDbLine
 10
1117.3864878835
 20
271.7169815493
 30
0.0
 11
1117.3864878835
 21
270.9669815493
 31
0.0
  0
LINE
  5
406
330
1B
100
AcDbEntity
 67
     1
  8
7_ALL_FEATURES
  6
Continuous
 62
     7
100
AcDbLine
 10
1115.7614878835
 20
272.5919815493
 30
0.0
 11
1116.5114878835
 21
272.5919815493
 31
0.0
  0
LINE
  5
407
330
1B
100
AcDbEntity
 67
     1
  8
7_ALL_FEATURES
  6
Continuous
 62
     7
100
AcDbLine
 10
1114.8864878835
 20
270.9669815493
 30
0.0
 11
1114.8864878835
 21
271.7169815493
 31
0.0
  0
LINE
  5
408
330
1B
100
AcDbEntity
 67
     1
  8
7_ALL_FEATURES
  6
Continuous
 62
     7
100
AcDbLine
 10
1116.5114878835
 20
270.0919815493
 30
0.0
 11
1115.7614878835
 21
270.0919815493
 31
0.0
  0
LINE
  5
409
330
1B
100
AcDbEntity
 67
     1
  8
7_ALL_FEATURES
  6
Continuous
 62
     7
100
AcDbLine
 10
1115.7614878835
 20
223.8419815493
 30
0.0
 11
1115.7614878835
 21
222.9669815493
 31
0.0
  0
LINE
  5
40A
330
1B
100
AcDbEntity
 67
     1
  8
7_ALL_FEATURES
  6
Continuous
 62
     7
100
AcDbLine
 10
1115.7614878835
 20
222.9669815493
 30
0.0
 11
1114.8864878835
 21
222.9669815493
 31
0.0
  0
LINE
  5
40B
330
1B
100
AcDbEntity
 67
     1
  8
7_ALL_FEATURES
  6
Continuous
 62
     7
100
AcDbLine
 10
1114.8864878835
 20
222.2169815493
 30
0.0
 11
1115.7614878835
 21
222.2169815493
 31
0.0
  0
LINE
  5
40C
330
1B
100
AcDbEntity
 67
     1
  8
7_ALL_FEATURES
  6
Continuous
 62
     7
100
AcDbLine
 10
1115.7614878835
 20
222.2169815493
 30
0.0
 11
1115.7614878835
 21
221.3419815493
 31
0.0
  0
LINE
  5
40D
330
1B
100
AcDbEntity
 67
     1
  8
7_ALL_FEATURES
  6
Continuous
 62
     7
100
AcDbLine
 10
1116.5114878835
 20
221.3419815493
 30
0.0
 11
1116.5114878835
 21
222.2169815493
 31
0.0
  0
LINE
  5
40E
330
1B
100
AcDbEntity
 67
     1
  8
7_ALL_FEATURES
  6
Continuous
 62
     7
100
AcDbLine
 10
1116.5114878835
 20
222.2169815493
 30
0.0
 11
1117.3864878835
 21
222.2169815493
 31
0.0
  0
LINE
  5
40F
330
1B
100
AcDbEntity
 67
     1
  8
7_ALL_FEATURES
  6
Continuous
 62
     7
100
AcDbLine
 10
1117.3864878835
 20
222.9669815493
 30
0.0
 11
1116.5114878835
 21
222.9669815493
 31
0.0
  0
LINE
  5
410
330
1B
100
AcDbEntity
 67
     1
  8
7_ALL_FEATURES
  6
Continuous
 62
     7
100
AcDbLine
 10
1116.5114878835
 20
222.9669815493
 30
0.0
 11
1116.5114878835
 21
223.8419815493
 31
0.0
  0
ARC
  5
411
330
1B
100
AcDbEntity
 67
     1
  8
3_ALL_AXES
  6
Continuous
 62
     7
100
AcDbCircle
 10
1116.1364878835
 20
222.5919815493
 30
0.0
 40
2.75
100
AcDbArc
 50
180.0
 51
360.0
  0
ARC
  5
412
330
1B
100
AcDbEntity
 67
     1
  8
3_ALL_AXES
  6
Continuous
 62
     7
100
AcDbCircle
 10
1116.1364878835
 20
222.5919815493
 30
0.0
 40
2.75
100
AcDbArc
 50
0.0
 51
180.0
  0
LINE
  5
413
330
1B
100
AcDbEntity
 67
     1
  8
7_ALL_FEATURES
  6
Continuous
 62
     7
100
AcDbLine
 10
1117.3864878835
 20
222.9669815493
 30
0.0
 11
1117.3864878835
 21
222.2169815493
 31
0.0
  0
LINE
  5
414
330
1B
100
AcDbEntity
 67
     1
  8
7_ALL_FEATURES
  6
Continuous
 62
     7
100
AcDbLine
 10
1115.7614878835
 20
223.8419815493
 30
0.0
 11
1116.5114878835
 21
223.8419815493
 31
0.0
  0
LINE
  5
415
330
1B
100
AcDbEntity
 67
     1
  8
7_ALL_FEATURES
  6
Continuous
 62
     7
100
AcDbLine
 10
1114.8864878835
 20
222.2169815493
 30
0.0
 11
1114.8864878835
 21
222.9669815493
 31
0.0
  0
LINE
  5
416
330
1B
100
AcDbEntity
 67
     1
  8
7_ALL_FEATURES
  6
Continuous
 62
     7
100
AcDbLine
 10
1116.5114878835
 20
221.3419815493
 30
0.0
 11
1115.7614878835
 21
221.3419815493
 31
0.0
  0
LINE
  5
417
330
1B
100
AcDbEntity
 67
     1
  8
7_ALL_FEATURES
  6
Continuous
 62
     7
100
AcDbLine
 10
1152.1614878835
 20
223.8419815493
 30
0.0
 11
1152.1614878835
 21
222.9669815493
 31
0.0
  0
LINE
  5
418
330
1B
100
AcDbEntity
 67
     1
  8
7_ALL_FEATURES
  6
Continuous
 62
     7
100
AcDbLine
 10
1152.1614878835
 20
222.9669815493
 30
0.0
 11
1151.2864878835
 21
222.9669815493
 31
0.0
  0
LINE
  5
419
330
1B
100
AcDbEntity
 67
     1
  8
7_ALL_FEATURES
  6
Continuous
 62
     7
100
AcDbLine
 10
1151.2864878835
 20
222.2169815493
 30
0.0
 11
1152.1614878835
 21
222.2169815493
 31
0.0
  0
LINE
  5
41A
330
1B
100
AcDbEntity
 67
     1
  8
7_ALL_FEATURES
  6
Continuous
 62
     7
100
AcDbLine
 10
1152.1614878835
 20
222.2169815493
 30
0.0
 11
1152.1614878835
 21
221.3419815493
 31
0.0
  0
LINE
  5
41B
330
1B
100
AcDbEntity
 67
     1
  8
7_ALL_FEATURES
  6
Continuous
 62
     7
100
AcDbLine
 10
1152.9114878835
 20
221.3419815493
 30
0.0
 11
1152.9114878835
 21
222.2169815493
 31
0.0
  0
LINE
  5
41C
330
1B
100
AcDbEntity
 67
     1
  8
7_ALL_FEATURES
  6
Continuous
 62
     7
100
AcDbLine
 10
1152.9114878835
 20
222.2169815493
 30
0.0
 11
1153.7864878835
 21
222.2169815493
 31
0.0
  0
LINE
  5
41D
330
1B
100
AcDbEntity
 67
     1
  8
7_ALL_FEATURES
  6
Continuous
 62
     7
100
AcDbLine
 10
1153.7864878835
 20
222.9669815493
 30
0.0
 11
1152.9114878835
 21
222.9669815493
 31
0.0
  0
LINE
  5
41E
330
1B
100
AcDbEntity
 67
     1
  8
7_ALL_FEATURES
  6
Continuous
 62
     7
100
AcDbLine
 10
1152.9114878835
 20
222.9669815493
 30
0.0
 11
1152.9114878835
 21
223.8419815493
 31
0.0
  0
ARC
  5
41F
330
1B
100
AcDbEntity
 67
     1
  8
3_ALL_AXES
  6
Continuous
 62
     7
100
AcDbCircle
 10
1152.5364878835
 20
222.5919815493
 30
0.0
 40
2.75
100
AcDbArc
 50
180.0
 51
360.0
  0
ARC
  5
420
330
1B
100
AcDbEntity
 67
     1
  8
3_ALL_AXES
  6
Continuous
 62
     7
100
AcDbCircle
 10
1152.5364878835
 20
222.5919815493
 30
0.0
 40
2.75
100
AcDbArc
 50
0.0
 51
180.0
  0
LINE
  5
421
330
1B
100
AcDbEntity
 67
     1
  8
7_ALL_FEATURES
  6
Continuous
 62
     7
100
AcDbLine
 10
1153.7864878835
 20
222.9669815493
 30
0.0
 11
1153.7864878835
 21
222.2169815493
 31
0.0
  0
LINE
  5
422
330
1B
100
AcDbEntity
 67
     1
  8
7_ALL_FEATURES
  6
Continuous
 62
     7
100
AcDbLine
 10
1152.1614878835
 20
223.8419815493
 30
0.0
 11
1152.9114878835
 21
223.8419815493
 31
0.0
  0
LINE
  5
423
330
1B
100
AcDbEntity
 67
     1
  8
7_ALL_FEATURES
  6
Continuous
 62
     7
100
AcDbLine
 10
1151.2864878835
 20
222.2169815493
 30
0.0
 11
1151.2864878835
 21
222.9669815493
 31
0.0
  0
LINE
  5
424
330
1B
100
AcDbEntity
 67
     1
  8
7_ALL_FEATURES
  6
Continuous
 62
     7
100
AcDbLine
 10
1152.9114878835
 20
221.3419815493
 30
0.0
 11
1152.1614878835
 21
221.3419815493
 31
0.0
  0
LINE
  5
425
330
1B
100
AcDbEntity
 67
     1
  8
7_ALL_FEATURES
  6
Continuous
 62
     7
100
AcDbLine
 10
1152.1614878835
 20
272.5919815493
 30
0.0
 11
1152.1614878835
 21
271.7169815493
 31
0.0
  0
LINE
  5
426
330
1B
100
AcDbEntity
 67
     1
  8
7_ALL_FEATURES
  6
Continuous
 62
     7
100
AcDbLine
 10
1152.1614878835
 20
271.7169815493
 30
0.0
 11
1151.2864878835
 21
271.7169815493
 31
0.0
  0
LINE
  5
427
330
1B
100
AcDbEntity
 67
     1
  8
7_ALL_FEATURES
  6
Continuous
 62
     7
100
AcDbLine
 10
1151.2864878835
 20
270.9669815493
 30
0.0
 11
1152.1614878835
 21
270.9669815493
 31
0.0
  0
LINE
  5
428
330
1B
100
AcDbEntity
 67
     1
  8
7_ALL_FEATURES
  6
Continuous
 62
     7
100
AcDbLine
 10
1152.1614878835
 20
270.9669815493
 30
0.0
 11
1152.1614878835
 21
270.0919815493
 31
0.0
  0
LINE
  5
429
330
1B
100
AcDbEntity
 67
     1
  8
7_ALL_FEATURES
  6
Continuous
 62
     7
100
AcDbLine
 10
1152.9114878835
 20
270.0919815493
 30
0.0
 11
1152.9114878835
 21
270.9669815493
 31
0.0
  0
LINE
  5
42A
330
1B
100
AcDbEntity
 67
     1
  8
7_ALL_FEATURES
  6
Continuous
 62
     7
100
AcDbLine
 10
1152.9114878835
 20
270.9669815493
 30
0.0
 11
1153.7864878835
 21
270.9669815493
 31
0.0
  0
LINE
  5
42B
330
1B
100
AcDbEntity
 67
     1
  8
7_ALL_FEATURES
  6
Continuous
 62
     7
100
AcDbLine
 10
1153.7864878835
 20
271.7169815493
 30
0.0
 11
1152.9114878835
 21
271.7169815493
 31
0.0
  0
LINE
  5
42C
330
1B
100
AcDbEntity
 67
     1
  8
7_ALL_FEATURES
  6
Continuous
 62
     7
100
AcDbLine
 10
1152.9114878835
 20
271.7169815493
 30
0.0
 11
1152.9114878835
 21
272.5919815493
 31
0.0
  0
ARC
  5
42D
330
1B
100
AcDbEntity
 67
     1
  8
3_ALL_AXES
  6
Continuous
 62
     7
100
AcDbCircle
 10
1152.5364878835
 20
271.3419815493
 30
0.0
 40
2.75
100
AcDbArc
 50
180.0
 51
360.0
  0
ARC
  5
42E
330
1B
100
AcDbEntity
 67
     1
  8
3_ALL_AXES
  6
Continuous
 62
     7
100
AcDbCircle
 10
1152.5364878835
 20
271.3419815493
 30
0.0
 40
2.75
100
AcDbArc
 50
0.0
 51
180.0
  0
LINE
  5
42F
330
1B
100
AcDbEntity
 67
     1
  8
7_ALL_FEATURES
  6
Continuous
 62
     7
100
AcDbLine
 10
1153.7864878835
 20
271.7169815493
 30
0.0
 11
1153.7864878835
 21
270.9669815493
 31
0.0
  0
LINE
  5
430
330
1B
100
AcDbEntity
 67
     1
  8
7_ALL_FEATURES
  6
Continuous
 62
     7
100
AcDbLine
 10
1152.1614878835
 20
272.5919815493
 30
0.0
 11
1152.9114878835
 21
272.5919815493
 31
0.0
  0
LINE
  5
431
330
1B
100
AcDbEntity
 67
     1
  8
7_ALL_FEATURES
  6
Continuous
 62
     7
100
AcDbLine
 10
1151.2864878835
 20
270.9669815493
 30
0.0
 11
1151.2864878835
 21
271.7169815493
 31
0.0
  0
LINE
  5
432
330
1B
100
AcDbEntity
 67
     1
  8
7_ALL_FEATURES
  6
Continuous
 62
     7
100
AcDbLine
 10
1152.9114878835
 20
270.0919815493
 30
0.0
 11
1152.1614878835
 21
270.0919815493
 31
0.0
  0
ARC
  5
433
330
1B
100
AcDbEntity
 67
     1
  8
7_ALL_FEATURES
  6
Continuous
 62
     7
100
AcDbCircle
 10
1112.8364878835
 20
293.0919815493
 30
0.0
 40
1.5
100
AcDbArc
 50
306.8698976459
 51
53.1301023541
  0
ARC
  5
434
330
1B
100
AcDbEntity
 67
     1
  8
7_ALL_FEATURES
  6
Continuous
 62
     7
100
AcDbCircle
 10
1114.3364878835
 20
291.0919815493
 30
0.0
 40
1.0
100
AcDbArc
 50
126.8698976458
 51
180.0
  0
LINE
  5
435
330
1B
100
AcDbEntity
 67
     1
  8
7_ALL_FEATURES
  6
Continuous
 62
     7
100
AcDbLine
 10
1113.3364878835
 20
220.5919815493
 30
0.0
 11
1113.3364878835
 21
291.0919815493
 31
0.0
  0
ARC
  5
436
330
1B
100
AcDbEntity
 67
     1
  8
7_ALL_FEATURES
  6
Continuous
 62
     7
100
AcDbCircle
 10
1114.3364878835
 20
220.5919815493
 30
0.0
 40
1.0
100
AcDbArc
 50
180.0
 51
270.0
  0
LINE
  5
437
330
1B
100
AcDbEntity
 67
     1
  8
7_ALL_FEATURES
  6
Continuous
 62
     7
100
AcDbLine
 10
1154.3364878835
 20
219.5919815493
 30
0.0
 11
1114.3364878835
 21
219.5919815493
 31
0.0
  0
ARC
  5
438
330
1B
100
AcDbEntity
 67
     1
  8
7_ALL_FEATURES
  6
Continuous
 62
     7
100
AcDbCircle
 10
1154.3364878835
 20
220.5919815493
 30
0.0
 40
1.0
100
AcDbArc
 50
270.0
 51
360.0
  0
LINE
  5
439
330
1B
100
AcDbEntity
 67
     1
  8
7_ALL_FEATURES
  6
Continuous
 62
     7
100
AcDbLine
 10
1155.3364878835
 20
231.0919815493
 30
0.0
 11
1155.3364878835
 21
220.5919815493
 31
0.0
  0
ARC
  5
43A
330
1B
100
AcDbEntity
 67
     1
  8
7_ALL_FEATURES
  6
Continuous
 62
     7
100
AcDbCircle
 10
1154.3364878835
 20
231.0919815493
 30
0.0
 40
1.0
100
AcDbArc
 50
0.0
 51
53.1301023542
  0
ARC
  5
43B
330
1B
100
AcDbEntity
 67
     1
  8
7_ALL_FEATURES
  6
Continuous
 62
     7
100
AcDbCircle
 10
1155.8364878835
 20
233.0919815493
 30
0.0
 40
1.5
100
AcDbArc
 50
126.8698976458
 51
233.1301023542
  0
ARC
  5
43C
330
1B
100
AcDbEntity
 67
     1
  8
7_ALL_FEATURES
  6
Continuous
 62
     7
100
AcDbCircle
 10
1154.3364878835
 20
235.0919815493
 30
0.0
 40
1.0
100
AcDbArc
 50
306.8698976458
 51
360.0
  0
LINE
  5
43D
330
1B
100
AcDbEntity
 67
     1
  8
7_ALL_FEATURES
  6
Continuous
 62
     7
100
AcDbLine
 10
1155.3364878835
 20
302.0919815493
 30
0.0
 11
1155.3364878835
 21
235.0919815493
 31
0.0
  0
ARC
  5
43E
330
1B
100
AcDbEntity
 67
     1
  8
7_ALL_FEATURES
  6
Continuous
 62
     7
100
AcDbCircle
 10
1154.3364878835
 20
302.0919815493
 30
0.0
 40
1.0
100
AcDbArc
 50
0.0
 51
90.0
  0
LINE
  5
43F
330
1B
100
AcDbEntity
 67
     1
  8
7_ALL_FEATURES
  6
Continuous
 62
     7
100
AcDbLine
 10
1114.3364878835
 20
303.0919815493
 30
0.0
 11
1154.3364878835
 21
303.0919815493
 31
0.0
  0
ARC
  5
440
330
1B
100
AcDbEntity
 67
     1
  8
7_ALL_FEATURES
  6
Continuous
 62
     7
100
AcDbCircle
 10
1114.3364878835
 20
302.0919815493
 30
0.0
 40
1.0
100
AcDbArc
 50
90.0
 51
180.0
  0
LINE
  5
441
330
1B
100
AcDbEntity
 67
     1
  8
7_ALL_FEATURES
  6
Continuous
 62
     7
100
AcDbLine
 10
1113.3364878835
 20
295.0919815493
 30
0.0
 11
1113.3364878835
 21
302.0919815493
 31
0.0
  0
ARC
  5
442
330
1B
100
AcDbEntity
 67
     1
  8
7_ALL_FEATURES
  6
Continuous
 62
     7
100
AcDbCircle
 10
1114.3364878835
 20
295.0919815493
 30
0.0
 40
1.0
100
AcDbArc
 50
180.0
 51
233.1301023542
  0
ARC
  5
443
330
1B
100
AcDbEntity
 67
     1
  8
02___PRT_ALL_AXES
  6
Continuous
 62
     7
100
AcDbCircle
 10
1134.3364878835
 20
242.7604363306
 30
0.0
 40
9.5
100
AcDbArc
 50
182.0
 51
358.0
  0
LINE
  5
444
330
1B
100
AcDbEntity
 67
     1
  8
02___PRT_ALL_AXES
  6
Continuous
 62
     7
100
AcDbLine
 10
1144.3303961537
 20
242.4114413636
 30
0.0
 11
1143.8307007402
 21
242.4288911119
 31
0.0
  0
ARC
  5
445
330
1B
100
AcDbEntity
 67
     1
  8
02___PRT_ALL_AXES
  6
Continuous
 62
     7
100
AcDbCircle
 10
1134.3364878835
 20
242.7604363306
 30
0.0
 40
10.0
100
AcDbArc
 50
182.0
 51
358.0
  0
LINE
  5
446
330
1B
100
AcDbEntity
 67
     1
  8
02___PRT_ALL_AXES
  6
Continuous
 62
     7
100
AcDbLine
 10
1124.8422750269
 20
242.4288911119
 30
0.0
 11
1124.3425796133
 21
242.4114413636
 31
0.0
  0
LINE
  5
447
330
1B
100
AcDbEntity
 67
     1
  8
02___PRT_ALL_AXES
  6
Continuous
 62
     7
100
AcDbLine
 10
1124.3425796133
 20
243.1094312976
 30
0.0
 11
1124.8422750269
 21
243.0919815493
 31
0.0
  0
ARC
  5
448
330
1B
100
AcDbEntity
 67
     1
  8
02___PRT_ALL_AXES
  6
Continuous
 62
     7
100
AcDbCircle
 10
1134.3364878835
 20
242.7604363306
 30
0.0
 40
10.0
100
AcDbArc
 50
2.0
 51
178.0
  0
LINE
  5
449
330
1B
100
AcDbEntity
 67
     1
  8
02___PRT_ALL_AXES
  6
Continuous
 62
     7
100
AcDbLine
 10
1143.8307007402
 20
243.0919815493
 30
0.0
 11
1144.3303961537
 21
243.1094312976
 31
0.0
  0
ARC
  5
44A
330
1B
100
AcDbEntity
 67
     1
  8
02___PRT_ALL_AXES
  6
Continuous
 62
     7
100
AcDbCircle
 10
1134.3364878835
 20
242.7604363306
 30
0.0
 40
9.5
100
AcDbArc
 50
2.0
 51
178.0
  0
LINE
  5
44B
330
1B
100
AcDbEntity
 67
     1
  8
7_ALL_FEATURES
  6
Continuous
 62
     7
100
AcDbLine
 10
1154.5233949446
 20
303.0919815493
 30
0.0
 11
1154.3364878835
 21
303.0919815493
 31
0.0
  0
ARC
  5
44C
330
1B
100
AcDbEntity
 67
     1
  8
7_ALL_FEATURES
  6
Continuous
 62
     7
100
AcDbCircle
 10
1154.5233949446
 20
302.7919815493
 30
0.0
 40
0.3
100
AcDbArc
 50
47.7009465767
 51
90.0
  0
LINE
  5
44D
330
1B
100
AcDbEntity
 67
     1
  8
7_ALL_FEATURES
  6
Continuous
 62
     7
100
AcDbLine
 10
1155.4723243438
 20
297.8825364353
 30
0.0
 11
1155.3364878835
 21
298.9143167873
 31
0.0
  0
ARC
  5
44E
330
1B
100
AcDbEntity
 67
     1
  8
7_ALL_FEATURES
  6
Continuous
 62
     7
100
AcDbCircle
 10
1148.0364878835
 20
296.9035899936
 30
0.0
 40
7.5
100
AcDbArc
 50
0.0
 51
7.5
  0
LINE
  5
44F
330
1B
100
AcDbEntity
 67
     1
  8
7_ALL_FEATURES
  6
Continuous
 62
     7
100
AcDbLine
 10
1155.5364878835
 20
267.2919815493
 30
0.0
 11
1155.5364878835
 21
296.9035899936
 31
0.0
  0
ARC
  5
450
330
1B
100
AcDbEntity
 67
     1
  8
7_ALL_FEATURES
  6
Continuous
 62
     7
100
AcDbCircle
 10
1155.3364878835
 20
267.2919815493
 30
0.0
 40
0.2
100
AcDbArc
 50
270.0
 51
360.0
  0
ARC
  5
451
330
1B
100
AcDbEntity
 67
     1
  8
7_ALL_FEATURES
  6
Continuous
 62
     7
100
AcDbCircle
 10
1155.3364878835
 20
262.3919815493
 30
0.0
 40
0.2
100
AcDbArc
 50
0.0
 51
90.0
  0
LINE
  5
452
330
1B
100
AcDbEntity
 67
     1
  8
7_ALL_FEATURES
  6
Continuous
 62
     7
100
AcDbLine
 10
1155.5364878835
 20
249.3919815493
 30
0.0
 11
1155.5364878835
 21
262.3919815493
 31
0.0
  0
ARC
  5
453
330
1B
100
AcDbEntity
 67
     1
  8
7_ALL_FEATURES
  6
Continuous
 62
     7
100
AcDbCircle
 10
1155.2364878835
 20
249.3919815493
 30
0.0
 40
0.3
100
AcDbArc
 50
289.5991446746
 51
360.0
  0
ARC
  5
454
330
1B
100
AcDbEntity
 67
     1
  8
7_ALL_FEATURES
  6
Continuous
 62
     7
100
AcDbCircle
 10
1155.2364878835
 20
244.2919815493
 30
0.0
 40
0.3
100
AcDbArc
 50
0.0
 51
70.4008553254
  0
LINE
  5
455
330
1B
100
AcDbEntity
 67
     1
  8
7_ALL_FEATURES
  6
Continuous
 62
     7
100
AcDbLine
 10
1155.5364878835
 20
220.5919815493
 30
0.0
 11
1155.5364878835
 21
244.2919815493
 31
0.0
  0
ARC
  5
456
330
1B
100
AcDbEntity
 67
     1
  8
7_ALL_FEATURES
  6
Continuous
 62
     7
100
AcDbCircle
 10
1154.5364878835
 20
220.5919815493
 30
0.0
 40
1.0
100
AcDbArc
 50
270.0
 51
360.0
  0
LINE
  5
457
330
1B
100
AcDbEntity
 67
     1
  8
7_ALL_FEATURES
  6
Continuous
 62
     7
100
AcDbLine
 10
1154.3364878835
 20
219.5919815493
 30
0.0
 11
1154.5364878835
 21
219.5919815493
 31
0.0
  0
LINE
  5
458
330
1B
100
AcDbEntity
 67
     1
  8
7_ALL_FEATURES
  6
Continuous
 62
     7
100
AcDbLine
 10
1114.1364878835
 20
219.5919815493
 30
0.0
 11
1114.3364878835
 21
219.5919815493
 31
0.0
  0
ARC
  5
459
330
1B
100
AcDbEntity
 67
     1
  8
7_ALL_FEATURES
  6
Continuous
 62
     7
100
AcDbCircle
 10
1114.1364878835
 20
220.5919815493
 30
0.0
 40
1.0
100
AcDbArc
 50
180.0
 51
270.0
  0
LINE
  5
45A
330
1B
100
AcDbEntity
 67
     1
  8
7_ALL_FEATURES
  6
Continuous
 62
     7
100
AcDbLine
 10
1113.1364878835
 20
244.2919815493
 30
0.0
 11
1113.1364878835
 21
220.5919815493
 31
0.0
  0
ARC
  5
45B
330
1B
100
AcDbEntity
 67
     1
  8
7_ALL_FEATURES
  6
Continuous
 62
     7
100
AcDbCircle
 10
1113.4364878835
 20
244.2919815493
 30
0.0
 40
0.3
100
AcDbArc
 50
109.5991446746
 51
180.0
  0
ARC
  5
45C
330
1B
100
AcDbEntity
 67
     1
  8
7_ALL_FEATURES
  6
Continuous
 62
     7
100
AcDbCircle
 10
1113.4364878835
 20
249.3919815493
 30
0.0
 40
0.3
100
AcDbArc
 50
180.0
 51
250.4008553254
  0
LINE
  5
45D
330
1B
100
AcDbEntity
 67
     1
  8
7_ALL_FEATURES
  6
Continuous
 62
     7
100
AcDbLine
 10
1113.1364878835
 20
262.3919815493
 30
0.0
 11
1113.1364878835
 21
249.3919815493
 31
0.0
  0
ARC
  5
45E
330
1B
100
AcDbEntity
 67
     1
  8
7_ALL_FEATURES
  6
Continuous
 62
     7
100
AcDbCircle
 10
1113.3364878835
 20
262.3919815493
 30
0.0
 40
0.2
100
AcDbArc
 50
90.0
 51
180.0
  0
ARC
  5
45F
330
1B
100
AcDbEntity
 67
     1
  8
7_ALL_FEATURES
  6
Continuous
 62
     7
100
AcDbCircle
 10
1113.3364878835
 20
267.2919815493
 30
0.0
 40
0.2
100
AcDbArc
 50
180.0
 51
270.0
  0
LINE
  5
460
330
1B
100
AcDbEntity
 67
     1
  8
7_ALL_FEATURES
  6
Continuous
 62
     7
100
AcDbLine
 10
1113.1364878835
 20
296.9035899936
 30
0.0
 11
1113.1364878835
 21
267.2919815493
 31
0.0
  0
ARC
  5
461
330
1B
100
AcDbEntity
 67
     1
  8
7_ALL_FEATURES
  6
Continuous
 62
     7
100
AcDbCircle
 10
1120.6364878835
 20
296.9035899936
 30
0.0
 40
7.5
100
AcDbArc
 50
172.5
 51
180.0
  0
LINE
  5
462
330
1B
100
AcDbEntity
 67
     1
  8
7_ALL_FEATURES
  6
Continuous
 62
     7
100
AcDbLine
 10
1113.3364878835
 20
298.9143167873
 30
0.0
 11
1113.2006514232
 21
297.8825364353
 31
0.0
  0
ARC
  5
463
330
1B
100
AcDbEntity
 67
     1
  8
7_ALL_FEATURES
  6
Continuous
 62
     7
100
AcDbCircle
 10
1114.1495808224
 20
302.7919815493
 30
0.0
 40
0.3
100
AcDbArc
 50
90.0
 51
132.2990534233
  0
LINE
  5
464
330
1B
100
AcDbEntity
 67
     1
  8
7_ALL_FEATURES
  6
Continuous
 62
     7
100
AcDbLine
 10
1114.3364878835
 20
303.0919815493
 30
0.0
 11
1114.1495808224
 21
303.0919815493
 31
0.0
  0
DIMENSION
  5
465
330
1B
100
AcDbEntity
 67
     1
  8
0
  6
Continuous
 62
     2
100
AcDbDimension
280
     0
  2
*D1
 10
1085.169478684
 20
322.8021154759
 30
0.0
 11
563.7409023743
 21
322.8021154759
 31
0.0
 70
   160
 71
     5
 42
-1.0
 73
     0
 74
     0
 75
     0
  3
DIMSTYLE_1
100
AcDbAlignedDimension
 13
43.169478684
 23
311.2223192465
 33
0.0
 14
1085.169478684
 24
311.2223192465
 34
0.0
100
AcDbRotatedDimension
  0
DIMENSION
  5
466
330
1B
100
AcDbEntity
 67
     1
  8
0
  6
Continuous
 62
     2
100
AcDbDimension
280
     0
  2
*D2
 10
1097.5963793705
 20
219.5919815493
 30
0.0
 11
1097.5963793705
 21
260.9134220771
 31
0.0
 70
   160
 71
     5
 42
-1.0
 73
     0
 74
     0
 75
     0
  3
DIMSTYLE_2
100
AcDbAlignedDimension
 13
1106.8173527484
 23
303.0919815493
 33
0.0
 14
1109.4327040998
 24
219.5919815493
 34
0.0
 50
270.0
100
AcDbRotatedDimension
  0
DIMENSION
  5
467
330
1B
100
AcDbEntity
 67
     1
  8
0
  6
Continuous
 62
     2
100
AcDbDimension
280
     0
  2
*D3
 10
1155.5364878835
 20
322.8021154759
 30
0.0
 11
1133.9079128723
 21
322.8021154759
 31
0.0
 70
   160
 71
     5
 42
-1.0
 73
     0
 74
     0
 75
     0
  3
DIMSTYLE_2
100
AcDbAlignedDimension
 13
1113.1364878835
 23
310.0729312098
 33
0.0
 14
1155.5364878835
 24
311.2223192465
 34
0.0
100
AcDbRotatedDimension
  0
LINE
  5
468
330
1B
100
AcDbEntity
 67
     1
  8
0
  6
Continuous
 62
     2
100
AcDbLine
 10
1049.1410634924
 20
75.972460076
 30
0.0
 11
1179.1410634924
 21
75.972460076
 31
0.0
  0
LINE
  5
469
330
1B
100
AcDbEntity
 67
     1
  8
0
  6
Continuous
 62
     2
100
AcDbLine
 10
1049.1410634924
 20
75.972460076
 30
0.0
 11
1049.1410634924
 21
9.972460076
 31
0.0
  0
LINE
  5
46A
330
1B
100
AcDbEntity
 67
     1
  8
0
  6
Continuous
 62
     2
100
AcDbLine
 10
1079.1410634924
 20
67.972460076
 30
0.0
 11
1179.1410634924
 21
67.972460076
 31
0.0
  0
LINE
  5
46B
330
1B
100
AcDbEntity
 67
     1
  8
0
  6
Continuous
 62
     2
100
AcDbLine
 10
1049.1410634924
 20
59.972460076
 30
0.0
 11
1179.1410634924
 21
59.972460076
 31
0.0
  0
LINE
  5
46C
330
1B
100
AcDbEntity
 67
     1
  8
0
  6
Continuous
 62
     2
100
AcDbLine
 10
1079.1410634924
 20
53.972460076
 30
0.0
 11
1179.1410634924
 21
53.972460076
 31
0.0
  0
LINE
  5
46D
330
1B
100
AcDbEntity
 67
     1
  8
0
  6
Continuous
 62
     2
100
AcDbLine
 10
1079.1410634924
 20
47.972460076
 30
0.0
 11
1179.1410634924
 21
47.972460076
 31
0.0
  0
LINE
  5
46E
330
1B
100
AcDbEntity
 67
     1
  8
0
  6
Continuous
 62
     2
100
AcDbLine
 10
1079.1410634924
 20
41.972460076
 30
0.0
 11
1179.1410634924
 21
41.972460076
 31
0.0
  0
LINE
  5
46F
330
1B
100
AcDbEntity
 67
     1
  8
0
  6
Continuous
 62
     2
100
AcDbLine
 10
1079.1410634924
 20
35.972460076
 30
0.0
 11
1179.1410634924
 21
35.972460076
 31
0.0
  0
LINE
  5
470
330
1B
100
AcDbEntity
 67
     1
  8
0
  6
Continuous
 62
     2
100
AcDbLine
 10
1079.1410634924
 20
29.972460076
 30
0.0
 11
1179.1410634924
 21
29.972460076
 31
0.0
  0
LINE
  5
471
330
1B
100
AcDbEntity
 67
     1
  8
0
  6
Continuous
 62
     2
100
AcDbLine
 10
1049.1410634924
 20
23.972460076
 30
0.0
 11
1179.1410634924
 21
23.972460076
 31
0.0
  0
LINE
  5
472
330
1B
100
AcDbEntity
 67
     1
  8
0
  6
Continuous
 62
     2
100
AcDbLine
 10
1049.1410634924
 20
17.972460076
 30
0.0
 11
1179.1410634924
 21
17.972460076
 31
0.0
  0
LINE
  5
473
330
1B
100
AcDbEntity
 67
     1
  8
0
  6
Continuous
 62
     2
100
AcDbLine
 10
1049.1410634924
 20
13.972460076
 30
0.0
 11
1179.1410634924
 21
13.972460076
 31
0.0
  0
LINE
  5
474
330
1B
100
AcDbEntity
 67
     1
  8
0
  6
Continuous
 62
     2
100
AcDbLine
 10
1049.1410634924
 20
9.972460076
 30
0.0
 11
1179.1410634924
 21
9.972460076
 31
0.0
  0
LINE
  5
475
330
1B
100
AcDbEntity
 67
     1
  8
0
  6
Continuous
 62
     2
100
AcDbLine
 10
1079.1410634924
 20
75.972460076
 30
0.0
 11
1079.1410634924
 21
17.972460076
 31
0.0
  0
LINE
  5
476
330
1B
100
AcDbEntity
 67
     1
  8
0
  6
Continuous
 62
     2
100
AcDbLine
 10
1099.1410634924
 20
59.972460076
 30
0.0
 11
1099.1410634924
 21
53.972460076
 31
0.0
  0
LINE
  5
477
330
1B
100
AcDbEntity
 67
     1
  8
0
  6
Continuous
 62
     2
100
AcDbLine
 10
1129.1410634924
 20
29.972460076
 30
0.0
 11
1129.1410634924
 21
17.972460076
 31
0.0
  0
LINE
  5
478
330
1B
100
AcDbEntity
 67
     1
  8
0
  6
Continuous
 62
     2
100
AcDbLine
 10
1139.1410634924
 20
59.972460076
 30
0.0
 11
1139.1410634924
 21
53.972460076
 31
0.0
  0
LINE
  5
479
330
1B
100
AcDbEntity
 67
     1
  8
0
  6
Continuous
 62
     2
100
AcDbLine
 10
1139.1410634924
 20
47.972460076
 30
0.0
 11
1139.1410634924
 21
41.972460076
 31
0.0
  0
LINE
  5
47A
330
1B
100
AcDbEntity
 67
     1
  8
0
  6
Continuous
 62
     2
100
AcDbLine
 10
1159.1410634924
 20
59.972460076
 30
0.0
 11
1159.1410634924
 21
53.972460076
 31
0.0
  0
LINE
  5
47B
330
1B
100
AcDbEntity
 67
     1
  8
0
  6
Continuous
 62
     2
100
AcDbLine
 10
1169.1410634924
 20
47.972460076
 30
0.0
 11
1169.1410634924
 21
41.972460076
 31
0.0
  0
LINE
  5
47C
330
1B
100
AcDbEntity
 67
     1
  8
0
  6
Continuous
 62
     2
100
AcDbLine
 10
1179.1410634924
 20
75.972460076
 30
0.0
 11
1179.1410634924
 21
9.972460076
 31
0.0
  0
INSERT
  5
47D
330
1B
100
AcDbEntity
 67
     1
  8
0
  6
Continuous
 62
     2
100
AcDbBlockReference
  2
PROIEZIONE_EU_BL0
 10
1064.1410634924
 20
67.597460076
 30
0.0
  0
MTEXT
  5
47E
330
1B
100
AcDbEntity
 67
     1
  8
9_SOLID
  6
Continuous
 62
     2
100
AcDbMText
 10
1080.6285634924
 20
74.347460076
 30
0.0
 40
1.9
 41
142.3642857143
 46
0.0
 71
     1
 72
     1
  1
EN: Chamfer/radii unlisted 0.3x45°. Remove sharp edges.\PGen. tol.: hole H11, shaft h11, lenght Js12. UNI EN 22768 Medium Grande.
 73
     1
 44
1.0
  0
MTEXT
  5
47F
330
1B
100
AcDbEntity
 67
     1
  8
9_SOLID
  6
Continuous
 62
     2
100
AcDbMText
 10
1080.6285634924
 20
66.347460076
 30
0.0
 40
1.9
 41
148.2678571429
 46
0.0
 71
     1
 72
     1
  1
IT: Sm./rac. non quotati 0.3x45°. Eliminare spigoli taglienti.\PToll. gen.: foro H11, albero h11, lunghezza Js12. UNI EN 22768 Grado Medio.
 73
     1
 44
1.0
  0
INSERT
  5
480
330
1B
100
AcDbEntity
 67
     1
  8
0
  6
Continuous
 62
     2
100
AcDbBlockReference
  2
LOGO2_BL1
 10
1062.9671105372
 20
41.972460076
 30
0.0
  0
MTEXT
  5
481
330
1B
100
AcDbEntity
 67
     1
  8
9_SOLID
  6
Continuous
 62
     2
100
AcDbMText
 10
1080.6285634924
 20
58.222460076
 30
0.0
 40
3.0
 41
21.75
 46
0.0
 71
     1
 72
     1
  1
Pj: 565
 73
     1
 44
1.0
  0
MTEXT
  5
482
330
1B
100
AcDbEntity
 67
     1
  8
0
  6
Continuous
 62
     2
100
AcDbMText
 10
1100.6285634924
 20
58.222460076
 30
0.0
 40
3.0
 41
41.5714285714
 46
0.0
 71
     1
 72
     1
  1
% Check:  %
 73
     1
 44
1.0
  0
MTEXT
  5
483
330
1B
100
AcDbEntity
 67
     1
  8
9_SOLID
  6
Continuous
 62
     2
100
AcDbMText
 10
1140.6285634924
 20
58.222460076
 30
0.0
 40
3.0
 41
19.5
 46
0.0
 71
     1
 72
     1
  1
Rev:00
 73
     1
 44
1.0
  0
MTEXT
  5
484
330
1B
100
AcDbEntity
 67
     1
  8
9_SOLID
  6
Continuous
 62
     2
100
AcDbMText
 10
1160.6285634924
 20
58.472460076
 30
0.0
 40
3.0
 41
19.7142857143
 46
0.0
 71
     1
 72
     1
  1
Ver: A
 73
     1
 44
1.0
  0
MTEXT
  5
485
330
1B
100
AcDbEntity
 67
     1
  8
9_SOLID
  6
Continuous
 62
     2
100
AcDbMText
 10
1080.6285634924
 20
52.222460076
 30
0.0
 40
3.0
 41
74.3571428571
 46
0.0
 71
     1
 72
     1
  1
Neutral code: 565_C_404
 73
     1
 44
1.0
  0
MTEXT
  5
486
330
1B
100
AcDbEntity
 67
     1
  8
0
  6
Continuous
 62
     2
100
AcDbMText
 10
1080.6285634924
 20
46.222460076
 30
0.0
 40
3.0
 41
22.9285714286
 46
0.0
 71
     1
 72
     1
  1
Code:  
 73
     1
 44
1.0
  0
MTEXT
  5
487
330
1B
100
AcDbEntity
 67
     1
  8
9_SOLID
  6
Continuous
 62
     2
100
AcDbMText
 10
1140.6285634924
 20
46.472460076
 30
0.0
 40
3.0
 41
27.8571428571
 46
0.0
 71
     1
 72
     1
  1
Scale: 1:1
 73
     1
 44
1.0
  0
MTEXT
  5
488
330
1B
100
AcDbEntity
 67
     1
  8
9_SOLID
  6
Continuous
 62
     2
100
AcDbMText
 10
1174.1410634924
 20
46.472460076
 30
0.0
 40
3.0
 41
8.25
 46
0.0
 71
     2
 72
     1
  1
A0
 73
     1
 44
1.0
  0
MTEXT
  5
489
330
1B
100
AcDbEntity
 67
     1
  8
9_SOLID
  6
Continuous
 62
     2
100
AcDbMText
 10
1080.6285634924
 20
40.472460076
 30
0.0
 40
3.0
 41
145.9285714286
 46
0.0
 71
     1
 72
     1
  1
It descr.: CASSAFORMA NEVA2.1-5.1 mm1040 ALL
 73
     1
 44
1.0
  0
MTEXT
  5
48A
330
1B
100
AcDbEntity
 67
     1
  8
0
  6
Continuous
 62
     2
100
AcDbMText
 10
1080.6285634924
 20
34.472460076
 30
0.0
 40
3.0
 41
37.5
 46
0.0
 71
     1
 72
     1
  1
En descr.:  
 73
     1
 44
1.0
  0
MTEXT
  5
48B
330
1B
100
AcDbEntity
 67
     1
  8
9_SOLID
  6
Continuous
 62
     2
100
AcDbMText
 10
1080.6285634924
 20
28.472460076
 30
0.0
 40
3.0
 41
31.2857142857
 46
0.0
 71
     1
 72
     1
  1
Des.: A.F.
 73
     1
 44
1.0
  0
MTEXT
  5
48C
330
1B
100
AcDbEntity
 67
     1
  8
9_SOLID
  6
Continuous
 62
     2
100
AcDbMText
 10
1130.6285634924
 20
28.472460076
 30
0.0
 40
3.0
 41
22.2857142857
 46
0.0
 71
     1
 72
     1
  1
Check: 
 73
     1
 44
1.0
  0
MTEXT
  5
48D
330
1B
100
AcDbEntity
 67
     1
  8
9_SOLID
  6
Continuous
 62
     2
100
AcDbMText
 10
1050.6285634924
 20
22.472460076
 30
0.0
 40
3.0
 41
42.8571428571
 46
0.0
 71
     1
 72
     1
  1
Date: 30.10.13
 73
     1
 44
1.0
  0
MTEXT
  5
48E
330
1B
100
AcDbEntity
 67
     1
  8
0
  6
Continuous
 62
     2
100
AcDbMText
 10
1080.6285634924
 20
22.472460076
 30
0.0
 40
3.0
 41
21.75
 46
0.0
 71
     1
 72
     1
  1
Mat.:  
 73
     1
 44
1.0
  0
MTEXT
  5
48F
330
1B
100
AcDbEntity
 67
     1
  8
9_SOLID
  6
Continuous
 62
     2
100
AcDbMText
 10
1130.6285634924
 20
21.972460076
 30
0.0
 40
2.0
 41
42.3571428571
 46
0.0
 71
     1
 72
     1
  1
Disegno per catalogo
 73
     1
 44
1.0
  0
MTEXT
  5
490
330
1B
100
AcDbEntity
 67
     1
  8
9_SOLID
  6
Continuous
 62
     2
100
AcDbMText
 10
1050.6285634924
 20
16.872460076
 30
0.0
 40
1.8
 41
176.2071428571
 46
0.0
 71
     1
 72
     1
  1
It: A norma di legge si diffida da qualsiasi riproduzione senza nostra autorizzazione esplicita.
 73
     1
 44
1.0
  0
MTEXT
  5
491
330
1B
100
AcDbEntity
 67
     1
  8
9_SOLID
  6
Continuous
 62
     2
100
AcDbMText
 10
1050.6285634924
 20
12.872460076
 30
0.0
 40
1.8
 41
158.1428571429
 46
0.0
 71
     1
 72
     1
  1
En: According to the law, beware of any reproduction made without our authorization.
 73
     1
 44
1.0
  0
ENDSEC
  0
SECTION
  2
OBJECTS
  0
DICTIONARY
  5
492
330
0
100
AcDbDictionary
281
     1
  3
ACAD_DETAILVIEWSTYLE
350
4E8
  3
ACAD_GROUP
350
493
  3
ACAD_LAYOUT
350
4BB
  3
ACAD_MATERIAL
350
4D7
  3
ACAD_MLEADERSTYLE
350
4DD
  3
ACAD_MLINESTYLE
350
494
  3
ACAD_PLOTSETTINGS
350
496
  3
ACAD_PLOTSTYLENAME
350
497
  3
ACAD_SCALELIST
350
499
  3
ACAD_SECTIONVIEWSTYLE
350
4E9
  3
ACAD_TABLESTYLE
350
4DB
  3
ACAD_VISUALSTYLE
350
4BE
  3
ACDB_RECOMPOSE_DATA
350
4E4
  3
AcDbVariableDictionary
350
4E0
  3
APPDATA
350
4DF
  0
DICTIONARY
  5
4E8
102
{ACAD_REACTORS
330
492
102
}
330
492
100
AcDbDictionary
281
     1
  0
DICTIONARY
  5
493
102
{ACAD_REACTORS
330
492
102
}
330
492
100
AcDbDictionary
281
     1
  0
DICTIONARY
  5
4BB
102
{ACAD_REACTORS
330
492
102
}
330
492
100
AcDbDictionary
281
     1
  3
Foglio 1
350
4BD
  3
Model
350
4BC
  0
DICTIONARY
  5
4D7
102
{ACAD_REACTORS
330
492
102
}
330
492
100
AcDbDictionary
281
     1
  3
ByBlock
350
4D9
  3
ByLayer
350
4D8
  3
Global
350
4DA
  0
DICTIONARY
  5
4DD
102
{ACAD_REACTORS
330
492
102
}
330
492
100
AcDbDictionary
281
     1
  3
Standard
350
4DE
  0
DICTIONARY
  5
494
102
{ACAD_REACTORS
330
492
102
}
330
492
100
AcDbDictionary
281
     1
  3
STANDARD
350
495
  0
DICTIONARY
  5
496
102
{ACAD_REACTORS
330
492
102
}
330
492
100
AcDbDictionary
281
     1
  0
ACDBDICTIONARYWDFLT
  5
497
102
{ACAD_REACTORS
330
492
102
}
330
492
100
AcDbDictionary
281
     1
  3
Normal
350
498
100
AcDbDictionaryWithDefault
340
498
  0
DICTIONARY
  5
499
102
{ACAD_REACTORS
330
492
102
}
330
492
100
AcDbDictionary
281
     1
  3
A0
350
49A
  3
A1
350
49B
  3
A2
350
49C
  3
A3
350
49D
  3
A4
350
49E
  3
A5
350
49F
  3
A6
350
4A0
  3
A7
350
4A1
  3
A8
350
4A2
  3
A9
350
4A3
  3
B0
350
4A4
  3
B1
350
4A5
  3
B2
350
4A6
  3
B3
350
4A7
  3
B4
350
4A8
  3
B5
350
4A9
  3
B6
350
4AA
  3
B7
350
4AB
  3
B8
350
4AC
  3
B9
350
4AD
  3
C0
350
4AE
  3
C1
350
4AF
  3
C2
350
4B0
  3
C3
350
4B1
  3
C4
350
4B2
  3
C5
350
4B3
  3
C6
350
4B4
  3
C7
350
4B5
  3
C8
350
4B6
  3
C9
350
4B7
  3
D0
350
4B8
  3
D1
350
4B9
  3
D2
350
4BA
  0
DICTIONARY
  5
4E9
102
{ACAD_REACTORS
330
492
102
}
330
492
100
AcDbDictionary
281
     1
  0
DICTIONARY
  5
4DB
102
{ACAD_REACTORS
330
492
102
}
330
492
100
AcDbDictionary
281
     1
  3
Standard
350
4DC
  0
DICTIONARY
  5
4BE
102
{ACAD_REACTORS
330
492
102
}
330
492
100
AcDbDictionary
281
     1
  3
2dWireframe
350
4C3
  3
Basic
350
4C6
  3
Brighten
350
4CA
  3
ColorChange
350
4CE
  3
Conceptual
350
4C8
  3
Dim
350
4C9
  3
EdgeColorOff
350
4D1
  3
Facepattern
350
4CD
  3
Flat
350
4BF
  3
FlatWithEdges
350
4C0
  3
Gouraud
350
4C1
  3
GouraudWithEdges
350
4C2
  3
Hidden
350
4C5
  3
JitterOff
350
4CF
  3
Linepattern
350
4CC
  3
OverhangOff
350
4D0
  3
Realistic
350
4C7
  3
Shaded
350
4D6
  3
Shaded with edges
350
4D5
  3
Shades of Gray
350
4D2
  3
Sketchy
350
4D3
  3
Thicken
350
4CB
  3
Wireframe
350
4C4
  3
X-Ray
350
4D4
  0
XRECORD
  5
4E4
102
{ACAD_REACTORS
330
492
102
}
330
492
100
AcDbXrecord
280
     1
 90
        1
330
4DC
  0
DICTIONARY
  5
4E0
102
{ACAD_REACTORS
330
492
102
}
330
492
100
AcDbDictionary
281
     1
  3
CANNOSCALE
350
4E1
  3
CMLEADERSTYLE
350
4E6
  3
CTABLESTYLE
350
4E5
  3
MSLTSCALE
350
4E7
  0
DICTIONARY
  5
4DF
102
{ACAD_REACTORS
330
492
102
}
330
492
100
AcDbDictionary
281
     1
  0
LAYOUT
  5
4BD
102
{ACAD_REACTORS
330
4BB
102
}
330
4BB
100
AcDbPlotSettings
  1

  2
none_device
  4
ISO_A3_(420.00_x_297.00_MM)
  6

 40
7.5
 41
20.0
 42
7.5
 43
20.0
 44
420.0
 45
297.0
 46
0.0
 47
0.0
 48
0.0
 49
0.0
140
0.0
141
0.0
142
1.0
143
3.272373540856031
 70
   688
 72
     1
 73
     0
 74
     1
  7

 75
     0
 76
     0
 77
     2
 78
   300
147
0.3055885850178359
148
3.0
149
0.0
100
AcDbLayout
  1
Foglio 1
 70
     1
 71
     1
 10
0.0
 20
0.0
 11
412.5
 21
277.0
 12
0.0
 22
0.0
 32
0.0
 14
-3.0
 24
0.0
 34
0.0
 15
1189.0
 25
841.0
 35
0.0
146
0.0
 13
0.0
 23
0.0
 33
0.0
 16
1.0
 26
0.0
 36
0.0
 17
0.0
 27
1.0
 37
0.0
 76
     0
330
1B
331
2F5
  0
LAYOUT
  5
4BC
102
{ACAD_REACTORS
330
4BB
102
}
330
4BB
100
AcDbPlotSettings
  1

  2
none_device
  4
Letter_(8.50_x_11.00_Inches)
  6

 40
6.35
 41
6.35
 42
6.35
 43
6.35
 44
215.9
 45
279.4
 46
0.0
 47
0.0
 48
0.0
 49
0.0
140
0.0
141
0.0
142
1.0
143
148.624999994925
 70
  1712
 72
     0
 73
     0
 74
     0
  7

 75
     0
 76
     0
 77
     2
 78
   300
147
0.0067283431457302
148
-0.0000005156208999
149
0.0
100
AcDbLayout
  1
Model
 70
     1
 71
     0
 10
0.0
 20
0.0
 11
1189.0
 21
841.0
 12
0.0
 22
0.0
 32
0.0
 14
0.0
 24
0.0
 34
0.0
 15
1189.0
 25
841.0
 35
0.0
146
0.0
 13
0.0
 23
0.0
 33
0.0
 16
1.0
 26
0.0
 36
0.0
 17
0.0
 27
1.0
 37
0.0
 76
     0
330
1F
331
1F4
  0
MATERIAL
  5
4D9
102
{ACAD_REACTORS
330
4D7
102
}
330
4D7
100
AcDbMaterial
  1
ByBlock
 72
     1
 94
      127
  0
MATERIAL
  5
4D8
102
{ACAD_REACTORS
330
4D7
102
}
330
4D7
100
AcDbMaterial
  1
ByLayer
 72
     1
 94
      127
  0
MATERIAL
  5
4DA
102
{ACAD_REACTORS
330
4D7
102
}
330
4D7
100
AcDbMaterial
  1
Global
 72
     1
 94
      127
  0
MLEADERSTYLE
  5
4DE
102
{ACAD_REACTORS
330
4DD
102
}
330
4DD
100
AcDbMLeaderStyle
179
     2
170
     2
171
     1
172
     0
 90
        2
 40
0.0
 41
0.0
173
     1
 91
-1056964608
340
14
 92
       -2
290
     1
 42
2.0
291
     1
 43
8.0
  3
Standard
341
0
 44
4.0
300

342
11
174
     1
178
     1
175
     1
176
     0
 93
-1056964608
 45
4.0
292
     0
297
     0
 46
4.0
343
0
 94
-1056964608
 47
1.0
 49
1.0
140
1.0
293
     1
141
0.0
294
     1
177
     0
142
1.0
295
     0
296
     0
143
3.75
271
     0
272
     9
273
     9
298
     0
  0
MLINESTYLE
  5
495
102
{ACAD_REACTORS
330
494
102
}
330
494
100
AcDbMlineStyle
  2
STANDARD
 70
     0
  3

 62
   256
 51
90.0
 52
90.0
 71
     2
 49
0.5
 62
   256
  6
BYLAYER
 49
-0.5
 62
   256
  6
BYLAYER
  0
ACDBPLACEHOLDER
  5
498
102
{ACAD_REACTORS
330
497
102
}
330
497
  0
SCALE
  5
49A
102
{ACAD_REACTORS
330
499
102
}
330
499
100
AcDbScale
 70
     0
300
1:1
140
1.0
141
1.0
290
     1
  0
SCALE
  5
49B
102
{ACAD_REACTORS
330
499
102
}
330
499
100
AcDbScale
 70
     0
300
1:2
140
1.0
141
2.0
290
     0
  0
SCALE
  5
49C
102
{ACAD_REACTORS
330
499
102
}
330
499
100
AcDbScale
 70
     0
300
1:4
140
1.0
141
4.0
290
     0
  0
SCALE
  5
49D
102
{ACAD_REACTORS
330
499
102
}
330
499
100
AcDbScale
 70
     0
300
1:5
140
1.0
141
5.0
290
     0
  0
SCALE
  5
49E
102
{ACAD_REACTORS
330
499
102
}
330
499
100
AcDbScale
 70
     0
300
1:8
140
1.0
141
8.0
290
     0
  0
SCALE
  5
49F
102
{ACAD_REACTORS
330
499
102
}
330
499
100
AcDbScale
 70
     0
300
1:10
140
1.0
141
10.0
290
     0
  0
SCALE
  5
4A0
102
{ACAD_REACTORS
330
499
102
}
330
499
100
AcDbScale
 70
     0
300
1:16
140
1.0
141
16.0
290
     0
  0
SCALE
  5
4A1
102
{ACAD_REACTORS
330
499
102
}
330
499
100
AcDbScale
 70
     0
300
1:20
140
1.0
141
20.0
290
     0
  0
SCALE
  5
4A2
102
{ACAD_REACTORS
330
499
102
}
330
499
100
AcDbScale
 70
     0
300
1:30
140
1.0
141
30.0
290
     0
  0
SCALE
  5
4A3
102
{ACAD_REACTORS
330
499
102
}
330
499
100
AcDbScale
 70
     0
300
1:40
140
1.0
141
40.0
290
     0
  0
SCALE
  5
4A4
102
{ACAD_REACTORS
330
499
102
}
330
499
100
AcDbScale
 70
     0
300
1:50
140
1.0
141
50.0
290
     0
  0
SCALE
  5
4A5
102
{ACAD_REACTORS
330
499
102
}
330
499
100
AcDbScale
 70
     0
300
1:100
140
1.0
141
100.0
290
     0
  0
SCALE
  5
4A6
102
{ACAD_REACTORS
330
499
102
}
330
499
100
AcDbScale
 70
     0
300
2:1
140
2.0
141
1.0
290
     0
  0
SCALE
  5
4A7
102
{ACAD_REACTORS
330
499
102
}
330
499
100
AcDbScale
 70
     0
300
4:1
140
4.0
141
1.0
290
     0
  0
SCALE
  5
4A8
102
{ACAD_REACTORS
330
499
102
}
330
499
100
AcDbScale
 70
     0
300
8:1
140
8.0
141
1.0
290
     0
  0
SCALE
  5
4A9
102
{ACAD_REACTORS
330
499
102
}
330
499
100
AcDbScale
 70
     0
300
10:1
140
10.0
141
1.0
290
     0
  0
SCALE
  5
4AA
102
{ACAD_REACTORS
330
499
102
}
330
499
100
AcDbScale
 70
     0
300
100:1
140
100.0
141
1.0
290
     0
  0
SCALE
  5
4AB
102
{ACAD_REACTORS
330
499
102
}
330
499
100
AcDbScale
 70
     0
300
1/128" = 1'-0"
140
0.0078125
141
12.0
290
     0
  0
SCALE
  5
4AC
102
{ACAD_REACTORS
330
499
102
}
330
499
100
AcDbScale
 70
     0
300
1/64" = 1'-0"
140
0.015625
141
12.0
290
     0
  0
SCALE
  5
4AD
102
{ACAD_REACTORS
330
499
102
}
330
499
100
AcDbScale
 70
     0
300
1/32" = 1'-0"
140
0.03125
141
12.0
290
     0
  0
SCALE
  5
4AE
102
{ACAD_REACTORS
330
499
102
}
330
499
100
AcDbScale
 70
     0
300
1/16" = 1'-0"
140
0.0625
141
12.0
290
     0
  0
SCALE
  5
4AF
102
{ACAD_REACTORS
330
499
102
}
330
499
100
AcDbScale
 70
     0
300
3/32" = 1'-0"
140
0.09375
141
12.0
290
     0
  0
SCALE
  5
4B0
102
{ACAD_REACTORS
330
499
102
}
330
499
100
AcDbScale
 70
     0
300
1/8" = 1'-0"
140
0.125
141
12.0
290
     0
  0
SCALE
  5
4B1
102
{ACAD_REACTORS
330
499
102
}
330
499
100
AcDbScale
 70
     0
300
3/16" = 1'-0"
140
0.1875
141
12.0
290
     0
  0
SCALE
  5
4B2
102
{ACAD_REACTORS
330
499
102
}
330
499
100
AcDbScale
 70
     0
300
1/4" = 1'-0"
140
0.25
141
12.0
290
     0
  0
SCALE
  5
4B3
102
{ACAD_REACTORS
330
499
102
}
330
499
100
AcDbScale
 70
     0
300
3/8" = 1'-0"
140
0.375
141
12.0
290
     0
  0
SCALE
  5
4B4
102
{ACAD_REACTORS
330
499
102
}
330
499
100
AcDbScale
 70
     0
300
1/2" = 1'-0"
140
0.5
141
12.0
290
     0
  0
SCALE
  5
4B5
102
{ACAD_REACTORS
330
499
102
}
330
499
100
AcDbScale
 70
     0
300
3/4" = 1'-0"
140
0.75
141
12.0
290
     0
  0
SCALE
  5
4B6
102
{ACAD_REACTORS
330
499
102
}
330
499
100
AcDbScale
 70
     0
300
1" = 1'-0"
140
1.0
141
12.0
290
     0
  0
SCALE
  5
4B7
102
{ACAD_REACTORS
330
499
102
}
330
499
100
AcDbScale
 70
     0
300
1-1/2" = 1'-0"
140
1.5
141
12.0
290
     0
  0
SCALE
  5
4B8
102
{ACAD_REACTORS
330
499
102
}
330
499
100
AcDbScale
 70
     0
300
3" = 1'-0"
140
3.0
141
12.0
290
     0
  0
SCALE
  5
4B9
102
{ACAD_REACTORS
330
499
102
}
330
499
100
AcDbScale
 70
     0
300
6" = 1'-0"
140
6.0
141
12.0
290
     0
  0
SCALE
  5
4BA
102
{ACAD_REACTORS
330
499
102
}
330
499
100
AcDbScale
 70
     0
300
1'-0" = 1'-0"
140
12.0
141
12.0
290
     0
  0
TABLESTYLE
  5
4DC
102
{ACAD_REACTORS
330
4DB
102
}
102
{ACAD_XDICTIONARY
360
4E2
102
}
330
4DB
100
AcDbTableStyle
  3
Standard
 70
     0
 71
     0
 40
0.06
 41
0.06
280
     0
281
     0
  7
STANDARD
140
4.5
170
     2
 62
     0
 63
   257
283
     0
 90
        4
 91
        0
  1

274
    -2
284
     1
 64
     0
275
    -2
285
     1
 65
     0
276
    -2
286
     1
 66
     0
277
    -2
287
     1
 67
     0
278
    -2
288
     1
 68
     0
279
    -2
289
     1
 69
     0
  7
STANDARD
140
6.0
170
     5
 62
     0
 63
   257
283
     0
 90
        4
 91
        0
  1

274
    -2
284
     1
 64
     0
275
    -2
285
     1
 65
     0
276
    -2
286
     1
 66
     0
277
    -2
287
     1
 67
     0
278
    -2
288
     1
 68
     0
279
    -2
289
     1
 69
     0
  7
STANDARD
140
4.5
170
     5
 62
     0
 63
   257
283
     0
 90
        4
 91
        0
  1

274
    -2
284
     1
 64
     0
275
    -2
285
     1
 65
     0
276
    -2
286
     1
 66
     0
277
    -2
287
     1
 67
     0
278
    -2
288
     1
 68
     0
279
    -2
289
     1
 69
     0
  0
VISUALSTYLE
  5
4C3
102
{ACAD_REACTORS
330
4BE
102
}
330
4BE
100
AcDbVisualStyle
  2
2dWireframe
 70
     4
177
     3
291
     0
 70
    58
 90
        0
176
     1
 90
        2
176
     1
 90
        0
176
     1
 90
        0
176
     1
 40
0.6
176
     1
 40
30.0
176
     1
 62
     7
420
 16777215
176
     1
 90
        1
176
     1
 90
        4
176
     1
 62
     7
176
     1
 62
   257
176
     1
 90
        1
176
     1
 90
        1
176
     1
 40
1.0
176
     1
 90
        0
176
     1
 62
   257
176
     1
 40
1.0
176
     1
 90
        1
176
     1
 90
        6
176
     1
 90
        2
176
     1
 62
     7
176
     1
 90
        5
176
     1
 90
        0
176
     1
 90
        0
176
     1
290
     0
176
     1
 90
        1
176
     1
 40
0.0
176
     1
 90
        0
176
     1
290
     1
176
     1
290
     1
176
     1
290
     0
176
     1
290
     0
176
     1
290
     0
176
     1
290
     0
176
     1
290
     0
176
     1
290
     0
176
     1
290
     0
176
     1
 90
       50
176
     1
 40
0.0
176
     1
 40
1.0
176
     1
 90
        0
176
     1
 62
    18
420
        0
176
     1
 90
       50
176
     1
 90
        3
176
     1
 62
     5
420
      255
176
     1
290
     0
176
     1
 90
       50
176
     1
 90
       50
176
     1
 90
       50
176
     1
290
     0
176
     1
 90
       50
176
     1
 62
   256
176
     0
 40
1.0
176
     0
 90
        2
176
     1
  1
strokes_ogs.tif
176
     1
290
     0
176
     1
 40
1.0
176
     1
 40
1.0
176
     1
  0
VISUALSTYLE
  5
4C6
102
{ACAD_REACTORS
330
4BE
102
}
330
4BE
100
AcDbVisualStyle
  2
Basic
 70
     7
177
     3
291
     1
 70
    58
 90
        1
176
     1
 90
        0
176
     1
 90
        1
176
     1
 90
        0
176
     1
 40
0.6
176
     1
 40
30.0
176
     1
 62
     7
420
 16777215
176
     1
 90
        0
176
     1
 90
        4
176
     1
 62
     7
176
     1
 62
   257
176
     1
 90
        1
176
     1
 90
        1
176
     1
 40
1.0
176
     1
 90
        8
176
     1
 62
     7
176
     1
 40
1.0
176
     1
 90
        1
176
     1
 90
        6
176
     1
 90
        2
176
     1
 62
     7
176
     1
 90
        5
176
     1
 90
        0
176
     1
 90
        0
176
     1
290
     0
176
     1
 90
        1
176
     1
 40
0.0
176
     1
 90
        0
176
     1
290
     0
176
     1
290
     1
176
     1
290
     1
176
     1
290
     0
176
     1
290
     0
176
     1
290
     0
176
     1
290
     0
176
     1
290
     0
176
     1
290
     0
176
     1
 90
       50
176
     1
 40
0.0
176
     1
 40
1.0
176
     1
 90
        0
176
     1
 62
    18
420
        0
176
     1
 90
       50
176
     1
 90
        3
176
     1
 62
     5
420
      255
176
     1
290
     0
176
     1
 90
       50
176
     1
 90
       50
176
     1
 90
       50
176
     1
290
     0
176
     1
 90
       50
176
     1
 62
   256
176
     0
 40
1.0
176
     0
 90
        2
176
     1
  1
strokes_ogs.tif
176
     1
290
     0
176
     1
 40
1.0
176
     1
 40
1.0
176
     1
  0
VISUALSTYLE
  5
4CA
102
{ACAD_REACTORS
330
4BE
102
}
330
4BE
100
AcDbVisualStyle
  2
Brighten
 70
    12
177
     3
291
     1
 70
    58
 90
        2
176
     1
 90
        2
176
     1
 90
        0
176
     1
 90
        0
176
     1
 40
0.6
176
     1
 40
30.0
176
     1
 62
     7
420
 16777215
176
     1
 90
        1
176
     1
 90
        4
176
     1
 62
     7
176
     1
 62
   257
176
     1
 90
        1
176
     1
 90
        1
176
     1
 40
1.0
176
     1
 90
        8
176
     1
 62
     7
176
     1
 40
1.0
176
     1
 90
        1
176
     1
 90
        6
176
     1
 90
        2
176
     1
 62
     7
176
     1
 90
        5
176
     1
 90
        0
176
     1
 90
        0
176
     1
290
     0
176
     1
 90
        1
176
     1
 40
50.0
176
     1
 90
        0
176
     1
290
     0
176
     1
290
     1
176
     1
290
     1
176
     1
290
     0
176
     1
290
     0
176
     1
290
     0
176
     1
290
     0
176
     1
290
     0
176
     1
290
     0
176
     1
 90
       50
176
     1
 40
0.0
176
     1
 40
1.0
176
     1
 90
        0
176
     1
 62
    18
420
        0
176
     1
 90
       50
176
     1
 90
        3
176
     1
 62
     5
420
      255
176
     1
290
     0
176
     1
 90
       50
176
     1
 90
       50
176
     1
 90
       50
176
     1
290
     0
176
     1
 90
       50
176
     1
 62
   256
176
     0
 40
1.0
176
     0
 90
        2
176
     1
  1
strokes_ogs.tif
176
     1
290
     0
176
     1
 40
1.0
176
     1
 40
1.0
176
     1
  0
VISUALSTYLE
  5
4CE
102
{ACAD_REACTORS
330
4BE
102
}
330
4BE
100
AcDbVisualStyle
  2
ColorChange
 70
    16
177
     3
291
     1
 70
    58
 90
        2
176
     1
 90
        2
176
     1
 90
        3
176
     1
 90
        0
176
     1
 40
0.6
176
     1
 40
30.0
176
     1
 62
     8
420
  8421504
176
     1
 90
        1
176
     1
 90
        4
176
     1
 62
     7
176
     1
 62
   257
176
     1
 90
        1
176
     1
 90
        1
176
     1
 40
1.0
176
     1
 90
        8
176
     1
 62
     8
420
  8421504
176
     1
 40
1.0
176
     1
 90
        1
176
     1
 90
        6
176
     1
 90
        2
176
     1
 62
     7
176
     1
 90
        5
176
     1
 90
        0
176
     1
 90
        0
176
     1
290
     0
176
     1
 90
        1
176
     1
 40
0.0
176
     1
 90
        0
176
     1
290
     0
176
     1
290
     1
176
     1
290
     1
176
     1
290
     0
176
     1
290
     0
176
     1
290
     0
176
     1
290
     0
176
     1
290
     0
176
     1
290
     0
176
     1
 90
       50
176
     1
 40
0.0
176
     1
 40
1.0
176
     1
 90
        0
176
     1
 62
    18
420
        0
176
     1
 90
       50
176
     1
 90
        3
176
     1
 62
     5
420
      255
176
     1
290
     0
176
     1
 90
       50
176
     1
 90
       50
176
     1
 90
       50
176
     1
290
     0
176
     1
 90
       50
176
     1
 62
   256
176
     0
 40
1.0
176
     0
 90
        2
176
     1
  1
strokes_ogs.tif
176
     1
290
     0
176
     1
 40
1.0
176
     1
 40
1.0
176
     1
  0
VISUALSTYLE
  5
4C8
102
{ACAD_REACTORS
330
4BE
102
}
330
4BE
100
AcDbVisualStyle
  2
Conceptual
 70
     9
177
     3
291
     0
 70
    58
 90
        3
176
     1
 90
        2
176
     1
 90
        0
176
     1
 90
        0
176
     1
 40
0.6
176
     1
 40
30.0
176
     1
 62
     7
420
 16777215
176
     1
 90
        2
176
     1
 90
        2
176
     1
 62
     7
176
     1
 62
   257
176
     1
 90
        1
176
     1
 90
        1
176
     1
 40
179.0
176
     1
 90
        8
176
     1
 62
     7
176
     1
 40
1.0
176
     1
 90
        1
176
     1
 90
        6
176
     1
 90
        2
176
     1
 62
     7
176
     1
 90
        3
176
     1
 90
        0
176
     1
 90
        0
176
     1
290
     0
176
     1
 90
        1
176
     1
 40
0.0
176
     1
 90
        0
176
     1
290
     0
176
     1
290
     1
176
     1
290
     1
176
     1
290
     0
176
     1
290
     0
176
     1
290
     0
176
     1
290
     0
176
     1
290
     0
176
     1
290
     0
176
     1
 90
       50
176
     1
 40
0.0
176
     1
 40
1.0
176
     1
 90
        0
176
     1
 62
    18
420
        0
176
     1
 90
       50
176
     1
 90
        3
176
     1
 62
     5
420
      255
176
     1
290
     0
176
     1
 90
       50
176
     1
 90
       50
176
     1
 90
       50
176
     1
290
     0
176
     1
 90
       50
176
     1
 62
   256
176
     0
 40
1.0
176
     0
 90
        2
176
     1
  1
strokes_ogs.tif
176
     1
290
     0
176
     1
 40
1.0
176
     1
 40
1.0
176
     1
  0
VISUALSTYLE
  5
4C9
102
{ACAD_REACTORS
330
4BE
102
}
330
4BE
100
AcDbVisualStyle
  2
Dim
 70
    11
177
     3
291
     1
 70
    58
 90
        2
176
     1
 90
        2
176
     1
 90
        0
176
     1
 90
        0
176
     1
 40
0.6
176
     1
 40
30.0
176
     1
 62
     7
420
 16777215
176
     1
 90
        1
176
     1
 90
        4
176
     1
 62
     7
176
     1
 62
   257
176
     1
 90
        1
176
     1
 90
        1
176
     1
 40
1.0
176
     1
 90
        8
176
     1
 62
     7
176
     1
 40
1.0
176
     1
 90
        1
176
     1
 90
        6
176
     1
 90
        2
176
     1
 62
     7
176
     1
 90
        5
176
     1
 90
        0
176
     1
 90
        0
176
     1
290
     0
176
     1
 90
        1
176
     1
 40
-50.0
176
     1
 90
        0
176
     1
290
     0
176
     1
290
     1
176
     1
290
     1
176
     1
290
     0
176
     1
290
     0
176
     1
290
     0
176
     1
290
     0
176
     1
290
     0
176
     1
290
     0
176
     1
 90
       50
176
     1
 40
0.0
176
     1
 40
1.0
176
     1
 90
        0
176
     1
 62
    18
420
        0
176
     1
 90
       50
176
     1
 90
        3
176
     1
 62
     5
420
      255
176
     1
290
     0
176
     1
 90
       50
176
     1
 90
       50
176
     1
 90
       50
176
     1
290
     0
176
     1
 90
       50
176
     1
 62
   256
176
     0
 40
1.0
176
     0
 90
        2
176
     1
  1
strokes_ogs.tif
176
     1
290
     0
176
     1
 40
1.0
176
     1
 40
1.0
176
     1
  0
VISUALSTYLE
  5
4D1
102
{ACAD_REACTORS
330
4BE
102
}
330
4BE
100
AcDbVisualStyle
  2
EdgeColorOff
 70
    22
177
     3
291
     1
 70
    58
 90
        2
176
     0
 90
        2
176
     0
 90
        0
176
     0
 90
        0
176
     0
 40
0.6
176
     0
 40
30.0
176
     0
 62
     7
420
 16777215
176
     0
 90
        1
176
     0
 90
        4
176
     0
 62
     7
176
     0
 62
   257
176
     0
 90
        1
176
     0
 90
        1
176
     0
 40
1.0
176
     0
 90
        8
176
     2
 62
     7
176
     0
 40
1.0
176
     0
 90
        1
176
     0
 90
        6
176
     0
 90
        2
176
     0
 62
     7
176
     0
 90
        5
176
     0
 90
        0
176
     0
 90
        0
176
     0
290
     0
176
     0
 90
        1
176
     0
 40
0.0
176
     0
 90
        0
176
     0
290
     0
176
     0
290
     1
176
     0
290
     1
176
     0
290
     0
176
     0
290
     0
176
     0
290
     0
176
     0
290
     0
176
     0
290
     0
176
     0
290
     0
176
     0
 90
       50
176
     0
 40
0.0
176
     0
 40
1.0
176
     0
 90
        0
176
     0
 62
    18
420
        0
176
     0
 90
       50
176
     0
 90
        3
176
     0
 62
     5
420
      255
176
     0
290
     0
176
     0
 90
       50
176
     0
 90
       50
176
     0
 90
       50
176
     0
290
     0
176
     0
 90
       50
176
     0
 62
   256
176
     0
 40
1.0
176
     0
 90
        2
176
     0
  1
strokes_ogs.tif
176
     0
290
     0
176
     0
 40
1.0
176
     0
 40
1.0
176
     0
  0
VISUALSTYLE
  5
4CD
102
{ACAD_REACTORS
330
4BE
102
}
330
4BE
100
AcDbVisualStyle
  2
Facepattern
 70
    15
177
     3
291
     1
 70
    58
 90
        2
176
     1
 90
        2
176
     1
 90
        0
176
     1
 90
        0
176
     1
 40
0.6
176
     1
 40
30.0
176
     1
 62
     7
420
 16777215
176
     1
 90
        1
176
     1
 90
        4
176
     1
 62
     7
176
     1
 62
   257
176
     1
 90
        1
176
     1
 90
        1
176
     1
 40
1.0
176
     1
 90
        8
176
     1
 62
     7
176
     1
 40
1.0
176
     1
 90
        1
176
     1
 90
        6
176
     1
 90
        2
176
     1
 62
     7
176
     1
 90
        5
176
     1
 90
        0
176
     1
 90
        0
176
     1
290
     0
176
     1
 90
        1
176
     1
 40
0.0
176
     1
 90
        0
176
     1
290
     0
176
     1
290
     1
176
     1
290
     1
176
     1
290
     0
176
     1
290
     0
176
     1
290
     0
176
     1
290
     0
176
     1
290
     0
176
     1
290
     0
176
     1
 90
       50
176
     1
 40
0.0
176
     1
 40
1.0
176
     1
 90
        0
176
     1
 62
    18
420
        0
176
     1
 90
       50
176
     1
 90
        3
176
     1
 62
     5
420
      255
176
     1
290
     0
176
     1
 90
       50
176
     1
 90
       50
176
     1
 90
       50
176
     1
290
     0
176
     1
 90
       50
176
     1
 62
   256
176
     0
 40
1.0
176
     0
 90
        2
176
     1
  1
strokes_ogs.tif
176
     1
290
     0
176
     1
 40
1.0
176
     1
 40
1.0
176
     1
  0
VISUALSTYLE
  5
4BF
102
{ACAD_REACTORS
330
4BE
102
}
330
4BE
100
AcDbVisualStyle
  2
Flat
 70
     0
177
     3
291
     1
 70
    58
 90
        2
176
     1
 90
        1
176
     1
 90
        1
176
     1
 90
        2
176
     1
 40
0.6
176
     1
 40
30.0
176
     1
 62
     7
420
 16777215
176
     1
 90
        0
176
     1
 90
        0
176
     1
 62
     7
176
     1
 62
   257
176
     1
 90
        1
176
     1
 90
        1
176
     1
 40
1.0
176
     1
 90
        8
176
     1
 62
     7
176
     1
 40
1.0
176
     1
 90
        1
176
     1
 90
        6
176
     1
 90
        2
176
     1
 62
     7
176
     1
 90
        5
176
     1
 90
        0
176
     1
 90
        0
176
     1
290
     0
176
     1
 90
       13
176
     1
 40
0.0
176
     1
 90
        0
176
     1
290
     0
176
     1
290
     1
176
     1
290
     1
176
     1
290
     0
176
     1
290
     0
176
     1
290
     0
176
     1
290
     0
176
     1
290
     0
176
     1
290
     0
176
     1
 90
       50
176
     1
 40
0.0
176
     1
 40
1.0
176
     1
 90
        0
176
     1
 62
    18
420
        0
176
     1
 90
       50
176
     1
 90
        3
176
     1
 62
     5
420
      255
176
     1
290
     0
176
     1
 90
       50
176
     1
 90
       50
176
     1
 90
       50
176
     1
290
     0
176
     1
 90
       50
176
     1
 62
   256
176
     0
 40
1.0
176
     0
 90
        2
176
     1
  1
strokes_ogs.tif
176
     1
290
     0
176
     1
 40
1.0
176
     1
 40
1.0
176
     1
  0
VISUALSTYLE
  5
4C0
102
{ACAD_REACTORS
330
4BE
102
}
330
4BE
100
AcDbVisualStyle
  2
FlatWithEdges
 70
     1
177
     3
291
     1
 70
    58
 90
        2
176
     1
 90
        1
176
     1
 90
        1
176
     1
 90
        2
176
     1
 40
0.6
176
     1
 40
30.0
176
     1
 62
     7
420
 16777215
176
     1
 90
        1
176
     1
 90
        0
176
     1
 62
     7
176
     1
 62
   257
176
     1
 90
        1
176
     1
 90
        1
176
     1
 40
1.0
176
     1
 90
        0
176
     1
 62
   257
176
     1
 40
1.0
176
     1
 90
        1
176
     1
 90
        6
176
     1
 90
        2
176
     1
 62
     7
176
     1
 90
        5
176
     1
 90
        0
176
     1
 90
        0
176
     1
290
     0
176
     1
 90
       13
176
     1
 40
0.0
176
     1
 90
        0
176
     1
290
     0
176
     1
290
     1
176
     1
290
     1
176
     1
290
     0
176
     1
290
     0
176
     1
290
     0
176
     1
290
     0
176
     1
290
     0
176
     1
290
     0
176
     1
 90
       50
176
     1
 40
0.0
176
     1
 40
1.0
176
     1
 90
        0
176
     1
 62
    18
420
        0
176
     1
 90
       50
176
     1
 90
        3
176
     1
 62
     5
420
      255
176
     1
290
     0
176
     1
 90
       50
176
     1
 90
       50
176
     1
 90
       50
176
     1
290
     0
176
     1
 90
       50
176
     1
 62
   256
176
     0
 40
1.0
176
     0
 90
        2
176
     1
  1
strokes_ogs.tif
176
     1
290
     0
176
     1
 40
1.0
176
     1
 40
1.0
176
     1
  0
VISUALSTYLE
  5
4C1
102
{ACAD_REACTORS
330
4BE
102
}
330
4BE
100
AcDbVisualStyle
  2
Gouraud
 70
     2
177
     3
291
     1
 70
    58
 90
        2
176
     1
 90
        2
176
     1
 90
        1
176
     1
 90
        2
176
     1
 40
0.6
176
     1
 40
30.0
176
     1
 62
     7
420
 16777215
176
     1
 90
        0
176
     1
 90
        0
176
     1
 62
     7
176
     1
 62
   257
176
     1
 90
        1
176
     1
 90
        1
176
     1
 40
1.0
176
     1
 90
        0
176
     1
 62
     7
176
     1
 40
1.0
176
     1
 90
        1
176
     1
 90
        6
176
     1
 90
        2
176
     1
 62
     7
176
     1
 90
        5
176
     1
 90
        0
176
     1
 90
        0
176
     1
290
     0
176
     1
 90
       13
176
     1
 40
0.0
176
     1
 90
        0
176
     1
290
     0
176
     1
290
     1
176
     1
290
     1
176
     1
290
     0
176
     1
290
     0
176
     1
290
     0
176
     1
290
     0
176
     1
290
     0
176
     1
290
     0
176
     1
 90
       50
176
     1
 40
0.0
176
     1
 40
1.0
176
     1
 90
        0
176
     1
 62
    18
420
        0
176
     1
 90
       50
176
     1
 90
        3
176
     1
 62
     5
420
      255
176
     1
290
     0
176
     1
 90
       50
176
     1
 90
       50
176
     1
 90
       50
176
     1
290
     0
176
     1
 90
       50
176
     1
 62
   256
176
     0
 40
1.0
176
     0
 90
        2
176
     1
  1
strokes_ogs.tif
176
     1
290
     0
176
     1
 40
1.0
176
     1
 40
1.0
176
     1
  0
VISUALSTYLE
  5
4C2
102
{ACAD_REACTORS
330
4BE
102
}
330
4BE
100
AcDbVisualStyle
  2
GouraudWithEdges
 70
     3
177
     3
291
     1
 70
    58
 90
        2
176
     1
 90
        2
176
     1
 90
        1
176
     1
 90
        2
176
     1
 40
0.6
176
     1
 40
30.0
176
     1
 62
     7
420
 16777215
176
     1
 90
        1
176
     1
 90
        0
176
     1
 62
     7
176
     1
 62
   257
176
     1
 90
        1
176
     1
 90
        1
176
     1
 40
1.0
176
     1
 90
        0
176
     1
 62
   257
176
     1
 40
1.0
176
     1
 90
        1
176
     1
 90
        6
176
     1
 90
        2
176
     1
 62
     7
176
     1
 90
        5
176
     1
 90
        0
176
     1
 90
        0
176
     1
290
     0
176
     1
 90
       13
176
     1
 40
0.0
176
     1
 90
        0
176
     1
290
     0
176
     1
290
     1
176
     1
290
     1
176
     1
290
     0
176
     1
290
     0
176
     1
290
     0
176
     1
290
     0
176
     1
290
     0
176
     1
290
     0
176
     1
 90
       50
176
     1
 40
0.0
176
     1
 40
1.0
176
     1
 90
        0
176
     1
 62
    18
420
        0
176
     1
 90
       50
176
     1
 90
        3
176
     1
 62
     5
420
      255
176
     1
290
     0
176
     1
 90
       50
176
     1
 90
       50
176
     1
 90
       50
176
     1
290
     0
176
     1
 90
       50
176
     1
 62
   256
176
     0
 40
1.0
176
     0
 90
        2
176
     1
  1
strokes_ogs.tif
176
     1
290
     0
176
     1
 40
1.0
176
     1
 40
1.0
176
     1
  0
VISUALSTYLE
  5
4C5
102
{ACAD_REACTORS
330
4BE
102
}
330
4BE
100
AcDbVisualStyle
  2
Hidden
 70
     6
177
     3
291
     0
 70
    58
 90
        1
176
     1
 90
        2
176
     1
 90
        2
176
     1
 90
        0
176
     1
 40
0.6
176
     1
 40
30.0
176
     1
 62
     7
420
 16777215
176
     1
 90
        2
176
     1
 90
        2
176
     1
 62
     7
176
     1
 62
   257
176
     1
 90
        2
176
     1
 90
        1
176
     1
 40
40.0
176
     1
 90
        0
176
     1
 62
   257
176
     1
 40
1.0
176
     1
 90
        1
176
     1
 90
        6
176
     1
 90
        2
176
     1
 62
     7
176
     1
 90
        3
176
     1
 90
        0
176
     1
 90
        0
176
     1
290
     0
176
     1
 90
        1
176
     1
 40
0.0
176
     1
 90
        0
176
     1
290
     0
176
     1
290
     1
176
     1
290
     1
176
     1
290
     0
176
     1
290
     0
176
     1
290
     0
176
     1
290
     0
176
     1
290
     0
176
     1
290
     0
176
     1
 90
       50
176
     1
 40
0.0
176
     1
 40
1.0
176
     1
 90
        0
176
     1
 62
    18
420
        0
176
     1
 90
       50
176
     1
 90
        3
176
     1
 62
     5
420
      255
176
     1
290
     0
176
     1
 90
       50
176
     1
 90
       50
176
     1
 90
       50
176
     1
290
     0
176
     1
 90
       50
176
     1
 62
   256
176
     0
 40
1.0
176
     0
 90
        2
176
     1
  1
strokes_ogs.tif
176
     1
290
     0
176
     1
 40
1.0
176
     1
 40
1.0
176
     1
  0
VISUALSTYLE
  5
4CF
102
{ACAD_REACTORS
330
4BE
102
}
330
4BE
100
AcDbVisualStyle
  2
JitterOff
 70
    20
177
     3
291
     1
 70
    58
 90
        2
176
     0
 90
        2
176
     0
 90
        0
176
     0
 90
        0
176
     0
 40
0.6
176
     0
 40
30.0
176
     0
 62
     7
420
 16777215
176
     0
 90
        1
176
     0
 90
        4
176
     0
 62
     7
176
     0
 62
   257
176
     0
 90
        1
176
     0
 90
        1
176
     0
 40
1.0
176
     0
 90
       10
176
     2
 62
     7
176
     0
 40
1.0
176
     0
 90
        1
176
     0
 90
        6
176
     0
 90
        2
176
     0
 62
     7
176
     0
 90
        5
176
     0
 90
        0
176
     0
 90
        0
176
     0
290
     0
176
     0
 90
        1
176
     0
 40
0.0
176
     0
 90
        0
176
     0
290
     0
176
     0
290
     1
176
     0
290
     1
176
     0
290
     0
176
     0
290
     0
176
     0
290
     0
176
     0
290
     0
176
     0
290
     0
176
     0
290
     0
176
     0
 90
       50
176
     0
 40
0.0
176
     0
 40
1.0
176
     0
 90
        0
176
     0
 62
    18
420
        0
176
     0
 90
       50
176
     0
 90
        3
176
     0
 62
     5
420
      255
176
     0
290
     0
176
     0
 90
       50
176
     0
 90
       50
176
     0
 90
       50
176
     0
290
     0
176
     0
 90
       50
176
     0
 62
   256
176
     0
 40
1.0
176
     0
 90
        2
176
     0
  1
strokes_ogs.tif
176
     0
290
     0
176
     0
 40
1.0
176
     0
 40
1.0
176
     0
  0
VISUALSTYLE
  5
4CC
102
{ACAD_REACTORS
330
4BE
102
}
330
4BE
100
AcDbVisualStyle
  2
Linepattern
 70
    14
177
     3
291
     1
 70
    58
 90
        2
176
     1
 90
        2
176
     1
 90
        0
176
     1
 90
        0
176
     1
 40
0.6
176
     1
 40
30.0
176
     1
 62
     7
420
 16777215
176
     1
 90
        1
176
     1
 90
        4
176
     1
 62
     7
176
     1
 62
   257
176
     1
 90
        7
176
     1
 90
        7
176
     1
 40
1.0
176
     1
 90
        8
176
     1
 62
     7
176
     1
 40
1.0
176
     1
 90
        1
176
     1
 90
        6
176
     1
 90
        2
176
     1
 62
     7
176
     1
 90
        5
176
     1
 90
        0
176
     1
 90
        0
176
     1
290
     0
176
     1
 90
        1
176
     1
 40
0.0
176
     1
 90
        0
176
     1
290
     0
176
     1
290
     1
176
     1
290
     1
176
     1
290
     0
176
     1
290
     0
176
     1
290
     0
176
     1
290
     0
176
     1
290
     0
176
     1
290
     0
176
     1
 90
       50
176
     1
 40
0.0
176
     1
 40
1.0
176
     1
 90
        0
176
     1
 62
    18
420
        0
176
     1
 90
       50
176
     1
 90
        3
176
     1
 62
     5
420
      255
176
     1
290
     0
176
     1
 90
       50
176
     1
 90
       50
176
     1
 90
       50
176
     1
290
     0
176
     1
 90
       50
176
     1
 62
   256
176
     0
 40
1.0
176
     0
 90
        2
176
     1
  1
strokes_ogs.tif
176
     1
290
     0
176
     1
 40
1.0
176
     1
 40
1.0
176
     1
  0
VISUALSTYLE
  5
4D0
102
{ACAD_REACTORS
330
4BE
102
}
330
4BE
100
AcDbVisualStyle
  2
OverhangOff
 70
    21
177
     3
291
     1
 70
    58
 90
        2
176
     0
 90
        2
176
     0
 90
        0
176
     0
 90
        0
176
     0
 40
0.6
176
     0
 40
30.0
176
     0
 62
     7
420
 16777215
176
     0
 90
        1
176
     0
 90
        4
176
     0
 62
     7
176
     0
 62
   257
176
     0
 90
        1
176
     0
 90
        1
176
     0
 40
1.0
176
     0
 90
        9
176
     2
 62
     7
176
     0
 40
1.0
176
     0
 90
        1
176
     0
 90
        6
176
     0
 90
        2
176
     0
 62
     7
176
     0
 90
        5
176
     0
 90
        0
176
     0
 90
        0
176
     0
290
     0
176
     0
 90
        1
176
     0
 40
0.0
176
     0
 90
        0
176
     0
290
     0
176
     0
290
     1
176
     0
290
     1
176
     0
290
     0
176
     0
290
     0
176
     0
290
     0
176
     0
290
     0
176
     0
290
     0
176
     0
290
     0
176
     0
 90
       50
176
     0
 40
0.0
176
     0
 40
1.0
176
     0
 90
        0
176
     0
 62
    18
420
        0
176
     0
 90
       50
176
     0
 90
        3
176
     0
 62
     5
420
      255
176
     0
290
     0
176
     0
 90
       50
176
     0
 90
       50
176
     0
 90
       50
176
     0
290
     0
176
     0
 90
       50
176
     0
 62
   256
176
     0
 40
1.0
176
     0
 90
        2
176
     0
  1
strokes_ogs.tif
176
     0
290
     0
176
     0
 40
1.0
176
     0
 40
1.0
176
     0
  0
VISUALSTYLE
  5
4C7
102
{ACAD_REACTORS
330
4BE
102
}
330
4BE
100
AcDbVisualStyle
  2
Realistic
 70
     8
177
     3
291
     0
 70
    58
 90
        2
176
     1
 90
        3
176
     1
 90
        0
176
     1
 90
        2
176
     1
 40
0.6
176
     1
 40
30.0
176
     1
 62
     7
420
 16777215
176
     1
 90
        0
176
     1
 90
        0
176
     1
 62
     7
176
     1
 62
   257
176
     1
 90
        1
176
     1
 90
        1
176
     1
 40
1.0
176
     1
 90
        8
176
     1
 62
   257
176
     1
 40
1.0
176
     1
 90
        1
176
     1
 90
        6
176
     1
 90
        2
176
     1
 62
     7
176
     1
 90
        3
176
     1
 90
        0
176
     1
 90
        0
176
     1
290
     0
176
     1
 90
       13
176
     1
 40
0.0
176
     1
 90
        0
176
     1
290
     0
176
     1
290
     1
176
     1
290
     1
176
     1
290
     0
176
     1
290
     0
176
     1
290
     0
176
     1
290
     0
176
     1
290
     0
176
     1
290
     0
176
     1
 90
       50
176
     1
 40
0.0
176
     1
 40
1.0
176
     1
 90
        0
176
     1
 62
    18
420
        0
176
     1
 90
       50
176
     1
 90
        3
176
     1
 62
     5
420
      255
176
     1
290
     0
176
     1
 90
       50
176
     1
 90
       50
176
     1
 90
       50
176
     1
290
     0
176
     1
 90
       50
176
     1
 62
   256
176
     0
 40
1.0
176
     0
 90
        2
176
     1
  1
strokes_ogs.tif
176
     1
290
     0
176
     1
 40
1.0
176
     1
 40
1.0
176
     1
  0
VISUALSTYLE
  5
4D6
102
{ACAD_REACTORS
330
4BE
102
}
330
4BE
100
AcDbVisualStyle
  2
Shaded
 70
    27
177
     3
291
     0
 70
    58
 90
        2
176
     1
 90
        2
176
     1
 90
        1
176
     1
 90
        2
176
     1
 40
0.6
176
     1
 40
30.0
176
     1
 62
     7
420
 16777215
176
     1
 90
        0
176
     1
 90
        4
176
     1
 62
     7
176
     1
 62
   257
176
     1
 90
        1
176
     1
 90
        1
176
     1
 40
1.0
176
     1
 90
        8
176
     1
 62
   257
176
     1
 40
1.0
176
     1
 90
        1
176
     1
 90
        6
176
     1
 90
        2
176
     1
 62
     8
420
  7895160
176
     1
 90
        3
176
     1
 90
        0
176
     1
 90
        0
176
     1
290
     0
176
     1
 90
        5
176
     1
 40
0.0
176
     1
 90
        0
176
     1
290
     0
176
     1
290
     1
176
     1
290
     1
176
     1
290
     0
176
     1
290
     0
176
     1
290
     0
176
     1
290
     0
176
     1
290
     0
176
     1
290
     0
176
     1
 90
       50
176
     1
 40
0.0
176
     1
 40
1.0
176
     1
 90
        0
176
     1
 62
    18
420
        0
176
     1
 90
       50
176
     1
 90
        3
176
     1
 62
     5
420
      255
176
     1
290
     0
176
     1
 90
       50
176
     1
 90
       50
176
     1
 90
       50
176
     1
290
     0
176
     1
 90
       50
176
     1
 62
   256
176
     0
 40
1.0
176
     0
 90
        2
176
     1
  1
strokes_ogs.tif
176
     1
290
     0
176
     1
 40
1.0
176
     1
 40
1.0
176
     1
  0
VISUALSTYLE
  5
4D5
102
{ACAD_REACTORS
330
4BE
102
}
330
4BE
100
AcDbVisualStyle
  2
Shaded with edges
 70
    26
177
     3
291
     0
 70
    58
 90
        2
176
     1
 90
        2
176
     1
 90
        1
176
     1
 90
        2
176
     1
 40
0.6
176
     1
 40
30.0
176
     1
 62
     7
420
 16777215
176
     1
 90
        1
176
     1
 90
       10
176
     1
 62
     7
176
     1
 62
   257
176
     1
 90
        2
176
     1
 90
        1
176
     1
 40
1.0
176
     1
 90
        8
176
     1
 62
   257
176
     1
 40
1.0
176
     1
 90
        1
176
     1
 90
        6
176
     1
 90
        2
176
     1
 62
     7
176
     1
 90
        3
176
     1
 90
        0
176
     1
 90
        0
176
     1
290
     0
176
     1
 90
        5
176
     1
 40
0.0
176
     1
 90
        0
176
     1
290
     0
176
     1
290
     1
176
     1
290
     1
176
     1
290
     0
176
     1
290
     0
176
     1
290
     0
176
     1
290
     0
176
     1
290
     0
176
     1
290
     0
176
     1
 90
       50
176
     1
 40
0.0
176
     1
 40
1.0
176
     1
 90
        0
176
     1
 62
    18
420
        0
176
     1
 90
       50
176
     1
 90
        3
176
     1
 62
     5
420
      255
176
     1
290
     0
176
     1
 90
       50
176
     1
 90
       50
176
     1
 90
       50
176
     1
290
     0
176
     1
 90
       50
176
     1
 62
   256
176
     0
 40
1.0
176
     0
 90
        2
176
     1
  1
strokes_ogs.tif
176
     1
290
     0
176
     1
 40
1.0
176
     1
 40
1.0
176
     1
  0
VISUALSTYLE
  5
4D2
102
{ACAD_REACTORS
330
4BE
102
}
330
4BE
100
AcDbVisualStyle
  2
Shades of Gray
 70
    23
177
     3
291
     0
 70
    58
 90
        2
176
     1
 90
        2
176
     1
 90
        3
176
     1
 90
        0
176
     1
 40
0.6
176
     1
 40
30.0
176
     1
 62
     7
420
 16777215
176
     1
 90
        2
176
     1
 90
        2
176
     1
 62
     7
176
     1
 62
     7
176
     1
 90
        1
176
     1
 90
        1
176
     1
 40
40.0
176
     1
 90
        8
176
     1
 62
     7
176
     1
 40
1.0
176
     1
 90
        1
176
     1
 90
        6
176
     1
 90
        2
176
     1
 62
     7
176
     1
 90
        3
176
     1
 90
        0
176
     1
 90
        0
176
     1
290
     0
176
     1
 90
        1
176
     1
 40
0.0
176
     1
 90
        0
176
     1
290
     0
176
     1
290
     1
176
     1
290
     1
176
     1
290
     0
176
     1
290
     0
176
     1
290
     0
176
     1
290
     0
176
     1
290
     0
176
     1
290
     0
176
     1
 90
       50
176
     1
 40
0.0
176
     1
 40
1.0
176
     1
 90
        0
176
     1
 62
    18
420
        0
176
     1
 90
       50
176
     1
 90
        3
176
     1
 62
     5
420
      255
176
     1
290
     0
176
     1
 90
       50
176
     1
 90
       50
176
     1
 90
       50
176
     1
290
     0
176
     1
 90
       50
176
     1
 62
   256
176
     0
 40
1.0
176
     0
 90
        2
176
     1
  1
strokes_ogs.tif
176
     1
290
     0
176
     1
 40
1.0
176
     1
 40
1.0
176
     1
  0
VISUALSTYLE
  5
4D3
102
{ACAD_REACTORS
330
4BE
102
}
330
4BE
100
AcDbVisualStyle
  2
Sketchy
 70
    24
177
     3
291
     0
 70
    58
 90
        1
176
     1
 90
        2
176
     1
 90
        2
176
     1
 90
        0
176
     1
 40
0.6
176
     1
 40
30.0
176
     1
 62
     7
420
 16777215
176
     1
 90
        2
176
     1
 90
        2
176
     1
 62
     7
176
     1
 62
     7
176
     1
 90
        1
176
     1
 90
        1
176
     1
 40
40.0
176
     1
 90
       11
176
     1
 62
     7
176
     1
 40
1.0
176
     1
 90
        1
176
     1
 90
        6
176
     1
 90
        2
176
     1
 62
     7
176
     1
 90
        6
176
     1
 90
        0
176
     1
 90
        0
176
     1
290
     0
176
     1
 90
        1
176
     1
 40
0.0
176
     1
 90
        0
176
     1
290
     0
176
     1
290
     1
176
     1
290
     1
176
     1
290
     0
176
     1
290
     0
176
     1
290
     0
176
     1
290
     0
176
     1
290
     0
176
     1
290
     0
176
     1
 90
       50
176
     1
 40
0.0
176
     1
 40
1.0
176
     1
 90
        0
176
     1
 62
    18
420
        0
176
     1
 90
       50
176
     1
 90
        3
176
     1
 62
     5
420
      255
176
     1
290
     0
176
     1
 90
       50
176
     1
 90
       50
176
     1
 90
       50
176
     1
290
     0
176
     1
 90
       50
176
     1
 62
   256
176
     0
 40
1.0
176
     0
 90
        2
176
     1
  1
strokes_ogs.tif
176
     1
290
     0
176
     1
 40
1.0
176
     1
 40
1.0
176
     1
  0
VISUALSTYLE
  5
4CB
102
{ACAD_REACTORS
330
4BE
102
}
330
4BE
100
AcDbVisualStyle
  2
Thicken
 70
    13
177
     3
291
     1
 70
    58
 90
        2
176
     1
 90
        2
176
     1
 90
        0
176
     1
 90
        0
176
     1
 40
0.6
176
     1
 40
30.0
176
     1
 62
     7
420
 16777215
176
     1
 90
        1
176
     1
 90
        4
176
     1
 62
     7
176
     1
 62
   257
176
     1
 90
        1
176
     1
 90
        1
176
     1
 40
1.0
176
     1
 90
       12
176
     1
 62
     7
176
     1
 40
1.0
176
     1
 90
        1
176
     1
 90
        6
176
     1
 90
        2
176
     1
 62
     7
176
     1
 90
        5
176
     1
 90
        0
176
     1
 90
        0
176
     1
290
     0
176
     1
 90
        1
176
     1
 40
0.0
176
     1
 90
        0
176
     1
290
     0
176
     1
290
     1
176
     1
290
     1
176
     1
290
     0
176
     1
290
     0
176
     1
290
     0
176
     1
290
     0
176
     1
290
     0
176
     1
290
     0
176
     1
 90
       50
176
     1
 40
0.0
176
     1
 40
1.0
176
     1
 90
        0
176
     1
 62
    18
420
        0
176
     1
 90
       50
176
     1
 90
        3
176
     1
 62
     5
420
      255
176
     1
290
     0
176
     1
 90
       50
176
     1
 90
       50
176
     1
 90
       50
176
     1
290
     0
176
     1
 90
       50
176
     1
 62
   256
176
     0
 40
1.0
176
     0
 90
        2
176
     1
  1
strokes_ogs.tif
176
     1
290
     0
176
     1
 40
1.0
176
     1
 40
1.0
176
     1
  0
VISUALSTYLE
  5
4C4
102
{ACAD_REACTORS
330
4BE
102
}
330
4BE
100
AcDbVisualStyle
  2
Wireframe
 70
     5
177
     3
291
     0
 70
    58
 90
        0
176
     1
 90
        2
176
     1
 90
        0
176
     1
 90
        0
176
     1
 40
0.6
176
     1
 40
30.0
176
     1
 62
     7
420
 16777215
176
     1
 90
        1
176
     1
 90
        4
176
     1
 62
     7
176
     1
 62
   257
176
     1
 90
        1
176
     1
 90
        1
176
     1
 40
1.0
176
     1
 90
        0
176
     1
 62
   257
176
     1
 40
1.0
176
     1
 90
        1
176
     1
 90
        6
176
     1
 90
        2
176
     1
 62
     7
176
     1
 90
        3
176
     1
 90
        0
176
     1
 90
        0
176
     1
290
     0
176
     1
 90
        1
176
     1
 40
0.0
176
     1
 90
        0
176
     1
290
     0
176
     1
290
     1
176
     1
290
     1
176
     1
290
     0
176
     1
290
     0
176
     1
290
     0
176
     1
290
     0
176
     1
290
     0
176
     1
290
     0
176
     1
 90
       50
176
     1
 40
0.0
176
     1
 40
1.0
176
     1
 90
        0
176
     1
 62
    18
420
        0
176
     1
 90
       50
176
     1
 90
        3
176
     1
 62
     5
420
      255
176
     1
290
     0
176
     1
 90
       50
176
     1
 90
       50
176
     1
 90
       50
176
     1
290
     0
176
     1
 90
       50
176
     1
 62
   256
176
     0
 40
1.0
176
     0
 90
        2
176
     1
  1
strokes_ogs.tif
176
     1
290
     0
176
     1
 40
1.0
176
     1
 40
1.0
176
     1
  0
VISUALSTYLE
  5
4D4
102
{ACAD_REACTORS
330
4BE
102
}
330
4BE
100
AcDbVisualStyle
  2
X-Ray
 70
    25
177
     3
291
     0
 70
    58
 90
        2
176
     1
 90
        2
176
     1
 90
        1
176
     1
 90
        1
176
     1
 40
0.5
176
     1
 40
30.0
176
     1
 62
     7
420
 16777215
176
     1
 90
        1
176
     1
 90
        0
176
     1
 62
     7
176
     1
 62
   257
176
     1
 90
        1
176
     1
 90
        1
176
     1
 40
1.0
176
     1
 90
        8
176
     1
 62
     7
176
     1
 40
1.0
176
     1
 90
        1
176
     1
 90
        6
176
     1
 90
        2
176
     1
 62
     7
176
     1
 90
        3
176
     1
 90
        0
176
     1
 90
        0
176
     1
290
     0
176
     1
 90
       13
176
     1
 40
0.0
176
     1
 90
        0
176
     1
290
     0
176
     1
290
     1
176
     1
290
     1
176
     1
290
     0
176
     1
290
     0
176
     1
290
     0
176
     1
290
     0
176
     1
290
     0
176
     1
290
     0
176
     1
 90
       50
176
     1
 40
0.0
176
     1
 40
1.0
176
     1
 90
        0
176
     1
 62
    18
420
        0
176
     1
 90
       50
176
     1
 90
        3
176
     1
 62
     5
420
      255
176
     1
290
     0
176
     1
 90
       50
176
     1
 90
       50
176
     1
 90
       50
176
     1
290
     0
176
     1
 90
       50
176
     1
 62
   256
176
     0
 40
1.0
176
     0
 90
        2
176
     1
  1
strokes_ogs.tif
176
     1
290
     0
176
     1
 40
1.0
176
     1
 40
1.0
176
     1
  0
DICTIONARYVAR
  5
4E1
102
{ACAD_REACTORS
330
4E0
102
}
330
4E0
100
DictionaryVariables
280
     0
  1
1:1
  0
DICTIONARYVAR
  5
4E6
102
{ACAD_REACTORS
330
4E0
102
}
330
4E0
100
DictionaryVariables
280
     0
  1
Standard
  0
DICTIONARYVAR
  5
4E5
102
{ACAD_REACTORS
330
4E0
102
}
330
4E0
100
DictionaryVariables
280
     0
  1
Standard
  0
DICTIONARYVAR
  5
4E7
102
{ACAD_REACTORS
330
4E0
102
}
330
4E0
100
DictionaryVariables
280
     0
  1
0
  0
DICTIONARY
  5
4E2
330
4DC
100
AcDbDictionary
280
     1
281
     1
  3
ACAD_ROUNDTRIP_2008_TABLESTYLE_CELLSTYLEMAP
360
4E3
  0
CELLSTYLEMAP
  5
4E3
102
{ACAD_REACTORS
330
4E2
102
}
330
4E2
100
AcDbCellStyleMap
 90
        3
300
CELLSTYLE
  1
TABLEFORMAT_BEGIN
 90
        5
170
     1
 91
        0
 92
    32768
 62
   257
 93
        1
300
CONTENTFORMAT
  1
CONTENTFORMAT_BEGIN
 90
        0
 91
        0
 92
        4
 93
        0
300

 40
0.0
140
1.0
 94
        5
 62
     0
340
11
144
6.0
309
CONTENTFORMAT_END
171
     1
301
MARGIN
  1
CELLMARGIN_BEGIN
 40
1.5
 40
1.5
 40
1.5
 40
1.5
 40
1.5
 40
1.5
309
CELLMARGIN_END
 94
        6
 95
        1
302
GRIDFORMAT
  1
GRIDFORMAT_BEGIN
 90
        0
 91
        1
 62
     0
 92
       -2
340
14
 93
        0
 40
0.045
309
GRIDFORMAT_END
 95
        2
302
GRIDFORMAT
  1
GRIDFORMAT_BEGIN
 90
        0
 91
        1
 62
     0
 92
       -2
340
14
 93
        0
 40
0.045
309
GRIDFORMAT_END
 95
        4
302
GRIDFORMAT
  1
GRIDFORMAT_BEGIN
 90
        0
 91
        1
 62
     0
 92
       -2
340
14
 93
        0
 40
0.045
309
GRIDFORMAT_END
 95
        8
302
GRIDFORMAT
  1
GRIDFORMAT_BEGIN
 90
        0
 91
        1
 62
     0
 92
       -2
340
14
 93
        0
 40
0.045
309
GRIDFORMAT_END
 95
       16
302
GRIDFORMAT
  1
GRIDFORMAT_BEGIN
 90
        0
 91
        1
 62
     0
 92
       -2
340
14
 93
        0
 40
0.045
309
GRIDFORMAT_END
 95
       32
302
GRIDFORMAT
  1
GRIDFORMAT_BEGIN
 90
        0
 91
        1
 62
     0
 92
       -2
340
14
 93
        0
 40
0.045
309
GRIDFORMAT_END
309
TABLEFORMAT_END
  1
CELLSTYLE_BEGIN
 90
        1
 91
        1
300
_TITLE
309
CELLSTYLE_END
300
CELLSTYLE
  1
TABLEFORMAT_BEGIN
 90
        5
170
     1
 91
        0
 92
        0
 62
   257
 93
        1
300
CONTENTFORMAT
  1
CONTENTFORMAT_BEGIN
 90
        0
 91
        0
 92
        4
 93
        0
300

 40
0.0
140
1.0
 94
        5
 62
     0
340
11
144
4.5
309
CONTENTFORMAT_END
171
     1
301
MARGIN
  1
CELLMARGIN_BEGIN
 40
1.5
 40
1.5
 40
1.5
 40
1.5
 40
1.5
 40
1.5
309
CELLMARGIN_END
 94
        6
 95
        1
302
GRIDFORMAT
  1
GRIDFORMAT_BEGIN
 90
        0
 91
        1
 62
     0
 92
       -2
340
14
 93
        0
 40
0.045
309
GRIDFORMAT_END
 95
        2
302
GRIDFORMAT
  1
GRIDFORMAT_BEGIN
 90
        0
 91
        1
 62
     0
 92
       -2
340
14
 93
        0
 40
0.045
309
GRIDFORMAT_END
 95
        4
302
GRIDFORMAT
  1
GRIDFORMAT_BEGIN
 90
        0
 91
        1
 62
     0
 92
       -2
340
14
 93
        0
 40
0.045
309
GRIDFORMAT_END
 95
        8
302
GRIDFORMAT
  1
GRIDFORMAT_BEGIN
 90
        0
 91
        1
 62
     0
 92
       -2
340
14
 93
        0
 40
0.045
309
GRIDFORMAT_END
 95
       16
302
GRIDFORMAT
  1
GRIDFORMAT_BEGIN
 90
        0
 91
        1
 62
     0
 92
       -2
340
14
 93
        0
 40
0.045
309
GRIDFORMAT_END
 95
       32
302
GRIDFORMAT
  1
GRIDFORMAT_BEGIN
 90
        0
 91
        1
 62
     0
 92
       -2
340
14
 93
        0
 40
0.045
309
GRIDFORMAT_END
309
TABLEFORMAT_END
  1
CELLSTYLE_BEGIN
 90
        2
 91
        1
300
_HEADER
309
CELLSTYLE_END
300
CELLSTYLE
  1
TABLEFORMAT_BEGIN
 90
        5
170
     1
 91
        0
 92
        0
 62
   257
 93
        1
300
CONTENTFORMAT
  1
CONTENTFORMAT_BEGIN
 90
        0
 91
        0
 92
        4
 93
        0
300

 40
0.0
140
1.0
 94
        2
 62
     0
340
11
144
4.5
309
CONTENTFORMAT_END
171
     1
301
MARGIN
  1
CELLMARGIN_BEGIN
 40
1.5
 40
1.5
 40
1.5
 40
1.5
 40
1.5
 40
1.5
309
CELLMARGIN_END
 94
        6
 95
        1
302
GRIDFORMAT
  1
GRIDFORMAT_BEGIN
 90
        0
 91
        1
 62
     0
 92
       -2
340
14
 93
        0
 40
0.045
309
GRIDFORMAT_END
 95
        2
302
GRIDFORMAT
  1
GRIDFORMAT_BEGIN
 90
        0
 91
        1
 62
     0
 92
       -2
340
14
 93
        0
 40
0.045
309
GRIDFORMAT_END
 95
        4
302
GRIDFORMAT
  1
GRIDFORMAT_BEGIN
 90
        0
 91
        1
 62
     0
 92
       -2
340
14
 93
        0
 40
0.045
309
GRIDFORMAT_END
 95
        8
302
GRIDFORMAT
  1
GRIDFORMAT_BEGIN
 90
        0
 91
        1
 62
     0
 92
       -2
340
14
 93
        0
 40
0.045
309
GRIDFORMAT_END
 95
       16
302
GRIDFORMAT
  1
GRIDFORMAT_BEGIN
 90
        0
 91
        1
 62
     0
 92
       -2
340
14
 93
        0
 40
0.045
309
GRIDFORMAT_END
 95
       32
302
GRIDFORMAT
  1
GRIDFORMAT_BEGIN
 90
        0
 91
        1
 62
     0
 92
       -2
340
14
 93
        0
 40
0.045
309
GRIDFORMAT_END
309
TABLEFORMAT_END
  1
CELLSTYLE_BEGIN
 90
        3
 91
        2
300
_DATA
309
CELLSTYLE_END
  0
ENDSEC
  0
EOF
