  0
SECTION
  2
HEADER
  9
$ACADVER
  1
AC1027
  9
$ACADMAINTVER
 70
   105
  9
$DWGCODEPAGE
  3
ANSI_1252
  9
$REQUIREDVERSIONS
160
                 0
  9
$LASTSAVEDBY
  1
andrea.zolin
  9
$INSBASE
 10
0.0
 20
0.0
 30
0.0
  9
$EXTMIN
 10
0.0
 20
0.0
 30
0.0
  9
$EXTMAX
 10
841.0
 20
594.0
 30
0.0
  9
$LIMMIN
 10
0.0
 20
0.0
  9
$LIMMAX
 10
841.0
 20
594.0
  9
$ORTHOMODE
 70
     0
  9
$REGENMODE
 70
     1
  9
$FILLMODE
 70
     1
  9
$QTEXTMODE
 70
     0
  9
$MIRRTEXT
 70
     1
  9
$LTSCALE
 40
46.255
  9
$ATTMODE
 70
     1
  9
$TEXTSIZE
 40
0.2
  9
$TRACEWID
 40
0.05
  9
$TEXTSTYLE
  7
STANDARD
  9
$CLAYER
  8
0
  9
$CELTYPE
  6
BYLAYER
  9
$CECOLOR
 62
   256
  9
$CELTSCALE
 40
1.0
  9
$DISPSILH
 70
     0
  9
$DIMSCALE
 40
1.0
  9
$DIMASZ
 40
2.5
  9
$DIMEXO
 40
0.75
  9
$DIMDLI
 40
31.958
  9
$DIMRND
 40
0.0
  9
$DIMDLE
 40
0.0
  9
$DIMEXE
 40
0.75
  9
$DIMTP
 40
0.01
  9
$DIMTM
 40
0.01
  9
$DIMTXT
 40
3.0
  9
$DIMCEN
 40
7.569
  9
$DIMTSZ
 40
0.0
  9
$DIMTOL
 70
     1
  9
$DIMLIM
 70
     0
  9
$DIMTIH
 70
     1
  9
$DIMTOH
 70
     1
  9
$DIMSE1
 70
     0
  9
$DIMSE2
 70
     0
  9
$DIMTAD
 70
     0
  9
$DIMZIN
 70
     0
  9
$DIMBLK
  1
CLOSED
  9
$DIMASO
 70
     1
  9
$DIMSHO
 70
     1
  9
$DIMPOST
  1

  9
$DIMAPOST
  1

  9
$DIMALT
 70
     0
  9
$DIMALTD
 70
     2
  9
$DIMALTF
 40
25.4
  9
$DIMLFAC
 40
1.0
  9
$DIMTOFL
 70
     0
  9
$DIMTVP
 40
0.0
  9
$DIMTIX
 70
     0
  9
$DIMSOXD
 70
     0
  9
$DIMSAH
 70
     0
  9
$DIMBLK1
  1

  9
$DIMBLK2
  1

  9
$DIMSTYLE
  2
STANDARD
  9
$DIMCLRD
 70
     0
  9
$DIMCLRE
 70
     0
  9
$DIMCLRT
 70
     0
  9
$DIMTFAC
 40
1.0
  9
$DIMGAP
 40
0.625
  9
$DIMJUST
 70
     0
  9
$DIMSD1
 70
     0
  9
$DIMSD2
 70
     0
  9
$DIMTOLJ
 70
     1
  9
$DIMTZIN
 70
     0
  9
$DIMALTZ
 70
     0
  9
$DIMALTTZ
 70
     0
  9
$DIMUPT
 70
     0
  9
$DIMDEC
 70
     4
  9
$DIMTDEC
 70
     4
  9
$DIMALTU
 70
     2
  9
$DIMALTTD
 70
     2
  9
$DIMTXSTY
  7
STANDARD
  9
$DIMAUNIT
 70
     0
  9
$DIMADEC
 70
     0
  9
$DIMALTRND
 40
0.0
  9
$DIMAZIN
 70
     0
  9
$DIMDSEP
 70
    46
  9
$DIMATFIT
 70
     3
  9
$DIMFRAC
 70
     0
  9
$DIMLDRBLK
  1

  9
$DIMLUNIT
 70
     2
  9
$DIMLWD
 70
    -2
  9
$DIMLWE
 70
    -2
  9
$DIMTMOVE
 70
     2
  9
$DIMFXL
 40
1.0
  9
$DIMFXLON
 70
     0
  9
$DIMJOGANG
 40
0.7853981633974483
  9
$DIMTFILL
 70
     0
  9
$DIMTFILLCLR
 70
     0
  9
$DIMARCSYM
 70
     0
  9
$DIMLTYPE
  6

  9
$DIMLTEX1
  6

  9
$DIMLTEX2
  6

  9
$DIMTXTDIRECTION
 70
     0
  9
$LUNITS
 70
     2
  9
$LUPREC
 70
     4
  9
$SKETCHINC
 40
0.1
  9
$FILLETRAD
 40
0.5
  9
$AUNITS
 70
     0
  9
$AUPREC
 70
     0
  9
$MENU
  1
.
  9
$ELEVATION
 40
0.0
  9
$PELEVATION
 40
0.0
  9
$THICKNESS
 40
0.0
  9
$LIMCHECK
 70
     0
  9
$CHAMFERA
 40
0.0
  9
$CHAMFERB
 40
0.0
  9
$CHAMFERC
 40
0.0
  9
$CHAMFERD
 40
0.0
  9
$SKPOLY
 70
     0
  9
$TDCREATE
 40
2447893.041666667
  9
$TDUCREATE
 40
0.0
  9
$TDUPDATE
 40
2458473.565163252
  9
$TDUUPDATE
 40
2458473.523496585
  9
$TDINDWG
 40
0.0002048032
  9
$TDUSRTIMER
 40
0.0002048032
  9
$USRTIMER
 70
     1
  9
$ANGBASE
 50
0.0
  9
$ANGDIR
 70
     0
  9
$PDMODE
 70
     3
  9
$PDSIZE
 40
0.3125
  9
$PLINEWID
 40
0.0
  9
$SPLFRAME
 70
     0
  9
$SPLINETYPE
 70
     6
  9
$SPLINESEGS
 70
     8
  9
$HANDSEED
  5
590
  9
$SURFTAB1
 70
     6
  9
$SURFTAB2
 70
     6
  9
$SURFTYPE
 70
     6
  9
$SURFU
 70
     6
  9
$SURFV
 70
     6
  9
$UCSBASE
  2

  9
$UCSNAME
  2

  9
$UCSORG
 10
0.0
 20
0.0
 30
0.0
  9
$UCSXDIR
 10
1.0
 20
0.0
 30
0.0
  9
$UCSYDIR
 10
0.0
 20
1.0
 30
0.0
  9
$UCSORTHOREF
  2

  9
$UCSORTHOVIEW
 70
     0
  9
$UCSORGTOP
 10
0.0
 20
0.0
 30
0.0
  9
$UCSORGBOTTOM
 10
0.0
 20
0.0
 30
0.0
  9
$UCSORGLEFT
 10
0.0
 20
0.0
 30
0.0
  9
$UCSORGRIGHT
 10
0.0
 20
0.0
 30
0.0
  9
$UCSORGFRONT
 10
0.0
 20
0.0
 30
0.0
  9
$UCSORGBACK
 10
0.0
 20
0.0
 30
0.0
  9
$PUCSBASE
  2

  9
$PUCSNAME
  2

  9
$PUCSORG
 10
0.0
 20
0.0
 30
0.0
  9
$PUCSXDIR
 10
1.0
 20
0.0
 30
0.0
  9
$PUCSYDIR
 10
0.0
 20
1.0
 30
0.0
  9
$PUCSORTHOREF
  2

  9
$PUCSORTHOVIEW
 70
     0
  9
$PUCSORGTOP
 10
0.0
 20
0.0
 30
0.0
  9
$PUCSORGBOTTOM
 10
0.0
 20
0.0
 30
0.0
  9
$PUCSORGLEFT
 10
0.0
 20
0.0
 30
0.0
  9
$PUCSORGRIGHT
 10
0.0
 20
0.0
 30
0.0
  9
$PUCSORGFRONT
 10
0.0
 20
0.0
 30
0.0
  9
$PUCSORGBACK
 10
0.0
 20
0.0
 30
0.0
  9
$USERI1
 70
     0
  9
$USERI2
 70
     0
  9
$USERI3
 70
     0
  9
$USERI4
 70
     0
  9
$USERI5
 70
     0
  9
$USERR1
 40
0.0
  9
$USERR2
 40
0.0
  9
$USERR3
 40
0.0
  9
$USERR4
 40
0.0
  9
$USERR5
 40
0.0
  9
$WORLDVIEW
 70
     1
  9
$SHADEDGE
 70
     3
  9
$SHADEDIF
 70
    70
  9
$TILEMODE
 70
     0
  9
$MAXACTVP
 70
    64
  9
$PINSBASE
 10
0.0
 20
0.0
 30
0.0
  9
$PLIMCHECK
 70
     0
  9
$PEXTMIN
 10
0.0
 20
0.0
 30
0.0
  9
$PEXTMAX
 10
841.0
 20
594.0
 30
0.0
  9
$PLIMMIN
 10
-17.33463035019455
 20
-46.22568093385214
  9
$PLIMMAX
 10
953.4046692607004
 20
640.2256809338521
  9
$UNITMODE
 70
     0
  9
$VISRETAIN
 70
     1
  9
$PLINEGEN
 70
     0
  9
$PSLTSCALE
 70
     1
  9
$TREEDEPTH
 70
  3020
  9
$CMLSTYLE
  2
STANDARD
  9
$CMLJUST
 70
     0
  9
$CMLSCALE
 40
1.0
  9
$PROXYGRAPHICS
 70
     1
  9
$MEASUREMENT
 70
     1
  9
$CELWEIGHT
370
    -1
  9
$ENDCAPS
280
     0
  9
$JOINSTYLE
280
     0
  9
$LWDISPLAY
290
     0
  9
$INSUNITS
 70
     0
  9
$HYPERLINKBASE
  1

  9
$STYLESHEET
  1

  9
$XEDIT
290
     1
  9
$CEPSNTYPE
380
     0
  9
$PSTYLEMODE
290
     1
  9
$FINGERPRINTGUID
  2
{A8D92603-5901-4092-8C2A-A889442EE59F}
  9
$VERSIONGUID
  2
{FAEB1C32-E019-11D5-929B-00C0DF256EC4}
  9
$EXTNAMES
290
     1
  9
$PSVPSCALE
 40
0.0
  9
$OLESTARTUP
290
     0
  9
$SORTENTS
280
   127
  9
$INDEXCTL
280
     0
  9
$HIDETEXT
280
     1
  9
$XCLIPFRAME
280
     2
  9
$HALOGAP
280
     0
  9
$OBSCOLOR
 70
   257
  9
$OBSLTYPE
280
     0
  9
$INTERSECTIONDISPLAY
280
     0
  9
$INTERSECTIONCOLOR
 70
   257
  9
$DIMASSOC
280
     2
  9
$PROJECTNAME
  1

  9
$CAMERADISPLAY
290
     0
  9
$LENSLENGTH
 40
50.0
  9
$CAMERAHEIGHT
 40
0.0
  9
$STEPSPERSEC
 40
2.0
  9
$STEPSIZE
 40
6.0
  9
$3DDWFPREC
 40
2.0
  9
$PSOLWIDTH
 40
0.25
  9
$PSOLHEIGHT
 40
4.0
  9
$LOFTANG1
 40
1.570796326794897
  9
$LOFTANG2
 40
1.570796326794897
  9
$LOFTMAG1
 40
0.0
  9
$LOFTMAG2
 40
0.0
  9
$LOFTPARAM
 70
     7
  9
$LOFTNORMALS
280
     1
  9
$LATITUDE
 40
37.795
  9
$LONGITUDE
 40
-122.394
  9
$NORTHDIRECTION
 40
0.0
  9
$TIMEZONE
 70
 -8000
  9
$LIGHTGLYPHDISPLAY
280
     1
  9
$TILEMODELIGHTSYNCH
280
     1
  9
$SOLIDHIST
280
     0
  9
$SHOWHIST
280
     1
  9
$DWFFRAME
280
     2
  9
$DGNFRAME
280
     2
  9
$REALWORLDSCALE
290
     1
  9
$INTERFERECOLOR
 62
   256
  9
$CSHADOW
280
     0
  9
$SHADOWPLANELOCATION
 40
0.0
  0
ENDSEC
  0
SECTION
  2
CLASSES
  0
CLASS
  1
ACDBDICTIONARYWDFLT
  2
AcDbDictionaryWithDefault
  3
ObjectDBX Classes
 90
        0
 91
        4
280
     0
281
     0
  0
CLASS
  1
SCALE
  2
AcDbScale
  3
ObjectDBX Classes
 90
     1153
 91
        4
280
     0
281
     0
  0
CLASS
  1
VISUALSTYLE
  2
AcDbVisualStyle
  3
ObjectDBX Classes
 90
     4095
 91
        4
280
     0
281
     0
  0
CLASS
  1
MATERIAL
  2
AcDbMaterial
  3
ObjectDBX Classes
 90
     1153
 91
        4
280
     0
281
     0
  0
CLASS
  1
TABLESTYLE
  2
AcDbTableStyle
  3
ObjectDBX Classes
 90
     4095
 91
        4
280
     0
281
     0
  0
CLASS
  1
MLEADERSTYLE
  2
AcDbMLeaderStyle
  3
ACDB_MLEADERSTYLE_CLASS
 90
     4095
 91
        4
280
     0
281
     0
  0
CLASS
  1
DICTIONARYVAR
  2
AcDbDictionaryVar
  3
ObjectDBX Classes
 90
        0
 91
        4
280
     0
281
     0
  0
CLASS
  1
CELLSTYLEMAP
  2
AcDbCellStyleMap
  3
ObjectDBX Classes
 90
     1152
 91
        4
280
     0
281
     0
  0
ENDSEC
  0
SECTION
  2
TABLES
  0
TABLE
  2
VPORT
  5
8
330
0
100
AcDbSymbolTable
 70
     1
  0
VPORT
  5
1F4
330
8
100
AcDbSymbolTableRecord
100
AcDbViewportTableRecord
  2
*ACTIVE
 70
     0
 10
0.0
 20
0.0
 11
1.0
 21
1.0
 12
420.5
 22
297.0
 13
0.0
 23
0.0
 14
1.0
 24
1.0
 15
0.0
 25
0.0
 16
0.0
 26
0.0
 36
1.0
 17
0.0
 27
0.0
 37
0.0
 40
594.0
 41
1.4158249158
 42
50.0
 43
0.0
 44
0.0
 50
0.0
 51
0.0
 71
     0
 72
   100
 73
     1
 74
     1
 75
     0
 76
     0
 77
     0
 78
     0
281
     0
 65
     1
110
0.0
120
0.0
130
0.0
111
1.0
121
0.0
131
0.0
112
0.0
122
1.0
132
0.0
 79
     0
146
0.0
348
569
 60
     3
 61
     5
292
     1
282
     1
141
0.0
142
0.0
 63
   256
  0
ENDTAB
  0
TABLE
  2
LTYPE
  5
5
330
0
100
AcDbSymbolTable
 70
     6
  0
LTYPE
  5
14
330
5
100
AcDbSymbolTableRecord
100
AcDbLinetypeTableRecord
  2
BYBLOCK
 70
     0
  3

 72
    65
 73
     0
 40
0.0
  0
LTYPE
  5
15
330
5
100
AcDbSymbolTableRecord
100
AcDbLinetypeTableRecord
  2
BYLAYER
 70
     0
  3

 72
    65
 73
     0
 40
0.0
  0
LTYPE
  5
16
330
5
100
AcDbSymbolTableRecord
100
AcDbLinetypeTableRecord
  2
CONTINUOUS
 70
     0
  3
Solid line
 72
    65
 73
     0
 40
0.0
  0
LTYPE
  5
1F5
330
5
100
AcDbSymbolTableRecord
100
AcDbLinetypeTableRecord
  2
CENTER
 70
     0
  3
____ _ ____ _ ____ _ ____ _ ____ _ ____ _ ____
 72
    65
 73
     4
 40
0.6
 49
0.375
 74
     0
 49
-0.075
 74
     0
 49
0.075
 74
     0
 49
-0.075
 74
     0
  0
LTYPE
  5
1F6
330
5
100
AcDbSymbolTableRecord
100
AcDbLinetypeTableRecord
  2
HIDDEN
 70
     0
  3
- - - - - - - - - - - - - - - - - - - -
 72
    65
 73
     2
 40
0.2
 49
0.1
 74
     0
 49
-0.1
 74
     0
  0
LTYPE
  5
1F7
330
5
100
AcDbSymbolTableRecord
100
AcDbLinetypeTableRecord
  2
PHANTOM
 70
     0
  3
_____ _ _ _____ _ _ _____ _ _ _____
 72
    65
 73
     6
 40
0.8
 49
0.45
 74
     0
 49
-0.05
 74
     0
 49
0.1
 74
     0
 49
-0.05
 74
     0
 49
0.1
 74
     0
 49
-0.05
 74
     0
  0
LTYPE
  5
1F8
330
5
100
AcDbSymbolTableRecord
100
AcDbLinetypeTableRecord
  2
DOT
 70
     0
  3
. . . . . . . . . . . . . . . . . . . .
 72
    65
 73
     2
 40
0.2
 49
0.1
 74
     0
 49
-0.1
 74
     0
  0
LTYPE
  5
1F9
330
5
100
AcDbSymbolTableRecord
100
AcDbLinetypeTableRecord
  2
DASHED
 70
     0
  3
- - - - - - - - - - - - - - - - - - - -
 72
    65
 73
     2
 40
0.2
 49
0.1
 74
     0
 49
-0.1
 74
     0
  0
ENDTAB
  0
TABLE
  2
LAYER
  5
2
330
0
100
AcDbSymbolTable
 70
    34
  0
LAYER
  5
10
330
2
100
AcDbSymbolTableRecord
100
AcDbLayerTableRecord
  2
0
 70
     0
 62
     7
  6
CONTINUOUS
370
    -3
390
53E
347
580
348
0
  0
LAYER
  5
1FA
330
2
100
AcDbSymbolTableRecord
100
AcDbLayerTableRecord
  2
DEFAULT_1
 70
     0
 62
     7
  6
CENTER
370
    -3
390
53E
347
580
348
0
  0
LAYER
  5
1FB
330
2
100
AcDbSymbolTableRecord
100
AcDbLayerTableRecord
  2
DEFAULT_2
 70
     0
 62
     8
  6
HIDDEN
370
    -3
390
53E
347
580
348
0
  0
LAYER
  5
1FC
330
2
100
AcDbSymbolTableRecord
100
AcDbLayerTableRecord
  2
DEFAULT_3
 70
     0
 62
     7
  6
PHANTOM
370
    -3
390
53E
347
580
348
0
  0
LAYER
  5
1FD
330
2
100
AcDbSymbolTableRecord
100
AcDbLayerTableRecord
  2
01_ALL_DTM_PLN
 70
     0
 62
     7
  6
CONTINUOUS
370
    -3
390
53E
347
580
348
0
  0
LAYER
  5
1FE
330
2
100
AcDbSymbolTableRecord
100
AcDbLayerTableRecord
  2
01__ASM_ALL_DTM_PLN
 70
     0
 62
     7
  6
CONTINUOUS
370
    -3
390
53E
347
580
348
0
  0
LAYER
  5
1FF
330
2
100
AcDbSymbolTableRecord
100
AcDbLayerTableRecord
  2
01__ASM_DEF_DTM_PLN
 70
     0
 62
     7
  6
CONTINUOUS
370
    -3
390
53E
347
580
348
0
  0
LAYER
  5
200
330
2
100
AcDbSymbolTableRecord
100
AcDbLayerTableRecord
  2
01___PRT_ALL_DTM_PLN
 70
     0
 62
     7
  6
CONTINUOUS
370
    -3
390
53E
347
580
348
0
  0
LAYER
  5
201
330
2
100
AcDbSymbolTableRecord
100
AcDbLayerTableRecord
  2
01___PRT_DEF_DTM_PLN
 70
     0
 62
     7
  6
CONTINUOUS
370
    -3
390
53E
347
580
348
0
  0
LAYER
  5
202
330
2
100
AcDbSymbolTableRecord
100
AcDbLayerTableRecord
  2
02_ALL_AXES
 70
     0
 62
     7
  6
CONTINUOUS
370
    -3
390
53E
347
580
348
0
  0
LAYER
  5
203
330
2
100
AcDbSymbolTableRecord
100
AcDbLayerTableRecord
  2
02__ASM_ALL_AXES
 70
     0
 62
     7
  6
CONTINUOUS
370
    -3
390
53E
347
580
348
0
  0
LAYER
  5
204
330
2
100
AcDbSymbolTableRecord
100
AcDbLayerTableRecord
  2
02___PRT_ALL_AXES
 70
     0
 62
     7
  6
CONTINUOUS
370
    -3
390
53E
347
580
348
0
  0
LAYER
  5
205
330
2
100
AcDbSymbolTableRecord
100
AcDbLayerTableRecord
  2
03_ALL_CURVES
 70
     0
 62
     7
  6
CONTINUOUS
370
    -3
390
53E
347
580
348
0
  0
LAYER
  5
206
330
2
100
AcDbSymbolTableRecord
100
AcDbLayerTableRecord
  2
03__ASM_ALL_CURVES
 70
     0
 62
     7
  6
CONTINUOUS
370
    -3
390
53E
347
580
348
0
  0
LAYER
  5
207
330
2
100
AcDbSymbolTableRecord
100
AcDbLayerTableRecord
  2
03___PRT_ALL_CURVES
 70
     0
 62
     7
  6
CONTINUOUS
370
    -3
390
53E
347
580
348
0
  0
LAYER
  5
208
330
2
100
AcDbSymbolTableRecord
100
AcDbLayerTableRecord
  2
04_ALL_DTM_PNT
 70
     0
 62
     7
  6
CONTINUOUS
370
    -3
390
53E
347
580
348
0
  0
LAYER
  5
209
330
2
100
AcDbSymbolTableRecord
100
AcDbLayerTableRecord
  2
04__ASM_ALL_DTM_PNT
 70
     0
 62
     7
  6
CONTINUOUS
370
    -3
390
53E
347
580
348
0
  0
LAYER
  5
20A
330
2
100
AcDbSymbolTableRecord
100
AcDbLayerTableRecord
  2
04___PRT_ALL_DTM_PNT
 70
     0
 62
     7
  6
CONTINUOUS
370
    -3
390
53E
347
580
348
0
  0
LAYER
  5
20B
330
2
100
AcDbSymbolTableRecord
100
AcDbLayerTableRecord
  2
05_ALL_DTM_CSYS
 70
     0
 62
     7
  6
CONTINUOUS
370
    -3
390
53E
347
580
348
0
  0
LAYER
  5
20C
330
2
100
AcDbSymbolTableRecord
100
AcDbLayerTableRecord
  2
05__ASM_ALL_DTM_CSYS
 70
     0
 62
     7
  6
CONTINUOUS
370
    -3
390
53E
347
580
348
0
  0
LAYER
  5
20D
330
2
100
AcDbSymbolTableRecord
100
AcDbLayerTableRecord
  2
05__ASM_DEF_DTM_CSYS
 70
     0
 62
     7
  6
CONTINUOUS
370
    -3
390
53E
347
580
348
0
  0
LAYER
  5
20E
330
2
100
AcDbSymbolTableRecord
100
AcDbLayerTableRecord
  2
05___PRT_ALL_DTM_CSYS
 70
     0
 62
     7
  6
CONTINUOUS
370
    -3
390
53E
347
580
348
0
  0
LAYER
  5
20F
330
2
100
AcDbSymbolTableRecord
100
AcDbLayerTableRecord
  2
05___PRT_DEF_DTM_CSYS
 70
     0
 62
     7
  6
CONTINUOUS
370
    -3
390
53E
347
580
348
0
  0
LAYER
  5
210
330
2
100
AcDbSymbolTableRecord
100
AcDbLayerTableRecord
  2
06_ALL_SURFS
 70
     0
 62
     7
  6
CONTINUOUS
370
    -3
390
53E
347
580
348
0
  0
LAYER
  5
211
330
2
100
AcDbSymbolTableRecord
100
AcDbLayerTableRecord
  2
06__ASM_ALL_SURFS
 70
     0
 62
     7
  6
CONTINUOUS
370
    -3
390
53E
347
580
348
0
  0
LAYER
  5
212
330
2
100
AcDbSymbolTableRecord
100
AcDbLayerTableRecord
  2
06___PRT_ALL_SURFS
 70
     0
 62
     7
  6
CONTINUOUS
370
    -3
390
53E
347
580
348
0
  0
LAYER
  5
213
330
2
100
AcDbSymbolTableRecord
100
AcDbLayerTableRecord
  2
07__ASM_ALL_SKELETONS
 70
     0
 62
     7
  6
CONTINUOUS
370
    -3
390
53E
347
580
348
0
  0
LAYER
  5
214
330
2
100
AcDbSymbolTableRecord
100
AcDbLayerTableRecord
  2
1_ALL_PLANES
 70
     0
 62
     7
  6
CONTINUOUS
370
    -3
390
53E
347
580
348
0
  0
LAYER
  5
215
330
2
100
AcDbSymbolTableRecord
100
AcDbLayerTableRecord
  2
3_ALL_AXES
 70
     0
 62
     7
  6
CONTINUOUS
370
    -3
390
53E
347
580
348
0
  0
LAYER
  5
216
330
2
100
AcDbSymbolTableRecord
100
AcDbLayerTableRecord
  2
5_ALL_CURVES
 70
     0
 62
     7
  6
CONTINUOUS
370
    -3
390
53E
347
580
348
0
  0
LAYER
  5
217
330
2
100
AcDbSymbolTableRecord
100
AcDbLayerTableRecord
  2
7_ALL_FEATURES
 70
     0
 62
     7
  6
CONTINUOUS
370
    -3
390
53E
347
580
348
0
  0
LAYER
  5
218
330
2
100
AcDbSymbolTableRecord
100
AcDbLayerTableRecord
  2
9_SOLID
 70
     0
 62
     7
  6
CONTINUOUS
370
    -3
390
53E
347
580
348
0
  0
LAYER
  5
219
330
2
100
AcDbSymbolTableRecord
100
AcDbLayerTableRecord
  2
INTFCLR_3
 70
     0
 62
     7
  6
CONTINUOUS
370
    -3
390
53E
347
580
348
0
  0
LAYER
  5
21A
330
2
100
AcDbSymbolTableRecord
100
AcDbLayerTableRecord
  2
INTFCLR_4
 70
     0
 62
     7
  6
CONTINUOUS
370
    -3
390
53E
347
580
348
0
  0
ENDTAB
  0
TABLE
  2
STYLE
  5
3
330
0
100
AcDbSymbolTable
 70
     6
  0
STYLE
  5
11
330
3
100
AcDbSymbolTableRecord
100
AcDbTextStyleTableRecord
  2
STANDARD
 70
     0
 40
0.0
 41
1.0
 50
0.0
 71
     0
 42
0.2
  3
arial.ttf
  4

  0
STYLE
  5
21B
330
3
100
AcDbSymbolTableRecord
100
AcDbTextStyleTableRecord
  2
TEXTSTYLE_1
 70
     0
 40
0.0
 41
0.8
 50
0.0
 71
     0
 42
0.2
  3
gdt
  4

  0
STYLE
  5
21C
330
3
100
AcDbSymbolTableRecord
100
AcDbTextStyleTableRecord
  2
TEXTSTYLE_2
 70
     0
 40
0.0
 41
0.9
 50
0.0
 71
     0
 42
0.2
  3
txt
  4

  0
STYLE
  5
21D
330
3
100
AcDbSymbolTableRecord
100
AcDbTextStyleTableRecord
  2
TEXTSTYLE_3
 70
     0
 40
0.0
 41
0.9
 50
0.0
 71
     0
 42
0.2
  3
txt
  4

  0
STYLE
  5
21E
330
3
100
AcDbSymbolTableRecord
100
AcDbTextStyleTableRecord
  2
TEXTSTYLE_4
 70
     0
 40
0.0
 41
2.0
 50
0.0
 71
     0
 42
0.2
  3
txt
  4

  0
STYLE
  5
21F
330
3
100
AcDbSymbolTableRecord
100
AcDbTextStyleTableRecord
  2
TEXTSTYLE_5
 70
     0
 40
0.0
 41
0.85
 50
0.0
 71
     0
 42
0.2
  3
txt
  4

  0
ENDTAB
  0
TABLE
  2
VIEW
  5
6
330
0
100
AcDbSymbolTable
 70
     0
  0
ENDTAB
  0
TABLE
  2
UCS
  5
7
330
0
100
AcDbSymbolTable
 70
     0
  0
ENDTAB
  0
TABLE
  2
APPID
  5
9
330
0
100
AcDbSymbolTable
 70
     1
  0
APPID
  5
220
330
9
100
AcDbSymbolTableRecord
100
AcDbRegAppTableRecord
  2
ACAD
 70
     0
  0
ENDTAB
  0
TABLE
  2
DIMSTYLE
  5
A
330
0
100
AcDbSymbolTable
 70
     4
100
AcDbDimStyleTable
  0
DIMSTYLE
105
227
330
A
100
AcDbSymbolTableRecord
100
AcDbDimStyleTableRecord
  2
STANDARD
 70
     0
 41
2.5
 42
0.75
 44
0.75
 47
0.01
 48
0.01
 71
     1
 73
     0
 74
     0
 77
     1
 78
     8
 79
     2
140
3.0
147
0.625
171
     1
178
     0
179
     2
271
     2
272
     2
284
     8
340
11
341
221
342
221
343
221
344
221
  0
DIMSTYLE
105
228
330
A
100
AcDbSymbolTableRecord
100
AcDbDimStyleTableRecord
  2
DIMSTYLE_1
 70
     0
 41
2.5
 42
0.75
 44
0.75
 47
0.3
 48
0.3
 73
     0
 74
     0
 77
     1
 78
     8
 79
     2
140
3.0
147
0.75
171
     1
178
     0
179
     2
271
     2
272
     2
284
     8
340
11
341
221
342
221
343
221
344
221
  0
DIMSTYLE
105
229
330
A
100
AcDbSymbolTableRecord
100
AcDbDimStyleTableRecord
  2
DIMSTYLE_2
 70
     0
 41
2.5
 42
0.75
 44
0.75
 47
0.5
 48
0.5
 73
     0
 74
     0
 77
     1
 78
     8
 79
     2
140
3.0
147
0.75
171
     1
178
     0
179
     2
271
     2
272
     2
284
     8
340
11
341
221
342
221
343
221
344
221
  0
DIMSTYLE
105
22A
330
A
100
AcDbSymbolTableRecord
100
AcDbDimStyleTableRecord
  2
DIMSTYLE_3
 70
     0
 41
2.5
 42
0.75
 44
0.75
 47
0.8
 48
0.8
 73
     0
 74
     0
 77
     1
 78
     8
 79
     2
140
3.0
147
0.75
171
     1
178
     0
179
     2
271
     2
272
     2
284
     8
340
11
341
221
342
221
343
221
344
221
  0
ENDTAB
  0
TABLE
  2
BLOCK_RECORD
  5
1
330
0
100
AcDbSymbolTable
 70
     6
  0
BLOCK_RECORD
  5
1F
330
1
100
AcDbSymbolTableRecord
100
AcDbBlockTableRecord
  2
*MODEL_SPACE
340
562
 70
     0
280
     1
281
     0
  0
BLOCK_RECORD
  5
1B
330
1
100
AcDbSymbolTableRecord
100
AcDbBlockTableRecord
  2
*PAPER_SPACE
340
563
 70
     0
280
     1
281
     0
  0
BLOCK_RECORD
  5
221
330
1
100
AcDbSymbolTableRecord
100
AcDbBlockTableRecord
  2
_CLOSED
340
0
102
{BLKREFS
331
27D
331
27E
331
286
331
287
331
28F
331
290
102
}
 70
     0
280
     1
281
     0
  0
BLOCK_RECORD
  5
222
330
1
100
AcDbSymbolTableRecord
100
AcDbBlockTableRecord
  2
*D1
340
0
 70
     0
280
     1
281
     0
  0
BLOCK_RECORD
  5
223
330
1
100
AcDbSymbolTableRecord
100
AcDbBlockTableRecord
  2
*D2
340
0
 70
     0
280
     1
281
     0
  0
BLOCK_RECORD
  5
224
330
1
100
AcDbSymbolTableRecord
100
AcDbBlockTableRecord
  2
*D3
340
0
 70
     0
280
     1
281
     0
  0
BLOCK_RECORD
  5
225
330
1
100
AcDbSymbolTableRecord
100
AcDbBlockTableRecord
  2
LOGO2_BL1
340
0
102
{BLKREFS
331
528
102
}
 70
     0
280
     1
281
     0
  0
BLOCK_RECORD
  5
226
330
1
100
AcDbSymbolTableRecord
100
AcDbBlockTableRecord
  2
PROIEZIONE_EU_BL0
340
0
102
{BLKREFS
331
525
102
}
 70
     0
280
     1
281
     0
  0
ENDTAB
  0
ENDSEC
  0
SECTION
  2
BLOCKS
  0
BLOCK
  5
20
330
1F
100
AcDbEntity
  8
0
100
AcDbBlockBegin
  2
*MODEL_SPACE
 70
     0
 10
0.0
 20
0.0
 30
0.0
  3
*MODEL_SPACE
  1

  0
ENDBLK
  5
21
330
1F
100
AcDbEntity
  8
0
100
AcDbBlockEnd
  0
BLOCK
  5
1C
330
1B
100
AcDbEntity
 67
     1
  8
0
100
AcDbBlockBegin
  2
*PAPER_SPACE
 70
     0
 10
0.0
 20
0.0
 30
0.0
  3
*PAPER_SPACE
  1

  0
ENDBLK
  5
1D
330
1B
100
AcDbEntity
 67
     1
  8
0
100
AcDbBlockEnd
  0
BLOCK
  5
271
330
221
100
AcDbEntity
  8
0
100
AcDbBlockBegin
  2
_CLOSED
 70
     0
 10
0.0
 20
0.0
 30
0.0
  3
_CLOSED
  1

  0
LINE
  5
272
330
221
100
AcDbEntity
  8
0
  6
ByBlock
 62
     0
100
AcDbLine
 10
0.0
 20
0.0
 30
0.0
 11
-1.0
 21
0.2
 31
0.0
  0
LINE
  5
273
330
221
100
AcDbEntity
  8
0
  6
ByBlock
 62
     0
100
AcDbLine
 10
-1.0
 20
0.2
 30
0.0
 11
-1.0
 21
-0.2
 31
0.0
  0
LINE
  5
274
330
221
100
AcDbEntity
  8
0
  6
ByBlock
 62
     0
100
AcDbLine
 10
-1.0
 20
-0.2
 30
0.0
 11
0.0
 21
0.0
 31
0.0
  0
LINE
  5
275
330
221
100
AcDbEntity
  8
0
  6
ByBlock
 62
     0
100
AcDbLine
 10
-1.0
 20
0.0
 30
0.0
 11
0.0
 21
0.0
 31
0.0
  0
ENDBLK
  5
276
330
221
100
AcDbEntity
  8
0
  6
ByBlock
 62
     0
100
AcDbBlockEnd
  0
BLOCK
  5
277
330
222
100
AcDbEntity
  8
0
100
AcDbBlockBegin
  2
*D1
 70
     1
 10
0.0
 20
0.0
 30
0.0
  3
*D1
  1

  0
MTEXT
  5
278
330
222
100
AcDbEntity
  8
0
  6
Continuous
 62
     2
100
AcDbMText
 10
109.1542668938
 20
528.2132152505
 30
0.0
 40
3.0
 41
4.6617100372
 46
0.0
 71
     2
 72
     1
  1
60
 73
     1
 44
1.0
  0
LINE
  5
279
330
222
100
AcDbEntity
  8
0
  6
Continuous
 62
     2
100
AcDbLine
 10
79.1542668938
 20
507.5754416254
 30
0.0
 11
79.1542668938
 21
525.2132152505
 31
0.0
  0
LINE
  5
27A
330
222
100
AcDbEntity
  8
0
  6
Continuous
 62
     2
100
AcDbLine
 10
139.1542668938
 20
507.8402916279
 30
0.0
 11
139.1542668938
 21
525.2132152505
 31
0.0
  0
LINE
  5
27B
330
222
100
AcDbEntity
  8
0
  6
Continuous
 62
     2
100
AcDbLine
 10
79.1542668938
 20
524.4632152505
 30
0.0
 11
109.1542668938
 21
524.4632152505
 31
0.0
  0
LINE
  5
27C
330
222
100
AcDbEntity
  8
0
  6
Continuous
 62
     2
100
AcDbLine
 10
139.1542668938
 20
524.4632152505
 30
0.0
 11
109.1542668938
 21
524.4632152505
 31
0.0
  0
INSERT
  5
27D
330
222
100
AcDbEntity
  8
0
  6
Continuous
 62
     2
100
AcDbBlockReference
  2
_CLOSED
 10
79.1542668938
 20
524.4632152505
 30
0.0
 41
2.5
 42
2.5
 43
2.5
 50
180.0
  0
INSERT
  5
27E
330
222
100
AcDbEntity
  8
0
  6
Continuous
 62
     2
100
AcDbBlockReference
  2
_CLOSED
 10
139.1542668938
 20
524.4632152505
 30
0.0
 41
2.5
 42
2.5
 43
2.5
  0
ENDBLK
  5
27F
330
222
100
AcDbEntity
  8
0
  6
ByBlock
 62
     0
100
AcDbBlockEnd
  0
BLOCK
  5
280
330
223
100
AcDbEntity
  8
0
100
AcDbBlockBegin
  2
*D2
 70
     1
 10
0.0
 20
0.0
 30
0.0
  3
*D2
  1

  0
MTEXT
  5
281
330
223
100
AcDbEntity
  8
0
  6
Continuous
 62
     2
100
AcDbMText
 10
48.9674224766
 20
429.0148165931
 30
0.0
 40
3.0
 41
6.9925650558
 46
0.0
 71
     2
 72
     1
  1
150
 11
0.0
 21
1.0
 31
0.0
 73
     1
 44
1.0
  0
LINE
  5
282
330
223
100
AcDbEntity
  8
0
  6
Continuous
 62
     2
100
AcDbLine
 10
74.6666668524
 20
504.0148165931
 30
0.0
 11
51.9674224766
 21
504.0148165931
 31
0.0
  0
LINE
  5
283
330
223
100
AcDbEntity
  8
0
  6
Continuous
 62
     2
100
AcDbLine
 10
74.7631737188
 20
354.0148165931
 30
0.0
 11
51.9674224766
 21
354.0148165931
 31
0.0
  0
LINE
  5
284
330
223
100
AcDbEntity
  8
0
  6
Continuous
 62
     2
100
AcDbLine
 10
52.7174224766
 20
504.0148165931
 30
0.0
 11
52.7174224766
 21
429.0148165931
 31
0.0
  0
LINE
  5
285
330
223
100
AcDbEntity
  8
0
  6
Continuous
 62
     2
100
AcDbLine
 10
52.7174224766
 20
354.0148165931
 30
0.0
 11
52.7174224766
 21
429.0148165931
 31
0.0
  0
INSERT
  5
286
330
223
100
AcDbEntity
  8
0
  6
Continuous
 62
     2
100
AcDbBlockReference
  2
_CLOSED
 10
52.7174224766
 20
504.0148165931
 30
0.0
 41
2.5
 42
2.5
 43
2.5
 50
90.0
  0
INSERT
  5
287
330
223
100
AcDbEntity
  8
0
  6
Continuous
 62
     2
100
AcDbBlockReference
  2
_CLOSED
 10
52.7174224766
 20
354.0148165931
 30
0.0
 41
2.5
 42
2.5
 43
2.5
 50
270.0
  0
ENDBLK
  5
288
330
223
100
AcDbEntity
  8
0
  6
ByBlock
 62
     0
100
AcDbBlockEnd
  0
BLOCK
  5
289
330
224
100
AcDbEntity
  8
0
100
AcDbBlockBegin
  2
*D3
 70
     1
 10
0.0
 20
0.0
 30
0.0
  3
*D3
  1

  0
MTEXT
  5
28A
330
224
100
AcDbEntity
  8
0
  6
Continuous
 62
     2
100
AcDbMText
 10
496.5277130339
 20
529.1582885809
 30
0.0
 40
3.0
 41
6.9925650558
 46
0.0
 71
     2
 72
     1
  1
503
 73
     1
 44
1.0
  0
LINE
  5
28B
330
224
100
AcDbEntity
  8
0
  6
Continuous
 62
     2
100
AcDbLine
 10
245.0277130339
 20
506.722624617
 30
0.0
 11
245.0277130339
 21
526.1582885809
 31
0.0
  0
LINE
  5
28C
330
224
100
AcDbEntity
  8
0
  6
Continuous
 62
     2
100
AcDbLine
 10
748.0277130339
 20
506.1307166432
 30
0.0
 11
748.0277130339
 21
526.1582885809
 31
0.0
  0
LINE
  5
28D
330
224
100
AcDbEntity
  8
0
  6
Continuous
 62
     2
100
AcDbLine
 10
245.0277130339
 20
525.4082885809
 30
0.0
 11
496.5277130339
 21
525.4082885809
 31
0.0
  0
LINE
  5
28E
330
224
100
AcDbEntity
  8
0
  6
Continuous
 62
     2
100
AcDbLine
 10
748.0277130339
 20
525.4082885809
 30
0.0
 11
496.5277130339
 21
525.4082885809
 31
0.0
  0
INSERT
  5
28F
330
224
100
AcDbEntity
  8
0
  6
Continuous
 62
     2
100
AcDbBlockReference
  2
_CLOSED
 10
245.0277130339
 20
525.4082885809
 30
0.0
 41
2.5
 42
2.5
 43
2.5
 50
180.0
  0
INSERT
  5
290
330
224
100
AcDbEntity
  8
0
  6
Continuous
 62
     2
100
AcDbBlockReference
  2
_CLOSED
 10
748.0277130339
 20
525.4082885809
 30
0.0
 41
2.5
 42
2.5
 43
2.5
  0
ENDBLK
  5
291
330
224
100
AcDbEntity
  8
0
  6
ByBlock
 62
     0
100
AcDbBlockEnd
  0
BLOCK
  5
22B
330
225
100
AcDbEntity
  8
0
100
AcDbBlockBegin
  2
LOGO2_BL1
 70
     0
 10
714.8256208494
 20
39.0065156172
 30
0.0
  3
LOGO2_BL1
  1

  0
LINE
  5
22C
330
225
100
AcDbEntity
  8
0
  6
Continuous
 62
     7
100
AcDbLine
 10
706.5685460776
 20
42.2020069561
 30
0.0
 11
705.2642051482
 21
42.2020069561
 31
0.0
  0
LINE
  5
22D
330
225
100
AcDbEntity
  8
0
  6
Continuous
 62
     7
100
AcDbLine
 10
705.2642051482
 20
42.2020069561
 30
0.0
 11
705.2642051482
 21
31.7429408962
 31
0.0
  0
LINE
  5
22E
330
225
100
AcDbEntity
  8
0
  6
Continuous
 62
     7
100
AcDbLine
 10
705.2642051482
 20
31.7429408962
 30
0.0
 11
709.7452600365
 21
31.7429408962
 31
0.0
  0
LINE
  5
22F
330
225
100
AcDbEntity
  8
0
  6
Continuous
 62
     7
100
AcDbLine
 10
709.7452600365
 20
31.7429408962
 30
0.0
 11
709.7452600365
 21
32.9357952212
 31
0.0
  0
LINE
  5
230
330
225
100
AcDbEntity
  8
0
  6
Continuous
 62
     7
100
AcDbLine
 10
709.7452600365
 20
32.9357952212
 30
0.0
 11
706.5685460776
 21
32.9357952212
 31
0.0
  0
LINE
  5
231
330
225
100
AcDbEntity
  8
0
  6
Continuous
 62
     7
100
AcDbLine
 10
706.5685460776
 20
32.9357952212
 30
0.0
 11
706.5685460776
 21
42.2020069561
 31
0.0
  0
LINE
  5
232
330
225
100
AcDbEntity
  8
0
  6
Continuous
 62
     7
100
AcDbLine
 10
721.5048722939
 20
42.2020069561
 30
0.0
 11
720.2010547758
 21
42.2020069561
 31
0.0
  0
LINE
  5
233
330
225
100
AcDbEntity
  8
0
  6
Continuous
 62
     7
100
AcDbLine
 10
720.2010547758
 20
42.2020069561
 30
0.0
 11
720.2010547758
 21
31.7429408962
 31
0.0
  0
LINE
  5
234
330
225
100
AcDbEntity
  8
0
  6
Continuous
 62
     7
100
AcDbLine
 10
720.2010547758
 20
31.7429408962
 30
0.0
 11
724.6822405169
 21
31.7429408962
 31
0.0
  0
LINE
  5
235
330
225
100
AcDbEntity
  8
0
  6
Continuous
 62
     7
100
AcDbLine
 10
724.6822405169
 20
31.7429408962
 30
0.0
 11
724.6822405169
 21
32.9357952212
 31
0.0
  0
LINE
  5
236
330
225
100
AcDbEntity
  8
0
  6
Continuous
 62
     7
100
AcDbLine
 10
724.6822405169
 20
32.9357952212
 30
0.0
 11
721.5048722939
 21
32.9357952212
 31
0.0
  0
LINE
  5
237
330
225
100
AcDbEntity
  8
0
  6
Continuous
 62
     7
100
AcDbLine
 10
721.5048722939
 20
32.9357952212
 30
0.0
 11
721.5048722939
 21
42.2020069561
 31
0.0
  0
LWPOLYLINE
  5
238
330
225
100
AcDbEntity
  8
0
  6
Continuous
 62
     7
100
AcDbPolyline
 90
        2
 70
     0
 43
0.2
 10
703.6186000591
 20
28.3993895893
 10
703.6186000591
 20
26.5423263399
  0
LWPOLYLINE
  5
239
330
225
100
AcDbEntity
  8
0
  6
Continuous
 62
     7
100
AcDbPolyline
 90
        2
 70
     0
 43
0.2
 10
703.6186000591
 20
26.5423263399
 10
704.4143160695
 20
26.5423263399
  0
LWPOLYLINE
  5
23A
330
225
100
AcDbEntity
  8
0
  6
Continuous
 62
     7
100
AcDbPolyline
 90
        2
 70
     0
 43
0.2
 10
704.4143160695
 20
26.5423263399
 10
704.4143160695
 20
26.7543079115
  0
LWPOLYLINE
  5
23B
330
225
100
AcDbEntity
  8
0
  6
Continuous
 62
     7
100
AcDbPolyline
 90
        2
 70
     0
 43
0.2
 10
704.4143160695
 20
26.7543079115
 10
703.850209554
 20
26.7543079115
  0
LWPOLYLINE
  5
23C
330
225
100
AcDbEntity
  8
0
  6
Continuous
 62
     7
100
AcDbPolyline
 90
        2
 70
     0
 43
0.2
 10
703.850209554
 20
26.7543079115
 10
703.850209554
 20
28.3993895893
  0
LWPOLYLINE
  5
23D
330
225
100
AcDbEntity
  8
0
  6
Continuous
 62
     7
100
AcDbPolyline
 90
        2
 70
     0
 43
0.2
 10
703.850209554
 20
28.3993895893
 10
703.6186000591
 20
28.3993895893
  0
SPLINE
  5
23E
330
225
100
AcDbEntity
  8
0
  6
Continuous
 62
     7
100
AcDbSpline
 70
     3
 71
     3
 72
    35
 73
    31
 74
     0
 42
0.000000001
 43
0.0000001
 40
0.0
 40
0.0
 40
0.0
 40
0.0
 40
1.0
 40
1.0
 40
1.0
 40
2.0
 40
2.0
 40
2.0
 40
3.0
 40
3.0
 40
3.0
 40
4.0
 40
4.0
 40
4.0
 40
5.0
 40
5.0
 40
5.0
 40
6.0
 40
6.0
 40
6.0
 40
7.0
 40
7.0
 40
7.0
 40
8.0
 40
8.0
 40
8.0
 40
9.0
 40
9.0
 40
9.0
 40
10.0
 40
10.0
 40
10.0
 40
10.0
 10
705.8126093251
 20
27.6948779958
 30
0.0
 10
705.8126093251
 20
27.6948779958
 30
0.0
 10
705.8126093251
 20
27.0327627167
 30
0.0
 10
705.8126093251
 20
27.0327627167
 30
0.0
 10
705.8126093251
 20
26.7176691214
 30
0.0
 10
705.9604730139
 20
26.5030704933
 30
0.0
 10
706.3005594982
 20
26.5030704933
 30
0.0
 10
706.6401225712
 20
26.5030704933
 30
0.0
 10
706.7882479657
 20
26.7176691214
 30
0.0
 10
706.7882479657
 20
27.0327627167
 30
0.0
 10
706.7882479657
 20
27.0327627167
 30
0.0
 10
706.7882479657
 20
27.6948779958
 30
0.0
 10
706.7882479657
 20
27.6948779958
 30
0.0
 10
706.7882479657
 20
27.6948779958
 30
0.0
 10
706.5661907268
 20
27.6948779958
 30
0.0
 10
706.5661907268
 20
27.6948779958
 30
0.0
 10
706.5661907268
 20
27.6948779958
 30
0.0
 10
706.5661907268
 20
27.0578864585
 30
0.0
 10
706.5661907268
 20
27.0578864585
 30
0.0
 10
706.5661907268
 20
26.8720754513
 30
0.0
 10
706.5194762693
 20
26.7092945407
 30
0.0
 10
706.3005594982
 20
26.7092945407
 30
0.0
 10
706.0811193157
 20
26.7092945407
 30
0.0
 10
706.0344048583
 20
26.8720754513
 30
0.0
 10
706.0344048583
 20
27.0578864585
 30
0.0
 10
706.0344048583
 20
27.0578864585
 30
0.0
 10
706.0344048583
 20
27.6948779958
 30
0.0
 10
706.0344048583
 20
27.6948779958
 30
0.0
 10
706.0344048583
 20
27.6948779958
 30
0.0
 10
705.8126093251
 20
27.6948779958
 30
0.0
 10
705.8126093251
 20
27.6948779958
 30
0.0
  0
SPLINE
  5
23F
330
225
100
AcDbEntity
  8
0
  6
Continuous
 62
     7
100
AcDbSpline
 70
     3
 71
     3
 72
    35
 73
    31
 74
     0
 42
0.000000001
 43
0.0000001
 40
0.0
 40
0.0
 40
0.0
 40
0.0
 40
1.0
 40
1.0
 40
1.0
 40
2.0
 40
2.0
 40
2.0
 40
3.0
 40
3.0
 40
3.0
 40
4.0
 40
4.0
 40
4.0
 40
5.0
 40
5.0
 40
5.0
 40
6.0
 40
6.0
 40
6.0
 40
7.0
 40
7.0
 40
7.0
 40
8.0
 40
8.0
 40
8.0
 40
9.0
 40
9.0
 40
9.0
 40
10.0
 40
10.0
 40
10.0
 40
10.0
 10
709.2113805228
 20
27.6535285041
 30
0.0
 10
709.1229240152
 20
27.7048228103
 30
0.0
 10
709.0094746186
 20
27.7299465521
 30
0.0
 10
708.9058391836
 20
27.7299465521
 30
0.0
 10
708.5509663304
 20
27.7299465521
 30
0.0
 10
708.2755211401
 20
27.466147263
 30
0.0
 10
708.2755211401
 20
27.1086573534
 30
0.0
 10
708.2755211401
 20
26.7637293147
 30
0.0
 10
708.5539759453
 20
26.5035939046
 30
0.0
 10
708.8935390183
 20
26.5035939046
 30
0.0
 10
709.0094746186
 20
26.5035939046
 30
0.0
 10
709.1102312915
 20
26.5255771787
 30
0.0
 10
709.2113805228
 20
26.5794885414
 30
0.0
 10
709.2113805228
 20
26.5794885414
 30
0.0
 10
709.2113805228
 20
26.8621306368
 30
0.0
 10
709.2113805228
 20
26.8621306368
 30
0.0
 10
709.127503864
 20
26.7689634276
 30
0.0
 10
709.0239992818
 20
26.709817952
 30
0.0
 10
708.8958943691
 20
26.709817952
 30
0.0
 10
708.662191229
 20
26.709817952
 30
0.0
 10
708.4969241149
 20
26.8820202657
 30
0.0
 10
708.4969241149
 20
27.1186021679
 30
0.0
 10
708.4969241149
 20
27.3305837394
 30
0.0
 10
708.6646774327
 20
27.5226756821
 30
0.0
 10
708.8815005587
 20
27.5226756821
 30
0.0
 10
709.014316173
 20
27.5226756821
 30
0.0
 10
709.1229240152
 20
27.4687643194
 30
0.0
 10
709.2113805228
 20
27.3677459409
 30
0.0
 10
709.2113805228
 20
27.3677459409
 30
0.0
 10
709.2113805228
 20
27.6535285041
 30
0.0
 10
709.2113805228
 20
27.6535285041
 30
0.0
  0
SPLINE
  5
240
330
225
100
AcDbEntity
  8
0
  6
Continuous
 62
     7
100
AcDbSpline
 70
     3
 71
     3
 72
    32
 73
    28
 74
     0
 42
0.000000001
 43
0.0000001
 40
0.0
 40
0.0
 40
0.0
 40
0.0
 40
1.0
 40
1.0
 40
1.0
 40
2.0
 40
2.0
 40
2.0
 40
3.0
 40
3.0
 40
3.0
 40
4.0
 40
4.0
 40
4.0
 40
5.0
 40
5.0
 40
5.0
 40
6.0
 40
6.0
 40
6.0
 40
7.0
 40
7.0
 40
7.0
 40
8.0
 40
8.0
 40
8.0
 40
9.0
 40
9.0
 40
9.0
 40
9.0
 10
711.7432517751
 20
27.0819633777
 30
0.0
 10
711.7432517751
 20
27.0819633777
 30
0.0
 10
711.7432517751
 20
27.1159851114
 30
0.0
 10
711.7432517751
 20
27.1159851114
 30
0.0
 10
711.7432517751
 20
27.4582960937
 30
0.0
 10
711.5703951973
 20
27.7299465521
 30
0.0
 10
711.2037455901
 20
27.7299465521
 30
0.0
 10
710.8321235757
 20
27.7299465521
 30
0.0
 10
710.6423869839
 20
27.4635302066
 30
0.0
 10
710.6423869839
 20
27.1086573534
 30
0.0
 10
710.6423869839
 20
26.7689634276
 30
0.0
 10
710.8564622006
 20
26.5030704933
 30
0.0
 10
711.2085871445
 20
26.5030704933
 30
0.0
 10
711.4326071757
 20
26.5030704933
 30
0.0
 10
711.6347747857
 20
26.6187443879
 30
0.0
 10
711.7432517751
 20
26.8181640886
 30
0.0
 10
711.7432517751
 20
26.8181640886
 30
0.0
 10
711.5556088284
 20
26.9249399913
 30
0.0
 10
711.5556088284
 20
26.9249399913
 30
0.0
 10
711.472124728
 20
26.7862360001
 30
0.0
 10
711.3809203111
 20
26.7003965489
 30
0.0
 10
711.2113350538
 20
26.7003965489
 30
0.0
 10
710.9993534822
 20
26.7003965489
 30
0.0
 10
710.8664070151
 20
26.8851607335
 30
0.0
 10
710.8640516643
 20
27.0819633777
 30
0.0
 10
710.8640516643
 20
27.0819633777
 30
0.0
 10
711.7432517751
 20
27.0819633777
 30
0.0
 10
711.7432517751
 20
27.0819633777
 30
0.0
  0
SPLINE
  5
241
330
225
100
AcDbEntity
  8
0
  6
Continuous
 62
     7
100
AcDbSpline
 70
     3
 71
     3
 72
    14
 73
    10
 74
     0
 42
0.000000001
 43
0.0000001
 40
0.0
 40
0.0
 40
0.0
 40
0.0
 40
1.0
 40
1.0
 40
1.0
 40
2.0
 40
2.0
 40
2.0
 40
3.0
 40
3.0
 40
3.0
 40
3.0
 10
710.8760901239
 20
27.2494549898
 30
0.0
 10
710.9037000694
 20
27.4143295455
 30
0.0
 10
711.0315432764
 20
27.5373311982
 30
0.0
 10
711.2037455901
 20
27.5373311982
 30
0.0
 10
711.3809203111
 20
27.5373311982
 30
0.0
 10
711.4943697077
 20
27.4216573035
 30
0.0
 10
711.5215870947
 20
27.2494549898
 30
0.0
 10
711.5215870947
 20
27.2494549898
 30
0.0
 10
710.8760901239
 20
27.2494549898
 30
0.0
 10
710.8760901239
 20
27.2494549898
 30
0.0
  0
SPLINE
  5
242
330
225
100
AcDbEntity
  8
0
  6
Continuous
 62
     7
100
AcDbSpline
 70
     3
 71
     3
 72
    20
 73
    16
 74
     0
 42
0.000000001
 43
0.0000001
 40
0.0
 40
0.0
 40
0.0
 40
0.0
 40
1.0
 40
1.0
 40
1.0
 40
2.0
 40
2.0
 40
2.0
 40
3.0
 40
3.0
 40
3.0
 40
4.0
 40
4.0
 40
4.0
 40
5.0
 40
5.0
 40
5.0
 40
5.0
 10
713.7672832253
 20
27.458819505
 30
0.0
 10
713.7672832253
 20
27.458819505
 30
0.0
 10
714.1784227919
 20
26.9563446686
 30
0.0
 10
714.1784227919
 20
26.9563446686
 30
0.0
 10
714.0623563388
 20
26.840670774
 30
0.0
 10
713.9245683173
 20
26.7103413633
 30
0.0
 10
713.7526277092
 20
26.7103413633
 30
0.0
 10
713.5751912826
 20
26.7103413633
 30
0.0
 10
713.4076996705
 20
26.8746925077
 30
0.0
 10
713.4076996705
 20
27.051605523
 30
0.0
 10
713.4076996705
 20
27.2295653609
 30
0.0
 10
713.6174567441
 20
27.3557074813
 30
0.0
 10
713.7450382456
 20
27.4436405776
 30
0.0
 10
713.7450382456
 20
27.4436405776
 30
0.0
 10
713.7672832253
 20
27.458819505
 30
0.0
 10
713.7672832253
 20
27.458819505
 30
0.0
  0
SPLINE
  5
243
330
225
100
AcDbEntity
  8
0
  6
Continuous
 62
     7
100
AcDbSpline
 70
     3
 71
     3
 72
    23
 73
    19
 74
     0
 42
0.000000001
 43
0.0000001
 40
0.0
 40
0.0
 40
0.0
 40
0.0
 40
1.0
 40
1.0
 40
1.0
 40
2.0
 40
2.0
 40
2.0
 40
3.0
 40
3.0
 40
3.0
 40
4.0
 40
4.0
 40
4.0
 40
5.0
 40
5.0
 40
5.0
 40
6.0
 40
6.0
 40
6.0
 40
6.0
 10
713.8166147392
 20
27.749836181
 30
0.0
 10
713.8166147392
 20
27.749836181
 30
0.0
 10
713.75498306
 20
27.8283478742
 30
0.0
 10
713.75498306
 20
27.8283478742
 30
0.0
 10
713.7010716974
 20
27.8969147529
 30
0.0
 10
713.6442815726
 20
27.9660050429
 30
0.0
 10
713.6442815726
 20
28.0596956635
 30
0.0
 10
713.6442815726
 20
28.1785100258
 30
0.0
 10
713.7401966911
 20
28.2559748964
 30
0.0
 10
713.8511598842
 20
28.2559748964
 30
0.0
 10
713.9744232425
 20
28.2559748964
 30
0.0
 10
714.0677213045
 20
28.1847909613
 30
0.0
 10
714.0677213045
 20
28.0544615506
 30
0.0
 10
714.0677213045
 20
27.9194214383
 30
0.0
 10
713.9396163918
 20
27.8430033903
 30
0.0
 10
713.8460566241
 20
27.7692023987
 30
0.0
 10
713.8460566241
 20
27.7692023987
 30
0.0
 10
713.8166147392
 20
27.749836181
 30
0.0
 10
713.8166147392
 20
27.749836181
 30
0.0
  0
SPLINE
  5
244
330
225
100
AcDbEntity
  8
0
  6
Continuous
 62
     7
100
AcDbSpline
 70
     3
 71
     3
 72
    50
 73
    46
 74
     0
 42
0.000000001
 43
0.0000001
 40
0.0
 40
0.0
 40
0.0
 40
0.0
 40
1.0
 40
1.0
 40
1.0
 40
2.0
 40
2.0
 40
2.0
 40
3.0
 40
3.0
 40
3.0
 40
4.0
 40
4.0
 40
4.0
 40
5.0
 40
5.0
 40
5.0
 40
6.0
 40
6.0
 40
6.0
 40
7.0
 40
7.0
 40
7.0
 40
8.0
 40
8.0
 40
8.0
 40
9.0
 40
9.0
 40
9.0
 40
10.0
 40
10.0
 40
10.0
 40
11.0
 40
11.0
 40
11.0
 40
12.0
 40
12.0
 40
12.0
 40
13.0
 40
13.0
 40
13.0
 40
14.0
 40
14.0
 40
14.0
 40
15.0
 40
15.0
 40
15.0
 40
15.0
 10
714.5187709818
 20
26.5428497512
 30
0.0
 10
714.5187709818
 20
26.5428497512
 30
0.0
 10
714.8041609866
 20
26.5428497512
 30
0.0
 10
714.8041609866
 20
26.5428497512
 30
0.0
 10
714.8041609866
 20
26.5428497512
 30
0.0
 10
714.4717948188
 20
26.9537276122
 30
0.0
 10
714.4717948188
 20
26.9537276122
 30
0.0
 10
714.4717948188
 20
26.9537276122
 30
0.0
 10
714.6983010536
 20
27.2196205464
 30
0.0
 10
714.6983010536
 20
27.2196205464
 30
0.0
 10
714.6983010536
 20
27.2196205464
 30
0.0
 10
714.5500448063
 20
27.3724566425
 30
0.0
 10
714.5500448063
 20
27.3724566425
 30
0.0
 10
714.5500448063
 20
27.3724566425
 30
0.0
 10
714.3341376501
 20
27.1212192243
 30
0.0
 10
714.3341376501
 20
27.1212192243
 30
0.0
 10
714.3341376501
 20
27.1212192243
 30
0.0
 10
713.9470750027
 20
27.5891489157
 30
0.0
 10
713.9470750027
 20
27.5891489157
 30
0.0
 10
714.1025281552
 20
27.7032525764
 30
0.0
 10
714.2848061362
 20
27.8430033903
 30
0.0
 10
714.2848061362
 20
28.0523679054
 30
0.0
 10
714.2848061362
 20
28.2962775656
 30
0.0
 10
714.0827693791
 20
28.4396922584
 30
0.0
 10
713.8562631442
 20
28.4396922584
 30
0.0
 10
713.6120917784
 20
28.4396922584
 30
0.0
 10
713.4277201523
 20
28.2889498075
 30
0.0
 10
713.4277201523
 20
28.0324782765
 30
0.0
 10
713.4277201523
 20
27.8749314788
 30
0.0
 10
713.52638318
 20
27.7372743101
 30
0.0
 10
713.6317197017
 20
27.6263111171
 30
0.0
 10
713.6317197017
 20
27.6263111171
 30
0.0
 10
713.5161766599
 20
27.542565311
 30
0.0
 10
713.5161766599
 20
27.542565311
 30
0.0
 10
713.3384785277
 20
27.4143295455
 30
0.0
 10
713.1911382502
 20
27.2866171913
 30
0.0
 10
713.1911382502
 20
27.0495118779
 30
0.0
 10
713.1911382502
 20
26.7291841697
 30
0.0
 10
713.4497034264
 20
26.5030704933
 30
0.0
 10
713.7600863201
 20
26.5030704933
 30
0.0
 10
713.9790030912
 20
26.5030704933
 30
0.0
 10
714.1761982939
 20
26.6281657911
 30
0.0
 10
714.3164725191
 20
26.7940871694
 30
0.0
 10
714.3164725191
 20
26.7940871694
 30
0.0
 10
714.5187709818
 20
26.5428497512
 30
0.0
 10
714.5187709818
 20
26.5428497512
 30
0.0
  0
LWPOLYLINE
  5
245
330
225
100
AcDbEntity
  8
0
  6
Continuous
 62
     7
100
AcDbPolyline
 90
        2
 70
     0
 43
0.2
 10
716.4542150716
 20
28.3993895893
 10
716.2228672823
 20
28.3993895893
  0
LWPOLYLINE
  5
246
330
225
100
AcDbEntity
  8
0
  6
Continuous
 62
     7
100
AcDbPolyline
 90
        2
 70
     0
 43
0.2
 10
716.2228672823
 20
28.3993895893
 10
716.2228672823
 20
26.5423263399
  0
LWPOLYLINE
  5
247
330
225
100
AcDbEntity
  8
0
  6
Continuous
 62
     7
100
AcDbPolyline
 90
        2
 70
     0
 43
0.2
 10
716.2228672823
 20
26.5423263399
 10
717.0181907343
 20
26.5423263399
  0
LWPOLYLINE
  5
248
330
225
100
AcDbEntity
  8
0
  6
Continuous
 62
     7
100
AcDbPolyline
 90
        2
 70
     0
 43
0.2
 10
717.0181907343
 20
26.5423263399
 10
717.0181907343
 20
26.7543079115
  0
LWPOLYLINE
  5
249
330
225
100
AcDbEntity
  8
0
  6
Continuous
 62
     7
100
AcDbPolyline
 90
        2
 70
     0
 43
0.2
 10
717.0181907343
 20
26.7543079115
 10
716.4542150716
 20
26.7543079115
  0
LWPOLYLINE
  5
24A
330
225
100
AcDbEntity
  8
0
  6
Continuous
 62
     7
100
AcDbPolyline
 90
        2
 70
     0
 43
0.2
 10
716.4542150716
 20
26.7543079115
 10
716.4542150716
 20
28.3993895893
  0
LWPOLYLINE
  5
24B
330
225
100
AcDbEntity
  8
0
  6
Continuous
 62
     7
100
AcDbPolyline
 90
        2
 70
     0
 43
0.2
 10
718.6972941457
 20
27.6948779958
 10
718.4761528766
 20
27.6948779958
  0
LWPOLYLINE
  5
24C
330
225
100
AcDbEntity
  8
0
  6
Continuous
 62
     7
100
AcDbPolyline
 90
        2
 70
     0
 43
0.2
 10
718.4761528766
 20
27.6948779958
 10
718.4761528766
 20
26.5428497512
  0
LWPOLYLINE
  5
24D
330
225
100
AcDbEntity
  8
0
  6
Continuous
 62
     7
100
AcDbPolyline
 90
        2
 70
     0
 43
0.2
 10
718.4761528766
 20
26.5428497512
 10
718.6972941457
 20
26.5428497512
  0
LWPOLYLINE
  5
24E
330
225
100
AcDbEntity
  8
0
  6
Continuous
 62
     7
100
AcDbPolyline
 90
        2
 70
     0
 43
0.2
 10
718.6972941457
 20
26.5428497512
 10
718.6972941457
 20
27.6948779958
  0
LWPOLYLINE
  5
24F
330
225
100
AcDbEntity
  8
0
  6
Continuous
 62
     7
100
AcDbPolyline
 90
        2
 70
     1
 43
0.2
 10
718.4342708685
 20
28.2248319248
 42
1.0
 10
718.7394378595
 20
28.2248319248
 42
1.0
  0
SPLINE
  5
250
330
225
100
AcDbEntity
  8
0
  6
Continuous
 62
     7
100
AcDbSpline
 70
     3
 71
     3
 72
    17
 73
    13
 74
     0
 42
0.000000001
 43
0.0000001
 40
0.0
 40
0.0
 40
0.0
 40
0.0
 40
1.0
 40
1.0
 40
1.0
 40
2.0
 40
2.0
 40
2.0
 40
3.0
 40
3.0
 40
3.0
 40
4.0
 40
4.0
 40
4.0
 40
4.0
 10
720.8275780874
 20
26.7003965489
 30
0.0
 10
720.5936132417
 20
26.7003965489
 30
0.0
 10
720.463283831
 20
26.902433306
 30
0.0
 10
720.463283831
 20
27.1186021679
 30
0.0
 10
720.463283831
 20
27.3332007959
 30
0.0
 10
720.5991090602
 20
27.5320970853
 30
0.0
 10
720.8275780874
 20
27.5320970853
 30
0.0
 10
721.0670387516
 20
27.5320970853
 30
0.0
 10
721.2026022751
 20
27.3431456104
 30
0.0
 10
721.2026022751
 20
27.1186021679
 30
0.0
 10
721.2026022751
 20
26.8924884915
 30
0.0
 10
721.0693941024
 20
26.7003965489
 30
0.0
 10
720.8275780874
 20
26.7003965489
 30
0.0
  0
SPLINE
  5
251
330
225
100
AcDbEntity
  8
0
  6
Continuous
 62
     7
100
AcDbSpline
 70
     3
 71
     3
 72
    50
 73
    46
 74
     0
 42
0.000000001
 43
0.0000001
 40
0.0
 40
0.0
 40
0.0
 40
0.0
 40
1.0
 40
1.0
 40
1.0
 40
2.0
 40
2.0
 40
2.0
 40
3.0
 40
3.0
 40
3.0
 40
4.0
 40
4.0
 40
4.0
 40
5.0
 40
5.0
 40
5.0
 40
6.0
 40
6.0
 40
6.0
 40
7.0
 40
7.0
 40
7.0
 40
8.0
 40
8.0
 40
8.0
 40
9.0
 40
9.0
 40
9.0
 40
10.0
 40
10.0
 40
10.0
 40
11.0
 40
11.0
 40
11.0
 40
12.0
 40
12.0
 40
12.0
 40
13.0
 40
13.0
 40
13.0
 40
14.0
 40
14.0
 40
14.0
 40
15.0
 40
15.0
 40
15.0
 40
15.0
 10
721.4117050846
 20
27.6954014071
 30
0.0
 10
721.4117050846
 20
27.6954014071
 30
0.0
 10
721.1900404042
 20
27.6954014071
 30
0.0
 10
721.1900404042
 20
27.6954014071
 30
0.0
 10
721.1900404042
 20
27.6954014071
 30
0.0
 10
721.1900404042
 20
27.4980753516
 30
0.0
 10
721.1900404042
 20
27.4980753516
 30
0.0
 10
721.1900404042
 20
27.4980753516
 30
0.0
 10
721.1853297026
 20
27.4980753516
 30
0.0
 10
721.1853297026
 20
27.4980753516
 30
0.0
 10
721.0939944329
 20
27.6409666332
 30
0.0
 10
720.9560755585
 20
27.7294231408
 30
0.0
 10
720.7833498335
 20
27.7294231408
 30
0.0
 10
720.4509836657
 20
27.7294231408
 30
0.0
 10
720.2418808562
 20
27.4415469325
 30
0.0
 10
720.2418808562
 20
27.1259299259
 30
0.0
 10
720.2418808562
 20
26.7961808145
 30
0.0
 10
720.4389452061
 20
26.5030704933
 30
0.0
 10
720.7938180593
 20
26.5030704933
 30
0.0
 10
720.9560755585
 20
26.5030704933
 30
0.0
 10
721.096088078
 20
26.591527001
 30
0.0
 10
721.1853297026
 20
26.7223798229
 30
0.0
 10
721.1853297026
 20
26.7223798229
 30
0.0
 10
721.1900404042
 20
26.7223798229
 30
0.0
 10
721.1900404042
 20
26.7223798229
 30
0.0
 10
721.1900404042
 20
26.7223798229
 30
0.0
 10
721.1900404042
 20
26.5030704933
 30
0.0
 10
721.1900404042
 20
26.5030704933
 30
0.0
 10
721.1900404042
 20
26.2664885912
 30
0.0
 10
721.1335119851
 20
26.0796307614
 30
0.0
 10
720.8602912929
 20
26.0796307614
 30
0.0
 10
720.6579928301
 20
26.0796307614
 30
0.0
 10
720.5153632542
 20
26.1979217125
 30
0.0
 10
720.5153632542
 20
26.4041457599
 30
0.0
 10
720.5153632542
 20
26.4041457599
 30
0.0
 10
720.2936985737
 20
26.4041457599
 30
0.0
 10
720.2936985737
 20
26.4041457599
 30
0.0
 10
720.298670981
 20
26.0796307614
 30
0.0
 10
720.5297570646
 20
25.8828281172
 30
0.0
 10
720.8500847727
 20
25.8828281172
 30
0.0
 10
721.2981248352
 20
25.8828281172
 30
0.0
 10
721.4117050846
 20
26.1680872691
 30
0.0
 10
721.4117050846
 20
26.5648330253
 30
0.0
 10
721.4117050846
 20
26.5648330253
 30
0.0
 10
721.4117050846
 20
27.6954014071
 30
0.0
 10
721.4117050846
 20
27.6954014071
 30
0.0
  0
SPLINE
  5
252
330
225
100
AcDbEntity
  8
0
  6
Continuous
 62
     7
100
AcDbSpline
 70
     3
 71
     3
 72
    44
 73
    40
 74
     0
 42
0.000000001
 43
0.0000001
 40
0.0
 40
0.0
 40
0.0
 40
0.0
 40
1.0
 40
1.0
 40
1.0
 40
2.0
 40
2.0
 40
2.0
 40
3.0
 40
3.0
 40
3.0
 40
4.0
 40
4.0
 40
4.0
 40
5.0
 40
5.0
 40
5.0
 40
6.0
 40
6.0
 40
6.0
 40
7.0
 40
7.0
 40
7.0
 40
8.0
 40
8.0
 40
8.0
 40
9.0
 40
9.0
 40
9.0
 40
10.0
 40
10.0
 40
10.0
 40
11.0
 40
11.0
 40
11.0
 40
12.0
 40
12.0
 40
12.0
 40
13.0
 40
13.0
 40
13.0
 40
13.0
 10
722.98063042
 20
28.6804614509
 30
0.0
 10
722.98063042
 20
28.6804614509
 30
0.0
 10
722.98063042
 20
26.5423263399
 30
0.0
 10
722.98063042
 20
26.5423263399
 30
0.0
 10
722.98063042
 20
26.5423263399
 30
0.0
 10
723.2020333948
 20
26.5423263399
 30
0.0
 10
723.2020333948
 20
26.5423263399
 30
0.0
 10
723.2020333948
 20
26.5423263399
 30
0.0
 10
723.2020333948
 20
27.0720185632
 30
0.0
 10
723.2020333948
 20
27.0720185632
 30
0.0
 10
723.2020333948
 20
27.2819064897
 30
0.0
 10
723.2020333948
 20
27.5326204966
 30
0.0
 10
723.4872925467
 20
27.5326204966
 30
0.0
 10
723.71419134
 20
27.5326204966
 30
0.0
 10
723.7411470213
 20
27.3996740294
 30
0.0
 10
723.7411470213
 20
27.2033947965
 30
0.0
 10
723.7411470213
 20
27.2033947965
 30
0.0
 10
723.7411470213
 20
26.5423263399
 30
0.0
 10
723.7411470213
 20
26.5423263399
 30
0.0
 10
723.7411470213
 20
26.5423263399
 30
0.0
 10
723.9630734074
 20
26.5423263399
 30
0.0
 10
723.9630734074
 20
26.5423263399
 30
0.0
 10
723.9630734074
 20
26.5423263399
 30
0.0
 10
723.9630734074
 20
27.2295653609
 30
0.0
 10
723.9630734074
 20
27.2295653609
 30
0.0
 10
723.9630734074
 20
27.5101138112
 30
0.0
 10
723.8790658957
 20
27.7299465521
 30
0.0
 10
723.5540274859
 20
27.7299465521
 30
0.0
 10
723.414276672
 20
27.7299465521
 30
0.0
 10
723.276096092
 20
27.6634733185
 30
0.0
 10
723.2067440964
 20
27.5404716659
 30
0.0
 10
723.2067440964
 20
27.5404716659
 30
0.0
 10
723.2020333948
 20
27.5404716659
 30
0.0
 10
723.2020333948
 20
27.5404716659
 30
0.0
 10
723.2020333948
 20
27.5404716659
 30
0.0
 10
723.2020333948
 20
28.6804614509
 30
0.0
 10
723.2020333948
 20
28.6804614509
 30
0.0
 10
723.2020333948
 20
28.6804614509
 30
0.0
 10
722.98063042
 20
28.6804614509
 30
0.0
 10
722.98063042
 20
28.6804614509
 30
0.0
  0
LWPOLYLINE
  5
253
330
225
100
AcDbEntity
  8
0
  6
Continuous
 62
     7
100
AcDbPolyline
 90
        2
 70
     0
 43
0.2
 10
725.8028640842
 20
27.4881305371
 10
726.0192946518
 20
27.4881305371
  0
LWPOLYLINE
  5
254
330
225
100
AcDbEntity
  8
0
  6
Continuous
 62
     7
100
AcDbPolyline
 90
        2
 70
     0
 43
0.2
 10
726.0192946518
 20
27.4881305371
 10
726.0192946518
 20
27.6948779958
  0
LWPOLYLINE
  5
255
330
225
100
AcDbEntity
  8
0
  6
Continuous
 62
     7
100
AcDbPolyline
 90
        2
 70
     0
 43
0.2
 10
726.0192946518
 20
27.6948779958
 10
725.8028640842
 20
27.6948779958
  0
LWPOLYLINE
  5
256
330
225
100
AcDbEntity
  8
0
  6
Continuous
 62
     7
100
AcDbPolyline
 90
        2
 70
     0
 43
0.2
 10
725.8028640842
 20
27.6948779958
 10
725.8028640842
 20
28.1355903002
  0
LWPOLYLINE
  5
257
330
225
100
AcDbEntity
  8
0
  6
Continuous
 62
     7
100
AcDbPolyline
 90
        2
 70
     0
 43
0.2
 10
725.8028640842
 20
28.1355903002
 10
725.5811994038
 20
28.1355903002
  0
LWPOLYLINE
  5
258
330
225
100
AcDbEntity
  8
0
  6
Continuous
 62
     7
100
AcDbPolyline
 90
        2
 70
     0
 43
0.2
 10
725.5811994038
 20
28.1355903002
 10
725.5811994038
 20
27.6948779958
  0
LWPOLYLINE
  5
259
330
225
100
AcDbEntity
  8
0
  6
Continuous
 62
     7
100
AcDbPolyline
 90
        2
 70
     0
 43
0.2
 10
725.5811994038
 20
27.6948779958
 10
725.460553102
 20
27.6948779958
  0
LWPOLYLINE
  5
25A
330
225
100
AcDbEntity
  8
0
  6
Continuous
 62
     7
100
AcDbPolyline
 90
        2
 70
     0
 43
0.2
 10
725.460553102
 20
27.6948779958
 10
725.460553102
 20
27.4881305371
  0
LWPOLYLINE
  5
25B
330
225
100
AcDbEntity
  8
0
  6
Continuous
 62
     7
100
AcDbPolyline
 90
        2
 70
     0
 43
0.2
 10
725.460553102
 20
27.4881305371
 10
725.5811994038
 20
27.4881305371
  0
LWPOLYLINE
  5
25C
330
225
100
AcDbEntity
  8
0
  6
Continuous
 62
     7
100
AcDbPolyline
 90
        2
 70
     0
 43
0.2
 10
725.5811994038
 20
27.4881305371
 10
725.5811994038
 20
26.5423263399
  0
LWPOLYLINE
  5
25D
330
225
100
AcDbEntity
  8
0
  6
Continuous
 62
     7
100
AcDbPolyline
 90
        2
 70
     0
 43
0.2
 10
725.5811994038
 20
26.5423263399
 10
725.8028640842
 20
26.5423263399
  0
LWPOLYLINE
  5
25E
330
225
100
AcDbEntity
  8
0
  6
Continuous
 62
     7
100
AcDbPolyline
 90
        2
 70
     0
 43
0.2
 10
725.8028640842
 20
26.5423263399
 10
725.8028640842
 20
27.4881305371
  0
SPLINE
  5
25F
330
225
100
AcDbEntity
  8
0
  6
Continuous
 62
     7
100
AcDbSpline
 70
     3
 71
     3
 72
    20
 73
    16
 74
     0
 42
0.000000001
 43
0.0000001
 40
0.0
 40
0.0
 40
0.0
 40
0.0
 40
1.0
 40
1.0
 40
1.0
 40
2.0
 40
2.0
 40
2.0
 40
3.0
 40
3.0
 40
3.0
 40
4.0
 40
4.0
 40
4.0
 40
5.0
 40
5.0
 40
5.0
 40
5.0
 10
713.5848743915
 20
36.9032527833
 30
0.0
 10
713.5848743915
 20
36.9032527833
 30
0.0
 10
715.9012310459
 20
34.0736913611
 30
0.0
 10
715.9012310459
 20
34.0736913611
 30
0.0
 10
715.2495839925
 20
33.4215208964
 30
0.0
 10
714.4727107885
 20
32.6856046256
 30
0.0
 10
713.5015211439
 20
32.6856046256
 30
0.0
 10
712.5029832594
 20
32.6856046256
 30
0.0
 10
711.5596652659
 20
33.6151830729
 30
0.0
 10
711.5596652659
 20
34.6143752214
 30
0.0
 10
711.5596652659
 20
35.61356737
 30
0.0
 10
712.738518339
 20
36.3201726086
 30
0.0
 10
713.4600407993
 20
36.8200303885
 30
0.0
 10
713.4600407993
 20
36.8200303885
 30
0.0
 10
713.5848743915
 20
36.9032527833
 30
0.0
 10
713.5848743915
 20
36.9032527833
 30
0.0
  0
SPLINE
  5
260
330
225
100
AcDbEntity
  8
0
  6
Continuous
 62
     7
100
AcDbSpline
 70
     3
 71
     3
 72
    23
 73
    19
 74
     0
 42
0.000000001
 43
0.0000001
 40
0.0
 40
0.0
 40
0.0
 40
0.0
 40
1.0
 40
1.0
 40
1.0
 40
2.0
 40
2.0
 40
2.0
 40
3.0
 40
3.0
 40
3.0
 40
4.0
 40
4.0
 40
4.0
 40
5.0
 40
5.0
 40
5.0
 40
6.0
 40
6.0
 40
6.0
 40
6.0
 10
713.862282374
 20
38.5410067031
 30
0.0
 10
713.862282374
 20
38.5410067031
 30
0.0
 10
713.5157841015
 20
38.9843360639
 30
0.0
 10
713.5157841015
 20
38.9843360639
 30
0.0
 10
713.2099810565
 20
39.3724455338
 30
0.0
 10
712.8910927294
 20
39.7609475623
 30
0.0
 10
712.8910927294
 20
40.2878918763
 30
0.0
 10
712.8910927294
 20
40.954063593
 30
0.0
 10
713.4324308539
 20
41.3977855122
 30
0.0
 10
714.056337109
 20
41.3977855122
 30
0.0
 10
714.7501187711
 20
41.3977855122
 30
0.0
 10
715.2773247908
 20
40.9955439375
 30
0.0
 10
715.2773247908
 20
40.2605436365
 30
0.0
 10
715.2773247908
 20
39.497279126
 30
0.0
 10
714.5560640361
 20
39.0671659002
 30
0.0
 10
714.0289888692
 20
38.6514464848
 30
0.0
 10
714.0289888692
 20
38.6514464848
 30
0.0
 10
713.862282374
 20
38.5410067031
 30
0.0
 10
713.862282374
 20
38.5410067031
 30
0.0
  0
SPLINE
  5
261
330
225
100
AcDbEntity
  8
0
  6
Continuous
 62
     7
100
AcDbSpline
 70
     3
 71
     3
 72
    50
 73
    46
 74
     0
 42
0.000000001
 43
0.0000001
 40
0.0
 40
0.0
 40
0.0
 40
0.0
 40
1.0
 40
1.0
 40
1.0
 40
2.0
 40
2.0
 40
2.0
 40
3.0
 40
3.0
 40
3.0
 40
4.0
 40
4.0
 40
4.0
 40
5.0
 40
5.0
 40
5.0
 40
6.0
 40
6.0
 40
6.0
 40
7.0
 40
7.0
 40
7.0
 40
8.0
 40
8.0
 40
8.0
 40
9.0
 40
9.0
 40
9.0
 40
10.0
 40
10.0
 40
10.0
 40
11.0
 40
11.0
 40
11.0
 40
12.0
 40
12.0
 40
12.0
 40
13.0
 40
13.0
 40
13.0
 40
14.0
 40
14.0
 40
14.0
 40
15.0
 40
15.0
 40
15.0
 40
15.0
 10
717.815869537
 20
31.7424174849
 30
0.0
 10
717.815869537
 20
31.7424174849
 30
0.0
 10
719.4250975415
 20
31.7424174849
 30
0.0
 10
719.4250975415
 20
31.7424174849
 30
0.0
 10
719.4250975415
 20
31.7424174849
 30
0.0
 10
717.5520702479
 20
34.0595592563
 30
0.0
 10
717.5520702479
 20
34.0595592563
 30
0.0
 10
717.5520702479
 20
34.0595592563
 30
0.0
 10
718.8284086734
 20
35.5570389509
 30
0.0
 10
718.8284086734
 20
35.5570389509
 30
0.0
 10
718.8284086734
 20
35.5570389509
 30
0.0
 10
717.9961847256
 20
36.4180505194
 30
0.0
 10
717.9961847256
 20
36.4180505194
 30
0.0
 10
717.9961847256
 20
36.4180505194
 30
0.0
 10
716.7755896023
 20
35.002746397
 30
0.0
 10
716.7755896023
 20
35.002746397
 30
0.0
 10
716.7755896023
 20
35.002746397
 30
0.0
 10
714.5976752335
 20
37.6381222315
 30
0.0
 10
714.5976752335
 20
37.6381222315
 30
0.0
 10
715.471248673
 20
38.2761605914
 30
0.0
 10
716.4979199141
 20
39.0671659002
 30
0.0
 10
716.4979199141
 20
40.2460189733
 30
0.0
 10
716.4979199141
 20
41.6197118983
 30
0.0
 10
715.3600237743
 20
42.4241950478
 30
0.0
 10
714.0847321714
 20
42.4241950478
 30
0.0
 10
712.711300952
 20
42.4241950478
 30
0.0
 10
711.6703667533
 20
41.5779698481
 30
0.0
 10
711.6703667533
 20
40.1353174859
 30
0.0
 10
711.6703667533
 20
39.2477427945
 30
0.0
 10
712.2257061297
 20
38.4708695905
 30
0.0
 10
712.8218715866
 20
37.846439924
 30
0.0
 10
712.8218715866
 20
37.846439924
 30
0.0
 10
712.1699628275
 20
37.3748463537
 30
0.0
 10
712.1699628275
 20
37.3748463537
 30
0.0
 10
711.1714249431
 20
36.653585599
 30
0.0
 10
710.3385467313
 20
35.9323248443
 30
0.0
 10
710.3385467313
 20
34.600766528
 30
0.0
 10
710.3385467313
 20
32.79709123
 30
0.0
 10
711.7955929039
 20
31.5204910988
 30
0.0
 10
713.5431323413
 20
31.5204910988
 30
0.0
 10
714.7779904222
 20
31.5204910988
 30
0.0
 10
715.8873606468
 20
32.2286665713
 30
0.0
 10
716.6782351028
 20
33.157198196
 30
0.0
 10
716.6782351028
 20
33.157198196
 30
0.0
 10
717.815869537
 20
31.7424174849
 30
0.0
 10
717.815869537
 20
31.7424174849
 30
0.0
  0
LINE
  5
262
330
225
100
AcDbEntity
  8
0
  6
Continuous
 62
     7
100
AcDbLine
 10
703.618730912
 20
29.7162923896
 30
0.0
 11
726.0326416396
 21
29.7162923896
 31
0.0
  0
LINE
  5
263
330
225
100
AcDbEntity
  8
0
  6
Continuous
 62
     7
100
AcDbLine
 10
726.0326416396
 20
29.7162923896
 30
0.0
 11
726.0326416396
 21
52.1302031172
 31
0.0
  0
LINE
  5
264
330
225
100
AcDbEntity
  8
0
  6
Continuous
 62
     7
100
AcDbLine
 10
726.0326416396
 20
52.1302031172
 30
0.0
 11
703.618730912
 21
52.1302031172
 31
0.0
  0
LINE
  5
265
330
225
100
AcDbEntity
  8
0
  6
Continuous
 62
     7
100
AcDbLine
 10
703.618730912
 20
52.1302031172
 30
0.0
 11
703.618730912
 21
29.7162923896
 31
0.0
  0
ENDBLK
  5
266
330
225
100
AcDbEntity
  8
0
  6
ByBlock
 62
     0
100
AcDbBlockEnd
  0
BLOCK
  5
267
330
226
100
AcDbEntity
  8
0
100
AcDbBlockBegin
  2
PROIEZIONE_EU_BL0
 70
     0
 10
715.9995738046
 20
61.6315156172
 30
0.0
  3
PROIEZIONE_EU_BL0
  1

  0
LWPOLYLINE
  5
268
330
226
100
AcDbEntity
  8
DEFAULT_1
  6
CENTER
 62
     7
100
AcDbPolyline
 90
        2
 70
     0
 43
0.25
 10
722.1261944663
 20
66.6312097491
 10
722.1262354486
 20
56.6318214853
  0
LWPOLYLINE
  5
269
330
226
100
AcDbEntity
  8
DEFAULT_1
  6
CENTER
 62
     7
100
AcDbPolyline
 90
        2
 70
     0
 43
0.25
 10
728.1262242913
 20
61.6317867523
 10
703.8729233179
 20
61.6315160919
  0
LWPOLYLINE
  5
26A
330
226
100
AcDbEntity
  8
0
  6
Continuous
 62
     7
100
AcDbPolyline
 90
        2
 70
     1
 43
0.25
 10
718.5790842905
 20
61.612967863
 42
1.0
 10
725.6854133891
 20
61.612967863
 42
1.0
  0
LWPOLYLINE
  5
26B
330
226
100
AcDbEntity
  8
0
  6
Continuous
 62
     7
100
AcDbPolyline
 90
        2
 70
     1
 43
0.25
 10
720.1288281188
 20
61.6308659076
 42
1.0
 10
724.1405798689
 20
61.6308659076
 42
1.0
  0
LWPOLYLINE
  5
26C
330
226
100
AcDbEntity
  8
0
  6
Continuous
 62
     7
100
AcDbPolyline
 90
        2
 70
     0
 43
0.25
 10
716.1262220853
 20
65.2067191124
 10
716.1262217307
 20
58.1065162041
  0
LWPOLYLINE
  5
26D
330
226
100
AcDbEntity
  8
0
  6
Continuous
 62
     7
100
AcDbPolyline
 90
        2
 70
     0
 43
0.25
 10
716.1262501671
 20
58.1064877677
 10
706.1316928959
 20
59.6265811806
  0
LWPOLYLINE
  5
26E
330
226
100
AcDbEntity
  8
0
  6
Continuous
 62
     7
100
AcDbPolyline
 90
        2
 70
     0
 43
0.25
 10
706.1293829103
 20
59.625903639
 10
706.1267160062
 20
63.6315422505
  0
LWPOLYLINE
  5
26F
330
226
100
AcDbEntity
  8
0
  6
Continuous
 62
     7
100
AcDbPolyline
 90
        2
 70
     0
 43
0.25
 10
706.1267077302
 20
63.6315339744
 10
716.1264509675
 20
65.2066911945
  0
ENDBLK
  5
270
330
226
100
AcDbEntity
  8
0
  6
ByBlock
 62
     0
100
AcDbBlockEnd
  0
ENDSEC
  0
SECTION
  2
ENTITIES
  0
LINE
  5
292
330
1B
100
AcDbEntity
 67
     1
  8
0
  6
Continuous
 62
     7
100
AcDbLine
 10
0.0
 20
0.0
 30
0.0
 11
841.0
 21
0.0
 31
0.0
  0
LINE
  5
293
330
1B
100
AcDbEntity
 67
     1
  8
0
  6
Continuous
 62
     7
100
AcDbLine
 10
841.0
 20
0.0
 30
0.0
 11
841.0
 21
594.0
 31
0.0
  0
LINE
  5
294
330
1B
100
AcDbEntity
 67
     1
  8
0
  6
Continuous
 62
     7
100
AcDbLine
 10
0.0
 20
594.0
 30
0.0
 11
841.0
 21
594.0
 31
0.0
  0
LINE
  5
295
330
1B
100
AcDbEntity
 67
     1
  8
0
  6
Continuous
 62
     7
100
AcDbLine
 10
0.0
 20
0.0
 30
0.0
 11
0.0
 21
594.0
 31
0.0
  0
LINE
  5
296
330
1B
100
AcDbEntity
 67
     1
  8
0
  6
Continuous
 62
     7
100
AcDbLine
 10
0.0
 20
587.0
 30
0.0
 11
841.0
 21
587.0
 31
0.0
  0
LINE
  5
297
330
1B
100
AcDbEntity
 67
     1
  8
0
  6
Continuous
 62
     7
100
AcDbLine
 10
0.0
 20
7.0
 30
0.0
 11
834.0
 21
7.0
 31
0.0
  0
LINE
  5
298
330
1B
100
AcDbEntity
 67
     1
  8
0
  6
Continuous
 62
     7
100
AcDbLine
 10
7.0
 20
0.0
 30
0.0
 11
7.0
 21
594.0
 31
0.0
  0
LINE
  5
299
330
1B
100
AcDbEntity
 67
     1
  8
0
  6
Continuous
 62
     7
100
AcDbLine
 10
834.0
 20
7.0
 30
0.0
 11
834.0
 21
594.0
 31
0.0
  0
LINE
  5
29A
330
1B
100
AcDbEntity
 67
     1
  8
0
  6
Continuous
 62
     7
100
AcDbLine
 10
10.0
 20
584.0
 30
0.0
 11
831.0
 21
584.0
 31
0.0
  0
LINE
  5
29B
330
1B
100
AcDbEntity
 67
     1
  8
0
  6
Continuous
 62
     7
100
AcDbLine
 10
10.1045326603
 20
9.9564447249
 30
0.0
 11
831.0019373863
 21
10.0005548773
 31
0.0
  0
LINE
  5
29C
330
1B
100
AcDbEntity
 67
     1
  8
0
  6
Continuous
 62
     7
100
AcDbLine
 10
10.0
 20
10.0
 30
0.0
 11
10.0
 21
584.0
 31
0.0
  0
LINE
  5
29D
330
1B
100
AcDbEntity
 67
     1
  8
0
  6
Continuous
 62
     7
100
AcDbLine
 10
831.0
 20
10.0
 30
0.0
 11
831.0
 21
584.0
 31
0.0
  0
LINE
  5
29E
330
1B
100
AcDbEntity
 67
     1
  8
0
  6
Continuous
 62
     7
100
AcDbLine
 10
420.5
 20
594.0
 30
0.0
 11
420.5
 21
584.0
 31
0.0
  0
LINE
  5
29F
330
1B
100
AcDbEntity
 67
     1
  8
0
  6
Continuous
 62
     7
100
AcDbLine
 10
420.5
 20
0.0
 30
0.0
 11
420.5
 21
10.0
 31
0.0
  0
LINE
  5
2A0
330
1B
100
AcDbEntity
 67
     1
  8
0
  6
Continuous
 62
     7
100
AcDbLine
 10
841.0
 20
297.0
 30
0.0
 11
831.0
 21
297.0
 31
0.0
  0
LINE
  5
2A1
330
1B
100
AcDbEntity
 67
     1
  8
0
  6
Continuous
 62
     7
100
AcDbLine
 10
0.0
 20
297.0
 30
0.0
 11
10.0
 21
297.0
 31
0.0
  0
LINE
  5
2A2
330
1B
100
AcDbEntity
 67
     1
  8
0
  6
Continuous
 62
     7
100
AcDbLine
 10
841.0
 20
420.5
 30
0.0
 11
831.0324714513
 21
420.5
 31
0.0
  0
LINE
  5
2A3
330
1B
100
AcDbEntity
 67
     1
  8
0
  6
Continuous
 62
     7
100
AcDbLine
 10
631.0
 20
0.0
 30
0.0
 11
631.0
 21
10.0
 31
0.0
  0
LINE
  5
2A4
330
1B
100
AcDbEntity
 67
     1
  8
0
  6
Continuous
 62
     7
100
AcDbLine
 10
834.0
 20
7.0
 30
0.0
 11
834.0
 21
0.0
 31
0.0
  0
LINE
  5
2A5
330
1B
100
AcDbEntity
 67
     1
  8
0
  6
Continuous
 62
     7
100
AcDbLine
 10
834.0
 20
7.0
 30
0.0
 11
841.0
 21
7.0
 31
0.0
  0
LINE
  5
2A6
330
1B
100
AcDbEntity
 67
     1
  8
0
  6
Continuous
 62
     7
100
AcDbLine
 10
734.0
 20
7.0
 30
0.0
 11
734.0
 21
0.0
 31
0.0
  0
LINE
  5
2A7
330
1B
100
AcDbEntity
 67
     1
  8
0
  6
Continuous
 62
     7
100
AcDbLine
 10
534.0
 20
7.0
 30
0.0
 11
534.0
 21
0.0
 31
0.0
  0
LINE
  5
2A8
330
1B
100
AcDbEntity
 67
     1
  8
0
  6
Continuous
 62
     7
100
AcDbLine
 10
434.0
 20
7.0
 30
0.0
 11
434.0
 21
0.0
 31
0.0
  0
LINE
  5
2A9
330
1B
100
AcDbEntity
 67
     1
  8
0
  6
Continuous
 62
     7
100
AcDbLine
 10
834.0
 20
107.0
 30
0.0
 11
841.0
 21
107.0
 31
0.0
  0
LINE
  5
2AA
330
1B
100
AcDbEntity
 67
     1
  8
0
  6
Continuous
 62
     7
100
AcDbLine
 10
834.0
 20
207.0
 30
0.0
 11
841.0
 21
207.0
 31
0.0
  0
LINE
  5
2AB
330
1B
100
AcDbEntity
 67
     1
  8
0
  6
Continuous
 62
     7
100
AcDbLine
 10
834.0
 20
307.0
 30
0.0
 11
841.0
 21
307.0
 31
0.0
  0
LINE
  5
2AC
330
1B
100
AcDbEntity
 67
     1
  8
0
  6
Continuous
 62
     7
100
AcDbLine
 10
631.0
 20
584.0
 30
0.0
 11
631.0
 21
594.0
 31
0.0
  0
LINE
  5
2AD
330
1B
100
AcDbEntity
 67
     1
  8
0
  6
Continuous
 62
     7
100
AcDbLine
 10
734.0
 20
594.0
 30
0.0
 11
734.0
 21
587.0
 31
0.0
  0
LINE
  5
2AE
330
1B
100
AcDbEntity
 67
     1
  8
0
  6
Continuous
 62
     7
100
AcDbLine
 10
534.0
 20
594.0
 30
0.0
 11
534.0
 21
587.0
 31
0.0
  0
LINE
  5
2AF
330
1B
100
AcDbEntity
 67
     1
  8
0
  6
Continuous
 62
     7
100
AcDbLine
 10
434.0
 20
594.0
 30
0.0
 11
434.0
 21
587.0
 31
0.0
  0
LINE
  5
2B0
330
1B
100
AcDbEntity
 67
     1
  8
0
  6
Continuous
 62
     7
100
AcDbLine
 10
334.0
 20
594.0
 30
0.0
 11
334.0
 21
587.0
 31
0.0
  0
LINE
  5
2B1
330
1B
100
AcDbEntity
 67
     1
  8
0
  6
Continuous
 62
     7
100
AcDbLine
 10
234.0
 20
594.0
 30
0.0
 11
234.0
 21
587.0
 31
0.0
  0
LINE
  5
2B2
330
1B
100
AcDbEntity
 67
     1
  8
0
  6
Continuous
 62
     7
100
AcDbLine
 10
134.0
 20
594.0
 30
0.0
 11
134.0
 21
587.0
 31
0.0
  0
LINE
  5
2B3
330
1B
100
AcDbEntity
 67
     1
  8
0
  6
Continuous
 62
     7
100
AcDbLine
 10
10.0
 20
420.5
 30
0.0
 11
0.0
 21
420.5
 31
0.0
  0
LINE
  5
2B4
330
1B
100
AcDbEntity
 67
     1
  8
0
  6
Continuous
 62
     7
100
AcDbLine
 10
0.0
 20
107.0
 30
0.0
 11
7.0
 21
107.0
 31
0.0
  0
LINE
  5
2B5
330
1B
100
AcDbEntity
 67
     1
  8
0
  6
Continuous
 62
     7
100
AcDbLine
 10
0.0
 20
207.0
 30
0.0
 11
7.0
 21
207.0
 31
0.0
  0
LINE
  5
2B6
330
1B
100
AcDbEntity
 67
     1
  8
0
  6
Continuous
 62
     7
100
AcDbLine
 10
0.0
 20
307.0
 30
0.0
 11
7.0
 21
307.0
 31
0.0
  0
LINE
  5
2B7
330
1B
100
AcDbEntity
 67
     1
  8
0
  6
Continuous
 62
     7
100
AcDbLine
 10
0.0
 20
507.0
 30
0.0
 11
7.0
 21
507.0
 31
0.0
  0
LINE
  5
2B8
330
1B
100
AcDbEntity
 67
     1
  8
0
  6
Continuous
 62
     7
100
AcDbLine
 10
334.0
 20
7.0
 30
0.0
 11
334.0
 21
0.0
 31
0.0
  0
LINE
  5
2B9
330
1B
100
AcDbEntity
 67
     1
  8
0
  6
Continuous
 62
     7
100
AcDbLine
 10
234.0
 20
7.0
 30
0.0
 11
234.0
 21
0.0
 31
0.0
  0
LINE
  5
2BA
330
1B
100
AcDbEntity
 67
     1
  8
0
  6
Continuous
 62
     7
100
AcDbLine
 10
134.0
 20
7.0
 30
0.0
 11
134.0
 21
0.0
 31
0.0
  0
LINE
  5
2BB
330
1B
100
AcDbEntity
 67
     1
  8
0
  6
Continuous
 62
     7
100
AcDbLine
 10
834.0
 20
507.0
 30
0.0
 11
841.0
 21
507.0
 31
0.0
  0
MTEXT
  5
2BC
330
1B
100
AcDbEntity
 67
     1
  8
0
  6
Continuous
 62
     2
100
AcDbMText
 10
783.154890719
 20
5.35876025
 30
0.0
 40
4.0
 41
3.6
 46
0.0
 71
     1
 72
     1
  1
A
  7
TEXTSTYLE_2
 73
     1
 44
1.0
  0
MTEXT
  5
2BD
330
1B
100
AcDbEntity
 67
     1
  8
0
  6
Continuous
 62
     2
100
AcDbMText
 10
683.154890719
 20
5.35876025
 30
0.0
 40
4.0
 41
3.6
 46
0.0
 71
     1
 72
     1
  1
B
  7
TEXTSTYLE_2
 73
     1
 44
1.0
  0
MTEXT
  5
2BE
330
1B
100
AcDbEntity
 67
     1
  8
0
  6
Continuous
 62
     2
100
AcDbMText
 10
583.154890719
 20
5.35876025
 30
0.0
 40
4.0
 41
3.6
 46
0.0
 71
     1
 72
     1
  1
C
  7
TEXTSTYLE_2
 73
     1
 44
1.0
  0
MTEXT
  5
2BF
330
1B
100
AcDbEntity
 67
     1
  8
0
  6
Continuous
 62
     2
100
AcDbMText
 10
483.154890719
 20
5.35876025
 30
0.0
 40
4.0
 41
3.6
 46
0.0
 71
     1
 72
     1
  1
D
  7
TEXTSTYLE_2
 73
     1
 44
1.0
  0
MTEXT
  5
2C0
330
1B
100
AcDbEntity
 67
     1
  8
0
  6
Continuous
 62
     2
100
AcDbMText
 10
383.154890719
 20
5.35876025
 30
0.0
 40
4.0
 41
3.6
 46
0.0
 71
     1
 72
     1
  1
E
  7
TEXTSTYLE_2
 73
     1
 44
1.0
  0
MTEXT
  5
2C1
330
1B
100
AcDbEntity
 67
     1
  8
0
  6
Continuous
 62
     2
100
AcDbMText
 10
835.6467220993
 20
60.6268709614
 30
0.0
 40
4.0
 41
3.4285714286
 46
0.0
 71
     1
 72
     1
  1
1
  7
TEXTSTYLE_3
 73
     1
 44
1.0
  0
MTEXT
  5
2C2
330
1B
100
AcDbEntity
 67
     1
  8
0
  6
Continuous
 62
     2
100
AcDbMText
 10
835.6467220993
 20
160.6268709614
 30
0.0
 40
4.0
 41
4.7142857143
 46
0.0
 71
     1
 72
     1
  1
2
  7
TEXTSTYLE_3
 73
     1
 44
1.0
  0
MTEXT
  5
2C3
330
1B
100
AcDbEntity
 67
     1
  8
0
  6
Continuous
 62
     2
100
AcDbMText
 10
835.6467220993
 20
260.6268709614
 30
0.0
 40
4.0
 41
4.2857142857
 46
0.0
 71
     1
 72
     1
  1
3
  7
TEXTSTYLE_3
 73
     1
 44
1.0
  0
MTEXT
  5
2C4
330
1B
100
AcDbEntity
 67
     1
  8
0
  6
Continuous
 62
     2
100
AcDbMText
 10
835.6467220993
 20
360.6268709614
 30
0.0
 40
4.0
 41
4.7142857143
 46
0.0
 71
     1
 72
     1
  1
4
  7
TEXTSTYLE_3
 73
     1
 44
1.0
  0
MTEXT
  5
2C5
330
1B
100
AcDbEntity
 67
     1
  8
0
  6
Continuous
 62
     2
100
AcDbMText
 10
835.6467220993
 20
460.6268709614
 30
0.0
 40
4.0
 41
4.2857142857
 46
0.0
 71
     1
 72
     1
  1
5
  7
TEXTSTYLE_3
 73
     1
 44
1.0
  0
MTEXT
  5
2C6
330
1B
100
AcDbEntity
 67
     1
  8
0
  6
Continuous
 62
     2
100
AcDbMText
 10
783.154890719
 20
592.35876025
 30
0.0
 40
4.0
 41
3.6
 46
0.0
 71
     1
 72
     1
  1
A
  7
TEXTSTYLE_2
 73
     1
 44
1.0
  0
MTEXT
  5
2C7
330
1B
100
AcDbEntity
 67
     1
  8
0
  6
Continuous
 62
     2
100
AcDbMText
 10
683.154890719
 20
592.35876025
 30
0.0
 40
4.0
 41
3.6
 46
0.0
 71
     1
 72
     1
  1
B
  7
TEXTSTYLE_2
 73
     1
 44
1.0
  0
MTEXT
  5
2C8
330
1B
100
AcDbEntity
 67
     1
  8
0
  6
Continuous
 62
     2
100
AcDbMText
 10
583.154890719
 20
592.35876025
 30
0.0
 40
4.0
 41
3.6
 46
0.0
 71
     1
 72
     1
  1
C
  7
TEXTSTYLE_2
 73
     1
 44
1.0
  0
MTEXT
  5
2C9
330
1B
100
AcDbEntity
 67
     1
  8
0
  6
Continuous
 62
     2
100
AcDbMText
 10
483.154890719
 20
592.35876025
 30
0.0
 40
4.0
 41
3.6
 46
0.0
 71
     1
 72
     1
  1
D
  7
TEXTSTYLE_2
 73
     1
 44
1.0
  0
MTEXT
  5
2CA
330
1B
100
AcDbEntity
 67
     1
  8
0
  6
Continuous
 62
     2
100
AcDbMText
 10
383.154890719
 20
592.35876025
 30
0.0
 40
4.0
 41
3.6
 46
0.0
 71
     1
 72
     1
  1
E
  7
TEXTSTYLE_2
 73
     1
 44
1.0
  0
MTEXT
  5
2CB
330
1B
100
AcDbEntity
 67
     1
  8
0
  6
Continuous
 62
     2
100
AcDbMText
 10
283.154890719
 20
592.35876025
 30
0.0
 40
4.0
 41
3.6
 46
0.0
 71
     1
 72
     1
  1
F
  7
TEXTSTYLE_2
 73
     1
 44
1.0
  0
MTEXT
  5
2CC
330
1B
100
AcDbEntity
 67
     1
  8
0
  6
Continuous
 62
     2
100
AcDbMText
 10
183.154890719
 20
592.35876025
 30
0.0
 40
4.0
 41
3.6
 46
0.0
 71
     1
 72
     1
  1
G
  7
TEXTSTYLE_2
 73
     1
 44
1.0
  0
MTEXT
  5
2CD
330
1B
100
AcDbEntity
 67
     1
  8
0
  6
Continuous
 62
     2
100
AcDbMText
 10
59.5777362717
 20
592.35876025
 30
0.0
 40
4.0
 41
3.6
 46
0.0
 71
     1
 72
     1
  1
H
  7
TEXTSTYLE_2
 73
     1
 44
1.0
  0
MTEXT
  5
2CE
330
1B
100
AcDbEntity
 67
     1
  8
0
  6
Continuous
 62
     2
100
AcDbMText
 10
1.6467220993
 20
60.6268709614
 30
0.0
 40
4.0
 41
3.4285714286
 46
0.0
 71
     1
 72
     1
  1
1
  7
TEXTSTYLE_3
 73
     1
 44
1.0
  0
MTEXT
  5
2CF
330
1B
100
AcDbEntity
 67
     1
  8
0
  6
Continuous
 62
     2
100
AcDbMText
 10
1.6467220993
 20
160.6268709614
 30
0.0
 40
4.0
 41
4.7142857143
 46
0.0
 71
     1
 72
     1
  1
2
  7
TEXTSTYLE_3
 73
     1
 44
1.0
  0
MTEXT
  5
2D0
330
1B
100
AcDbEntity
 67
     1
  8
0
  6
Continuous
 62
     2
100
AcDbMText
 10
1.6467220993
 20
260.6268709614
 30
0.0
 40
4.0
 41
4.2857142857
 46
0.0
 71
     1
 72
     1
  1
3
  7
TEXTSTYLE_3
 73
     1
 44
1.0
  0
MTEXT
  5
2D1
330
1B
100
AcDbEntity
 67
     1
  8
0
  6
Continuous
 62
     2
100
AcDbMText
 10
1.6467220993
 20
360.6268709614
 30
0.0
 40
4.0
 41
4.7142857143
 46
0.0
 71
     1
 72
     1
  1
4
  7
TEXTSTYLE_3
 73
     1
 44
1.0
  0
MTEXT
  5
2D2
330
1B
100
AcDbEntity
 67
     1
  8
0
  6
Continuous
 62
     2
100
AcDbMText
 10
1.6467220993
 20
460.6268709614
 30
0.0
 40
4.0
 41
4.2857142857
 46
0.0
 71
     1
 72
     1
  1
5
  7
TEXTSTYLE_3
 73
     1
 44
1.0
  0
MTEXT
  5
2D3
330
1B
100
AcDbEntity
 67
     1
  8
0
  6
Continuous
 62
     2
100
AcDbMText
 10
1.6467220993
 20
560.6268709614
 30
0.0
 40
4.0
 41
4.7142857143
 46
0.0
 71
     1
 72
     1
  1
6
  7
TEXTSTYLE_3
 73
     1
 44
1.0
  0
MTEXT
  5
2D4
330
1B
100
AcDbEntity
 67
     1
  8
0
  6
Continuous
 62
     2
100
AcDbMText
 10
283.154890719
 20
5.35876025
 30
0.0
 40
4.0
 41
3.6
 46
0.0
 71
     1
 72
     1
  1
F
  7
TEXTSTYLE_2
 73
     1
 44
1.0
  0
MTEXT
  5
2D5
330
1B
100
AcDbEntity
 67
     1
  8
0
  6
Continuous
 62
     2
100
AcDbMText
 10
183.154890719
 20
5.35876025
 30
0.0
 40
4.0
 41
3.6
 46
0.0
 71
     1
 72
     1
  1
G
  7
TEXTSTYLE_2
 73
     1
 44
1.0
  0
MTEXT
  5
2D6
330
1B
100
AcDbEntity
 67
     1
  8
0
  6
Continuous
 62
     2
100
AcDbMText
 10
59.5777362717
 20
5.35876025
 30
0.0
 40
4.0
 41
3.6
 46
0.0
 71
     1
 72
     1
  1
H
  7
TEXTSTYLE_2
 73
     1
 44
1.0
  0
MTEXT
  5
2D7
330
1B
100
AcDbEntity
 67
     1
  8
0
  6
Continuous
 62
     2
100
AcDbMText
 10
835.6467220993
 20
560.6268709614
 30
0.0
 40
4.0
 41
4.7142857143
 46
0.0
 71
     1
 72
     1
  1
6
  7
TEXTSTYLE_3
 73
     1
 44
1.0
  0
VIEWPORT
  5
2D8
330
1B
100
AcDbEntity
 67
     1
  8
0
100
AcDbViewport
 10
0.0
 20
0.0
 30
0.0
 40
990.1540856031129
 41
700.1803891050583
 68
     1
 69
     1
 12
468.0350194552529
 22
297.0
 13
0.0
 23
0.0
 14
1.0
 24
1.0
 15
0.0
 25
0.0
 16
0.0
 26
0.0
 36
1.0
 17
0.0
 27
0.0
 37
0.0
 42
50.0
 43
0.0
 44
0.0
 45
700.1803891050583
 50
0.0
 51
0.0
 72
   100
 90
   557216
  1

281
     0
 71
     1
 74
     0
110
0.0
120
0.0
130
0.0
111
1.0
121
0.0
131
0.0
112
0.0
122
1.0
132
0.0
 79
     0
146
0.0
170
     0
 61
     5
348
569
292
     1
282
     1
141
0.0
142
0.0
 63
   256
  0
LINE
  5
2D9
330
1B
100
AcDbEntity
 67
     1
  8
7_ALL_FEATURES
  6
Continuous
 62
     7
100
AcDbLine
 10
79.1542668938
 20
489.7648165931
 30
0.0
 11
79.557063469
 21
489.7648165931
 31
0.0
  0
LINE
  5
2DA
330
1B
100
AcDbEntity
 67
     1
  8
7_ALL_FEATURES
  6
Continuous
 62
     7
100
AcDbLine
 10
79.557063469
 20
489.7648165931
 30
0.0
 11
80.6526983653
 21
489.7648165931
 31
0.0
  0
LINE
  5
2DB
330
1B
100
AcDbEntity
 67
     1
  8
7_ALL_FEATURES
  6
Continuous
 62
     7
100
AcDbLine
 10
80.6526983653
 20
489.7648165931
 30
0.0
 11
82.1542668938
 21
489.7648165931
 31
0.0
  0
LINE
  5
2DC
330
1B
100
AcDbEntity
 67
     1
  8
7_ALL_FEATURES
  6
Continuous
 62
     7
100
AcDbLine
 10
80.6542668938
 20
489.8648165931
 30
0.0
 11
80.6542668938
 21
489.7648165931
 31
0.0
  0
LINE
  5
2DD
330
1B
100
AcDbEntity
 67
     1
  8
7_ALL_FEATURES
  6
Continuous
 62
     7
100
AcDbLine
 10
80.6542668938
 20
490.0148165931
 30
0.0
 11
80.6542668938
 21
489.8648165931
 31
0.0
  0
LINE
  5
2DE
330
1B
100
AcDbEntity
 67
     1
  8
7_ALL_FEATURES
  6
Continuous
 62
     7
100
AcDbLine
 10
82.1542668938
 20
482.7648165931
 30
0.0
 11
80.6542668938
 21
482.7648165931
 31
0.0
  0
LINE
  5
2DF
330
1B
100
AcDbEntity
 67
     1
  8
7_ALL_FEATURES
  6
Continuous
 62
     7
100
AcDbLine
 10
80.6542668938
 20
482.7648165931
 30
0.0
 11
79.5571107752
 21
482.7648165931
 31
0.0
  0
LINE
  5
2E0
330
1B
100
AcDbEntity
 67
     1
  8
7_ALL_FEATURES
  6
Continuous
 62
     7
100
AcDbLine
 10
79.5571107752
 20
482.7648165931
 30
0.0
 11
79.1542668938
 21
482.7648165931
 31
0.0
  0
LINE
  5
2E1
330
1B
100
AcDbEntity
 67
     1
  8
7_ALL_FEATURES
  6
Continuous
 62
     7
100
AcDbLine
 10
79.1542668938
 20
377.7648165931
 30
0.0
 11
79.557063469
 21
377.7648165931
 31
0.0
  0
LINE
  5
2E2
330
1B
100
AcDbEntity
 67
     1
  8
7_ALL_FEATURES
  6
Continuous
 62
     7
100
AcDbLine
 10
79.557063469
 20
377.7648165931
 30
0.0
 11
80.6526983653
 21
377.7648165931
 31
0.0
  0
LINE
  5
2E3
330
1B
100
AcDbEntity
 67
     1
  8
7_ALL_FEATURES
  6
Continuous
 62
     7
100
AcDbLine
 10
80.6526983653
 20
377.7648165931
 30
0.0
 11
82.1542668938
 21
377.7648165931
 31
0.0
  0
LINE
  5
2E4
330
1B
100
AcDbEntity
 67
     1
  8
7_ALL_FEATURES
  6
Continuous
 62
     7
100
AcDbLine
 10
79.1542668938
 20
376.7148165931
 30
0.0
 11
79.1542668938
 21
371.8148165931
 31
0.0
  0
SPLINE
  5
2E5
330
1B
100
AcDbEntity
 67
     1
  8
7_ALL_FEATURES
  6
Continuous
 62
     7
100
AcDbSpline
 70
     0
 71
     3
 72
    19
 73
    15
 74
     0
 42
0.000000001
 43
0.0000001
 40
0.0
 40
0.0
 40
0.0
 40
0.0
 40
0.10680027
 40
0.2311432716
 40
0.2972343935
 40
0.3644941901
 40
0.4322338957
 40
0.5000884296
 40
0.5678638715
 40
0.6355750913
 40
0.7028164446
 40
0.768890529
 40
0.8932095981
 40
1.0
 40
1.0
 40
1.0
 40
1.0
 10
80.0329465502
 20
372.7648165931
 30
0.0
 10
80.2184227201
 20
372.7648165931
 30
0.0
 10
80.6190404527
 20
372.8465055197
 30
0.0
 10
81.0889885121
 20
373.071751294
 30
0.0
 10
81.4469545018
 20
373.3431430452
 30
0.0
 10
81.6859341302
 20
373.6008564764
 30
0.0
 10
81.8626519025
 20
373.910545933
 30
0.0
 10
81.9329630947
 20
374.2651544004
 30
0.0
 10
81.8622662953
 20
374.619570314
 30
0.0
 10
81.6857419725
 20
374.9291028709
 30
0.0
 10
81.4467273663
 20
375.1866457249
 30
0.0
 10
81.0888536972
 20
375.4579720981
 30
0.0
 10
80.6189606172
 20
375.6831388464
 30
0.0
 10
80.2184055826
 20
375.7648165931
 30
0.0
 10
80.0329465502
 20
375.7648165931
 30
0.0
  0
SPLINE
  5
2E6
330
1B
100
AcDbEntity
 67
     1
  8
7_ALL_FEATURES
  6
Continuous
 62
     7
100
AcDbSpline
 70
     0
 71
     3
 72
    13
 73
     9
 74
     0
 42
0.000000001
 43
0.0000001
 40
0.0
 40
0.0
 40
0.0
 40
0.0
 40
0.0957628996
 40
0.2141149816
 40
0.4998099785
 40
0.7856384736
 40
0.9041087766
 40
1.0
 40
1.0
 40
1.0
 40
1.0
 10
80.8100938597
 20
375.5761604411
 30
0.0
 10
80.7690568201
 20
375.5019145642
 30
0.0
 10
80.7120662577
 20
375.3177303064
 30
0.0
 10
80.6597972053
 20
374.8778685219
 30
0.0
 10
80.6589087338
 20
374.2658254215
 30
0.0
 10
80.659747456
 20
373.6536929136
 30
0.0
 10
80.7117667842
 20
373.2134649263
 30
0.0
 10
80.7685566422
 20
373.0290115321
 30
0.0
 10
80.8094855267
 20
372.9545762246
 30
0.0
  0
LINE
  5
2E7
330
1B
100
AcDbEntity
 67
     1
  8
7_ALL_FEATURES
  6
Continuous
 62
     7
100
AcDbLine
 10
80.6542668938
 20
370.5148165931
 30
0.0
 11
80.6542668938
 21
370.6648165931
 31
0.0
  0
LINE
  5
2E8
330
1B
100
AcDbEntity
 67
     1
  8
7_ALL_FEATURES
  6
Continuous
 62
     7
100
AcDbLine
 10
80.6542668938
 20
378.0148165931
 30
0.0
 11
80.6542668938
 21
377.8648165931
 31
0.0
  0
LINE
  5
2E9
330
1B
100
AcDbEntity
 67
     1
  8
7_ALL_FEATURES
  6
Continuous
 62
     7
100
AcDbLine
 10
80.6542668938
 20
482.5148165931
 30
0.0
 11
80.6542668938
 21
482.6648165931
 31
0.0
  0
LINE
  5
2EA
330
1B
100
AcDbEntity
 67
     1
  8
7_ALL_FEATURES
  6
Continuous
 62
     7
100
AcDbLine
 10
79.1542668938
 20
488.7148165931
 30
0.0
 11
79.1542668938
 21
483.8148165931
 31
0.0
  0
SPLINE
  5
2EB
330
1B
100
AcDbEntity
 67
     1
  8
7_ALL_FEATURES
  6
Continuous
 62
     7
100
AcDbSpline
 70
     0
 71
     3
 72
    19
 73
    15
 74
     0
 42
0.000000001
 43
0.0000001
 40
0.0
 40
0.0
 40
0.0
 40
0.0
 40
0.10680027
 40
0.2311432716
 40
0.2972343935
 40
0.3644941901
 40
0.4322338957
 40
0.5000884296
 40
0.5678638715
 40
0.6355750913
 40
0.7028164446
 40
0.768890529
 40
0.8932095981
 40
1.0
 40
1.0
 40
1.0
 40
1.0
 10
80.0329465502
 20
484.7648165931
 30
0.0
 10
80.2184227201
 20
484.7648165931
 30
0.0
 10
80.6190404527
 20
484.8465055197
 30
0.0
 10
81.0889885121
 20
485.071751294
 30
0.0
 10
81.4469545017
 20
485.3431430452
 30
0.0
 10
81.6859341302
 20
485.6008564764
 30
0.0
 10
81.8626519025
 20
485.910545933
 30
0.0
 10
81.9329630947
 20
486.2651544004
 30
0.0
 10
81.8622662953
 20
486.619570314
 30
0.0
 10
81.6857419724
 20
486.9291028709
 30
0.0
 10
81.4467273663
 20
487.1866457249
 30
0.0
 10
81.0888536972
 20
487.4579720981
 30
0.0
 10
80.6189606172
 20
487.6831388464
 30
0.0
 10
80.2184055826
 20
487.7648165931
 30
0.0
 10
80.0329465502
 20
487.7648165931
 30
0.0
  0
LINE
  5
2EC
330
1B
100
AcDbEntity
 67
     1
  8
7_ALL_FEATURES
  6
Continuous
 62
     7
100
AcDbLine
 10
80.6542668938
 20
377.8648165931
 30
0.0
 11
80.6542668938
 21
377.7648165931
 31
0.0
  0
SPLINE
  5
2ED
330
1B
100
AcDbEntity
 67
     1
  8
7_ALL_FEATURES
  6
Continuous
 62
     7
100
AcDbSpline
 70
     0
 71
     3
 72
    13
 73
     9
 74
     0
 42
0.000000001
 43
0.0000001
 40
0.0
 40
0.0
 40
0.0
 40
0.0
 40
0.0957628996
 40
0.2141149816
 40
0.4998099785
 40
0.7856384736
 40
0.9041087766
 40
1.0
 40
1.0
 40
1.0
 40
1.0
 10
80.8100938597
 20
487.5761604411
 30
0.0
 10
80.7690568201
 20
487.5019145643
 30
0.0
 10
80.7120662577
 20
487.3177303064
 30
0.0
 10
80.6597972053
 20
486.8778685219
 30
0.0
 10
80.6589087338
 20
486.2658254215
 30
0.0
 10
80.659747456
 20
485.6536929136
 30
0.0
 10
80.7117667842
 20
485.2134649263
 30
0.0
 10
80.7685566422
 20
485.0290115321
 30
0.0
 10
80.8094855267
 20
484.9545762246
 30
0.0
  0
LINE
  5
2EE
330
1B
100
AcDbEntity
 67
     1
  8
7_ALL_FEATURES
  6
Continuous
 62
     7
100
AcDbLine
 10
82.1542668938
 20
370.7648165931
 30
0.0
 11
80.6542668938
 21
370.7648165931
 31
0.0
  0
LINE
  5
2EF
330
1B
100
AcDbEntity
 67
     1
  8
7_ALL_FEATURES
  6
Continuous
 62
     7
100
AcDbLine
 10
80.6542668938
 20
370.7648165931
 30
0.0
 11
79.5571107752
 21
370.7648165931
 31
0.0
  0
LINE
  5
2F0
330
1B
100
AcDbEntity
 67
     1
  8
7_ALL_FEATURES
  6
Continuous
 62
     7
100
AcDbLine
 10
79.5571107752
 20
370.7648165931
 30
0.0
 11
79.1542668938
 21
370.7648165931
 31
0.0
  0
LINE
  5
2F1
330
1B
100
AcDbEntity
 67
     1
  8
7_ALL_FEATURES
  6
Continuous
 62
     7
100
AcDbLine
 10
139.1542668938
 20
370.7648165931
 30
0.0
 11
138.7514703185
 21
370.7648165931
 31
0.0
  0
LINE
  5
2F2
330
1B
100
AcDbEntity
 67
     1
  8
7_ALL_FEATURES
  6
Continuous
 62
     7
100
AcDbLine
 10
138.7514703185
 20
370.7648165931
 30
0.0
 11
137.6558354222
 21
370.7648165931
 31
0.0
  0
LINE
  5
2F3
330
1B
100
AcDbEntity
 67
     1
  8
7_ALL_FEATURES
  6
Continuous
 62
     7
100
AcDbLine
 10
137.6558354222
 20
370.7648165931
 30
0.0
 11
136.1542668938
 21
370.7648165931
 31
0.0
  0
SPLINE
  5
2F4
330
1B
100
AcDbEntity
 67
     1
  8
7_ALL_FEATURES
  6
Continuous
 62
     7
100
AcDbSpline
 70
     0
 71
     3
 72
    19
 73
    15
 74
     0
 42
0.000000001
 43
0.0000001
 40
0.0
 40
0.0
 40
0.0
 40
0.0
 40
0.10680027
 40
0.2311432716
 40
0.2972343935
 40
0.3644941901
 40
0.4322338957
 40
0.5000884296
 40
0.5678638715
 40
0.6355750913
 40
0.7028164446
 40
0.768890529
 40
0.8932095981
 40
1.0
 40
1.0
 40
1.0
 40
1.0
 10
138.2755872373
 20
375.7648165931
 30
0.0
 10
138.0901110674
 20
375.7648165931
 30
0.0
 10
137.6894933348
 20
375.6831276665
 30
0.0
 10
137.2195452755
 20
375.4578818922
 30
0.0
 10
136.8615792858
 20
375.186490141
 30
0.0
 10
136.6225996574
 20
374.9287767098
 30
0.0
 10
136.445881885
 20
374.6190872532
 30
0.0
 10
136.3755706929
 20
374.2644787857
 30
0.0
 10
136.4462674922
 20
373.9100628721
 30
0.0
 10
136.6227918151
 20
373.6005303152
 30
0.0
 10
136.8618064212
 20
373.3429874612
 30
0.0
 10
137.2196800903
 20
373.0716610881
 30
0.0
 10
137.6895731703
 20
372.8464943398
 30
0.0
 10
138.0901282049
 20
372.7648165931
 30
0.0
 10
138.2755872373
 20
372.7648165931
 30
0.0
  0
LINE
  5
2F5
330
1B
100
AcDbEntity
 67
     1
  8
7_ALL_FEATURES
  6
Continuous
 62
     7
100
AcDbLine
 10
139.1542668938
 20
371.8148165931
 30
0.0
 11
139.1542668938
 21
376.7148165931
 31
0.0
  0
SPLINE
  5
2F6
330
1B
100
AcDbEntity
 67
     1
  8
7_ALL_FEATURES
  6
Continuous
 62
     7
100
AcDbSpline
 70
     0
 71
     3
 72
    13
 73
     9
 74
     0
 42
0.000000001
 43
0.0000001
 40
0.0
 40
0.0
 40
0.0
 40
0.0
 40
0.0957628996
 40
0.2141149816
 40
0.4998099785
 40
0.7856384736
 40
0.9041087766
 40
1.0
 40
1.0
 40
1.0
 40
1.0
 10
137.4984399278
 20
372.9534727451
 30
0.0
 10
137.5394769675
 20
373.0277186219
 30
0.0
 10
137.5964675298
 20
373.2119028798
 30
0.0
 10
137.6487365823
 20
373.6517646643
 30
0.0
 10
137.6496250538
 20
374.2638077647
 30
0.0
 10
137.6487863315
 20
374.8759402726
 30
0.0
 10
137.5967670034
 20
375.3161682599
 30
0.0
 10
137.5399771453
 20
375.5006216541
 30
0.0
 10
137.4990482608
 20
375.5750569615
 30
0.0
  0
LINE
  5
2F7
330
1B
100
AcDbEntity
 67
     1
  8
7_ALL_FEATURES
  6
Continuous
 62
     7
100
AcDbLine
 10
137.6542668938
 20
378.0148165931
 30
0.0
 11
137.6542668938
 21
377.8648165931
 31
0.0
  0
LINE
  5
2F8
330
1B
100
AcDbEntity
 67
     1
  8
7_ALL_FEATURES
  6
Continuous
 62
     7
100
AcDbLine
 10
137.6542668938
 20
370.5148165931
 30
0.0
 11
137.6542668938
 21
370.6648165931
 31
0.0
  0
LINE
  5
2F9
330
1B
100
AcDbEntity
 67
     1
  8
7_ALL_FEATURES
  6
Continuous
 62
     7
100
AcDbLine
 10
137.6542668938
 20
370.6648165931
 30
0.0
 11
137.6542668938
 21
370.7648165931
 31
0.0
  0
LINE
  5
2FA
330
1B
100
AcDbEntity
 67
     1
  8
7_ALL_FEATURES
  6
Continuous
 62
     7
100
AcDbLine
 10
138.6542668938
 20
504.0148165931
 30
0.0
 11
79.6542668938
 21
504.0148165931
 31
0.0
  0
ARC
  5
2FB
330
1B
100
AcDbEntity
 67
     1
  8
7_ALL_FEATURES
  6
Continuous
 62
     7
100
AcDbCircle
 10
138.6542668938
 20
503.5148165931
 30
0.0
 40
0.5
100
AcDbArc
 50
0.0
 51
90.0
  0
LINE
  5
2FC
330
1B
100
AcDbEntity
 67
     1
  8
7_ALL_FEATURES
  6
Continuous
 62
     7
100
AcDbLine
 10
139.1542668938
 20
492.5148165931
 30
0.0
 11
139.1542668938
 21
503.5148165931
 31
0.0
  0
ARC
  5
2FD
330
1B
100
AcDbEntity
 67
     1
  8
7_ALL_FEATURES
  6
Continuous
 62
     7
100
AcDbCircle
 10
138.6542668938
 20
492.5148165931
 30
0.0
 40
0.5
100
AcDbArc
 50
270.0
 51
360.0
  0
LINE
  5
2FE
330
1B
100
AcDbEntity
 67
     1
  8
7_ALL_FEATURES
  6
Continuous
 62
     7
100
AcDbLine
 10
136.6542668938
 20
492.0148165931
 30
0.0
 11
138.6542668938
 21
492.0148165931
 31
0.0
  0
ARC
  5
2FF
330
1B
100
AcDbEntity
 67
     1
  8
7_ALL_FEATURES
  6
Continuous
 62
     7
100
AcDbCircle
 10
136.6542668938
 20
491.5148165931
 30
0.0
 40
0.5
100
AcDbArc
 50
90.0
 51
180.0
  0
LINE
  5
300
330
1B
100
AcDbEntity
 67
     1
  8
7_ALL_FEATURES
  6
Continuous
 62
     7
100
AcDbLine
 10
136.1542668938
 20
489.7648165931
 30
0.0
 11
136.1542668938
 21
491.5148165931
 31
0.0
  0
LINE
  5
301
330
1B
100
AcDbEntity
 67
     1
  8
7_ALL_FEATURES
  6
Continuous
 62
     7
100
AcDbLine
 10
136.1542668938
 20
481.0148165931
 30
0.0
 11
136.1542668938
 21
482.7648165931
 31
0.0
  0
ARC
  5
302
330
1B
100
AcDbEntity
 67
     1
  8
7_ALL_FEATURES
  6
Continuous
 62
     7
100
AcDbCircle
 10
136.6542668938
 20
481.0148165931
 30
0.0
 40
0.5
100
AcDbArc
 50
180.0
 51
270.0
  0
LINE
  5
303
330
1B
100
AcDbEntity
 67
     1
  8
7_ALL_FEATURES
  6
Continuous
 62
     7
100
AcDbLine
 10
138.6542668938
 20
480.5148165931
 30
0.0
 11
136.6542668938
 21
480.5148165931
 31
0.0
  0
ARC
  5
304
330
1B
100
AcDbEntity
 67
     1
  8
7_ALL_FEATURES
  6
Continuous
 62
     7
100
AcDbCircle
 10
138.6542668938
 20
480.0148165931
 30
0.0
 40
0.5
100
AcDbArc
 50
0.0
 51
90.0
  0
LINE
  5
305
330
1B
100
AcDbEntity
 67
     1
  8
7_ALL_FEATURES
  6
Continuous
 62
     7
100
AcDbLine
 10
139.1542668938
 20
380.5148165931
 30
0.0
 11
139.1542668938
 21
480.0148165931
 31
0.0
  0
ARC
  5
306
330
1B
100
AcDbEntity
 67
     1
  8
7_ALL_FEATURES
  6
Continuous
 62
     7
100
AcDbCircle
 10
138.6542668938
 20
380.5148165931
 30
0.0
 40
0.5
100
AcDbArc
 50
270.0
 51
360.0
  0
LINE
  5
307
330
1B
100
AcDbEntity
 67
     1
  8
7_ALL_FEATURES
  6
Continuous
 62
     7
100
AcDbLine
 10
136.6542668938
 20
380.0148165931
 30
0.0
 11
138.6542668938
 21
380.0148165931
 31
0.0
  0
ARC
  5
308
330
1B
100
AcDbEntity
 67
     1
  8
7_ALL_FEATURES
  6
Continuous
 62
     7
100
AcDbCircle
 10
136.6542668938
 20
379.5148165931
 30
0.0
 40
0.5
100
AcDbArc
 50
90.0
 51
180.0
  0
LINE
  5
309
330
1B
100
AcDbEntity
 67
     1
  8
7_ALL_FEATURES
  6
Continuous
 62
     7
100
AcDbLine
 10
136.1542668938
 20
377.7648165931
 30
0.0
 11
136.1542668938
 21
379.5148165931
 31
0.0
  0
LINE
  5
30A
330
1B
100
AcDbEntity
 67
     1
  8
7_ALL_FEATURES
  6
Continuous
 62
     7
100
AcDbLine
 10
136.1542668938
 20
369.0148165931
 30
0.0
 11
136.1542668938
 21
370.7648165931
 31
0.0
  0
ARC
  5
30B
330
1B
100
AcDbEntity
 67
     1
  8
7_ALL_FEATURES
  6
Continuous
 62
     7
100
AcDbCircle
 10
136.6542668938
 20
369.0148165931
 30
0.0
 40
0.5
100
AcDbArc
 50
180.0
 51
270.0
  0
LINE
  5
30C
330
1B
100
AcDbEntity
 67
     1
  8
7_ALL_FEATURES
  6
Continuous
 62
     7
100
AcDbLine
 10
138.6542668938
 20
368.5148165931
 30
0.0
 11
136.6542668938
 21
368.5148165931
 31
0.0
  0
ARC
  5
30D
330
1B
100
AcDbEntity
 67
     1
  8
7_ALL_FEATURES
  6
Continuous
 62
     7
100
AcDbCircle
 10
138.6542668938
 20
368.0148165931
 30
0.0
 40
0.5
100
AcDbArc
 50
0.0
 51
90.0
  0
LINE
  5
30E
330
1B
100
AcDbEntity
 67
     1
  8
7_ALL_FEATURES
  6
Continuous
 62
     7
100
AcDbLine
 10
139.1542668938
 20
356.0148165931
 30
0.0
 11
139.1542668938
 21
368.0148165931
 31
0.0
  0
ARC
  5
30F
330
1B
100
AcDbEntity
 67
     1
  8
7_ALL_FEATURES
  6
Continuous
 62
     7
100
AcDbCircle
 10
137.1542668938
 20
356.0148165931
 30
0.0
 40
2.0
100
AcDbArc
 50
270.0
 51
360.0
  0
LINE
  5
310
330
1B
100
AcDbEntity
 67
     1
  8
7_ALL_FEATURES
  6
Continuous
 62
     7
100
AcDbLine
 10
81.1542668938
 20
354.0148165931
 30
0.0
 11
137.1542668938
 21
354.0148165931
 31
0.0
  0
ARC
  5
311
330
1B
100
AcDbEntity
 67
     1
  8
7_ALL_FEATURES
  6
Continuous
 62
     7
100
AcDbCircle
 10
81.1542668938
 20
356.0148165931
 30
0.0
 40
2.0
100
AcDbArc
 50
180.0
 51
270.0
  0
LINE
  5
312
330
1B
100
AcDbEntity
 67
     1
  8
7_ALL_FEATURES
  6
Continuous
 62
     7
100
AcDbLine
 10
79.1542668938
 20
368.0148165931
 30
0.0
 11
79.1542668938
 21
356.0148165931
 31
0.0
  0
ARC
  5
313
330
1B
100
AcDbEntity
 67
     1
  8
7_ALL_FEATURES
  6
Continuous
 62
     7
100
AcDbCircle
 10
79.6542668938
 20
368.0148165931
 30
0.0
 40
0.5
100
AcDbArc
 50
90.0
 51
180.0
  0
LINE
  5
314
330
1B
100
AcDbEntity
 67
     1
  8
7_ALL_FEATURES
  6
Continuous
 62
     7
100
AcDbLine
 10
81.6542668938
 20
368.5148165931
 30
0.0
 11
79.6542668938
 21
368.5148165931
 31
0.0
  0
ARC
  5
315
330
1B
100
AcDbEntity
 67
     1
  8
7_ALL_FEATURES
  6
Continuous
 62
     7
100
AcDbCircle
 10
81.6542668938
 20
369.0148165931
 30
0.0
 40
0.5
100
AcDbArc
 50
270.0
 51
360.0
  0
LINE
  5
316
330
1B
100
AcDbEntity
 67
     1
  8
7_ALL_FEATURES
  6
Continuous
 62
     7
100
AcDbLine
 10
82.1542668938
 20
370.7648165931
 30
0.0
 11
82.1542668938
 21
369.0148165931
 31
0.0
  0
LINE
  5
317
330
1B
100
AcDbEntity
 67
     1
  8
7_ALL_FEATURES
  6
Continuous
 62
     7
100
AcDbLine
 10
82.1542668938
 20
379.5148165931
 30
0.0
 11
82.1542668938
 21
377.7648165931
 31
0.0
  0
ARC
  5
318
330
1B
100
AcDbEntity
 67
     1
  8
7_ALL_FEATURES
  6
Continuous
 62
     7
100
AcDbCircle
 10
81.6542668938
 20
379.5148165931
 30
0.0
 40
0.5
100
AcDbArc
 50
0.0
 51
90.0
  0
LINE
  5
319
330
1B
100
AcDbEntity
 67
     1
  8
7_ALL_FEATURES
  6
Continuous
 62
     7
100
AcDbLine
 10
79.6542668938
 20
380.0148165931
 30
0.0
 11
81.6542668938
 21
380.0148165931
 31
0.0
  0
ARC
  5
31A
330
1B
100
AcDbEntity
 67
     1
  8
7_ALL_FEATURES
  6
Continuous
 62
     7
100
AcDbCircle
 10
79.6542668938
 20
380.5148165931
 30
0.0
 40
0.5
100
AcDbArc
 50
180.0
 51
270.0
  0
LINE
  5
31B
330
1B
100
AcDbEntity
 67
     1
  8
7_ALL_FEATURES
  6
Continuous
 62
     7
100
AcDbLine
 10
79.1542668938
 20
480.0148165931
 30
0.0
 11
79.1542668938
 21
380.5148165931
 31
0.0
  0
ARC
  5
31C
330
1B
100
AcDbEntity
 67
     1
  8
7_ALL_FEATURES
  6
Continuous
 62
     7
100
AcDbCircle
 10
79.6542668938
 20
480.0148165931
 30
0.0
 40
0.5
100
AcDbArc
 50
90.0
 51
180.0
  0
LINE
  5
31D
330
1B
100
AcDbEntity
 67
     1
  8
7_ALL_FEATURES
  6
Continuous
 62
     7
100
AcDbLine
 10
81.6542668938
 20
480.5148165931
 30
0.0
 11
79.6542668938
 21
480.5148165931
 31
0.0
  0
ARC
  5
31E
330
1B
100
AcDbEntity
 67
     1
  8
7_ALL_FEATURES
  6
Continuous
 62
     7
100
AcDbCircle
 10
81.6542668938
 20
481.0148165931
 30
0.0
 40
0.5
100
AcDbArc
 50
270.0
 51
360.0
  0
LINE
  5
31F
330
1B
100
AcDbEntity
 67
     1
  8
7_ALL_FEATURES
  6
Continuous
 62
     7
100
AcDbLine
 10
82.1542668938
 20
482.7648165931
 30
0.0
 11
82.1542668938
 21
481.0148165931
 31
0.0
  0
LINE
  5
320
330
1B
100
AcDbEntity
 67
     1
  8
7_ALL_FEATURES
  6
Continuous
 62
     7
100
AcDbLine
 10
82.1542668938
 20
491.5148165931
 30
0.0
 11
82.1542668938
 21
489.7648165931
 31
0.0
  0
ARC
  5
321
330
1B
100
AcDbEntity
 67
     1
  8
7_ALL_FEATURES
  6
Continuous
 62
     7
100
AcDbCircle
 10
81.6542668938
 20
491.5148165931
 30
0.0
 40
0.5
100
AcDbArc
 50
0.0
 51
90.0
  0
LINE
  5
322
330
1B
100
AcDbEntity
 67
     1
  8
7_ALL_FEATURES
  6
Continuous
 62
     7
100
AcDbLine
 10
79.6542668938
 20
492.0148165931
 30
0.0
 11
81.6542668938
 21
492.0148165931
 31
0.0
  0
ARC
  5
323
330
1B
100
AcDbEntity
 67
     1
  8
7_ALL_FEATURES
  6
Continuous
 62
     7
100
AcDbCircle
 10
79.6542668938
 20
492.5148165931
 30
0.0
 40
0.5
100
AcDbArc
 50
180.0
 51
270.0
  0
LINE
  5
324
330
1B
100
AcDbEntity
 67
     1
  8
7_ALL_FEATURES
  6
Continuous
 62
     7
100
AcDbLine
 10
79.1542668938
 20
503.5148165931
 30
0.0
 11
79.1542668938
 21
492.5148165931
 31
0.0
  0
ARC
  5
325
330
1B
100
AcDbEntity
 67
     1
  8
7_ALL_FEATURES
  6
Continuous
 62
     7
100
AcDbCircle
 10
79.6542668938
 20
503.5148165931
 30
0.0
 40
0.5
100
AcDbArc
 50
90.0
 51
180.0
  0
ARC
  5
326
330
1B
100
AcDbEntity
 67
     1
  8
02___PRT_ALL_AXES
  6
Continuous
 62
     7
100
AcDbCircle
 10
109.1542668938
 20
379.2853288929
 30
0.0
 40
15.5
100
AcDbArc
 50
1.0
 51
179.0
  0
LINE
  5
327
330
1B
100
AcDbEntity
 67
     1
  8
02___PRT_ALL_AXES
  6
Continuous
 62
     7
100
AcDbLine
 10
125.6517538639
 20
379.5732935991
 30
0.0
 11
124.6519061687
 21
379.5558411926
 31
0.0
  0
ARC
  5
328
330
1B
100
AcDbEntity
 67
     1
  8
02___PRT_ALL_AXES
  6
Continuous
 62
     7
100
AcDbCircle
 10
109.1542668938
 20
379.2853288929
 30
0.0
 40
16.5
100
AcDbArc
 50
1.0
 51
179.0
  0
LINE
  5
329
330
1B
100
AcDbEntity
 67
     1
  8
02___PRT_ALL_AXES
  6
Continuous
 62
     7
100
AcDbLine
 10
93.6566276188
 20
379.5558411926
 30
0.0
 11
92.6567799237
 21
379.5732935991
 31
0.0
  0
LINE
  5
32A
330
1B
100
AcDbEntity
 67
     1
  8
02___PRT_ALL_AXES
  6
Continuous
 62
     7
100
AcDbLine
 10
124.6519061687
 20
379.0148165931
 30
0.0
 11
125.6517538639
 21
378.9973641867
 31
0.0
  0
ARC
  5
32B
330
1B
100
AcDbEntity
 67
     1
  8
02___PRT_ALL_AXES
  6
Continuous
 62
     7
100
AcDbCircle
 10
109.1542668938
 20
379.2853288929
 30
0.0
 40
15.5
100
AcDbArc
 50
181.0
 51
358.9999999999999
  0
LINE
  5
32C
330
1B
100
AcDbEntity
 67
     1
  8
02___PRT_ALL_AXES
  6
Continuous
 62
     7
100
AcDbLine
 10
92.6567799237
 20
378.9973641867
 30
0.0
 11
93.6566276188
 21
379.0148165931
 31
0.0
  0
ARC
  5
32D
330
1B
100
AcDbEntity
 67
     1
  8
02___PRT_ALL_AXES
  6
Continuous
 62
     7
100
AcDbCircle
 10
109.1542668938
 20
379.2853288929
 30
0.0
 40
16.5
100
AcDbArc
 50
181.0
 51
358.9999999999999
  0
LINE
  5
32E
330
1B
100
AcDbEntity
 67
     1
  8
7_ALL_FEATURES
  6
Continuous
 62
     7
100
AcDbLine
 10
136.1542668938
 20
377.7648165931
 30
0.0
 11
137.6542668938
 21
377.7648165931
 31
0.0
  0
LINE
  5
32F
330
1B
100
AcDbEntity
 67
     1
  8
7_ALL_FEATURES
  6
Continuous
 62
     7
100
AcDbLine
 10
137.6542668938
 20
377.7648165931
 30
0.0
 11
138.7514230123
 21
377.7648165931
 31
0.0
  0
LINE
  5
330
330
1B
100
AcDbEntity
 67
     1
  8
7_ALL_FEATURES
  6
Continuous
 62
     7
100
AcDbLine
 10
138.7514230123
 20
377.7648165931
 30
0.0
 11
139.1542668938
 21
377.7648165931
 31
0.0
  0
SPLINE
  5
331
330
1B
100
AcDbEntity
 67
     1
  8
7_ALL_FEATURES
  6
Continuous
 62
     7
100
AcDbSpline
 70
     0
 71
     3
 72
    19
 73
    15
 74
     0
 42
0.000000001
 43
0.0000001
 40
0.0
 40
0.0
 40
0.0
 40
0.0
 40
0.10680027
 40
0.2311432716
 40
0.2972343935
 40
0.3644941901
 40
0.4322338957
 40
0.5000884296
 40
0.5678638715
 40
0.6355750913
 40
0.7028164446
 40
0.768890529
 40
0.8932095981
 40
1.0
 40
1.0
 40
1.0
 40
1.0
 10
138.2755872373
 20
487.7648165931
 30
0.0
 10
138.0901110675
 20
487.7648165931
 30
0.0
 10
137.6894933348
 20
487.6831276665
 30
0.0
 10
137.2195452755
 20
487.4578818922
 30
0.0
 10
136.8615792858
 20
487.186490141
 30
0.0
 10
136.6225996574
 20
486.9287767098
 30
0.0
 10
136.445881885
 20
486.6190872532
 30
0.0
 10
136.3755706929
 20
486.2644787857
 30
0.0
 10
136.4462674922
 20
485.9100628721
 30
0.0
 10
136.6227918151
 20
485.6005303152
 30
0.0
 10
136.8618064212
 20
485.3429874612
 30
0.0
 10
137.2196800903
 20
485.0716610881
 30
0.0
 10
137.6895731704
 20
484.8464943398
 30
0.0
 10
138.0901282049
 20
484.7648165931
 30
0.0
 10
138.2755872373
 20
484.7648165931
 30
0.0
  0
LINE
  5
332
330
1B
100
AcDbEntity
 67
     1
  8
7_ALL_FEATURES
  6
Continuous
 62
     7
100
AcDbLine
 10
139.1542668938
 20
483.8148165931
 30
0.0
 11
139.1542668938
 21
488.7148165931
 31
0.0
  0
LINE
  5
333
330
1B
100
AcDbEntity
 67
     1
  8
7_ALL_FEATURES
  6
Continuous
 62
     7
100
AcDbLine
 10
136.1542668938
 20
489.7648165931
 30
0.0
 11
137.6542668938
 21
489.7648165931
 31
0.0
  0
LINE
  5
334
330
1B
100
AcDbEntity
 67
     1
  8
7_ALL_FEATURES
  6
Continuous
 62
     7
100
AcDbLine
 10
137.6542668938
 20
489.7648165931
 30
0.0
 11
138.7514230123
 21
489.7648165931
 31
0.0
  0
LINE
  5
335
330
1B
100
AcDbEntity
 67
     1
  8
7_ALL_FEATURES
  6
Continuous
 62
     7
100
AcDbLine
 10
138.7514230123
 20
489.7648165931
 30
0.0
 11
139.1542668938
 21
489.7648165931
 31
0.0
  0
SPLINE
  5
336
330
1B
100
AcDbEntity
 67
     1
  8
7_ALL_FEATURES
  6
Continuous
 62
     7
100
AcDbSpline
 70
     0
 71
     3
 72
    13
 73
     9
 74
     0
 42
0.000000001
 43
0.0000001
 40
0.0
 40
0.0
 40
0.0
 40
0.0
 40
0.0957628996
 40
0.2141149816
 40
0.4998099785
 40
0.7856384736
 40
0.9041087766
 40
1.0
 40
1.0
 40
1.0
 40
1.0
 10
137.4984399278
 20
484.9534727451
 30
0.0
 10
137.5394769675
 20
485.0277186219
 30
0.0
 10
137.5964675299
 20
485.2119028798
 30
0.0
 10
137.6487365823
 20
485.6517646643
 30
0.0
 10
137.6496250538
 20
486.2638077647
 30
0.0
 10
137.6487863315
 20
486.8759402726
 30
0.0
 10
137.5967670034
 20
487.3161682599
 30
0.0
 10
137.5399771453
 20
487.5006216541
 30
0.0
 10
137.4990482608
 20
487.5750569615
 30
0.0
  0
LINE
  5
337
330
1B
100
AcDbEntity
 67
     1
  8
7_ALL_FEATURES
  6
Continuous
 62
     7
100
AcDbLine
 10
139.1542668938
 20
482.7648165931
 30
0.0
 11
138.7514703185
 21
482.7648165931
 31
0.0
  0
LINE
  5
338
330
1B
100
AcDbEntity
 67
     1
  8
7_ALL_FEATURES
  6
Continuous
 62
     7
100
AcDbLine
 10
138.7514703185
 20
482.7648165931
 30
0.0
 11
137.6558354222
 21
482.7648165931
 31
0.0
  0
LINE
  5
339
330
1B
100
AcDbEntity
 67
     1
  8
7_ALL_FEATURES
  6
Continuous
 62
     7
100
AcDbLine
 10
137.6558354222
 20
482.7648165931
 30
0.0
 11
136.1542668938
 21
482.7648165931
 31
0.0
  0
LINE
  5
33A
330
1B
100
AcDbEntity
 67
     1
  8
7_ALL_FEATURES
  6
Continuous
 62
     7
100
AcDbLine
 10
137.6542668938
 20
490.0148165931
 30
0.0
 11
137.6542668938
 21
489.8648165931
 31
0.0
  0
LINE
  5
33B
330
1B
100
AcDbEntity
 67
     1
  8
7_ALL_FEATURES
  6
Continuous
 62
     7
100
AcDbLine
 10
137.6542668938
 20
482.6648165931
 30
0.0
 11
137.6542668938
 21
482.7648165931
 31
0.0
  0
LINE
  5
33C
330
1B
100
AcDbEntity
 67
     1
  8
7_ALL_FEATURES
  6
Continuous
 62
     7
100
AcDbLine
 10
137.6542668938
 20
482.5148165931
 30
0.0
 11
137.6542668938
 21
482.6648165931
 31
0.0
  0
SPLINE
  5
33D
330
1B
100
AcDbEntity
 67
     1
  8
7_ALL_FEATURES
  6
Continuous
 62
     7
100
AcDbSpline
 70
     0
 71
     3
 72
    19
 73
    15
 74
     0
 42
0.000000001
 43
0.0000001
 40
0.0
 40
0.0
 40
0.0
 40
0.0
 40
0.1115800455
 40
0.1612469214
 40
0.2119140142
 40
0.2684330085
 40
0.3347171055
 40
0.5001133953
 40
0.6653569658
 40
0.7316105202
 40
0.7881115448
 40
0.8387686225
 40
0.8884282745
 40
1.0
 40
1.0
 40
1.0
 40
1.0
 10
80.0329465502
 20
487.7648165931
 30
0.0
 10
79.8851061812
 20
487.7648165931
 30
0.0
 10
79.6626662396
 20
487.7270371218
 30
0.0
 10
79.432248698
 20
487.5589317439
 30
0.0
 10
79.3096125324
 20
487.3871932791
 30
0.0
 10
79.2301443877
 20
487.1694374646
 30
0.0
 10
79.1673956822
 20
486.7915225388
 30
0.0
 10
79.1619979745
 20
486.2645677208
 30
0.0
 10
79.1674527832
 20
485.7376522937
 30
0.0
 10
79.2302033544
 20
485.3600110759
 30
0.0
 10
79.3096523592
 20
485.1423290608
 30
0.0
 10
79.4323019736
 20
484.9706577607
 30
0.0
 10
79.6626997254
 20
484.8025914073
 30
0.0
 10
79.885117205
 20
484.7648165931
 30
0.0
 10
80.0329465502
 20
484.7648165931
 30
0.0
  0
LINE
  5
33E
330
1B
100
AcDbEntity
 67
     1
  8
7_ALL_FEATURES
  6
Continuous
 62
     9
100
AcDbLine
 10
82.1542668938
 20
370.7648165931
 30
0.0
 11
82.1542668938
 21
377.7648165931
 31
0.0
  0
LINE
  5
33F
330
1B
100
AcDbEntity
 67
     1
  8
7_ALL_FEATURES
  6
Continuous
 62
     9
100
AcDbLine
 10
137.6542668938
 20
482.6648165931
 30
0.0
 11
138.9542668938
 21
482.6648165931
 31
0.0
  0
LINE
  5
340
330
1B
100
AcDbEntity
 67
     1
  8
7_ALL_FEATURES
  6
Continuous
 62
     9
100
AcDbLine
 10
138.9542668938
 20
482.6648165931
 30
0.0
 11
139.1542668938
 21
482.6648165931
 31
0.0
  0
LINE
  5
341
330
1B
100
AcDbEntity
 67
     1
  8
7_ALL_FEATURES
  6
Continuous
 62
     9
100
AcDbLine
 10
137.6542668938
 20
370.6648165931
 30
0.0
 11
138.9542668938
 21
370.6648165931
 31
0.0
  0
LINE
  5
342
330
1B
100
AcDbEntity
 67
     1
  8
7_ALL_FEATURES
  6
Continuous
 62
     9
100
AcDbLine
 10
138.9542668938
 20
370.6648165931
 30
0.0
 11
139.1542668938
 21
370.6648165931
 31
0.0
  0
LINE
  5
343
330
1B
100
AcDbEntity
 67
     1
  8
7_ALL_FEATURES
  6
Continuous
 62
     9
100
AcDbLine
 10
80.6542668938
 20
377.8648165931
 30
0.0
 11
79.3542668938
 21
377.8648165931
 31
0.0
  0
LINE
  5
344
330
1B
100
AcDbEntity
 67
     1
  8
7_ALL_FEATURES
  6
Continuous
 62
     9
100
AcDbLine
 10
79.3542668938
 20
377.8648165931
 30
0.0
 11
79.1542668938
 21
377.8648165931
 31
0.0
  0
LINE
  5
345
330
1B
100
AcDbEntity
 67
     1
  8
7_ALL_FEATURES
  6
Continuous
 62
     9
100
AcDbLine
 10
136.1542668938
 20
377.7648165931
 30
0.0
 11
136.1542668938
 21
370.7648165931
 31
0.0
  0
SPLINE
  5
346
330
1B
100
AcDbEntity
 67
     1
  8
7_ALL_FEATURES
  6
Continuous
 62
     7
100
AcDbSpline
 70
     0
 71
     3
 72
    19
 73
    15
 74
     0
 42
0.000000001
 43
0.0000001
 40
0.0
 40
0.0
 40
0.0
 40
0.0
 40
0.1115800455
 40
0.1612469214
 40
0.2119140142
 40
0.2684330085
 40
0.3347171055
 40
0.5001133953
 40
0.6653569658
 40
0.7316105202
 40
0.7881115448
 40
0.8387686225
 40
0.8884282745
 40
1.0
 40
1.0
 40
1.0
 40
1.0
 10
138.2755872373
 20
372.7648165931
 30
0.0
 10
138.4234276063
 20
372.7648165931
 30
0.0
 10
138.6458675479
 20
372.8025960644
 30
0.0
 10
138.8762850896
 20
372.9707014423
 30
0.0
 10
138.9989212552
 20
373.1424399071
 30
0.0
 10
139.0783893999
 20
373.3601957216
 30
0.0
 10
139.1411381053
 20
373.7381106474
 30
0.0
 10
139.146535813
 20
374.2650654654
 30
0.0
 10
139.1410810043
 20
374.7919808924
 30
0.0
 10
139.0783304331
 20
375.1696221102
 30
0.0
 10
138.9988814283
 20
375.3873041254
 30
0.0
 10
138.8762318139
 20
375.5589754255
 30
0.0
 10
138.6458340621
 20
375.7270417789
 30
0.0
 10
138.4234165826
 20
375.7648165931
 30
0.0
 10
138.2755872373
 20
375.7648165931
 30
0.0
  0
LINE
  5
347
330
1B
100
AcDbEntity
 67
     1
  8
7_ALL_FEATURES
  6
Continuous
 62
     9
100
AcDbLine
 10
139.1542668938
 20
489.8648165931
 30
0.0
 11
138.9542668938
 21
489.8648165931
 31
0.0
  0
LINE
  5
348
330
1B
100
AcDbEntity
 67
     1
  8
7_ALL_FEATURES
  6
Continuous
 62
     9
100
AcDbLine
 10
138.9542668938
 20
489.8648165931
 30
0.0
 11
137.6542668938
 21
489.8648165931
 31
0.0
  0
SPLINE
  5
349
330
1B
100
AcDbEntity
 67
     1
  8
7_ALL_FEATURES
  6
Continuous
 62
     7
100
AcDbSpline
 70
     0
 71
     3
 72
    19
 73
    15
 74
     0
 42
0.000000001
 43
0.0000001
 40
0.0
 40
0.0
 40
0.0
 40
0.0
 40
0.1115800455
 40
0.1612469214
 40
0.2119140142
 40
0.2684330085
 40
0.3347171055
 40
0.5001133953
 40
0.6653569658
 40
0.7316105202
 40
0.7881115448
 40
0.8387686225
 40
0.8884282745
 40
1.0
 40
1.0
 40
1.0
 40
1.0
 10
80.0329465502
 20
375.7648165931
 30
0.0
 10
79.8851061812
 20
375.7648165931
 30
0.0
 10
79.6626662396
 20
375.7270371218
 30
0.0
 10
79.432248698
 20
375.5589317439
 30
0.0
 10
79.3096125324
 20
375.387193279
 30
0.0
 10
79.2301443877
 20
375.1694374646
 30
0.0
 10
79.1673956822
 20
374.7915225388
 30
0.0
 10
79.1619979745
 20
374.2645677208
 30
0.0
 10
79.1674527832
 20
373.7376522937
 30
0.0
 10
79.2302033545
 20
373.3600110759
 30
0.0
 10
79.3096523592
 20
373.1423290608
 30
0.0
 10
79.4323019736
 20
372.9706577607
 30
0.0
 10
79.6626997254
 20
372.8025914073
 30
0.0
 10
79.885117205
 20
372.7648165931
 30
0.0
 10
80.0329465502
 20
372.7648165931
 30
0.0
  0
LINE
  5
34A
330
1B
100
AcDbEntity
 67
     1
  8
7_ALL_FEATURES
  6
Continuous
 62
     9
100
AcDbLine
 10
136.1542668938
 20
489.7648165931
 30
0.0
 11
136.1542668938
 21
482.7648165931
 31
0.0
  0
LINE
  5
34B
330
1B
100
AcDbEntity
 67
     1
  8
7_ALL_FEATURES
  6
Continuous
 62
     9
100
AcDbLine
 10
139.1542668938
 20
377.8648165931
 30
0.0
 11
138.9542668938
 21
377.8648165931
 31
0.0
  0
LINE
  5
34C
330
1B
100
AcDbEntity
 67
     1
  8
7_ALL_FEATURES
  6
Continuous
 62
     9
100
AcDbLine
 10
138.9542668938
 20
377.8648165931
 30
0.0
 11
137.6542668938
 21
377.8648165931
 31
0.0
  0
LINE
  5
34D
330
1B
100
AcDbEntity
 67
     1
  8
7_ALL_FEATURES
  6
Continuous
 62
     9
100
AcDbLine
 10
79.1542668938
 20
370.6648165931
 30
0.0
 11
79.3542668938
 21
370.6648165931
 31
0.0
  0
LINE
  5
34E
330
1B
100
AcDbEntity
 67
     1
  8
7_ALL_FEATURES
  6
Continuous
 62
     9
100
AcDbLine
 10
79.3542668938
 20
370.6648165931
 30
0.0
 11
80.6542668938
 21
370.6648165931
 31
0.0
  0
LINE
  5
34F
330
1B
100
AcDbEntity
 67
     1
  8
7_ALL_FEATURES
  6
Continuous
 62
     9
100
AcDbLine
 10
79.1542668938
 20
482.6648165931
 30
0.0
 11
79.3542668938
 21
482.6648165931
 31
0.0
  0
LINE
  5
350
330
1B
100
AcDbEntity
 67
     1
  8
7_ALL_FEATURES
  6
Continuous
 62
     9
100
AcDbLine
 10
79.3542668938
 20
482.6648165931
 30
0.0
 11
80.6542668938
 21
482.6648165931
 31
0.0
  0
SPLINE
  5
351
330
1B
100
AcDbEntity
 67
     1
  8
7_ALL_FEATURES
  6
Continuous
 62
     7
100
AcDbSpline
 70
     0
 71
     3
 72
    19
 73
    15
 74
     0
 42
0.000000001
 43
0.0000001
 40
0.0
 40
0.0
 40
0.0
 40
0.0
 40
0.1115800455
 40
0.1612469214
 40
0.2119140142
 40
0.2684330085
 40
0.3347171055
 40
0.5001133953
 40
0.6653569658
 40
0.7316105202
 40
0.7881115448
 40
0.8387686225
 40
0.8884282745
 40
1.0
 40
1.0
 40
1.0
 40
1.0
 10
138.2755872373
 20
484.7648165931
 30
0.0
 10
138.4234276063
 20
484.7648165931
 30
0.0
 10
138.6458675479
 20
484.8025960644
 30
0.0
 10
138.8762850896
 20
484.9707014423
 30
0.0
 10
138.9989212552
 20
485.1424399071
 30
0.0
 10
139.0783893999
 20
485.3601957216
 30
0.0
 10
139.1411381053
 20
485.7381106474
 30
0.0
 10
139.146535813
 20
486.2650654654
 30
0.0
 10
139.1410810043
 20
486.7919808924
 30
0.0
 10
139.0783304331
 20
487.1696221102
 30
0.0
 10
138.9988814283
 20
487.3873041254
 30
0.0
 10
138.8762318139
 20
487.5589754255
 30
0.0
 10
138.6458340621
 20
487.7270417789
 30
0.0
 10
138.4234165826
 20
487.7648165931
 30
0.0
 10
138.2755872373
 20
487.7648165931
 30
0.0
  0
LINE
  5
352
330
1B
100
AcDbEntity
 67
     1
  8
7_ALL_FEATURES
  6
Continuous
 62
     9
100
AcDbLine
 10
82.1542668938
 20
482.7648165931
 30
0.0
 11
82.1542668938
 21
489.7648165931
 31
0.0
  0
LINE
  5
353
330
1B
100
AcDbEntity
 67
     1
  8
7_ALL_FEATURES
  6
Continuous
 62
     9
100
AcDbLine
 10
80.6542668938
 20
489.8648165931
 30
0.0
 11
79.3542668938
 21
489.8648165931
 31
0.0
  0
LINE
  5
354
330
1B
100
AcDbEntity
 67
     1
  8
7_ALL_FEATURES
  6
Continuous
 62
     9
100
AcDbLine
 10
79.3542668938
 20
489.8648165931
 30
0.0
 11
79.1542668938
 21
489.8648165931
 31
0.0
  0
LINE
  5
355
330
1B
100
AcDbEntity
 67
     1
  8
02___PRT_ALL_AXES
  6
Continuous
 62
     7
100
AcDbLine
 10
138.6542668938
 20
504.0148165931
 30
0.0
 11
138.9542668938
 21
504.0148165931
 31
0.0
  0
ARC
  5
356
330
1B
100
AcDbEntity
 67
     1
  8
02___PRT_ALL_AXES
  6
Continuous
 62
     7
100
AcDbCircle
 10
138.9542668938
 20
503.8148165931
 30
0.0
 40
0.2
100
AcDbArc
 50
30.0
 51
90.0
  0
ARC
  5
357
330
1B
100
AcDbEntity
 67
     1
  8
02___PRT_ALL_AXES
  6
Continuous
 62
     7
100
AcDbCircle
 10
138.9542668938
 20
503.8148165931
 30
0.0
 40
0.2
100
AcDbArc
 50
0.0
 51
30.0
  0
LINE
  5
358
330
1B
100
AcDbEntity
 67
     1
  8
02___PRT_ALL_AXES
  6
Continuous
 62
     7
100
AcDbLine
 10
139.1542668938
 20
503.8148165931
 30
0.0
 11
139.1542668938
 21
503.5148165931
 31
0.0
  0
LINE
  5
359
330
1B
100
AcDbEntity
 67
     1
  8
02___PRT_ALL_AXES
  6
Continuous
 62
     7
100
AcDbLine
 10
139.1542668938
 20
492.5148165931
 30
0.0
 11
139.1542668938
 21
492.2148165931
 31
0.0
  0
ARC
  5
35A
330
1B
100
AcDbEntity
 67
     1
  8
02___PRT_ALL_AXES
  6
Continuous
 62
     7
100
AcDbCircle
 10
139.3542668938
 20
492.2148165931
 30
0.0
 40
0.2
100
AcDbArc
 50
180.0
 51
240.0
  0
ARC
  5
35B
330
1B
100
AcDbEntity
 67
     1
  8
02___PRT_ALL_AXES
  6
Continuous
 62
     7
100
AcDbCircle
 10
139.3542668938
 20
492.2148165931
 30
0.0
 40
0.2
100
AcDbArc
 50
240.0
 51
270.0
  0
LINE
  5
35C
330
1B
100
AcDbEntity
 67
     1
  8
02___PRT_ALL_AXES
  6
Continuous
 62
     7
100
AcDbLine
 10
139.3542668938
 20
492.0148165931
 30
0.0
 11
139.9302541592
 21
492.0148165931
 31
0.0
  0
ARC
  5
35D
330
1B
100
AcDbEntity
 67
     1
  8
02___PRT_ALL_AXES
  6
Continuous
 62
     7
100
AcDbCircle
 10
139.9302528938
 20
491.2908025931
 30
0.0
 40
0.7240143391
100
AcDbArc
 50
0.0001001419
 51
89.9998998581
  0
LINE
  5
35E
330
1B
100
AcDbEntity
 67
     1
  8
02___PRT_ALL_AXES
  6
Continuous
 62
     7
100
AcDbLine
 10
140.6542668938
 20
491.2908038585
 30
0.0
 11
140.6542668938
 21
489.0148165931
 31
0.0
  0
ARC
  5
35F
330
1B
100
AcDbEntity
 67
     1
  8
02___PRT_ALL_AXES
  6
Continuous
 62
     7
100
AcDbCircle
 10
140.1542668938
 20
489.0148165931
 30
0.0
 40
0.5
100
AcDbArc
 50
270.0
 51
360.0
  0
LINE
  5
360
330
1B
100
AcDbEntity
 67
     1
  8
02___PRT_ALL_AXES
  6
Continuous
 62
     7
100
AcDbLine
 10
140.1542668938
 20
488.5148165931
 30
0.0
 11
139.3542668938
 21
488.5148165931
 31
0.0
  0
ARC
  5
361
330
1B
100
AcDbEntity
 67
     1
  8
02___PRT_ALL_AXES
  6
Continuous
 62
     7
100
AcDbCircle
 10
139.3542668938
 20
488.7148165931
 30
0.0
 40
0.2
100
AcDbArc
 50
180.0
 51
270.0
  0
LINE
  5
362
330
1B
100
AcDbEntity
 67
     1
  8
02___PRT_ALL_AXES
  6
Continuous
 62
     7
100
AcDbLine
 10
139.1542668938
 20
488.7148165931
 30
0.0
 11
139.1542668938
 21
489.8148165931
 31
0.0
  0
ARC
  5
363
330
1B
100
AcDbEntity
 67
     1
  8
02___PRT_ALL_AXES
  6
Continuous
 62
     7
100
AcDbCircle
 10
138.9542668938
 20
489.8148165931
 30
0.0
 40
0.2
100
AcDbArc
 50
0.0
 51
90.0
  0
LINE
  5
364
330
1B
100
AcDbEntity
 67
     1
  8
02___PRT_ALL_AXES
  6
Continuous
 62
     7
100
AcDbLine
 10
138.9542668938
 20
490.0148165931
 30
0.0
 11
136.1542668938
 21
490.0148165931
 31
0.0
  0
LINE
  5
365
330
1B
100
AcDbEntity
 67
     1
  8
02___PRT_ALL_AXES
  6
Continuous
 62
     7
100
AcDbLine
 10
136.1542668938
 20
482.5148165931
 30
0.0
 11
138.9542668938
 21
482.5148165931
 31
0.0
  0
ARC
  5
366
330
1B
100
AcDbEntity
 67
     1
  8
02___PRT_ALL_AXES
  6
Continuous
 62
     7
100
AcDbCircle
 10
138.9542668938
 20
482.7148165931
 30
0.0
 40
0.2
100
AcDbArc
 50
270.0
 51
360.0
  0
LINE
  5
367
330
1B
100
AcDbEntity
 67
     1
  8
02___PRT_ALL_AXES
  6
Continuous
 62
     7
100
AcDbLine
 10
139.1542668938
 20
482.7148165931
 30
0.0
 11
139.1542668938
 21
483.8148165931
 31
0.0
  0
ARC
  5
368
330
1B
100
AcDbEntity
 67
     1
  8
02___PRT_ALL_AXES
  6
Continuous
 62
     7
100
AcDbCircle
 10
139.3542668938
 20
483.8148165931
 30
0.0
 40
0.2
100
AcDbArc
 50
90.0
 51
180.0
  0
LINE
  5
369
330
1B
100
AcDbEntity
 67
     1
  8
02___PRT_ALL_AXES
  6
Continuous
 62
     7
100
AcDbLine
 10
139.3542668938
 20
484.0148165931
 30
0.0
 11
140.1542668938
 21
484.0148165931
 31
0.0
  0
ARC
  5
36A
330
1B
100
AcDbEntity
 67
     1
  8
02___PRT_ALL_AXES
  6
Continuous
 62
     7
100
AcDbCircle
 10
140.1542668938
 20
483.5148165931
 30
0.0
 40
0.5
100
AcDbArc
 50
0.0
 51
90.0
  0
LINE
  5
36B
330
1B
100
AcDbEntity
 67
     1
  8
02___PRT_ALL_AXES
  6
Continuous
 62
     7
100
AcDbLine
 10
140.6542668938
 20
483.5148165931
 30
0.0
 11
140.6542668938
 21
481.0148165931
 31
0.0
  0
ARC
  5
36C
330
1B
100
AcDbEntity
 67
     1
  8
02___PRT_ALL_AXES
  6
Continuous
 62
     7
100
AcDbCircle
 10
140.1542668938
 20
481.0148165931
 30
0.0
 40
0.5
100
AcDbArc
 50
270.0
 51
360.0
  0
LINE
  5
36D
330
1B
100
AcDbEntity
 67
     1
  8
02___PRT_ALL_AXES
  6
Continuous
 62
     7
100
AcDbLine
 10
140.1542668938
 20
480.5148165931
 30
0.0
 11
139.3542668938
 21
480.5148165931
 31
0.0
  0
ARC
  5
36E
330
1B
100
AcDbEntity
 67
     1
  8
02___PRT_ALL_AXES
  6
Continuous
 62
     7
100
AcDbCircle
 10
139.3542668938
 20
480.3148165931
 30
0.0
 40
0.2
100
AcDbArc
 50
90.0
 51
161.0814494834
  0
ARC
  5
36F
330
1B
100
AcDbEntity
 67
     1
  8
02___PRT_ALL_AXES
  6
Continuous
 62
     7
100
AcDbCircle
 10
139.3542668938
 20
480.3148165931
 30
0.0
 40
0.2
100
AcDbArc
 50
161.0814494834
 51
180.0
  0
LINE
  5
370
330
1B
100
AcDbEntity
 67
     1
  8
02___PRT_ALL_AXES
  6
Continuous
 62
     7
100
AcDbLine
 10
139.1542668938
 20
480.3148165931
 30
0.0
 11
139.1542668938
 21
480.0148165931
 31
0.0
  0
LINE
  5
371
330
1B
100
AcDbEntity
 67
     1
  8
02___PRT_ALL_AXES
  6
Continuous
 62
     7
100
AcDbLine
 10
139.1542668938
 20
380.5148165931
 30
0.0
 11
139.1542668938
 21
380.2148165931
 31
0.0
  0
ARC
  5
372
330
1B
100
AcDbEntity
 67
     1
  8
02___PRT_ALL_AXES
  6
Continuous
 62
     7
100
AcDbCircle
 10
139.3542668938
 20
380.2148165931
 30
0.0
 40
0.2
100
AcDbArc
 50
180.0
 51
240.0
  0
ARC
  5
373
330
1B
100
AcDbEntity
 67
     1
  8
02___PRT_ALL_AXES
  6
Continuous
 62
     7
100
AcDbCircle
 10
139.3542668938
 20
380.2148165931
 30
0.0
 40
0.2
100
AcDbArc
 50
240.0
 51
270.0
  0
LINE
  5
374
330
1B
100
AcDbEntity
 67
     1
  8
02___PRT_ALL_AXES
  6
Continuous
 62
     7
100
AcDbLine
 10
139.3542668938
 20
380.0148165931
 30
0.0
 11
140.1542668938
 21
380.0148165931
 31
0.0
  0
ARC
  5
375
330
1B
100
AcDbEntity
 67
     1
  8
02___PRT_ALL_AXES
  6
Continuous
 62
     7
100
AcDbCircle
 10
140.1542668938
 20
379.5148165931
 30
0.0
 40
0.5
100
AcDbArc
 50
0.0
 51
90.0
  0
LINE
  5
376
330
1B
100
AcDbEntity
 67
     1
  8
02___PRT_ALL_AXES
  6
Continuous
 62
     7
100
AcDbLine
 10
140.6542668938
 20
379.5148165931
 30
0.0
 11
140.6542668938
 21
377.0148165931
 31
0.0
  0
ARC
  5
377
330
1B
100
AcDbEntity
 67
     1
  8
02___PRT_ALL_AXES
  6
Continuous
 62
     7
100
AcDbCircle
 10
140.1542668938
 20
377.0148165931
 30
0.0
 40
0.5
100
AcDbArc
 50
270.0
 51
360.0
  0
LINE
  5
378
330
1B
100
AcDbEntity
 67
     1
  8
02___PRT_ALL_AXES
  6
Continuous
 62
     7
100
AcDbLine
 10
140.1542668938
 20
376.5148165931
 30
0.0
 11
139.3542668938
 21
376.5148165931
 31
0.0
  0
ARC
  5
379
330
1B
100
AcDbEntity
 67
     1
  8
02___PRT_ALL_AXES
  6
Continuous
 62
     7
100
AcDbCircle
 10
139.3542668938
 20
376.7148165931
 30
0.0
 40
0.2
100
AcDbArc
 50
180.0
 51
270.0
  0
LINE
  5
37A
330
1B
100
AcDbEntity
 67
     1
  8
02___PRT_ALL_AXES
  6
Continuous
 62
     7
100
AcDbLine
 10
139.1542668938
 20
376.7148165931
 30
0.0
 11
139.1542668938
 21
377.8148165931
 31
0.0
  0
ARC
  5
37B
330
1B
100
AcDbEntity
 67
     1
  8
02___PRT_ALL_AXES
  6
Continuous
 62
     7
100
AcDbCircle
 10
138.9542668938
 20
377.8148165931
 30
0.0
 40
0.2
100
AcDbArc
 50
0.0
 51
90.0
  0
LINE
  5
37C
330
1B
100
AcDbEntity
 67
     1
  8
02___PRT_ALL_AXES
  6
Continuous
 62
     7
100
AcDbLine
 10
138.9542668938
 20
378.0148165931
 30
0.0
 11
136.1542668938
 21
378.0148165931
 31
0.0
  0
LINE
  5
37D
330
1B
100
AcDbEntity
 67
     1
  8
02___PRT_ALL_AXES
  6
Continuous
 62
     7
100
AcDbLine
 10
136.1542668938
 20
370.5148165931
 30
0.0
 11
138.9542668938
 21
370.5148165931
 31
0.0
  0
ARC
  5
37E
330
1B
100
AcDbEntity
 67
     1
  8
02___PRT_ALL_AXES
  6
Continuous
 62
     7
100
AcDbCircle
 10
138.9542668938
 20
370.7148165931
 30
0.0
 40
0.2
100
AcDbArc
 50
270.0
 51
360.0
  0
LINE
  5
37F
330
1B
100
AcDbEntity
 67
     1
  8
02___PRT_ALL_AXES
  6
Continuous
 62
     7
100
AcDbLine
 10
139.1542668938
 20
370.7148165931
 30
0.0
 11
139.1542668938
 21
371.8148165931
 31
0.0
  0
ARC
  5
380
330
1B
100
AcDbEntity
 67
     1
  8
02___PRT_ALL_AXES
  6
Continuous
 62
     7
100
AcDbCircle
 10
139.3542668938
 20
371.8148165931
 30
0.0
 40
0.2
100
AcDbArc
 50
90.0
 51
180.0
  0
LINE
  5
381
330
1B
100
AcDbEntity
 67
     1
  8
02___PRT_ALL_AXES
  6
Continuous
 62
     7
100
AcDbLine
 10
139.3542668938
 20
372.0148165931
 30
0.0
 11
140.1542668938
 21
372.0148165931
 31
0.0
  0
ARC
  5
382
330
1B
100
AcDbEntity
 67
     1
  8
02___PRT_ALL_AXES
  6
Continuous
 62
     7
100
AcDbCircle
 10
140.1542668938
 20
371.5148165931
 30
0.0
 40
0.5
100
AcDbArc
 50
0.0
 51
90.0
  0
LINE
  5
383
330
1B
100
AcDbEntity
 67
     1
  8
02___PRT_ALL_AXES
  6
Continuous
 62
     7
100
AcDbLine
 10
140.6542668938
 20
371.5148165931
 30
0.0
 11
140.6542668938
 21
369.0148165931
 31
0.0
  0
ARC
  5
384
330
1B
100
AcDbEntity
 67
     1
  8
02___PRT_ALL_AXES
  6
Continuous
 62
     7
100
AcDbCircle
 10
140.1542668938
 20
369.0148165931
 30
0.0
 40
0.5
100
AcDbArc
 50
270.0
 51
360.0
  0
LINE
  5
385
330
1B
100
AcDbEntity
 67
     1
  8
02___PRT_ALL_AXES
  6
Continuous
 62
     7
100
AcDbLine
 10
140.1542668938
 20
368.5148165931
 30
0.0
 11
139.3542668938
 21
368.5148165931
 31
0.0
  0
ARC
  5
386
330
1B
100
AcDbEntity
 67
     1
  8
02___PRT_ALL_AXES
  6
Continuous
 62
     7
100
AcDbCircle
 10
139.3542668938
 20
368.3148165931
 30
0.0
 40
0.2
100
AcDbArc
 50
90.0
 51
161.0814494834
  0
ARC
  5
387
330
1B
100
AcDbEntity
 67
     1
  8
02___PRT_ALL_AXES
  6
Continuous
 62
     7
100
AcDbCircle
 10
139.3542668938
 20
368.3148165931
 30
0.0
 40
0.2
100
AcDbArc
 50
161.0814494834
 51
180.0
  0
LINE
  5
388
330
1B
100
AcDbEntity
 67
     1
  8
02___PRT_ALL_AXES
  6
Continuous
 62
     7
100
AcDbLine
 10
139.1542668938
 20
368.3148165931
 30
0.0
 11
139.1542668938
 21
368.0148165931
 31
0.0
  0
LINE
  5
389
330
1B
100
AcDbEntity
 67
     1
  8
02___PRT_ALL_AXES
  6
Continuous
 62
     7
100
AcDbLine
 10
139.1542668938
 20
356.0148165931
 30
0.0
 11
139.1542668938
 21
355.0148165931
 31
0.0
  0
ARC
  5
38A
330
1B
100
AcDbEntity
 67
     1
  8
02___PRT_ALL_AXES
  6
Continuous
 62
     7
100
AcDbCircle
 10
138.1542668938
 20
355.0148165931
 30
0.0
 40
1.0
100
AcDbArc
 50
270.0
 51
360.0
  0
LINE
  5
38B
330
1B
100
AcDbEntity
 67
     1
  8
02___PRT_ALL_AXES
  6
Continuous
 62
     7
100
AcDbLine
 10
138.1542668938
 20
354.0148165931
 30
0.0
 11
137.1542668938
 21
354.0148165931
 31
0.0
  0
LINE
  5
38C
330
1B
100
AcDbEntity
 67
     1
  8
02___PRT_ALL_AXES
  6
Continuous
 62
     7
100
AcDbLine
 10
81.1542668938
 20
354.0148165931
 30
0.0
 11
80.1542668938
 21
354.0148165931
 31
0.0
  0
ARC
  5
38D
330
1B
100
AcDbEntity
 67
     1
  8
02___PRT_ALL_AXES
  6
Continuous
 62
     7
100
AcDbCircle
 10
80.1542668938
 20
355.0148165931
 30
0.0
 40
1.0
100
AcDbArc
 50
180.0
 51
270.0
  0
LINE
  5
38E
330
1B
100
AcDbEntity
 67
     1
  8
02___PRT_ALL_AXES
  6
Continuous
 62
     7
100
AcDbLine
 10
79.1542668938
 20
355.0148165931
 30
0.0
 11
79.1542668938
 21
356.0148165931
 31
0.0
  0
LINE
  5
38F
330
1B
100
AcDbEntity
 67
     1
  8
02___PRT_ALL_AXES
  6
Continuous
 62
     7
100
AcDbLine
 10
79.1542668938
 20
368.0148165931
 30
0.0
 11
79.1542668938
 21
368.3148165931
 31
0.0
  0
ARC
  5
390
330
1B
100
AcDbEntity
 67
     1
  8
02___PRT_ALL_AXES
  6
Continuous
 62
     7
100
AcDbCircle
 10
78.9542668938
 20
368.3148165931
 30
0.0
 40
0.2
100
AcDbArc
 50
0.0
 51
60.0
  0
ARC
  5
391
330
1B
100
AcDbEntity
 67
     1
  8
02___PRT_ALL_AXES
  6
Continuous
 62
     7
100
AcDbCircle
 10
78.9542668938
 20
368.3148165931
 30
0.0
 40
0.2
100
AcDbArc
 50
60.0
 51
90.0
  0
LINE
  5
392
330
1B
100
AcDbEntity
 67
     1
  8
02___PRT_ALL_AXES
  6
Continuous
 62
     7
100
AcDbLine
 10
78.9542668938
 20
368.5148165931
 30
0.0
 11
78.1542668938
 21
368.5148165931
 31
0.0
  0
ARC
  5
393
330
1B
100
AcDbEntity
 67
     1
  8
02___PRT_ALL_AXES
  6
Continuous
 62
     7
100
AcDbCircle
 10
78.1542668938
 20
369.0148165931
 30
0.0
 40
0.5
100
AcDbArc
 50
180.0
 51
270.0
  0
LINE
  5
394
330
1B
100
AcDbEntity
 67
     1
  8
02___PRT_ALL_AXES
  6
Continuous
 62
     7
100
AcDbLine
 10
77.6542668938
 20
369.0148165931
 30
0.0
 11
77.6542668938
 21
371.5148165931
 31
0.0
  0
ARC
  5
395
330
1B
100
AcDbEntity
 67
     1
  8
02___PRT_ALL_AXES
  6
Continuous
 62
     7
100
AcDbCircle
 10
78.1542668938
 20
371.5148165931
 30
0.0
 40
0.5
100
AcDbArc
 50
90.0
 51
180.0
  0
LINE
  5
396
330
1B
100
AcDbEntity
 67
     1
  8
02___PRT_ALL_AXES
  6
Continuous
 62
     7
100
AcDbLine
 10
78.1542668938
 20
372.0148165931
 30
0.0
 11
78.9542668938
 21
372.0148165931
 31
0.0
  0
ARC
  5
397
330
1B
100
AcDbEntity
 67
     1
  8
02___PRT_ALL_AXES
  6
Continuous
 62
     7
100
AcDbCircle
 10
78.9542668938
 20
371.8148165931
 30
0.0
 40
0.2
100
AcDbArc
 50
0.0
 51
90.0
  0
LINE
  5
398
330
1B
100
AcDbEntity
 67
     1
  8
02___PRT_ALL_AXES
  6
Continuous
 62
     7
100
AcDbLine
 10
79.1542668938
 20
371.8148165931
 30
0.0
 11
79.1542668938
 21
370.7148165931
 31
0.0
  0
ARC
  5
399
330
1B
100
AcDbEntity
 67
     1
  8
02___PRT_ALL_AXES
  6
Continuous
 62
     7
100
AcDbCircle
 10
79.3542668938
 20
370.7148165931
 30
0.0
 40
0.2
100
AcDbArc
 50
180.0
 51
270.0
  0
LINE
  5
39A
330
1B
100
AcDbEntity
 67
     1
  8
02___PRT_ALL_AXES
  6
Continuous
 62
     7
100
AcDbLine
 10
79.3542668938
 20
370.5148165931
 30
0.0
 11
82.1542668938
 21
370.5148165931
 31
0.0
  0
LINE
  5
39B
330
1B
100
AcDbEntity
 67
     1
  8
02___PRT_ALL_AXES
  6
Continuous
 62
     7
100
AcDbLine
 10
82.1542668938
 20
378.0148165931
 30
0.0
 11
79.3542668938
 21
378.0148165931
 31
0.0
  0
ARC
  5
39C
330
1B
100
AcDbEntity
 67
     1
  8
02___PRT_ALL_AXES
  6
Continuous
 62
     7
100
AcDbCircle
 10
79.3542668938
 20
377.8148165931
 30
0.0
 40
0.2
100
AcDbArc
 50
90.0
 51
180.0
  0
LINE
  5
39D
330
1B
100
AcDbEntity
 67
     1
  8
02___PRT_ALL_AXES
  6
Continuous
 62
     7
100
AcDbLine
 10
79.1542668938
 20
377.8148165931
 30
0.0
 11
79.1542668938
 21
376.7148165931
 31
0.0
  0
ARC
  5
39E
330
1B
100
AcDbEntity
 67
     1
  8
02___PRT_ALL_AXES
  6
Continuous
 62
     7
100
AcDbCircle
 10
78.9542668938
 20
376.7148165931
 30
0.0
 40
0.2
100
AcDbArc
 50
270.0
 51
360.0
  0
LINE
  5
39F
330
1B
100
AcDbEntity
 67
     1
  8
02___PRT_ALL_AXES
  6
Continuous
 62
     7
100
AcDbLine
 10
78.9542668938
 20
376.5148165931
 30
0.0
 11
78.1542668938
 21
376.5148165931
 31
0.0
  0
ARC
  5
3A0
330
1B
100
AcDbEntity
 67
     1
  8
02___PRT_ALL_AXES
  6
Continuous
 62
     7
100
AcDbCircle
 10
78.1542668938
 20
377.0148165931
 30
0.0
 40
0.5
100
AcDbArc
 50
180.0
 51
270.0
  0
LINE
  5
3A1
330
1B
100
AcDbEntity
 67
     1
  8
02___PRT_ALL_AXES
  6
Continuous
 62
     7
100
AcDbLine
 10
77.6542668938
 20
377.0148165931
 30
0.0
 11
77.6542668938
 21
379.5148165931
 31
0.0
  0
ARC
  5
3A2
330
1B
100
AcDbEntity
 67
     1
  8
02___PRT_ALL_AXES
  6
Continuous
 62
     7
100
AcDbCircle
 10
78.1542668938
 20
379.5148165931
 30
0.0
 40
0.5
100
AcDbArc
 50
90.0
 51
180.0
  0
LINE
  5
3A3
330
1B
100
AcDbEntity
 67
     1
  8
02___PRT_ALL_AXES
  6
Continuous
 62
     7
100
AcDbLine
 10
78.1542668938
 20
380.0148165931
 30
0.0
 11
78.9542668938
 21
380.0148165931
 31
0.0
  0
ARC
  5
3A4
330
1B
100
AcDbEntity
 67
     1
  8
02___PRT_ALL_AXES
  6
Continuous
 62
     7
100
AcDbCircle
 10
78.9542668938
 20
380.2148165931
 30
0.0
 40
0.2
100
AcDbArc
 50
270.0
 51
341.0814494835
  0
ARC
  5
3A5
330
1B
100
AcDbEntity
 67
     1
  8
02___PRT_ALL_AXES
  6
Continuous
 62
     7
100
AcDbCircle
 10
78.9542668938
 20
380.2148165931
 30
0.0
 40
0.2
100
AcDbArc
 50
341.0814494835
 51
360.0
  0
LINE
  5
3A6
330
1B
100
AcDbEntity
 67
     1
  8
02___PRT_ALL_AXES
  6
Continuous
 62
     7
100
AcDbLine
 10
79.1542668938
 20
380.2148165931
 30
0.0
 11
79.1542668938
 21
380.5148165931
 31
0.0
  0
LINE
  5
3A7
330
1B
100
AcDbEntity
 67
     1
  8
02___PRT_ALL_AXES
  6
Continuous
 62
     7
100
AcDbLine
 10
79.1542668938
 20
480.0148165931
 30
0.0
 11
79.1542668938
 21
480.3148165931
 31
0.0
  0
ARC
  5
3A8
330
1B
100
AcDbEntity
 67
     1
  8
02___PRT_ALL_AXES
  6
Continuous
 62
     7
100
AcDbCircle
 10
78.9542668938
 20
480.3148165931
 30
0.0
 40
0.2
100
AcDbArc
 50
0.0
 51
60.0
  0
ARC
  5
3A9
330
1B
100
AcDbEntity
 67
     1
  8
02___PRT_ALL_AXES
  6
Continuous
 62
     7
100
AcDbCircle
 10
78.9542668938
 20
480.3148165931
 30
0.0
 40
0.2
100
AcDbArc
 50
60.0
 51
90.0
  0
LINE
  5
3AA
330
1B
100
AcDbEntity
 67
     1
  8
02___PRT_ALL_AXES
  6
Continuous
 62
     7
100
AcDbLine
 10
78.9542668938
 20
480.5148165931
 30
0.0
 11
78.1542668938
 21
480.5148165931
 31
0.0
  0
ARC
  5
3AB
330
1B
100
AcDbEntity
 67
     1
  8
02___PRT_ALL_AXES
  6
Continuous
 62
     7
100
AcDbCircle
 10
78.1542668938
 20
481.0148165931
 30
0.0
 40
0.5
100
AcDbArc
 50
180.0
 51
270.0
  0
LINE
  5
3AC
330
1B
100
AcDbEntity
 67
     1
  8
02___PRT_ALL_AXES
  6
Continuous
 62
     7
100
AcDbLine
 10
77.6542668938
 20
481.0148165931
 30
0.0
 11
77.6542668938
 21
483.5148165931
 31
0.0
  0
ARC
  5
3AD
330
1B
100
AcDbEntity
 67
     1
  8
02___PRT_ALL_AXES
  6
Continuous
 62
     7
100
AcDbCircle
 10
78.1542668938
 20
483.5148165931
 30
0.0
 40
0.5
100
AcDbArc
 50
90.0
 51
180.0
  0
LINE
  5
3AE
330
1B
100
AcDbEntity
 67
     1
  8
02___PRT_ALL_AXES
  6
Continuous
 62
     7
100
AcDbLine
 10
78.1542668938
 20
484.0148165931
 30
0.0
 11
78.9542668938
 21
484.0148165931
 31
0.0
  0
ARC
  5
3AF
330
1B
100
AcDbEntity
 67
     1
  8
02___PRT_ALL_AXES
  6
Continuous
 62
     7
100
AcDbCircle
 10
78.9542668938
 20
483.8148165931
 30
0.0
 40
0.2
100
AcDbArc
 50
0.0
 51
90.0
  0
LINE
  5
3B0
330
1B
100
AcDbEntity
 67
     1
  8
02___PRT_ALL_AXES
  6
Continuous
 62
     7
100
AcDbLine
 10
79.1542668938
 20
483.8148165931
 30
0.0
 11
79.1542668938
 21
482.7148165931
 31
0.0
  0
ARC
  5
3B1
330
1B
100
AcDbEntity
 67
     1
  8
02___PRT_ALL_AXES
  6
Continuous
 62
     7
100
AcDbCircle
 10
79.3542668938
 20
482.7148165931
 30
0.0
 40
0.2
100
AcDbArc
 50
180.0
 51
270.0
  0
LINE
  5
3B2
330
1B
100
AcDbEntity
 67
     1
  8
02___PRT_ALL_AXES
  6
Continuous
 62
     7
100
AcDbLine
 10
79.3542668938
 20
482.5148165931
 30
0.0
 11
82.1542668938
 21
482.5148165931
 31
0.0
  0
LINE
  5
3B3
330
1B
100
AcDbEntity
 67
     1
  8
02___PRT_ALL_AXES
  6
Continuous
 62
     7
100
AcDbLine
 10
82.1542668938
 20
490.0148165931
 30
0.0
 11
79.3542668938
 21
490.0148165931
 31
0.0
  0
ARC
  5
3B4
330
1B
100
AcDbEntity
 67
     1
  8
02___PRT_ALL_AXES
  6
Continuous
 62
     7
100
AcDbCircle
 10
79.3542668938
 20
489.8148165931
 30
0.0
 40
0.2
100
AcDbArc
 50
90.0
 51
180.0
  0
LINE
  5
3B5
330
1B
100
AcDbEntity
 67
     1
  8
02___PRT_ALL_AXES
  6
Continuous
 62
     7
100
AcDbLine
 10
79.1542668938
 20
489.8148165931
 30
0.0
 11
79.1542668938
 21
488.7148165931
 31
0.0
  0
ARC
  5
3B6
330
1B
100
AcDbEntity
 67
     1
  8
02___PRT_ALL_AXES
  6
Continuous
 62
     7
100
AcDbCircle
 10
78.9542668938
 20
488.7148165931
 30
0.0
 40
0.2
100
AcDbArc
 50
270.0
 51
360.0
  0
LINE
  5
3B7
330
1B
100
AcDbEntity
 67
     1
  8
02___PRT_ALL_AXES
  6
Continuous
 62
     7
100
AcDbLine
 10
78.9542668938
 20
488.5148165931
 30
0.0
 11
78.1542668938
 21
488.5148165931
 31
0.0
  0
ARC
  5
3B8
330
1B
100
AcDbEntity
 67
     1
  8
02___PRT_ALL_AXES
  6
Continuous
 62
     7
100
AcDbCircle
 10
78.1542668938
 20
489.0148165931
 30
0.0
 40
0.5
100
AcDbArc
 50
180.0
 51
270.0
  0
LINE
  5
3B9
330
1B
100
AcDbEntity
 67
     1
  8
02___PRT_ALL_AXES
  6
Continuous
 62
     7
100
AcDbLine
 10
77.6542668938
 20
489.0148165931
 30
0.0
 11
77.6542668938
 21
491.2908038585
 31
0.0
  0
ARC
  5
3BA
330
1B
100
AcDbEntity
 67
     1
  8
02___PRT_ALL_AXES
  6
Continuous
 62
     7
100
AcDbCircle
 10
78.3782808938
 20
491.2908025931
 30
0.0
 40
0.7240143391
100
AcDbArc
 50
90.0001001419
 51
179.9998998581
  0
LINE
  5
3BB
330
1B
100
AcDbEntity
 67
     1
  8
02___PRT_ALL_AXES
  6
Continuous
 62
     7
100
AcDbLine
 10
78.3782796283
 20
492.0148165931
 30
0.0
 11
78.9542668938
 21
492.0148165931
 31
0.0
  0
ARC
  5
3BC
330
1B
100
AcDbEntity
 67
     1
  8
02___PRT_ALL_AXES
  6
Continuous
 62
     7
100
AcDbCircle
 10
78.9542668938
 20
492.2148165931
 30
0.0
 40
0.2
100
AcDbArc
 50
270.0
 51
341.0814494834
  0
ARC
  5
3BD
330
1B
100
AcDbEntity
 67
     1
  8
02___PRT_ALL_AXES
  6
Continuous
 62
     7
100
AcDbCircle
 10
78.9542668938
 20
492.2148165931
 30
0.0
 40
0.2
100
AcDbArc
 50
341.0814494834
 51
360.0
  0
LINE
  5
3BE
330
1B
100
AcDbEntity
 67
     1
  8
02___PRT_ALL_AXES
  6
Continuous
 62
     7
100
AcDbLine
 10
79.1542668938
 20
492.2148165931
 30
0.0
 11
79.1542668938
 21
492.5148165931
 31
0.0
  0
LINE
  5
3BF
330
1B
100
AcDbEntity
 67
     1
  8
02___PRT_ALL_AXES
  6
Continuous
 62
     7
100
AcDbLine
 10
79.1542668938
 20
503.5148165931
 30
0.0
 11
79.1542668938
 21
503.8148165931
 31
0.0
  0
ARC
  5
3C0
330
1B
100
AcDbEntity
 67
     1
  8
02___PRT_ALL_AXES
  6
Continuous
 62
     7
100
AcDbCircle
 10
79.3542668938
 20
503.8148165931
 30
0.0
 40
0.2
100
AcDbArc
 50
120.0
 51
180.0
  0
ARC
  5
3C1
330
1B
100
AcDbEntity
 67
     1
  8
02___PRT_ALL_AXES
  6
Continuous
 62
     7
100
AcDbCircle
 10
79.3542668938
 20
503.8148165931
 30
0.0
 40
0.2
100
AcDbArc
 50
90.0
 51
120.0
  0
LINE
  5
3C2
330
1B
100
AcDbEntity
 67
     1
  8
02___PRT_ALL_AXES
  6
Continuous
 62
     7
100
AcDbLine
 10
79.3542668938
 20
504.0148165931
 30
0.0
 11
79.6542668938
 21
504.0148165931
 31
0.0
  0
LINE
  5
3C3
330
1B
100
AcDbEntity
 67
     1
  8
7_ALL_FEATURES
  6
Continuous
 62
     7
100
AcDbLine
 10
245.0277130339
 20
354.0148165931
 30
0.0
 11
246.5277130339
 21
354.0148165931
 31
0.0
  0
LINE
  5
3C4
330
1B
100
AcDbEntity
 67
     1
  8
7_ALL_FEATURES
  6
Continuous
 62
     7
100
AcDbLine
 10
246.5277130339
 20
356.0148165931
 30
0.0
 11
246.5277130339
 21
355.3948121396
 31
0.0
  0
LINE
  5
3C5
330
1B
100
AcDbEntity
 67
     1
  8
7_ALL_FEATURES
  6
Continuous
 62
     7
100
AcDbLine
 10
246.5277130339
 20
368.207636917
 30
0.0
 11
246.5277130339
 21
368.0148165931
 31
0.0
  0
LINE
  5
3C6
330
1B
100
AcDbEntity
 67
     1
  8
7_ALL_FEATURES
  6
Continuous
 62
     7
100
AcDbLine
 10
246.5277130339
 20
380.5148165931
 30
0.0
 11
246.5277130339
 21
380.0534993261
 31
0.0
  0
LINE
  5
3C7
330
1B
100
AcDbEntity
 67
     1
  8
7_ALL_FEATURES
  6
Continuous
 62
     7
100
AcDbLine
 10
246.5277130339
 20
480.207636917
 30
0.0
 11
246.5277130339
 21
480.0148165931
 31
0.0
  0
LINE
  5
3C8
330
1B
100
AcDbEntity
 67
     1
  8
7_ALL_FEATURES
  6
Continuous
 62
     7
100
AcDbLine
 10
246.5277130339
 20
492.5148165931
 30
0.0
 11
246.5277130339
 21
492.0534993261
 31
0.0
  0
LINE
  5
3C9
330
1B
100
AcDbEntity
 67
     1
  8
7_ALL_FEATURES
  6
Continuous
 62
     7
100
AcDbLine
 10
246.5277130339
 20
503.707636917
 30
0.0
 11
246.5277130339
 21
503.5148165931
 31
0.0
  0
LINE
  5
3CA
330
1B
100
AcDbEntity
 67
     1
  8
7_ALL_FEATURES
  6
Continuous
 62
     7
100
AcDbLine
 10
246.5277130339
 20
356.0148165931
 30
0.0
 11
246.5277130339
 21
368.0148165931
 31
0.0
  0
LINE
  5
3CB
330
1B
100
AcDbEntity
 67
     1
  8
7_ALL_FEATURES
  6
Continuous
 62
     7
100
AcDbLine
 10
246.5277130339
 20
368.5148165931
 30
0.0
 11
245.0277130339
 21
368.5148165931
 31
0.0
  0
LINE
  5
3CC
330
1B
100
AcDbEntity
 67
     1
  8
7_ALL_FEATURES
  6
Continuous
 62
     7
100
AcDbLine
 10
245.0277130339
 20
503.5148165931
 30
0.0
 11
245.0277130339
 21
504.0148165931
 31
0.0
  0
LINE
  5
3CD
330
1B
100
AcDbEntity
 67
     1
  8
7_ALL_FEATURES
  6
Continuous
 62
     7
100
AcDbLine
 10
245.0277130339
 20
492.5148165931
 30
0.0
 11
245.0277130339
 21
503.5148165931
 31
0.0
  0
LINE
  5
3CE
330
1B
100
AcDbEntity
 67
     1
  8
7_ALL_FEATURES
  6
Continuous
 62
     7
100
AcDbLine
 10
245.0277130339
 20
492.0148165931
 30
0.0
 11
245.0277130339
 21
492.5148165931
 31
0.0
  0
LINE
  5
3CF
330
1B
100
AcDbEntity
 67
     1
  8
7_ALL_FEATURES
  6
Continuous
 62
     7
100
AcDbLine
 10
245.0277130339
 20
491.5148165931
 30
0.0
 11
245.0277130339
 21
492.0148165931
 31
0.0
  0
LINE
  5
3D0
330
1B
100
AcDbEntity
 67
     1
  8
7_ALL_FEATURES
  6
Continuous
 62
     7
100
AcDbLine
 10
245.0277130339
 20
489.7648165931
 30
0.0
 11
245.0277130339
 21
491.5148165931
 31
0.0
  0
LINE
  5
3D1
330
1B
100
AcDbEntity
 67
     1
  8
7_ALL_FEATURES
  6
Continuous
 62
     7
100
AcDbLine
 10
245.0277130339
 20
481.0148165931
 30
0.0
 11
245.0277130339
 21
482.7648165931
 31
0.0
  0
LINE
  5
3D2
330
1B
100
AcDbEntity
 67
     1
  8
7_ALL_FEATURES
  6
Continuous
 62
     7
100
AcDbLine
 10
245.0277130339
 20
480.5148165931
 30
0.0
 11
245.0277130339
 21
481.0148165931
 31
0.0
  0
LINE
  5
3D3
330
1B
100
AcDbEntity
 67
     1
  8
7_ALL_FEATURES
  6
Continuous
 62
     7
100
AcDbLine
 10
245.0277130339
 20
480.0148165931
 30
0.0
 11
245.0277130339
 21
480.5148165931
 31
0.0
  0
LINE
  5
3D4
330
1B
100
AcDbEntity
 67
     1
  8
7_ALL_FEATURES
  6
Continuous
 62
     7
100
AcDbLine
 10
245.0277130339
 20
380.5148165931
 30
0.0
 11
245.0277130339
 21
480.0148165931
 31
0.0
  0
LINE
  5
3D5
330
1B
100
AcDbEntity
 67
     1
  8
7_ALL_FEATURES
  6
Continuous
 62
     7
100
AcDbLine
 10
245.0277130339
 20
380.0148165931
 30
0.0
 11
245.0277130339
 21
380.5148165931
 31
0.0
  0
LINE
  5
3D6
330
1B
100
AcDbEntity
 67
     1
  8
7_ALL_FEATURES
  6
Continuous
 62
     7
100
AcDbLine
 10
245.0277130339
 20
379.5148165931
 30
0.0
 11
245.0277130339
 21
380.0148165931
 31
0.0
  0
LINE
  5
3D7
330
1B
100
AcDbEntity
 67
     1
  8
7_ALL_FEATURES
  6
Continuous
 62
     7
100
AcDbLine
 10
245.0277130339
 20
377.7648165931
 30
0.0
 11
245.0277130339
 21
379.5148165931
 31
0.0
  0
LINE
  5
3D8
330
1B
100
AcDbEntity
 67
     1
  8
7_ALL_FEATURES
  6
Continuous
 62
     7
100
AcDbLine
 10
245.0277130339
 20
369.0148165931
 30
0.0
 11
245.0277130339
 21
370.7648165931
 31
0.0
  0
LINE
  5
3D9
330
1B
100
AcDbEntity
 67
     1
  8
7_ALL_FEATURES
  6
Continuous
 62
     7
100
AcDbLine
 10
245.0277130339
 20
368.5148165931
 30
0.0
 11
245.0277130339
 21
369.0148165931
 31
0.0
  0
LINE
  5
3DA
330
1B
100
AcDbEntity
 67
     1
  8
7_ALL_FEATURES
  6
Continuous
 62
     7
100
AcDbLine
 10
246.5262263126
 20
370.7648165931
 30
0.0
 11
245.0277130339
 21
370.7648165931
 31
0.0
  0
LINE
  5
3DB
330
1B
100
AcDbEntity
 67
     1
  8
7_ALL_FEATURES
  6
Continuous
 62
     7
100
AcDbLine
 10
245.0277130339
 20
368.0148165931
 30
0.0
 11
245.0277130339
 21
368.5148165931
 31
0.0
  0
LINE
  5
3DC
330
1B
100
AcDbEntity
 67
     1
  8
7_ALL_FEATURES
  6
Continuous
 62
     7
100
AcDbLine
 10
245.0277130339
 20
356.0148165931
 30
0.0
 11
245.0277130339
 21
368.0148165931
 31
0.0
  0
LINE
  5
3DD
330
1B
100
AcDbEntity
 67
     1
  8
7_ALL_FEATURES
  6
Continuous
 62
     7
100
AcDbLine
 10
245.0277130339
 20
354.0148165931
 30
0.0
 11
245.0277130339
 21
356.0148165931
 31
0.0
  0
LINE
  5
3DE
330
1B
100
AcDbEntity
 67
     1
  8
7_ALL_FEATURES
  6
Continuous
 62
     7
100
AcDbLine
 10
245.0277130339
 20
377.7648165931
 30
0.0
 11
245.0277130339
 21
370.7648165931
 31
0.0
  0
SPLINE
  5
3DF
330
1B
100
AcDbEntity
 67
     1
  8
7_ALL_FEATURES
  6
Continuous
 62
     7
100
AcDbSpline
 70
     0
 71
     3
 72
    19
 73
    15
 74
     0
 42
0.000000001
 43
0.0000001
 40
0.0
 40
0.0
 40
0.0
 40
0.0
 40
0.10680027
 40
0.2311432716
 40
0.2972343935
 40
0.3644941901
 40
0.4322338957
 40
0.5000884296
 40
0.5678638715
 40
0.6355750913
 40
0.7028164446
 40
0.768890529
 40
0.8932095981
 40
1.0
 40
1.0
 40
1.0
 40
1.0
 10
245.9063926904
 20
372.7648165931
 30
0.0
 10
246.0918688602
 20
372.7648165931
 30
0.0
 10
246.4924865929
 20
372.8465055197
 30
0.0
 10
246.9624346522
 20
373.071751294
 30
0.0
 10
247.3204006419
 20
373.3431430452
 30
0.0
 10
247.5593802703
 20
373.6008564764
 30
0.0
 10
247.7360980427
 20
373.910545933
 30
0.0
 10
247.8064092348
 20
374.2651544004
 30
0.0
 10
247.7357124355
 20
374.619570314
 30
0.0
 10
247.5591881126
 20
374.9291028709
 30
0.0
 10
247.3201735065
 20
375.1866457249
 30
0.0
 10
246.9622998374
 20
375.4579720981
 30
0.0
 10
246.4924067573
 20
375.6831388464
 30
0.0
 10
246.0918517228
 20
375.7648165931
 30
0.0
 10
245.9063926904
 20
375.7648165931
 30
0.0
  0
SPLINE
  5
3E0
330
1B
100
AcDbEntity
 67
     1
  8
7_ALL_FEATURES
  6
Continuous
 62
     7
100
AcDbSpline
 70
     0
 71
     3
 72
    10
 73
     6
 74
     0
 42
0.000000001
 43
0.0000001
 40
0.0
 40
0.0
 40
0.0
 40
0.0
 40
0.2145692543
 40
0.4595548513
 40
1.0
 40
1.0
 40
1.0
 40
1.0
 10
246.6830960955
 20
375.5754210194
 30
0.0
 10
246.6372084521
 20
375.4922252423
 30
0.0
 10
246.580368279
 20
375.2927755857
 30
0.0
 10
246.5338421436
 20
374.8528374674
 30
0.0
 10
246.5327125493
 20
374.5041266659
 30
0.0
 10
246.5327125493
 20
374.2648165931
 30
0.0
  0
SPLINE
  5
3E1
330
1B
100
AcDbEntity
 67
     1
  8
7_ALL_FEATURES
  6
Continuous
 62
     7
100
AcDbSpline
 70
     0
 71
     3
 72
    10
 73
     6
 74
     0
 42
0.000000001
 43
0.0000001
 40
0.0
 40
0.0
 40
0.0
 40
0.0
 40
0.5403384332
 40
0.7853379999
 40
1.0
 40
1.0
 40
1.0
 40
1.0
 10
246.5327125493
 20
374.2648165931
 30
0.0
 10
246.5327125493
 20
374.025779578
 30
0.0
 10
246.5338496226
 20
373.6774465485
 30
0.0
 10
246.5802109172
 20
373.2379029988
 30
0.0
 10
246.6368037353
 20
373.0385765386
 30
0.0
 10
246.6824851054
 20
372.9553227964
 30
0.0
  0
LINE
  5
3E2
330
1B
100
AcDbEntity
 67
     1
  8
7_ALL_FEATURES
  6
Continuous
 62
     7
100
AcDbLine
 10
260.0277130339
 20
376.2648165931
 30
0.0
 11
260.0277130339
 21
372.2648165931
 31
0.0
  0
ARC
  5
3E3
330
1B
100
AcDbEntity
 67
     1
  8
7_ALL_FEATURES
  6
Continuous
 62
     7
100
AcDbCircle
 10
258.5277130339
 20
376.2648165931
 30
0.0
 40
1.5
100
AcDbArc
 50
0.0
 51
9.826689932
  0
ARC
  5
3E4
330
1B
100
AcDbEntity
 67
     1
  8
7_ALL_FEATURES
  6
Continuous
 62
     7
100
AcDbCircle
 10
258.5277130339
 20
372.2648165931
 30
0.0
 40
1.5
100
AcDbArc
 50
350.173519033
 51
360.0
  0
LINE
  5
3E5
330
1B
100
AcDbEntity
 67
     1
  8
7_ALL_FEATURES
  6
Continuous
 62
     7
100
AcDbLine
 10
245.0277130339
 20
377.7648165931
 30
0.0
 11
246.5277130339
 21
377.7648165931
 31
0.0
  0
LINE
  5
3E6
330
1B
100
AcDbEntity
 67
     1
  8
7_ALL_FEATURES
  6
Continuous
 62
     7
100
AcDbLine
 10
246.5277130339
 20
504.0148165931
 30
0.0
 11
245.0277130339
 21
504.0148165931
 31
0.0
  0
LINE
  5
3E7
330
1B
100
AcDbEntity
 67
     1
  8
7_ALL_FEATURES
  6
Continuous
 62
     7
100
AcDbLine
 10
246.5277130339
 20
492.5148165931
 30
0.0
 11
246.5277130339
 21
503.5148165931
 31
0.0
  0
LINE
  5
3E8
330
1B
100
AcDbEntity
 67
     1
  8
7_ALL_FEATURES
  6
Continuous
 62
     7
100
AcDbLine
 10
245.0277130339
 20
492.0148165931
 30
0.0
 11
246.5277130339
 21
492.0148165931
 31
0.0
  0
LINE
  5
3E9
330
1B
100
AcDbEntity
 67
     1
  8
7_ALL_FEATURES
  6
Continuous
 62
     7
100
AcDbLine
 10
245.0277130339
 20
380.0148165931
 30
0.0
 11
246.5277130339
 21
380.0148165931
 31
0.0
  0
LINE
  5
3EA
330
1B
100
AcDbEntity
 67
     1
  8
7_ALL_FEATURES
  6
Continuous
 62
     7
100
AcDbLine
 10
245.0277130339
 20
489.7648165931
 30
0.0
 11
246.5277130339
 21
489.7648165931
 31
0.0
  0
LINE
  5
3EB
330
1B
100
AcDbEntity
 67
     1
  8
7_ALL_FEATURES
  6
Continuous
 62
     7
100
AcDbLine
 10
246.5277130339
 20
380.5148165931
 30
0.0
 11
246.5277130339
 21
480.0148165931
 31
0.0
  0
ARC
  5
3EC
330
1B
100
AcDbEntity
 67
     1
  8
7_ALL_FEATURES
  6
Continuous
 62
     7
100
AcDbCircle
 10
258.5277130339
 20
488.2648165931
 30
0.0
 40
1.5
100
AcDbArc
 50
0.0
 51
9.826689932
  0
ARC
  5
3ED
330
1B
100
AcDbEntity
 67
     1
  8
7_ALL_FEATURES
  6
Continuous
 62
     7
100
AcDbCircle
 10
258.5277130339
 20
484.2648165931
 30
0.0
 40
1.5
100
AcDbArc
 50
350.173519033
 51
360.0
  0
LINE
  5
3EE
330
1B
100
AcDbEntity
 67
     1
  8
7_ALL_FEATURES
  6
Continuous
 62
     7
100
AcDbLine
 10
246.5277130339
 20
480.5148165931
 30
0.0
 11
245.0277130339
 21
480.5148165931
 31
0.0
  0
LINE
  5
3EF
330
1B
100
AcDbEntity
 67
     1
  8
7_ALL_FEATURES
  6
Continuous
 62
     7
100
AcDbLine
 10
246.5262263126
 20
482.7648165931
 30
0.0
 11
245.0277130339
 21
482.7648165931
 31
0.0
  0
LINE
  5
3F0
330
1B
100
AcDbEntity
 67
     1
  8
7_ALL_FEATURES
  6
Continuous
 62
     7
100
AcDbLine
 10
245.0277130339
 20
489.7648165931
 30
0.0
 11
245.0277130339
 21
482.7648165931
 31
0.0
  0
SPLINE
  5
3F1
330
1B
100
AcDbEntity
 67
     1
  8
7_ALL_FEATURES
  6
Continuous
 62
     7
100
AcDbSpline
 70
     0
 71
     3
 72
    19
 73
    15
 74
     0
 42
0.000000001
 43
0.0000001
 40
0.0
 40
0.0
 40
0.0
 40
0.0
 40
0.10680027
 40
0.2311432716
 40
0.2972343935
 40
0.3644941901
 40
0.4322338957
 40
0.5000884296
 40
0.5678638715
 40
0.6355750913
 40
0.7028164446
 40
0.768890529
 40
0.8932095981
 40
1.0
 40
1.0
 40
1.0
 40
1.0
 10
245.9063926904
 20
484.7648165931
 30
0.0
 10
246.0918688602
 20
484.7648165931
 30
0.0
 10
246.4924865929
 20
484.8465055197
 30
0.0
 10
246.9624346522
 20
485.071751294
 30
0.0
 10
247.3204006419
 20
485.3431430452
 30
0.0
 10
247.5593802703
 20
485.6008564764
 30
0.0
 10
247.7360980427
 20
485.910545933
 30
0.0
 10
247.8064092348
 20
486.2651544004
 30
0.0
 10
247.7357124355
 20
486.619570314
 30
0.0
 10
247.5591881126
 20
486.9291028709
 30
0.0
 10
247.3201735065
 20
487.1866457249
 30
0.0
 10
246.9622998374
 20
487.4579720981
 30
0.0
 10
246.4924067573
 20
487.6831388464
 30
0.0
 10
246.0918517228
 20
487.7648165931
 30
0.0
 10
245.9063926904
 20
487.7648165931
 30
0.0
  0
SPLINE
  5
3F2
330
1B
100
AcDbEntity
 67
     1
  8
7_ALL_FEATURES
  6
Continuous
 62
     7
100
AcDbSpline
 70
     0
 71
     3
 72
    10
 73
     6
 74
     0
 42
0.000000001
 43
0.0000001
 40
0.0
 40
0.0
 40
0.0
 40
0.0
 40
0.2145692541
 40
0.4595548515
 40
1.0
 40
1.0
 40
1.0
 40
1.0
 10
246.6830961026
 20
487.5754210322
 30
0.0
 10
246.6372084568
 20
487.4922252554
 30
0.0
 10
246.5803682805
 20
487.2927755968
 30
0.0
 10
246.5338421439
 20
486.8528374738
 30
0.0
 10
246.5327125493
 20
486.5041266685
 30
0.0
 10
246.5327125493
 20
486.2648165931
 30
0.0
  0
SPLINE
  5
3F3
330
1B
100
AcDbEntity
 67
     1
  8
7_ALL_FEATURES
  6
Continuous
 62
     7
100
AcDbSpline
 70
     0
 71
     3
 72
    10
 73
     6
 74
     0
 42
0.000000001
 43
0.0000001
 40
0.0
 40
0.0
 40
0.0
 40
0.0
 40
0.5403384332
 40
0.7853379999
 40
1.0
 40
1.0
 40
1.0
 40
1.0
 10
246.5327125493
 20
486.2648165931
 30
0.0
 10
246.5327125493
 20
486.025779578
 30
0.0
 10
246.5338496226
 20
485.6774465485
 30
0.0
 10
246.5802109172
 20
485.2379029988
 30
0.0
 10
246.6368037353
 20
485.0385765386
 30
0.0
 10
246.6824851054
 20
484.9553227964
 30
0.0
  0
LINE
  5
3F4
330
1B
100
AcDbEntity
 67
     1
  8
7_ALL_FEATURES
  6
Continuous
 62
     7
100
AcDbLine
 10
260.0277130339
 20
488.2648165931
 30
0.0
 11
260.0277130339
 21
484.2648165931
 31
0.0
  0
LINE
  5
3F5
330
1B
100
AcDbEntity
 67
     1
  8
7_ALL_FEATURES
  6
Continuous
 62
     9
100
AcDbLine
 10
245.0277130339
 20
480.0148165931
 30
0.0
 11
246.5277130339
 21
480.0148165931
 31
0.0
  0
LINE
  5
3F6
330
1B
100
AcDbEntity
 67
     1
  8
7_ALL_FEATURES
  6
Continuous
 62
     9
100
AcDbLine
 10
246.5277130339
 20
369.0148165931
 30
0.0
 11
245.0277130339
 21
369.0148165931
 31
0.0
  0
LINE
  5
3F7
330
1B
100
AcDbEntity
 67
     1
  8
7_ALL_FEATURES
  6
Continuous
 62
     9
100
AcDbLine
 10
246.5277130339
 20
380.5148165931
 30
0.0
 11
245.0277130339
 21
380.5148165931
 31
0.0
  0
LINE
  5
3F8
330
1B
100
AcDbEntity
 67
     1
  8
7_ALL_FEATURES
  6
Continuous
 62
     9
100
AcDbLine
 10
245.0277130339
 20
368.0148165931
 30
0.0
 11
246.5277130339
 21
368.0148165931
 31
0.0
  0
LINE
  5
3F9
330
1B
100
AcDbEntity
 67
     1
  8
7_ALL_FEATURES
  6
Continuous
 62
     9
100
AcDbLine
 10
246.5277130339
 20
481.0148165931
 30
0.0
 11
245.0277130339
 21
481.0148165931
 31
0.0
  0
SPLINE
  5
3FA
330
1B
100
AcDbEntity
 67
     1
  8
7_ALL_FEATURES
  6
Continuous
 62
     7
100
AcDbSpline
 70
     0
 71
     3
 72
    19
 73
    15
 74
     0
 42
0.000000001
 43
0.0000001
 40
0.0
 40
0.0
 40
0.0
 40
0.0
 40
0.1115800455
 40
0.1612469214
 40
0.2119140142
 40
0.2684330085
 40
0.3347171055
 40
0.5001133953
 40
0.6653569658
 40
0.7316105202
 40
0.7881115448
 40
0.8387686225
 40
0.8884282745
 40
1.0
 40
1.0
 40
1.0
 40
1.0
 10
245.9063926904
 20
487.7648165931
 30
0.0
 10
245.7585523214
 20
487.7648165931
 30
0.0
 10
245.5361123798
 20
487.7270371218
 30
0.0
 10
245.3056948381
 20
487.5589317439
 30
0.0
 10
245.1830586725
 20
487.387193279
 30
0.0
 10
245.1035905278
 20
487.1694374646
 30
0.0
 10
245.0408418224
 20
486.7915225388
 30
0.0
 10
245.0354441147
 20
486.2645677208
 30
0.0
 10
245.0408989234
 20
485.7376522937
 30
0.0
 10
245.1036494946
 20
485.3600110759
 30
0.0
 10
245.1830984994
 20
485.1423290608
 30
0.0
 10
245.3057481138
 20
484.9706577607
 30
0.0
 10
245.5361458656
 20
484.8025914073
 30
0.0
 10
245.7585633451
 20
484.7648165931
 30
0.0
 10
245.9063926904
 20
484.7648165931
 30
0.0
  0
LINE
  5
3FB
330
1B
100
AcDbEntity
 67
     1
  8
7_ALL_FEATURES
  6
Continuous
 62
     9
100
AcDbLine
 10
248.0277130339
 20
484.0148165931
 30
0.0
 11
248.0277130339
 21
488.5148165931
 31
0.0
  0
LINE
  5
3FC
330
1B
100
AcDbEntity
 67
     1
  8
7_ALL_FEATURES
  6
Continuous
 62
     9
100
AcDbLine
 10
245.0277130339
 20
379.5148165931
 30
0.0
 11
246.5277130339
 21
379.5148165931
 31
0.0
  0
LINE
  5
3FD
330
1B
100
AcDbEntity
 67
     1
  8
7_ALL_FEATURES
  6
Continuous
 62
     9
100
AcDbLine
 10
246.5277130339
 20
356.0148165931
 30
0.0
 11
245.0277130339
 21
356.0148165931
 31
0.0
  0
LINE
  5
3FE
330
1B
100
AcDbEntity
 67
     1
  8
7_ALL_FEATURES
  6
Continuous
 62
     9
100
AcDbLine
 10
245.0277130339
 20
503.5148165931
 30
0.0
 11
246.5277130339
 21
503.5148165931
 31
0.0
  0
LINE
  5
3FF
330
1B
100
AcDbEntity
 67
     1
  8
7_ALL_FEATURES
  6
Continuous
 62
     9
100
AcDbLine
 10
246.5277130339
 20
492.5148165931
 30
0.0
 11
245.0277130339
 21
492.5148165931
 31
0.0
  0
SPLINE
  5
400
330
1B
100
AcDbEntity
 67
     1
  8
7_ALL_FEATURES
  6
Continuous
 62
     7
100
AcDbSpline
 70
     0
 71
     3
 72
    19
 73
    15
 74
     0
 42
0.000000001
 43
0.0000001
 40
0.0
 40
0.0
 40
0.0
 40
0.0
 40
0.1115800455
 40
0.1612469214
 40
0.2119140142
 40
0.2684330085
 40
0.3347171055
 40
0.5001133953
 40
0.6653569658
 40
0.7316105202
 40
0.7881115448
 40
0.8387686225
 40
0.8884282745
 40
1.0
 40
1.0
 40
1.0
 40
1.0
 10
245.9063926904
 20
375.7648165931
 30
0.0
 10
245.7585523214
 20
375.7648165931
 30
0.0
 10
245.5361123798
 20
375.7270371218
 30
0.0
 10
245.3056948381
 20
375.5589317439
 30
0.0
 10
245.1830586725
 20
375.387193279
 30
0.0
 10
245.1035905278
 20
375.1694374646
 30
0.0
 10
245.0408418224
 20
374.7915225388
 30
0.0
 10
245.0354441147
 20
374.2645677208
 30
0.0
 10
245.0408989234
 20
373.7376522937
 30
0.0
 10
245.1036494946
 20
373.3600110759
 30
0.0
 10
245.1830984994
 20
373.1423290608
 30
0.0
 10
245.3057481138
 20
372.9706577607
 30
0.0
 10
245.5361458656
 20
372.8025914073
 30
0.0
 10
245.7585633451
 20
372.7648165931
 30
0.0
 10
245.9063926904
 20
372.7648165931
 30
0.0
  0
LINE
  5
401
330
1B
100
AcDbEntity
 67
     1
  8
7_ALL_FEATURES
  6
Continuous
 62
     9
100
AcDbLine
 10
248.0277130339
 20
372.0148165931
 30
0.0
 11
248.0277130339
 21
376.5148165931
 31
0.0
  0
LINE
  5
402
330
1B
100
AcDbEntity
 67
     1
  8
7_ALL_FEATURES
  6
Continuous
 62
     9
100
AcDbLine
 10
245.0277130339
 20
491.5148165931
 30
0.0
 11
246.5277130339
 21
491.5148165931
 31
0.0
  0
LINE
  5
403
330
1B
100
AcDbEntity
 67
     1
  8
7_ALL_FEATURES
  6
Continuous
 62
     7
100
AcDbLine
 10
746.5291997553
 20
489.7648165931
 30
0.0
 11
748.0277130339
 21
489.7648165931
 31
0.0
  0
LINE
  5
404
330
1B
100
AcDbEntity
 67
     1
  8
7_ALL_FEATURES
  6
Continuous
 62
     7
100
AcDbLine
 10
746.5277130339
 20
354.0148165931
 30
0.0
 11
748.0277130339
 21
354.0148165931
 31
0.0
  0
LINE
  5
405
330
1B
100
AcDbEntity
 67
     1
  8
7_ALL_FEATURES
  6
Continuous
 62
     7
100
AcDbLine
 10
748.0277130339
 20
482.7648165931
 30
0.0
 11
746.5277130339
 21
482.7648165931
 31
0.0
  0
LINE
  5
406
330
1B
100
AcDbEntity
 67
     1
  8
7_ALL_FEATURES
  6
Continuous
 62
     7
100
AcDbLine
 10
746.5277130339
 20
492.0148165931
 30
0.0
 11
748.0277130339
 21
492.0148165931
 31
0.0
  0
LINE
  5
407
330
1B
100
AcDbEntity
 67
     1
  8
7_ALL_FEATURES
  6
Continuous
 62
     7
100
AcDbLine
 10
746.5277130339
 20
503.5148165931
 30
0.0
 11
746.5277130339
 21
492.5148165931
 31
0.0
  0
LINE
  5
408
330
1B
100
AcDbEntity
 67
     1
  8
7_ALL_FEATURES
  6
Continuous
 62
     7
100
AcDbLine
 10
733.0277130339
 20
488.2648165931
 30
0.0
 11
733.0277130339
 21
484.2648165931
 31
0.0
  0
ARC
  5
409
330
1B
100
AcDbEntity
 67
     1
  8
7_ALL_FEATURES
  6
Continuous
 62
     7
100
AcDbCircle
 10
734.5277130339
 20
488.2648165931
 30
0.0
 40
1.5
100
AcDbArc
 50
170.173519033
 51
180.0
  0
ARC
  5
40A
330
1B
100
AcDbEntity
 67
     1
  8
7_ALL_FEATURES
  6
Continuous
 62
     7
100
AcDbCircle
 10
734.5277130339
 20
484.2648165931
 30
0.0
 40
1.5
100
AcDbArc
 50
180.0
 51
189.826689932
  0
LINE
  5
40B
330
1B
100
AcDbEntity
 67
     1
  8
7_ALL_FEATURES
  6
Continuous
 62
     7
100
AcDbLine
 10
748.0277130339
 20
504.0148165931
 30
0.0
 11
746.5277130339
 21
504.0148165931
 31
0.0
  0
LINE
  5
40C
330
1B
100
AcDbEntity
 67
     1
  8
7_ALL_FEATURES
  6
Continuous
 62
     7
100
AcDbLine
 10
748.0277130339
 20
480.5148165931
 30
0.0
 11
746.5277130339
 21
480.5148165931
 31
0.0
  0
LINE
  5
40D
330
1B
100
AcDbEntity
 67
     1
  8
7_ALL_FEATURES
  6
Continuous
 62
     7
100
AcDbLine
 10
746.5277130339
 20
480.0148165931
 30
0.0
 11
746.5277130339
 21
380.5148165931
 31
0.0
  0
LINE
  5
40E
330
1B
100
AcDbEntity
 67
     1
  8
7_ALL_FEATURES
  6
Continuous
 62
     7
100
AcDbLine
 10
746.5277130339
 20
380.0148165931
 30
0.0
 11
748.0277130339
 21
380.0148165931
 31
0.0
  0
LINE
  5
40F
330
1B
100
AcDbEntity
 67
     1
  8
7_ALL_FEATURES
  6
Continuous
 62
     7
100
AcDbLine
 10
746.5291997553
 20
377.7648165931
 30
0.0
 11
748.0277130339
 21
377.7648165931
 31
0.0
  0
SPLINE
  5
410
330
1B
100
AcDbEntity
 67
     1
  8
7_ALL_FEATURES
  6
Continuous
 62
     7
100
AcDbSpline
 70
     0
 71
     3
 72
    19
 73
    15
 74
     0
 42
0.000000001
 43
0.0000001
 40
0.0
 40
0.0
 40
0.0
 40
0.0
 40
0.10680027
 40
0.2311432716
 40
0.2972343935
 40
0.3644941901
 40
0.4322338957
 40
0.5000884296
 40
0.5678638715
 40
0.6355750913
 40
0.7028164446
 40
0.768890529
 40
0.8932095981
 40
1.0
 40
1.0
 40
1.0
 40
1.0
 10
747.1490333775
 20
375.7648165931
 30
0.0
 10
746.9635572076
 20
375.7648165931
 30
0.0
 10
746.562939475
 20
375.6831276665
 30
0.0
 10
746.0929914156
 20
375.4578818922
 30
0.0
 10
745.7350254259
 20
375.186490141
 30
0.0
 10
745.4960457975
 20
374.9287767098
 30
0.0
 10
745.3193280252
 20
374.6190872531
 30
0.0
 10
745.249016833
 20
374.2644787857
 30
0.0
 10
745.3197136324
 20
373.9100628721
 30
0.0
 10
745.4962379552
 20
373.6005303152
 30
0.0
 10
745.7352525614
 20
373.3429874612
 30
0.0
 10
746.0931262305
 20
373.0716610881
 30
0.0
 10
746.5630193105
 20
372.8464943398
 30
0.0
 10
746.9635743451
 20
372.7648165931
 30
0.0
 10
747.1490333775
 20
372.7648165931
 30
0.0
  0
LINE
  5
411
330
1B
100
AcDbEntity
 67
     1
  8
7_ALL_FEATURES
  6
Continuous
 62
     7
100
AcDbLine
 10
748.0277130339
 20
370.7648165931
 30
0.0
 11
748.0277130339
 21
377.7648165931
 31
0.0
  0
LINE
  5
412
330
1B
100
AcDbEntity
 67
     1
  8
7_ALL_FEATURES
  6
Continuous
 62
     7
100
AcDbLine
 10
748.0277130339
 20
482.7648165931
 30
0.0
 11
748.0277130339
 21
489.7648165931
 31
0.0
  0
SPLINE
  5
413
330
1B
100
AcDbEntity
 67
     1
  8
7_ALL_FEATURES
  6
Continuous
 62
     7
100
AcDbSpline
 70
     0
 71
     3
 72
    19
 73
    15
 74
     0
 42
0.000000001
 43
0.0000001
 40
0.0
 40
0.0
 40
0.0
 40
0.0
 40
0.10680027
 40
0.2311432716
 40
0.2972343935
 40
0.3644941901
 40
0.4322338957
 40
0.5000884296
 40
0.5678638715
 40
0.6355750913
 40
0.7028164446
 40
0.768890529
 40
0.8932095981
 40
1.0
 40
1.0
 40
1.0
 40
1.0
 10
747.1490333775
 20
487.7648165931
 30
0.0
 10
746.9635572076
 20
487.7648165931
 30
0.0
 10
746.562939475
 20
487.6831276665
 30
0.0
 10
746.0929914156
 20
487.4578818922
 30
0.0
 10
745.7350254259
 20
487.186490141
 30
0.0
 10
745.4960457975
 20
486.9287767098
 30
0.0
 10
745.3193280252
 20
486.6190872532
 30
0.0
 10
745.249016833
 20
486.2644787857
 30
0.0
 10
745.3197136324
 20
485.9100628721
 30
0.0
 10
745.4962379552
 20
485.6005303152
 30
0.0
 10
745.7352525614
 20
485.3429874612
 30
0.0
 10
746.0931262305
 20
485.0716610881
 30
0.0
 10
746.5630193105
 20
484.8464943398
 30
0.0
 10
746.9635743451
 20
484.7648165931
 30
0.0
 10
747.1490333775
 20
484.7648165931
 30
0.0
  0
SPLINE
  5
414
330
1B
100
AcDbEntity
 67
     1
  8
7_ALL_FEATURES
  6
Continuous
 62
     7
100
AcDbSpline
 70
     0
 71
     3
 72
    10
 73
     6
 74
     0
 42
0.000000001
 43
0.0000001
 40
0.0
 40
0.0
 40
0.0
 40
0.0
 40
0.2145692541
 40
0.4595548515
 40
1.0
 40
1.0
 40
1.0
 40
1.0
 10
746.3723299652
 20
484.954212154
 30
0.0
 10
746.4182176111
 20
485.0374079307
 30
0.0
 10
746.4750577874
 20
485.2368575894
 30
0.0
 10
746.521583924
 20
485.6767957124
 30
0.0
 10
746.5227135185
 20
486.0255065177
 30
0.0
 10
746.5227135185
 20
486.2648165931
 30
0.0
  0
SPLINE
  5
415
330
1B
100
AcDbEntity
 67
     1
  8
7_ALL_FEATURES
  6
Continuous
 62
     7
100
AcDbSpline
 70
     0
 71
     3
 72
    10
 73
     6
 74
     0
 42
0.000000001
 43
0.0000001
 40
0.0
 40
0.0
 40
0.0
 40
0.0
 40
0.5403384332
 40
0.7853379999
 40
1.0
 40
1.0
 40
1.0
 40
1.0
 10
746.5227135185
 20
486.2648165931
 30
0.0
 10
746.5227135185
 20
486.5038536082
 30
0.0
 10
746.5215764452
 20
486.8521866377
 30
0.0
 10
746.4752151507
 20
487.2917301874
 30
0.0
 10
746.4186223326
 20
487.4910566476
 30
0.0
 10
746.3729409624
 20
487.5743103898
 30
0.0
  0
LINE
  5
416
330
1B
100
AcDbEntity
 67
     1
  8
7_ALL_FEATURES
  6
Continuous
 62
     7
100
AcDbLine
 10
746.5277130339
 20
492.3219962692
 30
0.0
 11
746.5277130339
 21
492.5148165931
 31
0.0
  0
LINE
  5
417
330
1B
100
AcDbEntity
 67
     1
  8
7_ALL_FEATURES
  6
Continuous
 62
     7
100
AcDbLine
 10
746.5277130339
 20
480.0148165931
 30
0.0
 11
746.5277130339
 21
480.4761338601
 31
0.0
  0
LINE
  5
418
330
1B
100
AcDbEntity
 67
     1
  8
7_ALL_FEATURES
  6
Continuous
 62
     7
100
AcDbLine
 10
746.5277130339
 20
380.3219962692
 30
0.0
 11
746.5277130339
 21
380.5148165931
 31
0.0
  0
LINE
  5
419
330
1B
100
AcDbEntity
 67
     1
  8
7_ALL_FEATURES
  6
Continuous
 62
     7
100
AcDbLine
 10
746.5277130339
 20
368.0148165931
 30
0.0
 11
746.5277130339
 21
368.4761338601
 31
0.0
  0
LINE
  5
41A
330
1B
100
AcDbEntity
 67
     1
  8
7_ALL_FEATURES
  6
Continuous
 62
     7
100
AcDbLine
 10
746.5277130339
 20
355.3948858819
 30
0.0
 11
746.5277130339
 21
356.0148165931
 31
0.0
  0
SPLINE
  5
41B
330
1B
100
AcDbEntity
 67
     1
  8
7_ALL_FEATURES
  6
Continuous
 62
     7
100
AcDbSpline
 70
     0
 71
     3
 72
    10
 73
     6
 74
     0
 42
0.000000001
 43
0.0000001
 40
0.0
 40
0.0
 40
0.0
 40
0.0
 40
0.5403384332
 40
0.7853379999
 40
1.0
 40
1.0
 40
1.0
 40
1.0
 10
746.5227135185
 20
374.2648165931
 30
0.0
 10
746.5227135185
 20
374.5038536082
 30
0.0
 10
746.5215764452
 20
374.8521866377
 30
0.0
 10
746.4752151507
 20
375.2917301874
 30
0.0
 10
746.4186223326
 20
375.4910566476
 30
0.0
 10
746.3729409624
 20
375.5743103898
 30
0.0
  0
SPLINE
  5
41C
330
1B
100
AcDbEntity
 67
     1
  8
7_ALL_FEATURES
  6
Continuous
 62
     7
100
AcDbSpline
 70
     0
 71
     3
 72
    10
 73
     6
 74
     0
 42
0.000000001
 43
0.0000001
 40
0.0
 40
0.0
 40
0.0
 40
0.0
 40
0.2145692541
 40
0.4595548515
 40
1.0
 40
1.0
 40
1.0
 40
1.0
 10
746.3723299652
 20
372.954212154
 30
0.0
 10
746.4182176111
 20
373.0374079307
 30
0.0
 10
746.4750577874
 20
373.2368575894
 30
0.0
 10
746.521583924
 20
373.6767957124
 30
0.0
 10
746.5227135185
 20
374.0255065177
 30
0.0
 10
746.5227135185
 20
374.2648165931
 30
0.0
  0
ARC
  5
41D
330
1B
100
AcDbEntity
 67
     1
  8
7_ALL_FEATURES
  6
Continuous
 62
     7
100
AcDbCircle
 10
734.5277130339
 20
376.2648165931
 30
0.0
 40
1.5
100
AcDbArc
 50
170.173519033
 51
180.0
  0
LINE
  5
41E
330
1B
100
AcDbEntity
 67
     1
  8
7_ALL_FEATURES
  6
Continuous
 62
     7
100
AcDbLine
 10
733.0277130339
 20
376.2648165931
 30
0.0
 11
733.0277130339
 21
372.2648165931
 31
0.0
  0
ARC
  5
41F
330
1B
100
AcDbEntity
 67
     1
  8
7_ALL_FEATURES
  6
Continuous
 62
     7
100
AcDbCircle
 10
734.5277130339
 20
372.2648165931
 30
0.0
 40
1.5
100
AcDbArc
 50
180.0
 51
189.826689932
  0
LINE
  5
420
330
1B
100
AcDbEntity
 67
     1
  8
7_ALL_FEATURES
  6
Continuous
 62
     7
100
AcDbLine
 10
746.5277130339
 20
503.5148165931
 30
0.0
 11
746.5277130339
 21
503.9761338601
 31
0.0
  0
LINE
  5
421
330
1B
100
AcDbEntity
 67
     1
  8
7_ALL_FEATURES
  6
Continuous
 62
     7
100
AcDbLine
 10
748.0277130339
 20
370.7648165931
 30
0.0
 11
746.5277130339
 21
370.7648165931
 31
0.0
  0
LINE
  5
422
330
1B
100
AcDbEntity
 67
     1
  8
7_ALL_FEATURES
  6
Continuous
 62
     7
100
AcDbLine
 10
748.0277130339
 20
368.5148165931
 30
0.0
 11
746.5277130339
 21
368.5148165931
 31
0.0
  0
LINE
  5
423
330
1B
100
AcDbEntity
 67
     1
  8
7_ALL_FEATURES
  6
Continuous
 62
     7
100
AcDbLine
 10
746.5277130339
 20
368.0148165931
 30
0.0
 11
746.5277130339
 21
356.0148165931
 31
0.0
  0
LINE
  5
424
330
1B
100
AcDbEntity
 67
     1
  8
7_ALL_FEATURES
  6
Continuous
 62
     7
100
AcDbLine
 10
748.0277130339
 20
356.0148165931
 30
0.0
 11
748.0277130339
 21
354.0148165931
 31
0.0
  0
LINE
  5
425
330
1B
100
AcDbEntity
 67
     1
  8
7_ALL_FEATURES
  6
Continuous
 62
     7
100
AcDbLine
 10
748.0277130339
 20
368.0148165931
 30
0.0
 11
748.0277130339
 21
356.0148165931
 31
0.0
  0
LINE
  5
426
330
1B
100
AcDbEntity
 67
     1
  8
7_ALL_FEATURES
  6
Continuous
 62
     7
100
AcDbLine
 10
748.0277130339
 20
368.5148165931
 30
0.0
 11
748.0277130339
 21
368.0148165931
 31
0.0
  0
LINE
  5
427
330
1B
100
AcDbEntity
 67
     1
  8
7_ALL_FEATURES
  6
Continuous
 62
     7
100
AcDbLine
 10
748.0277130339
 20
369.0148165931
 30
0.0
 11
748.0277130339
 21
368.5148165931
 31
0.0
  0
LINE
  5
428
330
1B
100
AcDbEntity
 67
     1
  8
7_ALL_FEATURES
  6
Continuous
 62
     7
100
AcDbLine
 10
748.0277130339
 20
370.7648165931
 30
0.0
 11
748.0277130339
 21
369.0148165931
 31
0.0
  0
LINE
  5
429
330
1B
100
AcDbEntity
 67
     1
  8
7_ALL_FEATURES
  6
Continuous
 62
     7
100
AcDbLine
 10
748.0277130339
 20
379.5148165931
 30
0.0
 11
748.0277130339
 21
377.7648165931
 31
0.0
  0
LINE
  5
42A
330
1B
100
AcDbEntity
 67
     1
  8
7_ALL_FEATURES
  6
Continuous
 62
     7
100
AcDbLine
 10
748.0277130339
 20
380.0148165931
 30
0.0
 11
748.0277130339
 21
379.5148165931
 31
0.0
  0
LINE
  5
42B
330
1B
100
AcDbEntity
 67
     1
  8
7_ALL_FEATURES
  6
Continuous
 62
     7
100
AcDbLine
 10
748.0277130339
 20
380.5148165931
 30
0.0
 11
748.0277130339
 21
380.0148165931
 31
0.0
  0
LINE
  5
42C
330
1B
100
AcDbEntity
 67
     1
  8
7_ALL_FEATURES
  6
Continuous
 62
     7
100
AcDbLine
 10
748.0277130339
 20
480.0148165931
 30
0.0
 11
748.0277130339
 21
380.5148165931
 31
0.0
  0
LINE
  5
42D
330
1B
100
AcDbEntity
 67
     1
  8
7_ALL_FEATURES
  6
Continuous
 62
     7
100
AcDbLine
 10
748.0277130339
 20
480.5148165931
 30
0.0
 11
748.0277130339
 21
480.0148165931
 31
0.0
  0
LINE
  5
42E
330
1B
100
AcDbEntity
 67
     1
  8
7_ALL_FEATURES
  6
Continuous
 62
     7
100
AcDbLine
 10
748.0277130339
 20
481.0148165931
 30
0.0
 11
748.0277130339
 21
480.5148165931
 31
0.0
  0
LINE
  5
42F
330
1B
100
AcDbEntity
 67
     1
  8
7_ALL_FEATURES
  6
Continuous
 62
     7
100
AcDbLine
 10
748.0277130339
 20
482.7648165931
 30
0.0
 11
748.0277130339
 21
481.0148165931
 31
0.0
  0
LINE
  5
430
330
1B
100
AcDbEntity
 67
     1
  8
7_ALL_FEATURES
  6
Continuous
 62
     7
100
AcDbLine
 10
748.0277130339
 20
491.5148165931
 30
0.0
 11
748.0277130339
 21
489.7648165931
 31
0.0
  0
LINE
  5
431
330
1B
100
AcDbEntity
 67
     1
  8
7_ALL_FEATURES
  6
Continuous
 62
     7
100
AcDbLine
 10
748.0277130339
 20
492.0148165931
 30
0.0
 11
748.0277130339
 21
491.5148165931
 31
0.0
  0
LINE
  5
432
330
1B
100
AcDbEntity
 67
     1
  8
7_ALL_FEATURES
  6
Continuous
 62
     7
100
AcDbLine
 10
748.0277130339
 20
492.5148165931
 30
0.0
 11
748.0277130339
 21
492.0148165931
 31
0.0
  0
LINE
  5
433
330
1B
100
AcDbEntity
 67
     1
  8
7_ALL_FEATURES
  6
Continuous
 62
     7
100
AcDbLine
 10
748.0277130339
 20
503.5148165931
 30
0.0
 11
748.0277130339
 21
492.5148165931
 31
0.0
  0
LINE
  5
434
330
1B
100
AcDbEntity
 67
     1
  8
7_ALL_FEATURES
  6
Continuous
 62
     7
100
AcDbLine
 10
748.0277130339
 20
504.0148165931
 30
0.0
 11
748.0277130339
 21
503.5148165931
 31
0.0
  0
LINE
  5
435
330
1B
100
AcDbEntity
 67
     1
  8
7_ALL_FEATURES
  6
Continuous
 62
     9
100
AcDbLine
 10
748.0277130339
 20
369.0148165931
 30
0.0
 11
746.5277130339
 21
369.0148165931
 31
0.0
  0
SPLINE
  5
436
330
1B
100
AcDbEntity
 67
     1
  8
7_ALL_FEATURES
  6
Continuous
 62
     7
100
AcDbSpline
 70
     0
 71
     3
 72
    19
 73
    15
 74
     0
 42
0.000000001
 43
0.0000001
 40
0.0
 40
0.0
 40
0.0
 40
0.0
 40
0.1115800455
 40
0.1612469214
 40
0.2119140142
 40
0.2684330085
 40
0.3347171055
 40
0.5001133953
 40
0.6653569658
 40
0.7316105202
 40
0.7881115448
 40
0.8387686225
 40
0.8884282745
 40
1.0
 40
1.0
 40
1.0
 40
1.0
 10
747.1490333775
 20
484.7648165931
 30
0.0
 10
747.2968737465
 20
484.7648165931
 30
0.0
 10
747.5193136881
 20
484.8025960644
 30
0.0
 10
747.7497312297
 20
484.9707014423
 30
0.0
 10
747.8723673953
 20
485.1424399071
 30
0.0
 10
747.95183554
 20
485.3601957216
 30
0.0
 10
748.0145842455
 20
485.7381106474
 30
0.0
 10
748.0199819532
 20
486.2650654654
 30
0.0
 10
748.0145271445
 20
486.7919808924
 30
0.0
 10
747.9517765732
 20
487.1696221102
 30
0.0
 10
747.8723275685
 20
487.3873041254
 30
0.0
 10
747.7496779541
 20
487.5589754255
 30
0.0
 10
747.5192802023
 20
487.7270417789
 30
0.0
 10
747.2968627227
 20
487.7648165931
 30
0.0
 10
747.1490333775
 20
487.7648165931
 30
0.0
  0
LINE
  5
437
330
1B
100
AcDbEntity
 67
     1
  8
7_ALL_FEATURES
  6
Continuous
 62
     9
100
AcDbLine
 10
746.5277130339
 20
368.0148165931
 30
0.0
 11
748.0277130339
 21
368.0148165931
 31
0.0
  0
LINE
  5
438
330
1B
100
AcDbEntity
 67
     1
  8
7_ALL_FEATURES
  6
Continuous
 62
     9
100
AcDbLine
 10
746.5277130339
 20
379.5148165931
 30
0.0
 11
748.0277130339
 21
379.5148165931
 31
0.0
  0
LINE
  5
439
330
1B
100
AcDbEntity
 67
     1
  8
7_ALL_FEATURES
  6
Continuous
 62
     9
100
AcDbLine
 10
748.0277130339
 20
481.0148165931
 30
0.0
 11
746.5277130339
 21
481.0148165931
 31
0.0
  0
SPLINE
  5
43A
330
1B
100
AcDbEntity
 67
     1
  8
7_ALL_FEATURES
  6
Continuous
 62
     7
100
AcDbSpline
 70
     0
 71
     3
 72
    19
 73
    15
 74
     0
 42
0.000000001
 43
0.0000001
 40
0.0
 40
0.0
 40
0.0
 40
0.0
 40
0.1115800455
 40
0.1612469214
 40
0.2119140142
 40
0.2684330085
 40
0.3347171055
 40
0.5001133953
 40
0.6653569658
 40
0.7316105202
 40
0.7881115448
 40
0.8387686225
 40
0.8884282745
 40
1.0
 40
1.0
 40
1.0
 40
1.0
 10
747.1490333775
 20
372.7648165931
 30
0.0
 10
747.2968737465
 20
372.7648165931
 30
0.0
 10
747.5193136881
 20
372.8025960644
 30
0.0
 10
747.7497312297
 20
372.9707014423
 30
0.0
 10
747.8723673953
 20
373.1424399071
 30
0.0
 10
747.95183554
 20
373.3601957216
 30
0.0
 10
748.0145842455
 20
373.7381106474
 30
0.0
 10
748.0199819532
 20
374.2650654654
 30
0.0
 10
748.0145271445
 20
374.7919808924
 30
0.0
 10
747.9517765732
 20
375.1696221102
 30
0.0
 10
747.8723275685
 20
375.3873041254
 30
0.0
 10
747.7496779541
 20
375.5589754255
 30
0.0
 10
747.5192802023
 20
375.7270417789
 30
0.0
 10
747.2968627227
 20
375.7648165931
 30
0.0
 10
747.1490333775
 20
375.7648165931
 30
0.0
  0
LINE
  5
43B
330
1B
100
AcDbEntity
 67
     1
  8
7_ALL_FEATURES
  6
Continuous
 62
     9
100
AcDbLine
 10
748.0277130339
 20
356.0148165931
 30
0.0
 11
746.5277130339
 21
356.0148165931
 31
0.0
  0
LINE
  5
43C
330
1B
100
AcDbEntity
 67
     1
  8
7_ALL_FEATURES
  6
Continuous
 62
     9
100
AcDbLine
 10
746.5277130339
 20
491.5148165931
 30
0.0
 11
748.0277130339
 21
491.5148165931
 31
0.0
  0
LINE
  5
43D
330
1B
100
AcDbEntity
 67
     1
  8
7_ALL_FEATURES
  6
Continuous
 62
     9
100
AcDbLine
 10
745.0277130339
 20
376.5148165931
 30
0.0
 11
745.0277130339
 21
372.0148165931
 31
0.0
  0
LINE
  5
43E
330
1B
100
AcDbEntity
 67
     1
  8
7_ALL_FEATURES
  6
Continuous
 62
     9
100
AcDbLine
 10
746.5277130339
 20
480.0148165931
 30
0.0
 11
748.0277130339
 21
480.0148165931
 31
0.0
  0
LINE
  5
43F
330
1B
100
AcDbEntity
 67
     1
  8
7_ALL_FEATURES
  6
Continuous
 62
     9
100
AcDbLine
 10
748.0277130339
 20
492.5148165931
 30
0.0
 11
746.5277130339
 21
492.5148165931
 31
0.0
  0
LINE
  5
440
330
1B
100
AcDbEntity
 67
     1
  8
7_ALL_FEATURES
  6
Continuous
 62
     9
100
AcDbLine
 10
746.5277130339
 20
503.5148165931
 30
0.0
 11
748.0277130339
 21
503.5148165931
 31
0.0
  0
LINE
  5
441
330
1B
100
AcDbEntity
 67
     1
  8
7_ALL_FEATURES
  6
Continuous
 62
     9
100
AcDbLine
 10
748.0277130339
 20
380.5148165931
 30
0.0
 11
746.5277130339
 21
380.5148165931
 31
0.0
  0
LINE
  5
442
330
1B
100
AcDbEntity
 67
     1
  8
7_ALL_FEATURES
  6
Continuous
 62
     9
100
AcDbLine
 10
745.0277130339
 20
488.5148165931
 30
0.0
 11
745.0277130339
 21
484.0148165931
 31
0.0
  0
LINE
  5
443
330
1B
100
AcDbEntity
 67
     1
  8
02___PRT_ALL_AXES
  6
Continuous
 62
     7
100
AcDbLine
 10
746.5277130339
 20
354.0148165931
 30
0.0
 11
746.5277130339
 21
355.0148165931
 31
0.0
  0
LINE
  5
444
330
1B
100
AcDbEntity
 67
     1
  8
02___PRT_ALL_AXES
  6
Continuous
 62
     7
100
AcDbLine
 10
746.5277130339
 20
355.0148165931
 30
0.0
 11
746.5277130339
 21
356.0148165931
 31
0.0
  0
LINE
  5
445
330
1B
100
AcDbEntity
 67
     1
  8
02___PRT_ALL_AXES
  6
Continuous
 62
     7
100
AcDbLine
 10
746.5277130339
 20
356.0148165931
 30
0.0
 11
746.5277130339
 21
368.0148165931
 31
0.0
  0
LINE
  5
446
330
1B
100
AcDbEntity
 67
     1
  8
02___PRT_ALL_AXES
  6
Continuous
 62
     7
100
AcDbLine
 10
746.5277130339
 20
368.0148165931
 30
0.0
 11
746.5277130339
 21
368.3148165931
 31
0.0
  0
LINE
  5
447
330
1B
100
AcDbEntity
 67
     1
  8
02___PRT_ALL_AXES
  6
Continuous
 62
     7
100
AcDbLine
 10
746.5277130339
 20
368.3148165931
 30
0.0
 11
746.5277130339
 21
368.4880216738
 31
0.0
  0
LINE
  5
448
330
1B
100
AcDbEntity
 67
     1
  8
02___PRT_ALL_AXES
  6
Continuous
 62
     7
100
AcDbLine
 10
746.5277130339
 20
368.4880216738
 30
0.0
 11
746.5277130339
 21
368.5148165931
 31
0.0
  0
LINE
  5
449
330
1B
100
AcDbEntity
 67
     1
  8
02___PRT_ALL_AXES
  6
Continuous
 62
     7
100
AcDbLine
 10
746.5277130339
 20
368.5148165931
 30
0.0
 11
746.5277130339
 21
368.7648165931
 31
0.0
  0
LINE
  5
44A
330
1B
100
AcDbEntity
 67
     1
  8
02___PRT_ALL_AXES
  6
Continuous
 62
     7
100
AcDbLine
 10
746.5277130339
 20
368.7648165931
 30
0.0
 11
746.5277130339
 21
369.0148165931
 31
0.0
  0
LINE
  5
44B
330
1B
100
AcDbEntity
 67
     1
  8
02___PRT_ALL_AXES
  6
Continuous
 62
     7
100
AcDbLine
 10
746.5277130339
 20
369.0148165931
 30
0.0
 11
746.5277130339
 21
371.5148165931
 31
0.0
  0
LINE
  5
44C
330
1B
100
AcDbEntity
 67
     1
  8
02___PRT_ALL_AXES
  6
Continuous
 62
     7
100
AcDbLine
 10
746.5277130339
 20
371.5148165931
 30
0.0
 11
746.5277130339
 21
372.0148165931
 31
0.0
  0
LINE
  5
44D
330
1B
100
AcDbEntity
 67
     1
  8
02___PRT_ALL_AXES
  6
Continuous
 62
     7
100
AcDbLine
 10
746.5277130339
 20
376.5148165931
 30
0.0
 11
746.5277130339
 21
377.0148165931
 31
0.0
  0
LINE
  5
44E
330
1B
100
AcDbEntity
 67
     1
  8
02___PRT_ALL_AXES
  6
Continuous
 62
     7
100
AcDbLine
 10
746.5277130339
 20
377.0148165931
 30
0.0
 11
746.5277130339
 21
379.5148165931
 31
0.0
  0
LINE
  5
44F
330
1B
100
AcDbEntity
 67
     1
  8
02___PRT_ALL_AXES
  6
Continuous
 62
     7
100
AcDbLine
 10
746.5277130339
 20
379.5148165931
 30
0.0
 11
746.5277130339
 21
380.0148165931
 31
0.0
  0
LINE
  5
450
330
1B
100
AcDbEntity
 67
     1
  8
02___PRT_ALL_AXES
  6
Continuous
 62
     7
100
AcDbLine
 10
746.5277130339
 20
380.1148165931
 30
0.0
 11
746.5277130339
 21
380.2148165931
 31
0.0
  0
LINE
  5
451
330
1B
100
AcDbEntity
 67
     1
  8
02___PRT_ALL_AXES
  6
Continuous
 62
     7
100
AcDbLine
 10
746.5277130339
 20
380.2148165931
 30
0.0
 11
746.5277130339
 21
380.5148165931
 31
0.0
  0
LINE
  5
452
330
1B
100
AcDbEntity
 67
     1
  8
02___PRT_ALL_AXES
  6
Continuous
 62
     7
100
AcDbLine
 10
746.5277130339
 20
380.5148165931
 30
0.0
 11
746.5277130339
 21
480.0148165931
 31
0.0
  0
LINE
  5
453
330
1B
100
AcDbEntity
 67
     1
  8
02___PRT_ALL_AXES
  6
Continuous
 62
     7
100
AcDbLine
 10
746.5277130339
 20
480.0148165931
 30
0.0
 11
746.5277130339
 21
480.3148165931
 31
0.0
  0
LINE
  5
454
330
1B
100
AcDbEntity
 67
     1
  8
02___PRT_ALL_AXES
  6
Continuous
 62
     7
100
AcDbLine
 10
746.5277130339
 20
480.3148165931
 30
0.0
 11
746.5277130339
 21
480.4880216738
 31
0.0
  0
LINE
  5
455
330
1B
100
AcDbEntity
 67
     1
  8
02___PRT_ALL_AXES
  6
Continuous
 62
     7
100
AcDbLine
 10
746.5277130339
 20
480.4880216738
 30
0.0
 11
746.5277130339
 21
480.5148165931
 31
0.0
  0
LINE
  5
456
330
1B
100
AcDbEntity
 67
     1
  8
02___PRT_ALL_AXES
  6
Continuous
 62
     7
100
AcDbLine
 10
746.5277130339
 20
480.5148165931
 30
0.0
 11
746.5277130339
 21
480.7648165931
 31
0.0
  0
LINE
  5
457
330
1B
100
AcDbEntity
 67
     1
  8
02___PRT_ALL_AXES
  6
Continuous
 62
     7
100
AcDbLine
 10
746.5277130339
 20
480.7648165931
 30
0.0
 11
746.5277130339
 21
481.0148165931
 31
0.0
  0
LINE
  5
458
330
1B
100
AcDbEntity
 67
     1
  8
02___PRT_ALL_AXES
  6
Continuous
 62
     7
100
AcDbLine
 10
746.5277130339
 20
481.0148165931
 30
0.0
 11
746.5277130339
 21
483.5148165931
 31
0.0
  0
LINE
  5
459
330
1B
100
AcDbEntity
 67
     1
  8
02___PRT_ALL_AXES
  6
Continuous
 62
     7
100
AcDbLine
 10
746.5277130339
 20
483.5148165931
 30
0.0
 11
746.5277130339
 21
484.0148165931
 31
0.0
  0
LINE
  5
45A
330
1B
100
AcDbEntity
 67
     1
  8
02___PRT_ALL_AXES
  6
Continuous
 62
     7
100
AcDbLine
 10
746.5277130339
 20
488.5148165931
 30
0.0
 11
746.5277130339
 21
489.0148165931
 31
0.0
  0
LINE
  5
45B
330
1B
100
AcDbEntity
 67
     1
  8
02___PRT_ALL_AXES
  6
Continuous
 62
     7
100
AcDbLine
 10
746.5277130339
 20
489.0148165931
 30
0.0
 11
746.5277130339
 21
491.2908038585
 31
0.0
  0
LINE
  5
45C
330
1B
100
AcDbEntity
 67
     1
  8
02___PRT_ALL_AXES
  6
Continuous
 62
     7
100
AcDbLine
 10
746.5277130339
 20
491.2908038585
 30
0.0
 11
746.5277130339
 21
492.0148165931
 31
0.0
  0
LINE
  5
45D
330
1B
100
AcDbEntity
 67
     1
  8
02___PRT_ALL_AXES
  6
Continuous
 62
     7
100
AcDbLine
 10
746.5277130339
 20
492.2148165931
 30
0.0
 11
746.5277130339
 21
492.5148165931
 31
0.0
  0
LINE
  5
45E
330
1B
100
AcDbEntity
 67
     1
  8
02___PRT_ALL_AXES
  6
Continuous
 62
     7
100
AcDbLine
 10
746.5277130339
 20
492.5148165931
 30
0.0
 11
746.5277130339
 21
503.5148165931
 31
0.0
  0
LINE
  5
45F
330
1B
100
AcDbEntity
 67
     1
  8
02___PRT_ALL_AXES
  6
Continuous
 62
     7
100
AcDbLine
 10
746.5277130339
 20
503.5148165931
 30
0.0
 11
746.5277130339
 21
503.8148165931
 31
0.0
  0
LINE
  5
460
330
1B
100
AcDbEntity
 67
     1
  8
02___PRT_ALL_AXES
  6
Continuous
 62
     7
100
AcDbLine
 10
746.5277130339
 20
503.8148165931
 30
0.0
 11
746.5277130339
 21
503.9880216738
 31
0.0
  0
LINE
  5
461
330
1B
100
AcDbEntity
 67
     1
  8
02___PRT_ALL_AXES
  6
Continuous
 62
     7
100
AcDbLine
 10
746.5277130339
 20
503.9880216738
 30
0.0
 11
746.5277130339
 21
504.0148165931
 31
0.0
  0
LINE
  5
462
330
1B
100
AcDbEntity
 67
     1
  8
02___PRT_ALL_AXES
  6
Continuous
 62
     7
100
AcDbLine
 10
746.5277130339
 20
504.0148165931
 30
0.0
 11
246.5277130339
 21
504.0148165931
 31
0.0
  0
LINE
  5
463
330
1B
100
AcDbEntity
 67
     1
  8
02___PRT_ALL_AXES
  6
Continuous
 62
     7
100
AcDbLine
 10
746.5277130339
 20
492.0148165931
 30
0.0
 11
246.5277130339
 21
492.0148165931
 31
0.0
  0
LINE
  5
464
330
1B
100
AcDbEntity
 67
     1
  8
02___PRT_ALL_AXES
  6
Continuous
 62
     7
100
AcDbLine
 10
746.5277130339
 20
488.5148165931
 30
0.0
 11
246.5277130339
 21
488.5148165931
 31
0.0
  0
LINE
  5
465
330
1B
100
AcDbEntity
 67
     1
  8
02___PRT_ALL_AXES
  6
Continuous
 62
     7
100
AcDbLine
 10
746.5277130339
 20
484.0148165931
 30
0.0
 11
246.5277130339
 21
484.0148165931
 31
0.0
  0
LINE
  5
466
330
1B
100
AcDbEntity
 67
     1
  8
02___PRT_ALL_AXES
  6
Continuous
 62
     7
100
AcDbLine
 10
746.5277130339
 20
480.5148165931
 30
0.0
 11
246.5277130339
 21
480.5148165931
 31
0.0
  0
LINE
  5
467
330
1B
100
AcDbEntity
 67
     1
  8
02___PRT_ALL_AXES
  6
Continuous
 62
     7
100
AcDbLine
 10
746.5277130339
 20
380.0148165931
 30
0.0
 11
246.5277130339
 21
380.0148165931
 31
0.0
  0
LINE
  5
468
330
1B
100
AcDbEntity
 67
     1
  8
02___PRT_ALL_AXES
  6
Continuous
 62
     7
100
AcDbLine
 10
746.5277130339
 20
376.5148165931
 30
0.0
 11
246.5277130339
 21
376.5148165931
 31
0.0
  0
LINE
  5
469
330
1B
100
AcDbEntity
 67
     1
  8
02___PRT_ALL_AXES
  6
Continuous
 62
     7
100
AcDbLine
 10
746.5277130339
 20
372.0148165931
 30
0.0
 11
246.5277130339
 21
372.0148165931
 31
0.0
  0
LINE
  5
46A
330
1B
100
AcDbEntity
 67
     1
  8
02___PRT_ALL_AXES
  6
Continuous
 62
     7
100
AcDbLine
 10
746.5277130339
 20
368.5148165931
 30
0.0
 11
246.5277130339
 21
368.5148165931
 31
0.0
  0
LINE
  5
46B
330
1B
100
AcDbEntity
 67
     1
  8
02___PRT_ALL_AXES
  6
Continuous
 62
     7
100
AcDbLine
 10
746.5277130339
 20
354.0148165931
 30
0.0
 11
246.5277130339
 21
354.0148165931
 31
0.0
  0
LINE
  5
46C
330
1B
100
AcDbEntity
 67
     1
  8
02___PRT_ALL_AXES
  6
Continuous
 62
     7
100
AcDbLine
 10
246.5277130339
 20
503.8148165931
 30
0.0
 11
246.5277130339
 21
503.9880216738
 31
0.0
  0
LINE
  5
46D
330
1B
100
AcDbEntity
 67
     1
  8
02___PRT_ALL_AXES
  6
Continuous
 62
     7
100
AcDbLine
 10
246.5277130339
 20
503.9880216738
 30
0.0
 11
246.5277130339
 21
504.0148165931
 31
0.0
  0
LINE
  5
46E
330
1B
100
AcDbEntity
 67
     1
  8
02___PRT_ALL_AXES
  6
Continuous
 62
     7
100
AcDbLine
 10
246.5277130339
 20
492.2148165931
 30
0.0
 11
246.5277130339
 21
492.5148165931
 31
0.0
  0
LINE
  5
46F
330
1B
100
AcDbEntity
 67
     1
  8
02___PRT_ALL_AXES
  6
Continuous
 62
     7
100
AcDbLine
 10
246.5277130339
 20
492.5148165931
 30
0.0
 11
246.5277130339
 21
503.5148165931
 31
0.0
  0
LINE
  5
470
330
1B
100
AcDbEntity
 67
     1
  8
02___PRT_ALL_AXES
  6
Continuous
 62
     7
100
AcDbLine
 10
246.5277130339
 20
503.5148165931
 30
0.0
 11
246.5277130339
 21
503.8148165931
 31
0.0
  0
LINE
  5
471
330
1B
100
AcDbEntity
 67
     1
  8
02___PRT_ALL_AXES
  6
Continuous
 62
     7
100
AcDbLine
 10
246.5277130339
 20
491.2908038585
 30
0.0
 11
246.5277130339
 21
492.0148165931
 31
0.0
  0
LINE
  5
472
330
1B
100
AcDbEntity
 67
     1
  8
02___PRT_ALL_AXES
  6
Continuous
 62
     7
100
AcDbLine
 10
246.5277130339
 20
489.0148165931
 30
0.0
 11
246.5277130339
 21
491.2908038585
 31
0.0
  0
LINE
  5
473
330
1B
100
AcDbEntity
 67
     1
  8
02___PRT_ALL_AXES
  6
Continuous
 62
     7
100
AcDbLine
 10
246.5277130339
 20
488.5148165931
 30
0.0
 11
246.5277130339
 21
489.0148165931
 31
0.0
  0
LINE
  5
474
330
1B
100
AcDbEntity
 67
     1
  8
02___PRT_ALL_AXES
  6
Continuous
 62
     7
100
AcDbLine
 10
246.5277130339
 20
483.5148165931
 30
0.0
 11
246.5277130339
 21
484.0148165931
 31
0.0
  0
LINE
  5
475
330
1B
100
AcDbEntity
 67
     1
  8
02___PRT_ALL_AXES
  6
Continuous
 62
     7
100
AcDbLine
 10
246.5277130339
 20
481.0148165931
 30
0.0
 11
246.5277130339
 21
483.5148165931
 31
0.0
  0
LINE
  5
476
330
1B
100
AcDbEntity
 67
     1
  8
02___PRT_ALL_AXES
  6
Continuous
 62
     7
100
AcDbLine
 10
246.5277130339
 20
480.5148165931
 30
0.0
 11
246.5277130339
 21
480.7648165931
 31
0.0
  0
LINE
  5
477
330
1B
100
AcDbEntity
 67
     1
  8
02___PRT_ALL_AXES
  6
Continuous
 62
     7
100
AcDbLine
 10
246.5277130339
 20
480.7648165931
 30
0.0
 11
246.5277130339
 21
481.0148165931
 31
0.0
  0
LINE
  5
478
330
1B
100
AcDbEntity
 67
     1
  8
02___PRT_ALL_AXES
  6
Continuous
 62
     7
100
AcDbLine
 10
246.5277130339
 20
480.3148165931
 30
0.0
 11
246.5277130339
 21
480.4880216738
 31
0.0
  0
LINE
  5
479
330
1B
100
AcDbEntity
 67
     1
  8
02___PRT_ALL_AXES
  6
Continuous
 62
     7
100
AcDbLine
 10
246.5277130339
 20
480.4880216738
 30
0.0
 11
246.5277130339
 21
480.5148165931
 31
0.0
  0
LINE
  5
47A
330
1B
100
AcDbEntity
 67
     1
  8
02___PRT_ALL_AXES
  6
Continuous
 62
     7
100
AcDbLine
 10
246.5277130339
 20
380.2148165931
 30
0.0
 11
246.5277130339
 21
380.5148165931
 31
0.0
  0
LINE
  5
47B
330
1B
100
AcDbEntity
 67
     1
  8
02___PRT_ALL_AXES
  6
Continuous
 62
     7
100
AcDbLine
 10
246.5277130339
 20
380.5148165931
 30
0.0
 11
246.5277130339
 21
480.0148165931
 31
0.0
  0
LINE
  5
47C
330
1B
100
AcDbEntity
 67
     1
  8
02___PRT_ALL_AXES
  6
Continuous
 62
     7
100
AcDbLine
 10
246.5277130339
 20
480.0148165931
 30
0.0
 11
246.5277130339
 21
480.3148165931
 31
0.0
  0
LINE
  5
47D
330
1B
100
AcDbEntity
 67
     1
  8
02___PRT_ALL_AXES
  6
Continuous
 62
     7
100
AcDbLine
 10
246.5277130339
 20
380.1148165931
 30
0.0
 11
246.5277130339
 21
380.2148165931
 31
0.0
  0
LINE
  5
47E
330
1B
100
AcDbEntity
 67
     1
  8
02___PRT_ALL_AXES
  6
Continuous
 62
     7
100
AcDbLine
 10
246.5277130339
 20
379.5148165931
 30
0.0
 11
246.5277130339
 21
380.0148165931
 31
0.0
  0
LINE
  5
47F
330
1B
100
AcDbEntity
 67
     1
  8
02___PRT_ALL_AXES
  6
Continuous
 62
     7
100
AcDbLine
 10
246.5277130339
 20
377.0148165931
 30
0.0
 11
246.5277130339
 21
379.5148165931
 31
0.0
  0
LINE
  5
480
330
1B
100
AcDbEntity
 67
     1
  8
02___PRT_ALL_AXES
  6
Continuous
 62
     7
100
AcDbLine
 10
246.5277130339
 20
376.5148165931
 30
0.0
 11
246.5277130339
 21
377.0148165931
 31
0.0
  0
LINE
  5
481
330
1B
100
AcDbEntity
 67
     1
  8
02___PRT_ALL_AXES
  6
Continuous
 62
     7
100
AcDbLine
 10
246.5277130339
 20
371.5148165931
 30
0.0
 11
246.5277130339
 21
372.0148165931
 31
0.0
  0
LINE
  5
482
330
1B
100
AcDbEntity
 67
     1
  8
02___PRT_ALL_AXES
  6
Continuous
 62
     7
100
AcDbLine
 10
246.5277130339
 20
369.0148165931
 30
0.0
 11
246.5277130339
 21
371.5148165931
 31
0.0
  0
LINE
  5
483
330
1B
100
AcDbEntity
 67
     1
  8
02___PRT_ALL_AXES
  6
Continuous
 62
     7
100
AcDbLine
 10
246.5277130339
 20
368.5148165931
 30
0.0
 11
246.5277130339
 21
368.7648165931
 31
0.0
  0
LINE
  5
484
330
1B
100
AcDbEntity
 67
     1
  8
02___PRT_ALL_AXES
  6
Continuous
 62
     7
100
AcDbLine
 10
246.5277130339
 20
368.7648165931
 30
0.0
 11
246.5277130339
 21
369.0148165931
 31
0.0
  0
LINE
  5
485
330
1B
100
AcDbEntity
 67
     1
  8
02___PRT_ALL_AXES
  6
Continuous
 62
     7
100
AcDbLine
 10
246.5277130339
 20
368.3148165931
 30
0.0
 11
246.5277130339
 21
368.4880216738
 31
0.0
  0
LINE
  5
486
330
1B
100
AcDbEntity
 67
     1
  8
02___PRT_ALL_AXES
  6
Continuous
 62
     7
100
AcDbLine
 10
246.5277130339
 20
368.4880216738
 30
0.0
 11
246.5277130339
 21
368.5148165931
 31
0.0
  0
LINE
  5
487
330
1B
100
AcDbEntity
 67
     1
  8
02___PRT_ALL_AXES
  6
Continuous
 62
     7
100
AcDbLine
 10
246.5277130339
 20
355.0148165931
 30
0.0
 11
246.5277130339
 21
356.0148165931
 31
0.0
  0
LINE
  5
488
330
1B
100
AcDbEntity
 67
     1
  8
02___PRT_ALL_AXES
  6
Continuous
 62
     7
100
AcDbLine
 10
246.5277130339
 20
356.0148165931
 30
0.0
 11
246.5277130339
 21
368.0148165931
 31
0.0
  0
LINE
  5
489
330
1B
100
AcDbEntity
 67
     1
  8
02___PRT_ALL_AXES
  6
Continuous
 62
     7
100
AcDbLine
 10
246.5277130339
 20
368.0148165931
 30
0.0
 11
246.5277130339
 21
368.3148165931
 31
0.0
  0
LINE
  5
48A
330
1B
100
AcDbEntity
 67
     1
  8
02___PRT_ALL_AXES
  6
Continuous
 62
     7
100
AcDbLine
 10
246.5277130339
 20
354.0148165931
 30
0.0
 11
246.5277130339
 21
355.0148165931
 31
0.0
  0
LINE
  5
48B
330
1B
100
AcDbEntity
 67
     1
  8
02___PRT_ALL_AXES
  6
Continuous
 62
     9
100
AcDbLine
 10
746.5277130339
 20
503.8148165931
 30
0.0
 11
246.5277130339
 21
503.8148165931
 31
0.0
  0
LINE
  5
48C
330
1B
100
AcDbEntity
 67
     1
  8
02___PRT_ALL_AXES
  6
Continuous
 62
     9
100
AcDbLine
 10
746.5277130339
 20
492.2148165931
 30
0.0
 11
246.5277130339
 21
492.2148165931
 31
0.0
  0
LINE
  5
48D
330
1B
100
AcDbEntity
 67
     1
  8
02___PRT_ALL_AXES
  6
Continuous
 62
     9
100
AcDbLine
 10
746.5277130339
 20
377.0148165931
 30
0.0
 11
246.5277130339
 21
377.0148165931
 31
0.0
  0
LINE
  5
48E
330
1B
100
AcDbEntity
 67
     1
  8
02___PRT_ALL_AXES
  6
Continuous
 62
     9
100
AcDbLine
 10
746.5277130339
 20
491.2908025931
 30
0.0
 11
246.5277130339
 21
491.2908025931
 31
0.0
  0
LINE
  5
48F
330
1B
100
AcDbEntity
 67
     1
  8
02___PRT_ALL_AXES
  6
Continuous
 62
     9
100
AcDbLine
 10
746.5277130339
 20
489.0148165931
 30
0.0
 11
246.5277130339
 21
489.0148165931
 31
0.0
  0
LINE
  5
490
330
1B
100
AcDbEntity
 67
     1
  8
02___PRT_ALL_AXES
  6
Continuous
 62
     9
100
AcDbLine
 10
746.5277130339
 20
371.5148165931
 30
0.0
 11
246.5277130339
 21
371.5148165931
 31
0.0
  0
LINE
  5
491
330
1B
100
AcDbEntity
 67
     1
  8
02___PRT_ALL_AXES
  6
Continuous
 62
     9
100
AcDbLine
 10
746.5277130339
 20
369.0148165931
 30
0.0
 11
246.5277130339
 21
369.0148165931
 31
0.0
  0
LINE
  5
492
330
1B
100
AcDbEntity
 67
     1
  8
02___PRT_ALL_AXES
  6
Continuous
 62
     9
100
AcDbLine
 10
746.5277130339
 20
368.3148165931
 30
0.0
 11
246.5277130339
 21
368.3148165931
 31
0.0
  0
LINE
  5
493
330
1B
100
AcDbEntity
 67
     1
  8
02___PRT_ALL_AXES
  6
Continuous
 62
     9
100
AcDbLine
 10
746.5277130339
 20
355.0148165931
 30
0.0
 11
246.5277130339
 21
355.0148165931
 31
0.0
  0
LINE
  5
494
330
1B
100
AcDbEntity
 67
     1
  8
02___PRT_ALL_AXES
  6
Continuous
 62
     9
100
AcDbLine
 10
746.5277130339
 20
483.5148165931
 30
0.0
 11
246.5277130339
 21
483.5148165931
 31
0.0
  0
LINE
  5
495
330
1B
100
AcDbEntity
 67
     1
  8
02___PRT_ALL_AXES
  6
Continuous
 62
     9
100
AcDbLine
 10
746.5277130339
 20
481.0148165931
 30
0.0
 11
246.5277130339
 21
481.0148165931
 31
0.0
  0
LINE
  5
496
330
1B
100
AcDbEntity
 67
     1
  8
02___PRT_ALL_AXES
  6
Continuous
 62
     9
100
AcDbLine
 10
746.5277130339
 20
480.3148165931
 30
0.0
 11
246.5277130339
 21
480.3148165931
 31
0.0
  0
LINE
  5
497
330
1B
100
AcDbEntity
 67
     1
  8
02___PRT_ALL_AXES
  6
Continuous
 62
     9
100
AcDbLine
 10
746.5277130339
 20
380.2148165931
 30
0.0
 11
246.5277130339
 21
380.2148165931
 31
0.0
  0
LINE
  5
498
330
1B
100
AcDbEntity
 67
     1
  8
02___PRT_ALL_AXES
  6
Continuous
 62
     9
100
AcDbLine
 10
746.5277130339
 20
379.5148165931
 30
0.0
 11
246.5277130339
 21
379.5148165931
 31
0.0
  0
LINE
  5
499
330
1B
100
AcDbEntity
 67
     1
  8
7_ALL_FEATURES
  6
Continuous
 62
     7
100
AcDbLine
 10
246.5277130339
 20
253.4202639994
 30
0.0
 11
245.0277130339
 21
253.4202639994
 31
0.0
  0
LINE
  5
49A
330
1B
100
AcDbEntity
 67
     1
  8
7_ALL_FEATURES
  6
Continuous
 62
     7
100
AcDbLine
 10
246.5277130339
 20
193.9202639994
 30
0.0
 11
246.5277130339
 21
193.4589467324
 31
0.0
  0
LINE
  5
49B
330
1B
100
AcDbEntity
 67
     1
  8
7_ALL_FEATURES
  6
Continuous
 62
     7
100
AcDbLine
 10
246.5277130339
 20
253.1130843233
 30
0.0
 11
246.5277130339
 21
252.9202639994
 31
0.0
  0
LINE
  5
49C
330
1B
100
AcDbEntity
 67
     1
  8
7_ALL_FEATURES
  6
Continuous
 62
     7
100
AcDbLine
 10
245.0277130339
 20
193.9202639994
 30
0.0
 11
245.0277130339
 21
252.9202639994
 31
0.0
  0
LINE
  5
49D
330
1B
100
AcDbEntity
 67
     1
  8
7_ALL_FEATURES
  6
Continuous
 62
     7
100
AcDbLine
 10
245.0277130339
 20
193.4202639994
 30
0.0
 11
245.0277130339
 21
193.9202639994
 31
0.0
  0
LINE
  5
49E
330
1B
100
AcDbEntity
 67
     1
  8
7_ALL_FEATURES
  6
Continuous
 62
     7
100
AcDbLine
 10
245.0277130339
 20
252.9202639994
 30
0.0
 11
245.0277130339
 21
253.4202639994
 31
0.0
  0
LINE
  5
49F
330
1B
100
AcDbEntity
 67
     1
  8
7_ALL_FEATURES
  6
Continuous
 62
     7
100
AcDbLine
 10
246.5277130339
 20
193.9202639994
 30
0.0
 11
246.5277130339
 21
194.8202639994
 31
0.0
  0
LINE
  5
4A0
330
1B
100
AcDbEntity
 67
     1
  8
7_ALL_FEATURES
  6
Continuous
 62
     7
100
AcDbLine
 10
246.5277130339
 20
194.8202639994
 30
0.0
 11
246.5277130339
 21
194.9202639994
 31
0.0
  0
LINE
  5
4A1
330
1B
100
AcDbEntity
 67
     1
  8
7_ALL_FEATURES
  6
Continuous
 62
     7
100
AcDbLine
 10
246.5277130339
 20
194.9202639994
 30
0.0
 11
246.5277130339
 21
251.9202639994
 31
0.0
  0
LINE
  5
4A2
330
1B
100
AcDbEntity
 67
     1
  8
7_ALL_FEATURES
  6
Continuous
 62
     7
100
AcDbLine
 10
246.5277130339
 20
251.9202639994
 30
0.0
 11
246.5277130339
 21
252.0202639994
 31
0.0
  0
LINE
  5
4A3
330
1B
100
AcDbEntity
 67
     1
  8
7_ALL_FEATURES
  6
Continuous
 62
     7
100
AcDbLine
 10
246.5277130339
 20
252.0202639994
 30
0.0
 11
246.5277130339
 21
252.9202639994
 31
0.0
  0
LINE
  5
4A4
330
1B
100
AcDbEntity
 67
     1
  8
7_ALL_FEATURES
  6
Continuous
 62
     7
100
AcDbLine
 10
245.0277130339
 20
193.4202639994
 30
0.0
 11
246.5277130339
 21
193.4202639994
 31
0.0
  0
LINE
  5
4A5
330
1B
100
AcDbEntity
 67
     1
  8
7_ALL_FEATURES
  6
Continuous
 62
     9
100
AcDbLine
 10
246.5277130339
 20
193.9202639994
 30
0.0
 11
245.0277130339
 21
193.9202639994
 31
0.0
  0
LINE
  5
4A6
330
1B
100
AcDbEntity
 67
     1
  8
7_ALL_FEATURES
  6
Continuous
 62
     9
100
AcDbLine
 10
245.0277130339
 20
252.9202639994
 30
0.0
 11
246.5277130339
 21
252.9202639994
 31
0.0
  0
LINE
  5
4A7
330
1B
100
AcDbEntity
 67
     1
  8
7_ALL_FEATURES
  6
Continuous
 62
     7
100
AcDbLine
 10
746.5277130339
 20
193.4202639994
 30
0.0
 11
748.0277130339
 21
193.4202639994
 31
0.0
  0
LINE
  5
4A8
330
1B
100
AcDbEntity
 67
     1
  8
7_ALL_FEATURES
  6
Continuous
 62
     7
100
AcDbLine
 10
746.5277130339
 20
252.9202639994
 30
0.0
 11
746.5277130339
 21
253.3815812665
 31
0.0
  0
LINE
  5
4A9
330
1B
100
AcDbEntity
 67
     1
  8
7_ALL_FEATURES
  6
Continuous
 62
     7
100
AcDbLine
 10
746.5277130339
 20
193.7274436756
 30
0.0
 11
746.5277130339
 21
193.9202639994
 31
0.0
  0
LINE
  5
4AA
330
1B
100
AcDbEntity
 67
     1
  8
7_ALL_FEATURES
  6
Continuous
 62
     7
100
AcDbLine
 10
748.0277130339
 20
252.9202639994
 30
0.0
 11
748.0277130339
 21
193.9202639994
 31
0.0
  0
LINE
  5
4AB
330
1B
100
AcDbEntity
 67
     1
  8
7_ALL_FEATURES
  6
Continuous
 62
     7
100
AcDbLine
 10
748.0277130339
 20
253.4202639994
 30
0.0
 11
748.0277130339
 21
252.9202639994
 31
0.0
  0
LINE
  5
4AC
330
1B
100
AcDbEntity
 67
     1
  8
7_ALL_FEATURES
  6
Continuous
 62
     7
100
AcDbLine
 10
748.0277130339
 20
193.9202639994
 30
0.0
 11
748.0277130339
 21
193.4202639994
 31
0.0
  0
LINE
  5
4AD
330
1B
100
AcDbEntity
 67
     1
  8
7_ALL_FEATURES
  6
Continuous
 62
     7
100
AcDbLine
 10
746.5277130339
 20
252.9202639994
 30
0.0
 11
746.5277130339
 21
252.0202639994
 31
0.0
  0
LINE
  5
4AE
330
1B
100
AcDbEntity
 67
     1
  8
7_ALL_FEATURES
  6
Continuous
 62
     7
100
AcDbLine
 10
746.5277130339
 20
252.0202639994
 30
0.0
 11
746.5277130339
 21
251.9202639994
 31
0.0
  0
LINE
  5
4AF
330
1B
100
AcDbEntity
 67
     1
  8
7_ALL_FEATURES
  6
Continuous
 62
     7
100
AcDbLine
 10
746.5277130339
 20
251.9202639994
 30
0.0
 11
746.5277130339
 21
194.9202639994
 31
0.0
  0
LINE
  5
4B0
330
1B
100
AcDbEntity
 67
     1
  8
7_ALL_FEATURES
  6
Continuous
 62
     7
100
AcDbLine
 10
746.5277130339
 20
194.9202639994
 30
0.0
 11
746.5277130339
 21
194.8202639994
 31
0.0
  0
LINE
  5
4B1
330
1B
100
AcDbEntity
 67
     1
  8
7_ALL_FEATURES
  6
Continuous
 62
     7
100
AcDbLine
 10
746.5277130339
 20
194.8202639994
 30
0.0
 11
746.5277130339
 21
193.9202639994
 31
0.0
  0
LINE
  5
4B2
330
1B
100
AcDbEntity
 67
     1
  8
7_ALL_FEATURES
  6
Continuous
 62
     7
100
AcDbLine
 10
748.0277130339
 20
253.4202639994
 30
0.0
 11
746.5277130339
 21
253.4202639994
 31
0.0
  0
LINE
  5
4B3
330
1B
100
AcDbEntity
 67
     1
  8
7_ALL_FEATURES
  6
Continuous
 62
     9
100
AcDbLine
 10
746.5277130339
 20
252.9202639994
 30
0.0
 11
748.0277130339
 21
252.9202639994
 31
0.0
  0
LINE
  5
4B4
330
1B
100
AcDbEntity
 67
     1
  8
7_ALL_FEATURES
  6
Continuous
 62
     9
100
AcDbLine
 10
748.0277130339
 20
193.9202639994
 30
0.0
 11
746.5277130339
 21
193.9202639994
 31
0.0
  0
LINE
  5
4B5
330
1B
100
AcDbEntity
 67
     1
  8
02___PRT_ALL_AXES
  6
Continuous
 62
     7
100
AcDbLine
 10
746.5277130339
 20
251.9202639994
 30
0.0
 11
746.5277130339
 21
252.0202639994
 31
0.0
  0
LINE
  5
4B6
330
1B
100
AcDbEntity
 67
     1
  8
02___PRT_ALL_AXES
  6
Continuous
 62
     7
100
AcDbLine
 10
746.5277130339
 20
252.0202639994
 30
0.0
 11
746.5277130339
 21
252.1702639994
 31
0.0
  0
LINE
  5
4B7
330
1B
100
AcDbEntity
 67
     1
  8
02___PRT_ALL_AXES
  6
Continuous
 62
     7
100
AcDbLine
 10
746.5277130339
 20
252.1702639994
 30
0.0
 11
746.5277130339
 21
252.9202639994
 31
0.0
  0
LINE
  5
4B8
330
1B
100
AcDbEntity
 67
     1
  8
02___PRT_ALL_AXES
  6
Continuous
 62
     7
100
AcDbLine
 10
746.5277130339
 20
252.9202639994
 30
0.0
 11
746.5277130339
 21
253.2202639994
 31
0.0
  0
LINE
  5
4B9
330
1B
100
AcDbEntity
 67
     1
  8
02___PRT_ALL_AXES
  6
Continuous
 62
     7
100
AcDbLine
 10
746.5277130339
 20
253.2202639994
 30
0.0
 11
746.5277130339
 21
253.3934690802
 31
0.0
  0
LINE
  5
4BA
330
1B
100
AcDbEntity
 67
     1
  8
02___PRT_ALL_AXES
  6
Continuous
 62
     7
100
AcDbLine
 10
746.5277130339
 20
253.3934690802
 30
0.0
 11
746.5277130339
 21
253.4202639994
 31
0.0
  0
LINE
  5
4BB
330
1B
100
AcDbEntity
 67
     1
  8
02___PRT_ALL_AXES
  6
Continuous
 62
     7
100
AcDbLine
 10
746.5277130339
 20
253.5202639994
 30
0.0
 11
746.5277130339
 21
253.6202639994
 31
0.0
  0
LINE
  5
4BC
330
1B
100
AcDbEntity
 67
     1
  8
02___PRT_ALL_AXES
  6
Continuous
 62
     7
100
AcDbLine
 10
746.5277130339
 20
253.6202639994
 30
0.0
 11
746.5277130339
 21
254.1962512649
 31
0.0
  0
LINE
  5
4BD
330
1B
100
AcDbEntity
 67
     1
  8
02___PRT_ALL_AXES
  6
Continuous
 62
     7
100
AcDbLine
 10
746.5277130339
 20
254.1962512649
 30
0.0
 11
746.5277130339
 21
254.9202639994
 31
0.0
  0
LINE
  5
4BE
330
1B
100
AcDbEntity
 67
     1
  8
02___PRT_ALL_AXES
  6
Continuous
 62
     7
100
AcDbLine
 10
746.5277130339
 20
247.9202639994
 30
0.0
 11
246.5277130339
 21
247.9202639994
 31
0.0
  0
LINE
  5
4BF
330
1B
100
AcDbEntity
 67
     1
  8
02___PRT_ALL_AXES
  6
Continuous
 62
     7
100
AcDbLine
 10
746.5277130339
 20
247.1702639994
 30
0.0
 11
246.5277130339
 21
247.1702639994
 31
0.0
  0
ARC
  5
4C0
330
1B
100
AcDbEntity
 67
     1
  8
02___PRT_ALL_AXES
  6
Continuous
 62
     7
100
AcDbCircle
 10
716.5277130339
 20
223.4202639994
 30
0.0
 40
20.0
100
AcDbArc
 50
4.4886954041
 51
90.0
  0
ARC
  5
4C1
330
1B
100
AcDbEntity
 67
     1
  8
02___PRT_ALL_AXES
  6
Continuous
 62
     7
100
AcDbCircle
 10
276.5277130339
 20
223.4202639994
 30
0.0
 40
20.0
100
AcDbArc
 50
90.0
 51
175.5113045959
  0
ARC
  5
4C2
330
1B
100
AcDbEntity
 67
     1
  8
02___PRT_ALL_AXES
  6
Continuous
 62
     7
100
AcDbCircle
 10
276.5277130339
 20
223.4202639994
 30
0.0
 40
20.0
100
AcDbArc
 50
4.4886954041
 51
90.0
  0
ARC
  5
4C3
330
1B
100
AcDbEntity
 67
     1
  8
02___PRT_ALL_AXES
  6
Continuous
 62
     7
100
AcDbCircle
 10
716.5277130339
 20
223.4202639994
 30
0.0
 40
20.0
100
AcDbArc
 50
90.0
 51
175.5113045959
  0
ARC
  5
4C4
330
1B
100
AcDbEntity
 67
     1
  8
02___PRT_ALL_AXES
  6
Continuous
 62
     7
100
AcDbCircle
 10
716.5277130339
 20
223.4202639994
 30
0.0
 40
20.0
100
AcDbArc
 50
4.1555915031
 51
4.4886954041
  0
ARC
  5
4C5
330
1B
100
AcDbEntity
 67
     1
  8
02___PRT_ALL_AXES
  6
Continuous
 62
     7
100
AcDbCircle
 10
276.5277130339
 20
223.4202639994
 30
0.0
 40
20.0
100
AcDbArc
 50
4.1555915031
 51
4.4886954041
  0
ARC
  5
4C6
330
1B
100
AcDbEntity
 67
     1
  8
02___PRT_ALL_AXES
  6
Continuous
 62
     7
100
AcDbCircle
 10
716.5277130339
 20
223.4202639994
 30
0.0
 40
20.0
100
AcDbArc
 50
175.5113045959
 51
175.8444084969
  0
ARC
  5
4C7
330
1B
100
AcDbEntity
 67
     1
  8
02___PRT_ALL_AXES
  6
Continuous
 62
     7
100
AcDbCircle
 10
276.5277130339
 20
223.4202639994
 30
0.0
 40
20.0
100
AcDbArc
 50
175.5113045959
 51
175.8444084969
  0
ARC
  5
4C8
330
1B
100
AcDbEntity
 67
     1
  8
02___PRT_ALL_AXES
  6
Continuous
 62
     7
100
AcDbCircle
 10
716.5277130339
 20
223.4202639994
 30
0.0
 40
20.0
100
AcDbArc
 50
355.8444084969
 51
4.1555915031
  0
ARC
  5
4C9
330
1B
100
AcDbEntity
 67
     1
  8
02___PRT_ALL_AXES
  6
Continuous
 62
     7
100
AcDbCircle
 10
276.5277130339
 20
223.4202639994
 30
0.0
 40
20.0
100
AcDbArc
 50
355.8444084969
 51
4.1555915031
  0
ARC
  5
4CA
330
1B
100
AcDbEntity
 67
     1
  8
02___PRT_ALL_AXES
  6
Continuous
 62
     7
100
AcDbCircle
 10
716.5277130339
 20
223.4202639994
 30
0.0
 40
20.0
100
AcDbArc
 50
175.8444084969
 51
184.1555915031
  0
ARC
  5
4CB
330
1B
100
AcDbEntity
 67
     1
  8
02___PRT_ALL_AXES
  6
Continuous
 62
     7
100
AcDbCircle
 10
276.5277130339
 20
223.4202639994
 30
0.0
 40
20.0
100
AcDbArc
 50
175.8444084969
 51
184.1555915031
  0
ARC
  5
4CC
330
1B
100
AcDbEntity
 67
     1
  8
02___PRT_ALL_AXES
  6
Continuous
 62
     7
100
AcDbCircle
 10
716.5277130339
 20
223.4202639994
 30
0.0
 40
20.0
100
AcDbArc
 50
355.5113045959
 51
355.8444084969
  0
ARC
  5
4CD
330
1B
100
AcDbEntity
 67
     1
  8
02___PRT_ALL_AXES
  6
Continuous
 62
     7
100
AcDbCircle
 10
276.5277130339
 20
223.4202639994
 30
0.0
 40
20.0
100
AcDbArc
 50
355.5113045959
 51
355.8444084969
  0
ARC
  5
4CE
330
1B
100
AcDbEntity
 67
     1
  8
02___PRT_ALL_AXES
  6
Continuous
 62
     7
100
AcDbCircle
 10
716.5277130339
 20
223.4202639994
 30
0.0
 40
20.0
100
AcDbArc
 50
184.1555915031
 51
184.4886954041
  0
ARC
  5
4CF
330
1B
100
AcDbEntity
 67
     1
  8
02___PRT_ALL_AXES
  6
Continuous
 62
     7
100
AcDbCircle
 10
276.5277130339
 20
223.4202639994
 30
0.0
 40
20.0
100
AcDbArc
 50
184.1555915031
 51
184.4886954041
  0
ARC
  5
4D0
330
1B
100
AcDbEntity
 67
     1
  8
02___PRT_ALL_AXES
  6
Continuous
 62
     7
100
AcDbCircle
 10
276.5277130339
 20
223.4202639994
 30
0.0
 40
20.0
100
AcDbArc
 50
270.0
 51
355.5113045959
  0
ARC
  5
4D1
330
1B
100
AcDbEntity
 67
     1
  8
02___PRT_ALL_AXES
  6
Continuous
 62
     7
100
AcDbCircle
 10
276.5277130339
 20
223.4202639994
 30
0.0
 40
20.0
100
AcDbArc
 50
184.4886954041
 51
270.0
  0
ARC
  5
4D2
330
1B
100
AcDbEntity
 67
     1
  8
02___PRT_ALL_AXES
  6
Continuous
 62
     7
100
AcDbCircle
 10
716.5277130339
 20
223.4202639994
 30
0.0
 40
20.0
100
AcDbArc
 50
270.0
 51
355.5113045959
  0
ARC
  5
4D3
330
1B
100
AcDbEntity
 67
     1
  8
02___PRT_ALL_AXES
  6
Continuous
 62
     7
100
AcDbCircle
 10
716.5277130339
 20
223.4202639994
 30
0.0
 40
20.0
100
AcDbArc
 50
184.4886954041
 51
270.0
  0
LINE
  5
4D4
330
1B
100
AcDbEntity
 67
     1
  8
02___PRT_ALL_AXES
  6
Continuous
 62
     7
100
AcDbLine
 10
746.5277130339
 20
199.6702639994
 30
0.0
 11
246.5277130339
 21
199.6702639994
 31
0.0
  0
LINE
  5
4D5
330
1B
100
AcDbEntity
 67
     1
  8
02___PRT_ALL_AXES
  6
Continuous
 62
     7
100
AcDbLine
 10
746.5277130339
 20
191.9202639994
 30
0.0
 11
746.5277130339
 21
192.644276734
 31
0.0
  0
LINE
  5
4D6
330
1B
100
AcDbEntity
 67
     1
  8
02___PRT_ALL_AXES
  6
Continuous
 62
     7
100
AcDbLine
 10
746.5277130339
 20
192.644276734
 30
0.0
 11
746.5277130339
 21
193.2202639994
 31
0.0
  0
LINE
  5
4D7
330
1B
100
AcDbEntity
 67
     1
  8
02___PRT_ALL_AXES
  6
Continuous
 62
     7
100
AcDbLine
 10
746.5277130339
 20
193.2202639994
 30
0.0
 11
746.5277130339
 21
193.4202639994
 31
0.0
  0
LINE
  5
4D8
330
1B
100
AcDbEntity
 67
     1
  8
02___PRT_ALL_AXES
  6
Continuous
 62
     7
100
AcDbLine
 10
746.5277130339
 20
198.9202639994
 30
0.0
 11
246.5277130339
 21
198.9202639994
 31
0.0
  0
LINE
  5
4D9
330
1B
100
AcDbEntity
 67
     1
  8
02___PRT_ALL_AXES
  6
Continuous
 62
     7
100
AcDbLine
 10
746.5277130339
 20
193.4202639994
 30
0.0
 11
746.5277130339
 21
193.6202639994
 31
0.0
  0
LINE
  5
4DA
330
1B
100
AcDbEntity
 67
     1
  8
02___PRT_ALL_AXES
  6
Continuous
 62
     7
100
AcDbLine
 10
746.5277130339
 20
193.6202639994
 30
0.0
 11
746.5277130339
 21
193.9202639994
 31
0.0
  0
LINE
  5
4DB
330
1B
100
AcDbEntity
 67
     1
  8
02___PRT_ALL_AXES
  6
Continuous
 62
     7
100
AcDbLine
 10
746.5277130339
 20
193.9202639994
 30
0.0
 11
746.5277130339
 21
194.6702639994
 31
0.0
  0
LINE
  5
4DC
330
1B
100
AcDbEntity
 67
     1
  8
02___PRT_ALL_AXES
  6
Continuous
 62
     7
100
AcDbLine
 10
746.5277130339
 20
194.6702639994
 30
0.0
 11
746.5277130339
 21
194.8202639994
 31
0.0
  0
LINE
  5
4DD
330
1B
100
AcDbEntity
 67
     1
  8
02___PRT_ALL_AXES
  6
Continuous
 62
     7
100
AcDbLine
 10
746.5277130339
 20
194.8202639994
 30
0.0
 11
746.5277130339
 21
194.9202639994
 31
0.0
  0
LINE
  5
4DE
330
1B
100
AcDbEntity
 67
     1
  8
02___PRT_ALL_AXES
  6
Continuous
 62
     7
100
AcDbLine
 10
746.5277130339
 20
194.9202639994
 30
0.0
 11
246.5277130339
 21
194.9202639994
 31
0.0
  0
LINE
  5
4DF
330
1B
100
AcDbEntity
 67
     1
  8
02___PRT_ALL_AXES
  6
Continuous
 62
     7
100
AcDbLine
 10
746.5277130339
 20
193.4202639994
 30
0.0
 11
246.5277130339
 21
193.4202639994
 31
0.0
  0
LINE
  5
4E0
330
1B
100
AcDbEntity
 67
     1
  8
02___PRT_ALL_AXES
  6
Continuous
 62
     7
100
AcDbLine
 10
746.5277130339
 20
191.9202639994
 30
0.0
 11
246.5277130339
 21
191.9202639994
 31
0.0
  0
LINE
  5
4E1
330
1B
100
AcDbEntity
 67
     1
  8
02___PRT_ALL_AXES
  6
Continuous
 62
     7
100
AcDbLine
 10
246.5277130339
 20
194.8202639994
 30
0.0
 11
246.5277130339
 21
194.9202639994
 31
0.0
  0
LINE
  5
4E2
330
1B
100
AcDbEntity
 67
     1
  8
02___PRT_ALL_AXES
  6
Continuous
 62
     7
100
AcDbLine
 10
246.5277130339
 20
193.6202639994
 30
0.0
 11
246.5277130339
 21
193.9202639994
 31
0.0
  0
LINE
  5
4E3
330
1B
100
AcDbEntity
 67
     1
  8
02___PRT_ALL_AXES
  6
Continuous
 62
     7
100
AcDbLine
 10
246.5277130339
 20
193.9202639994
 30
0.0
 11
246.5277130339
 21
194.6702639994
 31
0.0
  0
LINE
  5
4E4
330
1B
100
AcDbEntity
 67
     1
  8
02___PRT_ALL_AXES
  6
Continuous
 62
     7
100
AcDbLine
 10
246.5277130339
 20
194.6702639994
 30
0.0
 11
246.5277130339
 21
194.8202639994
 31
0.0
  0
LINE
  5
4E5
330
1B
100
AcDbEntity
 67
     1
  8
02___PRT_ALL_AXES
  6
Continuous
 62
     7
100
AcDbLine
 10
246.5277130339
 20
193.4202639994
 30
0.0
 11
246.5277130339
 21
193.6202639994
 31
0.0
  0
LINE
  5
4E6
330
1B
100
AcDbEntity
 67
     1
  8
02___PRT_ALL_AXES
  6
Continuous
 62
     7
100
AcDbLine
 10
246.5277130339
 20
193.2202639994
 30
0.0
 11
246.5277130339
 21
193.4202639994
 31
0.0
  0
LINE
  5
4E7
330
1B
100
AcDbEntity
 67
     1
  8
02___PRT_ALL_AXES
  6
Continuous
 62
     7
100
AcDbLine
 10
246.5277130339
 20
192.644276734
 30
0.0
 11
246.5277130339
 21
193.2202639994
 31
0.0
  0
LINE
  5
4E8
330
1B
100
AcDbEntity
 67
     1
  8
02___PRT_ALL_AXES
  6
Continuous
 62
     7
100
AcDbLine
 10
246.5277130339
 20
191.9202639994
 30
0.0
 11
246.5277130339
 21
192.644276734
 31
0.0
  0
LINE
  5
4E9
330
1B
100
AcDbEntity
 67
     1
  8
02___PRT_ALL_AXES
  6
Continuous
 62
     7
100
AcDbLine
 10
746.5277130339
 20
254.9202639994
 30
0.0
 11
246.5277130339
 21
254.9202639994
 31
0.0
  0
LINE
  5
4EA
330
1B
100
AcDbEntity
 67
     1
  8
02___PRT_ALL_AXES
  6
Continuous
 62
     7
100
AcDbLine
 10
746.5277130339
 20
253.4202639994
 30
0.0
 11
246.5277130339
 21
253.4202639994
 31
0.0
  0
LINE
  5
4EB
330
1B
100
AcDbEntity
 67
     1
  8
02___PRT_ALL_AXES
  6
Continuous
 62
     7
100
AcDbLine
 10
746.5277130339
 20
251.9202639994
 30
0.0
 11
246.5277130339
 21
251.9202639994
 31
0.0
  0
LINE
  5
4EC
330
1B
100
AcDbEntity
 67
     1
  8
02___PRT_ALL_AXES
  6
Continuous
 62
     7
100
AcDbLine
 10
246.5277130339
 20
251.9202639994
 30
0.0
 11
246.5277130339
 21
252.0202639994
 31
0.0
  0
LINE
  5
4ED
330
1B
100
AcDbEntity
 67
     1
  8
02___PRT_ALL_AXES
  6
Continuous
 62
     7
100
AcDbLine
 10
246.5277130339
 20
252.0202639994
 30
0.0
 11
246.5277130339
 21
252.1702639994
 31
0.0
  0
LINE
  5
4EE
330
1B
100
AcDbEntity
 67
     1
  8
02___PRT_ALL_AXES
  6
Continuous
 62
     7
100
AcDbLine
 10
246.5277130339
 20
252.1702639994
 30
0.0
 11
246.5277130339
 21
252.9202639994
 31
0.0
  0
LINE
  5
4EF
330
1B
100
AcDbEntity
 67
     1
  8
02___PRT_ALL_AXES
  6
Continuous
 62
     7
100
AcDbLine
 10
246.5277130339
 20
252.9202639994
 30
0.0
 11
246.5277130339
 21
253.2202639994
 31
0.0
  0
LINE
  5
4F0
330
1B
100
AcDbEntity
 67
     1
  8
02___PRT_ALL_AXES
  6
Continuous
 62
     7
100
AcDbLine
 10
246.5277130339
 20
253.2202639994
 30
0.0
 11
246.5277130339
 21
253.3934690802
 31
0.0
  0
LINE
  5
4F1
330
1B
100
AcDbEntity
 67
     1
  8
02___PRT_ALL_AXES
  6
Continuous
 62
     7
100
AcDbLine
 10
246.5277130339
 20
253.3934690802
 30
0.0
 11
246.5277130339
 21
253.4202639994
 31
0.0
  0
LINE
  5
4F2
330
1B
100
AcDbEntity
 67
     1
  8
02___PRT_ALL_AXES
  6
Continuous
 62
     7
100
AcDbLine
 10
246.5277130339
 20
253.5202639994
 30
0.0
 11
246.5277130339
 21
253.6202639994
 31
0.0
  0
LINE
  5
4F3
330
1B
100
AcDbEntity
 67
     1
  8
02___PRT_ALL_AXES
  6
Continuous
 62
     7
100
AcDbLine
 10
246.5277130339
 20
253.6202639994
 30
0.0
 11
246.5277130339
 21
254.1962512649
 31
0.0
  0
LINE
  5
4F4
330
1B
100
AcDbEntity
 67
     1
  8
02___PRT_ALL_AXES
  6
Continuous
 62
     7
100
AcDbLine
 10
246.5277130339
 20
254.1962512649
 30
0.0
 11
246.5277130339
 21
254.9202639994
 31
0.0
  0
LINE
  5
4F5
330
1B
100
AcDbEntity
 67
     1
  8
02___PRT_ALL_AXES
  6
Continuous
 62
     9
100
AcDbLine
 10
696.5802941746
 20
224.8695677135
 30
0.0
 11
296.4751318933
 21
224.8695677135
 31
0.0
  0
LINE
  5
4F6
330
1B
100
AcDbEntity
 67
     1
  8
02___PRT_ALL_AXES
  6
Continuous
 62
     9
100
AcDbLine
 10
696.589057144
 20
221.8550159994
 30
0.0
 11
296.4663689239
 21
221.8550159994
 31
0.0
  0
LINE
  5
4F7
330
1B
100
AcDbEntity
 67
     1
  8
02___PRT_ALL_AXES
  6
Continuous
 62
     9
100
AcDbLine
 10
256.5802941746
 20
224.8695677135
 30
0.0
 11
246.5277130339
 21
224.869567733
 31
0.0
  0
LINE
  5
4F8
330
1B
100
AcDbEntity
 67
     1
  8
02___PRT_ALL_AXES
  6
Continuous
 62
     9
100
AcDbLine
 10
746.5277130339
 20
194.8202639994
 30
0.0
 11
246.5277130339
 21
194.8202639994
 31
0.0
  0
LINE
  5
4F9
330
1B
100
AcDbEntity
 67
     1
  8
02___PRT_ALL_AXES
  6
Continuous
 62
     9
100
AcDbLine
 10
746.5277130339
 20
193.6202639994
 30
0.0
 11
246.5277130339
 21
193.6202639994
 31
0.0
  0
LINE
  5
4FA
330
1B
100
AcDbEntity
 67
     1
  8
02___PRT_ALL_AXES
  6
Continuous
 62
     9
100
AcDbLine
 10
746.5277130339
 20
254.1962499994
 30
0.0
 11
246.5277130339
 21
254.1962499994
 31
0.0
  0
LINE
  5
4FB
330
1B
100
AcDbEntity
 67
     1
  8
02___PRT_ALL_AXES
  6
Continuous
 62
     9
100
AcDbLine
 10
256.589057144
 20
221.8550159994
 30
0.0
 11
246.5277130339
 21
221.8550159994
 31
0.0
  0
LINE
  5
4FC
330
1B
100
AcDbEntity
 67
     1
  8
02___PRT_ALL_AXES
  6
Continuous
 62
     9
100
AcDbLine
 10
746.5277130339
 20
221.9709606696
 30
0.0
 11
736.4751318882
 21
221.9709604251
 31
0.0
  0
LINE
  5
4FD
330
1B
100
AcDbEntity
 67
     1
  8
02___PRT_ALL_AXES
  6
Continuous
 62
     9
100
AcDbLine
 10
746.5277130339
 20
253.6202639994
 30
0.0
 11
246.5277130339
 21
253.6202639994
 31
0.0
  0
LINE
  5
4FE
330
1B
100
AcDbEntity
 67
     1
  8
02___PRT_ALL_AXES
  6
Continuous
 62
     9
100
AcDbLine
 10
746.5277130339
 20
199.4702639994
 30
0.0
 11
246.5277130339
 21
199.4702639994
 31
0.0
  0
LINE
  5
4FF
330
1B
100
AcDbEntity
 67
     1
  8
02___PRT_ALL_AXES
  6
Continuous
 62
     9
100
AcDbLine
 10
746.5277130339
 20
253.2202639994
 30
0.0
 11
246.5277130339
 21
253.2202639994
 31
0.0
  0
LINE
  5
500
330
1B
100
AcDbEntity
 67
     1
  8
02___PRT_ALL_AXES
  6
Continuous
 62
     9
100
AcDbLine
 10
746.5277130339
 20
252.0202639994
 30
0.0
 11
246.5277130339
 21
252.0202639994
 31
0.0
  0
LINE
  5
501
330
1B
100
AcDbEntity
 67
     1
  8
02___PRT_ALL_AXES
  6
Continuous
 62
     9
100
AcDbLine
 10
746.5277130339
 20
193.2202639994
 30
0.0
 11
246.5277130339
 21
193.2202639994
 31
0.0
  0
LINE
  5
502
330
1B
100
AcDbEntity
 67
     1
  8
02___PRT_ALL_AXES
  6
Continuous
 62
     9
100
AcDbLine
 10
746.5277130339
 20
192.6442779994
 30
0.0
 11
246.5277130339
 21
192.6442779994
 31
0.0
  0
LINE
  5
503
330
1B
100
AcDbEntity
 67
     1
  8
02___PRT_ALL_AXES
  6
Continuous
 62
     9
100
AcDbLine
 10
746.5277130339
 20
247.3702639994
 30
0.0
 11
246.5277130339
 21
247.3702639994
 31
0.0
  0
LINE
  5
504
330
1B
100
AcDbEntity
 67
     1
  8
02___PRT_ALL_AXES
  6
Continuous
 62
     9
100
AcDbLine
 10
696.5802941797
 20
221.9709604251
 30
0.0
 11
296.4751318882
 21
221.9709604251
 31
0.0
  0
LINE
  5
505
330
1B
100
AcDbEntity
 67
     1
  8
02___PRT_ALL_AXES
  6
Continuous
 62
     9
100
AcDbLine
 10
696.589057144
 20
224.9855119994
 30
0.0
 11
296.4663689239
 21
224.9855119994
 31
0.0
  0
LINE
  5
506
330
1B
100
AcDbEntity
 67
     1
  8
02___PRT_ALL_AXES
  6
Continuous
 62
     9
100
AcDbLine
 10
256.5802941797
 20
221.9709604251
 30
0.0
 11
246.5277130339
 21
221.9709606696
 31
0.0
  0
LINE
  5
507
330
1B
100
AcDbEntity
 67
     1
  8
02___PRT_ALL_AXES
  6
Continuous
 62
     9
100
AcDbLine
 10
746.5277130339
 20
221.8550159994
 30
0.0
 11
736.4663689239
 21
221.8550159994
 31
0.0
  0
LINE
  5
508
330
1B
100
AcDbEntity
 67
     1
  8
02___PRT_ALL_AXES
  6
Continuous
 62
     9
100
AcDbLine
 10
746.5277130339
 20
251.7202639994
 30
0.0
 11
246.5277130339
 21
251.7202639994
 31
0.0
  0
LINE
  5
509
330
1B
100
AcDbEntity
 67
     1
  8
02___PRT_ALL_AXES
  6
Continuous
 62
     9
100
AcDbLine
 10
746.5277130339
 20
197.9202639994
 30
0.0
 11
246.5277130339
 21
197.9202639994
 31
0.0
  0
LINE
  5
50A
330
1B
100
AcDbEntity
 67
     1
  8
02___PRT_ALL_AXES
  6
Continuous
 62
     9
100
AcDbLine
 10
746.5277130339
 20
195.1202639994
 30
0.0
 11
246.5277130339
 21
195.1202639994
 31
0.0
  0
LINE
  5
50B
330
1B
100
AcDbEntity
 67
     1
  8
02___PRT_ALL_AXES
  6
Continuous
 62
     9
100
AcDbLine
 10
746.5277130339
 20
224.9855119994
 30
0.0
 11
736.4663689239
 21
224.9855119994
 31
0.0
  0
LINE
  5
50C
330
1B
100
AcDbEntity
 67
     1
  8
02___PRT_ALL_AXES
  6
Continuous
 62
     9
100
AcDbLine
 10
746.5277130339
 20
224.869567733
 30
0.0
 11
736.4751318933
 21
224.8695677135
 31
0.0
  0
LINE
  5
50D
330
1B
100
AcDbEntity
 67
     1
  8
02___PRT_ALL_AXES
  6
Continuous
 62
     9
100
AcDbLine
 10
256.589057144
 20
224.9855119994
 30
0.0
 11
246.5277130339
 21
224.9855119994
 31
0.0
  0
LINE
  5
50E
330
1B
100
AcDbEntity
 67
     1
  8
02___PRT_ALL_AXES
  6
Continuous
 62
     9
100
AcDbLine
 10
746.5277130339
 20
248.9202639994
 30
0.0
 11
246.5277130339
 21
248.9202639994
 31
0.0
  0
DIMENSION
  5
50F
330
1B
100
AcDbEntity
 67
     1
  8
0
  6
Continuous
 62
     2
100
AcDbDimension
280
     0
  2
*D1
 10
139.1542668938
 20
524.4632152505
 30
0.0
 11
109.1350721741
 21
524.4632152505
 31
0.0
 70
   160
 71
     5
 42
-1.0
 73
     0
 74
     0
 75
     0
  3
DIMSTYLE_1
100
AcDbAlignedDimension
 13
79.1542668938
 23
506.8254416254
 33
0.0
 14
139.1542668938
 24
507.0902916279
 34
0.0
100
AcDbRotatedDimension
  0
DIMENSION
  5
510
330
1B
100
AcDbEntity
 67
     1
  8
0
  6
Continuous
 62
     2
100
AcDbDimension
280
     0
  2
*D2
 10
52.7174224766
 20
354.0148165931
 30
0.0
 11
52.7174224766
 21
429.1437062541
 31
0.0
 70
   160
 71
     5
 42
-1.0
 73
     0
 74
     0
 75
     0
  3
DIMSTYLE_2
100
AcDbAlignedDimension
 13
75.4166668524
 23
504.0148165931
 33
0.0
 14
75.5131737188
 24
354.0148165931
 34
0.0
 50
270.0
100
AcDbRotatedDimension
  0
DIMENSION
  5
511
330
1B
100
AcDbEntity
 67
     1
  8
0
  6
Continuous
 62
     2
100
AcDbDimension
280
     0
  2
*D3
 10
748.0277130339
 20
525.4082885809
 30
0.0
 11
496.5171810303
 21
525.4082885809
 31
0.0
 70
   160
 71
     5
 42
-1.0
 73
     0
 74
     0
 75
     0
  3
DIMSTYLE_3
100
AcDbAlignedDimension
 13
245.0277130339
 23
505.972624617
 33
0.0
 14
748.0277130339
 24
505.3807166432
 34
0.0
100
AcDbRotatedDimension
  0
LINE
  5
512
330
1B
100
AcDbEntity
 67
     1
  8
0
  6
Continuous
 62
     2
100
AcDbLine
 10
700.9995738046
 20
70.0065156172
 30
0.0
 11
830.9995738046
 21
70.0065156172
 31
0.0
  0
LINE
  5
513
330
1B
100
AcDbEntity
 67
     1
  8
0
  6
Continuous
 62
     2
100
AcDbLine
 10
700.9995738046
 20
70.0065156172
 30
0.0
 11
700.9995738046
 21
10.0065156172
 31
0.0
  0
LINE
  5
514
330
1B
100
AcDbEntity
 67
     1
  8
0
  6
Continuous
 62
     2
100
AcDbLine
 10
730.9995738046
 20
62.0065156172
 30
0.0
 11
830.9995738046
 21
62.0065156172
 31
0.0
  0
LINE
  5
515
330
1B
100
AcDbEntity
 67
     1
  8
0
  6
Continuous
 62
     2
100
AcDbLine
 10
700.9995738046
 20
54.0065156172
 30
0.0
 11
830.9995738046
 21
54.0065156172
 31
0.0
  0
LINE
  5
516
330
1B
100
AcDbEntity
 67
     1
  8
0
  6
Continuous
 62
     2
100
AcDbLine
 10
730.9995738046
 20
48.0065156172
 30
0.0
 11
830.9995738046
 21
48.0065156172
 31
0.0
  0
LINE
  5
517
330
1B
100
AcDbEntity
 67
     1
  8
0
  6
Continuous
 62
     2
100
AcDbLine
 10
730.9995738046
 20
42.0065156172
 30
0.0
 11
830.9995738046
 21
42.0065156172
 31
0.0
  0
LINE
  5
518
330
1B
100
AcDbEntity
 67
     1
  8
0
  6
Continuous
 62
     2
100
AcDbLine
 10
730.9995738046
 20
36.0065156172
 30
0.0
 11
830.9995738046
 21
36.0065156172
 31
0.0
  0
LINE
  5
519
330
1B
100
AcDbEntity
 67
     1
  8
0
  6
Continuous
 62
     2
100
AcDbLine
 10
730.9995738046
 20
30.0065156172
 30
0.0
 11
830.9995738046
 21
30.0065156172
 31
0.0
  0
LINE
  5
51A
330
1B
100
AcDbEntity
 67
     1
  8
0
  6
Continuous
 62
     2
100
AcDbLine
 10
700.9995738046
 20
24.0065156172
 30
0.0
 11
830.9995738046
 21
24.0065156172
 31
0.0
  0
LINE
  5
51B
330
1B
100
AcDbEntity
 67
     1
  8
0
  6
Continuous
 62
     2
100
AcDbLine
 10
700.9995738046
 20
18.0065156172
 30
0.0
 11
830.9995738046
 21
18.0065156172
 31
0.0
  0
LINE
  5
51C
330
1B
100
AcDbEntity
 67
     1
  8
0
  6
Continuous
 62
     2
100
AcDbLine
 10
700.9995738046
 20
14.0065156172
 30
0.0
 11
830.9995738046
 21
14.0065156172
 31
0.0
  0
LINE
  5
51D
330
1B
100
AcDbEntity
 67
     1
  8
0
  6
Continuous
 62
     2
100
AcDbLine
 10
700.9995738046
 20
10.0065156172
 30
0.0
 11
830.9995738046
 21
10.0065156172
 31
0.0
  0
LINE
  5
51E
330
1B
100
AcDbEntity
 67
     1
  8
0
  6
Continuous
 62
     2
100
AcDbLine
 10
730.9995738046
 20
70.0065156172
 30
0.0
 11
730.9995738046
 21
18.0065156172
 31
0.0
  0
LINE
  5
51F
330
1B
100
AcDbEntity
 67
     1
  8
0
  6
Continuous
 62
     2
100
AcDbLine
 10
760.9995738046
 20
54.0065156172
 30
0.0
 11
760.9995738046
 21
48.0065156172
 31
0.0
  0
LINE
  5
520
330
1B
100
AcDbEntity
 67
     1
  8
0
  6
Continuous
 62
     2
100
AcDbLine
 10
780.9995738046
 20
30.0065156172
 30
0.0
 11
780.9995738046
 21
18.0065156172
 31
0.0
  0
LINE
  5
521
330
1B
100
AcDbEntity
 67
     1
  8
0
  6
Continuous
 62
     2
100
AcDbLine
 10
790.9995738046
 20
48.0065156172
 30
0.0
 11
790.9995738046
 21
42.0065156172
 31
0.0
  0
LINE
  5
522
330
1B
100
AcDbEntity
 67
     1
  8
0
  6
Continuous
 62
     2
100
AcDbLine
 10
810.9995738046
 20
54.0065156172
 30
0.0
 11
810.9995738046
 21
48.0065156172
 31
0.0
  0
LINE
  5
523
330
1B
100
AcDbEntity
 67
     1
  8
0
  6
Continuous
 62
     2
100
AcDbLine
 10
820.9995738046
 20
48.0065156172
 30
0.0
 11
820.9995738046
 21
42.0065156172
 31
0.0
  0
LINE
  5
524
330
1B
100
AcDbEntity
 67
     1
  8
0
  6
Continuous
 62
     2
100
AcDbLine
 10
830.9995738046
 20
70.0065156172
 30
0.0
 11
830.9995738046
 21
10.0065156172
 31
0.0
  0
INSERT
  5
525
330
1B
100
AcDbEntity
 67
     1
  8
0
  6
Continuous
 62
     2
100
AcDbBlockReference
  2
PROIEZIONE_EU_BL0
 10
715.9995738046
 20
61.6315156172
 30
0.0
  0
MTEXT
  5
526
330
1B
100
AcDbEntity
 67
     1
  8
9_SOLID
  6
Continuous
 62
     2
100
AcDbMText
 10
732.4870738046
 20
68.3815156172
 30
0.0
 40
1.9
 41
142.3642857143
 46
0.0
 71
     1
 72
     1
  1
EN: Chamfer/radii unlisted 0.3x45°. Remove sharp edges.\PGen. tol.: hole H11, shaft h11, lenght Js12. UNI EN 22768 Medium Grande.
  7
TEXTSTYLE_5
 73
     1
 44
1.0
  0
MTEXT
  5
527
330
1B
100
AcDbEntity
 67
     1
  8
9_SOLID
  6
Continuous
 62
     2
100
AcDbMText
 10
732.4870738046
 20
60.3815156172
 30
0.0
 40
1.9
 41
148.2678571429
 46
0.0
 71
     1
 72
     1
  1
IT: Sm./rac. non quotati 0.3x45°. Eliminare spigoli taglienti.\PToll. gen.: foro H11, albero h11, lunghezza Js12. UNI EN 22768 Grado Medio.
  7
TEXTSTYLE_5
 73
     1
 44
1.0
  0
INSERT
  5
528
330
1B
100
AcDbEntity
 67
     1
  8
0
  6
Continuous
 62
     2
100
AcDbBlockReference
  2
LOGO2_BL1
 10
714.8256208494
 20
39.0065156172
 30
0.0
  0
MTEXT
  5
529
330
1B
100
AcDbEntity
 67
     1
  8
9_SOLID
  6
Continuous
 62
     2
100
AcDbMText
 10
732.4870738046
 20
52.2565156172
 30
0.0
 40
3.0
 41
22.7142857143
 46
0.0
 71
     1
 72
     1
  1
Pj: Y90
  7
TEXTSTYLE_5
 73
     1
 44
1.0
  0
MTEXT
  5
52A
330
1B
100
AcDbEntity
 67
     1
  8
9_SOLID
  6
Continuous
 62
     2
100
AcDbMText
 10
762.4870738046
 20
52.2565156172
 30
0.0
 40
3.0
 41
38.0357142857
 46
0.0
 71
     1
 72
     1
  1
% Check: %
  7
TEXTSTYLE_5
 73
     1
 44
1.0
  0
MTEXT
  5
52B
330
1B
100
AcDbEntity
 67
     1
  8
9_SOLID
  6
Continuous
 62
     2
100
AcDbMText
 10
812.4870738046
 20
52.5065156172
 30
0.0
 40
3.0
 41
19.5
 46
0.0
 71
     1
 72
     1
  1
Rev:00
  7
TEXTSTYLE_5
 73
     1
 44
1.0
  0
MTEXT
  5
52C
330
1B
100
AcDbEntity
 67
     1
  8
9_SOLID
  6
Continuous
 62
     2
100
AcDbMText
 10
732.4870738046
 20
46.2565156172
 30
0.0
 40
3.0
 41
19.3928571429
 46
0.0
 71
     1
 72
     1
  1
Code: 
  7
TEXTSTYLE_5
 73
     1
 44
1.0
  0
MTEXT
  5
52D
330
1B
100
AcDbEntity
 67
     1
  8
9_SOLID
  6
Continuous
 62
     2
100
AcDbMText
 10
792.4870738046
 20
46.5065156172
 30
0.0
 40
3.0
 41
27.8571428571
 46
0.0
 71
     1
 72
     1
  1
Scale: 1:1
  7
TEXTSTYLE_5
 73
     1
 44
1.0
  0
MTEXT
  5
52E
330
1B
100
AcDbEntity
 67
     1
  8
9_SOLID
  6
Continuous
 62
     2
100
AcDbMText
 10
825.9995738046
 20
46.5065156172
 30
0.0
 40
3.0
 41
7.2857142857
 46
0.0
 71
     2
 72
     1
  1
A1
  7
TEXTSTYLE_5
 73
     1
 44
1.0
  0
MTEXT
  5
52F
330
1B
100
AcDbEntity
 67
     1
  8
9_SOLID
  6
Continuous
 62
     2
100
AcDbMText
 10
732.4870738046
 20
40.5065156172
 30
0.0
 40
3.0
 41
134.8928571429
 46
0.0
 71
     1
 72
     1
  1
It descr.: CASSAFORMA RIVER1/4 500mm ALL
  7
TEXTSTYLE_5
 73
     1
 44
1.0
  0
MTEXT
  5
530
330
1B
100
AcDbEntity
 67
     1
  8
9_SOLID
  6
Continuous
 62
     2
100
AcDbMText
 10
732.4870738046
 20
34.5065156172
 30
0.0
 40
3.0
 41
33.9642857143
 46
0.0
 71
     1
 72
     1
  1
En descr.: 
  7
TEXTSTYLE_5
 73
     1
 44
1.0
  0
MTEXT
  5
531
330
1B
100
AcDbEntity
 67
     1
  8
9_SOLID
  6
Continuous
 62
     2
100
AcDbMText
 10
732.4870738046
 20
28.5065156172
 30
0.0
 40
3.0
 41
31.6071428571
 46
0.0
 71
     1
 72
     1
  1
Des.: A.G.
  7
TEXTSTYLE_5
 73
     1
 44
1.0
  0
MTEXT
  5
532
330
1B
100
AcDbEntity
 67
     1
  8
9_SOLID
  6
Continuous
 62
     2
100
AcDbMText
 10
782.4870738046
 20
28.5065156172
 30
0.0
 40
3.0
 41
34.8214285714
 46
0.0
 71
     1
 72
     1
  1
Check: A.P.
  7
TEXTSTYLE_5
 73
     1
 44
1.0
  0
MTEXT
  5
533
330
1B
100
AcDbEntity
 67
     1
  8
9_SOLID
  6
Continuous
 62
     2
100
AcDbMText
 10
702.4870738046
 20
22.5065156172
 30
0.0
 40
3.0
 41
42.5357142857
 46
0.0
 71
     1
 72
     1
  1
Date: 17.12.18
  7
TEXTSTYLE_5
 73
     1
 44
1.0
  0
MTEXT
  5
534
330
1B
100
AcDbEntity
 67
     1
  8
9_SOLID
  6
Continuous
 62
     2
100
AcDbMText
 10
732.4870738046
 20
22.5065156172
 30
0.0
 40
3.0
 41
18.2142857143
 46
0.0
 71
     1
 72
     1
  1
Mat.: 
  7
TEXTSTYLE_5
 73
     1
 44
1.0
  0
MTEXT
  5
535
330
1B
100
AcDbEntity
 67
     1
  8
9_SOLID
  6
Continuous
 62
     2
100
AcDbMText
 10
782.4870738046
 20
22.0065156172
 30
0.0
 40
2.0
 41
42.3571428571
 46
0.0
 71
     1
 72
     1
  1
Disegno per catalogo
  7
TEXTSTYLE_5
 73
     1
 44
1.0
  0
MTEXT
  5
536
330
1B
100
AcDbEntity
 67
     1
  8
9_SOLID
  6
Continuous
 62
     2
100
AcDbMText
 10
702.4870738046
 20
16.9065156172
 30
0.0
 40
1.8
 41
176.2071428571
 46
0.0
 71
     1
 72
     1
  1
It: A norma di legge si diffida da qualsiasi riproduzione senza nostra autorizzazione esplicita.
  7
TEXTSTYLE_5
 73
     1
 44
1.0
  0
MTEXT
  5
537
330
1B
100
AcDbEntity
 67
     1
  8
9_SOLID
  6
Continuous
 62
     2
100
AcDbMText
 10
702.4870738046
 20
12.9065156172
 30
0.0
 40
1.8
 41
158.1428571429
 46
0.0
 71
     1
 72
     1
  1
En: According to the law, beware of any reproduction made without our authorization.
  7
TEXTSTYLE_5
 73
     1
 44
1.0
  0
ENDSEC
  0
SECTION
  2
OBJECTS
  0
DICTIONARY
  5
538
330
0
100
AcDbDictionary
281
     1
  3
ACAD_DETAILVIEWSTYLE
350
58E
  3
ACAD_GROUP
350
539
  3
ACAD_LAYOUT
350
561
  3
ACAD_MATERIAL
350
57D
  3
ACAD_MLEADERSTYLE
350
583
  3
ACAD_MLINESTYLE
350
53A
  3
ACAD_PLOTSETTINGS
350
53C
  3
ACAD_PLOTSTYLENAME
350
53D
  3
ACAD_SCALELIST
350
53F
  3
ACAD_SECTIONVIEWSTYLE
350
58F
  3
ACAD_TABLESTYLE
350
581
  3
ACAD_VISUALSTYLE
350
564
  3
ACDB_RECOMPOSE_DATA
350
58A
  3
AcDbVariableDictionary
350
586
  3
APPDATA
350
585
  0
DICTIONARY
  5
58E
102
{ACAD_REACTORS
330
538
102
}
330
538
100
AcDbDictionary
281
     1
  0
DICTIONARY
  5
539
102
{ACAD_REACTORS
330
538
102
}
330
538
100
AcDbDictionary
281
     1
  0
DICTIONARY
  5
561
102
{ACAD_REACTORS
330
538
102
}
330
538
100
AcDbDictionary
281
     1
  3
Foglio 1
350
563
  3
Model
350
562
  0
DICTIONARY
  5
57D
102
{ACAD_REACTORS
330
538
102
}
330
538
100
AcDbDictionary
281
     1
  3
ByBlock
350
57F
  3
ByLayer
350
57E
  3
Global
350
580
  0
DICTIONARY
  5
583
102
{ACAD_REACTORS
330
538
102
}
330
538
100
AcDbDictionary
281
     1
  3
Standard
350
584
  0
DICTIONARY
  5
53A
102
{ACAD_REACTORS
330
538
102
}
330
538
100
AcDbDictionary
281
     1
  3
STANDARD
350
53B
  0
DICTIONARY
  5
53C
102
{ACAD_REACTORS
330
538
102
}
330
538
100
AcDbDictionary
281
     1
  0
ACDBDICTIONARYWDFLT
  5
53D
102
{ACAD_REACTORS
330
538
102
}
330
538
100
AcDbDictionary
281
     1
  3
Normal
350
53E
100
AcDbDictionaryWithDefault
340
53E
  0
DICTIONARY
  5
53F
102
{ACAD_REACTORS
330
538
102
}
330
538
100
AcDbDictionary
281
     1
  3
A0
350
540
  3
A1
350
541
  3
A2
350
542
  3
A3
350
543
  3
A4
350
544
  3
A5
350
545
  3
A6
350
546
  3
A7
350
547
  3
A8
350
548
  3
A9
350
549
  3
B0
350
54A
  3
B1
350
54B
  3
B2
350
54C
  3
B3
350
54D
  3
B4
350
54E
  3
B5
350
54F
  3
B6
350
550
  3
B7
350
551
  3
B8
350
552
  3
B9
350
553
  3
C0
350
554
  3
C1
350
555
  3
C2
350
556
  3
C3
350
557
  3
C4
350
558
  3
C5
350
559
  3
C6
350
55A
  3
C7
350
55B
  3
C8
350
55C
  3
C9
350
55D
  3
D0
350
55E
  3
D1
350
55F
  3
D2
350
560
  0
DICTIONARY
  5
58F
102
{ACAD_REACTORS
330
538
102
}
330
538
100
AcDbDictionary
281
     1
  0
DICTIONARY
  5
581
102
{ACAD_REACTORS
330
538
102
}
330
538
100
AcDbDictionary
281
     1
  3
Standard
350
582
  0
DICTIONARY
  5
564
102
{ACAD_REACTORS
330
538
102
}
330
538
100
AcDbDictionary
281
     1
  3
2dWireframe
350
569
  3
Basic
350
56C
  3
Brighten
350
570
  3
ColorChange
350
574
  3
Conceptual
350
56E
  3
Dim
350
56F
  3
EdgeColorOff
350
577
  3
Facepattern
350
573
  3
Flat
350
565
  3
FlatWithEdges
350
566
  3
Gouraud
350
567
  3
GouraudWithEdges
350
568
  3
Hidden
350
56B
  3
JitterOff
350
575
  3
Linepattern
350
572
  3
OverhangOff
350
576
  3
Realistic
350
56D
  3
Shaded
350
57C
  3
Shaded with edges
350
57B
  3
Shades of Gray
350
578
  3
Sketchy
350
579
  3
Thicken
350
571
  3
Wireframe
350
56A
  3
X-Ray
350
57A
  0
XRECORD
  5
58A
102
{ACAD_REACTORS
330
538
102
}
330
538
100
AcDbXrecord
280
     1
 90
        1
330
582
  0
DICTIONARY
  5
586
102
{ACAD_REACTORS
330
538
102
}
330
538
100
AcDbDictionary
281
     1
  3
CANNOSCALE
350
587
  3
CMLEADERSTYLE
350
58C
  3
CTABLESTYLE
350
58B
  3
MSLTSCALE
350
58D
  0
DICTIONARY
  5
585
102
{ACAD_REACTORS
330
538
102
}
330
538
100
AcDbDictionary
281
     1
  0
LAYOUT
  5
563
102
{ACAD_REACTORS
330
561
102
}
330
561
100
AcDbPlotSettings
  1

  2
none_device
  4
ISO_A3_(420.00_x_297.00_MM)
  6

 40
7.5
 41
20.0
 42
7.5
 43
20.0
 44
420.0
 45
297.0
 46
0.0
 47
0.0
 48
0.0
 49
0.0
140
0.0
141
0.0
142
1.0
143
2.311284046692607
 70
   688
 72
     1
 73
     0
 74
     1
  7

 75
     0
 76
     0
 77
     2
 78
   300
147
0.4326599326599327
148
0.0
149
0.0
100
AcDbLayout
  1
Foglio 1
 70
     1
 71
     1
 10
0.0
 20
0.0
 11
412.5
 21
277.0
 12
0.0
 22
0.0
 32
0.0
 14
0.0
 24
0.0
 34
0.0
 15
841.0
 25
594.0
 35
0.0
146
0.0
 13
0.0
 23
0.0
 33
0.0
 16
1.0
 26
0.0
 36
0.0
 17
0.0
 27
1.0
 37
0.0
 76
     0
330
1B
331
2D8
  0
LAYOUT
  5
562
102
{ACAD_REACTORS
330
561
102
}
330
561
100
AcDbPlotSettings
  1

  2
none_device
  4
Letter_(8.50_x_11.00_Inches)
  6

 40
6.35
 41
6.35
 42
6.35
 43
6.35
 44
215.9
 45
279.4
 46
0.0
 47
0.0
 48
0.0
 49
0.0
140
0.0
141
0.0
142
1.0
143
105.12499999815
 70
  1712
 72
     0
 73
     0
 74
     0
  7

 75
     0
 76
     0
 77
     2
 78
   300
147
0.0095124851369094
148
-0.0000001879597448
149
0.0
100
AcDbLayout
  1
Model
 70
     1
 71
     0
 10
0.0
 20
0.0
 11
841.0
 21
594.0
 12
0.0
 22
0.0
 32
0.0
 14
0.0
 24
0.0
 34
0.0
 15
841.0
 25
594.0
 35
0.0
146
0.0
 13
0.0
 23
0.0
 33
0.0
 16
1.0
 26
0.0
 36
0.0
 17
0.0
 27
1.0
 37
0.0
 76
     0
330
1F
331
1F4
  0
MATERIAL
  5
57F
102
{ACAD_REACTORS
330
57D
102
}
330
57D
100
AcDbMaterial
  1
ByBlock
 72
     1
 94
      127
  0
MATERIAL
  5
57E
102
{ACAD_REACTORS
330
57D
102
}
330
57D
100
AcDbMaterial
  1
ByLayer
 72
     1
 94
      127
  0
MATERIAL
  5
580
102
{ACAD_REACTORS
330
57D
102
}
330
57D
100
AcDbMaterial
  1
Global
 72
     1
 94
      127
  0
MLEADERSTYLE
  5
584
102
{ACAD_REACTORS
330
583
102
}
330
583
100
AcDbMLeaderStyle
179
     2
170
     2
171
     1
172
     0
 90
        2
 40
0.0
 41
0.0
173
     1
 91
-1056964608
340
14
 92
       -2
290
     1
 42
2.0
291
     1
 43
8.0
  3
Standard
341
0
 44
4.0
300

342
11
174
     1
178
     1
175
     1
176
     0
 93
-1056964608
 45
4.0
292
     0
297
     0
 46
4.0
343
0
 94
-1056964608
 47
1.0
 49
1.0
140
1.0
293
     1
141
0.0
294
     1
177
     0
142
1.0
295
     0
296
     0
143
3.75
271
     0
272
     9
273
     9
298
     0
  0
MLINESTYLE
  5
53B
102
{ACAD_REACTORS
330
53A
102
}
330
53A
100
AcDbMlineStyle
  2
STANDARD
 70
     0
  3

 62
   256
 51
90.0
 52
90.0
 71
     2
 49
0.5
 62
   256
  6
BYLAYER
 49
-0.5
 62
   256
  6
BYLAYER
  0
ACDBPLACEHOLDER
  5
53E
102
{ACAD_REACTORS
330
53D
102
}
330
53D
  0
SCALE
  5
540
102
{ACAD_REACTORS
330
53F
102
}
330
53F
100
AcDbScale
 70
     0
300
1:1
140
1.0
141
1.0
290
     1
  0
SCALE
  5
541
102
{ACAD_REACTORS
330
53F
102
}
330
53F
100
AcDbScale
 70
     0
300
1:2
140
1.0
141
2.0
290
     0
  0
SCALE
  5
542
102
{ACAD_REACTORS
330
53F
102
}
330
53F
100
AcDbScale
 70
     0
300
1:4
140
1.0
141
4.0
290
     0
  0
SCALE
  5
543
102
{ACAD_REACTORS
330
53F
102
}
330
53F
100
AcDbScale
 70
     0
300
1:5
140
1.0
141
5.0
290
     0
  0
SCALE
  5
544
102
{ACAD_REACTORS
330
53F
102
}
330
53F
100
AcDbScale
 70
     0
300
1:8
140
1.0
141
8.0
290
     0
  0
SCALE
  5
545
102
{ACAD_REACTORS
330
53F
102
}
330
53F
100
AcDbScale
 70
     0
300
1:10
140
1.0
141
10.0
290
     0
  0
SCALE
  5
546
102
{ACAD_REACTORS
330
53F
102
}
330
53F
100
AcDbScale
 70
     0
300
1:16
140
1.0
141
16.0
290
     0
  0
SCALE
  5
547
102
{ACAD_REACTORS
330
53F
102
}
330
53F
100
AcDbScale
 70
     0
300
1:20
140
1.0
141
20.0
290
     0
  0
SCALE
  5
548
102
{ACAD_REACTORS
330
53F
102
}
330
53F
100
AcDbScale
 70
     0
300
1:30
140
1.0
141
30.0
290
     0
  0
SCALE
  5
549
102
{ACAD_REACTORS
330
53F
102
}
330
53F
100
AcDbScale
 70
     0
300
1:40
140
1.0
141
40.0
290
     0
  0
SCALE
  5
54A
102
{ACAD_REACTORS
330
53F
102
}
330
53F
100
AcDbScale
 70
     0
300
1:50
140
1.0
141
50.0
290
     0
  0
SCALE
  5
54B
102
{ACAD_REACTORS
330
53F
102
}
330
53F
100
AcDbScale
 70
     0
300
1:100
140
1.0
141
100.0
290
     0
  0
SCALE
  5
54C
102
{ACAD_REACTORS
330
53F
102
}
330
53F
100
AcDbScale
 70
     0
300
2:1
140
2.0
141
1.0
290
     0
  0
SCALE
  5
54D
102
{ACAD_REACTORS
330
53F
102
}
330
53F
100
AcDbScale
 70
     0
300
4:1
140
4.0
141
1.0
290
     0
  0
SCALE
  5
54E
102
{ACAD_REACTORS
330
53F
102
}
330
53F
100
AcDbScale
 70
     0
300
8:1
140
8.0
141
1.0
290
     0
  0
SCALE
  5
54F
102
{ACAD_REACTORS
330
53F
102
}
330
53F
100
AcDbScale
 70
     0
300
10:1
140
10.0
141
1.0
290
     0
  0
SCALE
  5
550
102
{ACAD_REACTORS
330
53F
102
}
330
53F
100
AcDbScale
 70
     0
300
100:1
140
100.0
141
1.0
290
     0
  0
SCALE
  5
551
102
{ACAD_REACTORS
330
53F
102
}
330
53F
100
AcDbScale
 70
     0
300
1/128" = 1'-0"
140
0.0078125
141
12.0
290
     0
  0
SCALE
  5
552
102
{ACAD_REACTORS
330
53F
102
}
330
53F
100
AcDbScale
 70
     0
300
1/64" = 1'-0"
140
0.015625
141
12.0
290
     0
  0
SCALE
  5
553
102
{ACAD_REACTORS
330
53F
102
}
330
53F
100
AcDbScale
 70
     0
300
1/32" = 1'-0"
140
0.03125
141
12.0
290
     0
  0
SCALE
  5
554
102
{ACAD_REACTORS
330
53F
102
}
330
53F
100
AcDbScale
 70
     0
300
1/16" = 1'-0"
140
0.0625
141
12.0
290
     0
  0
SCALE
  5
555
102
{ACAD_REACTORS
330
53F
102
}
330
53F
100
AcDbScale
 70
     0
300
3/32" = 1'-0"
140
0.09375
141
12.0
290
     0
  0
SCALE
  5
556
102
{ACAD_REACTORS
330
53F
102
}
330
53F
100
AcDbScale
 70
     0
300
1/8" = 1'-0"
140
0.125
141
12.0
290
     0
  0
SCALE
  5
557
102
{ACAD_REACTORS
330
53F
102
}
330
53F
100
AcDbScale
 70
     0
300
3/16" = 1'-0"
140
0.1875
141
12.0
290
     0
  0
SCALE
  5
558
102
{ACAD_REACTORS
330
53F
102
}
330
53F
100
AcDbScale
 70
     0
300
1/4" = 1'-0"
140
0.25
141
12.0
290
     0
  0
SCALE
  5
559
102
{ACAD_REACTORS
330
53F
102
}
330
53F
100
AcDbScale
 70
     0
300
3/8" = 1'-0"
140
0.375
141
12.0
290
     0
  0
SCALE
  5
55A
102
{ACAD_REACTORS
330
53F
102
}
330
53F
100
AcDbScale
 70
     0
300
1/2" = 1'-0"
140
0.5
141
12.0
290
     0
  0
SCALE
  5
55B
102
{ACAD_REACTORS
330
53F
102
}
330
53F
100
AcDbScale
 70
     0
300
3/4" = 1'-0"
140
0.75
141
12.0
290
     0
  0
SCALE
  5
55C
102
{ACAD_REACTORS
330
53F
102
}
330
53F
100
AcDbScale
 70
     0
300
1" = 1'-0"
140
1.0
141
12.0
290
     0
  0
SCALE
  5
55D
102
{ACAD_REACTORS
330
53F
102
}
330
53F
100
AcDbScale
 70
     0
300
1-1/2" = 1'-0"
140
1.5
141
12.0
290
     0
  0
SCALE
  5
55E
102
{ACAD_REACTORS
330
53F
102
}
330
53F
100
AcDbScale
 70
     0
300
3" = 1'-0"
140
3.0
141
12.0
290
     0
  0
SCALE
  5
55F
102
{ACAD_REACTORS
330
53F
102
}
330
53F
100
AcDbScale
 70
     0
300
6" = 1'-0"
140
6.0
141
12.0
290
     0
  0
SCALE
  5
560
102
{ACAD_REACTORS
330
53F
102
}
330
53F
100
AcDbScale
 70
     0
300
1'-0" = 1'-0"
140
12.0
141
12.0
290
     0
  0
TABLESTYLE
  5
582
102
{ACAD_REACTORS
330
581
102
}
102
{ACAD_XDICTIONARY
360
588
102
}
330
581
100
AcDbTableStyle
  3
Standard
 70
     0
 71
     0
 40
0.06
 41
0.06
280
     0
281
     0
  7
STANDARD
140
4.5
170
     2
 62
     0
 63
   257
283
     0
 90
        4
 91
        0
  1

274
    -2
284
     1
 64
     0
275
    -2
285
     1
 65
     0
276
    -2
286
     1
 66
     0
277
    -2
287
     1
 67
     0
278
    -2
288
     1
 68
     0
279
    -2
289
     1
 69
     0
  7
STANDARD
140
6.0
170
     5
 62
     0
 63
   257
283
     0
 90
        4
 91
        0
  1

274
    -2
284
     1
 64
     0
275
    -2
285
     1
 65
     0
276
    -2
286
     1
 66
     0
277
    -2
287
     1
 67
     0
278
    -2
288
     1
 68
     0
279
    -2
289
     1
 69
     0
  7
STANDARD
140
4.5
170
     5
 62
     0
 63
   257
283
     0
 90
        4
 91
        0
  1

274
    -2
284
     1
 64
     0
275
    -2
285
     1
 65
     0
276
    -2
286
     1
 66
     0
277
    -2
287
     1
 67
     0
278
    -2
288
     1
 68
     0
279
    -2
289
     1
 69
     0
  0
VISUALSTYLE
  5
569
102
{ACAD_REACTORS
330
564
102
}
330
564
100
AcDbVisualStyle
  2
2dWireframe
 70
     4
177
     3
291
     0
 70
    58
 90
        0
176
     1
 90
        2
176
     1
 90
        0
176
     1
 90
        0
176
     1
 40
0.6
176
     1
 40
30.0
176
     1
 62
     7
420
 16777215
176
     1
 90
        1
176
     1
 90
        4
176
     1
 62
     7
176
     1
 62
   257
176
     1
 90
        1
176
     1
 90
        1
176
     1
 40
1.0
176
     1
 90
        0
176
     1
 62
   257
176
     1
 40
1.0
176
     1
 90
        1
176
     1
 90
        6
176
     1
 90
        2
176
     1
 62
     7
176
     1
 90
        5
176
     1
 90
        0
176
     1
 90
        0
176
     1
290
     0
176
     1
 90
        1
176
     1
 40
0.0
176
     1
 90
        0
176
     1
290
     1
176
     1
290
     1
176
     1
290
     0
176
     1
290
     0
176
     1
290
     0
176
     1
290
     0
176
     1
290
     0
176
     1
290
     0
176
     1
290
     0
176
     1
 90
       50
176
     1
 40
0.0
176
     1
 40
1.0
176
     1
 90
        0
176
     1
 62
    18
420
        0
176
     1
 90
       50
176
     1
 90
        3
176
     1
 62
     5
420
      255
176
     1
290
     0
176
     1
 90
       50
176
     1
 90
       50
176
     1
 90
       50
176
     1
290
     0
176
     1
 90
       50
176
     1
 62
   256
176
     0
 40
1.0
176
     0
 90
        2
176
     1
  1
strokes_ogs.tif
176
     1
290
     0
176
     1
 40
1.0
176
     1
 40
1.0
176
     1
  0
VISUALSTYLE
  5
56C
102
{ACAD_REACTORS
330
564
102
}
330
564
100
AcDbVisualStyle
  2
Basic
 70
     7
177
     3
291
     1
 70
    58
 90
        1
176
     1
 90
        0
176
     1
 90
        1
176
     1
 90
        0
176
     1
 40
0.6
176
     1
 40
30.0
176
     1
 62
     7
420
 16777215
176
     1
 90
        0
176
     1
 90
        4
176
     1
 62
     7
176
     1
 62
   257
176
     1
 90
        1
176
     1
 90
        1
176
     1
 40
1.0
176
     1
 90
        8
176
     1
 62
     7
176
     1
 40
1.0
176
     1
 90
        1
176
     1
 90
        6
176
     1
 90
        2
176
     1
 62
     7
176
     1
 90
        5
176
     1
 90
        0
176
     1
 90
        0
176
     1
290
     0
176
     1
 90
        1
176
     1
 40
0.0
176
     1
 90
        0
176
     1
290
     0
176
     1
290
     1
176
     1
290
     1
176
     1
290
     0
176
     1
290
     0
176
     1
290
     0
176
     1
290
     0
176
     1
290
     0
176
     1
290
     0
176
     1
 90
       50
176
     1
 40
0.0
176
     1
 40
1.0
176
     1
 90
        0
176
     1
 62
    18
420
        0
176
     1
 90
       50
176
     1
 90
        3
176
     1
 62
     5
420
      255
176
     1
290
     0
176
     1
 90
       50
176
     1
 90
       50
176
     1
 90
       50
176
     1
290
     0
176
     1
 90
       50
176
     1
 62
   256
176
     0
 40
1.0
176
     0
 90
        2
176
     1
  1
strokes_ogs.tif
176
     1
290
     0
176
     1
 40
1.0
176
     1
 40
1.0
176
     1
  0
VISUALSTYLE
  5
570
102
{ACAD_REACTORS
330
564
102
}
330
564
100
AcDbVisualStyle
  2
Brighten
 70
    12
177
     3
291
     1
 70
    58
 90
        2
176
     1
 90
        2
176
     1
 90
        0
176
     1
 90
        0
176
     1
 40
0.6
176
     1
 40
30.0
176
     1
 62
     7
420
 16777215
176
     1
 90
        1
176
     1
 90
        4
176
     1
 62
     7
176
     1
 62
   257
176
     1
 90
        1
176
     1
 90
        1
176
     1
 40
1.0
176
     1
 90
        8
176
     1
 62
     7
176
     1
 40
1.0
176
     1
 90
        1
176
     1
 90
        6
176
     1
 90
        2
176
     1
 62
     7
176
     1
 90
        5
176
     1
 90
        0
176
     1
 90
        0
176
     1
290
     0
176
     1
 90
        1
176
     1
 40
50.0
176
     1
 90
        0
176
     1
290
     0
176
     1
290
     1
176
     1
290
     1
176
     1
290
     0
176
     1
290
     0
176
     1
290
     0
176
     1
290
     0
176
     1
290
     0
176
     1
290
     0
176
     1
 90
       50
176
     1
 40
0.0
176
     1
 40
1.0
176
     1
 90
        0
176
     1
 62
    18
420
        0
176
     1
 90
       50
176
     1
 90
        3
176
     1
 62
     5
420
      255
176
     1
290
     0
176
     1
 90
       50
176
     1
 90
       50
176
     1
 90
       50
176
     1
290
     0
176
     1
 90
       50
176
     1
 62
   256
176
     0
 40
1.0
176
     0
 90
        2
176
     1
  1
strokes_ogs.tif
176
     1
290
     0
176
     1
 40
1.0
176
     1
 40
1.0
176
     1
  0
VISUALSTYLE
  5
574
102
{ACAD_REACTORS
330
564
102
}
330
564
100
AcDbVisualStyle
  2
ColorChange
 70
    16
177
     3
291
     1
 70
    58
 90
        2
176
     1
 90
        2
176
     1
 90
        3
176
     1
 90
        0
176
     1
 40
0.6
176
     1
 40
30.0
176
     1
 62
     8
420
  8421504
176
     1
 90
        1
176
     1
 90
        4
176
     1
 62
     7
176
     1
 62
   257
176
     1
 90
        1
176
     1
 90
        1
176
     1
 40
1.0
176
     1
 90
        8
176
     1
 62
     8
420
  8421504
176
     1
 40
1.0
176
     1
 90
        1
176
     1
 90
        6
176
     1
 90
        2
176
     1
 62
     7
176
     1
 90
        5
176
     1
 90
        0
176
     1
 90
        0
176
     1
290
     0
176
     1
 90
        1
176
     1
 40
0.0
176
     1
 90
        0
176
     1
290
     0
176
     1
290
     1
176
     1
290
     1
176
     1
290
     0
176
     1
290
     0
176
     1
290
     0
176
     1
290
     0
176
     1
290
     0
176
     1
290
     0
176
     1
 90
       50
176
     1
 40
0.0
176
     1
 40
1.0
176
     1
 90
        0
176
     1
 62
    18
420
        0
176
     1
 90
       50
176
     1
 90
        3
176
     1
 62
     5
420
      255
176
     1
290
     0
176
     1
 90
       50
176
     1
 90
       50
176
     1
 90
       50
176
     1
290
     0
176
     1
 90
       50
176
     1
 62
   256
176
     0
 40
1.0
176
     0
 90
        2
176
     1
  1
strokes_ogs.tif
176
     1
290
     0
176
     1
 40
1.0
176
     1
 40
1.0
176
     1
  0
VISUALSTYLE
  5
56E
102
{ACAD_REACTORS
330
564
102
}
330
564
100
AcDbVisualStyle
  2
Conceptual
 70
     9
177
     3
291
     0
 70
    58
 90
        3
176
     1
 90
        2
176
     1
 90
        0
176
     1
 90
        0
176
     1
 40
0.6
176
     1
 40
30.0
176
     1
 62
     7
420
 16777215
176
     1
 90
        2
176
     1
 90
        2
176
     1
 62
     7
176
     1
 62
   257
176
     1
 90
        1
176
     1
 90
        1
176
     1
 40
179.0
176
     1
 90
        8
176
     1
 62
     7
176
     1
 40
1.0
176
     1
 90
        1
176
     1
 90
        6
176
     1
 90
        2
176
     1
 62
     7
176
     1
 90
        3
176
     1
 90
        0
176
     1
 90
        0
176
     1
290
     0
176
     1
 90
        1
176
     1
 40
0.0
176
     1
 90
        0
176
     1
290
     0
176
     1
290
     1
176
     1
290
     1
176
     1
290
     0
176
     1
290
     0
176
     1
290
     0
176
     1
290
     0
176
     1
290
     0
176
     1
290
     0
176
     1
 90
       50
176
     1
 40
0.0
176
     1
 40
1.0
176
     1
 90
        0
176
     1
 62
    18
420
        0
176
     1
 90
       50
176
     1
 90
        3
176
     1
 62
     5
420
      255
176
     1
290
     0
176
     1
 90
       50
176
     1
 90
       50
176
     1
 90
       50
176
     1
290
     0
176
     1
 90
       50
176
     1
 62
   256
176
     0
 40
1.0
176
     0
 90
        2
176
     1
  1
strokes_ogs.tif
176
     1
290
     0
176
     1
 40
1.0
176
     1
 40
1.0
176
     1
  0
VISUALSTYLE
  5
56F
102
{ACAD_REACTORS
330
564
102
}
330
564
100
AcDbVisualStyle
  2
Dim
 70
    11
177
     3
291
     1
 70
    58
 90
        2
176
     1
 90
        2
176
     1
 90
        0
176
     1
 90
        0
176
     1
 40
0.6
176
     1
 40
30.0
176
     1
 62
     7
420
 16777215
176
     1
 90
        1
176
     1
 90
        4
176
     1
 62
     7
176
     1
 62
   257
176
     1
 90
        1
176
     1
 90
        1
176
     1
 40
1.0
176
     1
 90
        8
176
     1
 62
     7
176
     1
 40
1.0
176
     1
 90
        1
176
     1
 90
        6
176
     1
 90
        2
176
     1
 62
     7
176
     1
 90
        5
176
     1
 90
        0
176
     1
 90
        0
176
     1
290
     0
176
     1
 90
        1
176
     1
 40
-50.0
176
     1
 90
        0
176
     1
290
     0
176
     1
290
     1
176
     1
290
     1
176
     1
290
     0
176
     1
290
     0
176
     1
290
     0
176
     1
290
     0
176
     1
290
     0
176
     1
290
     0
176
     1
 90
       50
176
     1
 40
0.0
176
     1
 40
1.0
176
     1
 90
        0
176
     1
 62
    18
420
        0
176
     1
 90
       50
176
     1
 90
        3
176
     1
 62
     5
420
      255
176
     1
290
     0
176
     1
 90
       50
176
     1
 90
       50
176
     1
 90
       50
176
     1
290
     0
176
     1
 90
       50
176
     1
 62
   256
176
     0
 40
1.0
176
     0
 90
        2
176
     1
  1
strokes_ogs.tif
176
     1
290
     0
176
     1
 40
1.0
176
     1
 40
1.0
176
     1
  0
VISUALSTYLE
  5
577
102
{ACAD_REACTORS
330
564
102
}
330
564
100
AcDbVisualStyle
  2
EdgeColorOff
 70
    22
177
     3
291
     1
 70
    58
 90
        2
176
     0
 90
        2
176
     0
 90
        0
176
     0
 90
        0
176
     0
 40
0.6
176
     0
 40
30.0
176
     0
 62
     7
420
 16777215
176
     0
 90
        1
176
     0
 90
        4
176
     0
 62
     7
176
     0
 62
   257
176
     0
 90
        1
176
     0
 90
        1
176
     0
 40
1.0
176
     0
 90
        8
176
     2
 62
     7
176
     0
 40
1.0
176
     0
 90
        1
176
     0
 90
        6
176
     0
 90
        2
176
     0
 62
     7
176
     0
 90
        5
176
     0
 90
        0
176
     0
 90
        0
176
     0
290
     0
176
     0
 90
        1
176
     0
 40
0.0
176
     0
 90
        0
176
     0
290
     0
176
     0
290
     1
176
     0
290
     1
176
     0
290
     0
176
     0
290
     0
176
     0
290
     0
176
     0
290
     0
176
     0
290
     0
176
     0
290
     0
176
     0
 90
       50
176
     0
 40
0.0
176
     0
 40
1.0
176
     0
 90
        0
176
     0
 62
    18
420
        0
176
     0
 90
       50
176
     0
 90
        3
176
     0
 62
     5
420
      255
176
     0
290
     0
176
     0
 90
       50
176
     0
 90
       50
176
     0
 90
       50
176
     0
290
     0
176
     0
 90
       50
176
     0
 62
   256
176
     0
 40
1.0
176
     0
 90
        2
176
     0
  1
strokes_ogs.tif
176
     0
290
     0
176
     0
 40
1.0
176
     0
 40
1.0
176
     0
  0
VISUALSTYLE
  5
573
102
{ACAD_REACTORS
330
564
102
}
330
564
100
AcDbVisualStyle
  2
Facepattern
 70
    15
177
     3
291
     1
 70
    58
 90
        2
176
     1
 90
        2
176
     1
 90
        0
176
     1
 90
        0
176
     1
 40
0.6
176
     1
 40
30.0
176
     1
 62
     7
420
 16777215
176
     1
 90
        1
176
     1
 90
        4
176
     1
 62
     7
176
     1
 62
   257
176
     1
 90
        1
176
     1
 90
        1
176
     1
 40
1.0
176
     1
 90
        8
176
     1
 62
     7
176
     1
 40
1.0
176
     1
 90
        1
176
     1
 90
        6
176
     1
 90
        2
176
     1
 62
     7
176
     1
 90
        5
176
     1
 90
        0
176
     1
 90
        0
176
     1
290
     0
176
     1
 90
        1
176
     1
 40
0.0
176
     1
 90
        0
176
     1
290
     0
176
     1
290
     1
176
     1
290
     1
176
     1
290
     0
176
     1
290
     0
176
     1
290
     0
176
     1
290
     0
176
     1
290
     0
176
     1
290
     0
176
     1
 90
       50
176
     1
 40
0.0
176
     1
 40
1.0
176
     1
 90
        0
176
     1
 62
    18
420
        0
176
     1
 90
       50
176
     1
 90
        3
176
     1
 62
     5
420
      255
176
     1
290
     0
176
     1
 90
       50
176
     1
 90
       50
176
     1
 90
       50
176
     1
290
     0
176
     1
 90
       50
176
     1
 62
   256
176
     0
 40
1.0
176
     0
 90
        2
176
     1
  1
strokes_ogs.tif
176
     1
290
     0
176
     1
 40
1.0
176
     1
 40
1.0
176
     1
  0
VISUALSTYLE
  5
565
102
{ACAD_REACTORS
330
564
102
}
330
564
100
AcDbVisualStyle
  2
Flat
 70
     0
177
     3
291
     1
 70
    58
 90
        2
176
     1
 90
        1
176
     1
 90
        1
176
     1
 90
        2
176
     1
 40
0.6
176
     1
 40
30.0
176
     1
 62
     7
420
 16777215
176
     1
 90
        0
176
     1
 90
        0
176
     1
 62
     7
176
     1
 62
   257
176
     1
 90
        1
176
     1
 90
        1
176
     1
 40
1.0
176
     1
 90
        8
176
     1
 62
     7
176
     1
 40
1.0
176
     1
 90
        1
176
     1
 90
        6
176
     1
 90
        2
176
     1
 62
     7
176
     1
 90
        5
176
     1
 90
        0
176
     1
 90
        0
176
     1
290
     0
176
     1
 90
       13
176
     1
 40
0.0
176
     1
 90
        0
176
     1
290
     0
176
     1
290
     1
176
     1
290
     1
176
     1
290
     0
176
     1
290
     0
176
     1
290
     0
176
     1
290
     0
176
     1
290
     0
176
     1
290
     0
176
     1
 90
       50
176
     1
 40
0.0
176
     1
 40
1.0
176
     1
 90
        0
176
     1
 62
    18
420
        0
176
     1
 90
       50
176
     1
 90
        3
176
     1
 62
     5
420
      255
176
     1
290
     0
176
     1
 90
       50
176
     1
 90
       50
176
     1
 90
       50
176
     1
290
     0
176
     1
 90
       50
176
     1
 62
   256
176
     0
 40
1.0
176
     0
 90
        2
176
     1
  1
strokes_ogs.tif
176
     1
290
     0
176
     1
 40
1.0
176
     1
 40
1.0
176
     1
  0
VISUALSTYLE
  5
566
102
{ACAD_REACTORS
330
564
102
}
330
564
100
AcDbVisualStyle
  2
FlatWithEdges
 70
     1
177
     3
291
     1
 70
    58
 90
        2
176
     1
 90
        1
176
     1
 90
        1
176
     1
 90
        2
176
     1
 40
0.6
176
     1
 40
30.0
176
     1
 62
     7
420
 16777215
176
     1
 90
        1
176
     1
 90
        0
176
     1
 62
     7
176
     1
 62
   257
176
     1
 90
        1
176
     1
 90
        1
176
     1
 40
1.0
176
     1
 90
        0
176
     1
 62
   257
176
     1
 40
1.0
176
     1
 90
        1
176
     1
 90
        6
176
     1
 90
        2
176
     1
 62
     7
176
     1
 90
        5
176
     1
 90
        0
176
     1
 90
        0
176
     1
290
     0
176
     1
 90
       13
176
     1
 40
0.0
176
     1
 90
        0
176
     1
290
     0
176
     1
290
     1
176
     1
290
     1
176
     1
290
     0
176
     1
290
     0
176
     1
290
     0
176
     1
290
     0
176
     1
290
     0
176
     1
290
     0
176
     1
 90
       50
176
     1
 40
0.0
176
     1
 40
1.0
176
     1
 90
        0
176
     1
 62
    18
420
        0
176
     1
 90
       50
176
     1
 90
        3
176
     1
 62
     5
420
      255
176
     1
290
     0
176
     1
 90
       50
176
     1
 90
       50
176
     1
 90
       50
176
     1
290
     0
176
     1
 90
       50
176
     1
 62
   256
176
     0
 40
1.0
176
     0
 90
        2
176
     1
  1
strokes_ogs.tif
176
     1
290
     0
176
     1
 40
1.0
176
     1
 40
1.0
176
     1
  0
VISUALSTYLE
  5
567
102
{ACAD_REACTORS
330
564
102
}
330
564
100
AcDbVisualStyle
  2
Gouraud
 70
     2
177
     3
291
     1
 70
    58
 90
        2
176
     1
 90
        2
176
     1
 90
        1
176
     1
 90
        2
176
     1
 40
0.6
176
     1
 40
30.0
176
     1
 62
     7
420
 16777215
176
     1
 90
        0
176
     1
 90
        0
176
     1
 62
     7
176
     1
 62
   257
176
     1
 90
        1
176
     1
 90
        1
176
     1
 40
1.0
176
     1
 90
        0
176
     1
 62
     7
176
     1
 40
1.0
176
     1
 90
        1
176
     1
 90
        6
176
     1
 90
        2
176
     1
 62
     7
176
     1
 90
        5
176
     1
 90
        0
176
     1
 90
        0
176
     1
290
     0
176
     1
 90
       13
176
     1
 40
0.0
176
     1
 90
        0
176
     1
290
     0
176
     1
290
     1
176
     1
290
     1
176
     1
290
     0
176
     1
290
     0
176
     1
290
     0
176
     1
290
     0
176
     1
290
     0
176
     1
290
     0
176
     1
 90
       50
176
     1
 40
0.0
176
     1
 40
1.0
176
     1
 90
        0
176
     1
 62
    18
420
        0
176
     1
 90
       50
176
     1
 90
        3
176
     1
 62
     5
420
      255
176
     1
290
     0
176
     1
 90
       50
176
     1
 90
       50
176
     1
 90
       50
176
     1
290
     0
176
     1
 90
       50
176
     1
 62
   256
176
     0
 40
1.0
176
     0
 90
        2
176
     1
  1
strokes_ogs.tif
176
     1
290
     0
176
     1
 40
1.0
176
     1
 40
1.0
176
     1
  0
VISUALSTYLE
  5
568
102
{ACAD_REACTORS
330
564
102
}
330
564
100
AcDbVisualStyle
  2
GouraudWithEdges
 70
     3
177
     3
291
     1
 70
    58
 90
        2
176
     1
 90
        2
176
     1
 90
        1
176
     1
 90
        2
176
     1
 40
0.6
176
     1
 40
30.0
176
     1
 62
     7
420
 16777215
176
     1
 90
        1
176
     1
 90
        0
176
     1
 62
     7
176
     1
 62
   257
176
     1
 90
        1
176
     1
 90
        1
176
     1
 40
1.0
176
     1
 90
        0
176
     1
 62
   257
176
     1
 40
1.0
176
     1
 90
        1
176
     1
 90
        6
176
     1
 90
        2
176
     1
 62
     7
176
     1
 90
        5
176
     1
 90
        0
176
     1
 90
        0
176
     1
290
     0
176
     1
 90
       13
176
     1
 40
0.0
176
     1
 90
        0
176
     1
290
     0
176
     1
290
     1
176
     1
290
     1
176
     1
290
     0
176
     1
290
     0
176
     1
290
     0
176
     1
290
     0
176
     1
290
     0
176
     1
290
     0
176
     1
 90
       50
176
     1
 40
0.0
176
     1
 40
1.0
176
     1
 90
        0
176
     1
 62
    18
420
        0
176
     1
 90
       50
176
     1
 90
        3
176
     1
 62
     5
420
      255
176
     1
290
     0
176
     1
 90
       50
176
     1
 90
       50
176
     1
 90
       50
176
     1
290
     0
176
     1
 90
       50
176
     1
 62
   256
176
     0
 40
1.0
176
     0
 90
        2
176
     1
  1
strokes_ogs.tif
176
     1
290
     0
176
     1
 40
1.0
176
     1
 40
1.0
176
     1
  0
VISUALSTYLE
  5
56B
102
{ACAD_REACTORS
330
564
102
}
330
564
100
AcDbVisualStyle
  2
Hidden
 70
     6
177
     3
291
     0
 70
    58
 90
        1
176
     1
 90
        2
176
     1
 90
        2
176
     1
 90
        0
176
     1
 40
0.6
176
     1
 40
30.0
176
     1
 62
     7
420
 16777215
176
     1
 90
        2
176
     1
 90
        2
176
     1
 62
     7
176
     1
 62
   257
176
     1
 90
        2
176
     1
 90
        1
176
     1
 40
40.0
176
     1
 90
        0
176
     1
 62
   257
176
     1
 40
1.0
176
     1
 90
        1
176
     1
 90
        6
176
     1
 90
        2
176
     1
 62
     7
176
     1
 90
        3
176
     1
 90
        0
176
     1
 90
        0
176
     1
290
     0
176
     1
 90
        1
176
     1
 40
0.0
176
     1
 90
        0
176
     1
290
     0
176
     1
290
     1
176
     1
290
     1
176
     1
290
     0
176
     1
290
     0
176
     1
290
     0
176
     1
290
     0
176
     1
290
     0
176
     1
290
     0
176
     1
 90
       50
176
     1
 40
0.0
176
     1
 40
1.0
176
     1
 90
        0
176
     1
 62
    18
420
        0
176
     1
 90
       50
176
     1
 90
        3
176
     1
 62
     5
420
      255
176
     1
290
     0
176
     1
 90
       50
176
     1
 90
       50
176
     1
 90
       50
176
     1
290
     0
176
     1
 90
       50
176
     1
 62
   256
176
     0
 40
1.0
176
     0
 90
        2
176
     1
  1
strokes_ogs.tif
176
     1
290
     0
176
     1
 40
1.0
176
     1
 40
1.0
176
     1
  0
VISUALSTYLE
  5
575
102
{ACAD_REACTORS
330
564
102
}
330
564
100
AcDbVisualStyle
  2
JitterOff
 70
    20
177
     3
291
     1
 70
    58
 90
        2
176
     0
 90
        2
176
     0
 90
        0
176
     0
 90
        0
176
     0
 40
0.6
176
     0
 40
30.0
176
     0
 62
     7
420
 16777215
176
     0
 90
        1
176
     0
 90
        4
176
     0
 62
     7
176
     0
 62
   257
176
     0
 90
        1
176
     0
 90
        1
176
     0
 40
1.0
176
     0
 90
       10
176
     2
 62
     7
176
     0
 40
1.0
176
     0
 90
        1
176
     0
 90
        6
176
     0
 90
        2
176
     0
 62
     7
176
     0
 90
        5
176
     0
 90
        0
176
     0
 90
        0
176
     0
290
     0
176
     0
 90
        1
176
     0
 40
0.0
176
     0
 90
        0
176
     0
290
     0
176
     0
290
     1
176
     0
290
     1
176
     0
290
     0
176
     0
290
     0
176
     0
290
     0
176
     0
290
     0
176
     0
290
     0
176
     0
290
     0
176
     0
 90
       50
176
     0
 40
0.0
176
     0
 40
1.0
176
     0
 90
        0
176
     0
 62
    18
420
        0
176
     0
 90
       50
176
     0
 90
        3
176
     0
 62
     5
420
      255
176
     0
290
     0
176
     0
 90
       50
176
     0
 90
       50
176
     0
 90
       50
176
     0
290
     0
176
     0
 90
       50
176
     0
 62
   256
176
     0
 40
1.0
176
     0
 90
        2
176
     0
  1
strokes_ogs.tif
176
     0
290
     0
176
     0
 40
1.0
176
     0
 40
1.0
176
     0
  0
VISUALSTYLE
  5
572
102
{ACAD_REACTORS
330
564
102
}
330
564
100
AcDbVisualStyle
  2
Linepattern
 70
    14
177
     3
291
     1
 70
    58
 90
        2
176
     1
 90
        2
176
     1
 90
        0
176
     1
 90
        0
176
     1
 40
0.6
176
     1
 40
30.0
176
     1
 62
     7
420
 16777215
176
     1
 90
        1
176
     1
 90
        4
176
     1
 62
     7
176
     1
 62
   257
176
     1
 90
        7
176
     1
 90
        7
176
     1
 40
1.0
176
     1
 90
        8
176
     1
 62
     7
176
     1
 40
1.0
176
     1
 90
        1
176
     1
 90
        6
176
     1
 90
        2
176
     1
 62
     7
176
     1
 90
        5
176
     1
 90
        0
176
     1
 90
        0
176
     1
290
     0
176
     1
 90
        1
176
     1
 40
0.0
176
     1
 90
        0
176
     1
290
     0
176
     1
290
     1
176
     1
290
     1
176
     1
290
     0
176
     1
290
     0
176
     1
290
     0
176
     1
290
     0
176
     1
290
     0
176
     1
290
     0
176
     1
 90
       50
176
     1
 40
0.0
176
     1
 40
1.0
176
     1
 90
        0
176
     1
 62
    18
420
        0
176
     1
 90
       50
176
     1
 90
        3
176
     1
 62
     5
420
      255
176
     1
290
     0
176
     1
 90
       50
176
     1
 90
       50
176
     1
 90
       50
176
     1
290
     0
176
     1
 90
       50
176
     1
 62
   256
176
     0
 40
1.0
176
     0
 90
        2
176
     1
  1
strokes_ogs.tif
176
     1
290
     0
176
     1
 40
1.0
176
     1
 40
1.0
176
     1
  0
VISUALSTYLE
  5
576
102
{ACAD_REACTORS
330
564
102
}
330
564
100
AcDbVisualStyle
  2
OverhangOff
 70
    21
177
     3
291
     1
 70
    58
 90
        2
176
     0
 90
        2
176
     0
 90
        0
176
     0
 90
        0
176
     0
 40
0.6
176
     0
 40
30.0
176
     0
 62
     7
420
 16777215
176
     0
 90
        1
176
     0
 90
        4
176
     0
 62
     7
176
     0
 62
   257
176
     0
 90
        1
176
     0
 90
        1
176
     0
 40
1.0
176
     0
 90
        9
176
     2
 62
     7
176
     0
 40
1.0
176
     0
 90
        1
176
     0
 90
        6
176
     0
 90
        2
176
     0
 62
     7
176
     0
 90
        5
176
     0
 90
        0
176
     0
 90
        0
176
     0
290
     0
176
     0
 90
        1
176
     0
 40
0.0
176
     0
 90
        0
176
     0
290
     0
176
     0
290
     1
176
     0
290
     1
176
     0
290
     0
176
     0
290
     0
176
     0
290
     0
176
     0
290
     0
176
     0
290
     0
176
     0
290
     0
176
     0
 90
       50
176
     0
 40
0.0
176
     0
 40
1.0
176
     0
 90
        0
176
     0
 62
    18
420
        0
176
     0
 90
       50
176
     0
 90
        3
176
     0
 62
     5
420
      255
176
     0
290
     0
176
     0
 90
       50
176
     0
 90
       50
176
     0
 90
       50
176
     0
290
     0
176
     0
 90
       50
176
     0
 62
   256
176
     0
 40
1.0
176
     0
 90
        2
176
     0
  1
strokes_ogs.tif
176
     0
290
     0
176
     0
 40
1.0
176
     0
 40
1.0
176
     0
  0
VISUALSTYLE
  5
56D
102
{ACAD_REACTORS
330
564
102
}
330
564
100
AcDbVisualStyle
  2
Realistic
 70
     8
177
     3
291
     0
 70
    58
 90
        2
176
     1
 90
        3
176
     1
 90
        0
176
     1
 90
        2
176
     1
 40
0.6
176
     1
 40
30.0
176
     1
 62
     7
420
 16777215
176
     1
 90
        0
176
     1
 90
        0
176
     1
 62
     7
176
     1
 62
   257
176
     1
 90
        1
176
     1
 90
        1
176
     1
 40
1.0
176
     1
 90
        8
176
     1
 62
   257
176
     1
 40
1.0
176
     1
 90
        1
176
     1
 90
        6
176
     1
 90
        2
176
     1
 62
     7
176
     1
 90
        3
176
     1
 90
        0
176
     1
 90
        0
176
     1
290
     0
176
     1
 90
       13
176
     1
 40
0.0
176
     1
 90
        0
176
     1
290
     0
176
     1
290
     1
176
     1
290
     1
176
     1
290
     0
176
     1
290
     0
176
     1
290
     0
176
     1
290
     0
176
     1
290
     0
176
     1
290
     0
176
     1
 90
       50
176
     1
 40
0.0
176
     1
 40
1.0
176
     1
 90
        0
176
     1
 62
    18
420
        0
176
     1
 90
       50
176
     1
 90
        3
176
     1
 62
     5
420
      255
176
     1
290
     0
176
     1
 90
       50
176
     1
 90
       50
176
     1
 90
       50
176
     1
290
     0
176
     1
 90
       50
176
     1
 62
   256
176
     0
 40
1.0
176
     0
 90
        2
176
     1
  1
strokes_ogs.tif
176
     1
290
     0
176
     1
 40
1.0
176
     1
 40
1.0
176
     1
  0
VISUALSTYLE
  5
57C
102
{ACAD_REACTORS
330
564
102
}
330
564
100
AcDbVisualStyle
  2
Shaded
 70
    27
177
     3
291
     0
 70
    58
 90
        2
176
     1
 90
        2
176
     1
 90
        1
176
     1
 90
        2
176
     1
 40
0.6
176
     1
 40
30.0
176
     1
 62
     7
420
 16777215
176
     1
 90
        0
176
     1
 90
        4
176
     1
 62
     7
176
     1
 62
   257
176
     1
 90
        1
176
     1
 90
        1
176
     1
 40
1.0
176
     1
 90
        8
176
     1
 62
   257
176
     1
 40
1.0
176
     1
 90
        1
176
     1
 90
        6
176
     1
 90
        2
176
     1
 62
     8
420
  7895160
176
     1
 90
        3
176
     1
 90
        0
176
     1
 90
        0
176
     1
290
     0
176
     1
 90
        5
176
     1
 40
0.0
176
     1
 90
        0
176
     1
290
     0
176
     1
290
     1
176
     1
290
     1
176
     1
290
     0
176
     1
290
     0
176
     1
290
     0
176
     1
290
     0
176
     1
290
     0
176
     1
290
     0
176
     1
 90
       50
176
     1
 40
0.0
176
     1
 40
1.0
176
     1
 90
        0
176
     1
 62
    18
420
        0
176
     1
 90
       50
176
     1
 90
        3
176
     1
 62
     5
420
      255
176
     1
290
     0
176
     1
 90
       50
176
     1
 90
       50
176
     1
 90
       50
176
     1
290
     0
176
     1
 90
       50
176
     1
 62
   256
176
     0
 40
1.0
176
     0
 90
        2
176
     1
  1
strokes_ogs.tif
176
     1
290
     0
176
     1
 40
1.0
176
     1
 40
1.0
176
     1
  0
VISUALSTYLE
  5
57B
102
{ACAD_REACTORS
330
564
102
}
330
564
100
AcDbVisualStyle
  2
Shaded with edges
 70
    26
177
     3
291
     0
 70
    58
 90
        2
176
     1
 90
        2
176
     1
 90
        1
176
     1
 90
        2
176
     1
 40
0.6
176
     1
 40
30.0
176
     1
 62
     7
420
 16777215
176
     1
 90
        1
176
     1
 90
       10
176
     1
 62
     7
176
     1
 62
   257
176
     1
 90
        2
176
     1
 90
        1
176
     1
 40
1.0
176
     1
 90
        8
176
     1
 62
   257
176
     1
 40
1.0
176
     1
 90
        1
176
     1
 90
        6
176
     1
 90
        2
176
     1
 62
     7
176
     1
 90
        3
176
     1
 90
        0
176
     1
 90
        0
176
     1
290
     0
176
     1
 90
        5
176
     1
 40
0.0
176
     1
 90
        0
176
     1
290
     0
176
     1
290
     1
176
     1
290
     1
176
     1
290
     0
176
     1
290
     0
176
     1
290
     0
176
     1
290
     0
176
     1
290
     0
176
     1
290
     0
176
     1
 90
       50
176
     1
 40
0.0
176
     1
 40
1.0
176
     1
 90
        0
176
     1
 62
    18
420
        0
176
     1
 90
       50
176
     1
 90
        3
176
     1
 62
     5
420
      255
176
     1
290
     0
176
     1
 90
       50
176
     1
 90
       50
176
     1
 90
       50
176
     1
290
     0
176
     1
 90
       50
176
     1
 62
   256
176
     0
 40
1.0
176
     0
 90
        2
176
     1
  1
strokes_ogs.tif
176
     1
290
     0
176
     1
 40
1.0
176
     1
 40
1.0
176
     1
  0
VISUALSTYLE
  5
578
102
{ACAD_REACTORS
330
564
102
}
330
564
100
AcDbVisualStyle
  2
Shades of Gray
 70
    23
177
     3
291
     0
 70
    58
 90
        2
176
     1
 90
        2
176
     1
 90
        3
176
     1
 90
        0
176
     1
 40
0.6
176
     1
 40
30.0
176
     1
 62
     7
420
 16777215
176
     1
 90
        2
176
     1
 90
        2
176
     1
 62
     7
176
     1
 62
     7
176
     1
 90
        1
176
     1
 90
        1
176
     1
 40
40.0
176
     1
 90
        8
176
     1
 62
     7
176
     1
 40
1.0
176
     1
 90
        1
176
     1
 90
        6
176
     1
 90
        2
176
     1
 62
     7
176
     1
 90
        3
176
     1
 90
        0
176
     1
 90
        0
176
     1
290
     0
176
     1
 90
        1
176
     1
 40
0.0
176
     1
 90
        0
176
     1
290
     0
176
     1
290
     1
176
     1
290
     1
176
     1
290
     0
176
     1
290
     0
176
     1
290
     0
176
     1
290
     0
176
     1
290
     0
176
     1
290
     0
176
     1
 90
       50
176
     1
 40
0.0
176
     1
 40
1.0
176
     1
 90
        0
176
     1
 62
    18
420
        0
176
     1
 90
       50
176
     1
 90
        3
176
     1
 62
     5
420
      255
176
     1
290
     0
176
     1
 90
       50
176
     1
 90
       50
176
     1
 90
       50
176
     1
290
     0
176
     1
 90
       50
176
     1
 62
   256
176
     0
 40
1.0
176
     0
 90
        2
176
     1
  1
strokes_ogs.tif
176
     1
290
     0
176
     1
 40
1.0
176
     1
 40
1.0
176
     1
  0
VISUALSTYLE
  5
579
102
{ACAD_REACTORS
330
564
102
}
330
564
100
AcDbVisualStyle
  2
Sketchy
 70
    24
177
     3
291
     0
 70
    58
 90
        1
176
     1
 90
        2
176
     1
 90
        2
176
     1
 90
        0
176
     1
 40
0.6
176
     1
 40
30.0
176
     1
 62
     7
420
 16777215
176
     1
 90
        2
176
     1
 90
        2
176
     1
 62
     7
176
     1
 62
     7
176
     1
 90
        1
176
     1
 90
        1
176
     1
 40
40.0
176
     1
 90
       11
176
     1
 62
     7
176
     1
 40
1.0
176
     1
 90
        1
176
     1
 90
        6
176
     1
 90
        2
176
     1
 62
     7
176
     1
 90
        6
176
     1
 90
        0
176
     1
 90
        0
176
     1
290
     0
176
     1
 90
        1
176
     1
 40
0.0
176
     1
 90
        0
176
     1
290
     0
176
     1
290
     1
176
     1
290
     1
176
     1
290
     0
176
     1
290
     0
176
     1
290
     0
176
     1
290
     0
176
     1
290
     0
176
     1
290
     0
176
     1
 90
       50
176
     1
 40
0.0
176
     1
 40
1.0
176
     1
 90
        0
176
     1
 62
    18
420
        0
176
     1
 90
       50
176
     1
 90
        3
176
     1
 62
     5
420
      255
176
     1
290
     0
176
     1
 90
       50
176
     1
 90
       50
176
     1
 90
       50
176
     1
290
     0
176
     1
 90
       50
176
     1
 62
   256
176
     0
 40
1.0
176
     0
 90
        2
176
     1
  1
strokes_ogs.tif
176
     1
290
     0
176
     1
 40
1.0
176
     1
 40
1.0
176
     1
  0
VISUALSTYLE
  5
571
102
{ACAD_REACTORS
330
564
102
}
330
564
100
AcDbVisualStyle
  2
Thicken
 70
    13
177
     3
291
     1
 70
    58
 90
        2
176
     1
 90
        2
176
     1
 90
        0
176
     1
 90
        0
176
     1
 40
0.6
176
     1
 40
30.0
176
     1
 62
     7
420
 16777215
176
     1
 90
        1
176
     1
 90
        4
176
     1
 62
     7
176
     1
 62
   257
176
     1
 90
        1
176
     1
 90
        1
176
     1
 40
1.0
176
     1
 90
       12
176
     1
 62
     7
176
     1
 40
1.0
176
     1
 90
        1
176
     1
 90
        6
176
     1
 90
        2
176
     1
 62
     7
176
     1
 90
        5
176
     1
 90
        0
176
     1
 90
        0
176
     1
290
     0
176
     1
 90
        1
176
     1
 40
0.0
176
     1
 90
        0
176
     1
290
     0
176
     1
290
     1
176
     1
290
     1
176
     1
290
     0
176
     1
290
     0
176
     1
290
     0
176
     1
290
     0
176
     1
290
     0
176
     1
290
     0
176
     1
 90
       50
176
     1
 40
0.0
176
     1
 40
1.0
176
     1
 90
        0
176
     1
 62
    18
420
        0
176
     1
 90
       50
176
     1
 90
        3
176
     1
 62
     5
420
      255
176
     1
290
     0
176
     1
 90
       50
176
     1
 90
       50
176
     1
 90
       50
176
     1
290
     0
176
     1
 90
       50
176
     1
 62
   256
176
     0
 40
1.0
176
     0
 90
        2
176
     1
  1
strokes_ogs.tif
176
     1
290
     0
176
     1
 40
1.0
176
     1
 40
1.0
176
     1
  0
VISUALSTYLE
  5
56A
102
{ACAD_REACTORS
330
564
102
}
330
564
100
AcDbVisualStyle
  2
Wireframe
 70
     5
177
     3
291
     0
 70
    58
 90
        0
176
     1
 90
        2
176
     1
 90
        0
176
     1
 90
        0
176
     1
 40
0.6
176
     1
 40
30.0
176
     1
 62
     7
420
 16777215
176
     1
 90
        1
176
     1
 90
        4
176
     1
 62
     7
176
     1
 62
   257
176
     1
 90
        1
176
     1
 90
        1
176
     1
 40
1.0
176
     1
 90
        0
176
     1
 62
   257
176
     1
 40
1.0
176
     1
 90
        1
176
     1
 90
        6
176
     1
 90
        2
176
     1
 62
     7
176
     1
 90
        3
176
     1
 90
        0
176
     1
 90
        0
176
     1
290
     0
176
     1
 90
        1
176
     1
 40
0.0
176
     1
 90
        0
176
     1
290
     0
176
     1
290
     1
176
     1
290
     1
176
     1
290
     0
176
     1
290
     0
176
     1
290
     0
176
     1
290
     0
176
     1
290
     0
176
     1
290
     0
176
     1
 90
       50
176
     1
 40
0.0
176
     1
 40
1.0
176
     1
 90
        0
176
     1
 62
    18
420
        0
176
     1
 90
       50
176
     1
 90
        3
176
     1
 62
     5
420
      255
176
     1
290
     0
176
     1
 90
       50
176
     1
 90
       50
176
     1
 90
       50
176
     1
290
     0
176
     1
 90
       50
176
     1
 62
   256
176
     0
 40
1.0
176
     0
 90
        2
176
     1
  1
strokes_ogs.tif
176
     1
290
     0
176
     1
 40
1.0
176
     1
 40
1.0
176
     1
  0
VISUALSTYLE
  5
57A
102
{ACAD_REACTORS
330
564
102
}
330
564
100
AcDbVisualStyle
  2
X-Ray
 70
    25
177
     3
291
     0
 70
    58
 90
        2
176
     1
 90
        2
176
     1
 90
        1
176
     1
 90
        1
176
     1
 40
0.5
176
     1
 40
30.0
176
     1
 62
     7
420
 16777215
176
     1
 90
        1
176
     1
 90
        0
176
     1
 62
     7
176
     1
 62
   257
176
     1
 90
        1
176
     1
 90
        1
176
     1
 40
1.0
176
     1
 90
        8
176
     1
 62
     7
176
     1
 40
1.0
176
     1
 90
        1
176
     1
 90
        6
176
     1
 90
        2
176
     1
 62
     7
176
     1
 90
        3
176
     1
 90
        0
176
     1
 90
        0
176
     1
290
     0
176
     1
 90
       13
176
     1
 40
0.0
176
     1
 90
        0
176
     1
290
     0
176
     1
290
     1
176
     1
290
     1
176
     1
290
     0
176
     1
290
     0
176
     1
290
     0
176
     1
290
     0
176
     1
290
     0
176
     1
290
     0
176
     1
 90
       50
176
     1
 40
0.0
176
     1
 40
1.0
176
     1
 90
        0
176
     1
 62
    18
420
        0
176
     1
 90
       50
176
     1
 90
        3
176
     1
 62
     5
420
      255
176
     1
290
     0
176
     1
 90
       50
176
     1
 90
       50
176
     1
 90
       50
176
     1
290
     0
176
     1
 90
       50
176
     1
 62
   256
176
     0
 40
1.0
176
     0
 90
        2
176
     1
  1
strokes_ogs.tif
176
     1
290
     0
176
     1
 40
1.0
176
     1
 40
1.0
176
     1
  0
DICTIONARYVAR
  5
587
102
{ACAD_REACTORS
330
586
102
}
330
586
100
DictionaryVariables
280
     0
  1
1:1
  0
DICTIONARYVAR
  5
58C
102
{ACAD_REACTORS
330
586
102
}
330
586
100
DictionaryVariables
280
     0
  1
Standard
  0
DICTIONARYVAR
  5
58B
102
{ACAD_REACTORS
330
586
102
}
330
586
100
DictionaryVariables
280
     0
  1
Standard
  0
DICTIONARYVAR
  5
58D
102
{ACAD_REACTORS
330
586
102
}
330
586
100
DictionaryVariables
280
     0
  1
0
  0
DICTIONARY
  5
588
330
582
100
AcDbDictionary
280
     1
281
     1
  3
ACAD_ROUNDTRIP_2008_TABLESTYLE_CELLSTYLEMAP
360
589
  0
CELLSTYLEMAP
  5
589
102
{ACAD_REACTORS
330
588
102
}
330
588
100
AcDbCellStyleMap
 90
        3
300
CELLSTYLE
  1
TABLEFORMAT_BEGIN
 90
        5
170
     1
 91
        0
 92
    32768
 62
   257
 93
        1
300
CONTENTFORMAT
  1
CONTENTFORMAT_BEGIN
 90
        0
 91
        0
 92
        4
 93
        0
300

 40
0.0
140
1.0
 94
        5
 62
     0
340
11
144
6.0
309
CONTENTFORMAT_END
171
     1
301
MARGIN
  1
CELLMARGIN_BEGIN
 40
1.5
 40
1.5
 40
1.5
 40
1.5
 40
1.5
 40
1.5
309
CELLMARGIN_END
 94
        6
 95
        1
302
GRIDFORMAT
  1
GRIDFORMAT_BEGIN
 90
        0
 91
        1
 62
     0
 92
       -2
340
14
 93
        0
 40
0.045
309
GRIDFORMAT_END
 95
        2
302
GRIDFORMAT
  1
GRIDFORMAT_BEGIN
 90
        0
 91
        1
 62
     0
 92
       -2
340
14
 93
        0
 40
0.045
309
GRIDFORMAT_END
 95
        4
302
GRIDFORMAT
  1
GRIDFORMAT_BEGIN
 90
        0
 91
        1
 62
     0
 92
       -2
340
14
 93
        0
 40
0.045
309
GRIDFORMAT_END
 95
        8
302
GRIDFORMAT
  1
GRIDFORMAT_BEGIN
 90
        0
 91
        1
 62
     0
 92
       -2
340
14
 93
        0
 40
0.045
309
GRIDFORMAT_END
 95
       16
302
GRIDFORMAT
  1
GRIDFORMAT_BEGIN
 90
        0
 91
        1
 62
     0
 92
       -2
340
14
 93
        0
 40
0.045
309
GRIDFORMAT_END
 95
       32
302
GRIDFORMAT
  1
GRIDFORMAT_BEGIN
 90
        0
 91
        1
 62
     0
 92
       -2
340
14
 93
        0
 40
0.045
309
GRIDFORMAT_END
309
TABLEFORMAT_END
  1
CELLSTYLE_BEGIN
 90
        1
 91
        1
300
_TITLE
309
CELLSTYLE_END
300
CELLSTYLE
  1
TABLEFORMAT_BEGIN
 90
        5
170
     1
 91
        0
 92
        0
 62
   257
 93
        1
300
CONTENTFORMAT
  1
CONTENTFORMAT_BEGIN
 90
        0
 91
        0
 92
        4
 93
        0
300

 40
0.0
140
1.0
 94
        5
 62
     0
340
11
144
4.5
309
CONTENTFORMAT_END
171
     1
301
MARGIN
  1
CELLMARGIN_BEGIN
 40
1.5
 40
1.5
 40
1.5
 40
1.5
 40
1.5
 40
1.5
309
CELLMARGIN_END
 94
        6
 95
        1
302
GRIDFORMAT
  1
GRIDFORMAT_BEGIN
 90
        0
 91
        1
 62
     0
 92
       -2
340
14
 93
        0
 40
0.045
309
GRIDFORMAT_END
 95
        2
302
GRIDFORMAT
  1
GRIDFORMAT_BEGIN
 90
        0
 91
        1
 62
     0
 92
       -2
340
14
 93
        0
 40
0.045
309
GRIDFORMAT_END
 95
        4
302
GRIDFORMAT
  1
GRIDFORMAT_BEGIN
 90
        0
 91
        1
 62
     0
 92
       -2
340
14
 93
        0
 40
0.045
309
GRIDFORMAT_END
 95
        8
302
GRIDFORMAT
  1
GRIDFORMAT_BEGIN
 90
        0
 91
        1
 62
     0
 92
       -2
340
14
 93
        0
 40
0.045
309
GRIDFORMAT_END
 95
       16
302
GRIDFORMAT
  1
GRIDFORMAT_BEGIN
 90
        0
 91
        1
 62
     0
 92
       -2
340
14
 93
        0
 40
0.045
309
GRIDFORMAT_END
 95
       32
302
GRIDFORMAT
  1
GRIDFORMAT_BEGIN
 90
        0
 91
        1
 62
     0
 92
       -2
340
14
 93
        0
 40
0.045
309
GRIDFORMAT_END
309
TABLEFORMAT_END
  1
CELLSTYLE_BEGIN
 90
        2
 91
        1
300
_HEADER
309
CELLSTYLE_END
300
CELLSTYLE
  1
TABLEFORMAT_BEGIN
 90
        5
170
     1
 91
        0
 92
        0
 62
   257
 93
        1
300
CONTENTFORMAT
  1
CONTENTFORMAT_BEGIN
 90
        0
 91
        0
 92
        4
 93
        0
300

 40
0.0
140
1.0
 94
        2
 62
     0
340
11
144
4.5
309
CONTENTFORMAT_END
171
     1
301
MARGIN
  1
CELLMARGIN_BEGIN
 40
1.5
 40
1.5
 40
1.5
 40
1.5
 40
1.5
 40
1.5
309
CELLMARGIN_END
 94
        6
 95
        1
302
GRIDFORMAT
  1
GRIDFORMAT_BEGIN
 90
        0
 91
        1
 62
     0
 92
       -2
340
14
 93
        0
 40
0.045
309
GRIDFORMAT_END
 95
        2
302
GRIDFORMAT
  1
GRIDFORMAT_BEGIN
 90
        0
 91
        1
 62
     0
 92
       -2
340
14
 93
        0
 40
0.045
309
GRIDFORMAT_END
 95
        4
302
GRIDFORMAT
  1
GRIDFORMAT_BEGIN
 90
        0
 91
        1
 62
     0
 92
       -2
340
14
 93
        0
 40
0.045
309
GRIDFORMAT_END
 95
        8
302
GRIDFORMAT
  1
GRIDFORMAT_BEGIN
 90
        0
 91
        1
 62
     0
 92
       -2
340
14
 93
        0
 40
0.045
309
GRIDFORMAT_END
 95
       16
302
GRIDFORMAT
  1
GRIDFORMAT_BEGIN
 90
        0
 91
        1
 62
     0
 92
       -2
340
14
 93
        0
 40
0.045
309
GRIDFORMAT_END
 95
       32
302
GRIDFORMAT
  1
GRIDFORMAT_BEGIN
 90
        0
 91
        1
 62
     0
 92
       -2
340
14
 93
        0
 40
0.045
309
GRIDFORMAT_END
309
TABLEFORMAT_END
  1
CELLSTYLE_BEGIN
 90
        3
 91
        2
300
_DATA
309
CELLSTYLE_END
  0
ENDSEC
  0
EOF
