  0
SECTION
  2
HEADER
  9
$ACADVER
  1
AC1024
  9
$ACADMAINTVER
 70
     6
  9
$DWGCODEPAGE
  3
ANSI_1252
  9
$INSBASE
 10
0.0
 20
0.0
 30
0.0
  9
$EXTMIN
 10
0.0
 20
0.0
 30
0.0
  9
$EXTMAX
 10
841.0
 20
594.0
 30
0.0
  9
$LIMMIN
 10
0.0
 20
0.0
  9
$LIMMAX
 10
841.0
 20
594.0
  9
$ORTHOMODE
 70
     0
  9
$REGENMODE
 70
     1
  9
$FILLMODE
 70
     1
  9
$QTEXTMODE
 70
     0
  9
$MIRRTEXT
 70
     1
  9
$LTSCALE
 40
46.255
  9
$ATTMODE
 70
     1
  9
$TEXTSIZE
 40
0.2
  9
$TRACEWID
 40
0.05
  9
$TEXTSTYLE
  7
STANDARD
  9
$CLAYER
  8
0
  9
$CELTYPE
  6
BYLAYER
  9
$CECOLOR
 62
   256
  9
$CELTSCALE
 40
1.0
  9
$DISPSILH
 70
     0
  9
$DIMSCALE
 40
1.0
  9
$DIMASZ
 40
2.5
  9
$DIMEXO
 40
0.75
  9
$DIMDLI
 40
31.958
  9
$DIMRND
 40
0.0
  9
$DIMDLE
 40
0.0
  9
$DIMEXE
 40
0.75
  9
$DIMTP
 40
0.01
  9
$DIMTM
 40
0.01
  9
$DIMTXT
 40
3.0
  9
$DIMCEN
 40
7.569
  9
$DIMTSZ
 40
0.0
  9
$DIMTOL
 70
     1
  9
$DIMLIM
 70
     0
  9
$DIMTIH
 70
     1
  9
$DIMTOH
 70
     1
  9
$DIMSE1
 70
     0
  9
$DIMSE2
 70
     0
  9
$DIMTAD
 70
     0
  9
$DIMZIN
 70
     0
  9
$DIMBLK
  1
CLOSED
  9
$DIMASO
 70
     1
  9
$DIMSHO
 70
     1
  9
$DIMPOST
  1

  9
$DIMAPOST
  1

  9
$DIMALT
 70
     0
  9
$DIMALTD
 70
     2
  9
$DIMALTF
 40
25.4
  9
$DIMLFAC
 40
1.0
  9
$DIMTOFL
 70
     0
  9
$DIMTVP
 40
0.0
  9
$DIMTIX
 70
     0
  9
$DIMSOXD
 70
     0
  9
$DIMSAH
 70
     0
  9
$DIMBLK1
  1

  9
$DIMBLK2
  1

  9
$DIMSTYLE
  2
STANDARD
  9
$DIMCLRD
 70
     0
  9
$DIMCLRE
 70
     0
  9
$DIMCLRT
 70
     0
  9
$DIMTFAC
 40
1.0
  9
$DIMGAP
 40
0.625
  9
$DIMJUST
 70
     0
  9
$DIMSD1
 70
     0
  9
$DIMSD2
 70
     0
  9
$DIMTOLJ
 70
     1
  9
$DIMTZIN
 70
     0
  9
$DIMALTZ
 70
     0
  9
$DIMALTTZ
 70
     0
  9
$DIMUPT
 70
     0
  9
$DIMDEC
 70
     4
  9
$DIMTDEC
 70
     4
  9
$DIMALTU
 70
     2
  9
$DIMALTTD
 70
     2
  9
$DIMTXSTY
  7
STANDARD
  9
$DIMAUNIT
 70
     0
  9
$DIMADEC
 70
     0
  9
$DIMALTRND
 40
0.0
  9
$DIMAZIN
 70
     0
  9
$DIMDSEP
 70
    44
  9
$DIMATFIT
 70
     3
  9
$DIMFRAC
 70
     0
  9
$DIMLDRBLK
  1

  9
$DIMLUNIT
 70
     2
  9
$DIMLWD
 70
    -2
  9
$DIMLWE
 70
    -2
  9
$DIMTMOVE
 70
     0
  9
$DIMFXL
 40
1.0
  9
$DIMFXLON
 70
     0
  9
$DIMJOGANG
 40
0.785398
  9
$DIMTFILL
 70
     0
  9
$DIMTFILLCLR
 70
     0
  9
$DIMARCSYM
 70
     0
  9
$DIMLTYPE
  6

  9
$DIMLTEX1
  6

  9
$DIMLTEX2
  6

  9
$DIMTXTDIRECTION
 70
     0
  9
$LUNITS
 70
     2
  9
$LUPREC
 70
     4
  9
$SKETCHINC
 40
0.1
  9
$FILLETRAD
 40
0.5
  9
$AUNITS
 70
     0
  9
$AUPREC
 70
     0
  9
$MENU
  1
.
  9
$ELEVATION
 40
0.0
  9
$PELEVATION
 40
0.0
  9
$THICKNESS
 40
0.0
  9
$LIMCHECK
 70
     0
  9
$CHAMFERA
 40
0.0
  9
$CHAMFERB
 40
0.0
  9
$CHAMFERC
 40
0.0
  9
$CHAMFERD
 40
0.0
  9
$SKPOLY
 70
     0
  9
$TDCREATE
 40
2447893.083333333
  9
$TDUCREATE
 40
0.0
  9
$TDUPDATE
 40
2459051.447390567
  9
$TDUUPDATE
 40
2459051.364057234
  9
$TDINDWG
 40
0.0
  9
$TDUSRTIMER
 40
0.0
  9
$USRTIMER
 70
     1
  9
$ANGBASE
 50
0.0
  9
$ANGDIR
 70
     0
  9
$PDMODE
 70
     3
  9
$PDSIZE
 40
0.3125
  9
$PLINEWID
 40
0.0
  9
$SPLFRAME
 70
     0
  9
$SPLINETYPE
 70
     6
  9
$SPLINESEGS
 70
     8
  9
$HANDSEED
  5
51F
  9
$SURFTAB1
 70
     6
  9
$SURFTAB2
 70
     6
  9
$SURFTYPE
 70
     6
  9
$SURFU
 70
     6
  9
$SURFV
 70
     6
  9
$UCSBASE
  2

  9
$UCSNAME
  2

  9
$UCSORG
 10
0.0
 20
0.0
 30
0.0
  9
$UCSXDIR
 10
1.0
 20
0.0
 30
0.0
  9
$UCSYDIR
 10
0.0
 20
1.0
 30
0.0
  9
$UCSORTHOREF
  2

  9
$UCSORTHOVIEW
 70
     0
  9
$UCSORGTOP
 10
0.0
 20
0.0
 30
0.0
  9
$UCSORGBOTTOM
 10
0.0
 20
0.0
 30
0.0
  9
$UCSORGLEFT
 10
0.0
 20
0.0
 30
0.0
  9
$UCSORGRIGHT
 10
0.0
 20
0.0
 30
0.0
  9
$UCSORGFRONT
 10
0.0
 20
0.0
 30
0.0
  9
$UCSORGBACK
 10
0.0
 20
0.0
 30
0.0
  9
$PUCSBASE
  2

  9
$PUCSNAME
  2

  9
$PUCSORG
 10
0.0
 20
0.0
 30
0.0
  9
$PUCSXDIR
 10
1.0
 20
0.0
 30
0.0
  9
$PUCSYDIR
 10
0.0
 20
1.0
 30
0.0
  9
$PUCSORTHOREF
  2

  9
$PUCSORTHOVIEW
 70
     0
  9
$PUCSORGTOP
 10
0.0
 20
0.0
 30
0.0
  9
$PUCSORGBOTTOM
 10
0.0
 20
0.0
 30
0.0
  9
$PUCSORGLEFT
 10
0.0
 20
0.0
 30
0.0
  9
$PUCSORGRIGHT
 10
0.0
 20
0.0
 30
0.0
  9
$PUCSORGFRONT
 10
0.0
 20
0.0
 30
0.0
  9
$PUCSORGBACK
 10
0.0
 20
0.0
 30
0.0
  9
$USERI1
 70
     0
  9
$USERI2
 70
     0
  9
$USERI3
 70
     0
  9
$USERI4
 70
     0
  9
$USERI5
 70
     0
  9
$USERR1
 40
0.0
  9
$USERR2
 40
0.0
  9
$USERR3
 40
0.0
  9
$USERR4
 40
0.0
  9
$USERR5
 40
0.0
  9
$WORLDVIEW
 70
     1
  9
$SHADEDGE
 70
     3
  9
$SHADEDIF
 70
    70
  9
$TILEMODE
 70
     1
  9
$MAXACTVP
 70
    64
  9
$PINSBASE
 10
0.0
 20
0.0
 30
0.0
  9
$PLIMCHECK
 70
     0
  9
$PEXTMIN
 10
1.000000E+20
 20
1.000000E+20
 30
1.000000E+20
  9
$PEXTMAX
 10
-1.000000E+20
 20
-1.000000E+20
 30
-1.000000E+20
  9
$PLIMMIN
 10
0.0
 20
0.0
  9
$PLIMMAX
 10
12.0
 20
9.0
  9
$UNITMODE
 70
     0
  9
$VISRETAIN
 70
     1
  9
$PLINEGEN
 70
     0
  9
$PSLTSCALE
 70
     0
  9
$TREEDEPTH
 70
  3020
  9
$CMLSTYLE
  2

  9
$CMLJUST
 70
     0
  9
$CMLSCALE
 40
1.0
  9
$PROXYGRAPHICS
 70
     1
  9
$MEASUREMENT
 70
     1
  9
$CELWEIGHT
370
    -1
  9
$ENDCAPS
280
     0
  9
$JOINSTYLE
280
     0
  9
$LWDISPLAY
290
     0
  9
$INSUNITS
 70
     4
  9
$HYPERLINKBASE
  1

  9
$STYLESHEET
  1

  9
$XEDIT
290
     1
  9
$CEPSNTYPE
380
     0
  9
$PSTYLEMODE
290
     1
  9
$FINGERPRINTGUID
  2
{BF2F1D5A-95B7-434D-9246-235AC7BB1700}
  9
$VERSIONGUID
  2
{FAEB1C32-E019-11D5-929B-00C0DF256EC4}
  9
$EXTNAMES
290
     1
  9
$PSVPSCALE
 40
0.0
  9
$OLESTARTUP
290
     0
  9
$SORTENTS
280
   127
  9
$INDEXCTL
280
     0
  9
$HIDETEXT
280
     1
  9
$XCLIPFRAME
280
     2
  9
$HALOGAP
280
     0
  9
$OBSCOLOR
 70
   257
  9
$OBSLTYPE
280
     0
  9
$INTERSECTIONDISPLAY
280
     0
  9
$INTERSECTIONCOLOR
 70
   257
  9
$DIMASSOC
280
     2
  9
$PROJECTNAME
  1

  9
$CAMERADISPLAY
290
     0
  9
$LENSLENGTH
 40
50.0
  9
$CAMERAHEIGHT
 40
0.0
  9
$STEPSPERSEC
 40
2.0
  9
$STEPSIZE
 40
6.0
  9
$3DDWFPREC
 40
2.0
  9
$PSOLWIDTH
 40
0.25
  9
$PSOLHEIGHT
 40
4.0
  9
$LOFTANG1
 40
1.570796
  9
$LOFTANG2
 40
1.570796
  9
$LOFTMAG1
 40
0.0
  9
$LOFTMAG2
 40
0.0
  9
$LOFTPARAM
 70
     7
  9
$LOFTNORMALS
280
     1
  9
$LATITUDE
 40
37.795
  9
$LONGITUDE
 40
-122.394
  9
$NORTHDIRECTION
 40
0.0
  9
$TIMEZONE
 70
 -8000
  9
$LIGHTGLYPHDISPLAY
280
     1
  9
$TILEMODELIGHTSYNCH
280
     1
  9
$SOLIDHIST
280
     1
  9
$SHOWHIST
280
     1
  9
$DWFFRAME
280
     2
  9
$DGNFRAME
280
     2
  9
$REALWORLDSCALE
290
     1
  9
$INTERFERECOLOR
 62
   256
  9
$CSHADOW
280
     0
  9
$SHADOWPLANELOCATION
 40
0.0
  0
ENDSEC
  0
SECTION
  2
CLASSES
  0
CLASS
  1
ACDBDICTIONARYWDFLT
  2
AcDbDictionaryWithDefault
  3
ObjectDBX Classes
 90
        0
 91
        6
280
     0
281
     0
  0
CLASS
  1
ACDBPLACEHOLDER
  2
AcDbPlaceHolder
  3
ObjectDBX Classes
 90
        0
 91
        1
280
     0
281
     0
  0
CLASS
  1
LAYOUT
  2
AcDbLayout
  3
ObjectDBX Classes
 90
        0
 91
        1
280
     0
281
     0
  0
CLASS
  1
TABLESTYLE
  2
AcDbTableStyle
  3
ObjectDBX Classes
 90
     4095
 91
        5
280
     0
281
     0
  0
CLASS
  1
ACAD_TABLE
  2
AcDbTable
  3
ObjectDBX Classes
 90
     1025
 91
        5
280
     0
281
     1
  0
CLASS
  1
SCALE
  2
AcDbScale
  3
ObjectDBX Classes
 90
     1153
 91
        5
280
     0
281
     0
  0
CLASS
  1
TABLEGEOMETRY
  2
AcDbTableGeometry
  3
ObjectDBX Classes
 90
     1152
 91
        4
280
     0
281
     0
  0
CLASS
  1
VISUALSTYLE
  2
AcDbVisualStyle
  3
ObjectDBX Classes
 90
     4095
 91
        5
280
     0
281
     0
  0
CLASS
  1
MATERIAL
  2
AcDbMaterial
  3
ObjectDBX Classes
 90
     1153
 91
        5
280
     0
281
     0
  0
CLASS
  1
SUN
  2
AcDbSun
  3
SCENEOE
 90
     1153
 91
        5
280
     0
281
     0
  0
CLASS
  1
CSACDOCUMENTOPTIONS
  2
CDocDataContainer
  3
"DERU003_CSAPP"
 90
     4095
 91
        4
280
     0
281
     0
  0
CLASS
  1
TABLECONTENT
  2
AcDbTableContent
  3
ObjectDBX Classes
 90
     1152
 91
        4
280
     0
281
     0
  0
CLASS
  1
DICTIONARYVAR
  2
AcDbDictionaryVar
  3
ObjectDBX Classes
 90
        0
 91
        4
280
     0
281
     0
  0
CLASS
  1
CELLSTYLEMAP
  2
AcDbCellStyleMap
  3
ObjectDBX Classes
 90
     1152
 91
        4
280
     0
281
     0
  0
ENDSEC
  0
SECTION
  2
TABLES
  0
TABLE
  2
VPORT
  5
8
330
0
100
AcDbSymbolTable
 70
     1
  0
VPORT
  5
1F4
330
8
100
AcDbSymbolTableRecord
100
AcDbViewportTableRecord
  2
*ACTIVE
 70
     0
 10
0.0
 20
0.0
 11
1.0
 21
1.0
 12
420.5
 22
297.0
 13
0.0
 23
0.0
 14
1.0
 24
1.0
 15
0.0
 25
0.0
 16
0.0
 26
0.0
 36
1.0
 17
0.0
 27
0.0
 37
0.0
 40
594.0
 41
2.107285
 42
50.0
 43
0.0
 44
0.0
 50
0.0
 51
0.0
 71
    16
 72
   100
 73
     1
 74
     1
 75
     0
 76
     0
 77
     0
 78
     0
281
     0
 65
     1
110
0.0
120
0.0
130
0.0
111
1.0
121
0.0
131
0.0
112
0.0
122
1.0
132
0.0
 79
     0
146
0.0
 60
     3
 61
     5
292
     1
282
     1
141
0.0
142
0.0
 63
   256
361
4DA
  0
ENDTAB
  0
TABLE
  2
LTYPE
  5
5
330
0
100
AcDbSymbolTable
 70
     6
  0
LTYPE
  5
14
330
5
100
AcDbSymbolTableRecord
100
AcDbLinetypeTableRecord
  2
BYBLOCK
 70
     0
  3

 72
    65
 73
     0
 40
0.0
  0
LTYPE
  5
15
330
5
100
AcDbSymbolTableRecord
100
AcDbLinetypeTableRecord
  2
BYLAYER
 70
     0
  3

 72
    65
 73
     0
 40
0.0
  0
LTYPE
  5
16
330
5
100
AcDbSymbolTableRecord
100
AcDbLinetypeTableRecord
  2
CONTINUOUS
 70
     0
  3
Solid line
 72
    65
 73
     0
 40
0.0
  0
LTYPE
  5
1F5
330
5
100
AcDbSymbolTableRecord
100
AcDbLinetypeTableRecord
  2
CENTER
 70
     0
  3
____ _ ____ _ ____ _ ____ _ ____ _ ____ _ ____
 72
    65
 73
     4
 40
0.6
 49
0.375
 74
     0
 49
-0.075
 74
     0
 49
0.075
 74
     0
 49
-0.075
 74
     0
  0
LTYPE
  5
1F6
330
5
100
AcDbSymbolTableRecord
100
AcDbLinetypeTableRecord
  2
HIDDEN
 70
     0
  3
- - - - - - - - - - - - - - - - - - - -
 72
    65
 73
     2
 40
0.2
 49
0.1
 74
     0
 49
-0.1
 74
     0
  0
LTYPE
  5
1F7
330
5
100
AcDbSymbolTableRecord
100
AcDbLinetypeTableRecord
  2
PHANTOM
 70
     0
  3
_____ _ _ _____ _ _ _____ _ _ _____
 72
    65
 73
     6
 40
0.8
 49
0.45
 74
     0
 49
-0.05
 74
     0
 49
0.1
 74
     0
 49
-0.05
 74
     0
 49
0.1
 74
     0
 49
-0.05
 74
     0
  0
LTYPE
  5
1F8
330
5
100
AcDbSymbolTableRecord
100
AcDbLinetypeTableRecord
  2
DOT
 70
     0
  3
. . . . . . . . . . . . . . . . . . . .
 72
    65
 73
     2
 40
0.2
 49
0.1
 74
     0
 49
-0.1
 74
     0
  0
LTYPE
  5
1F9
330
5
100
AcDbSymbolTableRecord
100
AcDbLinetypeTableRecord
  2
DASHED
 70
     0
  3
- - - - - - - - - - - - - - - - - - - -
 72
    65
 73
     2
 40
0.2
 49
0.1
 74
     0
 49
-0.1
 74
     0
  0
ENDTAB
  0
TABLE
  2
LAYER
  5
2
330
0
100
AcDbSymbolTable
 70
    12
  0
LAYER
  5
10
330
2
100
AcDbSymbolTableRecord
100
AcDbLayerTableRecord
  2
0
 70
     0
 62
     7
  6
CONTINUOUS
370
    -3
390
F
347
4D4
  0
LAYER
  5
1FA
330
2
100
AcDbSymbolTableRecord
100
AcDbLayerTableRecord
  2
DEFAULT_1
 70
     0
 62
     7
  6
CENTER
370
    -3
390
F
347
4D4
  0
LAYER
  5
1FB
330
2
100
AcDbSymbolTableRecord
100
AcDbLayerTableRecord
  2
DEFAULT_2
 70
     0
 62
     8
  6
HIDDEN
370
    -3
390
F
347
4D4
  0
LAYER
  5
1FC
330
2
100
AcDbSymbolTableRecord
100
AcDbLayerTableRecord
  2
DEFAULT_3
 70
     0
 62
     7
  6
PHANTOM
370
    -3
390
F
347
4D4
  0
LAYER
  5
1FD
330
2
100
AcDbSymbolTableRecord
100
AcDbLayerTableRecord
  2
1_ALL_PLANES
 70
     0
 62
     7
  6
CONTINUOUS
370
    -3
390
F
347
4D4
  0
LAYER
  5
1FE
330
2
100
AcDbSymbolTableRecord
100
AcDbLayerTableRecord
  2
2_ALL_CSYS
 70
     0
 62
     7
  6
CONTINUOUS
370
    -3
390
F
347
4D4
  0
LAYER
  5
1FF
330
2
100
AcDbSymbolTableRecord
100
AcDbLayerTableRecord
  2
3_ALL_AXES
 70
     0
 62
     7
  6
CONTINUOUS
370
    -3
390
F
347
4D4
  0
LAYER
  5
200
330
2
100
AcDbSymbolTableRecord
100
AcDbLayerTableRecord
  2
4_ALL_POINTS
 70
     0
 62
     7
  6
CONTINUOUS
370
    -3
390
F
347
4D4
  0
LAYER
  5
201
330
2
100
AcDbSymbolTableRecord
100
AcDbLayerTableRecord
  2
5_ALL_CURVES
 70
     0
 62
     7
  6
CONTINUOUS
370
    -3
390
F
347
4D4
  0
LAYER
  5
202
330
2
100
AcDbSymbolTableRecord
100
AcDbLayerTableRecord
  2
6_ALL_SURFS
 70
     0
 62
     7
  6
CONTINUOUS
370
    -3
390
F
347
4D4
  0
LAYER
  5
203
330
2
100
AcDbSymbolTableRecord
100
AcDbLayerTableRecord
  2
7_ALL_FEATURES
 70
     0
 62
     7
  6
CONTINUOUS
370
    -3
390
F
347
4D4
  0
LAYER
  5
204
330
2
100
AcDbSymbolTableRecord
100
AcDbLayerTableRecord
  2
9_SOLID
 70
     0
 62
     7
  6
CONTINUOUS
370
    -3
390
F
347
4D4
  0
ENDTAB
  0
TABLE
  2
STYLE
  5
3
330
0
100
AcDbSymbolTable
 70
     5
  0
STYLE
  5
11
330
3
100
AcDbSymbolTableRecord
100
AcDbTextStyleTableRecord
  2
STANDARD
 70
     0
 40
0.0
 41
1.0
 50
0.0
 71
     0
 42
0.2
  3
arial.ttf
  4

  0
STYLE
  5
205
330
3
100
AcDbSymbolTableRecord
100
AcDbTextStyleTableRecord
  2
TEXTSTYLE_1
 70
     0
 40
0.0
 41
0.8
 50
0.0
 71
     0
 42
0.2
  3
gdt
  4

  0
STYLE
  5
206
330
3
100
AcDbSymbolTableRecord
100
AcDbTextStyleTableRecord
  2
TEXTSTYLE_2
 70
     0
 40
0.0
 41
0.9
 50
0.0
 71
     0
 42
0.2
  3
txt
  4

  0
STYLE
  5
207
330
3
100
AcDbSymbolTableRecord
100
AcDbTextStyleTableRecord
  2
TEXTSTYLE_3
 70
     0
 40
0.0
 41
0.9
 50
0.0
 71
     0
 42
0.2
  3
txt
  4

  0
STYLE
  5
208
330
3
100
AcDbSymbolTableRecord
100
AcDbTextStyleTableRecord
  2
TEXTSTYLE_4
 70
     0
 40
0.0
 41
0.85
 50
0.0
 71
     0
 42
0.2
  3
gdt
  4

  0
ENDTAB
  0
TABLE
  2
VIEW
  5
6
330
0
100
AcDbSymbolTable
 70
     0
  0
ENDTAB
  0
TABLE
  2
UCS
  5
7
330
0
100
AcDbSymbolTable
 70
     0
  0
ENDTAB
  0
TABLE
  2
APPID
  5
9
330
0
100
AcDbSymbolTable
 70
     6
  0
APPID
  5
209
330
9
100
AcDbSymbolTableRecord
100
AcDbRegAppTableRecord
  2
ACAD
 70
     0
  0
APPID
  5
4D5
330
9
100
AcDbSymbolTableRecord
100
AcDbRegAppTableRecord
  2
MCS_DIM1
 70
     0
  0
APPID
  5
4D6
330
9
100
AcDbSymbolTableRecord
100
AcDbRegAppTableRecord
  2
McsXdata5
 70
     0
  0
APPID
  5
4D9
330
9
100
AcDbSymbolTableRecord
100
AcDbRegAppTableRecord
  2
MCS_DOCUMENT_ID
 70
     0
  0
APPID
  5
4DF
330
9
100
AcDbSymbolTableRecord
100
AcDbRegAppTableRecord
  2
MCS_PARAMS_DATA
 70
     0
  0
APPID
  5
4E1
330
9
100
AcDbSymbolTableRecord
100
AcDbRegAppTableRecord
  2
MC_VERSION_DATA
 70
     0
  0
ENDTAB
  0
TABLE
  2
DIMSTYLE
  5
A
330
0
100
AcDbSymbolTable
 70
     8
100
AcDbDimStyleTable
  0
DIMSTYLE
105
21B
330
A
100
AcDbSymbolTableRecord
100
AcDbDimStyleTableRecord
  2
STANDARD
 70
     0
 41
2.5
 42
0.75
 44
0.75
 47
0.01
 48
0.01
 71
     1
 73
     0
 74
     0
 77
     1
 78
     8
 79
     2
140
3.0
147
0.625
171
     1
178
     0
179
     2
271
     2
272
     2
278
    44
284
     8
340
11
341
20C
342
20C
343
20C
344
20C
  0
DIMSTYLE
105
21C
330
A
100
AcDbSymbolTableRecord
100
AcDbDimStyleTableRecord
  2
DIMSTYLE_1
 70
     0
 41
2.5
 42
0.75
 44
0.75
 47
0.1
 48
0.1
 73
     0
 74
     0
 77
     1
 78
     8
 79
     2
140
5.0
147
1.25
171
     1
178
     0
179
     2
271
     2
272
     2
278
    44
284
     8
340
11
341
20C
342
20C
343
20C
344
20C
  0
DIMSTYLE
105
21D
330
A
100
AcDbSymbolTableRecord
100
AcDbDimStyleTableRecord
  2
DIMSTYLE_2
 70
     0
  3
<>
 41
2.5
 42
0.75
 44
0.75
 47
0.5
 48
0.5
 73
     0
 74
     0
 77
     1
 78
     8
 79
     2
140
3.0
147
0.625
171
     1
172
     1
178
     0
179
     2
271
     2
272
     2
278
    44
284
     8
288
     1
289
     2
340
11
341
20C
342
20C
343
20C
344
20C
  0
DIMSTYLE
105
21E
330
A
100
AcDbSymbolTableRecord
100
AcDbDimStyleTableRecord
  2
DIMSTYLE_3
 70
     0
 41
2.5
 42
0.75
 44
0.75
 47
0.5
 48
0.5
 73
     0
 74
     0
 77
     1
 78
     8
 79
     2
140
3.0
147
3.0
171
     1
178
     0
179
     1
271
     1
272
    -1
278
    44
284
     8
340
11
341
20C
342
20C
343
20C
344
20C
  0
DIMSTYLE
105
21F
330
A
100
AcDbSymbolTableRecord
100
AcDbDimStyleTableRecord
  2
DIMSTYLE_4
 70
     0
  3
<>
 41
2.5
 42
0.75
 44
0.75
 47
0.1
 48
0.1
 73
     0
 74
     0
 77
     1
 78
     8
 79
     2
140
3.0
147
0.625
171
     1
172
     1
178
     0
179
     2
271
     2
272
     2
278
    44
284
     8
288
     1
289
     2
340
11
341
20C
342
20C
343
20C
344
20C
  0
DIMSTYLE
105
220
330
A
100
AcDbSymbolTableRecord
100
AcDbDimStyleTableRecord
  2
DIMSTYLE_5
 70
     0
  3
<>
 41
2.5
 42
0.75
 44
0.75
 47
0.2
 48
0.2
 73
     0
 74
     0
 77
     1
 78
     8
 79
     2
140
3.0
147
0.625
171
     1
172
     1
178
     0
271
     0
272
     0
278
    44
284
     8
288
     1
289
     2
340
11
341
20C
342
20C
343
20C
344
20C
  0
DIMSTYLE
105
221
330
A
100
AcDbSymbolTableRecord
100
AcDbDimStyleTableRecord
  2
DIMSTYLE_6
 70
     0
 41
2.5
 42
0.75
 44
0.75
 47
0.2
 48
0.2
 73
     0
 74
     0
 77
     1
 78
     8
 79
     2
140
3.0
147
0.75
171
     1
178
     0
179
     2
271
     2
272
     2
278
    44
284
     8
340
11
341
20C
342
20C
343
20C
344
20C
  0
DIMSTYLE
105
222
330
A
100
AcDbSymbolTableRecord
100
AcDbDimStyleTableRecord
  2
DIMSTYLE_7
 70
     0
 41
2.5
 42
0.75
 44
0.75
 47
0.1
 48
0.1
 73
     0
 74
     0
 77
     1
 78
     8
 79
     2
140
3.0
147
0.75
171
     1
178
     0
179
     2
271
     2
272
     2
278
    44
284
     8
340
11
341
20C
342
20C
343
20C
344
20C
  0
ENDTAB
  0
TABLE
  2
BLOCK_RECORD
  5
1
330
0
100
AcDbSymbolTable
 70
    15
  0
BLOCK_RECORD
  5
20A
330
1
100
AcDbSymbolTableRecord
100
AcDbBlockTableRecord
  2
*Model_Space
340
48F
 70
     0
280
     1
281
     0
  0
BLOCK_RECORD
  5
20B
330
1
100
AcDbSymbolTableRecord
100
AcDbBlockTableRecord
  2
*Paper_Space
340
490
 70
     0
280
     1
281
     0
  0
BLOCK_RECORD
  5
20C
330
1
100
AcDbSymbolTableRecord
100
AcDbBlockTableRecord
  2
_CLOSED
340
0
102
{BLKREFS
331
26D
331
26E
331
275
331
276
331
27D
331
27E
331
285
331
286
331
2AF
331
2B0
331
2B7
331
2B8
331
2C0
331
2C1
331
2C9
331
2CA
102
}
 70
     0
280
     1
281
     0
  0
BLOCK_RECORD
  5
20D
330
1
100
AcDbSymbolTableRecord
100
AcDbBlockTableRecord
  2
*D1
340
0
 70
     0
280
     1
281
     0
  0
BLOCK_RECORD
  5
20E
330
1
100
AcDbSymbolTableRecord
100
AcDbBlockTableRecord
  2
*D2
340
0
 70
     0
280
     1
281
     0
  0
BLOCK_RECORD
  5
20F
330
1
100
AcDbSymbolTableRecord
100
AcDbBlockTableRecord
  2
*D3
340
0
 70
     0
280
     1
281
     0
  0
BLOCK_RECORD
  5
210
330
1
100
AcDbSymbolTableRecord
100
AcDbBlockTableRecord
  2
*D4
340
0
 70
     0
280
     1
281
     0
  0
BLOCK_RECORD
  5
211
330
1
100
AcDbSymbolTableRecord
100
AcDbBlockTableRecord
  2
*D5
340
0
 70
     0
280
     1
281
     0
  0
BLOCK_RECORD
  5
212
330
1
100
AcDbSymbolTableRecord
100
AcDbBlockTableRecord
  2
*D6
340
0
 70
     0
280
     1
281
     0
  0
BLOCK_RECORD
  5
213
330
1
100
AcDbSymbolTableRecord
100
AcDbBlockTableRecord
  2
*D7
340
0
 70
     0
280
     1
281
     0
  0
BLOCK_RECORD
  5
214
330
1
100
AcDbSymbolTableRecord
100
AcDbBlockTableRecord
  2
*D8
340
0
 70
     0
280
     1
281
     0
  0
BLOCK_RECORD
  5
215
330
1
100
AcDbSymbolTableRecord
100
AcDbBlockTableRecord
  2
*D9
340
0
 70
     0
280
     1
281
     0
  0
BLOCK_RECORD
  5
216
330
1
100
AcDbSymbolTableRecord
100
AcDbBlockTableRecord
  2
*D10
340
0
 70
     0
280
     1
281
     0
  0
BLOCK_RECORD
  5
217
330
1
100
AcDbSymbolTableRecord
100
AcDbBlockTableRecord
  2
*D11
340
0
 70
     0
280
     1
281
     0
  0
BLOCK_RECORD
  5
218
330
1
100
AcDbSymbolTableRecord
100
AcDbBlockTableRecord
  2
*D12
340
0
 70
     0
280
     1
281
     0
  0
BLOCK_RECORD
  5
219
330
1
100
AcDbSymbolTableRecord
100
AcDbBlockTableRecord
  2
LOGO2_BL0
340
0
102
{BLKREFS
331
489
102
}
 70
     0
280
     1
281
     0
  0
BLOCK_RECORD
  5
21A
330
1
100
AcDbSymbolTableRecord
100
AcDbBlockTableRecord
  2
*T14
340
0
102
{BLKREFS
331
48A
102
}
 70
     0
280
     1
281
     0
  0
ENDTAB
  0
ENDSEC
  0
SECTION
  2
BLOCKS
  0
BLOCK
  5
20
330
20A
100
AcDbEntity
  8
0
100
AcDbBlockBegin
  2
*Model_Space
 70
     0
 10
0.0
 20
0.0
 30
0.0
  3
*Model_Space
  1
*Model_Space
  0
ENDBLK
  5
21
330
20A
100
AcDbEntity
  8
0
100
AcDbBlockEnd
  0
BLOCK
  5
1C
330
20B
100
AcDbEntity
 67
     1
  8
0
100
AcDbBlockBegin
  2
*Paper_Space
 70
     0
 10
0.0
 20
0.0
 30
0.0
  3
*Paper_Space
  1
*Paper_Space
  0
ENDBLK
  5
1D
330
20B
100
AcDbEntity
 67
     1
  8
0
100
AcDbBlockEnd
  0
BLOCK
  5
25F
330
20C
100
AcDbEntity
  8
0
100
AcDbBlockBegin
  2
_CLOSED
 70
     0
 10
0.0
 20
0.0
 30
0.0
  3
_CLOSED
  1
_CLOSED
  0
LINE
  5
260
330
20C
100
AcDbEntity
  8
0
  6
ByBlock
 62
     0
100
AcDbLine
 10
0.0
 20
0.0
 30
0.0
 11
-1.0
 21
0.2
 31
0.0
  0
LINE
  5
261
330
20C
100
AcDbEntity
  8
0
  6
ByBlock
 62
     0
100
AcDbLine
 10
-1.0
 20
0.2
 30
0.0
 11
-1.0
 21
-0.2
 31
0.0
  0
LINE
  5
262
330
20C
100
AcDbEntity
  8
0
  6
ByBlock
 62
     0
100
AcDbLine
 10
-1.0
 20
-0.2
 30
0.0
 11
0.0
 21
0.0
 31
0.0
  0
LINE
  5
263
330
20C
100
AcDbEntity
  8
0
  6
ByBlock
 62
     0
100
AcDbLine
 10
-1.0
 20
0.0
 30
0.0
 11
0.0
 21
0.0
 31
0.0
  0
ENDBLK
  5
264
330
20C
100
AcDbEntity
  8
0
  6
ByBlock
 62
     0
100
AcDbBlockEnd
  0
BLOCK
  5
265
330
20D
100
AcDbEntity
  8
0
100
AcDbBlockBegin
  2
*D1
 70
     1
 10
0.0
 20
0.0
 30
0.0
  3
*D1
  1
*D1
  0
MTEXT
  5
266
330
20D
100
AcDbEntity
  8
0
  6
Continuous
 62
     2
100
AcDbMText
 10
622.281283
 20
202.259301
 30
0.0
 40
5.0
 41
141.375465
 46
0.0
 71
     3
 72
     1
  1
3SPESSORE PARETE  (WALL THICKNESS)
 73
     1
 44
0.9
  0
LINE
  5
267
330
20D
100
AcDbEntity
  8
0
  6
Continuous
 62
     2
100
AcDbLine
 10
662.176997
 20
213.610383
 30
0.0
 11
662.176997
 21
195.259301
 31
0.0
  0
LINE
  5
268
330
20D
100
AcDbEntity
  8
0
  6
Continuous
 62
     2
100
AcDbLine
 10
665.176997
 20
213.610383
 30
0.0
 11
665.176997
 21
195.259301
 31
0.0
  0
LINE
  5
269
330
20D
100
AcDbEntity
  8
0
  6
Continuous
 62
     2
100
AcDbLine
 10
662.176997
 20
196.009301
 30
0.0
 11
480.905818
 21
196.009301
 31
0.0
  0
LINE
  5
26A
330
20D
100
AcDbEntity
  8
0
  6
Continuous
 62
     2
100
AcDbLine
 10
480.905818
 20
196.009301
 30
0.0
 11
663.676997
 21
196.009301
 31
0.0
  0
LINE
  5
26B
330
20D
100
AcDbEntity
  8
0
  6
Continuous
 62
     2
100
AcDbLine
 10
665.176997
 20
196.009301
 30
0.0
 11
666.176997
 21
196.009301
 31
0.0
  0
LINE
  5
26C
330
20D
100
AcDbEntity
  8
0
  6
Continuous
 62
     2
100
AcDbLine
 10
666.176997
 20
196.009301
 30
0.0
 11
663.676997
 21
196.009301
 31
0.0
  0
INSERT
  5
26D
330
20D
100
AcDbEntity
  8
0
  6
Continuous
 62
     2
100
AcDbBlockReference
  2
_CLOSED
 10
662.176997
 20
196.009301
 30
0.0
 41
2.5
 42
2.5
 43
2.5
  0
INSERT
  5
26E
330
20D
100
AcDbEntity
  8
0
  6
Continuous
 62
     2
100
AcDbBlockReference
  2
_CLOSED
 10
665.176997
 20
196.009301
 30
0.0
 41
2.5
 42
2.5
 43
2.5
 50
180.0
  0
ENDBLK
  5
26F
330
20D
100
AcDbEntity
  8
0
  6
ByBlock
 62
     0
100
AcDbBlockEnd
  0
BLOCK
  5
270
330
20E
100
AcDbEntity
  8
0
100
AcDbBlockBegin
  2
*D2
 70
     1
 10
0.0
 20
0.0
 30
0.0
  3
*D2
  1
*D2
  0
MTEXT
  5
271
330
20E
100
AcDbEntity
  8
0
  6
Continuous
 62
     2
100
AcDbMText
 10
153.02692
 20
437.916809
 30
0.0
 40
3.0
 41
10.992565
 46
0.0
 71
     3
 72
     1
  1
{\Fgdt;n}\Farial.ttf;220
  7
TEXTSTYLE_4
 11
0.7642804068
 21
-0.6448840669
 31
0.0
 73
     1
 44
0.9
  0
LINE
  5
272
330
20E
100
AcDbEntity
  8
0
  6
Continuous
 62
     2
100
AcDbLine
 10
182.907482
 20
407.79763
 30
0.0
 11
266.978327
 21
336.860383
 31
0.0
  0
LINE
  5
273
330
20E
100
AcDbEntity
  8
0
  6
Continuous
 62
     2
100
AcDbLine
 10
266.978327
 20
336.860383
 30
0.0
 11
142.207203
 21
442.139688
 31
0.0
  0
LINE
  5
274
330
20E
100
AcDbEntity
  8
0
  6
Continuous
 62
     2
100
AcDbLine
 10
351.049171
 20
265.923136
 30
0.0
 11
266.978327
 21
336.860383
 31
0.0
  0
INSERT
  5
275
330
20E
100
AcDbEntity
  8
0
  6
Continuous
 62
     2
100
AcDbBlockReference
  2
_CLOSED
 10
182.907482
 20
407.79763
 30
0.0
 41
2.5
 42
2.5
 43
2.5
 50
139.843016
  0
INSERT
  5
276
330
20E
100
AcDbEntity
  8
0
  6
Continuous
 62
     2
100
AcDbBlockReference
  2
_CLOSED
 10
351.049171
 20
265.923136
 30
0.0
 41
2.5
 42
2.5
 43
2.5
 50
319.843016
  0
ENDBLK
  5
277
330
20E
100
AcDbEntity
  8
0
  6
ByBlock
 62
     0
100
AcDbBlockEnd
  0
BLOCK
  5
278
330
20F
100
AcDbEntity
  8
0
100
AcDbBlockBegin
  2
*D3
 70
     1
 10
0.0
 20
0.0
 30
0.0
  3
*D3
  1
*D3
  0
MTEXT
  5
279
330
20F
100
AcDbEntity
  8
0
  6
Continuous
 62
     2
100
AcDbMText
 10
163.751349
 20
441.563241
 30
0.0
 40
3.0
 41
16.814126
 46
0.0
 71
     3
 72
     1
  1
{\Fgdt;n}\Farial.ttf;250,25
  7
TEXTSTYLE_4
 11
0.7200037158
 21
-0.6939702077
 31
0.0
 73
     1
 44
0.9
  0
LINE
  5
27A
330
20F
100
AcDbEntity
  8
0
  6
Continuous
 62
     2
100
AcDbLine
 10
176.88689
 20
423.694342
 30
0.0
 11
266.978327
 21
336.860383
 31
0.0
  0
LINE
  5
27B
330
20F
100
AcDbEntity
  8
0
  6
Continuous
 62
     2
100
AcDbLine
 10
266.978327
 20
336.860383
 30
0.0
 11
149.042728
 21
450.53173
 31
0.0
  0
LINE
  5
27C
330
20F
100
AcDbEntity
  8
0
  6
Continuous
 62
     2
100
AcDbLine
 10
357.069764
 20
250.026424
 30
0.0
 11
266.978327
 21
336.860383
 31
0.0
  0
INSERT
  5
27D
330
20F
100
AcDbEntity
  8
0
  6
Continuous
 62
     2
100
AcDbBlockReference
  2
_CLOSED
 10
176.88689
 20
423.694342
 30
0.0
 41
2.5
 42
2.5
 43
2.5
 50
136.054787
  0
INSERT
  5
27E
330
20F
100
AcDbEntity
  8
0
  6
Continuous
 62
     2
100
AcDbBlockReference
  2
_CLOSED
 10
357.069764
 20
250.026424
 30
0.0
 41
2.5
 42
2.5
 43
2.5
 50
316.054787
  0
ENDBLK
  5
27F
330
20F
100
AcDbEntity
  8
0
  6
ByBlock
 62
     0
100
AcDbBlockEnd
  0
BLOCK
  5
280
330
210
100
AcDbEntity
  8
0
100
AcDbBlockBegin
  2
*D4
 70
     1
 10
0.0
 20
0.0
 30
0.0
  3
*D4
  1
*D4
  0
MTEXT
  5
281
330
210
100
AcDbEntity
  8
0
  6
Continuous
 62
     2
100
AcDbMText
 10
144.482375
 20
428.464755
 30
0.0
 40
3.0
 41
10.992565
 46
0.0
 71
     3
 72
     1
  1
{\Fgdt;n}\Farial.ttf;200
  7
TEXTSTYLE_4
 11
0.8152805426
 21
-0.5790661765
 31
0.0
 73
     1
 44
0.9
  0
LINE
  5
282
330
210
100
AcDbEntity
  8
0
  6
Continuous
 62
     2
100
AcDbLine
 10
185.450272
 20
394.767001
 30
0.0
 11
266.978327
 21
336.860383
 31
0.0
  0
LINE
  5
283
330
210
100
AcDbEntity
  8
0
  6
Continuous
 62
     2
100
AcDbLine
 10
266.978327
 20
336.860383
 30
0.0
 11
133.348853
 21
431.772876
 31
0.0
  0
LINE
  5
284
330
210
100
AcDbEntity
  8
0
  6
Continuous
 62
     2
100
AcDbLine
 10
348.506381
 20
278.953765
 30
0.0
 11
266.978327
 21
336.860383
 31
0.0
  0
INSERT
  5
285
330
210
100
AcDbEntity
  8
0
  6
Continuous
 62
     2
100
AcDbBlockReference
  2
_CLOSED
 10
185.450272
 20
394.767001
 30
0.0
 41
2.5
 42
2.5
 43
2.5
 50
144.615111
  0
INSERT
  5
286
330
210
100
AcDbEntity
  8
0
  6
Continuous
 62
     2
100
AcDbBlockReference
  2
_CLOSED
 10
348.506381
 20
278.953765
 30
0.0
 41
2.5
 42
2.5
 43
2.5
 50
324.615111
  0
ENDBLK
  5
287
330
210
100
AcDbEntity
  8
0
  6
ByBlock
 62
     0
100
AcDbBlockEnd
  0
BLOCK
  5
288
330
211
100
AcDbEntity
  8
0
100
AcDbBlockBegin
  2
*D5
 70
     1
 10
0.0
 20
0.0
 30
0.0
  3
*D5
  1
*D5
  0
MTEXT
  5
289
330
211
100
AcDbEntity
  8
0
  6
Continuous
 62
     2
100
AcDbMText
 10
298.03419
 20
492.988753
 30
0.0
 40
3.0
 41
10.152416
 46
0.0
 71
     2
 72
     1
  1
22,5\Fgdt;{\Fgdt;~}
 11
0.9807852804
 21
-0.195090322
 31
0.0
 73
     1
 44
0.9
  0
LINE
  5
28A
330
211
100
AcDbEntity
  8
0
  6
Continuous
 62
     2
100
AcDbLine
 10
266.978327
 20
483.867091
 30
0.0
 11
266.978327
 21
490.797488
 31
0.0
  0
ARC
  5
28B
330
211
100
AcDbEntity
  8
0
  6
Continuous
 62
     2
100
AcDbCircle
 10
266.978327
 20
336.860383
 30
0.0
 40
153.187105149
100
AcDbArc
 50
67.5
 51
78.75
  0
ARC
  5
28C
330
211
100
AcDbEntity
  8
0
  6
Continuous
 62
     2
100
AcDbCircle
 10
266.978327
 20
336.860383
 30
0.0
 40
153.187105149
100
AcDbArc
 50
78.75
 51
90.0
  0
LWPOLYLINE
  5
28D
330
211
100
AcDbEntity
  8
0
  6
Continuous
 62
     2
100
AcDbPolyline
 90
        4
 70
     0
 43
0.0
 10
323.095499
 20
478.861158
 10
325.600494
 20
478.386814
 10
323.470631
 20
479.78813
 10
323.095499
 20
478.861158
  0
LWPOLYLINE
  5
28E
330
211
100
AcDbEntity
  8
0
  6
Continuous
 62
     2
100
AcDbPolyline
 90
        4
 70
     0
 43
0.0
 10
269.482323
 20
490.527072
 10
266.978327
 20
490.047488
 10
269.474163
 20
489.527105
 10
269.482323
 20
490.527072
  0
ENDBLK
  5
28F
330
211
100
AcDbEntity
  8
0
  6
ByBlock
 62
     0
100
AcDbBlockEnd
  0
BLOCK
  5
290
330
212
100
AcDbEntity
  8
0
100
AcDbBlockBegin
  2
*D6
 70
     1
 10
0.0
 20
0.0
 30
0.0
  3
*D6
  1
*D6
  0
MTEXT
  5
291
330
212
100
AcDbEntity
  8
0
  6
Continuous
 62
     2
100
AcDbMText
 10
235.922463
 20
492.988753
 30
0.0
 40
3.0
 41
10.152416
 46
0.0
 71
     2
 72
     1
  1
22,5\Fgdt;{\Fgdt;~}
 11
0.9807852804
 21
0.195090322
 31
0.0
 73
     1
 44
0.9
  0
LINE
  5
292
330
212
100
AcDbEntity
  8
0
  6
Continuous
 62
     2
100
AcDbLine
 10
266.978327
 20
483.867091
 30
0.0
 11
266.978327
 21
490.797488
 31
0.0
  0
ARC
  5
293
330
212
100
AcDbEntity
  8
0
  6
Continuous
 62
     2
100
AcDbCircle
 10
266.978327
 20
336.860383
 30
0.0
 40
153.187105149
100
AcDbArc
 50
90.0
 51
101.25
  0
ARC
  5
294
330
212
100
AcDbEntity
  8
0
  6
Continuous
 62
     2
100
AcDbCircle
 10
266.978327
 20
336.860383
 30
0.0
 40
153.187105149
100
AcDbArc
 50
101.25
 51
112.5
  0
LWPOLYLINE
  5
295
330
212
100
AcDbEntity
  8
0
  6
Continuous
 62
     2
100
AcDbPolyline
 90
        4
 70
     0
 43
0.0
 10
264.48249
 20
489.527105
 10
266.978327
 20
490.047488
 10
264.47433
 20
490.527072
 10
264.48249
 20
489.527105
  0
LWPOLYLINE
  5
296
330
212
100
AcDbEntity
  8
0
  6
Continuous
 62
     2
100
AcDbPolyline
 90
        4
 70
     0
 43
0.0
 10
210.486022
 20
479.78813
 10
208.356159
 20
478.386814
 10
210.861154
 20
478.861158
 10
210.486022
 20
479.78813
  0
ENDBLK
  5
297
330
212
100
AcDbEntity
  8
0
  6
ByBlock
 62
     0
100
AcDbBlockEnd
  0
BLOCK
  5
298
330
213
100
AcDbEntity
  8
0
100
AcDbBlockBegin
  2
*D7
 70
     1
 10
0.0
 20
0.0
 30
0.0
  3
*D7
  1
*D7
  0
MTEXT
  5
299
330
213
100
AcDbEntity
  8
0
  6
Continuous
 62
     2
100
AcDbMText
 10
372.964403
 20
495.479755
 30
0.0
 40
3.0
 41
10.152416
 46
0.0
 71
     2
 72
     1
  1
67,5\Fgdt;{\Fgdt;~}
 11
0.8314696123
 21
-0.555570233
 31
0.0
 73
     1
 44
0.9
  0
LINE
  5
29A
330
213
100
AcDbEntity
  8
0
  6
Continuous
 62
     2
100
AcDbLine
 10
420.353461
 20
400.390444
 30
0.0
 11
438.376362
 21
407.855774
 31
0.0
  0
LINE
  5
29B
330
213
100
AcDbEntity
  8
0
  6
Continuous
 62
     2
100
AcDbLine
 10
266.978327
 20
483.867091
 30
0.0
 11
266.978327
 21
522.38028
 31
0.0
  0
ARC
  5
29C
330
213
100
AcDbEntity
  8
0
  6
Continuous
 62
     2
100
AcDbCircle
 10
266.978327
 20
336.860383
 30
0.0
 40
184.769896603
100
AcDbArc
 50
22.5
 51
56.25
  0
ARC
  5
29D
330
213
100
AcDbEntity
  8
0
  6
Continuous
 62
     2
100
AcDbCircle
 10
266.978327
 20
336.860383
 30
0.0
 40
184.769896603
100
AcDbArc
 50
56.25
 51
90.0
  0
LWPOLYLINE
  5
29E
330
213
100
AcDbEntity
  8
0
  6
Continuous
 62
     2
100
AcDbPolyline
 90
        4
 70
     0
 43
0.0
 10
436.250505
 20
409.677473
 10
437.683452
 20
407.568761
 10
437.171775
 20
410.066397
 10
436.250505
 20
409.677473
  0
LWPOLYLINE
  5
29F
330
213
100
AcDbEntity
  8
0
  6
Continuous
 62
     2
100
AcDbPolyline
 90
        4
 70
     0
 43
0.0
 10
269.481652
 20
522.113355
 10
266.978327
 20
521.63028
 10
269.474887
 20
521.113378
 10
269.481652
 20
522.113355
  0
ENDBLK
  5
2A0
330
213
100
AcDbEntity
  8
0
  6
ByBlock
 62
     0
100
AcDbBlockEnd
  0
BLOCK
  5
2A1
330
214
100
AcDbEntity
  8
0
100
AcDbBlockBegin
  2
*D8
 70
     1
 10
0.0
 20
0.0
 30
0.0
  3
*D8
  1
*D8
  0
MTEXT
  5
2A2
330
214
100
AcDbEntity
  8
0
  6
Continuous
 62
     2
100
AcDbMText
 10
160.992251
 20
495.479755
 30
0.0
 40
3.0
 41
10.152416
 46
0.0
 71
     2
 72
     1
  1
67,5\Fgdt;{\Fgdt;~}
 11
0.8314696123
 21
0.555570233
 31
0.0
 73
     1
 44
0.9
  0
LINE
  5
2A3
330
214
100
AcDbEntity
  8
0
  6
Continuous
 62
     2
100
AcDbLine
 10
266.978327
 20
483.867091
 30
0.0
 11
266.978327
 21
522.38028
 31
0.0
  0
LINE
  5
2A4
330
214
100
AcDbEntity
  8
0
  6
Continuous
 62
     2
100
AcDbLine
 10
113.603192
 20
400.390444
 30
0.0
 11
95.580291
 21
407.855774
 31
0.0
  0
ARC
  5
2A5
330
214
100
AcDbEntity
  8
0
  6
Continuous
 62
     2
100
AcDbCircle
 10
266.978327
 20
336.860383
 30
0.0
 40
184.769896603
100
AcDbArc
 50
90.0
 51
123.75
  0
ARC
  5
2A6
330
214
100
AcDbEntity
  8
0
  6
Continuous
 62
     2
100
AcDbCircle
 10
266.978327
 20
336.860383
 30
0.0
 40
184.769896603
100
AcDbArc
 50
123.75
 51
157.5
  0
LWPOLYLINE
  5
2A7
330
214
100
AcDbEntity
  8
0
  6
Continuous
 62
     2
100
AcDbPolyline
 90
        4
 70
     0
 43
0.0
 10
264.481766
 20
521.113378
 10
266.978327
 20
521.63028
 10
264.475001
 20
522.113355
 10
264.481766
 20
521.113378
  0
LWPOLYLINE
  5
2A8
330
214
100
AcDbEntity
  8
0
  6
Continuous
 62
     2
100
AcDbPolyline
 90
        4
 70
     0
 43
0.0
 10
96.784878
 20
410.066397
 10
96.273201
 20
407.568761
 10
97.706148
 20
409.677473
 10
96.784878
 20
410.066397
  0
ENDBLK
  5
2A9
330
214
100
AcDbEntity
  8
0
  6
ByBlock
 62
     0
100
AcDbBlockEnd
  0
BLOCK
  5
2AA
330
215
100
AcDbEntity
  8
0
100
AcDbBlockBegin
  2
*D9
 70
     1
 10
0.0
 20
0.0
 30
0.0
  3
*D9
  1
*D9
  0
MTEXT
  5
2AB
330
215
100
AcDbEntity
  8
0
  6
Continuous
 62
     2
100
AcDbMText
 10
74.311691
 20
353.319687
 30
0.0
 40
3.0
 41
29.6171
 46
0.0
 71
     3
 72
     1
  1
{\Fgdt;n}\Farial.ttf;6 (N° 8 FORI)
  7
TEXTSTYLE_4
 11
0.9510620984
 21
0.3089998138
 31
0.0
 73
     1
 44
0.9
  0
LINE
  5
2AC
330
215
100
AcDbEntity
  8
0
  6
Continuous
 62
     2
100
AcDbLine
 10
162.498392
 20
378.028561
 30
0.0
 11
165.351578
 21
378.955561
 31
0.0
  0
LINE
  5
2AD
330
215
100
AcDbEntity
  8
0
  6
Continuous
 62
     2
100
AcDbLine
 10
165.351578
 20
378.955561
 30
0.0
 11
47.302739
 21
340.601525
 31
0.0
  0
LINE
  5
2AE
330
215
100
AcDbEntity
  8
0
  6
Continuous
 62
     2
100
AcDbLine
 10
168.204764
 20
379.88256
 30
0.0
 11
165.351578
 21
378.955561
 31
0.0
  0
INSERT
  5
2AF
330
215
100
AcDbEntity
  8
0
  6
Continuous
 62
     2
100
AcDbBlockReference
  2
_CLOSED
 10
162.498392
 20
378.028561
 30
0.0
 41
2.5
 42
2.5
 43
2.5
 50
197.998965
  0
INSERT
  5
2B0
330
215
100
AcDbEntity
  8
0
  6
Continuous
 62
     2
100
AcDbBlockReference
  2
_CLOSED
 10
168.204764
 20
379.88256
 30
0.0
 41
2.5
 42
2.5
 43
2.5
 50
17.998965
  0
ENDBLK
  5
2B1
330
215
100
AcDbEntity
  8
0
  6
ByBlock
 62
     0
100
AcDbBlockEnd
  0
BLOCK
  5
2B2
330
216
100
AcDbEntity
  8
0
100
AcDbBlockBegin
  2
*D10
 70
     1
 10
0.0
 20
0.0
 30
0.0
  3
*D10
  1
*D10
  0
MTEXT
  5
2B3
330
216
100
AcDbEntity
  8
0
  6
Continuous
 62
     2
100
AcDbMText
 10
77.468237
 20
311.580417
 30
0.0
 40
3.0
 41
29.6171
 46
0.0
 71
     3
 72
     1
  1
{\Fgdt;n}\Farial.ttf;7 (N° 2 FORI)
  7
TEXTSTYLE_4
 11
0.938408559
 21
0.3455276782
 31
0.0
 73
     1
 44
0.9
  0
LINE
  5
2B4
330
216
100
AcDbEntity
  8
0
  6
Continuous
 62
     2
100
AcDbLine
 10
153.717357
 20
335.659674
 30
0.0
 11
156.978327
 21
336.860383
 31
0.0
  0
LINE
  5
2B5
330
216
100
AcDbEntity
  8
0
  6
Continuous
 62
     2
100
AcDbLine
 10
156.978327
 20
336.860383
 30
0.0
 11
50.971025
 21
297.827857
 31
0.0
  0
LINE
  5
2B6
330
216
100
AcDbEntity
  8
0
  6
Continuous
 62
     2
100
AcDbLine
 10
160.239296
 20
338.061092
 30
0.0
 11
156.978327
 21
336.860383
 31
0.0
  0
INSERT
  5
2B7
330
216
100
AcDbEntity
  8
0
  6
Continuous
 62
     2
100
AcDbBlockReference
  2
_CLOSED
 10
153.717357
 20
335.659674
 30
0.0
 41
2.5
 42
2.5
 43
2.5
 50
200.214011
  0
INSERT
  5
2B8
330
216
100
AcDbEntity
  8
0
  6
Continuous
 62
     2
100
AcDbBlockReference
  2
_CLOSED
 10
160.239296
 20
338.061092
 30
0.0
 41
2.5
 42
2.5
 43
2.5
 50
20.214011
  0
ENDBLK
  5
2B9
330
216
100
AcDbEntity
  8
0
  6
ByBlock
 62
     0
100
AcDbBlockEnd
  0
BLOCK
  5
2BA
330
217
100
AcDbEntity
  8
0
100
AcDbBlockBegin
  2
*D11
 70
     1
 10
0.0
 20
0.0
 30
0.0
  3
*D11
  1
*D11
  0
MTEXT
  5
2BB
330
217
100
AcDbEntity
  8
0
  6
Continuous
 62
     2
100
AcDbMText
 10
671.7283
 20
480.128689
 30
0.0
 40
3.0
 41
5.821561
 46
0.0
 71
     2
 72
     1
  1
9,1
 73
     1
 44
0.9
  0
LINE
  5
2BC
330
217
100
AcDbEntity
  8
0
  6
Continuous
 62
     2
100
AcDbLine
 10
667.176997
 20
460.110383
 30
0.0
 11
667.176997
 21
477.128689
 31
0.0
  0
LINE
  5
2BD
330
217
100
AcDbEntity
  8
0
  6
Continuous
 62
     2
100
AcDbLine
 10
676.279603
 20
461.327194
 30
0.0
 11
676.279603
 21
477.128689
 31
0.0
  0
LINE
  5
2BE
330
217
100
AcDbEntity
  8
0
  6
Continuous
 62
     2
100
AcDbLine
 10
667.176997
 20
476.378689
 30
0.0
 11
671.7283
 21
476.378689
 31
0.0
  0
LINE
  5
2BF
330
217
100
AcDbEntity
  8
0
  6
Continuous
 62
     2
100
AcDbLine
 10
676.279603
 20
476.378689
 30
0.0
 11
671.7283
 21
476.378689
 31
0.0
  0
INSERT
  5
2C0
330
217
100
AcDbEntity
  8
0
  6
Continuous
 62
     2
100
AcDbBlockReference
  2
_CLOSED
 10
667.176997
 20
476.378689
 30
0.0
 41
2.5
 42
2.5
 43
2.5
 50
180.0
  0
INSERT
  5
2C1
330
217
100
AcDbEntity
  8
0
  6
Continuous
 62
     2
100
AcDbBlockReference
  2
_CLOSED
 10
676.279603
 20
476.378689
 30
0.0
 41
2.5
 42
2.5
 43
2.5
  0
ENDBLK
  5
2C2
330
217
100
AcDbEntity
  8
0
  6
ByBlock
 62
     0
100
AcDbBlockEnd
  0
BLOCK
  5
2C3
330
218
100
AcDbEntity
  8
0
100
AcDbBlockBegin
  2
*D12
 70
     1
 10
0.0
 20
0.0
 30
0.0
  3
*D12
  1
*D12
  0
MTEXT
  5
2C4
330
218
100
AcDbEntity
  8
0
  6
Continuous
 62
     2
100
AcDbMText
 10
652.383325
 20
226.739362
 30
0.0
 40
3.0
 41
2.330855
 46
0.0
 71
     3
 72
     1
  1
2
 73
     1
 44
0.9
  0
LINE
  5
2C5
330
218
100
AcDbEntity
  8
0
  6
Continuous
 62
     2
100
AcDbLine
 10
662.176997
 20
222.989362
 30
0.0
 11
663.176997
 21
222.989362
 31
0.0
  0
LINE
  5
2C6
330
218
100
AcDbEntity
  8
0
  6
Continuous
 62
     2
100
AcDbLine
 10
663.176997
 20
222.989362
 30
0.0
 11
661.176997
 21
222.989362
 31
0.0
  0
LINE
  5
2C7
330
218
100
AcDbEntity
  8
0
  6
Continuous
 62
     2
100
AcDbLine
 10
660.176997
 20
222.989362
 30
0.0
 11
650.05247
 21
222.989362
 31
0.0
  0
LINE
  5
2C8
330
218
100
AcDbEntity
  8
0
  6
Continuous
 62
     2
100
AcDbLine
 10
650.05247
 20
222.989362
 30
0.0
 11
661.176997
 21
222.989362
 31
0.0
  0
INSERT
  5
2C9
330
218
100
AcDbEntity
  8
0
  6
Continuous
 62
     2
100
AcDbBlockReference
  2
_CLOSED
 10
662.176997
 20
222.989362
 30
0.0
 41
2.5
 42
2.5
 43
2.5
 50
180.0
  0
INSERT
  5
2CA
330
218
100
AcDbEntity
  8
0
  6
Continuous
 62
     2
100
AcDbBlockReference
  2
_CLOSED
 10
660.176997
 20
222.989362
 30
0.0
 41
2.5
 42
2.5
 43
2.5
  0
ENDBLK
  5
2CB
330
218
100
AcDbEntity
  8
0
  6
ByBlock
 62
     0
100
AcDbBlockEnd
  0
BLOCK
  5
223
330
219
100
AcDbEntity
  8
0
100
AcDbBlockBegin
  2
LOGO2_BL0
 70
     0
 10
754.83965
 20
36.500801
 30
0.0
  3
LOGO2_BL0
  1
LOGO2_BL0
  0
LINE
  5
224
330
219
100
AcDbEntity
  8
0
  6
Continuous
 62
     7
100
AcDbLine
 10
746.582576
 20
39.696293
 30
0.0
 11
745.278235
 21
39.696293
 31
0.0
  0
LINE
  5
225
330
219
100
AcDbEntity
  8
0
  6
Continuous
 62
     7
100
AcDbLine
 10
745.278235
 20
39.696293
 30
0.0
 11
745.278235
 21
29.237226
 31
0.0
  0
LINE
  5
226
330
219
100
AcDbEntity
  8
0
  6
Continuous
 62
     7
100
AcDbLine
 10
745.278235
 20
29.237226
 30
0.0
 11
749.759289
 21
29.237226
 31
0.0
  0
LINE
  5
227
330
219
100
AcDbEntity
  8
0
  6
Continuous
 62
     7
100
AcDbLine
 10
749.759289
 20
29.237226
 30
0.0
 11
749.759289
 21
30.430081
 31
0.0
  0
LINE
  5
228
330
219
100
AcDbEntity
  8
0
  6
Continuous
 62
     7
100
AcDbLine
 10
749.759289
 20
30.430081
 30
0.0
 11
746.582576
 21
30.430081
 31
0.0
  0
LINE
  5
229
330
219
100
AcDbEntity
  8
0
  6
Continuous
 62
     7
100
AcDbLine
 10
746.582576
 20
30.430081
 30
0.0
 11
746.582576
 21
39.696293
 31
0.0
  0
LINE
  5
22A
330
219
100
AcDbEntity
  8
0
  6
Continuous
 62
     7
100
AcDbLine
 10
761.518902
 20
39.696293
 30
0.0
 11
760.215084
 21
39.696293
 31
0.0
  0
LINE
  5
22B
330
219
100
AcDbEntity
  8
0
  6
Continuous
 62
     7
100
AcDbLine
 10
760.215084
 20
39.696293
 30
0.0
 11
760.215084
 21
29.237226
 31
0.0
  0
LINE
  5
22C
330
219
100
AcDbEntity
  8
0
  6
Continuous
 62
     7
100
AcDbLine
 10
760.215084
 20
29.237226
 30
0.0
 11
764.69627
 21
29.237226
 31
0.0
  0
LINE
  5
22D
330
219
100
AcDbEntity
  8
0
  6
Continuous
 62
     7
100
AcDbLine
 10
764.69627
 20
29.237226
 30
0.0
 11
764.69627
 21
30.430081
 31
0.0
  0
LINE
  5
22E
330
219
100
AcDbEntity
  8
0
  6
Continuous
 62
     7
100
AcDbLine
 10
764.69627
 20
30.430081
 30
0.0
 11
761.518902
 21
30.430081
 31
0.0
  0
LINE
  5
22F
330
219
100
AcDbEntity
  8
0
  6
Continuous
 62
     7
100
AcDbLine
 10
761.518902
 20
30.430081
 30
0.0
 11
761.518902
 21
39.696293
 31
0.0
  0
LWPOLYLINE
  5
230
330
219
100
AcDbEntity
  8
0
  6
Continuous
 62
     7
100
AcDbPolyline
 90
        2
 70
     0
 43
0.2
 10
743.632629
 20
25.893675
 10
743.632629
 20
24.036612
  0
LWPOLYLINE
  5
231
330
219
100
AcDbEntity
  8
0
  6
Continuous
 62
     7
100
AcDbPolyline
 90
        2
 70
     0
 43
0.2
 10
743.632629
 20
24.036612
 10
744.428346
 20
24.036612
  0
LWPOLYLINE
  5
232
330
219
100
AcDbEntity
  8
0
  6
Continuous
 62
     7
100
AcDbPolyline
 90
        2
 70
     0
 43
0.2
 10
744.428346
 20
24.036612
 10
744.428346
 20
24.248593
  0
LWPOLYLINE
  5
233
330
219
100
AcDbEntity
  8
0
  6
Continuous
 62
     7
100
AcDbPolyline
 90
        2
 70
     0
 43
0.2
 10
744.428346
 20
24.248593
 10
743.864239
 20
24.248593
  0
LWPOLYLINE
  5
234
330
219
100
AcDbEntity
  8
0
  6
Continuous
 62
     7
100
AcDbPolyline
 90
        2
 70
     0
 43
0.2
 10
743.864239
 20
24.248593
 10
743.864239
 20
25.893675
  0
LWPOLYLINE
  5
235
330
219
100
AcDbEntity
  8
0
  6
Continuous
 62
     7
100
AcDbPolyline
 90
        2
 70
     0
 43
0.2
 10
743.864239
 20
25.893675
 10
743.632629
 20
25.893675
  0
SPLINE
  5
236
330
219
100
AcDbEntity
  8
0
  6
Continuous
 62
     7
100
AcDbSpline
 70
     3
 71
     3
 72
    35
 73
    31
 74
     0
 42
0.000000001
 43
0.0000001
 40
0.0
 40
0.0
 40
0.0
 40
0.0
 40
1.0
 40
1.0
 40
1.0
 40
2.0
 40
2.0
 40
2.0
 40
3.0
 40
3.0
 40
3.0
 40
4.0
 40
4.0
 40
4.0
 40
5.0
 40
5.0
 40
5.0
 40
6.0
 40
6.0
 40
6.0
 40
7.0
 40
7.0
 40
7.0
 40
8.0
 40
8.0
 40
8.0
 40
9.0
 40
9.0
 40
9.0
 40
10.0
 40
10.0
 40
10.0
 40
10.0
 10
745.8266387567
 20
25.1891635712
 30
0.0
 10
745.8266387567
 20
25.1891635712
 30
0.0
 10
745.8266387567
 20
24.527048292
 30
0.0
 10
745.8266387567
 20
24.527048292
 30
0.0
 10
745.8266387567
 20
24.2119546967
 30
0.0
 10
745.9745024456
 20
23.9973560687
 30
0.0
 10
746.3145889299
 20
23.9973560687
 30
0.0
 10
746.6541520029
 20
23.9973560687
 30
0.0
 10
746.8022773973
 20
24.2119546967
 30
0.0
 10
746.8022773973
 20
24.527048292
 30
0.0
 10
746.8022773973
 20
24.527048292
 30
0.0
 10
746.8022773973
 20
25.1891635712
 30
0.0
 10
746.8022773973
 20
25.1891635712
 30
0.0
 10
746.8022773973
 20
25.1891635712
 30
0.0
 10
746.5802201584
 20
25.1891635712
 30
0.0
 10
746.5802201584
 20
25.1891635712
 30
0.0
 10
746.5802201584
 20
25.1891635712
 30
0.0
 10
746.5802201584
 20
24.5521720338
 30
0.0
 10
746.5802201584
 20
24.5521720338
 30
0.0
 10
746.5802201584
 20
24.3663610267
 30
0.0
 10
746.533505701
 20
24.2035801161
 30
0.0
 10
746.3145889299
 20
24.2035801161
 30
0.0
 10
746.0951487474
 20
24.2035801161
 30
0.0
 10
746.04843429
 20
24.3663610267
 30
0.0
 10
746.04843429
 20
24.5521720338
 30
0.0
 10
746.04843429
 20
24.5521720338
 30
0.0
 10
746.04843429
 20
25.1891635712
 30
0.0
 10
746.04843429
 20
25.1891635712
 30
0.0
 10
746.04843429
 20
25.1891635712
 30
0.0
 10
745.8266387567
 20
25.1891635712
 30
0.0
 10
745.8266387567
 20
25.1891635712
 30
0.0
  0
SPLINE
  5
237
330
219
100
AcDbEntity
  8
0
  6
Continuous
 62
     7
100
AcDbSpline
 70
     3
 71
     3
 72
    35
 73
    31
 74
     0
 42
0.000000001
 43
0.0000001
 40
0.0
 40
0.0
 40
0.0
 40
0.0
 40
1.0
 40
1.0
 40
1.0
 40
2.0
 40
2.0
 40
2.0
 40
3.0
 40
3.0
 40
3.0
 40
4.0
 40
4.0
 40
4.0
 40
5.0
 40
5.0
 40
5.0
 40
6.0
 40
6.0
 40
6.0
 40
7.0
 40
7.0
 40
7.0
 40
8.0
 40
8.0
 40
8.0
 40
9.0
 40
9.0
 40
9.0
 40
10.0
 40
10.0
 40
10.0
 40
10.0
 10
749.2254099545
 20
25.1478140794
 30
0.0
 10
749.1369534469
 20
25.1991083857
 30
0.0
 10
749.0235040502
 20
25.2242321275
 30
0.0
 10
748.9198686152
 20
25.2242321275
 30
0.0
 10
748.5649957621
 20
25.2242321275
 30
0.0
 10
748.2895505718
 20
24.9604328384
 30
0.0
 10
748.2895505718
 20
24.6029429288
 30
0.0
 10
748.2895505718
 20
24.2580148901
 30
0.0
 10
748.568005377
 20
23.99787948
 30
0.0
 10
748.90756845
 20
23.99787948
 30
0.0
 10
749.0235040502
 20
23.99787948
 30
0.0
 10
749.1242607231
 20
24.0198627541
 30
0.0
 10
749.2254099545
 20
24.0737741167
 30
0.0
 10
749.2254099545
 20
24.0737741167
 30
0.0
 10
749.2254099545
 20
24.3564162122
 30
0.0
 10
749.2254099545
 20
24.3564162122
 30
0.0
 10
749.1415332956
 20
24.2632490029
 30
0.0
 10
749.0380287135
 20
24.2041035274
 30
0.0
 10
748.9099238008
 20
24.2041035274
 30
0.0
 10
748.6762206607
 20
24.2041035274
 30
0.0
 10
748.5109535466
 20
24.3763058411
 30
0.0
 10
748.5109535466
 20
24.6128877432
 30
0.0
 10
748.5109535466
 20
24.8248693148
 30
0.0
 10
748.6787068643
 20
25.0169612575
 30
0.0
 10
748.8955299903
 20
25.0169612575
 30
0.0
 10
749.0283456046
 20
25.0169612575
 30
0.0
 10
749.1369534469
 20
24.9630498948
 30
0.0
 10
749.2254099545
 20
24.8620315163
 30
0.0
 10
749.2254099545
 20
24.8620315163
 30
0.0
 10
749.2254099545
 20
25.1478140794
 30
0.0
 10
749.2254099545
 20
25.1478140794
 30
0.0
  0
SPLINE
  5
238
330
219
100
AcDbEntity
  8
0
  6
Continuous
 62
     7
100
AcDbSpline
 70
     3
 71
     3
 72
    32
 73
    28
 74
     0
 42
0.000000001
 43
0.0000001
 40
0.0
 40
0.0
 40
0.0
 40
0.0
 40
1.0
 40
1.0
 40
1.0
 40
2.0
 40
2.0
 40
2.0
 40
3.0
 40
3.0
 40
3.0
 40
4.0
 40
4.0
 40
4.0
 40
5.0
 40
5.0
 40
5.0
 40
6.0
 40
6.0
 40
6.0
 40
7.0
 40
7.0
 40
7.0
 40
8.0
 40
8.0
 40
8.0
 40
9.0
 40
9.0
 40
9.0
 40
9.0
 10
751.7572812068
 20
24.5762489531
 30
0.0
 10
751.7572812068
 20
24.5762489531
 30
0.0
 10
751.7572812068
 20
24.6102706868
 30
0.0
 10
751.7572812068
 20
24.6102706868
 30
0.0
 10
751.7572812068
 20
24.9525816691
 30
0.0
 10
751.584424629
 20
25.2242321275
 30
0.0
 10
751.2177750218
 20
25.2242321275
 30
0.0
 10
750.8461530074
 20
25.2242321275
 30
0.0
 10
750.6564164156
 20
24.9578157819
 30
0.0
 10
750.6564164156
 20
24.6029429288
 30
0.0
 10
750.6564164156
 20
24.2632490029
 30
0.0
 10
750.8704916323
 20
23.9973560687
 30
0.0
 10
751.2226165762
 20
23.9973560687
 30
0.0
 10
751.4466366074
 20
23.9973560687
 30
0.0
 10
751.6488042174
 20
24.1130299633
 30
0.0
 10
751.7572812068
 20
24.312449664
 30
0.0
 10
751.7572812068
 20
24.312449664
 30
0.0
 10
751.5696382601
 20
24.4192255667
 30
0.0
 10
751.5696382601
 20
24.4192255667
 30
0.0
 10
751.4861541597
 20
24.2805215754
 30
0.0
 10
751.3949497427
 20
24.1946821242
 30
0.0
 10
751.2253644855
 20
24.1946821242
 30
0.0
 10
751.0133829139
 20
24.1946821242
 30
0.0
 10
750.8804364468
 20
24.3794463088
 30
0.0
 10
750.878081096
 20
24.5762489531
 30
0.0
 10
750.878081096
 20
24.5762489531
 30
0.0
 10
751.7572812068
 20
24.5762489531
 30
0.0
 10
751.7572812068
 20
24.5762489531
 30
0.0
  0
SPLINE
  5
239
330
219
100
AcDbEntity
  8
0
  6
Continuous
 62
     7
100
AcDbSpline
 70
     3
 71
     3
 72
    14
 73
    10
 74
     0
 42
0.000000001
 43
0.0000001
 40
0.0
 40
0.0
 40
0.0
 40
0.0
 40
1.0
 40
1.0
 40
1.0
 40
2.0
 40
2.0
 40
2.0
 40
3.0
 40
3.0
 40
3.0
 40
3.0
 10
750.8901195556
 20
24.7437405652
 30
0.0
 10
750.917729501
 20
24.9086151209
 30
0.0
 10
751.0455727081
 20
25.0316167735
 30
0.0
 10
751.2177750218
 20
25.0316167735
 30
0.0
 10
751.3949497427
 20
25.0316167735
 30
0.0
 10
751.5083991394
 20
24.9159428789
 30
0.0
 10
751.5356165264
 20
24.7437405652
 30
0.0
 10
751.5356165264
 20
24.7437405652
 30
0.0
 10
750.8901195556
 20
24.7437405652
 30
0.0
 10
750.8901195556
 20
24.7437405652
 30
0.0
  0
SPLINE
  5
23A
330
219
100
AcDbEntity
  8
0
  6
Continuous
 62
     7
100
AcDbSpline
 70
     3
 71
     3
 72
    20
 73
    16
 74
     0
 42
0.000000001
 43
0.0000001
 40
0.0
 40
0.0
 40
0.0
 40
0.0
 40
1.0
 40
1.0
 40
1.0
 40
2.0
 40
2.0
 40
2.0
 40
3.0
 40
3.0
 40
3.0
 40
4.0
 40
4.0
 40
4.0
 40
5.0
 40
5.0
 40
5.0
 40
5.0
 10
753.781312657
 20
24.9531050804
 30
0.0
 10
753.781312657
 20
24.9531050804
 30
0.0
 10
754.1924522236
 20
24.450630244
 30
0.0
 10
754.1924522236
 20
24.450630244
 30
0.0
 10
754.0763857705
 20
24.3349563494
 30
0.0
 10
753.938597749
 20
24.2046269387
 30
0.0
 10
753.7666571409
 20
24.2046269387
 30
0.0
 10
753.5892207143
 20
24.2046269387
 30
0.0
 10
753.4217291022
 20
24.3689780831
 30
0.0
 10
753.4217291022
 20
24.5458910984
 30
0.0
 10
753.4217291022
 20
24.7238509363
 30
0.0
 10
753.6314861758
 20
24.8499930566
 30
0.0
 10
753.7590676772
 20
24.937926153
 30
0.0
 10
753.7590676772
 20
24.937926153
 30
0.0
 10
753.781312657
 20
24.9531050804
 30
0.0
 10
753.781312657
 20
24.9531050804
 30
0.0
  0
SPLINE
  5
23B
330
219
100
AcDbEntity
  8
0
  6
Continuous
 62
     7
100
AcDbSpline
 70
     3
 71
     3
 72
    23
 73
    19
 74
     0
 42
0.000000001
 43
0.0000001
 40
0.0
 40
0.0
 40
0.0
 40
0.0
 40
1.0
 40
1.0
 40
1.0
 40
2.0
 40
2.0
 40
2.0
 40
3.0
 40
3.0
 40
3.0
 40
4.0
 40
4.0
 40
4.0
 40
5.0
 40
5.0
 40
5.0
 40
6.0
 40
6.0
 40
6.0
 40
6.0
 10
753.8306441708
 20
25.2441217564
 30
0.0
 10
753.8306441708
 20
25.2441217564
 30
0.0
 10
753.7690124917
 20
25.3226334496
 30
0.0
 10
753.7690124917
 20
25.3226334496
 30
0.0
 10
753.7151011291
 20
25.3912003283
 30
0.0
 10
753.6583110043
 20
25.4602906183
 30
0.0
 10
753.6583110043
 20
25.5539812388
 30
0.0
 10
753.6583110043
 20
25.6727956012
 30
0.0
 10
753.7542261228
 20
25.7502604718
 30
0.0
 10
753.8651893158
 20
25.7502604718
 30
0.0
 10
753.9884526741
 20
25.7502604718
 30
0.0
 10
754.0817507362
 20
25.6790765366
 30
0.0
 10
754.0817507362
 20
25.548747126
 30
0.0
 10
754.0817507362
 20
25.4137070137
 30
0.0
 10
753.9536458235
 20
25.3372889657
 30
0.0
 10
753.8600860558
 20
25.2634879741
 30
0.0
 10
753.8600860558
 20
25.2634879741
 30
0.0
 10
753.8306441708
 20
25.2441217564
 30
0.0
 10
753.8306441708
 20
25.2441217564
 30
0.0
  0
SPLINE
  5
23C
330
219
100
AcDbEntity
  8
0
  6
Continuous
 62
     7
100
AcDbSpline
 70
     3
 71
     3
 72
    50
 73
    46
 74
     0
 42
0.000000001
 43
0.0000001
 40
0.0
 40
0.0
 40
0.0
 40
0.0
 40
1.0
 40
1.0
 40
1.0
 40
2.0
 40
2.0
 40
2.0
 40
3.0
 40
3.0
 40
3.0
 40
4.0
 40
4.0
 40
4.0
 40
5.0
 40
5.0
 40
5.0
 40
6.0
 40
6.0
 40
6.0
 40
7.0
 40
7.0
 40
7.0
 40
8.0
 40
8.0
 40
8.0
 40
9.0
 40
9.0
 40
9.0
 40
10.0
 40
10.0
 40
10.0
 40
11.0
 40
11.0
 40
11.0
 40
12.0
 40
12.0
 40
12.0
 40
13.0
 40
13.0
 40
13.0
 40
14.0
 40
14.0
 40
14.0
 40
15.0
 40
15.0
 40
15.0
 40
15.0
 10
754.5328004135
 20
24.0371353266
 30
0.0
 10
754.5328004135
 20
24.0371353266
 30
0.0
 10
754.8181904182
 20
24.0371353266
 30
0.0
 10
754.8181904182
 20
24.0371353266
 30
0.0
 10
754.8181904182
 20
24.0371353266
 30
0.0
 10
754.4858242504
 20
24.4480131876
 30
0.0
 10
754.4858242504
 20
24.4480131876
 30
0.0
 10
754.4858242504
 20
24.4480131876
 30
0.0
 10
754.7123304853
 20
24.7139061218
 30
0.0
 10
754.7123304853
 20
24.7139061218
 30
0.0
 10
754.7123304853
 20
24.7139061218
 30
0.0
 10
754.564074238
 20
24.8667422179
 30
0.0
 10
754.564074238
 20
24.8667422179
 30
0.0
 10
754.564074238
 20
24.8667422179
 30
0.0
 10
754.3481670817
 20
24.6155047997
 30
0.0
 10
754.3481670817
 20
24.6155047997
 30
0.0
 10
754.3481670817
 20
24.6155047997
 30
0.0
 10
753.9611044343
 20
25.083434491
 30
0.0
 10
753.9611044343
 20
25.083434491
 30
0.0
 10
754.1165575868
 20
25.1975381518
 30
0.0
 10
754.2988355678
 20
25.3372889657
 30
0.0
 10
754.2988355678
 20
25.5466534808
 30
0.0
 10
754.2988355678
 20
25.7905631409
 30
0.0
 10
754.0967988107
 20
25.9339778338
 30
0.0
 10
753.8702925759
 20
25.9339778338
 30
0.0
 10
753.6261212101
 20
25.9339778338
 30
0.0
 10
753.441749584
 20
25.7832353829
 30
0.0
 10
753.441749584
 20
25.5267638519
 30
0.0
 10
753.441749584
 20
25.3692170542
 30
0.0
 10
753.5404126117
 20
25.2315598855
 30
0.0
 10
753.6457491334
 20
25.1205966925
 30
0.0
 10
753.6457491334
 20
25.1205966925
 30
0.0
 10
753.5302060916
 20
25.0368508864
 30
0.0
 10
753.5302060916
 20
25.0368508864
 30
0.0
 10
753.3525079594
 20
24.9086151209
 30
0.0
 10
753.2051676818
 20
24.7809027666
 30
0.0
 10
753.2051676818
 20
24.5437974532
 30
0.0
 10
753.2051676818
 20
24.2234697451
 30
0.0
 10
753.4637328581
 20
23.9973560687
 30
0.0
 10
753.7741157518
 20
23.9973560687
 30
0.0
 10
753.9930325229
 20
23.9973560687
 30
0.0
 10
754.1902277256
 20
24.1224513665
 30
0.0
 10
754.3305019508
 20
24.2883727448
 30
0.0
 10
754.3305019508
 20
24.2883727448
 30
0.0
 10
754.5328004135
 20
24.0371353266
 30
0.0
 10
754.5328004135
 20
24.0371353266
 30
0.0
  0
LWPOLYLINE
  5
23D
330
219
100
AcDbEntity
  8
0
  6
Continuous
 62
     7
100
AcDbPolyline
 90
        2
 70
     0
 43
0.2
 10
756.468245
 20
25.893675
 10
756.236897
 20
25.893675
  0
LWPOLYLINE
  5
23E
330
219
100
AcDbEntity
  8
0
  6
Continuous
 62
     7
100
AcDbPolyline
 90
        2
 70
     0
 43
0.2
 10
756.236897
 20
25.893675
 10
756.236897
 20
24.036612
  0
LWPOLYLINE
  5
23F
330
219
100
AcDbEntity
  8
0
  6
Continuous
 62
     7
100
AcDbPolyline
 90
        2
 70
     0
 43
0.2
 10
756.236897
 20
24.036612
 10
757.03222
 20
24.036612
  0
LWPOLYLINE
  5
240
330
219
100
AcDbEntity
  8
0
  6
Continuous
 62
     7
100
AcDbPolyline
 90
        2
 70
     0
 43
0.2
 10
757.03222
 20
24.036612
 10
757.03222
 20
24.248593
  0
LWPOLYLINE
  5
241
330
219
100
AcDbEntity
  8
0
  6
Continuous
 62
     7
100
AcDbPolyline
 90
        2
 70
     0
 43
0.2
 10
757.03222
 20
24.248593
 10
756.468245
 20
24.248593
  0
LWPOLYLINE
  5
242
330
219
100
AcDbEntity
  8
0
  6
Continuous
 62
     7
100
AcDbPolyline
 90
        2
 70
     0
 43
0.2
 10
756.468245
 20
24.248593
 10
756.468245
 20
25.893675
  0
LWPOLYLINE
  5
243
330
219
100
AcDbEntity
  8
0
  6
Continuous
 62
     7
100
AcDbPolyline
 90
        2
 70
     0
 43
0.2
 10
758.711324
 20
25.189164
 10
758.490182
 20
25.189164
  0
LWPOLYLINE
  5
244
330
219
100
AcDbEntity
  8
0
  6
Continuous
 62
     7
100
AcDbPolyline
 90
        2
 70
     0
 43
0.2
 10
758.490182
 20
25.189164
 10
758.490182
 20
24.037135
  0
LWPOLYLINE
  5
245
330
219
100
AcDbEntity
  8
0
  6
Continuous
 62
     7
100
AcDbPolyline
 90
        2
 70
     0
 43
0.2
 10
758.490182
 20
24.037135
 10
758.711324
 20
24.037135
  0
LWPOLYLINE
  5
246
330
219
100
AcDbEntity
  8
0
  6
Continuous
 62
     7
100
AcDbPolyline
 90
        2
 70
     0
 43
0.2
 10
758.711324
 20
24.037135
 10
758.711324
 20
25.189164
  0
LWPOLYLINE
  5
247
330
219
100
AcDbEntity
  8
0
  6
Continuous
 62
     7
100
AcDbPolyline
 90
        2
 70
     1
 43
0.2
 10
758.4483
 20
25.719118
 42
1.0
 10
758.753467
 20
25.719118
 42
1.0
  0
SPLINE
  5
248
330
219
100
AcDbEntity
  8
0
  6
Continuous
 62
     7
100
AcDbSpline
 70
     3
 71
     3
 72
    17
 73
    13
 74
     0
 42
0.000000001
 43
0.0000001
 40
0.0
 40
0.0
 40
0.0
 40
0.0
 40
1.0
 40
1.0
 40
1.0
 40
2.0
 40
2.0
 40
2.0
 40
3.0
 40
3.0
 40
3.0
 40
4.0
 40
4.0
 40
4.0
 40
4.0
 10
760.841607519
 20
24.1946821242
 30
0.0
 10
760.6076426734
 20
24.1946821242
 30
0.0
 10
760.4773132627
 20
24.3967188813
 30
0.0
 10
760.4773132627
 20
24.6128877432
 30
0.0
 10
760.4773132627
 20
24.8274863713
 30
0.0
 10
760.6131384919
 20
25.0263826607
 30
0.0
 10
760.841607519
 20
25.0263826607
 30
0.0
 10
761.0810681832
 20
25.0263826607
 30
0.0
 10
761.2166317068
 20
24.8374311857
 30
0.0
 10
761.2166317068
 20
24.6128877432
 30
0.0
 10
761.2166317068
 20
24.3867740669
 30
0.0
 10
761.083423534
 20
24.1946821242
 30
0.0
 10
760.841607519
 20
24.1946821242
 30
0.0
  0
SPLINE
  5
249
330
219
100
AcDbEntity
  8
0
  6
Continuous
 62
     7
100
AcDbSpline
 70
     3
 71
     3
 72
    50
 73
    46
 74
     0
 42
0.000000001
 43
0.0000001
 40
0.0
 40
0.0
 40
0.0
 40
0.0
 40
1.0
 40
1.0
 40
1.0
 40
2.0
 40
2.0
 40
2.0
 40
3.0
 40
3.0
 40
3.0
 40
4.0
 40
4.0
 40
4.0
 40
5.0
 40
5.0
 40
5.0
 40
6.0
 40
6.0
 40
6.0
 40
7.0
 40
7.0
 40
7.0
 40
8.0
 40
8.0
 40
8.0
 40
9.0
 40
9.0
 40
9.0
 40
10.0
 40
10.0
 40
10.0
 40
11.0
 40
11.0
 40
11.0
 40
12.0
 40
12.0
 40
12.0
 40
13.0
 40
13.0
 40
13.0
 40
14.0
 40
14.0
 40
14.0
 40
15.0
 40
15.0
 40
15.0
 40
15.0
 10
761.4257345163
 20
25.1896869825
 30
0.0
 10
761.4257345163
 20
25.1896869825
 30
0.0
 10
761.2040698359
 20
25.1896869825
 30
0.0
 10
761.2040698359
 20
25.1896869825
 30
0.0
 10
761.2040698359
 20
25.1896869825
 30
0.0
 10
761.2040698359
 20
24.9923609269
 30
0.0
 10
761.2040698359
 20
24.9923609269
 30
0.0
 10
761.2040698359
 20
24.9923609269
 30
0.0
 10
761.1993591343
 20
24.9923609269
 30
0.0
 10
761.1993591343
 20
24.9923609269
 30
0.0
 10
761.1080238646
 20
25.1352522085
 30
0.0
 10
760.9701049902
 20
25.2237087162
 30
0.0
 10
760.7973792652
 20
25.2237087162
 30
0.0
 10
760.4650130974
 20
25.2237087162
 30
0.0
 10
760.2559102879
 20
24.9358325079
 30
0.0
 10
760.2559102879
 20
24.6202155013
 30
0.0
 10
760.2559102879
 20
24.2904663899
 30
0.0
 10
760.4529746378
 20
23.9973560687
 30
0.0
 10
760.807847491
 20
23.9973560687
 30
0.0
 10
760.9701049902
 20
23.9973560687
 30
0.0
 10
761.1101175097
 20
24.0858125764
 30
0.0
 10
761.1993591343
 20
24.2166653983
 30
0.0
 10
761.1993591343
 20
24.2166653983
 30
0.0
 10
761.2040698359
 20
24.2166653983
 30
0.0
 10
761.2040698359
 20
24.2166653983
 30
0.0
 10
761.2040698359
 20
24.2166653983
 30
0.0
 10
761.2040698359
 20
23.9973560687
 30
0.0
 10
761.2040698359
 20
23.9973560687
 30
0.0
 10
761.2040698359
 20
23.7607741666
 30
0.0
 10
761.1475414168
 20
23.5739163368
 30
0.0
 10
760.8743207245
 20
23.5739163368
 30
0.0
 10
760.6720222618
 20
23.5739163368
 30
0.0
 10
760.5293926858
 20
23.6922072879
 30
0.0
 10
760.5293926858
 20
23.8984313353
 30
0.0
 10
760.5293926858
 20
23.8984313353
 30
0.0
 10
760.3077280054
 20
23.8984313353
 30
0.0
 10
760.3077280054
 20
23.8984313353
 30
0.0
 10
760.3127004127
 20
23.5739163368
 30
0.0
 10
760.5437864962
 20
23.3771136926
 30
0.0
 10
760.8641142044
 20
23.3771136926
 30
0.0
 10
761.3121542668
 20
23.3771136926
 30
0.0
 10
761.4257345163
 20
23.6623728445
 30
0.0
 10
761.4257345163
 20
24.0591186007
 30
0.0
 10
761.4257345163
 20
24.0591186007
 30
0.0
 10
761.4257345163
 20
25.1896869825
 30
0.0
 10
761.4257345163
 20
25.1896869825
 30
0.0
  0
SPLINE
  5
24A
330
219
100
AcDbEntity
  8
0
  6
Continuous
 62
     7
100
AcDbSpline
 70
     3
 71
     3
 72
    44
 73
    40
 74
     0
 42
0.000000001
 43
0.0000001
 40
0.0
 40
0.0
 40
0.0
 40
0.0
 40
1.0
 40
1.0
 40
1.0
 40
2.0
 40
2.0
 40
2.0
 40
3.0
 40
3.0
 40
3.0
 40
4.0
 40
4.0
 40
4.0
 40
5.0
 40
5.0
 40
5.0
 40
6.0
 40
6.0
 40
6.0
 40
7.0
 40
7.0
 40
7.0
 40
8.0
 40
8.0
 40
8.0
 40
9.0
 40
9.0
 40
9.0
 40
10.0
 40
10.0
 40
10.0
 40
11.0
 40
11.0
 40
11.0
 40
12.0
 40
12.0
 40
12.0
 40
13.0
 40
13.0
 40
13.0
 40
13.0
 10
762.9946598517
 20
26.1747470262
 30
0.0
 10
762.9946598517
 20
26.1747470262
 30
0.0
 10
762.9946598517
 20
24.0366119153
 30
0.0
 10
762.9946598517
 20
24.0366119153
 30
0.0
 10
762.9946598517
 20
24.0366119153
 30
0.0
 10
763.2160628265
 20
24.0366119153
 30
0.0
 10
763.2160628265
 20
24.0366119153
 30
0.0
 10
763.2160628265
 20
24.0366119153
 30
0.0
 10
763.2160628265
 20
24.5663041386
 30
0.0
 10
763.2160628265
 20
24.5663041386
 30
0.0
 10
763.2160628265
 20
24.7761920651
 30
0.0
 10
763.2160628265
 20
25.0269060719
 30
0.0
 10
763.5013219784
 20
25.0269060719
 30
0.0
 10
763.7282207717
 20
25.0269060719
 30
0.0
 10
763.755176453
 20
24.8939596048
 30
0.0
 10
763.755176453
 20
24.6976803719
 30
0.0
 10
763.755176453
 20
24.6976803719
 30
0.0
 10
763.755176453
 20
24.0366119153
 30
0.0
 10
763.755176453
 20
24.0366119153
 30
0.0
 10
763.755176453
 20
24.0366119153
 30
0.0
 10
763.977102839
 20
24.0366119153
 30
0.0
 10
763.977102839
 20
24.0366119153
 30
0.0
 10
763.977102839
 20
24.0366119153
 30
0.0
 10
763.977102839
 20
24.7238509363
 30
0.0
 10
763.977102839
 20
24.7238509363
 30
0.0
 10
763.977102839
 20
25.0043993866
 30
0.0
 10
763.8930953273
 20
25.2242321275
 30
0.0
 10
763.5680569176
 20
25.2242321275
 30
0.0
 10
763.4283061037
 20
25.2242321275
 30
0.0
 10
763.2901255237
 20
25.1577588939
 30
0.0
 10
763.2207735281
 20
25.0347572413
 30
0.0
 10
763.2207735281
 20
25.0347572413
 30
0.0
 10
763.2160628265
 20
25.0347572413
 30
0.0
 10
763.2160628265
 20
25.0347572413
 30
0.0
 10
763.2160628265
 20
25.0347572413
 30
0.0
 10
763.2160628265
 20
26.1747470262
 30
0.0
 10
763.2160628265
 20
26.1747470262
 30
0.0
 10
763.2160628265
 20
26.1747470262
 30
0.0
 10
762.9946598517
 20
26.1747470262
 30
0.0
 10
762.9946598517
 20
26.1747470262
 30
0.0
  0
LWPOLYLINE
  5
24B
330
219
100
AcDbEntity
  8
0
  6
Continuous
 62
     7
100
AcDbPolyline
 90
        2
 70
     0
 43
0.2
 10
765.816894
 20
24.982416
 10
766.033324
 20
24.982416
  0
LWPOLYLINE
  5
24C
330
219
100
AcDbEntity
  8
0
  6
Continuous
 62
     7
100
AcDbPolyline
 90
        2
 70
     0
 43
0.2
 10
766.033324
 20
24.982416
 10
766.033324
 20
25.189164
  0
LWPOLYLINE
  5
24D
330
219
100
AcDbEntity
  8
0
  6
Continuous
 62
     7
100
AcDbPolyline
 90
        2
 70
     0
 43
0.2
 10
766.033324
 20
25.189164
 10
765.816894
 20
25.189164
  0
LWPOLYLINE
  5
24E
330
219
100
AcDbEntity
  8
0
  6
Continuous
 62
     7
100
AcDbPolyline
 90
        2
 70
     0
 43
0.2
 10
765.816894
 20
25.189164
 10
765.816894
 20
25.629876
  0
LWPOLYLINE
  5
24F
330
219
100
AcDbEntity
  8
0
  6
Continuous
 62
     7
100
AcDbPolyline
 90
        2
 70
     0
 43
0.2
 10
765.816894
 20
25.629876
 10
765.595229
 20
25.629876
  0
LWPOLYLINE
  5
250
330
219
100
AcDbEntity
  8
0
  6
Continuous
 62
     7
100
AcDbPolyline
 90
        2
 70
     0
 43
0.2
 10
765.595229
 20
25.629876
 10
765.595229
 20
25.189164
  0
LWPOLYLINE
  5
251
330
219
100
AcDbEntity
  8
0
  6
Continuous
 62
     7
100
AcDbPolyline
 90
        2
 70
     0
 43
0.2
 10
765.595229
 20
25.189164
 10
765.474583
 20
25.189164
  0
LWPOLYLINE
  5
252
330
219
100
AcDbEntity
  8
0
  6
Continuous
 62
     7
100
AcDbPolyline
 90
        2
 70
     0
 43
0.2
 10
765.474583
 20
25.189164
 10
765.474583
 20
24.982416
  0
LWPOLYLINE
  5
253
330
219
100
AcDbEntity
  8
0
  6
Continuous
 62
     7
100
AcDbPolyline
 90
        2
 70
     0
 43
0.2
 10
765.474583
 20
24.982416
 10
765.595229
 20
24.982416
  0
LWPOLYLINE
  5
254
330
219
100
AcDbEntity
  8
0
  6
Continuous
 62
     7
100
AcDbPolyline
 90
        2
 70
     0
 43
0.2
 10
765.595229
 20
24.982416
 10
765.595229
 20
24.036612
  0
LWPOLYLINE
  5
255
330
219
100
AcDbEntity
  8
0
  6
Continuous
 62
     7
100
AcDbPolyline
 90
        2
 70
     0
 43
0.2
 10
765.595229
 20
24.036612
 10
765.816894
 20
24.036612
  0
LWPOLYLINE
  5
256
330
219
100
AcDbEntity
  8
0
  6
Continuous
 62
     7
100
AcDbPolyline
 90
        2
 70
     0
 43
0.2
 10
765.816894
 20
24.036612
 10
765.816894
 20
24.982416
  0
SPLINE
  5
257
330
219
100
AcDbEntity
  8
0
  6
Continuous
 62
     7
100
AcDbSpline
 70
     3
 71
     3
 72
    20
 73
    16
 74
     0
 42
0.000000001
 43
0.0000001
 40
0.0
 40
0.0
 40
0.0
 40
0.0
 40
1.0
 40
1.0
 40
1.0
 40
2.0
 40
2.0
 40
2.0
 40
3.0
 40
3.0
 40
3.0
 40
4.0
 40
4.0
 40
4.0
 40
5.0
 40
5.0
 40
5.0
 40
5.0
 10
753.5989038231
 20
34.3975383587
 30
0.0
 10
753.5989038231
 20
34.3975383587
 30
0.0
 10
755.9152604776
 20
31.5679769365
 30
0.0
 10
755.9152604776
 20
31.5679769365
 30
0.0
 10
755.2636134242
 20
30.9158064718
 30
0.0
 10
754.4867402202
 20
30.179890201
 30
0.0
 10
753.5155505756
 20
30.179890201
 30
0.0
 10
752.5170126911
 20
30.179890201
 30
0.0
 10
751.5736946976
 20
31.1094686483
 30
0.0
 10
751.5736946976
 20
32.1086607968
 30
0.0
 10
751.5736946976
 20
33.1078529454
 30
0.0
 10
752.7525477707
 20
33.814458184
 30
0.0
 10
753.474070231
 20
34.3143159639
 30
0.0
 10
753.474070231
 20
34.3143159639
 30
0.0
 10
753.5989038231
 20
34.3975383587
 30
0.0
 10
753.5989038231
 20
34.3975383587
 30
0.0
  0
SPLINE
  5
258
330
219
100
AcDbEntity
  8
0
  6
Continuous
 62
     7
100
AcDbSpline
 70
     3
 71
     3
 72
    23
 73
    19
 74
     0
 42
0.000000001
 43
0.0000001
 40
0.0
 40
0.0
 40
0.0
 40
0.0
 40
1.0
 40
1.0
 40
1.0
 40
2.0
 40
2.0
 40
2.0
 40
3.0
 40
3.0
 40
3.0
 40
4.0
 40
4.0
 40
4.0
 40
5.0
 40
5.0
 40
5.0
 40
6.0
 40
6.0
 40
6.0
 40
6.0
 10
753.8763118057
 20
36.0352922784
 30
0.0
 10
753.8763118057
 20
36.0352922784
 30
0.0
 10
753.5298135331
 20
36.4786216393
 30
0.0
 10
753.5298135331
 20
36.4786216393
 30
0.0
 10
753.2240104882
 20
36.8667311092
 30
0.0
 10
752.9051221611
 20
37.2552331376
 30
0.0
 10
752.9051221611
 20
37.7821774517
 30
0.0
 10
752.9051221611
 20
38.4483491683
 30
0.0
 10
753.4464602856
 20
38.8920710876
 30
0.0
 10
754.0703665407
 20
38.8920710876
 30
0.0
 10
754.7641482028
 20
38.8920710876
 30
0.0
 10
755.2913542225
 20
38.4898295129
 30
0.0
 10
755.2913542225
 20
37.7548292119
 30
0.0
 10
755.2913542225
 20
36.9915647014
 30
0.0
 10
754.5700934678
 20
36.5614514756
 30
0.0
 10
754.0430183009
 20
36.1457320602
 30
0.0
 10
754.0430183009
 20
36.1457320602
 30
0.0
 10
753.8763118057
 20
36.0352922784
 30
0.0
 10
753.8763118057
 20
36.0352922784
 30
0.0
  0
SPLINE
  5
259
330
219
100
AcDbEntity
  8
0
  6
Continuous
 62
     7
100
AcDbSpline
 70
     3
 71
     3
 72
    50
 73
    46
 74
     0
 42
0.000000001
 43
0.0000001
 40
0.0
 40
0.0
 40
0.0
 40
0.0
 40
1.0
 40
1.0
 40
1.0
 40
2.0
 40
2.0
 40
2.0
 40
3.0
 40
3.0
 40
3.0
 40
4.0
 40
4.0
 40
4.0
 40
5.0
 40
5.0
 40
5.0
 40
6.0
 40
6.0
 40
6.0
 40
7.0
 40
7.0
 40
7.0
 40
8.0
 40
8.0
 40
8.0
 40
9.0
 40
9.0
 40
9.0
 40
10.0
 40
10.0
 40
10.0
 40
11.0
 40
11.0
 40
11.0
 40
12.0
 40
12.0
 40
12.0
 40
13.0
 40
13.0
 40
13.0
 40
14.0
 40
14.0
 40
14.0
 40
15.0
 40
15.0
 40
15.0
 40
15.0
 10
757.8298989686
 20
29.2367030603
 30
0.0
 10
757.8298989686
 20
29.2367030603
 30
0.0
 10
759.4391269732
 20
29.2367030603
 30
0.0
 10
759.4391269732
 20
29.2367030603
 30
0.0
 10
759.4391269732
 20
29.2367030603
 30
0.0
 10
757.5660996796
 20
31.5538448317
 30
0.0
 10
757.5660996796
 20
31.5538448317
 30
0.0
 10
757.5660996796
 20
31.5538448317
 30
0.0
 10
758.842438105
 20
33.0513245263
 30
0.0
 10
758.842438105
 20
33.0513245263
 30
0.0
 10
758.842438105
 20
33.0513245263
 30
0.0
 10
758.0102141573
 20
33.9123360948
 30
0.0
 10
758.0102141573
 20
33.9123360948
 30
0.0
 10
758.0102141573
 20
33.9123360948
 30
0.0
 10
756.789619034
 20
32.4970319724
 30
0.0
 10
756.789619034
 20
32.4970319724
 30
0.0
 10
756.789619034
 20
32.4970319724
 30
0.0
 10
754.6117046652
 20
35.1324078069
 30
0.0
 10
754.6117046652
 20
35.1324078069
 30
0.0
 10
755.4852781046
 20
35.7704461668
 30
0.0
 10
756.5119493458
 20
36.5614514756
 30
0.0
 10
756.5119493458
 20
37.7403045487
 30
0.0
 10
756.5119493458
 20
39.1139974737
 30
0.0
 10
755.374053206
 20
39.9184806231
 30
0.0
 10
754.0987616031
 20
39.9184806231
 30
0.0
 10
752.7253303837
 20
39.9184806231
 30
0.0
 10
751.6843961849
 20
39.0722554235
 30
0.0
 10
751.6843961849
 20
37.6296030613
 30
0.0
 10
751.6843961849
 20
36.7420283699
 30
0.0
 10
752.2397355614
 20
35.9651551659
 30
0.0
 10
752.8359010183
 20
35.3407254994
 30
0.0
 10
752.8359010183
 20
35.3407254994
 30
0.0
 10
752.1839922592
 20
34.8691319291
 30
0.0
 10
752.1839922592
 20
34.8691319291
 30
0.0
 10
751.1854543748
 20
34.1478711744
 30
0.0
 10
750.352576163
 20
33.4266104197
 30
0.0
 10
750.352576163
 20
32.0950521033
 30
0.0
 10
750.352576163
 20
30.2913768053
 30
0.0
 10
751.8096223356
 20
29.0147766742
 30
0.0
 10
753.5571617729
 20
29.0147766742
 30
0.0
 10
754.7920198538
 20
29.0147766742
 30
0.0
 10
755.9013900785
 20
29.7229521467
 30
0.0
 10
756.6922645345
 20
30.6514837714
 30
0.0
 10
756.6922645345
 20
30.6514837714
 30
0.0
 10
757.8298989686
 20
29.2367030603
 30
0.0
 10
757.8298989686
 20
29.2367030603
 30
0.0
  0
LINE
  5
25A
330
219
100
AcDbEntity
  8
0
  6
Continuous
 62
     7
100
AcDbLine
 10
743.63276
 20
27.210578
 30
0.0
 11
766.046671
 21
27.210578
 31
0.0
  0
LINE
  5
25B
330
219
100
AcDbEntity
  8
0
  6
Continuous
 62
     7
100
AcDbLine
 10
766.046671
 20
27.210578
 30
0.0
 11
766.046671
 21
49.624489
 31
0.0
  0
LINE
  5
25C
330
219
100
AcDbEntity
  8
0
  6
Continuous
 62
     7
100
AcDbLine
 10
766.046671
 20
49.624489
 30
0.0
 11
743.63276
 21
49.624489
 31
0.0
  0
LINE
  5
25D
330
219
100
AcDbEntity
  8
0
  6
Continuous
 62
     7
100
AcDbLine
 10
743.63276
 20
49.624489
 30
0.0
 11
743.63276
 21
27.210578
 31
0.0
  0
ENDBLK
  5
25E
330
219
100
AcDbEntity
  8
0
  6
ByBlock
 62
     0
100
AcDbBlockEnd
  0
BLOCK
  5
2CC
330
21A
100
AcDbEntity
  8
0
100
AcDbBlockBegin
  2
*T14
 70
     1
 10
0.0
 20
0.0
 30
0.0
  3
*T14
  1
*T14
  0
LINE
  5
2CD
330
21A
100
AcDbEntity
  8
0
  6
Continuous
 62
     2
100
AcDbLine
 10
0.0
 20
0.0
 30
0.0
 11
90.0
 21
0.0
 31
0.0
  0
LINE
  5
2CE
330
21A
100
AcDbEntity
  8
0
  6
Continuous
 62
     2
100
AcDbLine
 10
0.0
 20
0.0
 30
0.0
 11
0.0
 21
-40.0
 31
0.0
  0
LINE
  5
2CF
330
21A
100
AcDbEntity
  8
0
  6
Continuous
 62
     2
100
AcDbLine
 10
30.0
 20
-6.0
 30
0.0
 11
90.0
 21
-6.0
 31
0.0
  0
LINE
  5
2D0
330
21A
100
AcDbEntity
  8
0
  6
Continuous
 62
     2
100
AcDbLine
 10
30.0
 20
-12.0
 30
0.0
 11
90.0
 21
-12.0
 31
0.0
  0
LINE
  5
2D1
330
21A
100
AcDbEntity
  8
0
  6
Continuous
 62
     2
100
AcDbLine
 10
30.0
 20
-22.0
 30
0.0
 11
90.0
 21
-22.0
 31
0.0
  0
LINE
  5
2D2
330
21A
100
AcDbEntity
  8
0
  6
Continuous
 62
     2
100
AcDbLine
 10
0.0
 20
-27.0
 30
0.0
 11
90.0
 21
-27.0
 31
0.0
  0
LINE
  5
2D3
330
21A
100
AcDbEntity
  8
0
  6
Continuous
 62
     2
100
AcDbLine
 10
0.0
 20
-40.0
 30
0.0
 11
90.0
 21
-40.0
 31
0.0
  0
LINE
  5
2D4
330
21A
100
AcDbEntity
  8
0
  6
Continuous
 62
     2
100
AcDbLine
 10
30.0
 20
0.0
 30
0.0
 11
30.0
 21
-27.0
 31
0.0
  0
LINE
  5
2D5
330
21A
100
AcDbEntity
  8
0
  6
Continuous
 62
     2
100
AcDbLine
 10
70.0
 20
0.0
 30
0.0
 11
70.0
 21
-12.0
 31
0.0
  0
LINE
  5
2D6
330
21A
100
AcDbEntity
  8
0
  6
Continuous
 62
     2
100
AcDbLine
 10
90.0
 20
0.0
 30
0.0
 11
90.0
 21
-40.0
 31
0.0
  0
MTEXT
  5
2D7
330
21A
100
AcDbEntity
  8
9_SOLID
  6
Continuous
 62
     2
100
AcDbMText
 10
31.4875
 20
-1.5
 30
0.0
 40
3.0
 41
32.587361
 46
0.0
 71
     1
 72
     1
  1
WC5303
 73
     1
 44
0.9
  0
MTEXT
  5
2D8
330
21A
100
AcDbEntity
  8
9_SOLID
  6
Continuous
 62
     2
100
AcDbMText
 10
71.4875
 20
-1.25
 30
0.0
 40
3.5
 41
30.966543
 46
0.0
 71
     1
 72
     1
  1
Rev:00
 73
     1
 44
0.9
  0
MTEXT
  5
2D9
330
21A
100
AcDbEntity
  8
9_SOLID
  6
Continuous
 62
     2
100
AcDbMText
 10
31.4875
 20
-7.75
 30
0.0
 40
3.5
 41
40.724907
 46
0.0
 71
     1
 72
     1
  1
Scale:1:1
 73
     1
 44
0.9
  0
MTEXT
  5
2DA
330
21A
100
AcDbEntity
  8
9_SOLID
  6
Continuous
 62
     2
100
AcDbMText
 10
71.4875
 20
-7.25
 30
0.0
 40
3.5
 41
11.944238
 46
0.0
 71
     1
 72
     1
  1
A1
 73
     1
 44
0.9
  0
MTEXT
  5
2DB
330
21A
100
AcDbEntity
  8
9_SOLID
  6
Continuous
 62
     2
100
AcDbMText
 10
31.4875
 20
-15.25
 30
0.0
 40
3.5
 41
3.252788
 46
0.0
 71
     1
 72
     1
  1
-
 73
     1
 44
0.9
  0
MTEXT
  5
2DC
330
21A
100
AcDbEntity
  8
9_SOLID
  6
Continuous
 62
     2
100
AcDbMText
 10
31.4875
 20
-23.25
 30
0.0
 40
2.5
 41
47.695167
 46
0.0
 71
     1
 72
     1
  1
DATE:20.07.20
 73
     1
 44
0.9
  0
MTEXT
  5
2DD
330
21A
100
AcDbEntity
  8
9_SOLID
  6
Continuous
 62
     2
100
AcDbMText
 10
1.4875
 20
-27.3125
 30
0.0
 40
2.25
 41
148.98513
 46
0.0
 71
     1
 72
     1
  1
Any integral or partial reproductions are prohibited \Pwithout prior authorisation of L & L Luce & Light s.r.l., \Pin accordance with the law in force. \PAll rights reserved.
 73
     1
 44
0.9
  0
ENDBLK
  5
2DE
330
21A
100
AcDbEntity
  8
0
  6
ByBlock
 62
     0
100
AcDbBlockEnd
  0
ENDSEC
  0
SECTION
  2
ENTITIES
  0
LINE
  5
2DF
330
20A
100
AcDbEntity
  8
0
  6
Continuous
 62
     7
100
AcDbLine
 10
0.0
 20
0.0
 30
0.0
 11
841.0
 21
0.0
 31
0.0
  0
LINE
  5
2E0
330
20A
100
AcDbEntity
  8
0
  6
Continuous
 62
     7
100
AcDbLine
 10
841.0
 20
0.0
 30
0.0
 11
841.0
 21
594.0
 31
0.0
  0
LINE
  5
2E1
330
20A
100
AcDbEntity
  8
0
  6
Continuous
 62
     7
100
AcDbLine
 10
0.0
 20
594.0
 30
0.0
 11
841.0
 21
594.0
 31
0.0
  0
LINE
  5
2E2
330
20A
100
AcDbEntity
  8
0
  6
Continuous
 62
     7
100
AcDbLine
 10
0.0
 20
0.0
 30
0.0
 11
0.0
 21
594.0
 31
0.0
  0
LINE
  5
2E3
330
20A
100
AcDbEntity
  8
0
  6
Continuous
 62
     7
100
AcDbLine
 10
0.0
 20
587.0
 30
0.0
 11
841.0
 21
587.0
 31
0.0
  0
LINE
  5
2E4
330
20A
100
AcDbEntity
  8
0
  6
Continuous
 62
     7
100
AcDbLine
 10
0.0
 20
7.0
 30
0.0
 11
834.0
 21
7.0
 31
0.0
  0
LINE
  5
2E5
330
20A
100
AcDbEntity
  8
0
  6
Continuous
 62
     7
100
AcDbLine
 10
7.0
 20
0.0
 30
0.0
 11
7.0
 21
594.0
 31
0.0
  0
LINE
  5
2E6
330
20A
100
AcDbEntity
  8
0
  6
Continuous
 62
     7
100
AcDbLine
 10
834.0
 20
7.0
 30
0.0
 11
834.0
 21
594.0
 31
0.0
  0
LINE
  5
2E7
330
20A
100
AcDbEntity
  8
0
  6
Continuous
 62
     7
100
AcDbLine
 10
10.0
 20
584.0
 30
0.0
 11
831.0
 21
584.0
 31
0.0
  0
LINE
  5
2E8
330
20A
100
AcDbEntity
  8
0
  6
Continuous
 62
     7
100
AcDbLine
 10
10.104533
 20
9.956445
 30
0.0
 11
831.001937
 21
10.000555
 31
0.0
  0
LINE
  5
2E9
330
20A
100
AcDbEntity
  8
0
  6
Continuous
 62
     7
100
AcDbLine
 10
10.0
 20
10.0
 30
0.0
 11
10.0
 21
584.0
 31
0.0
  0
LINE
  5
2EA
330
20A
100
AcDbEntity
  8
0
  6
Continuous
 62
     7
100
AcDbLine
 10
831.0
 20
10.0
 30
0.0
 11
831.0
 21
584.0
 31
0.0
  0
LINE
  5
2EB
330
20A
100
AcDbEntity
  8
0
  6
Continuous
 62
     7
100
AcDbLine
 10
420.5
 20
594.0
 30
0.0
 11
420.5
 21
584.0
 31
0.0
  0
LINE
  5
2EC
330
20A
100
AcDbEntity
  8
0
  6
Continuous
 62
     7
100
AcDbLine
 10
420.5
 20
0.0
 30
0.0
 11
420.5
 21
10.0
 31
0.0
  0
LINE
  5
2ED
330
20A
100
AcDbEntity
  8
0
  6
Continuous
 62
     7
100
AcDbLine
 10
841.0
 20
297.0
 30
0.0
 11
831.0
 21
297.0
 31
0.0
  0
LINE
  5
2EE
330
20A
100
AcDbEntity
  8
0
  6
Continuous
 62
     7
100
AcDbLine
 10
0.0
 20
297.0
 30
0.0
 11
10.0
 21
297.0
 31
0.0
  0
LINE
  5
2EF
330
20A
100
AcDbEntity
  8
0
  6
Continuous
 62
     7
100
AcDbLine
 10
841.0
 20
420.5
 30
0.0
 11
831.032471
 21
420.5
 31
0.0
  0
LINE
  5
2F0
330
20A
100
AcDbEntity
  8
0
  6
Continuous
 62
     7
100
AcDbLine
 10
631.0
 20
0.0
 30
0.0
 11
631.0
 21
10.0
 31
0.0
  0
LINE
  5
2F1
330
20A
100
AcDbEntity
  8
0
  6
Continuous
 62
     7
100
AcDbLine
 10
834.0
 20
7.0
 30
0.0
 11
834.0
 21
0.0
 31
0.0
  0
LINE
  5
2F2
330
20A
100
AcDbEntity
  8
0
  6
Continuous
 62
     7
100
AcDbLine
 10
834.0
 20
7.0
 30
0.0
 11
841.0
 21
7.0
 31
0.0
  0
LINE
  5
2F3
330
20A
100
AcDbEntity
  8
0
  6
Continuous
 62
     7
100
AcDbLine
 10
734.0
 20
7.0
 30
0.0
 11
734.0
 21
0.0
 31
0.0
  0
LINE
  5
2F4
330
20A
100
AcDbEntity
  8
0
  6
Continuous
 62
     7
100
AcDbLine
 10
534.0
 20
7.0
 30
0.0
 11
534.0
 21
0.0
 31
0.0
  0
LINE
  5
2F5
330
20A
100
AcDbEntity
  8
0
  6
Continuous
 62
     7
100
AcDbLine
 10
434.0
 20
7.0
 30
0.0
 11
434.0
 21
0.0
 31
0.0
  0
LINE
  5
2F6
330
20A
100
AcDbEntity
  8
0
  6
Continuous
 62
     7
100
AcDbLine
 10
834.0
 20
107.0
 30
0.0
 11
841.0
 21
107.0
 31
0.0
  0
LINE
  5
2F7
330
20A
100
AcDbEntity
  8
0
  6
Continuous
 62
     7
100
AcDbLine
 10
834.0
 20
207.0
 30
0.0
 11
841.0
 21
207.0
 31
0.0
  0
LINE
  5
2F8
330
20A
100
AcDbEntity
  8
0
  6
Continuous
 62
     7
100
AcDbLine
 10
834.0
 20
307.0
 30
0.0
 11
841.0
 21
307.0
 31
0.0
  0
LINE
  5
2F9
330
20A
100
AcDbEntity
  8
0
  6
Continuous
 62
     7
100
AcDbLine
 10
631.0
 20
584.0
 30
0.0
 11
631.0
 21
594.0
 31
0.0
  0
LINE
  5
2FA
330
20A
100
AcDbEntity
  8
0
  6
Continuous
 62
     7
100
AcDbLine
 10
734.0
 20
594.0
 30
0.0
 11
734.0
 21
587.0
 31
0.0
  0
LINE
  5
2FB
330
20A
100
AcDbEntity
  8
0
  6
Continuous
 62
     7
100
AcDbLine
 10
534.0
 20
594.0
 30
0.0
 11
534.0
 21
587.0
 31
0.0
  0
LINE
  5
2FC
330
20A
100
AcDbEntity
  8
0
  6
Continuous
 62
     7
100
AcDbLine
 10
434.0
 20
594.0
 30
0.0
 11
434.0
 21
587.0
 31
0.0
  0
LINE
  5
2FD
330
20A
100
AcDbEntity
  8
0
  6
Continuous
 62
     7
100
AcDbLine
 10
334.0
 20
594.0
 30
0.0
 11
334.0
 21
587.0
 31
0.0
  0
LINE
  5
2FE
330
20A
100
AcDbEntity
  8
0
  6
Continuous
 62
     7
100
AcDbLine
 10
234.0
 20
594.0
 30
0.0
 11
234.0
 21
587.0
 31
0.0
  0
LINE
  5
2FF
330
20A
100
AcDbEntity
  8
0
  6
Continuous
 62
     7
100
AcDbLine
 10
134.0
 20
594.0
 30
0.0
 11
134.0
 21
587.0
 31
0.0
  0
LINE
  5
300
330
20A
100
AcDbEntity
  8
0
  6
Continuous
 62
     7
100
AcDbLine
 10
10.0
 20
420.5
 30
0.0
 11
0.0
 21
420.5
 31
0.0
  0
LINE
  5
301
330
20A
100
AcDbEntity
  8
0
  6
Continuous
 62
     7
100
AcDbLine
 10
0.0
 20
107.0
 30
0.0
 11
7.0
 21
107.0
 31
0.0
  0
LINE
  5
302
330
20A
100
AcDbEntity
  8
0
  6
Continuous
 62
     7
100
AcDbLine
 10
0.0
 20
207.0
 30
0.0
 11
7.0
 21
207.0
 31
0.0
  0
LINE
  5
303
330
20A
100
AcDbEntity
  8
0
  6
Continuous
 62
     7
100
AcDbLine
 10
0.0
 20
307.0
 30
0.0
 11
7.0
 21
307.0
 31
0.0
  0
LINE
  5
304
330
20A
100
AcDbEntity
  8
0
  6
Continuous
 62
     7
100
AcDbLine
 10
0.0
 20
507.0
 30
0.0
 11
7.0
 21
507.0
 31
0.0
  0
LINE
  5
305
330
20A
100
AcDbEntity
  8
0
  6
Continuous
 62
     7
100
AcDbLine
 10
334.0
 20
7.0
 30
0.0
 11
334.0
 21
0.0
 31
0.0
  0
LINE
  5
306
330
20A
100
AcDbEntity
  8
0
  6
Continuous
 62
     7
100
AcDbLine
 10
234.0
 20
7.0
 30
0.0
 11
234.0
 21
0.0
 31
0.0
  0
LINE
  5
307
330
20A
100
AcDbEntity
  8
0
  6
Continuous
 62
     7
100
AcDbLine
 10
134.0
 20
7.0
 30
0.0
 11
134.0
 21
0.0
 31
0.0
  0
LINE
  5
308
330
20A
100
AcDbEntity
  8
0
  6
Continuous
 62
     7
100
AcDbLine
 10
834.0
 20
507.0
 30
0.0
 11
841.0
 21
507.0
 31
0.0
  0
MTEXT
  5
309
330
20A
100
AcDbEntity
  8
0
  6
Continuous
 62
     2
100
AcDbMText
 10
783.154891
 20
5.35876
 30
0.0
 40
4.0
 41
3.6
 46
0.0
 71
     1
 72
     1
  1
A
  7
TEXTSTYLE_2
 73
     1
 44
0.9
  0
MTEXT
  5
30A
330
20A
100
AcDbEntity
  8
0
  6
Continuous
 62
     2
100
AcDbMText
 10
683.154891
 20
5.35876
 30
0.0
 40
4.0
 41
3.6
 46
0.0
 71
     1
 72
     1
  1
B
  7
TEXTSTYLE_2
 73
     1
 44
0.9
  0
MTEXT
  5
30B
330
20A
100
AcDbEntity
  8
0
  6
Continuous
 62
     2
100
AcDbMText
 10
583.154891
 20
5.35876
 30
0.0
 40
4.0
 41
3.6
 46
0.0
 71
     1
 72
     1
  1
C
  7
TEXTSTYLE_2
 73
     1
 44
0.9
  0
MTEXT
  5
30C
330
20A
100
AcDbEntity
  8
0
  6
Continuous
 62
     2
100
AcDbMText
 10
483.154891
 20
5.35876
 30
0.0
 40
4.0
 41
3.6
 46
0.0
 71
     1
 72
     1
  1
D
  7
TEXTSTYLE_2
 73
     1
 44
0.9
  0
MTEXT
  5
30D
330
20A
100
AcDbEntity
  8
0
  6
Continuous
 62
     2
100
AcDbMText
 10
383.154891
 20
5.35876
 30
0.0
 40
4.0
 41
3.6
 46
0.0
 71
     1
 72
     1
  1
E
  7
TEXTSTYLE_2
 73
     1
 44
0.9
  0
MTEXT
  5
30E
330
20A
100
AcDbEntity
  8
0
  6
Continuous
 62
     2
100
AcDbMText
 10
835.646722
 20
60.626871
 30
0.0
 40
4.0
 41
3.428571
 46
0.0
 71
     1
 72
     1
  1
1
  7
TEXTSTYLE_3
 73
     1
 44
0.9
  0
MTEXT
  5
30F
330
20A
100
AcDbEntity
  8
0
  6
Continuous
 62
     2
100
AcDbMText
 10
835.646722
 20
160.626871
 30
0.0
 40
4.0
 41
4.714286
 46
0.0
 71
     1
 72
     1
  1
2
  7
TEXTSTYLE_3
 73
     1
 44
0.9
  0
MTEXT
  5
310
330
20A
100
AcDbEntity
  8
0
  6
Continuous
 62
     2
100
AcDbMText
 10
835.646722
 20
260.626871
 30
0.0
 40
4.0
 41
4.285714
 46
0.0
 71
     1
 72
     1
  1
3
  7
TEXTSTYLE_3
 73
     1
 44
0.9
  0
MTEXT
  5
311
330
20A
100
AcDbEntity
  8
0
  6
Continuous
 62
     2
100
AcDbMText
 10
835.646722
 20
360.626871
 30
0.0
 40
4.0
 41
4.714286
 46
0.0
 71
     1
 72
     1
  1
4
  7
TEXTSTYLE_3
 73
     1
 44
0.9
  0
MTEXT
  5
312
330
20A
100
AcDbEntity
  8
0
  6
Continuous
 62
     2
100
AcDbMText
 10
835.646722
 20
460.626871
 30
0.0
 40
4.0
 41
4.285714
 46
0.0
 71
     1
 72
     1
  1
5
  7
TEXTSTYLE_3
 73
     1
 44
0.9
  0
MTEXT
  5
313
330
20A
100
AcDbEntity
  8
0
  6
Continuous
 62
     2
100
AcDbMText
 10
783.154891
 20
592.35876
 30
0.0
 40
4.0
 41
3.6
 46
0.0
 71
     1
 72
     1
  1
A
  7
TEXTSTYLE_2
 73
     1
 44
0.9
  0
MTEXT
  5
314
330
20A
100
AcDbEntity
  8
0
  6
Continuous
 62
     2
100
AcDbMText
 10
683.154891
 20
592.35876
 30
0.0
 40
4.0
 41
3.6
 46
0.0
 71
     1
 72
     1
  1
B
  7
TEXTSTYLE_2
 73
     1
 44
0.9
  0
MTEXT
  5
315
330
20A
100
AcDbEntity
  8
0
  6
Continuous
 62
     2
100
AcDbMText
 10
583.154891
 20
592.35876
 30
0.0
 40
4.0
 41
3.6
 46
0.0
 71
     1
 72
     1
  1
C
  7
TEXTSTYLE_2
 73
     1
 44
0.9
  0
MTEXT
  5
316
330
20A
100
AcDbEntity
  8
0
  6
Continuous
 62
     2
100
AcDbMText
 10
483.154891
 20
592.35876
 30
0.0
 40
4.0
 41
3.6
 46
0.0
 71
     1
 72
     1
  1
D
  7
TEXTSTYLE_2
 73
     1
 44
0.9
  0
MTEXT
  5
317
330
20A
100
AcDbEntity
  8
0
  6
Continuous
 62
     2
100
AcDbMText
 10
383.154891
 20
592.35876
 30
0.0
 40
4.0
 41
3.6
 46
0.0
 71
     1
 72
     1
  1
E
  7
TEXTSTYLE_2
 73
     1
 44
0.9
  0
MTEXT
  5
318
330
20A
100
AcDbEntity
  8
0
  6
Continuous
 62
     2
100
AcDbMText
 10
283.154891
 20
592.35876
 30
0.0
 40
4.0
 41
3.6
 46
0.0
 71
     1
 72
     1
  1
F
  7
TEXTSTYLE_2
 73
     1
 44
0.9
  0
MTEXT
  5
319
330
20A
100
AcDbEntity
  8
0
  6
Continuous
 62
     2
100
AcDbMText
 10
183.154891
 20
592.35876
 30
0.0
 40
4.0
 41
3.6
 46
0.0
 71
     1
 72
     1
  1
G
  7
TEXTSTYLE_2
 73
     1
 44
0.9
  0
MTEXT
  5
31A
330
20A
100
AcDbEntity
  8
0
  6
Continuous
 62
     2
100
AcDbMText
 10
59.577736
 20
592.35876
 30
0.0
 40
4.0
 41
3.6
 46
0.0
 71
     1
 72
     1
  1
H
  7
TEXTSTYLE_2
 73
     1
 44
0.9
  0
MTEXT
  5
31B
330
20A
100
AcDbEntity
  8
0
  6
Continuous
 62
     2
100
AcDbMText
 10
1.646722
 20
60.626871
 30
0.0
 40
4.0
 41
3.428571
 46
0.0
 71
     1
 72
     1
  1
1
  7
TEXTSTYLE_3
 73
     1
 44
0.9
  0
MTEXT
  5
31C
330
20A
100
AcDbEntity
  8
0
  6
Continuous
 62
     2
100
AcDbMText
 10
1.646722
 20
160.626871
 30
0.0
 40
4.0
 41
4.714286
 46
0.0
 71
     1
 72
     1
  1
2
  7
TEXTSTYLE_3
 73
     1
 44
0.9
  0
MTEXT
  5
31D
330
20A
100
AcDbEntity
  8
0
  6
Continuous
 62
     2
100
AcDbMText
 10
1.646722
 20
260.626871
 30
0.0
 40
4.0
 41
4.285714
 46
0.0
 71
     1
 72
     1
  1
3
  7
TEXTSTYLE_3
 73
     1
 44
0.9
  0
MTEXT
  5
31E
330
20A
100
AcDbEntity
  8
0
  6
Continuous
 62
     2
100
AcDbMText
 10
1.646722
 20
360.626871
 30
0.0
 40
4.0
 41
4.714286
 46
0.0
 71
     1
 72
     1
  1
4
  7
TEXTSTYLE_3
 73
     1
 44
0.9
  0
MTEXT
  5
31F
330
20A
100
AcDbEntity
  8
0
  6
Continuous
 62
     2
100
AcDbMText
 10
1.646722
 20
460.626871
 30
0.0
 40
4.0
 41
4.285714
 46
0.0
 71
     1
 72
     1
  1
5
  7
TEXTSTYLE_3
 73
     1
 44
0.9
  0
MTEXT
  5
320
330
20A
100
AcDbEntity
  8
0
  6
Continuous
 62
     2
100
AcDbMText
 10
1.646722
 20
560.626871
 30
0.0
 40
4.0
 41
4.714286
 46
0.0
 71
     1
 72
     1
  1
6
  7
TEXTSTYLE_3
 73
     1
 44
0.9
  0
MTEXT
  5
321
330
20A
100
AcDbEntity
  8
0
  6
Continuous
 62
     2
100
AcDbMText
 10
283.154891
 20
5.35876
 30
0.0
 40
4.0
 41
3.6
 46
0.0
 71
     1
 72
     1
  1
F
  7
TEXTSTYLE_2
 73
     1
 44
0.9
  0
MTEXT
  5
322
330
20A
100
AcDbEntity
  8
0
  6
Continuous
 62
     2
100
AcDbMText
 10
183.154891
 20
5.35876
 30
0.0
 40
4.0
 41
3.6
 46
0.0
 71
     1
 72
     1
  1
G
  7
TEXTSTYLE_2
 73
     1
 44
0.9
  0
MTEXT
  5
323
330
20A
100
AcDbEntity
  8
0
  6
Continuous
 62
     2
100
AcDbMText
 10
59.577736
 20
5.35876
 30
0.0
 40
4.0
 41
3.6
 46
0.0
 71
     1
 72
     1
  1
H
  7
TEXTSTYLE_2
 73
     1
 44
0.9
  0
MTEXT
  5
324
330
20A
100
AcDbEntity
  8
0
  6
Continuous
 62
     2
100
AcDbMText
 10
835.646722
 20
560.626871
 30
0.0
 40
4.0
 41
4.714286
 46
0.0
 71
     1
 72
     1
  1
6
  7
TEXTSTYLE_3
 73
     1
 44
0.9
  0
ARC
  5
325
330
20A
100
AcDbEntity
  8
9_SOLID
  6
CENTER
 62
     2
100
AcDbCircle
 10
266.978327
 20
336.860383
 30
0.0
 40
110.0
100
AcDbArc
 50
0.0
 51
180.0
  0
ARC
  5
326
330
20A
100
AcDbEntity
  8
9_SOLID
  6
CENTER
 62
     2
100
AcDbCircle
 10
266.978327
 20
336.860383
 30
0.0
 40
110.0
100
AcDbArc
 50
180.0
 51
360.0
  0
LINE
  5
327
330
20A
100
AcDbEntity
  8
9_SOLID
  6
CENTER
 62
     2
100
AcDbLine
 10
419.660552
 20
273.617335
 30
0.0
 11
114.296102
 21
400.103431
 31
0.0
  0
LINE
  5
328
330
20A
100
AcDbEntity
  8
9_SOLID
  6
CENTER
 62
     2
100
AcDbLine
 10
330.221375
 20
184.178158
 30
0.0
 11
203.735278
 21
489.542608
 31
0.0
  0
LINE
  5
329
330
20A
100
AcDbEntity
  8
9_SOLID
  6
CENTER
 62
     2
100
AcDbLine
 10
203.735278
 20
184.178158
 30
0.0
 11
330.221375
 21
489.542608
 31
0.0
  0
LINE
  5
32A
330
20A
100
AcDbEntity
  8
9_SOLID
  6
CENTER
 62
     2
100
AcDbLine
 10
114.296102
 20
273.617335
 30
0.0
 11
419.660552
 21
400.103431
 31
0.0
  0
ARC
  5
32B
330
20A
100
AcDbEntity
  8
0
  6
Continuous
 62
     2
100
AcDbCircle
 10
165.351578
 20
378.955561
 30
0.0
 40
3.0
100
AcDbArc
 50
270.0
 51
360.0
  0
ARC
  5
32C
330
20A
100
AcDbEntity
  8
0
  6
Continuous
 62
     2
100
AcDbCircle
 10
165.351578
 20
378.955561
 30
0.0
 40
3.0
100
AcDbArc
 50
180.0
 51
270.0
  0
ARC
  5
32D
330
20A
100
AcDbEntity
  8
0
  6
Continuous
 62
     2
100
AcDbCircle
 10
165.351578
 20
378.955561
 30
0.0
 40
3.0
100
AcDbArc
 50
90.0
 51
180.0
  0
ARC
  5
32E
330
20A
100
AcDbEntity
  8
0
  6
Continuous
 62
     2
100
AcDbCircle
 10
165.351578
 20
378.955561
 30
0.0
 40
3.0
100
AcDbArc
 50
0.0
 51
90.0
  0
ARC
  5
32F
330
20A
100
AcDbEntity
  8
0
  6
Continuous
 62
     2
100
AcDbCircle
 10
368.605075
 20
294.765206
 30
0.0
 40
3.0
100
AcDbArc
 50
270.0
 51
360.0
  0
ARC
  5
330
330
20A
100
AcDbEntity
  8
0
  6
Continuous
 62
     2
100
AcDbCircle
 10
368.605075
 20
294.765206
 30
0.0
 40
3.0
100
AcDbArc
 50
180.0
 51
270.0
  0
ARC
  5
331
330
20A
100
AcDbEntity
  8
0
  6
Continuous
 62
     2
100
AcDbCircle
 10
368.605075
 20
294.765206
 30
0.0
 40
3.0
100
AcDbArc
 50
90.0
 51
180.0
  0
ARC
  5
332
330
20A
100
AcDbEntity
  8
0
  6
Continuous
 62
     2
100
AcDbCircle
 10
368.605075
 20
294.765206
 30
0.0
 40
3.0
100
AcDbArc
 50
0.0
 51
90.0
  0
ARC
  5
333
330
20A
100
AcDbEntity
  8
0
  6
Continuous
 62
     2
100
AcDbCircle
 10
224.883149
 20
235.233634
 30
0.0
 40
3.0
100
AcDbArc
 50
270.0
 51
360.0
  0
ARC
  5
334
330
20A
100
AcDbEntity
  8
0
  6
Continuous
 62
     2
100
AcDbCircle
 10
224.883149
 20
235.233634
 30
0.0
 40
3.0
100
AcDbArc
 50
180.0
 51
270.0
  0
ARC
  5
335
330
20A
100
AcDbEntity
  8
0
  6
Continuous
 62
     2
100
AcDbCircle
 10
224.883149
 20
235.233634
 30
0.0
 40
3.0
100
AcDbArc
 50
90.0
 51
180.0
  0
ARC
  5
336
330
20A
100
AcDbEntity
  8
0
  6
Continuous
 62
     2
100
AcDbCircle
 10
224.883149
 20
235.233634
 30
0.0
 40
3.0
100
AcDbArc
 50
0.0
 51
90.0
  0
ARC
  5
337
330
20A
100
AcDbEntity
  8
0
  6
Continuous
 62
     2
100
AcDbCircle
 10
156.978327
 20
336.860383
 30
0.0
 40
3.475
100
AcDbArc
 50
0.0
 51
180.0
  0
ARC
  5
338
330
20A
100
AcDbEntity
  8
0
  6
Continuous
 62
     2
100
AcDbCircle
 10
156.978327
 20
336.860383
 30
0.0
 40
3.475
100
AcDbArc
 50
180.0
 51
360.0
  0
ARC
  5
339
330
20A
100
AcDbEntity
  8
0
  6
Continuous
 62
     2
100
AcDbCircle
 10
376.978327
 20
336.860383
 30
0.0
 40
3.475
100
AcDbArc
 50
0.0
 51
180.0
  0
ARC
  5
33A
330
20A
100
AcDbEntity
  8
0
  6
Continuous
 62
     2
100
AcDbCircle
 10
376.978327
 20
336.860383
 30
0.0
 40
3.475
100
AcDbArc
 50
180.0
 51
360.0
  0
ARC
  5
33B
330
20A
100
AcDbEntity
  8
0
  6
Continuous
 62
     6
100
AcDbCircle
 10
161.494279
 20
342.934467
 30
0.0
 40
4.9981035656
100
AcDbArc
 50
0.0
 51
58.979426
  0
ARC
  5
33C
330
20A
100
AcDbEntity
  8
0
  6
Continuous
 62
     6
100
AcDbCircle
 10
166.131414
 20
350.645683
 30
0.0
 40
4.0
100
AcDbArc
 50
180.0
 51
238.979426
  0
LINE
  5
33D
330
20A
100
AcDbEntity
  8
0
  6
Continuous
 62
     6
100
AcDbLine
 10
162.131414
 20
350.645683
 30
0.0
 11
162.131414
 21
362.360383
 31
0.0
  0
ARC
  5
33E
330
20A
100
AcDbEntity
  8
0
  6
Continuous
 62
     2
100
AcDbCircle
 10
165.631414
 20
362.360383
 30
0.0
 40
3.5
100
AcDbArc
 50
90.0
 51
180.0
  0
LINE
  5
33F
330
20A
100
AcDbEntity
  8
0
  6
Continuous
 62
     2
100
AcDbLine
 10
165.631414
 20
365.860383
 30
0.0
 11
167.182285
 21
365.860383
 31
0.0
  0
ARC
  5
340
330
20A
100
AcDbEntity
  8
0
  6
Continuous
 62
     2
100
AcDbCircle
 10
167.182285
 20
367.860383
 30
0.0
 40
2.0
100
AcDbArc
 50
270.0
 51
342.743452
  0
ARC
  5
341
330
20A
100
AcDbEntity
  8
0
  6
Continuous
 62
     6
100
AcDbCircle
 10
266.978327
 20
336.860383
 30
0.0
 40
102.5
100
AcDbArc
 50
17.256548
 51
162.743452
  0
ARC
  5
342
330
20A
100
AcDbEntity
  8
0
  6
Continuous
 62
     2
100
AcDbCircle
 10
366.774369
 20
367.860383
 30
0.0
 40
2.0
100
AcDbArc
 50
197.256548
 51
270.0
  0
LINE
  5
343
330
20A
100
AcDbEntity
  8
0
  6
Continuous
 62
     2
100
AcDbLine
 10
366.774369
 20
365.860383
 30
0.0
 11
368.325239
 21
365.860383
 31
0.0
  0
ARC
  5
344
330
20A
100
AcDbEntity
  8
0
  6
Continuous
 62
     2
100
AcDbCircle
 10
368.325239
 20
362.360383
 30
0.0
 40
3.5
100
AcDbArc
 50
0.0
 51
90.0
  0
LINE
  5
345
330
20A
100
AcDbEntity
  8
0
  6
Continuous
 62
     6
100
AcDbLine
 10
371.825239
 20
362.360383
 30
0.0
 11
371.825239
 21
350.64566
 31
0.0
  0
ARC
  5
346
330
20A
100
AcDbEntity
  8
0
  6
Continuous
 62
     6
100
AcDbCircle
 10
367.825239
 20
350.64566
 30
0.0
 40
4.0
100
AcDbArc
 50
301.020601
 51
360.0
  0
ARC
  5
347
330
20A
100
AcDbEntity
  8
0
  6
Continuous
 62
     6
100
AcDbCircle
 10
372.46238
 20
342.934443
 30
0.0
 40
4.9981082112
100
AcDbArc
 50
121.020601
 51
180.0
  0
ARC
  5
348
330
20A
100
AcDbEntity
  8
0
  6
Continuous
 62
     6
100
AcDbCircle
 10
372.46238
 20
342.934443
 30
0.0
 40
4.9981082112
100
AcDbArc
 50
180.0
 51
183.295608
  0
ARC
  5
349
330
20A
100
AcDbEntity
  8
0
  6
Continuous
 62
     6
100
AcDbCircle
 10
266.978327
 20
336.860383
 30
0.0
 40
100.6606812632
100
AcDbArc
 50
0.0
 51
3.295608
  0
ARC
  5
34A
330
20A
100
AcDbEntity
  8
0
  6
Continuous
 62
     6
100
AcDbCircle
 10
266.978327
 20
336.860383
 30
0.0
 40
100.6606812632
100
AcDbArc
 50
356.704392
 51
360.0
  0
ARC
  5
34B
330
20A
100
AcDbEntity
  8
0
  6
Continuous
 62
     6
100
AcDbCircle
 10
372.46238
 20
330.786323
 30
0.0
 40
4.9981082204
100
AcDbArc
 50
176.704392
 51
180.0
  0
ARC
  5
34C
330
20A
100
AcDbEntity
  8
0
  6
Continuous
 62
     6
100
AcDbCircle
 10
372.46238
 20
330.786323
 30
0.0
 40
4.9981082204
100
AcDbArc
 50
180.0
 51
238.979399
  0
ARC
  5
34D
330
20A
100
AcDbEntity
  8
0
  6
Continuous
 62
     6
100
AcDbCircle
 10
367.825239
 20
323.075106
 30
0.0
 40
4.0
100
AcDbArc
 50
0.0
 51
58.979399
  0
LINE
  5
34E
330
20A
100
AcDbEntity
  8
0
  6
Continuous
 62
     6
100
AcDbLine
 10
371.825239
 20
323.075106
 30
0.0
 11
371.825239
 21
311.360383
 31
0.0
  0
ARC
  5
34F
330
20A
100
AcDbEntity
  8
0
  6
Continuous
 62
     2
100
AcDbCircle
 10
368.325239
 20
311.360383
 30
0.0
 40
3.5
100
AcDbArc
 50
270.0
 51
360.0
  0
LINE
  5
350
330
20A
100
AcDbEntity
  8
0
  6
Continuous
 62
     2
100
AcDbLine
 10
368.325239
 20
307.860383
 30
0.0
 11
366.774369
 21
307.860383
 31
0.0
  0
ARC
  5
351
330
20A
100
AcDbEntity
  8
0
  6
Continuous
 62
     2
100
AcDbCircle
 10
366.774369
 20
305.860383
 30
0.0
 40
2.0
100
AcDbArc
 50
90.0
 51
162.743452
  0
ARC
  5
352
330
20A
100
AcDbEntity
  8
0
  6
Continuous
 62
     6
100
AcDbCircle
 10
266.978327
 20
336.860383
 30
0.0
 40
102.5
100
AcDbArc
 50
197.256548
 51
342.743452
  0
ARC
  5
353
330
20A
100
AcDbEntity
  8
0
  6
Continuous
 62
     2
100
AcDbCircle
 10
167.182285
 20
305.860383
 30
0.0
 40
2.0
100
AcDbArc
 50
17.256548
 51
90.0
  0
LINE
  5
354
330
20A
100
AcDbEntity
  8
0
  6
Continuous
 62
     2
100
AcDbLine
 10
167.182285
 20
307.860383
 30
0.0
 11
165.631414
 21
307.860383
 31
0.0
  0
ARC
  5
355
330
20A
100
AcDbEntity
  8
0
  6
Continuous
 62
     2
100
AcDbCircle
 10
165.631414
 20
311.360383
 30
0.0
 40
3.5
100
AcDbArc
 50
180.0
 51
270.0
  0
LINE
  5
356
330
20A
100
AcDbEntity
  8
0
  6
Continuous
 62
     6
100
AcDbLine
 10
162.131414
 20
311.360383
 30
0.0
 11
162.131414
 21
323.075083
 31
0.0
  0
ARC
  5
357
330
20A
100
AcDbEntity
  8
0
  6
Continuous
 62
     6
100
AcDbCircle
 10
166.131414
 20
323.075083
 30
0.0
 40
4.0
100
AcDbArc
 50
121.020573
 51
180.0
  0
ARC
  5
358
330
20A
100
AcDbEntity
  8
0
  6
Continuous
 62
     6
100
AcDbCircle
 10
161.494279
 20
330.786299
 30
0.0
 40
4.9981035532
100
AcDbArc
 50
301.020573
 51
360.0
  0
ARC
  5
359
330
20A
100
AcDbEntity
  8
0
  6
Continuous
 62
     6
100
AcDbCircle
 10
161.494279
 20
330.786299
 30
0.0
 40
4.9981035532
100
AcDbArc
 50
0.0
 51
3.295622
  0
ARC
  5
35A
330
20A
100
AcDbEntity
  8
0
  6
Continuous
 62
     6
100
AcDbCircle
 10
266.978327
 20
336.860383
 30
0.0
 40
100.6606812632
100
AcDbArc
 50
180.0
 51
183.295622
  0
ARC
  5
35B
330
20A
100
AcDbEntity
  8
0
  6
Continuous
 62
     6
100
AcDbCircle
 10
266.978327
 20
336.860383
 30
0.0
 40
100.6606812632
100
AcDbArc
 50
176.704378
 51
180.0
  0
ARC
  5
35C
330
20A
100
AcDbEntity
  8
0
  6
Continuous
 62
     6
100
AcDbCircle
 10
161.494279
 20
342.934467
 30
0.0
 40
4.9981035656
100
AcDbArc
 50
356.704378
 51
360.0
  0
ARC
  5
35D
330
20A
100
AcDbEntity
  8
0
  6
Continuous
 62
     2
100
AcDbCircle
 10
309.073504
 20
235.233634
 30
0.0
 40
3.0
100
AcDbArc
 50
270.0
 51
360.0
  0
ARC
  5
35E
330
20A
100
AcDbEntity
  8
0
  6
Continuous
 62
     2
100
AcDbCircle
 10
309.073504
 20
235.233634
 30
0.0
 40
3.0
100
AcDbArc
 50
180.0
 51
270.0
  0
ARC
  5
35F
330
20A
100
AcDbEntity
  8
0
  6
Continuous
 62
     2
100
AcDbCircle
 10
309.073504
 20
235.233634
 30
0.0
 40
3.0
100
AcDbArc
 50
90.0
 51
180.0
  0
ARC
  5
360
330
20A
100
AcDbEntity
  8
0
  6
Continuous
 62
     2
100
AcDbCircle
 10
309.073504
 20
235.233634
 30
0.0
 40
3.0
100
AcDbArc
 50
0.0
 51
90.0
  0
ARC
  5
361
330
20A
100
AcDbEntity
  8
0
  6
Continuous
 62
     2
100
AcDbCircle
 10
368.605075
 20
378.955561
 30
0.0
 40
3.0
100
AcDbArc
 50
180.0
 51
360.0
  0
ARC
  5
362
330
20A
100
AcDbEntity
  8
0
  6
Continuous
 62
     2
100
AcDbCircle
 10
368.605075
 20
378.955561
 30
0.0
 40
3.0
100
AcDbArc
 50
90.0
 51
180.0
  0
ARC
  5
363
330
20A
100
AcDbEntity
  8
0
  6
Continuous
 62
     6
100
AcDbCircle
 10
165.347539
 20
345.531193
 30
0.0
 40
2.0
100
AcDbArc
 50
355.123519
 51
84.0
  0
ARC
  5
364
330
20A
100
AcDbEntity
  8
0
  6
Continuous
 62
     6
100
AcDbCircle
 10
266.978327
 20
336.860383
 30
0.0
 40
100.0
100
AcDbArc
 50
175.123519
 51
184.876481
  0
ARC
  5
365
330
20A
100
AcDbEntity
  8
0
  6
Continuous
 62
     6
100
AcDbCircle
 10
165.347539
 20
328.189573
 30
0.0
 40
2.0
100
AcDbArc
 50
276.0
 51
4.876481
  0
LINE
  5
366
330
20A
100
AcDbEntity
  8
0
  6
Continuous
 62
     2
100
AcDbLine
 10
163.402566
 20
325.974132
 30
0.0
 11
163.40271
 21
325.974147
 31
0.0
  0
LINE
  5
367
330
20A
100
AcDbEntity
  8
0
  6
Continuous
 62
     2
100
AcDbLine
 10
163.40271
 20
325.974147
 30
0.0
 11
165.556596
 21
326.20053
 31
0.0
  0
ARC
  5
368
330
20A
100
AcDbEntity
  8
0
  6
Continuous
 62
     6
100
AcDbCircle
 10
266.978327
 20
336.860383
 30
0.0
 40
107.5
100
AcDbArc
 50
192.717777
 51
194.354919
  0
ARC
  5
369
330
20A
100
AcDbEntity
  8
0
  6
Continuous
 62
     2
100
AcDbCircle
 10
165.74097
 20
310.951936
 30
0.0
 40
3.0
100
AcDbArc
 50
194.354919
 51
286.0
  0
LINE
  5
36A
330
20A
100
AcDbEntity
  8
0
  6
Continuous
 62
     6
100
AcDbLine
 10
168.948484
 20
308.750778
 30
0.0
 11
166.567882
 21
308.068151
 31
0.0
  0
ARC
  5
36B
330
20A
100
AcDbEntity
  8
0
  6
Continuous
 62
     6
100
AcDbCircle
 10
169.499758
 20
306.828255
 30
0.0
 40
2.0
100
AcDbArc
 50
17.123519
 51
106.0
  0
ARC
  5
36C
330
20A
100
AcDbEntity
  8
0
  6
Continuous
 62
     6
100
AcDbCircle
 10
266.978327
 20
336.860383
 30
0.0
 40
100.0
100
AcDbArc
 50
197.123519
 51
342.876481
  0
ARC
  5
36D
330
20A
100
AcDbEntity
  8
0
  6
Continuous
 62
     6
100
AcDbCircle
 10
364.456895
 20
306.828255
 30
0.0
 40
2.0
100
AcDbArc
 50
74.0
 51
162.876481
  0
LINE
  5
36E
330
20A
100
AcDbEntity
  8
0
  6
Continuous
 62
     6
100
AcDbLine
 10
367.388771
 20
308.068151
 30
0.0
 11
365.00817
 21
308.750778
 31
0.0
  0
ARC
  5
36F
330
20A
100
AcDbEntity
  8
0
  6
Continuous
 62
     2
100
AcDbCircle
 10
368.215683
 20
310.951936
 30
0.0
 40
3.0
100
AcDbArc
 50
254.0
 51
345.645081
  0
ARC
  5
370
330
20A
100
AcDbEntity
  8
0
  6
Continuous
 62
     6
100
AcDbCircle
 10
266.978327
 20
336.860383
 30
0.0
 40
107.5
100
AcDbArc
 50
345.645081
 51
347.282223
  0
LINE
  5
371
330
20A
100
AcDbEntity
  8
0
  6
Continuous
 62
     2
100
AcDbLine
 10
368.400058
 20
326.20053
 30
0.0
 11
370.553976
 21
325.974144
 31
0.0
  0
LINE
  5
372
330
20A
100
AcDbEntity
  8
0
  6
Continuous
 62
     2
100
AcDbLine
 10
370.553976
 20
325.974144
 30
0.0
 11
370.55412
 21
325.974129
 31
0.0
  0
ARC
  5
373
330
20A
100
AcDbEntity
  8
0
  6
Continuous
 62
     6
100
AcDbCircle
 10
368.609115
 20
328.189573
 30
0.0
 40
2.0
100
AcDbArc
 50
175.123519
 51
264.0
  0
ARC
  5
374
330
20A
100
AcDbEntity
  8
0
  6
Continuous
 62
     6
100
AcDbCircle
 10
266.978327
 20
336.860383
 30
0.0
 40
100.0
100
AcDbArc
 50
355.123519
 51
4.876481
  0
ARC
  5
375
330
20A
100
AcDbEntity
  8
0
  6
Continuous
 62
     6
100
AcDbCircle
 10
368.609115
 20
345.531193
 30
0.0
 40
2.0
100
AcDbArc
 50
96.0
 51
184.876481
  0
LINE
  5
376
330
20A
100
AcDbEntity
  8
0
  6
Continuous
 62
     2
100
AcDbLine
 10
370.55412
 20
347.746638
 30
0.0
 11
370.553976
 21
347.746623
 31
0.0
  0
LINE
  5
377
330
20A
100
AcDbEntity
  8
0
  6
Continuous
 62
     2
100
AcDbLine
 10
370.553976
 20
347.746623
 30
0.0
 11
368.400058
 21
347.520237
 31
0.0
  0
ARC
  5
378
330
20A
100
AcDbEntity
  8
0
  6
Continuous
 62
     6
100
AcDbCircle
 10
266.978327
 20
336.860383
 30
0.0
 40
107.5
100
AcDbArc
 50
12.717777
 51
14.354919
  0
ARC
  5
379
330
20A
100
AcDbEntity
  8
0
  6
Continuous
 62
     2
100
AcDbCircle
 10
368.215683
 20
362.76883
 30
0.0
 40
3.0
100
AcDbArc
 50
14.354919
 51
106.0
  0
LINE
  5
37A
330
20A
100
AcDbEntity
  8
0
  6
Continuous
 62
     6
100
AcDbLine
 10
365.00817
 20
364.969988
 30
0.0
 11
367.388771
 21
365.652615
 31
0.0
  0
ARC
  5
37B
330
20A
100
AcDbEntity
  8
0
  6
Continuous
 62
     6
100
AcDbCircle
 10
364.456895
 20
366.892512
 30
0.0
 40
2.0
100
AcDbArc
 50
197.123519
 51
286.0
  0
ARC
  5
37C
330
20A
100
AcDbEntity
  8
0
  6
Continuous
 62
     6
100
AcDbCircle
 10
266.978327
 20
336.860383
 30
0.0
 40
100.0
100
AcDbArc
 50
17.123519
 51
162.876481
  0
ARC
  5
37D
330
20A
100
AcDbEntity
  8
0
  6
Continuous
 62
     6
100
AcDbCircle
 10
169.499758
 20
366.892512
 30
0.0
 40
2.0
100
AcDbArc
 50
254.0
 51
342.876481
  0
LINE
  5
37E
330
20A
100
AcDbEntity
  8
0
  6
Continuous
 62
     6
100
AcDbLine
 10
166.567882
 20
365.652615
 30
0.0
 11
168.948484
 21
364.969988
 31
0.0
  0
ARC
  5
37F
330
20A
100
AcDbEntity
  8
0
  6
Continuous
 62
     2
100
AcDbCircle
 10
165.74097
 20
362.76883
 30
0.0
 40
3.0
100
AcDbArc
 50
74.0
 51
165.645081
  0
ARC
  5
380
330
20A
100
AcDbEntity
  8
0
  6
Continuous
 62
     6
100
AcDbCircle
 10
266.978327
 20
336.860383
 30
0.0
 40
107.5
100
AcDbArc
 50
165.645081
 51
167.282223
  0
LINE
  5
381
330
20A
100
AcDbEntity
  8
0
  6
Continuous
 62
     2
100
AcDbLine
 10
165.556596
 20
347.520237
 30
0.0
 11
163.40271
 21
347.746619
 31
0.0
  0
LINE
  5
382
330
20A
100
AcDbEntity
  8
0
  6
Continuous
 62
     2
100
AcDbLine
 10
163.40271
 20
347.746619
 30
0.0
 11
163.402566
 21
347.746634
 31
0.0
  0
ARC
  5
383
330
20A
100
AcDbEntity
  8
0
  6
Continuous
 62
     2
100
AcDbCircle
 10
368.605075
 20
378.955561
 30
0.0
 40
3.0
100
AcDbArc
 50
0.0
 51
90.0
  0
ARC
  5
384
330
20A
100
AcDbEntity
  8
0
  6
Continuous
 62
     2
100
AcDbCircle
 10
309.073504
 20
438.487132
 30
0.0
 40
3.0
100
AcDbArc
 50
180.0
 51
360.0
  0
ARC
  5
385
330
20A
100
AcDbEntity
  8
0
  6
Continuous
 62
     2
100
AcDbCircle
 10
309.073504
 20
438.487132
 30
0.0
 40
3.0
100
AcDbArc
 50
90.0
 51
180.0
  0
ARC
  5
386
330
20A
100
AcDbEntity
  8
0
  6
Continuous
 62
     2
100
AcDbCircle
 10
309.073504
 20
438.487132
 30
0.0
 40
3.0
100
AcDbArc
 50
0.0
 51
90.0
  0
ARC
  5
387
330
20A
100
AcDbEntity
  8
0
  6
Continuous
 62
     2
100
AcDbCircle
 10
224.883149
 20
438.487132
 30
0.0
 40
3.0
100
AcDbArc
 50
270.0
 51
360.0
  0
ARC
  5
388
330
20A
100
AcDbEntity
  8
0
  6
Continuous
 62
     2
100
AcDbCircle
 10
224.883149
 20
438.487132
 30
0.0
 40
3.0
100
AcDbArc
 50
180.0
 51
270.0
  0
ARC
  5
389
330
20A
100
AcDbEntity
  8
0
  6
Continuous
 62
     2
100
AcDbCircle
 10
224.883149
 20
438.487132
 30
0.0
 40
3.0
100
AcDbArc
 50
90.0
 51
180.0
  0
ARC
  5
38A
330
20A
100
AcDbEntity
  8
0
  6
Continuous
 62
     2
100
AcDbCircle
 10
224.883149
 20
438.487132
 30
0.0
 40
3.0
100
AcDbArc
 50
0.0
 51
90.0
  0
ARC
  5
38B
330
20A
100
AcDbEntity
  8
0
  6
Continuous
 62
     2
100
AcDbCircle
 10
165.351578
 20
294.765206
 30
0.0
 40
3.0
100
AcDbArc
 50
180.0
 51
360.0
  0
ARC
  5
38C
330
20A
100
AcDbEntity
  8
0
  6
Continuous
 62
     2
100
AcDbCircle
 10
165.351578
 20
294.765206
 30
0.0
 40
3.0
100
AcDbArc
 50
90.0
 51
180.0
  0
ARC
  5
38D
330
20A
100
AcDbEntity
  8
0
  6
Continuous
 62
     2
100
AcDbCircle
 10
165.351578
 20
294.765206
 30
0.0
 40
3.0
100
AcDbArc
 50
0.0
 51
90.0
  0
ARC
  5
38E
330
20A
100
AcDbEntity
  8
0
  6
Continuous
 62
     2
100
AcDbCircle
 10
161.494279
 20
342.934467
 30
0.0
 40
4.9981035656
100
AcDbArc
 50
44.230653
 51
58.979426
  0
ARC
  5
38F
330
20A
100
AcDbEntity
  8
0
  6
Continuous
 62
     2
100
AcDbCircle
 10
161.494279
 20
342.934467
 30
0.0
 40
4.9981035656
100
AcDbArc
 50
29.489713
 51
44.230653
  0
ARC
  5
390
330
20A
100
AcDbEntity
  8
0
  6
Continuous
 62
     2
100
AcDbCircle
 10
161.494279
 20
342.934467
 30
0.0
 40
4.9981035656
100
AcDbArc
 50
14.748774
 51
29.489713
  0
ARC
  5
391
330
20A
100
AcDbEntity
  8
0
  6
Continuous
 62
     2
100
AcDbCircle
 10
161.494279
 20
342.934467
 30
0.0
 40
4.9981035656
100
AcDbArc
 50
0.0
 51
14.748774
  0
ARC
  5
392
330
20A
100
AcDbEntity
  8
0
  6
Continuous
 62
     6
100
AcDbCircle
 10
266.978327
 20
336.860383
 30
0.0
 40
125.1263499264
100
AcDbArc
 50
180.0
 51
360.0
  0
ARC
  5
393
330
20A
100
AcDbEntity
  8
0
  6
Continuous
 62
     6
100
AcDbCircle
 10
266.978327
 20
336.860383
 30
0.0
 40
125.1263499264
100
AcDbArc
 50
0.0
 51
180.0
  0
ARC
  5
394
330
20A
100
AcDbEntity
  8
0
  6
Continuous
 62
     2
100
AcDbCircle
 10
372.46238
 20
342.934443
 30
0.0
 40
4.9981082112
100
AcDbArc
 50
165.251233
 51
180.0
  0
ARC
  5
395
330
20A
100
AcDbEntity
  8
0
  6
Continuous
 62
     2
100
AcDbCircle
 10
372.46238
 20
342.934443
 30
0.0
 40
4.9981082112
100
AcDbArc
 50
150.5103
 51
165.251233
  0
ARC
  5
396
330
20A
100
AcDbEntity
  8
0
  6
Continuous
 62
     2
100
AcDbCircle
 10
372.46238
 20
342.934443
 30
0.0
 40
4.9981082112
100
AcDbArc
 50
135.769368
 51
150.5103
  0
ARC
  5
397
330
20A
100
AcDbEntity
  8
0
  6
Continuous
 62
     2
100
AcDbCircle
 10
372.46238
 20
342.934443
 30
0.0
 40
4.9981082112
100
AcDbArc
 50
121.020601
 51
135.769368
  0
ARC
  5
398
330
20A
100
AcDbEntity
  8
0
  6
Continuous
 62
     2
100
AcDbCircle
 10
372.46238
 20
330.786323
 30
0.0
 40
4.9981082204
100
AcDbArc
 50
224.230632
 51
238.979399
  0
ARC
  5
399
330
20A
100
AcDbEntity
  8
0
  6
Continuous
 62
     2
100
AcDbCircle
 10
372.46238
 20
330.786323
 30
0.0
 40
4.9981082204
100
AcDbArc
 50
209.4897
 51
224.230632
  0
ARC
  5
39A
330
20A
100
AcDbEntity
  8
0
  6
Continuous
 62
     2
100
AcDbCircle
 10
372.46238
 20
330.786323
 30
0.0
 40
4.9981082204
100
AcDbArc
 50
194.748767
 51
209.4897
  0
ARC
  5
39B
330
20A
100
AcDbEntity
  8
0
  6
Continuous
 62
     2
100
AcDbCircle
 10
372.46238
 20
330.786323
 30
0.0
 40
4.9981082204
100
AcDbArc
 50
180.0
 51
194.748767
  0
ARC
  5
39C
330
20A
100
AcDbEntity
  8
0
  6
Continuous
 62
     2
100
AcDbCircle
 10
161.494279
 20
330.786299
 30
0.0
 40
4.9981035532
100
AcDbArc
 50
345.251226
 51
360.0
  0
ARC
  5
39D
330
20A
100
AcDbEntity
  8
0
  6
Continuous
 62
     2
100
AcDbCircle
 10
161.494279
 20
330.786299
 30
0.0
 40
4.9981035532
100
AcDbArc
 50
330.510287
 51
345.251226
  0
ARC
  5
39E
330
20A
100
AcDbEntity
  8
0
  6
Continuous
 62
     2
100
AcDbCircle
 10
161.494279
 20
330.786299
 30
0.0
 40
4.9981035532
100
AcDbArc
 50
315.769347
 51
330.510287
  0
ARC
  5
39F
330
20A
100
AcDbEntity
  8
0
  6
Continuous
 62
     2
100
AcDbCircle
 10
161.494279
 20
330.786299
 30
0.0
 40
4.9981035532
100
AcDbArc
 50
301.020573
 51
315.769347
  0
ARC
  5
3A0
330
20A
100
AcDbEntity
  8
0
  6
Continuous
 62
     6
100
AcDbCircle
 10
266.978327
 20
336.860383
 30
0.0
 40
123.7168109952
100
AcDbArc
 50
0.0
 51
180.0
  0
ARC
  5
3A1
330
20A
100
AcDbEntity
  8
0
  6
Continuous
 62
     9
100
AcDbCircle
 10
266.978327
 20
336.860383
 30
0.0
 40
119.8993773854
100
AcDbArc
 50
0.0
 51
180.0
  0
ARC
  5
3A2
330
20A
100
AcDbEntity
  8
0
  6
Continuous
 62
     9
100
AcDbCircle
 10
266.978327
 20
336.860383
 30
0.0
 40
121.3089163166
100
AcDbArc
 50
180.0
 51
360.0
  0
ARC
  5
3A3
330
20A
100
AcDbEntity
  8
0
  6
Continuous
 62
     9
100
AcDbCircle
 10
266.978327
 20
336.860383
 30
0.0
 40
119.8993773854
100
AcDbArc
 50
180.0
 51
360.0
  0
ARC
  5
3A4
330
20A
100
AcDbEntity
  8
0
  6
Continuous
 62
     9
100
AcDbCircle
 10
266.978327
 20
336.860383
 30
0.0
 40
121.3089163166
100
AcDbArc
 50
0.0
 51
180.0
  0
ARC
  5
3A5
330
20A
100
AcDbEntity
  8
0
  6
Continuous
 62
     6
100
AcDbCircle
 10
266.978327
 20
336.860383
 30
0.0
 40
123.7168109952
100
AcDbArc
 50
180.0
 51
360.0
  0
LINE
  5
3A6
330
20A
100
AcDbEntity
  8
0
  6
Continuous
 62
     6
100
AcDbLine
 10
660.176997
 20
336.860383
 30
0.0
 11
660.176997
 21
328.359589
 31
0.0
  0
LINE
  5
3A7
330
20A
100
AcDbEntity
  8
0
  6
Continuous
 62
     6
100
AcDbLine
 10
660.176997
 20
328.359589
 30
0.0
 11
660.176997
 21
326.20053
 31
0.0
  0
LINE
  5
3A8
330
20A
100
AcDbEntity
  8
0
  6
Continuous
 62
     6
100
AcDbLine
 10
660.176997
 20
326.20053
 30
0.0
 11
660.176997
 21
325.941661
 31
0.0
  0
LINE
  5
3A9
330
20A
100
AcDbEntity
  8
0
  6
Continuous
 62
     6
100
AcDbLine
 10
660.176997
 20
325.941661
 30
0.0
 11
660.176997
 21
322.558986
 31
0.0
  0
LINE
  5
3AA
330
20A
100
AcDbEntity
  8
0
  6
Continuous
 62
     6
100
AcDbLine
 10
660.176997
 20
322.558986
 30
0.0
 11
660.176997
 21
310.208153
 31
0.0
  0
LINE
  5
3AB
330
20A
100
AcDbEntity
  8
0
  6
Continuous
 62
     6
100
AcDbLine
 10
660.176997
 20
310.208153
 30
0.0
 11
660.176997
 21
308.828255
 31
0.0
  0
LINE
  5
3AC
330
20A
100
AcDbEntity
  8
0
  6
Continuous
 62
     6
100
AcDbLine
 10
660.176997
 20
308.828255
 30
0.0
 11
660.176997
 21
308.750778
 31
0.0
  0
LINE
  5
3AD
330
20A
100
AcDbEntity
  8
0
  6
Continuous
 62
     6
100
AcDbLine
 10
660.176997
 20
308.750778
 30
0.0
 11
660.176997
 21
308.068151
 31
0.0
  0
LINE
  5
3AE
330
20A
100
AcDbEntity
  8
0
  6
Continuous
 62
     6
100
AcDbLine
 10
660.176997
 20
308.068151
 30
0.0
 11
660.176997
 21
307.41712
 31
0.0
  0
LINE
  5
3AF
330
20A
100
AcDbEntity
  8
0
  6
Continuous
 62
     6
100
AcDbLine
 10
660.176997
 20
307.41712
 30
0.0
 11
660.176997
 21
294.765206
 31
0.0
  0
LINE
  5
3B0
330
20A
100
AcDbEntity
  8
0
  6
Continuous
 62
     6
100
AcDbLine
 10
660.176997
 20
294.765206
 30
0.0
 11
660.176997
 21
236.860383
 31
0.0
  0
LINE
  5
3B1
330
20A
100
AcDbEntity
  8
0
  6
Continuous
 62
     6
100
AcDbLine
 10
660.176997
 20
236.860383
 30
0.0
 11
660.176997
 21
235.233634
 31
0.0
  0
LINE
  5
3B2
330
20A
100
AcDbEntity
  8
0
  6
Continuous
 62
     6
100
AcDbLine
 10
660.176997
 20
235.233634
 30
0.0
 11
660.176997
 21
214.360392
 31
0.0
  0
LINE
  5
3B3
330
20A
100
AcDbEntity
  8
0
  6
Continuous
 62
     2
100
AcDbLine
 10
662.176997
 20
345.361177
 30
0.0
 11
662.176997
 21
347.520237
 31
0.0
  0
LINE
  5
3B4
330
20A
100
AcDbEntity
  8
0
  6
Continuous
 62
     2
100
AcDbLine
 10
662.176997
 20
347.779105
 30
0.0
 11
662.176997
 21
351.16178
 31
0.0
  0
LINE
  5
3B5
330
20A
100
AcDbEntity
  8
0
  6
Continuous
 62
     2
100
AcDbLine
 10
662.176997
 20
307.41712
 30
0.0
 11
662.176997
 21
308.068151
 31
0.0
  0
LINE
  5
3B6
330
20A
100
AcDbEntity
  8
0
  6
Continuous
 62
     2
100
AcDbLine
 10
662.176997
 20
328.359589
 30
0.0
 11
662.176997
 21
336.860383
 31
0.0
  0
LINE
  5
3B7
330
20A
100
AcDbEntity
  8
0
  6
Continuous
 62
     2
100
AcDbLine
 10
662.176997
 20
336.860383
 30
0.0
 11
662.176997
 21
345.361177
 31
0.0
  0
LINE
  5
3B8
330
20A
100
AcDbEntity
  8
0
  6
Continuous
 62
     2
100
AcDbLine
 10
662.176997
 20
336.860383
 30
0.0
 11
662.176997
 21
328.359589
 31
0.0
  0
LINE
  5
3B9
330
20A
100
AcDbEntity
  8
0
  6
Continuous
 62
     2
100
AcDbLine
 10
662.176997
 20
328.359589
 30
0.0
 11
662.176997
 21
326.20053
 31
0.0
  0
LINE
  5
3BA
330
20A
100
AcDbEntity
  8
0
  6
Continuous
 62
     2
100
AcDbLine
 10
662.176997
 20
326.20053
 30
0.0
 11
662.176997
 21
325.941661
 31
0.0
  0
LINE
  5
3BB
330
20A
100
AcDbEntity
  8
0
  6
Continuous
 62
     2
100
AcDbLine
 10
662.176997
 20
325.941661
 30
0.0
 11
662.176997
 21
322.558986
 31
0.0
  0
LINE
  5
3BC
330
20A
100
AcDbEntity
  8
0
  6
Continuous
 62
     2
100
AcDbLine
 10
662.176997
 20
322.558986
 30
0.0
 11
662.176997
 21
310.208153
 31
0.0
  0
LINE
  5
3BD
330
20A
100
AcDbEntity
  8
0
  6
Continuous
 62
     2
100
AcDbLine
 10
662.176997
 20
310.208153
 30
0.0
 11
662.176997
 21
308.828255
 31
0.0
  0
LINE
  5
3BE
330
20A
100
AcDbEntity
  8
0
  6
Continuous
 62
     2
100
AcDbLine
 10
662.176997
 20
308.828255
 30
0.0
 11
662.176997
 21
308.750778
 31
0.0
  0
LINE
  5
3BF
330
20A
100
AcDbEntity
  8
0
  6
Continuous
 62
     2
100
AcDbLine
 10
662.176997
 20
308.750778
 30
0.0
 11
662.176997
 21
308.068151
 31
0.0
  0
LINE
  5
3C0
330
20A
100
AcDbEntity
  8
0
  6
Continuous
 62
     2
100
AcDbLine
 10
662.176997
 20
308.068151
 30
0.0
 11
662.176997
 21
307.41712
 31
0.0
  0
LINE
  5
3C1
330
20A
100
AcDbEntity
  8
0
  6
Continuous
 62
     2
100
AcDbLine
 10
662.176997
 20
307.41712
 30
0.0
 11
662.176997
 21
236.860383
 31
0.0
  0
LINE
  5
3C2
330
20A
100
AcDbEntity
  8
0
  6
Continuous
 62
     2
100
AcDbLine
 10
662.176997
 20
236.860383
 30
0.0
 11
662.176997
 21
214.360383
 31
0.0
  0
LINE
  5
3C3
330
20A
100
AcDbEntity
  8
0
  6
Continuous
 62
     6
100
AcDbLine
 10
667.719541
 20
234.360383
 30
0.0
 11
667.176997
 21
234.360383
 31
0.0
  0
LINE
  5
3C4
330
20A
100
AcDbEntity
  8
0
  6
Continuous
 62
     6
100
AcDbLine
 10
669.150937
 20
214.141928
 30
0.0
 11
675.766573
 21
211.734033
 31
0.0
  0
LINE
  5
3C5
330
20A
100
AcDbEntity
  8
0
  6
Continuous
 62
     6
100
AcDbLine
 10
669.150937
 20
459.578838
 30
0.0
 11
675.766573
 21
461.986733
 31
0.0
  0
LINE
  5
3C6
330
20A
100
AcDbEntity
  8
0
  6
Continuous
 62
     6
100
AcDbLine
 10
676.279603
 20
213.143572
 30
0.0
 11
675.766573
 21
211.734033
 31
0.0
  0
LINE
  5
3C7
330
20A
100
AcDbEntity
  8
0
  6
Continuous
 62
     6
100
AcDbLine
 10
676.279603
 20
460.577194
 30
0.0
 11
676.279603
 21
336.860383
 31
0.0
  0
LINE
  5
3C8
330
20A
100
AcDbEntity
  8
0
  6
Continuous
 62
     6
100
AcDbLine
 10
676.279603
 20
460.577194
 30
0.0
 11
675.766573
 21
461.986733
 31
0.0
  0
LINE
  5
3C9
330
20A
100
AcDbEntity
  8
0
  6
Continuous
 62
     6
100
AcDbLine
 10
667.719541
 20
439.360383
 30
0.0
 11
667.176997
 21
439.360383
 31
0.0
  0
LINE
  5
3CA
330
20A
100
AcDbEntity
  8
0
  6
Continuous
 62
     2
100
AcDbLine
 10
667.719541
 20
215.240276
 30
0.0
 11
667.719541
 21
336.860383
 31
0.0
  0
LINE
  5
3CB
330
20A
100
AcDbEntity
  8
0
  6
Continuous
 62
     6
100
AcDbLine
 10
667.176997
 20
336.860383
 30
0.0
 11
667.176997
 21
331.07379
 31
0.0
  0
LINE
  5
3CC
330
20A
100
AcDbEntity
  8
0
  6
Continuous
 62
     6
100
AcDbLine
 10
667.176997
 20
331.07379
 30
0.0
 11
667.176997
 21
330.786299
 31
0.0
  0
LINE
  5
3CD
330
20A
100
AcDbEntity
  8
0
  6
Continuous
 62
     6
100
AcDbLine
 10
667.176997
 20
330.786299
 30
0.0
 11
667.176997
 21
328.359589
 31
0.0
  0
LINE
  5
3CE
330
20A
100
AcDbEntity
  8
0
  6
Continuous
 62
     6
100
AcDbLine
 10
667.176997
 20
328.359589
 30
0.0
 11
667.176997
 21
326.503012
 31
0.0
  0
LINE
  5
3CF
330
20A
100
AcDbEntity
  8
0
  6
Continuous
 62
     6
100
AcDbLine
 10
667.176997
 20
326.503012
 30
0.0
 11
667.176997
 21
326.20053
 31
0.0
  0
LINE
  5
3D0
330
20A
100
AcDbEntity
  8
0
  6
Continuous
 62
     6
100
AcDbLine
 10
667.176997
 20
326.20053
 30
0.0
 11
667.176997
 21
325.941661
 31
0.0
  0
LINE
  5
3D1
330
20A
100
AcDbEntity
  8
0
  6
Continuous
 62
     6
100
AcDbLine
 10
667.176997
 20
325.941661
 30
0.0
 11
667.176997
 21
323.075083
 31
0.0
  0
LINE
  5
3D2
330
20A
100
AcDbEntity
  8
0
  6
Continuous
 62
     6
100
AcDbLine
 10
667.176997
 20
323.075083
 30
0.0
 11
667.176997
 21
322.558986
 31
0.0
  0
LINE
  5
3D3
330
20A
100
AcDbEntity
  8
0
  6
Continuous
 62
     6
100
AcDbLine
 10
667.176997
 20
322.558986
 30
0.0
 11
667.176997
 21
311.360383
 31
0.0
  0
LINE
  5
3D4
330
20A
100
AcDbEntity
  8
0
  6
Continuous
 62
     6
100
AcDbLine
 10
667.176997
 20
311.360383
 30
0.0
 11
667.176997
 21
310.208153
 31
0.0
  0
LINE
  5
3D5
330
20A
100
AcDbEntity
  8
0
  6
Continuous
 62
     6
100
AcDbLine
 10
667.176997
 20
310.208153
 30
0.0
 11
667.176997
 21
308.828247
 31
0.0
  0
LINE
  5
3D6
330
20A
100
AcDbEntity
  8
0
  6
Continuous
 62
     6
100
AcDbLine
 10
667.176997
 20
308.828247
 30
0.0
 11
667.176997
 21
308.750778
 31
0.0
  0
LINE
  5
3D7
330
20A
100
AcDbEntity
  8
0
  6
Continuous
 62
     6
100
AcDbLine
 10
667.176997
 20
308.750778
 30
0.0
 11
667.176997
 21
308.068151
 31
0.0
  0
LINE
  5
3D8
330
20A
100
AcDbEntity
  8
0
  6
Continuous
 62
     6
100
AcDbLine
 10
667.176997
 20
308.068151
 30
0.0
 11
667.176997
 21
307.41712
 31
0.0
  0
LINE
  5
3D9
330
20A
100
AcDbEntity
  8
0
  6
Continuous
 62
     6
100
AcDbLine
 10
667.176997
 20
307.41712
 30
0.0
 11
667.176997
 21
306.453684
 31
0.0
  0
LINE
  5
3DA
330
20A
100
AcDbEntity
  8
0
  6
Continuous
 62
     6
100
AcDbLine
 10
667.176997
 20
306.453684
 30
0.0
 11
667.176997
 21
294.765206
 31
0.0
  0
LINE
  5
3DB
330
20A
100
AcDbEntity
  8
0
  6
Continuous
 62
     6
100
AcDbLine
 10
667.176997
 20
294.765206
 30
0.0
 11
667.176997
 21
236.860383
 31
0.0
  0
LINE
  5
3DC
330
20A
100
AcDbEntity
  8
0
  6
Continuous
 62
     6
100
AcDbLine
 10
667.176997
 20
236.860383
 30
0.0
 11
667.176997
 21
235.233634
 31
0.0
  0
LINE
  5
3DD
330
20A
100
AcDbEntity
  8
0
  6
Continuous
 62
     6
100
AcDbLine
 10
667.176997
 20
235.233634
 30
0.0
 11
667.176997
 21
234.360383
 31
0.0
  0
LINE
  5
3DE
330
20A
100
AcDbEntity
  8
0
  6
Continuous
 62
     6
100
AcDbLine
 10
667.176997
 20
234.360383
 30
0.0
 11
667.176997
 21
214.360392
 31
0.0
  0
LINE
  5
3DF
330
20A
100
AcDbEntity
  8
0
  6
Continuous
 62
     2
100
AcDbLine
 10
665.176997
 20
336.860383
 30
0.0
 11
665.176997
 21
328.359589
 31
0.0
  0
LINE
  5
3E0
330
20A
100
AcDbEntity
  8
0
  6
Continuous
 62
     2
100
AcDbLine
 10
665.176997
 20
328.359589
 30
0.0
 11
665.176997
 21
326.20053
 31
0.0
  0
LINE
  5
3E1
330
20A
100
AcDbEntity
  8
0
  6
Continuous
 62
     2
100
AcDbLine
 10
665.176997
 20
326.20053
 30
0.0
 11
665.176997
 21
325.941661
 31
0.0
  0
LINE
  5
3E2
330
20A
100
AcDbEntity
  8
0
  6
Continuous
 62
     2
100
AcDbLine
 10
665.176997
 20
325.941661
 30
0.0
 11
665.176997
 21
322.558986
 31
0.0
  0
LINE
  5
3E3
330
20A
100
AcDbEntity
  8
0
  6
Continuous
 62
     2
100
AcDbLine
 10
665.176997
 20
322.558986
 30
0.0
 11
665.176997
 21
310.208153
 31
0.0
  0
LINE
  5
3E4
330
20A
100
AcDbEntity
  8
0
  6
Continuous
 62
     2
100
AcDbLine
 10
665.176997
 20
310.208153
 30
0.0
 11
665.176997
 21
308.828255
 31
0.0
  0
LINE
  5
3E5
330
20A
100
AcDbEntity
  8
0
  6
Continuous
 62
     2
100
AcDbLine
 10
665.176997
 20
308.828255
 30
0.0
 11
665.176997
 21
308.750778
 31
0.0
  0
LINE
  5
3E6
330
20A
100
AcDbEntity
  8
0
  6
Continuous
 62
     2
100
AcDbLine
 10
665.176997
 20
308.750778
 30
0.0
 11
665.176997
 21
308.068151
 31
0.0
  0
LINE
  5
3E7
330
20A
100
AcDbEntity
  8
0
  6
Continuous
 62
     2
100
AcDbLine
 10
665.176997
 20
308.068151
 30
0.0
 11
665.176997
 21
307.41712
 31
0.0
  0
LINE
  5
3E8
330
20A
100
AcDbEntity
  8
0
  6
Continuous
 62
     2
100
AcDbLine
 10
665.176997
 20
307.41712
 30
0.0
 11
665.176997
 21
236.860383
 31
0.0
  0
LINE
  5
3E9
330
20A
100
AcDbEntity
  8
0
  6
Continuous
 62
     2
100
AcDbLine
 10
665.176997
 20
236.860383
 30
0.0
 11
665.176997
 21
214.360383
 31
0.0
  0
LINE
  5
3EA
330
20A
100
AcDbEntity
  8
0
  6
Continuous
 62
     2
100
AcDbLine
 10
667.719541
 20
362.360383
 30
0.0
 11
667.176997
 21
362.360383
 31
0.0
  0
LINE
  5
3EB
330
20A
100
AcDbEntity
  8
0
  6
Continuous
 62
     2
100
AcDbLine
 10
667.719541
 20
336.860383
 30
0.0
 11
667.719541
 21
458.48049
 31
0.0
  0
LINE
  5
3EC
330
20A
100
AcDbEntity
  8
0
  6
Continuous
 62
     2
100
AcDbLine
 10
667.176997
 20
367.267082
 30
0.0
 11
667.719541
 21
367.267082
 31
0.0
  0
LINE
  5
3ED
330
20A
100
AcDbEntity
  8
0
  6
Continuous
 62
     2
100
AcDbLine
 10
667.719541
 20
306.453684
 30
0.0
 11
667.176997
 21
306.453684
 31
0.0
  0
LINE
  5
3EE
330
20A
100
AcDbEntity
  8
0
  6
Continuous
 62
     2
100
AcDbLine
 10
667.176997
 20
311.360383
 30
0.0
 11
667.719541
 21
311.360383
 31
0.0
  0
LINE
  5
3EF
330
20A
100
AcDbEntity
  8
0
  6
Continuous
 62
     6
100
AcDbLine
 10
676.279603
 20
336.860383
 30
0.0
 11
676.279603
 21
213.143572
 31
0.0
  0
ARC
  5
3F0
330
20A
100
AcDbEntity
  8
0
  6
Continuous
 62
     6
100
AcDbCircle
 10
670.176997
 20
216.961006
 30
0.0
 40
3.0
100
AcDbArc
 50
215.0
 51
250.0
  0
ARC
  5
3F1
330
20A
100
AcDbEntity
  8
0
  6
Continuous
 62
     6
100
AcDbCircle
 10
670.176997
 20
456.75976
 30
0.0
 40
3.0
100
AcDbArc
 50
110.0
 51
145.0
  0
LINE
  5
3F2
330
20A
100
AcDbEntity
  8
0
  6
Continuous
 62
     6
100
AcDbLine
 10
665.176997
 20
214.360383
 30
0.0
 11
667.176997
 21
214.360383
 31
0.0
  0
LINE
  5
3F3
330
20A
100
AcDbEntity
  8
0
  6
Continuous
 62
     6
100
AcDbLine
 10
667.176997
 20
459.360374
 30
0.0
 11
667.176997
 21
439.360383
 31
0.0
  0
LINE
  5
3F4
330
20A
100
AcDbEntity
  8
0
  6
Continuous
 62
     6
100
AcDbLine
 10
667.176997
 20
439.360383
 30
0.0
 11
667.176997
 21
438.487132
 31
0.0
  0
LINE
  5
3F5
330
20A
100
AcDbEntity
  8
0
  6
Continuous
 62
     6
100
AcDbLine
 10
667.176997
 20
438.487132
 30
0.0
 11
667.176997
 21
436.860383
 31
0.0
  0
LINE
  5
3F6
330
20A
100
AcDbEntity
  8
0
  6
Continuous
 62
     6
100
AcDbLine
 10
667.176997
 20
436.860383
 30
0.0
 11
667.176997
 21
378.955561
 31
0.0
  0
LINE
  5
3F7
330
20A
100
AcDbEntity
  8
0
  6
Continuous
 62
     6
100
AcDbLine
 10
667.176997
 20
378.955561
 30
0.0
 11
667.176997
 21
367.267082
 31
0.0
  0
LINE
  5
3F8
330
20A
100
AcDbEntity
  8
0
  6
Continuous
 62
     6
100
AcDbLine
 10
667.176997
 20
367.267082
 30
0.0
 11
667.176997
 21
366.303646
 31
0.0
  0
LINE
  5
3F9
330
20A
100
AcDbEntity
  8
0
  6
Continuous
 62
     6
100
AcDbLine
 10
667.176997
 20
366.303646
 30
0.0
 11
667.176997
 21
365.652615
 31
0.0
  0
LINE
  5
3FA
330
20A
100
AcDbEntity
  8
0
  6
Continuous
 62
     6
100
AcDbLine
 10
667.176997
 20
365.652615
 30
0.0
 11
667.176997
 21
364.969988
 31
0.0
  0
LINE
  5
3FB
330
20A
100
AcDbEntity
  8
0
  6
Continuous
 62
     6
100
AcDbLine
 10
667.176997
 20
364.969988
 30
0.0
 11
667.176997
 21
364.892519
 31
0.0
  0
LINE
  5
3FC
330
20A
100
AcDbEntity
  8
0
  6
Continuous
 62
     6
100
AcDbLine
 10
667.176997
 20
364.892519
 30
0.0
 11
667.176997
 21
363.512613
 31
0.0
  0
LINE
  5
3FD
330
20A
100
AcDbEntity
  8
0
  6
Continuous
 62
     6
100
AcDbLine
 10
667.176997
 20
363.512613
 30
0.0
 11
667.176997
 21
362.360383
 31
0.0
  0
LINE
  5
3FE
330
20A
100
AcDbEntity
  8
0
  6
Continuous
 62
     6
100
AcDbLine
 10
667.176997
 20
362.360383
 30
0.0
 11
667.176997
 21
351.16178
 31
0.0
  0
LINE
  5
3FF
330
20A
100
AcDbEntity
  8
0
  6
Continuous
 62
     6
100
AcDbLine
 10
667.176997
 20
351.16178
 30
0.0
 11
667.176997
 21
350.645683
 31
0.0
  0
LINE
  5
400
330
20A
100
AcDbEntity
  8
0
  6
Continuous
 62
     6
100
AcDbLine
 10
667.176997
 20
350.645683
 30
0.0
 11
667.176997
 21
347.779105
 31
0.0
  0
LINE
  5
401
330
20A
100
AcDbEntity
  8
0
  6
Continuous
 62
     6
100
AcDbLine
 10
667.176997
 20
347.779105
 30
0.0
 11
667.176997
 21
347.520237
 31
0.0
  0
LINE
  5
402
330
20A
100
AcDbEntity
  8
0
  6
Continuous
 62
     6
100
AcDbLine
 10
667.176997
 20
347.520237
 30
0.0
 11
667.176997
 21
347.217754
 31
0.0
  0
LINE
  5
403
330
20A
100
AcDbEntity
  8
0
  6
Continuous
 62
     6
100
AcDbLine
 10
667.176997
 20
347.217754
 30
0.0
 11
667.176997
 21
345.361177
 31
0.0
  0
LINE
  5
404
330
20A
100
AcDbEntity
  8
0
  6
Continuous
 62
     6
100
AcDbLine
 10
667.176997
 20
345.361177
 30
0.0
 11
667.176997
 21
342.934467
 31
0.0
  0
LINE
  5
405
330
20A
100
AcDbEntity
  8
0
  6
Continuous
 62
     6
100
AcDbLine
 10
667.176997
 20
342.934467
 30
0.0
 11
667.176997
 21
342.646976
 31
0.0
  0
LINE
  5
406
330
20A
100
AcDbEntity
  8
0
  6
Continuous
 62
     6
100
AcDbLine
 10
667.176997
 20
342.646976
 30
0.0
 11
667.176997
 21
336.860383
 31
0.0
  0
LINE
  5
407
330
20A
100
AcDbEntity
  8
0
  6
Continuous
 62
     2
100
AcDbLine
 10
665.176997
 20
459.360383
 30
0.0
 11
665.176997
 21
436.860383
 31
0.0
  0
LINE
  5
408
330
20A
100
AcDbEntity
  8
0
  6
Continuous
 62
     2
100
AcDbLine
 10
665.176997
 20
436.860383
 30
0.0
 11
665.176997
 21
366.303646
 31
0.0
  0
LINE
  5
409
330
20A
100
AcDbEntity
  8
0
  6
Continuous
 62
     2
100
AcDbLine
 10
665.176997
 20
366.303646
 30
0.0
 11
665.176997
 21
365.652615
 31
0.0
  0
LINE
  5
40A
330
20A
100
AcDbEntity
  8
0
  6
Continuous
 62
     2
100
AcDbLine
 10
665.176997
 20
365.652615
 30
0.0
 11
665.176997
 21
364.969988
 31
0.0
  0
LINE
  5
40B
330
20A
100
AcDbEntity
  8
0
  6
Continuous
 62
     2
100
AcDbLine
 10
665.176997
 20
364.969988
 30
0.0
 11
665.176997
 21
364.892512
 31
0.0
  0
LINE
  5
40C
330
20A
100
AcDbEntity
  8
0
  6
Continuous
 62
     2
100
AcDbLine
 10
665.176997
 20
364.892512
 30
0.0
 11
665.176997
 21
363.512613
 31
0.0
  0
LINE
  5
40D
330
20A
100
AcDbEntity
  8
0
  6
Continuous
 62
     2
100
AcDbLine
 10
665.176997
 20
363.512613
 30
0.0
 11
665.176997
 21
351.16178
 31
0.0
  0
LINE
  5
40E
330
20A
100
AcDbEntity
  8
0
  6
Continuous
 62
     2
100
AcDbLine
 10
665.176997
 20
351.16178
 30
0.0
 11
665.176997
 21
347.779105
 31
0.0
  0
LINE
  5
40F
330
20A
100
AcDbEntity
  8
0
  6
Continuous
 62
     2
100
AcDbLine
 10
665.176997
 20
347.779105
 30
0.0
 11
665.176997
 21
347.520237
 31
0.0
  0
LINE
  5
410
330
20A
100
AcDbEntity
  8
0
  6
Continuous
 62
     2
100
AcDbLine
 10
665.176997
 20
347.520237
 30
0.0
 11
665.176997
 21
345.361177
 31
0.0
  0
LINE
  5
411
330
20A
100
AcDbEntity
  8
0
  6
Continuous
 62
     2
100
AcDbLine
 10
665.176997
 20
345.361177
 30
0.0
 11
665.176997
 21
336.860383
 31
0.0
  0
LINE
  5
412
330
20A
100
AcDbEntity
  8
0
  6
Continuous
 62
     6
100
AcDbLine
 10
665.176997
 20
459.360383
 30
0.0
 11
667.176997
 21
459.360383
 31
0.0
  0
LINE
  5
413
330
20A
100
AcDbEntity
  8
0
  6
Continuous
 62
     2
100
AcDbLine
 10
662.176997
 20
365.652615
 30
0.0
 11
662.176997
 21
366.303646
 31
0.0
  0
LINE
  5
414
330
20A
100
AcDbEntity
  8
0
  6
Continuous
 62
     6
100
AcDbLine
 10
660.176997
 20
459.360383
 30
0.0
 11
662.176997
 21
459.360383
 31
0.0
  0
LINE
  5
415
330
20A
100
AcDbEntity
  8
0
  6
Continuous
 62
     6
100
AcDbLine
 10
660.176997
 20
459.360374
 30
0.0
 11
660.176997
 21
438.487132
 31
0.0
  0
LINE
  5
416
330
20A
100
AcDbEntity
  8
0
  6
Continuous
 62
     6
100
AcDbLine
 10
660.176997
 20
438.487132
 30
0.0
 11
660.176997
 21
436.860383
 31
0.0
  0
LINE
  5
417
330
20A
100
AcDbEntity
  8
0
  6
Continuous
 62
     6
100
AcDbLine
 10
660.176997
 20
436.860383
 30
0.0
 11
660.176997
 21
378.955561
 31
0.0
  0
LINE
  5
418
330
20A
100
AcDbEntity
  8
0
  6
Continuous
 62
     6
100
AcDbLine
 10
660.176997
 20
378.955561
 30
0.0
 11
660.176997
 21
366.303646
 31
0.0
  0
LINE
  5
419
330
20A
100
AcDbEntity
  8
0
  6
Continuous
 62
     6
100
AcDbLine
 10
660.176997
 20
366.303646
 30
0.0
 11
660.176997
 21
365.652615
 31
0.0
  0
LINE
  5
41A
330
20A
100
AcDbEntity
  8
0
  6
Continuous
 62
     6
100
AcDbLine
 10
660.176997
 20
365.652615
 30
0.0
 11
660.176997
 21
364.969988
 31
0.0
  0
LINE
  5
41B
330
20A
100
AcDbEntity
  8
0
  6
Continuous
 62
     6
100
AcDbLine
 10
660.176997
 20
364.969988
 30
0.0
 11
660.176997
 21
364.892519
 31
0.0
  0
LINE
  5
41C
330
20A
100
AcDbEntity
  8
0
  6
Continuous
 62
     6
100
AcDbLine
 10
660.176997
 20
364.892519
 30
0.0
 11
660.176997
 21
363.512613
 31
0.0
  0
LINE
  5
41D
330
20A
100
AcDbEntity
  8
0
  6
Continuous
 62
     6
100
AcDbLine
 10
660.176997
 20
363.512613
 30
0.0
 11
660.176997
 21
351.16178
 31
0.0
  0
LINE
  5
41E
330
20A
100
AcDbEntity
  8
0
  6
Continuous
 62
     6
100
AcDbLine
 10
660.176997
 20
351.16178
 30
0.0
 11
660.176997
 21
347.779105
 31
0.0
  0
LINE
  5
41F
330
20A
100
AcDbEntity
  8
0
  6
Continuous
 62
     6
100
AcDbLine
 10
660.176997
 20
347.779105
 30
0.0
 11
660.176997
 21
347.520237
 31
0.0
  0
LINE
  5
420
330
20A
100
AcDbEntity
  8
0
  6
Continuous
 62
     6
100
AcDbLine
 10
660.176997
 20
347.520237
 30
0.0
 11
660.176997
 21
345.361177
 31
0.0
  0
LINE
  5
421
330
20A
100
AcDbEntity
  8
0
  6
Continuous
 62
     6
100
AcDbLine
 10
660.176997
 20
345.361177
 30
0.0
 11
660.176997
 21
336.860383
 31
0.0
  0
LINE
  5
422
330
20A
100
AcDbEntity
  8
0
  6
Continuous
 62
     2
100
AcDbLine
 10
662.176997
 20
459.360383
 30
0.0
 11
662.176997
 21
436.860383
 31
0.0
  0
LINE
  5
423
330
20A
100
AcDbEntity
  8
0
  6
Continuous
 62
     2
100
AcDbLine
 10
662.176997
 20
436.860383
 30
0.0
 11
662.176997
 21
366.303646
 31
0.0
  0
LINE
  5
424
330
20A
100
AcDbEntity
  8
0
  6
Continuous
 62
     2
100
AcDbLine
 10
662.176997
 20
366.303646
 30
0.0
 11
662.176997
 21
365.652615
 31
0.0
  0
LINE
  5
425
330
20A
100
AcDbEntity
  8
0
  6
Continuous
 62
     2
100
AcDbLine
 10
662.176997
 20
365.652615
 30
0.0
 11
662.176997
 21
364.969988
 31
0.0
  0
LINE
  5
426
330
20A
100
AcDbEntity
  8
0
  6
Continuous
 62
     2
100
AcDbLine
 10
662.176997
 20
364.969988
 30
0.0
 11
662.176997
 21
364.892512
 31
0.0
  0
LINE
  5
427
330
20A
100
AcDbEntity
  8
0
  6
Continuous
 62
     2
100
AcDbLine
 10
662.176997
 20
364.892512
 30
0.0
 11
662.176997
 21
363.512613
 31
0.0
  0
LINE
  5
428
330
20A
100
AcDbEntity
  8
0
  6
Continuous
 62
     2
100
AcDbLine
 10
662.176997
 20
363.512613
 30
0.0
 11
662.176997
 21
351.16178
 31
0.0
  0
LINE
  5
429
330
20A
100
AcDbEntity
  8
0
  6
Continuous
 62
     2
100
AcDbLine
 10
662.176997
 20
351.16178
 30
0.0
 11
662.176997
 21
347.779105
 31
0.0
  0
LINE
  5
42A
330
20A
100
AcDbEntity
  8
0
  6
Continuous
 62
     2
100
AcDbLine
 10
662.176997
 20
347.779105
 30
0.0
 11
662.176997
 21
347.520237
 31
0.0
  0
LINE
  5
42B
330
20A
100
AcDbEntity
  8
0
  6
Continuous
 62
     2
100
AcDbLine
 10
662.176997
 20
347.520237
 30
0.0
 11
662.176997
 21
345.361177
 31
0.0
  0
LINE
  5
42C
330
20A
100
AcDbEntity
  8
0
  6
Continuous
 62
     2
100
AcDbLine
 10
662.176997
 20
345.361177
 30
0.0
 11
662.176997
 21
336.860383
 31
0.0
  0
LINE
  5
42D
330
20A
100
AcDbEntity
  8
0
  6
Continuous
 62
     6
100
AcDbLine
 10
660.176997
 20
214.360383
 30
0.0
 11
662.176997
 21
214.360383
 31
0.0
  0
LINE
  5
42E
330
20A
100
AcDbEntity
  8
0
  6
Continuous
 62
     6
100
AcDbLine
 10
675.766573
 20
336.860383
 30
0.0
 11
675.766573
 21
211.734033
 31
0.0
  0
LINE
  5
42F
330
20A
100
AcDbEntity
  8
0
  6
Continuous
 62
     9
100
AcDbLine
 10
667.719541
 20
342.647147
 30
0.0
 11
667.176997
 21
342.646976
 31
0.0
  0
LINE
  5
430
330
20A
100
AcDbEntity
  8
0
  6
Continuous
 62
     9
100
AcDbLine
 10
667.176997
 20
326.503012
 30
0.0
 11
667.719541
 21
326.503012
 31
0.0
  0
LINE
  5
431
330
20A
100
AcDbEntity
  8
0
  6
Continuous
 62
     9
100
AcDbLine
 10
667.719541
 20
323.075083
 30
0.0
 11
667.176997
 21
323.075083
 31
0.0
  0
LINE
  5
432
330
20A
100
AcDbEntity
  8
0
  6
Continuous
 62
     9
100
AcDbLine
 10
669.150937
 20
214.141928
 30
0.0
 11
669.150937
 21
336.860383
 31
0.0
  0
LINE
  5
433
330
20A
100
AcDbEntity
  8
0
  6
Continuous
 62
     9
100
AcDbLine
 10
667.719541
 20
331.073619
 30
0.0
 11
667.176997
 21
331.07379
 31
0.0
  0
LINE
  5
434
330
20A
100
AcDbEntity
  8
0
  6
Continuous
 62
     6
100
AcDbLine
 10
675.766573
 20
461.986733
 30
0.0
 11
675.766573
 21
336.860383
 31
0.0
  0
LINE
  5
435
330
20A
100
AcDbEntity
  8
0
  6
Continuous
 62
     9
100
AcDbLine
 10
667.719541
 20
347.217754
 30
0.0
 11
667.176997
 21
347.217754
 31
0.0
  0
LINE
  5
436
330
20A
100
AcDbEntity
  8
0
  6
Continuous
 62
     9
100
AcDbLine
 10
667.176997
 20
350.645683
 30
0.0
 11
667.719541
 21
350.645683
 31
0.0
  0
LINE
  5
437
330
20A
100
AcDbEntity
  8
0
  6
Continuous
 62
     9
100
AcDbLine
 10
669.150937
 20
336.860383
 30
0.0
 11
669.150937
 21
459.578838
 31
0.0
  0
DIMENSION
  5
438
330
20A
100
AcDbEntity
  8
0
  6
Continuous
 62
     2
100
AcDbDimension
280
     0
  2
*D1
 10
665.176997
 20
196.009301
 30
0.0
 11
551.59355
 21
196.009301
 31
0.0
 70
   160
  1
<>SPESSORE PARETE  (WALL THICKNESS)
 71
     3
 42
3.0
 73
     0
 74
     0
 75
     0
  3
DIMSTYLE_1
100
AcDbAlignedDimension
 13
662.176997
 23
214.360383
 33
0.0
 14
665.176997
 24
214.360383
 34
0.0
100
AcDbRotatedDimension
  0
DIMENSION
  5
439
330
20A
100
AcDbEntity
  8
0
  6
Continuous
 62
     2
100
AcDbDimension
280
     0
  2
*D2
 10
182.907482
 20
407.79763
 30
0.0
 11
147.858893
 21
440.314854
 31
0.0
 70
   163
  1
%%c<>
 71
     3
 42
220.0
 73
     0
 74
     0
 75
     0
  3
DIMSTYLE_2
100
AcDbDiametricDimension
 15
351.049171
 25
265.923136
 35
0.0
 40
0.0
  0
ARC
  5
43A
330
20A
100
AcDbEntity
  8
0
  6
Continuous
 62
     2
100
AcDbCircle
 10
266.978327
 20
336.860383
 30
0.0
 40
110.0
100
AcDbArc
 50
319.452369
 51
360.0
  0
DIMENSION
  5
43B
330
20A
100
AcDbEntity
  8
0
  6
Continuous
 62
     2
100
AcDbDimension
280
     0
  2
*D3
 10
176.88689
 20
423.694342
 30
0.0
 11
156.657277
 21
446.317487
 31
0.0
 70
   163
  1
%%c<>
 71
     3
 42
250.2527
 73
     0
 74
     0
 75
     0
  3
DIMSTYLE_2
100
AcDbDiametricDimension
 15
357.069764
 25
250.026424
 35
0.0
 40
0.0
  0
ARC
  5
43C
330
20A
100
AcDbEntity
  8
0
  6
Continuous
 62
     2
100
AcDbCircle
 10
266.978327
 20
336.860383
 30
0.0
 40
125.1263499264
100
AcDbArc
 50
315.711364
 51
360.0
  0
DIMENSION
  5
43D
330
20A
100
AcDbEntity
  8
0
  6
Continuous
 62
     2
100
AcDbDimension
280
     0
  2
*D4
 10
185.450272
 20
394.767001
 30
0.0
 11
139.132764
 21
430.424546
 31
0.0
 70
   163
  1
%%c<>
 71
     3
 42
200.0
 73
     0
 74
     0
 75
     0
  3
DIMSTYLE_2
100
AcDbDiametricDimension
 15
348.506381
 25
278.953765
 35
0.0
 40
0.0
  0
ARC
  5
43E
330
20A
100
AcDbEntity
  8
0
  6
Continuous
 62
     2
100
AcDbCircle
 10
266.978327
 20
336.860383
 30
0.0
 40
100.0
100
AcDbArc
 50
324.1854
 51
17.123519
  0
DIMENSION
  5
43F
330
20A
100
AcDbEntity
  8
0
  6
Continuous
 62
     2
100
AcDbDimension
280
     0
  2
*D5
 10
266.978327
 20
483.117091
 30
0.0
 11
296.863648
 21
487.104041
 31
0.0
 70
   162
 71
     2
 42
0.392699
 73
     0
 74
     0
 75
     0
  3
DIMSTYLE_3
100
AcDb2LineAngularDimension
 13
324.72726
 23
476.27864
 33
0.0
 14
325.313481
 24
477.693905
 34
0.0
 15
266.978327
 25
481.58522
 35
0.0
 16
296.863648
 26
487.104041
 36
0.0
  0
DIMENSION
  5
440
330
20A
100
AcDbEntity
  8
0
  6
Continuous
 62
     2
100
AcDbDimension
280
     0
  2
*D6
 10
208.643172
 20
477.693905
 30
0.0
 11
237.093005
 21
487.104041
 31
0.0
 70
   162
 71
     2
 42
0.392699
 73
     0
 74
     0
 75
     0
  3
DIMSTYLE_3
100
AcDb2LineAngularDimension
 13
266.978327
 23
481.58522
 33
0.0
 14
266.978327
 24
483.117091
 34
0.0
 15
209.229394
 25
476.27864
 35
0.0
 16
237.093005
 26
487.104041
 36
0.0
  0
DIMENSION
  5
441
330
20A
100
AcDbEntity
  8
0
  6
Continuous
 62
     2
100
AcDbDimension
280
     0
  2
*D7
 10
266.978327
 20
483.117091
 30
0.0
 11
369.630981
 21
490.490937
 31
0.0
 70
   162
 71
     2
 42
1.178097
 73
     0
 74
     0
 75
     0
  3
DIMSTYLE_3
100
AcDb2LineAngularDimension
 13
417.9535
 23
399.396348
 33
0.0
 14
419.660552
 24
400.103431
 34
0.0
 15
266.978327
 25
481.269392
 35
0.0
 16
369.630981
 26
490.490937
 36
0.0
  0
DIMENSION
  5
442
330
20A
100
AcDbEntity
  8
0
  6
Continuous
 62
     2
100
AcDbDimension
280
     0
  2
*D8
 10
114.296102
 20
400.103431
 30
0.0
 11
164.325672
 21
490.490937
 31
0.0
 70
   162
 71
     2
 42
1.178097
 73
     0
 74
     0
 75
     0
  3
DIMSTYLE_3
100
AcDb2LineAngularDimension
 13
266.978327
 23
481.269392
 33
0.0
 14
266.978327
 24
483.117091
 34
0.0
 15
116.003153
 25
399.396348
 35
0.0
 16
164.325672
 26
490.490937
 36
0.0
  0
DIMENSION
  5
443
330
20A
100
AcDbEntity
  8
0
  6
Continuous
 62
     2
100
AcDbDimension
280
     0
  2
*D9
 10
162.498392
 20
378.028561
 30
0.0
 11
60.69134
 21
347.317254
 31
0.0
 70
   163
  1
%%c<> (N° 8 FORI)
 71
     3
 42
6.0
 73
     0
 74
     0
 75
     0
  3
DIMSTYLE_4
100
AcDbDiametricDimension
 15
168.204764
 25
379.88256
 35
0.0
 40
0.0
  0
ARC
  5
444
330
20A
100
AcDbEntity
  8
0
  6
Continuous
 62
     2
100
AcDbCircle
 10
165.351578
 20
378.955561
 30
0.0
 40
3.0
100
AcDbArc
 50
270.0
 51
32.035208
  0
DIMENSION
  5
445
330
20A
100
AcDbEntity
  8
0
  6
Continuous
 62
     2
100
AcDbDimension
280
     0
  2
*D10
 10
153.717357
 20
335.659674
 30
0.0
 11
64.090058
 21
305.05604
 31
0.0
 70
   163
  1
%%c<> (N° 2 FORI)
 71
     3
 42
6.95
 73
     0
 74
     0
 75
     0
  3
DIMSTYLE_5
100
AcDbDiametricDimension
 15
160.239296
 25
338.061092
 35
0.0
 40
0.0
  0
ARC
  5
446
330
20A
100
AcDbEntity
  8
0
  6
Continuous
 62
     2
100
AcDbCircle
 10
156.978327
 20
336.860383
 30
0.0
 40
3.475
100
AcDbArc
 50
0.0
 51
32.393192
  0
DIMENSION
  5
447
330
20A
100
AcDbEntity
  8
0
  6
Continuous
 62
     2
100
AcDbDimension
280
     0
  2
*D11
 10
676.279603
 20
476.378689
 30
0.0
 11
671.431322
 21
476.378689
 31
0.0
 70
   160
 71
     2
 42
9.102606
 73
     0
 74
     0
 75
     0
  3
DIMSTYLE_6
100
AcDbAlignedDimension
 13
667.176997
 23
459.360383
 33
0.0
 14
676.279603
 24
460.577194
 34
0.0
100
AcDbRotatedDimension
  0
DIMENSION
  5
448
330
20A
100
AcDbEntity
  8
0
  6
Continuous
 62
     2
100
AcDbDimension
280
     0
  2
*D12
 10
660.176997
 20
222.989362
 30
0.0
 11
651.167708
 21
222.989362
 31
0.0
 70
   160
 71
     3
 42
2.0
 73
     0
 74
     0
 75
     0
  3
DIMSTYLE_7
100
AcDbAlignedDimension
 13
662.176997
 23
214.360383
 33
0.0
 14
660.176997
 24
214.360383
 34
0.0
 50
180.0
100
AcDbRotatedDimension
  0
LINE
  5
449
330
20A
100
AcDbEntity
  8
3_ALL_AXES
  6
CENTER
 62
     2
100
AcDbLine
 10
266.978327
 20
336.860383
 30
0.0
 11
413.235034
 21
336.860383
 31
0.0
  0
LINE
  5
44A
330
20A
100
AcDbEntity
  8
3_ALL_AXES
  6
CENTER
 62
     2
100
AcDbLine
 10
266.978327
 20
336.860383
 30
0.0
 11
120.721619
 21
336.860383
 31
0.0
  0
LINE
  5
44B
330
20A
100
AcDbEntity
  8
3_ALL_AXES
  6
CENTER
 62
     2
100
AcDbLine
 10
266.978327
 20
336.860383
 30
0.0
 11
266.978327
 21
483.117091
 31
0.0
  0
LINE
  5
44C
330
20A
100
AcDbEntity
  8
3_ALL_AXES
  6
CENTER
 62
     2
100
AcDbLine
 10
266.978327
 20
336.860383
 30
0.0
 11
266.978327
 21
190.603675
 31
0.0
  0
LINE
  5
44D
330
20A
100
AcDbEntity
  8
3_ALL_AXES
  6
CENTER
 62
     2
100
AcDbLine
 10
266.978327
 20
336.860383
 30
0.0
 11
268.478427
 21
336.860383
 31
0.0
  0
LINE
  5
44E
330
20A
100
AcDbEntity
  8
3_ALL_AXES
  6
CENTER
 62
     2
100
AcDbLine
 10
266.978327
 20
336.860383
 30
0.0
 11
265.478227
 21
336.860383
 31
0.0
  0
LINE
  5
44F
330
20A
100
AcDbEntity
  8
3_ALL_AXES
  6
CENTER
 62
     2
100
AcDbLine
 10
266.978327
 20
336.860383
 30
0.0
 11
266.978327
 21
338.360483
 31
0.0
  0
LINE
  5
450
330
20A
100
AcDbEntity
  8
3_ALL_AXES
  6
CENTER
 62
     2
100
AcDbLine
 10
266.978327
 20
336.860383
 30
0.0
 11
266.978327
 21
335.360283
 31
0.0
  0
LINE
  5
451
330
20A
100
AcDbEntity
  8
3_ALL_AXES
  6
CENTER
 62
     2
100
AcDbLine
 10
266.978327
 20
336.860383
 30
0.0
 11
268.478427
 21
336.860383
 31
0.0
  0
LINE
  5
452
330
20A
100
AcDbEntity
  8
3_ALL_AXES
  6
CENTER
 62
     2
100
AcDbLine
 10
266.978327
 20
336.860383
 30
0.0
 11
265.478227
 21
336.860383
 31
0.0
  0
LINE
  5
453
330
20A
100
AcDbEntity
  8
3_ALL_AXES
  6
CENTER
 62
     2
100
AcDbLine
 10
266.978327
 20
336.860383
 30
0.0
 11
266.978327
 21
338.360483
 31
0.0
  0
LINE
  5
454
330
20A
100
AcDbEntity
  8
3_ALL_AXES
  6
CENTER
 62
     2
100
AcDbLine
 10
266.978327
 20
336.860383
 30
0.0
 11
266.978327
 21
335.360283
 31
0.0
  0
LINE
  5
455
330
20A
100
AcDbEntity
  8
3_ALL_AXES
  6
CENTER
 62
     2
100
AcDbLine
 10
376.978327
 20
336.860383
 30
0.0
 11
383.295046
 21
336.860383
 31
0.0
  0
LINE
  5
456
330
20A
100
AcDbEntity
  8
3_ALL_AXES
  6
CENTER
 62
     2
100
AcDbLine
 10
376.978327
 20
336.860383
 30
0.0
 11
370.661608
 21
336.860383
 31
0.0
  0
LINE
  5
457
330
20A
100
AcDbEntity
  8
3_ALL_AXES
  6
CENTER
 62
     2
100
AcDbLine
 10
376.978327
 20
336.860383
 30
0.0
 11
376.978327
 21
343.177102
 31
0.0
  0
LINE
  5
458
330
20A
100
AcDbEntity
  8
3_ALL_AXES
  6
CENTER
 62
     2
100
AcDbLine
 10
376.978327
 20
336.860383
 30
0.0
 11
376.978327
 21
330.543664
 31
0.0
  0
LINE
  5
459
330
20A
100
AcDbEntity
  8
3_ALL_AXES
  6
CENTER
 62
     2
100
AcDbLine
 10
376.978327
 20
336.860383
 30
0.0
 11
378.478427
 21
336.860383
 31
0.0
  0
LINE
  5
45A
330
20A
100
AcDbEntity
  8
3_ALL_AXES
  6
CENTER
 62
     2
100
AcDbLine
 10
376.978327
 20
336.860383
 30
0.0
 11
375.478227
 21
336.860383
 31
0.0
  0
LINE
  5
45B
330
20A
100
AcDbEntity
  8
3_ALL_AXES
  6
CENTER
 62
     2
100
AcDbLine
 10
376.978327
 20
336.860383
 30
0.0
 11
376.978327
 21
338.360483
 31
0.0
  0
LINE
  5
45C
330
20A
100
AcDbEntity
  8
3_ALL_AXES
  6
CENTER
 62
     2
100
AcDbLine
 10
376.978327
 20
336.860383
 30
0.0
 11
376.978327
 21
335.360283
 31
0.0
  0
LINE
  5
45D
330
20A
100
AcDbEntity
  8
3_ALL_AXES
  6
CENTER
 62
     2
100
AcDbLine
 10
368.605075
 20
378.955561
 30
0.0
 11
378.354755
 21
378.955561
 31
0.0
  0
LINE
  5
45E
330
20A
100
AcDbEntity
  8
3_ALL_AXES
  6
CENTER
 62
     2
100
AcDbLine
 10
368.605075
 20
378.955561
 30
0.0
 11
358.855395
 21
378.955561
 31
0.0
  0
LINE
  5
45F
330
20A
100
AcDbEntity
  8
3_ALL_AXES
  6
CENTER
 62
     2
100
AcDbLine
 10
368.605075
 20
378.955561
 30
0.0
 11
368.605075
 21
388.705241
 31
0.0
  0
LINE
  5
460
330
20A
100
AcDbEntity
  8
3_ALL_AXES
  6
CENTER
 62
     2
100
AcDbLine
 10
368.605075
 20
378.955561
 30
0.0
 11
368.605075
 21
369.205881
 31
0.0
  0
LINE
  5
461
330
20A
100
AcDbEntity
  8
3_ALL_AXES
  6
CENTER
 62
     2
100
AcDbLine
 10
368.605075
 20
378.955561
 30
0.0
 11
370.105175
 21
378.955561
 31
0.0
  0
LINE
  5
462
330
20A
100
AcDbEntity
  8
3_ALL_AXES
  6
CENTER
 62
     2
100
AcDbLine
 10
368.605075
 20
378.955561
 30
0.0
 11
367.104975
 21
378.955561
 31
0.0
  0
LINE
  5
463
330
20A
100
AcDbEntity
  8
3_ALL_AXES
  6
CENTER
 62
     2
100
AcDbLine
 10
368.605075
 20
378.955561
 30
0.0
 11
368.605075
 21
380.455661
 31
0.0
  0
LINE
  5
464
330
20A
100
AcDbEntity
  8
3_ALL_AXES
  6
CENTER
 62
     2
100
AcDbLine
 10
368.605075
 20
378.955561
 30
0.0
 11
368.605075
 21
377.455461
 31
0.0
  0
LINE
  5
465
330
20A
100
AcDbEntity
  8
3_ALL_AXES
  6
CENTER
 62
     2
100
AcDbLine
 10
368.605075
 20
378.955561
 30
0.0
 11
370.105175
 21
378.955561
 31
0.0
  0
LINE
  5
466
330
20A
100
AcDbEntity
  8
3_ALL_AXES
  6
CENTER
 62
     2
100
AcDbLine
 10
368.605075
 20
378.955561
 30
0.0
 11
367.104975
 21
378.955561
 31
0.0
  0
LINE
  5
467
330
20A
100
AcDbEntity
  8
3_ALL_AXES
  6
CENTER
 62
     2
100
AcDbLine
 10
368.605075
 20
378.955561
 30
0.0
 11
368.605075
 21
380.455661
 31
0.0
  0
LINE
  5
468
330
20A
100
AcDbEntity
  8
3_ALL_AXES
  6
CENTER
 62
     2
100
AcDbLine
 10
368.605075
 20
378.955561
 30
0.0
 11
368.605075
 21
377.455461
 31
0.0
  0
LINE
  5
469
330
20A
100
AcDbEntity
  8
3_ALL_AXES
  6
CENTER
 62
     2
100
AcDbLine
 10
309.073504
 20
438.487132
 30
0.0
 11
318.755581
 21
438.487132
 31
0.0
  0
LINE
  5
46A
330
20A
100
AcDbEntity
  8
3_ALL_AXES
  6
CENTER
 62
     2
100
AcDbLine
 10
309.073504
 20
438.487132
 30
0.0
 11
299.391427
 21
438.487132
 31
0.0
  0
LINE
  5
46B
330
20A
100
AcDbEntity
  8
3_ALL_AXES
  6
CENTER
 62
     2
100
AcDbLine
 10
309.073504
 20
438.487132
 30
0.0
 11
309.073504
 21
448.169209
 31
0.0
  0
LINE
  5
46C
330
20A
100
AcDbEntity
  8
3_ALL_AXES
  6
CENTER
 62
     2
100
AcDbLine
 10
309.073504
 20
438.487132
 30
0.0
 11
309.073504
 21
428.805055
 31
0.0
  0
LINE
  5
46D
330
20A
100
AcDbEntity
  8
3_ALL_AXES
  6
CENTER
 62
     2
100
AcDbLine
 10
224.883149
 20
438.487132
 30
0.0
 11
236.148807
 21
438.487132
 31
0.0
  0
LINE
  5
46E
330
20A
100
AcDbEntity
  8
3_ALL_AXES
  6
CENTER
 62
     2
100
AcDbLine
 10
224.883149
 20
438.487132
 30
0.0
 11
213.617491
 21
438.487132
 31
0.0
  0
LINE
  5
46F
330
20A
100
AcDbEntity
  8
3_ALL_AXES
  6
CENTER
 62
     2
100
AcDbLine
 10
224.883149
 20
438.487132
 30
0.0
 11
224.883149
 21
449.75279
 31
0.0
  0
LINE
  5
470
330
20A
100
AcDbEntity
  8
3_ALL_AXES
  6
CENTER
 62
     2
100
AcDbLine
 10
224.883149
 20
438.487132
 30
0.0
 11
224.883149
 21
427.221474
 31
0.0
  0
LINE
  5
471
330
20A
100
AcDbEntity
  8
3_ALL_AXES
  6
CENTER
 62
     2
100
AcDbLine
 10
165.351578
 20
378.955561
 30
0.0
 11
176.595692
 21
378.955561
 31
0.0
  0
LINE
  5
472
330
20A
100
AcDbEntity
  8
3_ALL_AXES
  6
CENTER
 62
     2
100
AcDbLine
 10
165.351578
 20
378.955561
 30
0.0
 11
154.107464
 21
378.955561
 31
0.0
  0
LINE
  5
473
330
20A
100
AcDbEntity
  8
3_ALL_AXES
  6
CENTER
 62
     2
100
AcDbLine
 10
165.351578
 20
378.955561
 30
0.0
 11
165.351578
 21
390.199674
 31
0.0
  0
LINE
  5
474
330
20A
100
AcDbEntity
  8
3_ALL_AXES
  6
CENTER
 62
     2
100
AcDbLine
 10
165.351578
 20
378.955561
 30
0.0
 11
165.351578
 21
367.711447
 31
0.0
  0
LINE
  5
475
330
20A
100
AcDbEntity
  8
3_ALL_AXES
  6
CENTER
 62
     2
100
AcDbLine
 10
156.978327
 20
336.860383
 30
0.0
 11
163.308267
 21
336.860383
 31
0.0
  0
LINE
  5
476
330
20A
100
AcDbEntity
  8
3_ALL_AXES
  6
CENTER
 62
     2
100
AcDbLine
 10
156.978327
 20
336.860383
 30
0.0
 11
150.648386
 21
336.860383
 31
0.0
  0
LINE
  5
477
330
20A
100
AcDbEntity
  8
3_ALL_AXES
  6
CENTER
 62
     2
100
AcDbLine
 10
156.978327
 20
336.860383
 30
0.0
 11
156.978327
 21
343.190324
 31
0.0
  0
LINE
  5
478
330
20A
100
AcDbEntity
  8
3_ALL_AXES
  6
CENTER
 62
     2
100
AcDbLine
 10
156.978327
 20
336.860383
 30
0.0
 11
156.978327
 21
330.530442
 31
0.0
  0
LINE
  5
479
330
20A
100
AcDbEntity
  8
3_ALL_AXES
  6
CENTER
 62
     2
100
AcDbLine
 10
165.351578
 20
294.765206
 30
0.0
 11
173.034054
 21
294.765206
 31
0.0
  0
LINE
  5
47A
330
20A
100
AcDbEntity
  8
3_ALL_AXES
  6
CENTER
 62
     2
100
AcDbLine
 10
165.351578
 20
294.765206
 30
0.0
 11
157.669102
 21
294.765206
 31
0.0
  0
LINE
  5
47B
330
20A
100
AcDbEntity
  8
3_ALL_AXES
  6
CENTER
 62
     2
100
AcDbLine
 10
165.351578
 20
294.765206
 30
0.0
 11
165.351578
 21
302.447682
 31
0.0
  0
LINE
  5
47C
330
20A
100
AcDbEntity
  8
3_ALL_AXES
  6
CENTER
 62
     2
100
AcDbLine
 10
165.351578
 20
294.765206
 30
0.0
 11
165.351578
 21
287.082729
 31
0.0
  0
LINE
  5
47D
330
20A
100
AcDbEntity
  8
3_ALL_AXES
  6
CENTER
 62
     2
100
AcDbLine
 10
309.073504
 20
235.233634
 30
0.0
 11
317.003482
 21
235.233634
 31
0.0
  0
LINE
  5
47E
330
20A
100
AcDbEntity
  8
3_ALL_AXES
  6
CENTER
 62
     2
100
AcDbLine
 10
309.073504
 20
235.233634
 30
0.0
 11
301.143527
 21
235.233634
 31
0.0
  0
LINE
  5
47F
330
20A
100
AcDbEntity
  8
3_ALL_AXES
  6
CENTER
 62
     2
100
AcDbLine
 10
309.073504
 20
235.233634
 30
0.0
 11
309.073504
 21
243.163612
 31
0.0
  0
LINE
  5
480
330
20A
100
AcDbEntity
  8
3_ALL_AXES
  6
CENTER
 62
     2
100
AcDbLine
 10
309.073504
 20
235.233634
 30
0.0
 11
309.073504
 21
227.303657
 31
0.0
  0
LINE
  5
481
330
20A
100
AcDbEntity
  8
3_ALL_AXES
  6
CENTER
 62
     2
100
AcDbLine
 10
368.605075
 20
294.765206
 30
0.0
 11
379.942025
 21
294.765206
 31
0.0
  0
LINE
  5
482
330
20A
100
AcDbEntity
  8
3_ALL_AXES
  6
CENTER
 62
     2
100
AcDbLine
 10
368.605075
 20
294.765206
 30
0.0
 11
357.268126
 21
294.765206
 31
0.0
  0
LINE
  5
483
330
20A
100
AcDbEntity
  8
3_ALL_AXES
  6
CENTER
 62
     2
100
AcDbLine
 10
368.605075
 20
294.765206
 30
0.0
 11
368.605075
 21
306.102155
 31
0.0
  0
LINE
  5
484
330
20A
100
AcDbEntity
  8
3_ALL_AXES
  6
CENTER
 62
     2
100
AcDbLine
 10
368.605075
 20
294.765206
 30
0.0
 11
368.605075
 21
283.428256
 31
0.0
  0
LINE
  5
485
330
20A
100
AcDbEntity
  8
3_ALL_AXES
  6
CENTER
 62
     2
100
AcDbLine
 10
224.883149
 20
235.233634
 30
0.0
 11
232.031185
 21
235.233634
 31
0.0
  0
LINE
  5
486
330
20A
100
AcDbEntity
  8
3_ALL_AXES
  6
CENTER
 62
     2
100
AcDbLine
 10
224.883149
 20
235.233634
 30
0.0
 11
217.735113
 21
235.233634
 31
0.0
  0
LINE
  5
487
330
20A
100
AcDbEntity
  8
3_ALL_AXES
  6
CENTER
 62
     2
100
AcDbLine
 10
224.883149
 20
235.233634
 30
0.0
 11
224.883149
 21
242.38167
 31
0.0
  0
LINE
  5
488
330
20A
100
AcDbEntity
  8
3_ALL_AXES
  6
CENTER
 62
     2
100
AcDbLine
 10
224.883149
 20
235.233634
 30
0.0
 11
224.883149
 21
228.085599
 31
0.0
  0
INSERT
  5
489
330
20A
100
AcDbEntity
  8
0
  6
Continuous
 62
     2
100
AcDbBlockReference
  2
LOGO2_BL0
 10
754.83965
 20
36.500801
 30
0.0
  0
ACAD_TABLE
  5
48A
102
{ACAD_XDICTIONARY
360
4E4
102
}
330
20A
100
AcDbEntity
  8
0
  6
Continuous
 62
     2
160
              3280
310
D00C000017000000880000001D000000000000000000F03F000000000000000000000000000000003A7803DC1B2887400000000000000000000000000000F03F0000000000000000E501E4401A00494000000000000000000000000000000000000000000000F03F0000000000000000000000000000000000000000000000
310
000000000000000000000000000000F03F54000000200000000200000000000000000000000000000000000000000000000000000000000000008056400000000000000000000000000000000000000000000000000000000000000000000000000000F03F5400000020000000020000000000000000000000000000000000
310
00000000000000000000000000000000000000000000000044C0000000000000000000000000000000000000000000000000000000000000F03F5400000020000000020000000000000000003E4000000000000018C00000000000000000000000000080564000000000000018C00000000000000000000000000000000000
310
00000000000000000000000000F03F5400000020000000020000000000000000003E4000000000000028C00000000000000000000000000080564000000000000028C0000000000000000000000000000000000000000000000000000000000000F03F5400000020000000020000000000000000003E4000000000000036C0
310
0000000000000000000000000080564000000000000036C0000000000000000000000000000000000000000000000000000000000000F03F54000000200000000200000000000000000000000000000000003BC0000000000000000000000000008056400000000000003BC000000000000000000000000000000000000000
310
0000000000000000000000F03F540000002000000002000000000000000000000000000000000044C00000000000000000000000000080564000000000000044C0000000000000000000000000000000000000000000000000000000000000F03F5400000020000000020000000000000000003E4000000000000000000000
310
0000000000000000000000003E400000000000003BC0000000000000000000000000000000000000000000000000000000000000F03F540000002000000002000000000000000080514000000000000000000000000000000000000000000080514000000000000028C0000000000000000000000000000000000000000000
310
000000000000000000F03F540000002000000002000000000000000080564000000000000000000000000000000000000000000080564000000000000044C0000000000000000000000000000000000000000000000000000000000000F03F0C000000100000000B000000C8000000260000003AB4C876BE6F3F404E621058
310
393412C0000000000000000000000000000000000000000000000000000000000000F03F000000000000F03F00000000000000000000000000000000570043003500330030003300000000000C000000010000000000000000000840000000000000F03F0000000000000000000000000000F03F0000000000000000000000
310
000000000000000000000000000000000000000000000000000000000061007200690061006C002E00740074006600000000000000C800000026000000C2F5285C8FC6514075931804560E13C0000000000000000000000000000000000000000000000000000000000000F03F000000000000F03F00000000000000000000
310
0000000000005200650076003A0030003000000000000C000000010000000000000000000C40000000000000F03F0000000000000000000000000000F03F0000000000000000000000000000000000000000000000000000000000000000000000000000000061007200690061006C002E00740074006600000000000000CC
310
00000026000000FA7E6ABC74433F405839B4C8769E26C0000000000000000000000000000000000000000000000000000000000000F03F000000000000F03F000000000000000000000000000000005300630061006C0065003A0031003A003100000012000000010000000000000000000C40000000000000F03F00000000
310
00000000000000000000F03F0000000000000000000000000000000000000000000000000000000000000000000000000000000061007200690061006C002E00740074006600000000000000C0000000260000003333333333DF5140BA490C022B8725C0000000000000000000000000000000000000000000000000000000
310
000000F03F000000000000F03F00000000000000000000000000000000410031000000000004000000010000000000000000000C40000000000000F03F0000000000000000000000000000F03F0000000000000000000000000000000000000000000000000000000000000000000000000000000061007200690061006C00
310
2E00740074006600000000000000BC000000260000004C37894160553F400000000000C032C0000000000000000000000000000000000000000000000000000000000000F03F000000000000F03F000000000000000000000000000000002D00000002000000010000000000000000000C40000000000000F03F0000000000
310
000000000000000000F03F0000000000000000000000000000000000000000000000000000000000000000000000000000000061007200690061006C002E00740074006600000000000000D40000002600000048E17A14AE373F40C3F5285C8FC239C000000000000000000000000000000000000000000000000000000000
310
0000F03F000000000000F03F0000000000000000000000000000000044004100540045003A00320030002E00300037002E003200300000001A000000010000000000000000000440000000000000F03F0000000000000000000000000000F03F00000000000000000000000000000000000000000000000000000000000000
310
00000000000000000061007200690061006C002E007400740066000000000000002401000026000000CDCCCCCCCCCCF73F0000000000903DC0000000000000000000000000000000000000000000000000000000000000F03F000000000000F03F0000000000000000000000000000000041006E007900200069006E007400
310
65006700720061006C0020006F00720020007000610072007400690061006C00200072006500700072006F00640075006300740069006F006E00730020006100720065002000700072006F0068006900620069007400650064000000000068000000010000000000000000000240000000000000F03F000000000000000000
310
0000000000F03F0000000000000000000000000000000000000000000000000000000000000000000000000000000061007200690061006C002E007400740066000000000000002C01000026000000FED478E926B1F73F37894160E57C40C0000000000000000000000000000000000000000000000000000000000000F03F
310
000000000000F03F0000000000000000000000000000000077006900740068006F007500740020007000720069006F007200200061007500740068006F007200690073006100740069006F006E0020006F00660020004C002000260020004C0020004C007500630065002000260020004C006900670068007400200073002E
310
0072002E006C002E002C00000072000000010000000000000000000240000000000000F03F0000000000000000000000000000F03F0000000000000000000000000000000000000000000000000000000000000000000000000000000061007200690061006C002E007400740066000000000000000401000026000000C1CA
310
A145B673F43F4F1E166A4D3142C0000000000000000000000000000000000000000000000000000000000000F03F000000000000F03F0000000000000000000000000000000069006E0020006100630063006F007200640061006E006300650020007700690074006800200074006800650020006C0061007700200069006E
310
00200066006F007200630065002E000000000048000000010000000000000000000240000000000000F03F0000000000000000000000000000F03F0000000000000000000000000000000000000000000000000000000000000000000000000000000061007200690061006C002E00740074006600000000000000E4000000
310
26000000CDCCCCCCCCCCF73F302AA913D0E043C0000000000000000000000000000000000000000000000000000000000000F03F000000000000F03F0000000000000000000000000000000041006C006C0020007200690067006800740073002000720065007300650072007600650064002E000000000028000000010000
310
000000000000000240000000000000F03F0000000000000000000000000000F03F0000000000000000000000000000000000000000000000000000000000000000000000000000000061007200690061006C002E00740074006600000000000000080000001F000000
100
AcDbBlockReference
  2
*T14
 10
741.013603
 20
50.000801
 30
0.0
100
AcDbTable
342
4B6
343
21A
 11
1.0
 21
0.0
 31
0.0
 90
       22
 91
        5
 92
        5
 93
        0
 94
        0
 95
        0
 96
        0
141
6.0
141
6.0
141
10.0
141
5.0
141
13.0
142
10.0
142
10.0
142
10.0
142
40.0
142
20.0
171
     1
172
     0
173
     0
174
     0
175
     3
176
     4
 91
       32
178
     0
145
0.0
140
3.5
 92
        0
301
CELL_VALUE
 93
        2
 90
        4
  1
 
 94
        0
300

302
 
304
ACVALUE_END
171
     1
172
     0
173
     1
174
     0
175
     1
176
     1
 91
        0
178
     0
145
0.0
 92
        0
301
CELL_VALUE
 93
        3
 90
        0
 91
        0
 94
        0
300

302

304
ACVALUE_END
171
     1
172
     0
173
     1
174
     0
175
     1
176
     1
 91
        0
178
     0
145
0.0
 92
        0
301
CELL_VALUE
 93
        3
 90
        0
 91
        0
 94
        0
300

302

304
ACVALUE_END
171
     1
172
     0
173
     0
174
     0
175
     1
176
     1
 91
       33
178
     0
145
0.0
170
     4
140
3.0
 92
        0
301
CELL_VALUE
 93
        2
 90
        4
  1
WC5303
 94
        0
300

302
WC5303
304
ACVALUE_END
171
     1
172
     0
173
     0
174
     0
175
     1
176
     1
 91
       33
178
     0
145
0.0
170
     4
140
3.5
 92
        0
301
CELL_VALUE
 93
        2
 90
        4
  1
Rev:00
 94
        0
300

302
Rev:00
304
ACVALUE_END
171
     1
172
     0
173
     1
174
     0
175
     1
176
     1
 91
        0
178
     0
145
0.0
 92
        0
301
CELL_VALUE
 93
        3
 90
        0
 91
        0
 94
        0
300

302

304
ACVALUE_END
171
     1
172
     0
173
     1
174
     0
175
     1
176
     1
 91
        0
178
     0
145
0.0
 92
        0
301
CELL_VALUE
 93
        3
 90
        0
 91
        0
 94
        0
300

302

304
ACVALUE_END
171
     1
172
     0
173
     1
174
     0
175
     1
176
     1
 91
        0
178
     0
145
0.0
 92
        0
301
CELL_VALUE
 93
        3
 90
        0
 91
        0
 94
        0
300

302

304
ACVALUE_END
171
     1
172
     0
173
     0
174
     0
175
     1
176
     1
 91
       33
178
     0
145
0.0
170
     1
140
3.5
 92
        0
301
CELL_VALUE
 93
        2
 90
        4
  1
Scale:1:1
 94
        0
300

302
Scale:1:1
304
ACVALUE_END
171
     1
172
     0
173
     0
174
     0
175
     1
176
     1
 91
       33
178
     0
145
0.0
170
     4
140
3.5
 92
        0
301
CELL_VALUE
 93
        2
 90
        4
  1
A1
 94
        0
300

302
A1
304
ACVALUE_END
171
     1
172
     0
173
     1
174
     0
175
     1
176
     1
 91
        0
178
     0
145
0.0
 92
        0
301
CELL_VALUE
 93
        3
 90
        0
 91
        0
 94
        0
300

302

304
ACVALUE_END
171
     1
172
     0
173
     1
174
     0
175
     1
176
     1
 91
        0
178
     0
145
0.0
 92
        0
301
CELL_VALUE
 93
        3
 90
        0
 91
        0
 94
        0
300

302

304
ACVALUE_END
171
     1
172
     0
173
     1
174
     0
175
     1
176
     1
 91
        0
178
     0
145
0.0
 92
        0
301
CELL_VALUE
 93
        3
 90
        0
 91
        0
 94
        0
300

302

304
ACVALUE_END
171
     1
172
     0
173
     0
174
     0
175
     2
176
     1
 91
       33
178
     0
145
0.0
170
     4
140
3.5
 92
        0
301
CELL_VALUE
 93
        2
 90
        4
  1
-
 94
        0
300

302
-
304
ACVALUE_END
171
     1
172
     0
173
     1
174
     0
175
     1
176
     1
 91
        0
178
     0
145
0.0
 92
        0
301
CELL_VALUE
 93
        3
 90
        0
 91
        0
 94
        0
300

302

304
ACVALUE_END
171
     1
172
     0
173
     1
174
     0
175
     1
176
     1
 91
        0
178
     0
145
0.0
 92
        0
301
CELL_VALUE
 93
        3
 90
        0
 91
        0
 94
        0
300

302

304
ACVALUE_END
171
     1
172
     0
173
     1
174
     0
175
     1
176
     1
 91
        0
178
     0
145
0.0
 92
        0
301
CELL_VALUE
 93
        3
 90
        0
 91
        0
 94
        0
300

302

304
ACVALUE_END
171
     1
172
     0
173
     1
174
     0
175
     1
176
     1
 91
        0
178
     0
145
0.0
 92
        0
301
CELL_VALUE
 93
        3
 90
        0
 91
        0
 94
        0
300

302

304
ACVALUE_END
171
     1
172
     0
173
     0
174
     0
175
     2
176
     1
 91
       33
178
     0
145
0.0
170
     4
140
2.5
 92
        0
301
CELL_VALUE
 93
        2
 90
        4
  1
DATE:20.07.20
 94
        0
300

302
DATE:20.07.20
304
ACVALUE_END
171
     1
172
     0
173
     1
174
     0
175
     1
176
     1
 91
        0
178
     0
145
0.0
 92
        0
301
CELL_VALUE
 93
        3
 90
        0
 91
        0
 94
        0
300

302

304
ACVALUE_END
171
     1
172
     0
173
     0
174
     0
175
     5
176
     1
 91
       33
178
     0
145
0.0
170
     4
140
2.25
 92
        0
301
CELL_VALUE
 93
        2
 90
        4
  1
Any integral or partial reproductions are prohibited \Pwithout prior authorisation of L & L Luce & Light s.r.l., \Pin accordance with the law in force. \PAll rights reserved.
 94
        0
300

302
Any integral or partial reproductions are prohibited \Pwithout prior authorisation of L & L Luce & Light s.r.l., \Pin accordance with the law in force. \PAll rights reserved.
304
ACVALUE_END
171
     1
172
     0
173
     1
174
     0
175
     1
176
     1
 91
        0
178
     0
145
0.0
 92
        0
301
CELL_VALUE
 93
        3
 90
        0
 91
        0
 94
        0
300

302

304
ACVALUE_END
171
     1
172
     0
173
     1
174
     0
175
     1
176
     1
 91
        0
178
     0
145
0.0
 92
        0
301
CELL_VALUE
 93
        3
 90
        0
 91
        0
 94
        0
300

302

304
ACVALUE_END
171
     1
172
     0
173
     1
174
     0
175
     1
176
     1
 91
        0
178
     0
145
0.0
 92
        0
301
CELL_VALUE
 93
        3
 90
        0
 91
        0
 94
        0
300

302

304
ACVALUE_END
171
     1
172
     0
173
     1
174
     0
175
     1
176
     1
 91
        0
178
     0
145
0.0
 92
        0
301
CELL_VALUE
 93
        3
 90
        0
 91
        0
 94
        0
300

302

304
ACVALUE_END
  0
LEADER
  5
48B
330
20A
100
AcDbEntity
  8
9_SOLID
  6
Continuous
 62
     2
100
AcDbLeader
  3
STANDARD
 73
     0
 40
6.555
 41
142.87
 76
     3
 10
666.199116
 20
457.174107
 30
0.0
 10
613.972771
 20
518.846405
 30
0.0
 10
610.972771
 20
518.846405
 30
0.0
340
48D
1001
ACAD
1000
DSTYLE
1002
{
1070
    77
1070
     0
1002
}
  0
LEADER
  5
48C
330
20A
100
AcDbEntity
  8
9_SOLID
  6
Continuous
 62
     2
100
AcDbLeader
  3
STANDARD
 73
     0
 40
6.555
 41
142.87
 76
     3
 10
661.319155
 20
457.317635
 30
0.0
 10
613.972771
 20
518.846405
 30
0.0
 10
610.972771
 20
518.846405
 30
0.0
340
48D
1001
ACAD
1000
DSTYLE
1002
{
1070
    77
1070
     0
1002
}
  0
MTEXT
  5
48D
102
{ACAD_REACTORS
330
48B
330
48C
102
}
330
20A
100
AcDbEntity
  8
9_SOLID
  6
Continuous
 62
     2
100
AcDbMText
 10
610.972771
 20
521.346405
 30
0.0
 40
5.0
 41
143.289963
 46
0.0
 71
     3
 72
     1
  1
GUARNIZIONE GOMMA (RUBBER GASKET)
 73
     1
 44
0.9
  0
ENDSEC
  0
SECTION
  2
OBJECTS
  0
DICTIONARY
  5
C
330
0
100
AcDbDictionary
281
     1
  3
ACAD_DETAILVIEWSTYLE
350
51D
  3
ACAD_GROUP
350
D
  3
ACAD_IMAGE_DICT
350
4DD
  3
ACAD_LAYOUT
350
1A
  3
ACAD_MATERIAL
350
4D1
  3
ACAD_MLEADERSTYLE
350
51C
  3
ACAD_MLINESTYLE
350
17
  3
ACAD_PLOTSETTINGS
350
19
  3
ACAD_PLOTSTYLENAME
350
E
  3
ACAD_SCALELIST
350
493
  3
ACAD_SECTIONVIEWSTYLE
350
51E
  3
ACAD_TABLESTYLE
350
4B5
  3
ACAD_VISUALSTYLE
350
4B8
  3
ACDB_RECOMPOSE_DATA
350
51A
  3
AcDbVariableDictionary
350
4E6
  3
HOST_DOC_SETTINGS
350
4DB
  3
MCS_STREAM_DICT
350
4D7
  0
SUN
  5
4DA
330
1F4
100
AcDbSun
 90
        1
290
     0
 63
     7
421
 16777215
 40
1.0
291
     1
 91
  2455826
 92
 54000000
292
     0
 70
     2
 71
   256
280
     1
  0
DICTIONARY
  5
4E4
330
48A
100
AcDbDictionary
280
     1
281
     1
  3
ACAD_XREC_ROUNDTRIP
360
4E5
  0
DICTIONARY
  5
51D
102
{ACAD_REACTORS
330
C
102
}
330
C
100
AcDbDictionary
281
     1
  0
DICTIONARY
  5
D
102
{ACAD_REACTORS
330
C
102
}
330
C
100
AcDbDictionary
281
     1
  0
DICTIONARY
  5
4DD
102
{ACAD_REACTORS
330
C
102
}
330
C
100
AcDbDictionary
281
     1
  0
DICTIONARY
  5
1A
102
{ACAD_REACTORS
330
C
102
}
330
C
100
AcDbDictionary
281
     1
  3
Layout1
350
490
  3
Model
350
48F
  0
DICTIONARY
  5
4D1
102
{ACAD_REACTORS
330
C
102
}
330
C
100
AcDbDictionary
281
     1
  3
ByBlock
350
4D3
  3
ByLayer
350
4D2
  3
Global
350
4D4
  0
DICTIONARY
  5
51C
102
{ACAD_REACTORS
330
C
102
}
330
C
100
AcDbDictionary
281
     1
  0
DICTIONARY
  5
17
102
{ACAD_REACTORS
330
C
102
}
330
C
100
AcDbDictionary
281
     1
  3
Standard
350
18
  0
DICTIONARY
  5
19
102
{ACAD_REACTORS
330
C
102
}
330
C
100
AcDbDictionary
281
     1
  0
ACDBDICTIONARYWDFLT
  5
E
102
{ACAD_REACTORS
330
C
102
}
330
C
100
AcDbDictionary
281
     1
  3
Normal
350
F
100
AcDbDictionaryWithDefault
340
F
  0
DICTIONARY
  5
493
102
{ACAD_REACTORS
330
C
102
}
330
C
100
AcDbDictionary
281
     1
  3
A0
350
494
  3
A1
350
495
  3
A2
350
496
  3
A3
350
497
  3
A4
350
498
  3
A5
350
499
  3
A6
350
49A
  3
A7
350
49B
  3
A8
350
49C
  3
A9
350
49D
  3
B0
350
49E
  3
B1
350
49F
  3
B2
350
4A0
  3
B3
350
4A1
  3
B4
350
4A2
  3
B5
350
4A3
  3
B6
350
4A4
  3
B7
350
4A5
  3
B8
350
4A6
  3
B9
350
4A7
  3
C0
350
4A8
  3
C1
350
4A9
  3
C2
350
4AA
  3
C3
350
4AB
  3
C4
350
4AC
  3
C5
350
4AD
  3
C6
350
4AE
  3
C7
350
4AF
  3
C8
350
4B0
  3
C9
350
4B1
  3
D0
350
4B2
  3
D1
350
4B3
  3
D2
350
4B4
  0
DICTIONARY
  5
51E
102
{ACAD_REACTORS
330
C
102
}
330
C
100
AcDbDictionary
281
     1
  0
DICTIONARY
  5
4B5
102
{ACAD_REACTORS
330
C
102
}
330
C
100
AcDbDictionary
281
     1
  3
Standard
350
4B6
  0
DICTIONARY
  5
4B8
102
{ACAD_REACTORS
330
C
102
}
330
C
100
AcDbDictionary
281
     1
  3
2dWireframe
350
4BD
  3
Basic
350
4C0
  3
Brighten
350
4C4
  3
ColorChange
350
4C8
  3
Conceptual
350
4C2
  3
Dim
350
4C3
  3
EdgeColorOff
350
4CB
  3
Facepattern
350
4C7
  3
Flat
350
4B9
  3
FlatWithEdges
350
4BA
  3
Gouraud
350
4BB
  3
GouraudWithEdges
350
4BC
  3
Hidden
350
4BF
  3
JitterOff
350
4C9
  3
Linepattern
350
4C6
  3
OverhangOff
350
4CA
  3
Realistic
350
4C1
  3
Shaded
350
4D0
  3
Shaded with edges
350
4CF
  3
Shades of Gray
350
4CC
  3
Sketchy
350
4CD
  3
Thicken
350
4C5
  3
Wireframe
350
4BE
  3
X-Ray
350
4CE
  0
XRECORD
  5
51A
102
{ACAD_REACTORS
330
C
102
}
330
C
100
AcDbXrecord
280
     1
 90
        1
330
48A
330
4B6
  0
DICTIONARY
  5
4E6
102
{ACAD_REACTORS
330
C
102
}
330
C
100
AcDbDictionary
281
     1
  3
CANNOSCALE
350
4E7
  3
CTABLESTYLE
350
51B
  0
DICTIONARY
  5
4DB
102
{ACAD_REACTORS
330
C
102
}
330
C
100
AcDbDictionary
281
     1
  3
NCDocParameters
350
4DC
  0
DICTIONARY
  5
4D7
102
{ACAD_REACTORS
330
C
102
}
330
C
100
AcDbDictionary
281
     1
  3
MC_VERSION_DATA
350
4E0
  3
MCS_DOCUMENT_ID
350
4D8
  3
MCS_PARAMS_DATA
350
4DE
  0
XRECORD
  5
4E5
102
{ACAD_REACTORS
330
4E4
102
}
330
4E4
100
AcDbXrecord
280
     1
102
ACAD_ROUNDTRIP_2008_TABLE_ENTITY
360
4E2
 70
     2
 90
        1
 10
0.0
 20
0.0
 30
0.0
 90
        0
 90
        4
361
4E3
  0
LAYOUT
  5
490
102
{ACAD_REACTORS
330
1A
102
}
330
1A
100
AcDbPlotSettings
  1

  2
none_device
  4
ISO_A1_(594.00_x_841.00_MM)
  6

 40
0.0
 41
0.0
 42
0.0
 43
0.0
 44
841.0
 45
594.0
 46
0.0
 47
0.0
 48
0.0
 49
0.0
140
0.0
141
0.0
142
1.0
143
1.0
 70
     0
 72
     1
 73
     0
 74
     0
  7

 75
     0
 76
     0
 77
     2
 78
   300
147
1.0
148
0.0
149
0.0
100
AcDbLayout
  1
Layout1
 70
     0
 71
     1
 10
0.0
 20
0.0
 11
841.0
 21
594.0
 12
0.0
 22
0.0
 32
0.0
 14
0.0
 24
0.0
 34
0.0
 15
0.0
 25
0.0
 35
0.0
146
0.0
 13
0.0
 23
0.0
 33
0.0
 16
1.0
 26
0.0
 36
0.0
 17
0.0
 27
1.0
 37
0.0
 76
     0
330
20B
  0
LAYOUT
  5
48F
102
{ACAD_REACTORS
330
1A
102
}
330
1A
100
AcDbPlotSettings
  1

  2
none_device
  4
ISO_A1_(594.00_x_841.00_MM)
  6

 40
0.0
 41
0.0
 42
0.0
 43
0.0
 44
841.0
 45
594.0
 46
0.0
 47
0.0
 48
0.0
 49
0.0
140
0.0
141
0.0
142
1.0
143
1.0
 70
  1024
 72
     1
 73
     0
 74
     0
  7

 75
     0
 76
     0
 77
     2
 78
   300
147
1.0
148
0.0
149
0.0
100
AcDbLayout
  1
Model
 70
     0
 71
     0
 10
0.0
 20
0.0
 11
841.0
 21
594.0
 12
0.0
 22
0.0
 32
0.0
 14
0.0
 24
0.0
 34
0.0
 15
0.0
 25
0.0
 35
0.0
146
0.0
 13
0.0
 23
0.0
 33
0.0
 16
1.0
 26
0.0
 36
0.0
 17
0.0
 27
1.0
 37
0.0
 76
     0
330
20A
331
1F4
  0
MATERIAL
  5
4D3
102
{ACAD_REACTORS
330
4D1
102
}
330
4D1
100
AcDbMaterial
  1
ByBlock
 72
     1
 94
      127
  0
MATERIAL
  5
4D2
102
{ACAD_REACTORS
330
4D1
102
}
330
4D1
100
AcDbMaterial
  1
ByLayer
 72
     1
 94
      127
  0
MATERIAL
  5
4D4
102
{ACAD_REACTORS
330
4D1
102
}
330
4D1
100
AcDbMaterial
  1
Global
 72
     1
 94
      127
  0
MLINESTYLE
  5
18
102
{ACAD_REACTORS
330
17
102
}
330
17
100
AcDbMlineStyle
  2
STANDARD
 70
     0
  3

 62
   256
 51
90.0
 52
90.0
 71
     2
 49
0.5
 62
   256
  6
BYLAYER
 49
-0.5
 62
   256
  6
BYLAYER
  0
ACDBPLACEHOLDER
  5
F
102
{ACAD_REACTORS
330
E
102
}
330
E
  0
SCALE
  5
494
102
{ACAD_REACTORS
330
493
102
}
330
493
100
AcDbScale
 70
     0
300
1:1
140
1.0
141
1.0
290
     1
  0
SCALE
  5
495
102
{ACAD_REACTORS
330
493
102
}
330
493
100
AcDbScale
 70
     0
300
1:2
140
1.0
141
2.0
290
     0
  0
SCALE
  5
496
102
{ACAD_REACTORS
330
493
102
}
330
493
100
AcDbScale
 70
     0
300
1:4
140
1.0
141
4.0
290
     0
  0
SCALE
  5
497
102
{ACAD_REACTORS
330
493
102
}
330
493
100
AcDbScale
 70
     0
300
1:5
140
1.0
141
5.0
290
     0
  0
SCALE
  5
498
102
{ACAD_REACTORS
330
493
102
}
330
493
100
AcDbScale
 70
     0
300
1:8
140
1.0
141
8.0
290
     0
  0
SCALE
  5
499
102
{ACAD_REACTORS
330
493
102
}
330
493
100
AcDbScale
 70
     0
300
1:10
140
1.0
141
10.0
290
     0
  0
SCALE
  5
49A
102
{ACAD_REACTORS
330
493
102
}
330
493
100
AcDbScale
 70
     0
300
1:16
140
1.0
141
16.0
290
     0
  0
SCALE
  5
49B
102
{ACAD_REACTORS
330
493
102
}
330
493
100
AcDbScale
 70
     0
300
1:20
140
1.0
141
20.0
290
     0
  0
SCALE
  5
49C
102
{ACAD_REACTORS
330
493
102
}
330
493
100
AcDbScale
 70
     0
300
1:30
140
1.0
141
30.0
290
     0
  0
SCALE
  5
49D
102
{ACAD_REACTORS
330
493
102
}
330
493
100
AcDbScale
 70
     0
300
1:40
140
1.0
141
40.0
290
     0
  0
SCALE
  5
49E
102
{ACAD_REACTORS
330
493
102
}
330
493
100
AcDbScale
 70
     0
300
1:50
140
1.0
141
50.0
290
     0
  0
SCALE
  5
49F
102
{ACAD_REACTORS
330
493
102
}
330
493
100
AcDbScale
 70
     0
300
1:100
140
1.0
141
100.0
290
     0
  0
SCALE
  5
4A0
102
{ACAD_REACTORS
330
493
102
}
330
493
100
AcDbScale
 70
     0
300
2:1
140
2.0
141
1.0
290
     0
  0
SCALE
  5
4A1
102
{ACAD_REACTORS
330
493
102
}
330
493
100
AcDbScale
 70
     0
300
4:1
140
4.0
141
1.0
290
     0
  0
SCALE
  5
4A2
102
{ACAD_REACTORS
330
493
102
}
330
493
100
AcDbScale
 70
     0
300
8:1
140
8.0
141
1.0
290
     0
  0
SCALE
  5
4A3
102
{ACAD_REACTORS
330
493
102
}
330
493
100
AcDbScale
 70
     0
300
10:1
140
10.0
141
1.0
290
     0
  0
SCALE
  5
4A4
102
{ACAD_REACTORS
330
493
102
}
330
493
100
AcDbScale
 70
     0
300
100:1
140
100.0
141
1.0
290
     0
  0
SCALE
  5
4A5
102
{ACAD_REACTORS
330
493
102
}
330
493
100
AcDbScale
 70
     0
300
1/128" = 1'-0"
140
0.007812
141
12.0
290
     0
  0
SCALE
  5
4A6
102
{ACAD_REACTORS
330
493
102
}
330
493
100
AcDbScale
 70
     0
300
1/64" = 1'-0"
140
0.015625
141
12.0
290
     0
  0
SCALE
  5
4A7
102
{ACAD_REACTORS
330
493
102
}
330
493
100
AcDbScale
 70
     0
300
1/32" = 1'-0"
140
0.03125
141
12.0
290
     0
  0
SCALE
  5
4A8
102
{ACAD_REACTORS
330
493
102
}
330
493
100
AcDbScale
 70
     0
300
1/16" = 1'-0"
140
0.0625
141
12.0
290
     0
  0
SCALE
  5
4A9
102
{ACAD_REACTORS
330
493
102
}
330
493
100
AcDbScale
 70
     0
300
3/32" = 1'-0"
140
0.09375
141
12.0
290
     0
  0
SCALE
  5
4AA
102
{ACAD_REACTORS
330
493
102
}
330
493
100
AcDbScale
 70
     0
300
1/8" = 1'-0"
140
0.125
141
12.0
290
     0
  0
SCALE
  5
4AB
102
{ACAD_REACTORS
330
493
102
}
330
493
100
AcDbScale
 70
     0
300
3/16" = 1'-0"
140
0.1875
141
12.0
290
     0
  0
SCALE
  5
4AC
102
{ACAD_REACTORS
330
493
102
}
330
493
100
AcDbScale
 70
     0
300
1/4" = 1'-0"
140
0.25
141
12.0
290
     0
  0
SCALE
  5
4AD
102
{ACAD_REACTORS
330
493
102
}
330
493
100
AcDbScale
 70
     0
300
3/8" = 1'-0"
140
0.375
141
12.0
290
     0
  0
SCALE
  5
4AE
102
{ACAD_REACTORS
330
493
102
}
330
493
100
AcDbScale
 70
     0
300
1/2" = 1'-0"
140
0.5
141
12.0
290
     0
  0
SCALE
  5
4AF
102
{ACAD_REACTORS
330
493
102
}
330
493
100
AcDbScale
 70
     0
300
3/4" = 1'-0"
140
0.75
141
12.0
290
     0
  0
SCALE
  5
4B0
102
{ACAD_REACTORS
330
493
102
}
330
493
100
AcDbScale
 70
     0
300
1" = 1'-0"
140
1.0
141
12.0
290
     0
  0
SCALE
  5
4B1
102
{ACAD_REACTORS
330
493
102
}
330
493
100
AcDbScale
 70
     0
300
1-1/2" = 1'-0"
140
1.5
141
12.0
290
     0
  0
SCALE
  5
4B2
102
{ACAD_REACTORS
330
493
102
}
330
493
100
AcDbScale
 70
     0
300
3" = 1'-0"
140
3.0
141
12.0
290
     0
  0
SCALE
  5
4B3
102
{ACAD_REACTORS
330
493
102
}
330
493
100
AcDbScale
 70
     0
300
6" = 1'-0"
140
6.0
141
12.0
290
     0
  0
SCALE
  5
4B4
102
{ACAD_REACTORS
330
493
102
}
330
493
100
AcDbScale
 70
     0
300
1'-0" = 1'-0"
140
12.0
141
12.0
290
     0
  0
TABLESTYLE
  5
4B6
102
{ACAD_REACTORS
330
4B5
102
}
102
{ACAD_XDICTIONARY
360
4E8
102
}
330
4B5
100
AcDbTableStyle
  3
Standard
 70
     0
 71
     0
 40
0.06
 41
0.06
280
     0
281
     0
  7
STANDARD
140
4.5
170
     2
 62
     0
 63
   257
283
     0
 90
        4
 91
        0
  1

274
    -2
284
     1
 64
     0
275
    -2
285
     1
 65
     0
276
    -2
286
     1
 66
     0
277
    -2
287
     1
 67
     0
278
    -2
288
     1
 68
     0
279
    -2
289
     1
 69
     0
  7
STANDARD
140
6.0
170
     5
 62
     0
 63
   257
283
     0
 90
        4
 91
        0
  1

274
    -2
284
     1
 64
     0
275
    -2
285
     1
 65
     0
276
    -2
286
     1
 66
     0
277
    -2
287
     1
 67
     0
278
    -2
288
     1
 68
     0
279
    -2
289
     1
 69
     0
  7
STANDARD
140
4.5
170
     5
 62
     0
 63
   257
283
     0
 90
        4
 91
        0
  1

274
    -2
284
     1
 64
     0
275
    -2
285
     1
 65
     0
276
    -2
286
     1
 66
     0
277
    -2
287
     1
 67
     0
278
    -2
288
     1
 68
     0
279
    -2
289
     1
 69
     0
  0
VISUALSTYLE
  5
4BD
102
{ACAD_REACTORS
330
4B8
102
}
102
{ACAD_XDICTIONARY
360
4F2
102
}
330
4B8
100
AcDbVisualStyle
  2
2dWireframe
 70
     4
177
     2
291
     0
 71
     0
176
     1
 72
     2
176
     1
 73
     0
176
     1
 90
        0
176
     1
 40
0.6
176
     1
 41
30.0
176
     1
 62
     5
 63
     7
421
 16777215
176
     1
 74
     1
176
     1
 91
        4
176
     1
 64
     7
176
     1
 65
   257
176
     1
 75
     1
176
     1
175
     1
176
     1
 42
1.0
176
     1
 92
        0
176
     1
 66
   257
176
     1
 43
1.0
176
     1
 76
     1
176
     1
 77
     6
176
     1
 78
     2
176
     1
 67
     7
176
     1
 79
     5
176
     1
170
     0
176
     1
171
     0
176
     1
290
     0
176
     1
 93
        1
176
     1
 44
0.0
176
     1
173
     0
176
     1
  0
VISUALSTYLE
  5
4C0
102
{ACAD_REACTORS
330
4B8
102
}
102
{ACAD_XDICTIONARY
360
4F8
102
}
330
4B8
100
AcDbVisualStyle
  2
Basic
 70
     7
177
     2
291
     1
 71
     1
176
     1
 72
     0
176
     1
 73
     1
176
     1
 90
        0
176
     1
 40
0.6
176
     1
 41
30.0
176
     1
 62
     5
 63
     7
421
 16777215
176
     1
 74
     0
176
     1
 91
        4
176
     1
 64
     7
176
     1
 65
   257
176
     1
 75
     1
176
     1
175
     1
176
     1
 42
1.0
176
     1
 92
        8
176
     1
 66
     7
176
     1
 43
1.0
176
     1
 76
     1
176
     1
 77
     6
176
     1
 78
     2
176
     1
 67
     7
176
     1
 79
     5
176
     1
170
     0
176
     1
171
     0
176
     1
290
     0
176
     1
 93
        1
176
     1
 44
0.0
176
     1
173
     0
176
     1
  0
VISUALSTYLE
  5
4C4
102
{ACAD_REACTORS
330
4B8
102
}
102
{ACAD_XDICTIONARY
360
500
102
}
330
4B8
100
AcDbVisualStyle
  2
Brighten
 70
    12
177
     2
291
     1
 71
     2
176
     1
 72
     2
176
     1
 73
     0
176
     1
 90
        0
176
     1
 40
0.6
176
     1
 41
30.0
176
     1
 62
     5
 63
     7
421
 16777215
176
     1
 74
     1
176
     1
 91
        4
176
     1
 64
     7
176
     1
 65
   257
176
     1
 75
     1
176
     1
175
     1
176
     1
 42
1.0
176
     1
 92
        8
176
     1
 66
     7
176
     1
 43
1.0
176
     1
 76
     1
176
     1
 77
     6
176
     1
 78
     2
176
     1
 67
     7
176
     1
 79
     5
176
     1
170
     0
176
     1
171
     0
176
     1
290
     0
176
     1
 93
        1
176
     1
 44
50.0
176
     1
173
     0
176
     1
  0
VISUALSTYLE
  5
4C8
102
{ACAD_REACTORS
330
4B8
102
}
102
{ACAD_XDICTIONARY
360
508
102
}
330
4B8
100
AcDbVisualStyle
  2
ColorChange
 70
    16
177
     2
291
     1
 71
     2
176
     1
 72
     2
176
     1
 73
     3
176
     1
 90
        0
176
     1
 40
0.6
176
     1
 41
30.0
176
     1
 62
     5
 63
     8
421
  8421504
176
     1
 74
     1
176
     1
 91
        4
176
     1
 64
     7
176
     1
 65
   257
176
     1
 75
     1
176
     1
175
     1
176
     1
 42
1.0
176
     1
 92
        8
176
     1
 66
     8
424
  8421504
176
     1
 43
1.0
176
     1
 76
     1
176
     1
 77
     6
176
     1
 78
     2
176
     1
 67
     7
176
     1
 79
     5
176
     1
170
     0
176
     1
171
     0
176
     1
290
     0
176
     1
 93
        1
176
     1
 44
0.0
176
     1
173
     0
176
     1
  0
VISUALSTYLE
  5
4C2
102
{ACAD_REACTORS
330
4B8
102
}
102
{ACAD_XDICTIONARY
360
4FC
102
}
330
4B8
100
AcDbVisualStyle
  2
Conceptual
 70
     9
177
     2
291
     0
 71
     3
176
     1
 72
     2
176
     1
 73
     0
176
     1
 90
        0
176
     1
 40
0.6
176
     1
 41
30.0
176
     1
 62
     5
 63
     7
421
 16777215
176
     1
 74
     2
176
     1
 91
        2
176
     1
 64
     7
176
     1
 65
   257
176
     1
 75
     1
176
     1
175
     1
176
     1
 42
179.0
176
     1
 92
        8
176
     1
 66
     7
176
     1
 43
1.0
176
     1
 76
     1
176
     1
 77
     6
176
     1
 78
     2
176
     1
 67
     7
176
     1
 79
     3
176
     1
170
     0
176
     1
171
     0
176
     1
290
     0
176
     1
 93
        1
176
     1
 44
0.0
176
     1
173
     0
176
     1
  0
VISUALSTYLE
  5
4C3
102
{ACAD_REACTORS
330
4B8
102
}
102
{ACAD_XDICTIONARY
360
4FE
102
}
330
4B8
100
AcDbVisualStyle
  2
Dim
 70
    11
177
     2
291
     1
 71
     2
176
     1
 72
     2
176
     1
 73
     0
176
     1
 90
        0
176
     1
 40
0.6
176
     1
 41
30.0
176
     1
 62
     5
 63
     7
421
 16777215
176
     1
 74
     1
176
     1
 91
        4
176
     1
 64
     7
176
     1
 65
   257
176
     1
 75
     1
176
     1
175
     1
176
     1
 42
1.0
176
     1
 92
        8
176
     1
 66
     7
176
     1
 43
1.0
176
     1
 76
     1
176
     1
 77
     6
176
     1
 78
     2
176
     1
 67
     7
176
     1
 79
     5
176
     1
170
     0
176
     1
171
     0
176
     1
290
     0
176
     1
 93
        1
176
     1
 44
-50.0
176
     1
173
     0
176
     1
  0
VISUALSTYLE
  5
4CB
102
{ACAD_REACTORS
330
4B8
102
}
102
{ACAD_XDICTIONARY
360
50E
102
}
330
4B8
100
AcDbVisualStyle
  2
EdgeColorOff
 70
    22
177
     2
291
     1
 71
     2
176
     0
 72
     2
176
     0
 73
     0
176
     0
 90
        0
176
     0
 40
0.6
176
     0
 41
30.0
176
     0
 62
     5
 63
     7
421
 16777215
176
     0
 74
     1
176
     0
 91
        4
176
     0
 64
     7
176
     0
 65
   257
176
     0
 75
     1
176
     0
175
     1
176
     0
 42
1.0
176
     0
 92
        8
176
     2
 66
     7
176
     0
 43
1.0
176
     0
 76
     1
176
     0
 77
     6
176
     0
 78
     2
176
     0
 67
     7
176
     0
 79
     5
176
     0
170
     0
176
     0
171
     0
176
     0
290
     0
176
     0
 93
        1
176
     0
 44
0.0
176
     0
173
     0
176
     0
  0
VISUALSTYLE
  5
4C7
102
{ACAD_REACTORS
330
4B8
102
}
102
{ACAD_XDICTIONARY
360
506
102
}
330
4B8
100
AcDbVisualStyle
  2
Facepattern
 70
    15
177
     2
291
     1
 71
     2
176
     1
 72
     2
176
     1
 73
     0
176
     1
 90
        0
176
     1
 40
0.6
176
     1
 41
30.0
176
     1
 62
     5
 63
     7
421
 16777215
176
     1
 74
     1
176
     1
 91
        4
176
     1
 64
     7
176
     1
 65
   257
176
     1
 75
     1
176
     1
175
     1
176
     1
 42
1.0
176
     1
 92
        8
176
     1
 66
     7
176
     1
 43
1.0
176
     1
 76
     1
176
     1
 77
     6
176
     1
 78
     2
176
     1
 67
     7
176
     1
 79
     5
176
     1
170
     0
176
     1
171
     0
176
     1
290
     0
176
     1
 93
        1
176
     1
 44
0.0
176
     1
173
     0
176
     1
  0
VISUALSTYLE
  5
4B9
102
{ACAD_REACTORS
330
4B8
102
}
102
{ACAD_XDICTIONARY
360
4EA
102
}
330
4B8
100
AcDbVisualStyle
  2
Flat
 70
     0
177
     2
291
     1
 71
     2
176
     1
 72
     1
176
     1
 73
     1
176
     1
 90
        2
176
     1
 40
0.6
176
     1
 41
30.0
176
     1
 62
     5
 63
     7
421
 16777215
176
     1
 74
     0
176
     1
 91
        0
176
     1
 64
     7
176
     1
 65
   257
176
     1
 75
     1
176
     1
175
     1
176
     1
 42
1.0
176
     1
 92
        8
176
     1
 66
     7
176
     1
 43
1.0
176
     1
 76
     1
176
     1
 77
     6
176
     1
 78
     2
176
     1
 67
     7
176
     1
 79
     5
176
     1
170
     0
176
     1
171
     0
176
     1
290
     0
176
     1
 93
       13
176
     1
 44
0.0
176
     1
173
     0
176
     1
  0
VISUALSTYLE
  5
4BA
102
{ACAD_REACTORS
330
4B8
102
}
102
{ACAD_XDICTIONARY
360
4EC
102
}
330
4B8
100
AcDbVisualStyle
  2
FlatWithEdges
 70
     1
177
     2
291
     1
 71
     2
176
     1
 72
     1
176
     1
 73
     1
176
     1
 90
        2
176
     1
 40
0.6
176
     1
 41
30.0
176
     1
 62
     5
 63
     7
421
 16777215
176
     1
 74
     1
176
     1
 91
        0
176
     1
 64
     7
176
     1
 65
   257
176
     1
 75
     1
176
     1
175
     1
176
     1
 42
1.0
176
     1
 92
        0
176
     1
 66
   257
176
     1
 43
1.0
176
     1
 76
     1
176
     1
 77
     6
176
     1
 78
     2
176
     1
 67
     7
176
     1
 79
     5
176
     1
170
     0
176
     1
171
     0
176
     1
290
     0
176
     1
 93
       13
176
     1
 44
0.0
176
     1
173
     0
176
     1
  0
VISUALSTYLE
  5
4BB
102
{ACAD_REACTORS
330
4B8
102
}
102
{ACAD_XDICTIONARY
360
4EE
102
}
330
4B8
100
AcDbVisualStyle
  2
Gouraud
 70
     2
177
     2
291
     1
 71
     2
176
     1
 72
     2
176
     1
 73
     1
176
     1
 90
        2
176
     1
 40
0.6
176
     1
 41
30.0
176
     1
 62
     5
 63
     7
421
 16777215
176
     1
 74
     0
176
     1
 91
        0
176
     1
 64
     7
176
     1
 65
   257
176
     1
 75
     1
176
     1
175
     1
176
     1
 42
1.0
176
     1
 92
        0
176
     1
 66
     7
176
     1
 43
1.0
176
     1
 76
     1
176
     1
 77
     6
176
     1
 78
     2
176
     1
 67
     7
176
     1
 79
     5
176
     1
170
     0
176
     1
171
     0
176
     1
290
     0
176
     1
 93
       13
176
     1
 44
0.0
176
     1
173
     0
176
     1
  0
VISUALSTYLE
  5
4BC
102
{ACAD_REACTORS
330
4B8
102
}
102
{ACAD_XDICTIONARY
360
4F0
102
}
330
4B8
100
AcDbVisualStyle
  2
GouraudWithEdges
 70
     3
177
     2
291
     1
 71
     2
176
     1
 72
     2
176
     1
 73
     1
176
     1
 90
        2
176
     1
 40
0.6
176
     1
 41
30.0
176
     1
 62
     5
 63
     7
421
 16777215
176
     1
 74
     1
176
     1
 91
        0
176
     1
 64
     7
176
     1
 65
   257
176
     1
 75
     1
176
     1
175
     1
176
     1
 42
1.0
176
     1
 92
        0
176
     1
 66
   257
176
     1
 43
1.0
176
     1
 76
     1
176
     1
 77
     6
176
     1
 78
     2
176
     1
 67
     7
176
     1
 79
     5
176
     1
170
     0
176
     1
171
     0
176
     1
290
     0
176
     1
 93
       13
176
     1
 44
0.0
176
     1
173
     0
176
     1
  0
VISUALSTYLE
  5
4BF
102
{ACAD_REACTORS
330
4B8
102
}
102
{ACAD_XDICTIONARY
360
4F6
102
}
330
4B8
100
AcDbVisualStyle
  2
Hidden
 70
     6
177
     2
291
     0
 71
     1
176
     1
 72
     2
176
     1
 73
     2
176
     1
 90
        0
176
     1
 40
0.6
176
     1
 41
30.0
176
     1
 62
     5
 63
     7
421
 16777215
176
     1
 74
     2
176
     1
 91
        2
176
     1
 64
     7
176
     1
 65
   257
176
     1
 75
     2
176
     1
175
     1
176
     1
 42
40.0
176
     1
 92
        0
176
     1
 66
   257
176
     1
 43
1.0
176
     1
 76
     1
176
     1
 77
     6
176
     1
 78
     2
176
     1
 67
     7
176
     1
 79
     3
176
     1
170
     0
176
     1
171
     0
176
     1
290
     0
176
     1
 93
        1
176
     1
 44
0.0
176
     1
173
     0
176
     1
  0
VISUALSTYLE
  5
4C9
102
{ACAD_REACTORS
330
4B8
102
}
102
{ACAD_XDICTIONARY
360
50A
102
}
330
4B8
100
AcDbVisualStyle
  2
JitterOff
 70
    20
177
     2
291
     1
 71
     2
176
     0
 72
     2
176
     0
 73
     0
176
     0
 90
        0
176
     0
 40
0.6
176
     0
 41
30.0
176
     0
 62
     5
 63
     7
421
 16777215
176
     0
 74
     1
176
     0
 91
        4
176
     0
 64
     7
176
     0
 65
   257
176
     0
 75
     1
176
     0
175
     1
176
     0
 42
1.0
176
     0
 92
       10
176
     2
 66
     7
176
     0
 43
1.0
176
     0
 76
     1
176
     0
 77
     6
176
     0
 78
     2
176
     0
 67
     7
176
     0
 79
     5
176
     0
170
     0
176
     0
171
     0
176
     0
290
     0
176
     0
 93
        1
176
     0
 44
0.0
176
     0
173
     0
176
     0
  0
VISUALSTYLE
  5
4C6
102
{ACAD_REACTORS
330
4B8
102
}
102
{ACAD_XDICTIONARY
360
504
102
}
330
4B8
100
AcDbVisualStyle
  2
Linepattern
 70
    14
177
     2
291
     1
 71
     2
176
     1
 72
     2
176
     1
 73
     0
176
     1
 90
        0
176
     1
 40
0.6
176
     1
 41
30.0
176
     1
 62
     5
 63
     7
421
 16777215
176
     1
 74
     1
176
     1
 91
        4
176
     1
 64
     7
176
     1
 65
   257
176
     1
 75
     7
176
     1
175
     7
176
     1
 42
1.0
176
     1
 92
        8
176
     1
 66
     7
176
     1
 43
1.0
176
     1
 76
     1
176
     1
 77
     6
176
     1
 78
     2
176
     1
 67
     7
176
     1
 79
     5
176
     1
170
     0
176
     1
171
     0
176
     1
290
     0
176
     1
 93
        1
176
     1
 44
0.0
176
     1
173
     0
176
     1
  0
VISUALSTYLE
  5
4CA
102
{ACAD_REACTORS
330
4B8
102
}
102
{ACAD_XDICTIONARY
360
50C
102
}
330
4B8
100
AcDbVisualStyle
  2
OverhangOff
 70
    21
177
     2
291
     1
 71
     2
176
     0
 72
     2
176
     0
 73
     0
176
     0
 90
        0
176
     0
 40
0.6
176
     0
 41
30.0
176
     0
 62
     5
 63
     7
421
 16777215
176
     0
 74
     1
176
     0
 91
        4
176
     0
 64
     7
176
     0
 65
   257
176
     0
 75
     1
176
     0
175
     1
176
     0
 42
1.0
176
     0
 92
        9
176
     2
 66
     7
176
     0
 43
1.0
176
     0
 76
     1
176
     0
 77
     6
176
     0
 78
     2
176
     0
 67
     7
176
     0
 79
     5
176
     0
170
     0
176
     0
171
     0
176
     0
290
     0
176
     0
 93
        1
176
     0
 44
0.0
176
     0
173
     0
176
     0
  0
VISUALSTYLE
  5
4C1
102
{ACAD_REACTORS
330
4B8
102
}
102
{ACAD_XDICTIONARY
360
4FA
102
}
330
4B8
100
AcDbVisualStyle
  2
Realistic
 70
     8
177
     2
291
     0
 71
     2
176
     1
 72
     3
176
     1
 73
     0
176
     1
 90
        2
176
     1
 40
0.6
176
     1
 41
30.0
176
     1
 62
     5
 63
     7
421
 16777215
176
     1
 74
     0
176
     1
 91
        0
176
     1
 64
     7
176
     1
 65
   257
176
     1
 75
     1
176
     1
175
     1
176
     1
 42
1.0
176
     1
 92
        8
176
     1
 66
   257
176
     1
 43
1.0
176
     1
 76
     1
176
     1
 77
     6
176
     1
 78
     2
176
     1
 67
     7
176
     1
 79
     3
176
     1
170
     0
176
     1
171
     0
176
     1
290
     0
176
     1
 93
       13
176
     1
 44
0.0
176
     1
173
     0
176
     1
  0
VISUALSTYLE
  5
4D0
102
{ACAD_REACTORS
330
4B8
102
}
102
{ACAD_XDICTIONARY
360
518
102
}
330
4B8
100
AcDbVisualStyle
  2
Shaded
 70
    27
177
     2
291
     0
 71
     2
176
     1
 72
     2
176
     1
 73
     1
176
     1
 90
        2
176
     1
 40
0.6
176
     1
 41
30.0
176
     1
 62
     5
 63
     7
421
 16777215
176
     1
 74
     0
176
     1
 91
        4
176
     1
 64
     7
176
     1
 65
   257
176
     1
 75
     1
176
     1
175
     1
176
     1
 42
1.0
176
     1
 92
        8
176
     1
 66
   257
176
     1
 43
1.0
176
     1
 76
     1
176
     1
 77
     6
176
     1
 78
     2
176
     1
 67
     8
425
  7895160
176
     1
 79
     3
176
     1
170
     0
176
     1
171
     0
176
     1
290
     0
176
     1
 93
        5
176
     1
 44
0.0
176
     1
173
     0
176
     1
  0
VISUALSTYLE
  5
4CF
102
{ACAD_REACTORS
330
4B8
102
}
102
{ACAD_XDICTIONARY
360
516
102
}
330
4B8
100
AcDbVisualStyle
  2
Shaded with edges
 70
    26
177
     2
291
     0
 71
     2
176
     1
 72
     2
176
     1
 73
     1
176
     1
 90
        2
176
     1
 40
0.6
176
     1
 41
30.0
176
     1
 62
     5
 63
     7
421
 16777215
176
     1
 74
     1
176
     1
 91
       10
176
     1
 64
     7
176
     1
 65
   257
176
     1
 75
     2
176
     1
175
     1
176
     1
 42
1.0
176
     1
 92
        8
176
     1
 66
   257
176
     1
 43
1.0
176
     1
 76
     1
176
     1
 77
     6
176
     1
 78
     2
176
     1
 67
     7
176
     1
 79
     3
176
     1
170
     0
176
     1
171
     0
176
     1
290
     0
176
     1
 93
        5
176
     1
 44
0.0
176
     1
173
     0
176
     1
  0
VISUALSTYLE
  5
4CC
102
{ACAD_REACTORS
330
4B8
102
}
102
{ACAD_XDICTIONARY
360
510
102
}
330
4B8
100
AcDbVisualStyle
  2
Shades of Gray
 70
    23
177
     2
291
     0
 71
     2
176
     1
 72
     2
176
     1
 73
     3
176
     1
 90
        0
176
     1
 40
0.6
176
     1
 41
30.0
176
     1
 62
     5
 63
     7
421
 16777215
176
     1
 74
     2
176
     1
 91
        2
176
     1
 64
     7
176
     1
 65
     7
176
     1
 75
     1
176
     1
175
     1
176
     1
 42
40.0
176
     1
 92
        8
176
     1
 66
     7
176
     1
 43
1.0
176
     1
 76
     1
176
     1
 77
     6
176
     1
 78
     2
176
     1
 67
     7
176
     1
 79
     3
176
     1
170
     0
176
     1
171
     0
176
     1
290
     0
176
     1
 93
        1
176
     1
 44
0.0
176
     1
173
     0
176
     1
  0
VISUALSTYLE
  5
4CD
102
{ACAD_REACTORS
330
4B8
102
}
102
{ACAD_XDICTIONARY
360
512
102
}
330
4B8
100
AcDbVisualStyle
  2
Sketchy
 70
    24
177
     2
291
     0
 71
     1
176
     1
 72
     2
176
     1
 73
     2
176
     1
 90
        0
176
     1
 40
0.6
176
     1
 41
30.0
176
     1
 62
     5
 63
     7
421
 16777215
176
     1
 74
     2
176
     1
 91
        2
176
     1
 64
     7
176
     1
 65
     7
176
     1
 75
     1
176
     1
175
     1
176
     1
 42
40.0
176
     1
 92
       11
176
     1
 66
     7
176
     1
 43
1.0
176
     1
 76
     1
176
     1
 77
     6
176
     1
 78
     2
176
     1
 67
     7
176
     1
 79
     6
176
     1
170
     0
176
     1
171
     0
176
     1
290
     0
176
     1
 93
        1
176
     1
 44
0.0
176
     1
173
     0
176
     1
  0
VISUALSTYLE
  5
4C5
102
{ACAD_REACTORS
330
4B8
102
}
102
{ACAD_XDICTIONARY
360
502
102
}
330
4B8
100
AcDbVisualStyle
  2
Thicken
 70
    13
177
     2
291
     1
 71
     2
176
     1
 72
     2
176
     1
 73
     0
176
     1
 90
        0
176
     1
 40
0.6
176
     1
 41
30.0
176
     1
 62
     5
 63
     7
421
 16777215
176
     1
 74
     1
176
     1
 91
        4
176
     1
 64
     7
176
     1
 65
   257
176
     1
 75
     1
176
     1
175
     1
176
     1
 42
1.0
176
     1
 92
       12
176
     1
 66
     7
176
     1
 43
1.0
176
     1
 76
     1
176
     1
 77
     6
176
     1
 78
     2
176
     1
 67
     7
176
     1
 79
     5
176
     1
170
     0
176
     1
171
     0
176
     1
290
     0
176
     1
 93
        1
176
     1
 44
0.0
176
     1
173
     0
176
     1
  0
VISUALSTYLE
  5
4BE
102
{ACAD_REACTORS
330
4B8
102
}
102
{ACAD_XDICTIONARY
360
4F4
102
}
330
4B8
100
AcDbVisualStyle
  2
Wireframe
 70
     5
177
     2
291
     0
 71
     0
176
     1
 72
     2
176
     1
 73
     0
176
     1
 90
        0
176
     1
 40
0.6
176
     1
 41
30.0
176
     1
 62
     5
 63
     7
421
 16777215
176
     1
 74
     1
176
     1
 91
        4
176
     1
 64
     7
176
     1
 65
   257
176
     1
 75
     1
176
     1
175
     1
176
     1
 42
1.0
176
     1
 92
        0
176
     1
 66
   257
176
     1
 43
1.0
176
     1
 76
     1
176
     1
 77
     6
176
     1
 78
     2
176
     1
 67
     7
176
     1
 79
     3
176
     1
170
     0
176
     1
171
     0
176
     1
290
     0
176
     1
 93
        1
176
     1
 44
0.0
176
     1
173
     0
176
     1
  0
VISUALSTYLE
  5
4CE
102
{ACAD_REACTORS
330
4B8
102
}
102
{ACAD_XDICTIONARY
360
514
102
}
330
4B8
100
AcDbVisualStyle
  2
X-Ray
 70
    25
177
     2
291
     0
 71
     2
176
     1
 72
     2
176
     1
 73
     1
176
     1
 90
        1
176
     1
 40
0.5
176
     1
 41
30.0
176
     1
 62
     5
 63
     7
421
 16777215
176
     1
 74
     1
176
     1
 91
        0
176
     1
 64
     7
176
     1
 65
   257
176
     1
 75
     1
176
     1
175
     1
176
     1
 42
1.0
176
     1
 92
        8
176
     1
 66
     7
176
     1
 43
1.0
176
     1
 76
     1
176
     1
 77
     6
176
     1
 78
     2
176
     1
 67
     7
176
     1
 79
     3
176
     1
170
     0
176
     1
171
     0
176
     1
290
     0
176
     1
 93
       13
176
     1
 44
0.0
176
     1
173
     0
176
     1
  0
DICTIONARYVAR
  5
4E7
102
{ACAD_REACTORS
330
4E6
102
}
330
4E6
100
DictionaryVariables
280
     0
  1
1:1
  0
DICTIONARYVAR
  5
51B
102
{ACAD_REACTORS
330
4E6
102
}
330
4E6
100
DictionaryVariables
280
     0
  1
Standard
  0
CSACDOCUMENTOPTIONS
  5
4DC
102
{ACAD_REACTORS
330
4DB
102
}
330
4DB
  0
XRECORD
  5
4E0
102
{ACAD_REACTORS
330
4D7
102
}
330
4D7
100
AcDbXrecord
280
     1
300
MC_VERSION_DATA
 90
       95
310
0600000002000000570000001C000000E404000000000000000000007801936764E5D8CF7A8393818115C460606066E0646662626666706006F214793899F8DE3171E725E6E53B3BBA2878E6951050AF75FEFFFFFF520032DE0F3057000000
  0
XRECORD
  5
4D8
102
{ACAD_REACTORS
330
4D7
102
}
330
4D7
100
AcDbXrecord
280
     1
300
MCS_DOCUMENT_ID
 90
       60
310
0600000002000000150000001C000000E404000000000000000000007801E3F5DCDD7A84F9BB9DE79C20C5BD1BFA2E67FF0702006E010C2015000000
  0
XRECORD
  5
4DE
102
{ACAD_REACTORS
330
4D7
102
}
330
4D7
100
AcDbXrecord
280
     1
300
MCS_PARAMS_DATA
 90
     3313
310
0600000002000000F64B00001C000000E404000000000000000000007801C55C5B905C45199EE99EBDCCE67E5DA218172C303B91307B4B8C459531245054850D55591F78B236BB49B9BAC9E6B22A082A9655BE5865596569A965F9209288CF16503EC8834088C10B092404211702988430422E9084CDAEFFD7A7FBF4DFA7CF
310
D9D99D9D39930798FF3F7DCEF7DFFAFBBBFBCC6CDBFC46297252EECB48F9CDF5ED5234493921A5206D76815820B252E4F3225F128D7D5F59BF69E3162948D9A2D485B3131313747328BF06593E960915079422437734AA3BDAA5CCD053F5ED4FD2557D257BAB94DF007A03479F859BB2B22193C9108EC1CDCADC0464C27506
310
28605703E48886E0B986E10F03BF91E33707F8E3140E7A9091C8268236920C1C662240B94888A1C8E07600AE99C32D5131CA8B3925D172EFE62D7D6D9DABBA8ADDD6F17CE16D13F0457AE8AC9268DE32DABF73B07FCFA013F9BF8491D7C17E2550D8E8FFCA8DFE4E98B3929B331718B291824FFF72EB941D9E8E2211D5A93C
310
784A44C557923911258BD0C8640531AEEC61A924855B11378280384364A422680C0A928DB9C10CD89D581114199665B722B26E4590C82B0222AB08FAA8A60626C028E0044F81BA246F5360E167F2D27C56A10E05C058C13C59DEC6207679103AFC5DEADF992F2B284F67B31C8EE359B64A9665A62453228F64269D98455E3B
310
A4B35817F7EC92C86FB8EFFE8DBD5BEEDBDCAB0CD3B5FC8E99065A7E55D536E39DE7826237F1C8BBBCB3CFADFC93302087C80397EE69C2FF69CA32234F0763E41851010DA578E8294D435524988818E84710A7B2643B4F7C034F6CE5C9368F203BE8094C6268541D70D35EE4B585DAE170F4942EB8D2D422560A9917F34B62
310
CE86919D9F1F6DDBB36DD770FFC0B6BC682E898607BEB5737424F8D83B323AF07529CFC0B69BB96D9FD3CFF9B410ED79B1A42416161FEA29AEEDEEEC5ADF532C76DEF3C5AEEEB5CAECF97A60330D2C1C3579EAD0DA7621F20269BD6768746FDBF0D0DE51F3B0EE356B3ABBD6F474F7740D76770EACED08FCFC92BEAF13F701
310
B5AF7FEBF0B6B691ED6D7D23C3DBF6F4EF840FDA9AD583C58E81E240FFEAADDD5BD70EAC0E669D2A25F27FB610851F9335859F059541B9E5971EC7A5A7E83F2CE53DB9A4040555A2661A4DDBF2C560B2E54E7D5483931EF871F7C88E5DFDA3435B878687461F6EDB313248FE3596847C70DBDEBC682809D13B22E56A5856E4
310
E9998738519B6E2A89DCE6EDDBDB542AF4E4380F8F61A4965F57116093E5A052A06AF588670205D9A715FB49B140D81A90855F902680EBB8B3A3187EEA96F2B224E392BAF898328CB1AD47DA34C1601A1B421AD816D190715CC3F276A5DE067C546F03AED6DB808FEB6DC0B57A1BB00853B49EB3E0937A47E07ABD0D188301
310
71CB797197D3603B1D06BFCB6DB024827C0C834324E60945463B3712E196397079076E990B47228783C8E09631B8F129C211385B3E540C97413DC70673C524DEAD70BD23917B079179B782793791AE77D944EFDCDC5529988B13E1069D6092C472A7F777A6F648E4C184C88239C8822913E16AE29D48176E29E0727C316496
310
EF2A967C95165E504B0C2B218EEE82DD5C63513CD614C5091F6D6FA7551865CC5C5030A1E0A3E84BEC86CFD04EC5DD01AA74CBDB05AB8C403295A124BB2908C4B032B4682A032283FB103E391B4E03172C7199C4E0F88E871E8855ADA1482D3238FA1846E0B807A77785BFF935FE1D74369F5647D0D171CA5F4F09337C2559
310
105132935A503D6DBC7A94B54D2B6DF1E0339960F436A97441791E5EC104D40283580888C4FDED577B1FD8B4B9AF6FE30605D8AAD7F1F34A62F6DD5BBEC62E92057A31FEA25A9DB3F5FBD3C1729D9CD723B0BF0DE8402BB05A67160DDE4416E59079C0D9EAA575B7321F67115FC018C76AB5B3A33D06B68CBD9BFBDC93C073
310
800CC384FD360C544F539B6F02B1820953BE9D01DE01C0D85A6C50369A5AC4065C7760793B965800321749E4B50891C0C2AB0CAE9808178444974C70F875952A9381563C01BE9D08EAFA481283ABD8C7EF7870DAABE068E68833DFAC8EA0A3E3F87C0B07AA507B2311F0889285BDC333294C4E2DB27C67BA70ABD2857B688A
310
70552AA7873DB8489E55063D5D2DCBE9BB9E49F1E554A5083C922EDCA3E9C27D2F5DB8EF7B705EE9D87E1E920E88313AAE6AECF4FBD668D3D30DB4E51ADA9BEDB0D7AFCEB4DDED85F7C4ECF6551B3BCE2AFF6E835E49458EC94883D6E73C45753FAE614C3C0A0362777435D915EC025C33F7578776011DE6F3D066954C59D6
310
D76F86AC9CD58A53F4122CF0552BAE070AEA3B5AF15752304F1F47569D50AB71F41A31FA5A51C904CD43C6B0F51D2ACEFC112ACC4CC1B0FF086CE7AD5A4D096A005126387AAD451EE384D9C035A925859E39C1AA865EE9A9B8DA21CEE289167F7CF1D4C4BC7A125EC5AED5D8BB0B5A9D9144D134CFA71BF85A8D44BE568348
310
F6AA55A2F3CAEA4F6982FD21118CC249D3CBF852A586F244BA70FBD285DB9F085793EDE56E143F0AD06C6B4CB2242BDD3DD1419166C2865E81F9CE1648F3CBD84597B22E28992A3DDCE24C77F3F311A01C8A722828EC3CF15F7D987933F818F8E59BC138E5CD4CE8AC24C94E68BA32F5C3CBAB808B6B06B9936E642F9F804C
310
903AF2F3709D37832318A078E4B37AEBDCFAA66859945B9EBB25776BAE2DD3995995E9CA1433DDFA4DAC7ECE6FE93696E96BB06712968ED2661884A9EE40230F60D0D73DE8C858453B9E8E4212D5A9B0784A762662599FEDD18C9299F4094C728A91F536658E91CDA6DFC8E89F363B15B4CB31404FD2581CF722BBF229B517
310
430944E56AB2E2A8E3461950730F2B7ECA7BC570E389706E8BA9D241C744225C40C29385944F707279EA277D998065D9EAD604B1263E66D38513E9C2490F4EE7CC6E8AA89C3D9DA588701CA708AB6414C194931EE3FC0D4515D71A4FBFE712F8CB4A26532A6E8DCF01CA61A3745BE3F3C09F6E6B442F0CD7BAD36A8D2F002E
310
AE359E3BE646F6B8926D6BBC0CD9926FBEF08C5220B9BAE91D0E14769FF44B52301E3C00E8FA74C117BD24F396E22C7F1005F2DA2902EB76053DE720B0D3EE397F2F036AE8B24A3DE750225C4DF8F8A544B81AF69C7F2482D6C4C77F067093EF36FE359541FF8E0E8A50399BA22F63681CEF0EBDEBB2C3834A9E09EF1E0654
310
1D79F708F0A7CBBB956F495E015C1CEFEE3EEC46B65FC996771F856C09285F58A7148C77872F6104D6DC9A8897D30896D457015D1FDE3DEA25B91CEFF2EBD6EB0A68F718A0D3A6DDD7CA805699768F27C2D584925E4F84AB9476A39B03E744D09CD6610FF59F44E89A78FA46BA70DDDE0ADC144A4DBCEBF1E0221D416DC23D
310
1D715254A766A8A7AC60C1FF26021ED7783E889CD89C52F24C1ACF0940D5B1F19C047E7A8DE714E0E21ACFD5436EE339AB64DB78E44B91C6730003ECCB897CE1D28548E3798246B0C6731AD0536D3CB3E90740046E0B5FD5161351555C247A084506FA9607AAEBD39C44F1E2B63A5BDCA18E17B755B2E2664A322602C34C3A
310
0393625B51C09BC60D77315EF1E1C8DB80730A9C37D5B8CD0EBF3EA3A6FB4EA2A7C18B1B2746D53A5F7BB70C687C78291FE10E3A386EE3054657F9CB297E9CF703B0E71DFC4DA3397B4068C3CF33A1A81F02C2C920DB8E7ABF712005813923946BAE06DE453454B45CC32AF6311810C751E3F85A979E7874424F9299B34AB2
310
210DC430A45A3473162283FB2F3218C7FE178FBB1CF59692CDAD957C0DECAC3739580882F7E26636C4FC0874E66F42CE013F2EB274A4C323CBB88082C5B980AE4CFD4DC879C0C5B1FFF5E7DDC89E57324556799F2F34BC006EC70CD18A8318C0D9FF0AB6807CDBB19F46B0A4BE07E8B4D9FF8207EA504E3D7E65FA3E4C7226
310
B329B0E8D703AAFEBAA304E869379E693123CD68457958A4FF2F11AE86ECFF4119D078F6E7138AD87FF2370F86D6E1E38789702D76FED2134932CCA824CB8C811832A3160D33426421BD980847AF6F0C11D33DEECB1CFE9B7175D1F926045DE5BD8DBFBDBE94081764D0049324E6DDB40A8607F372225C4D16463974B5B836
310
F393232E193EA2E499B49986C93A780A6DA631A981D7A6CD34012EAECDFCFC5937B23F52B26D33BF83CCDBCC56A5C0ECD07DE7A7A7226D661D8D6033A419D0536D33E07F56B8C4CA7C0D48229F9610695A461A0883CE7B494E8DD95B004DF38E8247AB09FE45AC1A52EDAC32A0861DD8DA85D8A76276989D08579353913989
310
700119397510D9BB4CAB9DF096393711B4263ECE4B176E7EBA700B3C389DB3F0B5335AA6A7234288EA142D784A9083AFB414616018456CF24C3293C4CD2F49D3E5A5F0410CEE7E0F2E6A6FEA11580893E29AEE529C2FC11C4DF48D4AA628982DB44A422820F8563073C8F989CF2240392BED74F7768B819FDEDE6E09E0E29A
310
EE72FA030B3CB273954C91D5916E87CC9BEEFB4FAB1E6B73B10CFB6CBEB73B4423589D2D05F4CC9AAE2E4C768646F0614DBB4BD40606DDEA2539B5A67B13A0D36EBACBCA809A9055A7E9E24B8E0D79912B896C91FE0C1655C17843E129FA335B3277F4E8510807513CB9CC44868E210AF7FE19028691B0917E39482B125CF8
310
D4FF01F0B312DAF64B0000
  0
TABLECONTENT
  5
4E2
330
4E5
100
AcDbLinkedData
  1

300

100
AcDbLinkedTableData
 90
        5
300
COLUMN
  1
LINKEDTABLEDATACOLUMN_BEGIN
300

 91
        0
301
CUSTOMDATA
  1
DATAMAP_BEGIN
 90
        0
309
DATAMAP_END
309
LINKEDTABLEDATACOLUMN_END
  1
FORMATTEDTABLEDATACOLUMN_BEGIN
300
COLUMNTABLEFORMAT
  1
TABLEFORMAT_BEGIN
 90
        3
170
     0
309
TABLEFORMAT_END
309
FORMATTEDTABLEDATACOLUMN_END
  1
TABLECOLUMN_BEGIN
 90
        0
 40
10.0
309
TABLECOLUMN_END
300
COLUMN
  1
LINKEDTABLEDATACOLUMN_BEGIN
300

 91
        0
301
CUSTOMDATA
  1
DATAMAP_BEGIN
 90
        0
309
DATAMAP_END
309
LINKEDTABLEDATACOLUMN_END
  1
FORMATTEDTABLEDATACOLUMN_BEGIN
300
COLUMNTABLEFORMAT
  1
TABLEFORMAT_BEGIN
 90
        3
170
     0
309
TABLEFORMAT_END
309
FORMATTEDTABLEDATACOLUMN_END
  1
TABLECOLUMN_BEGIN
 90
        0
 40
10.0
309
TABLECOLUMN_END
300
COLUMN
  1
LINKEDTABLEDATACOLUMN_BEGIN
300

 91
        0
301
CUSTOMDATA
  1
DATAMAP_BEGIN
 90
        0
309
DATAMAP_END
309
LINKEDTABLEDATACOLUMN_END
  1
FORMATTEDTABLEDATACOLUMN_BEGIN
300
COLUMNTABLEFORMAT
  1
TABLEFORMAT_BEGIN
 90
        3
170
     0
309
TABLEFORMAT_END
309
FORMATTEDTABLEDATACOLUMN_END
  1
TABLECOLUMN_BEGIN
 90
        0
 40
10.0
309
TABLECOLUMN_END
300
COLUMN
  1
LINKEDTABLEDATACOLUMN_BEGIN
300

 91
        0
301
CUSTOMDATA
  1
DATAMAP_BEGIN
 90
        0
309
DATAMAP_END
309
LINKEDTABLEDATACOLUMN_END
  1
FORMATTEDTABLEDATACOLUMN_BEGIN
300
COLUMNTABLEFORMAT
  1
TABLEFORMAT_BEGIN
 90
        3
170
     0
309
TABLEFORMAT_END
309
FORMATTEDTABLEDATACOLUMN_END
  1
TABLECOLUMN_BEGIN
 90
        0
 40
40.0
309
TABLECOLUMN_END
300
COLUMN
  1
LINKEDTABLEDATACOLUMN_BEGIN
300

 91
        0
301
CUSTOMDATA
  1
DATAMAP_BEGIN
 90
        0
309
DATAMAP_END
309
LINKEDTABLEDATACOLUMN_END
  1
FORMATTEDTABLEDATACOLUMN_BEGIN
300
COLUMNTABLEFORMAT
  1
TABLEFORMAT_BEGIN
 90
        3
170
     0
309
TABLEFORMAT_END
309
FORMATTEDTABLEDATACOLUMN_END
  1
TABLECOLUMN_BEGIN
 90
        0
 40
20.0
309
TABLECOLUMN_END
 91
        5
301
ROW
  1
LINKEDTABLEDATAROW_BEGIN
 90
        5
300
CELL
  1
LINKEDTABLEDATACELL_BEGIN
 90
        0
300

 91
        0
301
CUSTOMDATA
  1
DATAMAP_BEGIN
 90
        1
300
ACAD_ROUNDTRIP_2008_CELL_CHECKSUM
301
DATAMAP_VALUE
 93
        2
 90
        2
140
32.0
 94
        0
300

302

304
ACVALUE_END
309
DATAMAP_END
 92
        0
 95
        1
302
CONTENT
  1
CELLCONTENT_BEGIN
 90
        1
300
VALUE
 93
        2
 90
        4
  1
 
 94
        0
300

302
 
304
ACVALUE_END
 91
        0
309
CELLCONTENT_END
  1
FORMATTEDCELLCONTENT_BEGIN
170
     1
300
CONTENTFORMAT
  1
CONTENTFORMAT_BEGIN
 90
      132
 91
        0
 92
      512
 93
        0
300

 40
0.0
140
1.0
 94
        1
 62
     0
340
0
144
3.5
309
CONTENTFORMAT_END
309
FORMATTEDCELLCONTENT_END
309
LINKEDTABLEDATACELL_END
  1
FORMATTEDTABLEDATACELL_BEGIN
300
CELLTABLEFORMAT
  1
TABLEFORMAT_BEGIN
 90
        1
170
     1
 91
        0
 92
        0
 62
   257
 93
        1
300
CONTENTFORMAT
  1
CONTENTFORMAT_BEGIN
 90
        0
 91
        0
 92
      512
 93
        0
300

 40
0.0
140
1.0
 94
        1
 62
     0
340
0
144
0.18
309
CONTENTFORMAT_END
171
     0
 94
        0
309
TABLEFORMAT_END
309
FORMATTEDTABLEDATACELL_END
  1
TABLECELL_BEGIN
 90
        0
 91
        0
309
TABLECELL_END
300
CELL
  1
LINKEDTABLEDATACELL_BEGIN
 90
        0
300

 91
        0
301
CUSTOMDATA
  1
DATAMAP_BEGIN
 90
        0
309
DATAMAP_END
 92
        0
 95
        0
309
LINKEDTABLEDATACELL_END
  1
FORMATTEDTABLEDATACELL_BEGIN
300
CELLTABLEFORMAT
  1
TABLEFORMAT_BEGIN
 90
        1
170
     1
 91
        0
 92
        0
 62
   257
 93
        1
300
CONTENTFORMAT
  1
CONTENTFORMAT_BEGIN
 90
        0
 91
        0
 92
      512
 93
        0
300

 40
0.0
140
1.0
 94
        1
 62
     0
340
0
144
0.18
309
CONTENTFORMAT_END
171
     0
 94
        0
309
TABLEFORMAT_END
309
FORMATTEDTABLEDATACELL_END
  1
TABLECELL_BEGIN
 90
        0
 91
        0
309
TABLECELL_END
300
CELL
  1
LINKEDTABLEDATACELL_BEGIN
 90
        0
300

 91
        0
301
CUSTOMDATA
  1
DATAMAP_BEGIN
 90
        0
309
DATAMAP_END
 92
        0
 95
        0
309
LINKEDTABLEDATACELL_END
  1
FORMATTEDTABLEDATACELL_BEGIN
300
CELLTABLEFORMAT
  1
TABLEFORMAT_BEGIN
 90
        1
170
     1
 91
        0
 92
        0
 62
   257
 93
        1
300
CONTENTFORMAT
  1
CONTENTFORMAT_BEGIN
 90
        0
 91
        0
 92
      512
 93
        0
300

 40
0.0
140
1.0
 94
        1
 62
     0
340
0
144
0.18
309
CONTENTFORMAT_END
171
     0
 94
        0
309
TABLEFORMAT_END
309
FORMATTEDTABLEDATACELL_END
  1
TABLECELL_BEGIN
 90
        0
 91
        0
309
TABLECELL_END
300
CELL
  1
LINKEDTABLEDATACELL_BEGIN
 90
        0
300

 91
        0
301
CUSTOMDATA
  1
DATAMAP_BEGIN
 90
        1
300
ACAD_ROUNDTRIP_2008_CELL_CHECKSUM
301
DATAMAP_VALUE
 93
        2
 90
        2
140
1130.0
 94
        0
300

302

304
ACVALUE_END
309
DATAMAP_END
 92
        0
 95
        1
302
CONTENT
  1
CELLCONTENT_BEGIN
 90
        1
300
VALUE
 93
        2
 90
        4
  1
WC5303
 94
        0
300

302
WC5303
304
ACVALUE_END
 91
        0
309
CELLCONTENT_END
  1
FORMATTEDCELLCONTENT_BEGIN
170
     1
300
CONTENTFORMAT
  1
CONTENTFORMAT_BEGIN
 90
      132
 91
        0
 92
      512
 93
        0
300

 40
0.0
140
1.0
 94
        1
 62
     0
340
0
144
3.0
309
CONTENTFORMAT_END
309
FORMATTEDCELLCONTENT_END
309
LINKEDTABLEDATACELL_END
  1
FORMATTEDTABLEDATACELL_BEGIN
300
CELLTABLEFORMAT
  1
TABLEFORMAT_BEGIN
 90
        1
170
     1
 91
       16
 92
        0
 62
   257
 93
        1
300
CONTENTFORMAT
  1
CONTENTFORMAT_BEGIN
 90
       16
 91
        0
 92
      512
 93
        0
300

 40
0.0
140
1.0
 94
        4
 62
     0
340
0
144
0.18
309
CONTENTFORMAT_END
171
     0
 94
        4
 95
        1
302
GRIDFORMAT
  1
GRIDFORMAT_BEGIN
 90
       26
 91
        1
 62
     0
 92
       -2
340
0
 93
        0
 40
0.045
309
GRIDFORMAT_END
 95
        4
302
GRIDFORMAT
  1
GRIDFORMAT_BEGIN
 90
       26
 91
        1
 62
     0
 92
       -2
340
0
 93
        0
 40
0.045
309
GRIDFORMAT_END
 95
        8
302
GRIDFORMAT
  1
GRIDFORMAT_BEGIN
 90
       26
 91
        1
 62
     0
 92
       -2
340
0
 93
        0
 40
0.045
309
GRIDFORMAT_END
 95
       32
302
GRIDFORMAT
  1
GRIDFORMAT_BEGIN
 90
       26
 91
        1
 62
     0
 92
       -2
340
0
 93
        0
 40
0.045
309
GRIDFORMAT_END
309
TABLEFORMAT_END
309
FORMATTEDTABLEDATACELL_END
  1
TABLECELL_BEGIN
 90
        0
 91
        0
309
TABLECELL_END
300
CELL
  1
LINKEDTABLEDATACELL_BEGIN
 90
        0
300

 91
        0
301
CUSTOMDATA
  1
DATAMAP_BEGIN
 90
        1
300
ACAD_ROUNDTRIP_2008_CELL_CHECKSUM
301
DATAMAP_VALUE
 93
        2
 90
        2
140
1398.0
 94
        0
300

302

304
ACVALUE_END
309
DATAMAP_END
 92
        0
 95
        1
302
CONTENT
  1
CELLCONTENT_BEGIN
 90
        1
300
VALUE
 93
        2
 90
        4
  1
Rev:00
 94
        0
300

302
Rev:00
304
ACVALUE_END
 91
        0
309
CELLCONTENT_END
  1
FORMATTEDCELLCONTENT_BEGIN
170
     1
300
CONTENTFORMAT
  1
CONTENTFORMAT_BEGIN
 90
      132
 91
        0
 92
      512
 93
        0
300

 40
0.0
140
1.0
 94
        1
 62
     0
340
0
144
3.5
309
CONTENTFORMAT_END
309
FORMATTEDCELLCONTENT_END
309
LINKEDTABLEDATACELL_END
  1
FORMATTEDTABLEDATACELL_BEGIN
300
CELLTABLEFORMAT
  1
TABLEFORMAT_BEGIN
 90
        1
170
     1
 91
       16
 92
        0
 62
   257
 93
        1
300
CONTENTFORMAT
  1
CONTENTFORMAT_BEGIN
 90
       16
 91
        0
 92
      512
 93
        0
300

 40
0.0
140
1.0
 94
        4
 62
     0
340
0
144
0.18
309
CONTENTFORMAT_END
171
     0
 94
        4
 95
        1
302
GRIDFORMAT
  1
GRIDFORMAT_BEGIN
 90
       26
 91
        1
 62
     0
 92
       -2
340
0
 93
        0
 40
0.045
309
GRIDFORMAT_END
 95
        4
302
GRIDFORMAT
  1
GRIDFORMAT_BEGIN
 90
       26
 91
        1
 62
     0
 92
       -2
340
0
 93
        0
 40
0.045
309
GRIDFORMAT_END
 95
        8
302
GRIDFORMAT
  1
GRIDFORMAT_BEGIN
 90
       26
 91
        1
 62
     0
 92
       -2
340
0
 93
        0
 40
0.045
309
GRIDFORMAT_END
 95
       32
302
GRIDFORMAT
  1
GRIDFORMAT_BEGIN
 90
       26
 91
        1
 62
     0
 92
       -2
340
0
 93
        0
 40
0.045
309
GRIDFORMAT_END
309
TABLEFORMAT_END
309
FORMATTEDTABLEDATACELL_END
  1
TABLECELL_BEGIN
 90
        0
 91
        0
309
TABLECELL_END
 91
        0
301
CUSTOMDATA
  1
DATAMAP_BEGIN
 90
        0
309
DATAMAP_END
309
LINKEDTABLEDATAROW_END
  1
FORMATTEDTABLEDATAROW_BEGIN
300
ROWTABLEFORMAT
  1
TABLEFORMAT_BEGIN
 90
        2
170
     0
309
TABLEFORMAT_END
309
FORMATTEDTABLEDATAROW_END
  1
TABLEROW_BEGIN
 90
        1
 40
6.0
309
TABLEROW_END
301
ROW
  1
LINKEDTABLEDATAROW_BEGIN
 90
        5
300
CELL
  1
LINKEDTABLEDATACELL_BEGIN
 90
        0
300

 91
        0
301
CUSTOMDATA
  1
DATAMAP_BEGIN
 90
        0
309
DATAMAP_END
 92
        0
 95
        0
309
LINKEDTABLEDATACELL_END
  1
FORMATTEDTABLEDATACELL_BEGIN
300
CELLTABLEFORMAT
  1
TABLEFORMAT_BEGIN
 90
        1
170
     1
 91
        0
 92
        0
 62
   257
 93
        1
300
CONTENTFORMAT
  1
CONTENTFORMAT_BEGIN
 90
        0
 91
        0
 92
      512
 93
        0
300

 40
0.0
140
1.0
 94
        1
 62
     0
340
0
144
0.18
309
CONTENTFORMAT_END
171
     0
 94
        0
309
TABLEFORMAT_END
309
FORMATTEDTABLEDATACELL_END
  1
TABLECELL_BEGIN
 90
        0
 91
        0
309
TABLECELL_END
300
CELL
  1
LINKEDTABLEDATACELL_BEGIN
 90
        0
300

 91
        0
301
CUSTOMDATA
  1
DATAMAP_BEGIN
 90
        0
309
DATAMAP_END
 92
        0
 95
        0
309
LINKEDTABLEDATACELL_END
  1
FORMATTEDTABLEDATACELL_BEGIN
300
CELLTABLEFORMAT
  1
TABLEFORMAT_BEGIN
 90
        1
170
     1
 91
        0
 92
        0
 62
   257
 93
        1
300
CONTENTFORMAT
  1
CONTENTFORMAT_BEGIN
 90
        0
 91
        0
 92
      512
 93
        0
300

 40
0.0
140
1.0
 94
        1
 62
     0
340
0
144
0.18
309
CONTENTFORMAT_END
171
     0
 94
        0
309
TABLEFORMAT_END
309
FORMATTEDTABLEDATACELL_END
  1
TABLECELL_BEGIN
 90
        0
 91
        0
309
TABLECELL_END
300
CELL
  1
LINKEDTABLEDATACELL_BEGIN
 90
        0
300

 91
        0
301
CUSTOMDATA
  1
DATAMAP_BEGIN
 90
        0
309
DATAMAP_END
 92
        0
 95
        0
309
LINKEDTABLEDATACELL_END
  1
FORMATTEDTABLEDATACELL_BEGIN
300
CELLTABLEFORMAT
  1
TABLEFORMAT_BEGIN
 90
        1
170
     1
 91
        0
 92
        0
 62
   257
 93
        1
300
CONTENTFORMAT
  1
CONTENTFORMAT_BEGIN
 90
        0
 91
        0
 92
      512
 93
        0
300

 40
0.0
140
1.0
 94
        1
 62
     0
340
0
144
0.18
309
CONTENTFORMAT_END
171
     0
 94
        0
309
TABLEFORMAT_END
309
FORMATTEDTABLEDATACELL_END
  1
TABLECELL_BEGIN
 90
        0
 91
        0
309
TABLECELL_END
300
CELL
  1
LINKEDTABLEDATACELL_BEGIN
 90
        0
300

 91
        0
301
CUSTOMDATA
  1
DATAMAP_BEGIN
 90
        1
300
ACAD_ROUNDTRIP_2008_CELL_CHECKSUM
301
DATAMAP_VALUE
 93
        2
 90
        2
140
3105.0
 94
        0
300

302

304
ACVALUE_END
309
DATAMAP_END
 92
        0
 95
        1
302
CONTENT
  1
CELLCONTENT_BEGIN
 90
        1
300
VALUE
 93
        2
 90
        4
  1
Scale:1:1
 94
        0
300

302
Scale:1:1
304
ACVALUE_END
 91
        0
309
CELLCONTENT_END
  1
FORMATTEDCELLCONTENT_BEGIN
170
     1
300
CONTENTFORMAT
  1
CONTENTFORMAT_BEGIN
 90
      132
 91
        0
 92
      512
 93
        0
300

 40
0.0
140
1.0
 94
        1
 62
     0
340
0
144
3.5
309
CONTENTFORMAT_END
309
FORMATTEDCELLCONTENT_END
309
LINKEDTABLEDATACELL_END
  1
FORMATTEDTABLEDATACELL_BEGIN
300
CELLTABLEFORMAT
  1
TABLEFORMAT_BEGIN
 90
        1
170
     1
 91
       16
 92
        0
 62
   257
 93
        1
300
CONTENTFORMAT
  1
CONTENTFORMAT_BEGIN
 90
       16
 91
        0
 92
      512
 93
        0
300

 40
0.0
140
1.0
 94
        1
 62
     0
340
0
144
0.18
309
CONTENTFORMAT_END
171
     0
 94
        4
 95
        1
302
GRIDFORMAT
  1
GRIDFORMAT_BEGIN
 90
       26
 91
        1
 62
     0
 92
       -2
340
0
 93
        0
 40
0.045
309
GRIDFORMAT_END
 95
        4
302
GRIDFORMAT
  1
GRIDFORMAT_BEGIN
 90
       26
 91
        1
 62
     0
 92
       -2
340
0
 93
        0
 40
0.045
309
GRIDFORMAT_END
 95
        8
302
GRIDFORMAT
  1
GRIDFORMAT_BEGIN
 90
       26
 91
        1
 62
     0
 92
       -2
340
0
 93
        0
 40
0.045
309
GRIDFORMAT_END
 95
       32
302
GRIDFORMAT
  1
GRIDFORMAT_BEGIN
 90
       26
 91
        1
 62
     0
 92
       -2
340
0
 93
        0
 40
0.045
309
GRIDFORMAT_END
309
TABLEFORMAT_END
309
FORMATTEDTABLEDATACELL_END
  1
TABLECELL_BEGIN
 90
        0
 91
        0
309
TABLECELL_END
300
CELL
  1
LINKEDTABLEDATACELL_BEGIN
 90
        0
300

 91
        0
301
CUSTOMDATA
  1
DATAMAP_BEGIN
 90
        1
300
ACAD_ROUNDTRIP_2008_CELL_CHECKSUM
301
DATAMAP_VALUE
 93
        2
 90
        2
140
163.0
 94
        0
300

302

304
ACVALUE_END
309
DATAMAP_END
 92
        0
 95
        1
302
CONTENT
  1
CELLCONTENT_BEGIN
 90
        1
300
VALUE
 93
        2
 90
        4
  1
A1
 94
        0
300

302
A1
304
ACVALUE_END
 91
        0
309
CELLCONTENT_END
  1
FORMATTEDCELLCONTENT_BEGIN
170
     1
300
CONTENTFORMAT
  1
CONTENTFORMAT_BEGIN
 90
      132
 91
        0
 92
      512
 93
        0
300

 40
0.0
140
1.0
 94
        1
 62
     0
340
0
144
3.5
309
CONTENTFORMAT_END
309
FORMATTEDCELLCONTENT_END
309
LINKEDTABLEDATACELL_END
  1
FORMATTEDTABLEDATACELL_BEGIN
300
CELLTABLEFORMAT
  1
TABLEFORMAT_BEGIN
 90
        1
170
     1
 91
       16
 92
        0
 62
   257
 93
        1
300
CONTENTFORMAT
  1
CONTENTFORMAT_BEGIN
 90
       16
 91
        0
 92
      512
 93
        0
300

 40
0.0
140
1.0
 94
        4
 62
     0
340
0
144
0.18
309
CONTENTFORMAT_END
171
     0
 94
        4
 95
        1
302
GRIDFORMAT
  1
GRIDFORMAT_BEGIN
 90
       26
 91
        1
 62
     0
 92
       -2
340
0
 93
        0
 40
0.045
309
GRIDFORMAT_END
 95
        4
302
GRIDFORMAT
  1
GRIDFORMAT_BEGIN
 90
       26
 91
        1
 62
     0
 92
       -2
340
0
 93
        0
 40
0.045
309
GRIDFORMAT_END
 95
        8
302
GRIDFORMAT
  1
GRIDFORMAT_BEGIN
 90
       26
 91
        1
 62
     0
 92
       -2
340
0
 93
        0
 40
0.045
309
GRIDFORMAT_END
 95
       32
302
GRIDFORMAT
  1
GRIDFORMAT_BEGIN
 90
       26
 91
        1
 62
     0
 92
       -2
340
0
 93
        0
 40
0.045
309
GRIDFORMAT_END
309
TABLEFORMAT_END
309
FORMATTEDTABLEDATACELL_END
  1
TABLECELL_BEGIN
 90
        0
 91
        0
309
TABLECELL_END
 91
        0
301
CUSTOMDATA
  1
DATAMAP_BEGIN
 90
        0
309
DATAMAP_END
309
LINKEDTABLEDATAROW_END
  1
FORMATTEDTABLEDATAROW_BEGIN
300
ROWTABLEFORMAT
  1
TABLEFORMAT_BEGIN
 90
        2
170
     0
309
TABLEFORMAT_END
309
FORMATTEDTABLEDATAROW_END
  1
TABLEROW_BEGIN
 90
        2
 40
6.0
309
TABLEROW_END
301
ROW
  1
LINKEDTABLEDATAROW_BEGIN
 90
        5
300
CELL
  1
LINKEDTABLEDATACELL_BEGIN
 90
        0
300

 91
        0
301
CUSTOMDATA
  1
DATAMAP_BEGIN
 90
        0
309
DATAMAP_END
 92
        0
 95
        0
309
LINKEDTABLEDATACELL_END
  1
FORMATTEDTABLEDATACELL_BEGIN
300
CELLTABLEFORMAT
  1
TABLEFORMAT_BEGIN
 90
        1
170
     1
 91
        0
 92
        0
 62
   257
 93
        1
300
CONTENTFORMAT
  1
CONTENTFORMAT_BEGIN
 90
        0
 91
        0
 92
      512
 93
        0
300

 40
0.0
140
1.0
 94
        1
 62
     0
340
0
144
0.18
309
CONTENTFORMAT_END
171
     0
 94
        0
309
TABLEFORMAT_END
309
FORMATTEDTABLEDATACELL_END
  1
TABLECELL_BEGIN
 90
        0
 91
        0
309
TABLECELL_END
300
CELL
  1
LINKEDTABLEDATACELL_BEGIN
 90
        0
300

 91
        0
301
CUSTOMDATA
  1
DATAMAP_BEGIN
 90
        0
309
DATAMAP_END
 92
        0
 95
        0
309
LINKEDTABLEDATACELL_END
  1
FORMATTEDTABLEDATACELL_BEGIN
300
CELLTABLEFORMAT
  1
TABLEFORMAT_BEGIN
 90
        1
170
     1
 91
        0
 92
        0
 62
   257
 93
        1
300
CONTENTFORMAT
  1
CONTENTFORMAT_BEGIN
 90
        0
 91
        0
 92
      512
 93
        0
300

 40
0.0
140
1.0
 94
        1
 62
     0
340
0
144
0.18
309
CONTENTFORMAT_END
171
     0
 94
        0
309
TABLEFORMAT_END
309
FORMATTEDTABLEDATACELL_END
  1
TABLECELL_BEGIN
 90
        0
 91
        0
309
TABLECELL_END
300
CELL
  1
LINKEDTABLEDATACELL_BEGIN
 90
        0
300

 91
        0
301
CUSTOMDATA
  1
DATAMAP_BEGIN
 90
        0
309
DATAMAP_END
 92
        0
 95
        0
309
LINKEDTABLEDATACELL_END
  1
FORMATTEDTABLEDATACELL_BEGIN
300
CELLTABLEFORMAT
  1
TABLEFORMAT_BEGIN
 90
        1
170
     1
 91
        0
 92
        0
 62
   257
 93
        1
300
CONTENTFORMAT
  1
CONTENTFORMAT_BEGIN
 90
        0
 91
        0
 92
      512
 93
        0
300

 40
0.0
140
1.0
 94
        1
 62
     0
340
0
144
0.18
309
CONTENTFORMAT_END
171
     0
 94
        0
309
TABLEFORMAT_END
309
FORMATTEDTABLEDATACELL_END
  1
TABLECELL_BEGIN
 90
        0
 91
        0
309
TABLECELL_END
300
CELL
  1
LINKEDTABLEDATACELL_BEGIN
 90
        0
300

 91
        0
301
CUSTOMDATA
  1
DATAMAP_BEGIN
 90
        1
300
ACAD_ROUNDTRIP_2008_CELL_CHECKSUM
301
DATAMAP_VALUE
 93
        2
 90
        2
140
45.0
 94
        0
300

302

304
ACVALUE_END
309
DATAMAP_END
 92
        0
 95
        1
302
CONTENT
  1
CELLCONTENT_BEGIN
 90
        1
300
VALUE
 93
        2
 90
        4
  1
-
 94
        0
300

302
-
304
ACVALUE_END
 91
        0
309
CELLCONTENT_END
  1
FORMATTEDCELLCONTENT_BEGIN
170
     1
300
CONTENTFORMAT
  1
CONTENTFORMAT_BEGIN
 90
      132
 91
        0
 92
      512
 93
        0
300

 40
0.0
140
1.0
 94
        1
 62
     0
340
0
144
3.5
309
CONTENTFORMAT_END
309
FORMATTEDCELLCONTENT_END
309
LINKEDTABLEDATACELL_END
  1
FORMATTEDTABLEDATACELL_BEGIN
300
CELLTABLEFORMAT
  1
TABLEFORMAT_BEGIN
 90
        1
170
     1
 91
       16
 92
        0
 62
   257
 93
        1
300
CONTENTFORMAT
  1
CONTENTFORMAT_BEGIN
 90
       16
 91
        0
 92
      512
 93
        0
300

 40
0.0
140
1.0
 94
        4
 62
     0
340
0
144
0.18
309
CONTENTFORMAT_END
171
     0
 94
        4
 95
        1
302
GRIDFORMAT
  1
GRIDFORMAT_BEGIN
 90
       26
 91
        1
 62
     0
 92
       -2
340
0
 93
        0
 40
0.045
309
GRIDFORMAT_END
 95
        4
302
GRIDFORMAT
  1
GRIDFORMAT_BEGIN
 90
       26
 91
        1
 62
     0
 92
       -2
340
0
 93
        0
 40
0.045
309
GRIDFORMAT_END
 95
        8
302
GRIDFORMAT
  1
GRIDFORMAT_BEGIN
 90
       26
 91
        1
 62
     0
 92
       -2
340
0
 93
        0
 40
0.045
309
GRIDFORMAT_END
 95
       32
302
GRIDFORMAT
  1
GRIDFORMAT_BEGIN
 90
       26
 91
        1
 62
     0
 92
       -2
340
0
 93
        0
 40
0.045
309
GRIDFORMAT_END
309
TABLEFORMAT_END
309
FORMATTEDTABLEDATACELL_END
  1
TABLECELL_BEGIN
 90
        0
 91
        0
309
TABLECELL_END
300
CELL
  1
LINKEDTABLEDATACELL_BEGIN
 90
        0
300

 91
        0
301
CUSTOMDATA
  1
DATAMAP_BEGIN
 90
        0
309
DATAMAP_END
 92
        0
 95
        0
309
LINKEDTABLEDATACELL_END
  1
FORMATTEDTABLEDATACELL_BEGIN
300
CELLTABLEFORMAT
  1
TABLEFORMAT_BEGIN
 90
        1
170
     1
 91
        0
 92
        0
 62
   257
 93
        1
300
CONTENTFORMAT
  1
CONTENTFORMAT_BEGIN
 90
        0
 91
        0
 92
      512
 93
        0
300

 40
0.0
140
1.0
 94
        1
 62
     0
340
0
144
0.18
309
CONTENTFORMAT_END
171
     0
 94
        0
309
TABLEFORMAT_END
309
FORMATTEDTABLEDATACELL_END
  1
TABLECELL_BEGIN
 90
        0
 91
        0
309
TABLECELL_END
 91
        0
301
CUSTOMDATA
  1
DATAMAP_BEGIN
 90
        0
309
DATAMAP_END
309
LINKEDTABLEDATAROW_END
  1
FORMATTEDTABLEDATAROW_BEGIN
300
ROWTABLEFORMAT
  1
TABLEFORMAT_BEGIN
 90
        2
170
     0
309
TABLEFORMAT_END
309
FORMATTEDTABLEDATAROW_END
  1
TABLEROW_BEGIN
 90
        3
 40
10.0
309
TABLEROW_END
301
ROW
  1
LINKEDTABLEDATAROW_BEGIN
 90
        5
300
CELL
  1
LINKEDTABLEDATACELL_BEGIN
 90
        0
300

 91
        0
301
CUSTOMDATA
  1
DATAMAP_BEGIN
 90
        0
309
DATAMAP_END
 92
        0
 95
        0
309
LINKEDTABLEDATACELL_END
  1
FORMATTEDTABLEDATACELL_BEGIN
300
CELLTABLEFORMAT
  1
TABLEFORMAT_BEGIN
 90
        1
170
     1
 91
        0
 92
        0
 62
   257
 93
        1
300
CONTENTFORMAT
  1
CONTENTFORMAT_BEGIN
 90
        0
 91
        0
 92
      512
 93
        0
300

 40
0.0
140
1.0
 94
        1
 62
     0
340
0
144
0.18
309
CONTENTFORMAT_END
171
     0
 94
        0
309
TABLEFORMAT_END
309
FORMATTEDTABLEDATACELL_END
  1
TABLECELL_BEGIN
 90
        0
 91
        0
309
TABLECELL_END
300
CELL
  1
LINKEDTABLEDATACELL_BEGIN
 90
        0
300

 91
        0
301
CUSTOMDATA
  1
DATAMAP_BEGIN
 90
        0
309
DATAMAP_END
 92
        0
 95
        0
309
LINKEDTABLEDATACELL_END
  1
FORMATTEDTABLEDATACELL_BEGIN
300
CELLTABLEFORMAT
  1
TABLEFORMAT_BEGIN
 90
        1
170
     1
 91
        0
 92
        0
 62
   257
 93
        1
300
CONTENTFORMAT
  1
CONTENTFORMAT_BEGIN
 90
        0
 91
        0
 92
      512
 93
        0
300

 40
0.0
140
1.0
 94
        1
 62
     0
340
0
144
0.18
309
CONTENTFORMAT_END
171
     0
 94
        0
309
TABLEFORMAT_END
309
FORMATTEDTABLEDATACELL_END
  1
TABLECELL_BEGIN
 90
        0
 91
        0
309
TABLECELL_END
300
CELL
  1
LINKEDTABLEDATACELL_BEGIN
 90
        0
300

 91
        0
301
CUSTOMDATA
  1
DATAMAP_BEGIN
 90
        0
309
DATAMAP_END
 92
        0
 95
        0
309
LINKEDTABLEDATACELL_END
  1
FORMATTEDTABLEDATACELL_BEGIN
300
CELLTABLEFORMAT
  1
TABLEFORMAT_BEGIN
 90
        1
170
     1
 91
        0
 92
        0
 62
   257
 93
        1
300
CONTENTFORMAT
  1
CONTENTFORMAT_BEGIN
 90
        0
 91
        0
 92
      512
 93
        0
300

 40
0.0
140
1.0
 94
        1
 62
     0
340
0
144
0.18
309
CONTENTFORMAT_END
171
     0
 94
        0
309
TABLEFORMAT_END
309
FORMATTEDTABLEDATACELL_END
  1
TABLECELL_BEGIN
 90
        0
 91
        0
309
TABLECELL_END
300
CELL
  1
LINKEDTABLEDATACELL_BEGIN
 90
        0
300

 91
        0
301
CUSTOMDATA
  1
DATAMAP_BEGIN
 90
        1
300
ACAD_ROUNDTRIP_2008_CELL_CHECKSUM
301
DATAMAP_VALUE
 93
        2
 90
        2
140
4732.0
 94
        0
300

302

304
ACVALUE_END
309
DATAMAP_END
 92
        0
 95
        1
302
CONTENT
  1
CELLCONTENT_BEGIN
 90
        1
300
VALUE
 93
        2
 90
        4
  1
DATE:20.07.20
 94
        0
300

302
DATE:20.07.20
304
ACVALUE_END
 91
        0
309
CELLCONTENT_END
  1
FORMATTEDCELLCONTENT_BEGIN
170
     1
300
CONTENTFORMAT
  1
CONTENTFORMAT_BEGIN
 90
      132
 91
        0
 92
      512
 93
        0
300

 40
0.0
140
1.0
 94
        1
 62
     0
340
0
144
2.5
309
CONTENTFORMAT_END
309
FORMATTEDCELLCONTENT_END
309
LINKEDTABLEDATACELL_END
  1
FORMATTEDTABLEDATACELL_BEGIN
300
CELLTABLEFORMAT
  1
TABLEFORMAT_BEGIN
 90
        1
170
     1
 91
       16
 92
        0
 62
   257
 93
        1
300
CONTENTFORMAT
  1
CONTENTFORMAT_BEGIN
 90
       16
 91
        0
 92
      512
 93
        0
300

 40
0.0
140
1.0
 94
        4
 62
     0
340
0
144
0.18
309
CONTENTFORMAT_END
171
     0
 94
        4
 95
        1
302
GRIDFORMAT
  1
GRIDFORMAT_BEGIN
 90
       26
 91
        1
 62
     0
 92
       -2
340
0
 93
        0
 40
0.045
309
GRIDFORMAT_END
 95
        4
302
GRIDFORMAT
  1
GRIDFORMAT_BEGIN
 90
       26
 91
        1
 62
     0
 92
       -2
340
0
 93
        0
 40
0.045
309
GRIDFORMAT_END
 95
        8
302
GRIDFORMAT
  1
GRIDFORMAT_BEGIN
 90
       26
 91
        1
 62
     0
 92
       -2
340
0
 93
        0
 40
0.045
309
GRIDFORMAT_END
 95
       32
302
GRIDFORMAT
  1
GRIDFORMAT_BEGIN
 90
       26
 91
        1
 62
     0
 92
       -2
340
0
 93
        0
 40
0.045
309
GRIDFORMAT_END
309
TABLEFORMAT_END
309
FORMATTEDTABLEDATACELL_END
  1
TABLECELL_BEGIN
 90
        0
 91
        0
309
TABLECELL_END
300
CELL
  1
LINKEDTABLEDATACELL_BEGIN
 90
        0
300

 91
        0
301
CUSTOMDATA
  1
DATAMAP_BEGIN
 90
        0
309
DATAMAP_END
 92
        0
 95
        0
309
LINKEDTABLEDATACELL_END
  1
FORMATTEDTABLEDATACELL_BEGIN
300
CELLTABLEFORMAT
  1
TABLEFORMAT_BEGIN
 90
        1
170
     1
 91
        0
 92
        0
 62
   257
 93
        1
300
CONTENTFORMAT
  1
CONTENTFORMAT_BEGIN
 90
        0
 91
        0
 92
      512
 93
        0
300

 40
0.0
140
1.0
 94
        1
 62
     0
340
0
144
0.18
309
CONTENTFORMAT_END
171
     0
 94
        0
309
TABLEFORMAT_END
309
FORMATTEDTABLEDATACELL_END
  1
TABLECELL_BEGIN
 90
        0
 91
        0
309
TABLECELL_END
 91
        0
301
CUSTOMDATA
  1
DATAMAP_BEGIN
 90
        0
309
DATAMAP_END
309
LINKEDTABLEDATAROW_END
  1
FORMATTEDTABLEDATAROW_BEGIN
300
ROWTABLEFORMAT
  1
TABLEFORMAT_BEGIN
 90
        2
170
     0
309
TABLEFORMAT_END
309
FORMATTEDTABLEDATAROW_END
  1
TABLEROW_BEGIN
 90
        3
 40
5.0
309
TABLEROW_END
301
ROW
  1
LINKEDTABLEDATAROW_BEGIN
 90
        5
300
CELL
  1
LINKEDTABLEDATACELL_BEGIN
 90
        0
300

 91
        0
301
CUSTOMDATA
  1
DATAMAP_BEGIN
 90
        1
300
ACAD_ROUNDTRIP_2008_CELL_CHECKSUM
301
DATAMAP_VALUE
 93
        2
 90
        2
140
1361482.0
 94
        0
300

302

304
ACVALUE_END
309
DATAMAP_END
 92
        0
 95
        1
302
CONTENT
  1
CELLCONTENT_BEGIN
 90
        1
300
VALUE
 93
        2
 90
        4
  1
Any integral or partial reproductions are prohibited \Pwithout prior authorisation of L & L Luce & Light s.r.l., \Pin accordance with the law in force. \PAll rights reserved.
 94
        0
300

302
Any integral or partial reproductions are prohibited \Pwithout prior authorisation of L & L Luce & Light s.r.l., \Pin accordance with the law in force. \PAll rights reserved.
304
ACVALUE_END
 91
        0
309
CELLCONTENT_END
  1
FORMATTEDCELLCONTENT_BEGIN
170
     1
300
CONTENTFORMAT
  1
CONTENTFORMAT_BEGIN
 90
      132
 91
        0
 92
      512
 93
        0
300

 40
0.0
140
1.0
 94
        1
 62
     0
340
0
144
2.25
309
CONTENTFORMAT_END
309
FORMATTEDCELLCONTENT_END
309
LINKEDTABLEDATACELL_END
  1
FORMATTEDTABLEDATACELL_BEGIN
300
CELLTABLEFORMAT
  1
TABLEFORMAT_BEGIN
 90
        1
170
     1
 91
       16
 92
        0
 62
   257
 93
        1
300
CONTENTFORMAT
  1
CONTENTFORMAT_BEGIN
 90
       16
 91
        0
 92
      512
 93
        0
300

 40
0.0
140
1.0
 94
        4
 62
     0
340
0
144
0.18
309
CONTENTFORMAT_END
171
     0
 94
        4
 95
        1
302
GRIDFORMAT
  1
GRIDFORMAT_BEGIN
 90
       26
 91
        1
 62
     0
 92
       -2
340
0
 93
        0
 40
0.045
309
GRIDFORMAT_END
 95
        4
302
GRIDFORMAT
  1
GRIDFORMAT_BEGIN
 90
       26
 91
        1
 62
     0
 92
       -2
340
0
 93
        0
 40
0.045
309
GRIDFORMAT_END
 95
        8
302
GRIDFORMAT
  1
GRIDFORMAT_BEGIN
 90
       26
 91
        1
 62
     0
 92
       -2
340
0
 93
        0
 40
0.045
309
GRIDFORMAT_END
 95
       32
302
GRIDFORMAT
  1
GRIDFORMAT_BEGIN
 90
       26
 91
        1
 62
     0
 92
       -2
340
0
 93
        0
 40
0.045
309
GRIDFORMAT_END
309
TABLEFORMAT_END
309
FORMATTEDTABLEDATACELL_END
  1
TABLECELL_BEGIN
 90
        0
 91
        0
309
TABLECELL_END
300
CELL
  1
LINKEDTABLEDATACELL_BEGIN
 90
        0
300

 91
        0
301
CUSTOMDATA
  1
DATAMAP_BEGIN
 90
        0
309
DATAMAP_END
 92
        0
 95
        0
309
LINKEDTABLEDATACELL_END
  1
FORMATTEDTABLEDATACELL_BEGIN
300
CELLTABLEFORMAT
  1
TABLEFORMAT_BEGIN
 90
        1
170
     1
 91
        0
 92
        0
 62
   257
 93
        1
300
CONTENTFORMAT
  1
CONTENTFORMAT_BEGIN
 90
        0
 91
        0
 92
      512
 93
        0
300

 40
0.0
140
1.0
 94
        1
 62
     0
340
0
144
0.18
309
CONTENTFORMAT_END
171
     0
 94
        0
309
TABLEFORMAT_END
309
FORMATTEDTABLEDATACELL_END
  1
TABLECELL_BEGIN
 90
        0
 91
        0
309
TABLECELL_END
300
CELL
  1
LINKEDTABLEDATACELL_BEGIN
 90
        0
300

 91
        0
301
CUSTOMDATA
  1
DATAMAP_BEGIN
 90
        0
309
DATAMAP_END
 92
        0
 95
        0
309
LINKEDTABLEDATACELL_END
  1
FORMATTEDTABLEDATACELL_BEGIN
300
CELLTABLEFORMAT
  1
TABLEFORMAT_BEGIN
 90
        1
170
     1
 91
        0
 92
        0
 62
   257
 93
        1
300
CONTENTFORMAT
  1
CONTENTFORMAT_BEGIN
 90
        0
 91
        0
 92
      512
 93
        0
300

 40
0.0
140
1.0
 94
        1
 62
     0
340
0
144
0.18
309
CONTENTFORMAT_END
171
     0
 94
        0
309
TABLEFORMAT_END
309
FORMATTEDTABLEDATACELL_END
  1
TABLECELL_BEGIN
 90
        0
 91
        0
309
TABLECELL_END
300
CELL
  1
LINKEDTABLEDATACELL_BEGIN
 90
        0
300

 91
        0
301
CUSTOMDATA
  1
DATAMAP_BEGIN
 90
        0
309
DATAMAP_END
 92
        0
 95
        0
309
LINKEDTABLEDATACELL_END
  1
FORMATTEDTABLEDATACELL_BEGIN
300
CELLTABLEFORMAT
  1
TABLEFORMAT_BEGIN
 90
        1
170
     1
 91
        0
 92
        0
 62
   257
 93
        1
300
CONTENTFORMAT
  1
CONTENTFORMAT_BEGIN
 90
        0
 91
        0
 92
      512
 93
        0
300

 40
0.0
140
1.0
 94
        1
 62
     0
340
0
144
0.18
309
CONTENTFORMAT_END
171
     0
 94
        0
309
TABLEFORMAT_END
309
FORMATTEDTABLEDATACELL_END
  1
TABLECELL_BEGIN
 90
        0
 91
        0
309
TABLECELL_END
300
CELL
  1
LINKEDTABLEDATACELL_BEGIN
 90
        0
300

 91
        0
301
CUSTOMDATA
  1
DATAMAP_BEGIN
 90
        0
309
DATAMAP_END
 92
        0
 95
        0
309
LINKEDTABLEDATACELL_END
  1
FORMATTEDTABLEDATACELL_BEGIN
300
CELLTABLEFORMAT
  1
TABLEFORMAT_BEGIN
 90
        1
170
     1
 91
        0
 92
        0
 62
   257
 93
        1
300
CONTENTFORMAT
  1
CONTENTFORMAT_BEGIN
 90
        0
 91
        0
 92
      512
 93
        0
300

 40
0.0
140
1.0
 94
        1
 62
     0
340
0
144
0.18
309
CONTENTFORMAT_END
171
     0
 94
        0
309
TABLEFORMAT_END
309
FORMATTEDTABLEDATACELL_END
  1
TABLECELL_BEGIN
 90
        0
 91
        0
309
TABLECELL_END
 91
        0
301
CUSTOMDATA
  1
DATAMAP_BEGIN
 90
        0
309
DATAMAP_END
309
LINKEDTABLEDATAROW_END
  1
FORMATTEDTABLEDATAROW_BEGIN
300
ROWTABLEFORMAT
  1
TABLEFORMAT_BEGIN
 90
        2
170
     0
309
TABLEFORMAT_END
309
FORMATTEDTABLEDATAROW_END
  1
TABLEROW_BEGIN
 90
        3
 40
13.0
309
TABLEROW_END
100
AcDbFormattedTableData
300
TABLEFORMAT
  1
TABLEFORMAT_BEGIN
 90
        4
170
     1
 91
    15360
 92
        0
 62
   257
 93
        1
300
CONTENTFORMAT
  1
CONTENTFORMAT_BEGIN
 90
        0
 91
        0
 92
      512
 93
        0
300

 40
0.0
140
1.0
 94
        1
 62
     0
340
0
144
0.18
309
CONTENTFORMAT_END
171
     1
301
MARGIN
  1
CELLMARGIN_BEGIN
 40
0.06
 40
0.06
 40
0.06
 40
0.06
 40
0.06
 40
0.06
309
CELLMARGIN_END
 94
        0
309
TABLEFORMAT_END
 90
        4
 91
        0
 92
        0
 93
        3
 94
        2
 91
        2
 92
        3
 93
        2
 94
        4
 91
        3
 92
        3
 93
        3
 94
        4
 91
        4
 92
        0
 93
        4
 94
        4
100
AcDbTableContent
340
4B6
  0
TABLEGEOMETRY
  5
4E3
330
4E5
100
AcDbTableGeometry
 90
        5
 91
        5
 92
       25
 93
        0
 40
0.0
 41
0.0
330
0
 94
        0
 93
        0
 40
0.0
 41
0.0
330
0
 94
        0
 93
        0
 40
0.0
 41
0.0
330
0
 94
        0
 93
        0
 40
0.0
 41
0.0
330
0
 94
        0
 93
        0
 40
0.0
 41
0.0
330
0
 94
        0
 93
        0
 40
0.0
 41
0.0
330
0
 94
        0
 93
        0
 40
0.0
 41
0.0
330
0
 94
        0
 93
        0
 40
0.0
 41
0.0
330
0
 94
        0
 93
        0
 40
0.0
 41
0.0
330
0
 94
        0
 93
        0
 40
0.0
 41
0.0
330
0
 94
        0
 93
        0
 40
0.0
 41
0.0
330
0
 94
        0
 93
        0
 40
0.0
 41
0.0
330
0
 94
        0
 93
        0
 40
0.0
 41
0.0
330
0
 94
        0
 93
        0
 40
0.0
 41
0.0
330
0
 94
        0
 93
        0
 40
0.0
 41
0.0
330
0
 94
        0
 93
        0
 40
0.0
 41
0.0
330
0
 94
        0
 93
        0
 40
0.0
 41
0.0
330
0
 94
        0
 93
        0
 40
0.0
 41
0.0
330
0
 94
        0
 93
        0
 40
0.0
 41
0.0
330
0
 94
        0
 93
        0
 40
0.0
 41
0.0
330
0
 94
        0
 93
        0
 40
0.0
 41
0.0
330
0
 94
        0
 93
        0
 40
0.0
 41
0.0
330
0
 94
        0
 93
        0
 40
0.0
 41
0.0
330
0
 94
        0
 93
        0
 40
0.0
 41
0.0
330
0
 94
        0
 93
        0
 40
0.0
 41
0.0
330
0
 94
        0
  0
DICTIONARY
  5
4E8
330
4B6
100
AcDbDictionary
280
     1
281
     1
  3
ACAD_ROUNDTRIP_2008_TABLESTYLE_CELLSTYLEMAP
360
4E9
  0
DICTIONARY
  5
4F2
330
4BD
100
AcDbDictionary
280
     1
281
     1
  3
ACAD_XREC_ROUNDTRIP
360
4F3
  0
DICTIONARY
  5
4F8
330
4C0
100
AcDbDictionary
280
     1
281
     1
  3
ACAD_XREC_ROUNDTRIP
360
4F9
  0
DICTIONARY
  5
500
330
4C4
100
AcDbDictionary
280
     1
281
     1
  3
ACAD_XREC_ROUNDTRIP
360
501
  0
DICTIONARY
  5
508
330
4C8
100
AcDbDictionary
280
     1
281
     1
  3
ACAD_XREC_ROUNDTRIP
360
509
  0
DICTIONARY
  5
4FC
330
4C2
100
AcDbDictionary
280
     1
281
     1
  3
ACAD_XREC_ROUNDTRIP
360
4FD
  0
DICTIONARY
  5
4FE
330
4C3
100
AcDbDictionary
280
     1
281
     1
  3
ACAD_XREC_ROUNDTRIP
360
4FF
  0
DICTIONARY
  5
50E
330
4CB
100
AcDbDictionary
280
     1
281
     1
  3
ACAD_XREC_ROUNDTRIP
360
50F
  0
DICTIONARY
  5
506
330
4C7
100
AcDbDictionary
280
     1
281
     1
  3
ACAD_XREC_ROUNDTRIP
360
507
  0
DICTIONARY
  5
4EA
330
4B9
100
AcDbDictionary
280
     1
281
     1
  3
ACAD_XREC_ROUNDTRIP
360
4EB
  0
DICTIONARY
  5
4EC
330
4BA
100
AcDbDictionary
280
     1
281
     1
  3
ACAD_XREC_ROUNDTRIP
360
4ED
  0
DICTIONARY
  5
4EE
330
4BB
100
AcDbDictionary
280
     1
281
     1
  3
ACAD_XREC_ROUNDTRIP
360
4EF
  0
DICTIONARY
  5
4F0
330
4BC
100
AcDbDictionary
280
     1
281
     1
  3
ACAD_XREC_ROUNDTRIP
360
4F1
  0
DICTIONARY
  5
4F6
330
4BF
100
AcDbDictionary
280
     1
281
     1
  3
ACAD_XREC_ROUNDTRIP
360
4F7
  0
DICTIONARY
  5
50A
330
4C9
100
AcDbDictionary
280
     1
281
     1
  3
ACAD_XREC_ROUNDTRIP
360
50B
  0
DICTIONARY
  5
504
330
4C6
100
AcDbDictionary
280
     1
281
     1
  3
ACAD_XREC_ROUNDTRIP
360
505
  0
DICTIONARY
  5
50C
330
4CA
100
AcDbDictionary
280
     1
281
     1
  3
ACAD_XREC_ROUNDTRIP
360
50D
  0
DICTIONARY
  5
4FA
330
4C1
100
AcDbDictionary
280
     1
281
     1
  3
ACAD_XREC_ROUNDTRIP
360
4FB
  0
DICTIONARY
  5
518
330
4D0
100
AcDbDictionary
280
     1
281
     1
  3
ACAD_XREC_ROUNDTRIP
360
519
  0
DICTIONARY
  5
516
330
4CF
100
AcDbDictionary
280
     1
281
     1
  3
ACAD_XREC_ROUNDTRIP
360
517
  0
DICTIONARY
  5
510
330
4CC
100
AcDbDictionary
280
     1
281
     1
  3
ACAD_XREC_ROUNDTRIP
360
511
  0
DICTIONARY
  5
512
330
4CD
100
AcDbDictionary
280
     1
281
     1
  3
ACAD_XREC_ROUNDTRIP
360
513
  0
DICTIONARY
  5
502
330
4C5
100
AcDbDictionary
280
     1
281
     1
  3
ACAD_XREC_ROUNDTRIP
360
503
  0
DICTIONARY
  5
4F4
330
4BE
100
AcDbDictionary
280
     1
281
     1
  3
ACAD_XREC_ROUNDTRIP
360
4F5
  0
DICTIONARY
  5
514
330
4CE
100
AcDbDictionary
280
     1
281
     1
  3
ACAD_XREC_ROUNDTRIP
360
515
  0
CELLSTYLEMAP
  5
4E9
102
{ACAD_REACTORS
330
4E8
102
}
330
4E8
100
AcDbCellStyleMap
 90
        3
300
CELLSTYLE
  1
TABLEFORMAT_BEGIN
 90
        5
170
     1
 91
        0
 92
        0
 62
   257
 93
        1
300
CONTENTFORMAT
  1
CONTENTFORMAT_BEGIN
 90
        0
 91
        0
 92
        4
 93
        0
300

 40
0.0
140
1.0
 94
        5
 62
     0
340
11
144
6.0
309
CONTENTFORMAT_END
171
     1
301
MARGIN
  1
CELLMARGIN_BEGIN
 40
1.5
 40
1.5
 40
1.5
 40
1.5
 40
1.5
 40
1.5
309
CELLMARGIN_END
 94
        6
 95
        1
302
GRIDFORMAT
  1
GRIDFORMAT_BEGIN
 90
        0
 91
        1
 62
     0
 92
       -2
340
14
 93
        0
 40
0.045
309
GRIDFORMAT_END
 95
        2
302
GRIDFORMAT
  1
GRIDFORMAT_BEGIN
 90
        0
 91
        1
 62
     0
 92
       -2
340
14
 93
        0
 40
0.045
309
GRIDFORMAT_END
 95
        4
302
GRIDFORMAT
  1
GRIDFORMAT_BEGIN
 90
        0
 91
        1
 62
     0
 92
       -2
340
14
 93
        0
 40
0.045
309
GRIDFORMAT_END
 95
        8
302
GRIDFORMAT
  1
GRIDFORMAT_BEGIN
 90
        0
 91
        1
 62
     0
 92
       -2
340
14
 93
        0
 40
0.045
309
GRIDFORMAT_END
 95
       16
302
GRIDFORMAT
  1
GRIDFORMAT_BEGIN
 90
        0
 91
        1
 62
     0
 92
       -2
340
14
 93
        0
 40
0.045
309
GRIDFORMAT_END
 95
       32
302
GRIDFORMAT
  1
GRIDFORMAT_BEGIN
 90
        0
 91
        1
 62
     0
 92
       -2
340
14
 93
        0
 40
0.045
309
GRIDFORMAT_END
309
TABLEFORMAT_END
  1
CELLSTYLE_BEGIN
 90
        1
 91
        1
300
_TITLE
309
CELLSTYLE_END
300
CELLSTYLE
  1
TABLEFORMAT_BEGIN
 90
        5
170
     1
 91
        0
 92
        0
 62
   257
 93
        1
300
CONTENTFORMAT
  1
CONTENTFORMAT_BEGIN
 90
        0
 91
        0
 92
        4
 93
        0
300

 40
0.0
140
1.0
 94
        5
 62
     0
340
11
144
4.5
309
CONTENTFORMAT_END
171
     1
301
MARGIN
  1
CELLMARGIN_BEGIN
 40
1.5
 40
1.5
 40
1.5
 40
1.5
 40
1.5
 40
1.5
309
CELLMARGIN_END
 94
        6
 95
        1
302
GRIDFORMAT
  1
GRIDFORMAT_BEGIN
 90
        0
 91
        1
 62
     0
 92
       -2
340
14
 93
        0
 40
0.045
309
GRIDFORMAT_END
 95
        2
302
GRIDFORMAT
  1
GRIDFORMAT_BEGIN
 90
        0
 91
        1
 62
     0
 92
       -2
340
14
 93
        0
 40
0.045
309
GRIDFORMAT_END
 95
        4
302
GRIDFORMAT
  1
GRIDFORMAT_BEGIN
 90
        0
 91
        1
 62
     0
 92
       -2
340
14
 93
        0
 40
0.045
309
GRIDFORMAT_END
 95
        8
302
GRIDFORMAT
  1
GRIDFORMAT_BEGIN
 90
        0
 91
        1
 62
     0
 92
       -2
340
14
 93
        0
 40
0.045
309
GRIDFORMAT_END
 95
       16
302
GRIDFORMAT
  1
GRIDFORMAT_BEGIN
 90
        0
 91
        1
 62
     0
 92
       -2
340
14
 93
        0
 40
0.045
309
GRIDFORMAT_END
 95
       32
302
GRIDFORMAT
  1
GRIDFORMAT_BEGIN
 90
        0
 91
        1
 62
     0
 92
       -2
340
14
 93
        0
 40
0.045
309
GRIDFORMAT_END
309
TABLEFORMAT_END
  1
CELLSTYLE_BEGIN
 90
        2
 91
        1
300
_HEADER
309
CELLSTYLE_END
300
CELLSTYLE
  1
TABLEFORMAT_BEGIN
 90
        5
170
     1
 91
        0
 92
        0
 62
   257
 93
        1
300
CONTENTFORMAT
  1
CONTENTFORMAT_BEGIN
 90
        0
 91
        0
 92
        4
 93
        0
300

 40
0.0
140
1.0
 94
        2
 62
     0
340
11
144
4.5
309
CONTENTFORMAT_END
171
     1
301
MARGIN
  1
CELLMARGIN_BEGIN
 40
1.5
 40
1.5
 40
1.5
 40
1.5
 40
1.5
 40
1.5
309
CELLMARGIN_END
 94
        6
 95
        1
302
GRIDFORMAT
  1
GRIDFORMAT_BEGIN
 90
        0
 91
        1
 62
     0
 92
       -2
340
14
 93
        0
 40
0.045
309
GRIDFORMAT_END
 95
        2
302
GRIDFORMAT
  1
GRIDFORMAT_BEGIN
 90
        0
 91
        1
 62
     0
 92
       -2
340
14
 93
        0
 40
0.045
309
GRIDFORMAT_END
 95
        4
302
GRIDFORMAT
  1
GRIDFORMAT_BEGIN
 90
        0
 91
        1
 62
     0
 92
       -2
340
14
 93
        0
 40
0.045
309
GRIDFORMAT_END
 95
        8
302
GRIDFORMAT
  1
GRIDFORMAT_BEGIN
 90
        0
 91
        1
 62
     0
 92
       -2
340
14
 93
        0
 40
0.045
309
GRIDFORMAT_END
 95
       16
302
GRIDFORMAT
  1
GRIDFORMAT_BEGIN
 90
        0
 91
        1
 62
     0
 92
       -2
340
14
 93
        0
 40
0.045
309
GRIDFORMAT_END
 95
       32
302
GRIDFORMAT
  1
GRIDFORMAT_BEGIN
 90
        0
 91
        1
 62
     0
 92
       -2
340
14
 93
        0
 40
0.045
309
GRIDFORMAT_END
309
TABLEFORMAT_END
  1
CELLSTYLE_BEGIN
 90
        3
 91
        2
300
_DATA
309
CELLSTYLE_END
  0
XRECORD
  5
4F3
102
{ACAD_REACTORS
330
4F2
102
}
330
4F2
100
AcDbXrecord
280
     1
102
RTVSPost2010Prop28
280
     1
102
RTVSPost2010PropOp28
 70
     1
102
RTVSPost2010Prop29
280
     1
102
RTVSPost2010PropOp29
 70
     1
102
RTVSPost2010Prop30
280
     0
102
RTVSPost2010PropOp30
 70
     1
102
RTVSPost2010Prop31
280
     0
102
RTVSPost2010PropOp31
 70
     1
102
RTVSPost2010Prop32
280
     0
102
RTVSPost2010PropOp32
 70
     1
102
RTVSPost2010Prop33
280
     0
102
RTVSPost2010PropOp33
 70
     1
102
RTVSPost2010Prop34
280
     0
102
RTVSPost2010PropOp34
 70
     1
102
RTVSPost2010Prop35
280
     0
102
RTVSPost2010PropOp35
 70
     1
102
RTVSPost2010Prop36
280
     0
102
RTVSPost2010PropOp36
 70
     1
102
RTVSPost2010Prop37
 90
       50
102
RTVSPost2010PropOp37
 70
     1
102
RTVSPost2010Prop38
140
0.0
102
RTVSPost2010PropOp38
 70
     1
102
RTVSPost2010Prop39
140
1.0
102
RTVSPost2010PropOp39
 70
     1
102
RTVSPost2010Prop40
 90
        0
102
RTVSPost2010PropOp40
 70
     1
102
RTVSPost2010Prop41ColorIndex
 90
       18
102
RTVSPost2010Prop41ColorRGB
 90
        0
102
RTVSPost2010PropOp41
 70
     1
102
RTVSPost2010Prop42
 90
       50
102
RTVSPost2010PropOp42
 70
     1
102
RTVSPost2010Prop43
 90
        3
102
RTVSPost2010PropOp43
 70
     1
102
RTVSPost2010Prop44ColorIndex
 90
        5
102
RTVSPost2010Prop44ColorRGB
 90
      255
102
RTVSPost2010PropOp44
 70
     1
102
RTVSPost2010Prop45
280
     0
102
RTVSPost2010PropOp45
 70
     1
102
RTVSPost2010Prop46
 90
       50
102
RTVSPost2010PropOp46
 70
     1
102
RTVSPost2010Prop47
 90
       50
102
RTVSPost2010PropOp47
 70
     1
102
RTVSPost2010Prop48
 90
       50
102
RTVSPost2010PropOp48
 70
     1
102
RTVSPost2010Prop49
280
     0
102
RTVSPost2010PropOp49
 70
     1
102
RTVSPost2010Prop50
 90
       50
102
RTVSPost2010PropOp50
 70
     1
102
RTVSPost2010Prop51ColorIndex
 90
      256
102
RTVSPost2010Prop51ColorRGB
 90
-16777216
102
RTVSPost2010PropOp51
 70
     0
102
RTVSPost2010Prop52
140
1.0
102
RTVSPost2010PropOp52
 70
     0
102
RTVSPost2010Prop53
 90
        2
102
RTVSPost2010PropOp53
 70
     1
102
RTVSPost2010Prop54
  1
strokes_ogs.tif
102
RTVSPost2010PropOp54
 70
     1
102
RTVSPost2010Prop55
280
     0
102
RTVSPost2010PropOp55
 70
     1
102
RTVSPost2010Prop56
140
1.0
102
RTVSPost2010PropOp56
 70
     1
102
RTVSPost2010Prop57
140
1.0
102
RTVSPost2010PropOp57
 70
     1
  0
XRECORD
  5
4F9
102
{ACAD_REACTORS
330
4F8
102
}
330
4F8
100
AcDbXrecord
280
     1
102
RTVSPost2010Prop28
280
     0
102
RTVSPost2010PropOp28
 70
     1
102
RTVSPost2010Prop29
280
     1
102
RTVSPost2010PropOp29
 70
     1
102
RTVSPost2010Prop30
280
     1
102
RTVSPost2010PropOp30
 70
     1
102
RTVSPost2010Prop31
280
     0
102
RTVSPost2010PropOp31
 70
     1
102
RTVSPost2010Prop32
280
     0
102
RTVSPost2010PropOp32
 70
     1
102
RTVSPost2010Prop33
280
     0
102
RTVSPost2010PropOp33
 70
     1
102
RTVSPost2010Prop34
280
     0
102
RTVSPost2010PropOp34
 70
     1
102
RTVSPost2010Prop35
280
     0
102
RTVSPost2010PropOp35
 70
     1
102
RTVSPost2010Prop36
280
     0
102
RTVSPost2010PropOp36
 70
     1
102
RTVSPost2010Prop37
 90
       50
102
RTVSPost2010PropOp37
 70
     1
102
RTVSPost2010Prop38
140
0.0
102
RTVSPost2010PropOp38
 70
     1
102
RTVSPost2010Prop39
140
1.0
102
RTVSPost2010PropOp39
 70
     1
102
RTVSPost2010Prop40
 90
        0
102
RTVSPost2010PropOp40
 70
     1
102
RTVSPost2010Prop41ColorIndex
 90
       18
102
RTVSPost2010Prop41ColorRGB
 90
        0
102
RTVSPost2010PropOp41
 70
     1
102
RTVSPost2010Prop42
 90
       50
102
RTVSPost2010PropOp42
 70
     1
102
RTVSPost2010Prop43
 90
        3
102
RTVSPost2010PropOp43
 70
     1
102
RTVSPost2010Prop44ColorIndex
 90
        5
102
RTVSPost2010Prop44ColorRGB
 90
      255
102
RTVSPost2010PropOp44
 70
     1
102
RTVSPost2010Prop45
280
     0
102
RTVSPost2010PropOp45
 70
     1
102
RTVSPost2010Prop46
 90
       50
102
RTVSPost2010PropOp46
 70
     1
102
RTVSPost2010Prop47
 90
       50
102
RTVSPost2010PropOp47
 70
     1
102
RTVSPost2010Prop48
 90
       50
102
RTVSPost2010PropOp48
 70
     1
102
RTVSPost2010Prop49
280
     0
102
RTVSPost2010PropOp49
 70
     1
102
RTVSPost2010Prop50
 90
       50
102
RTVSPost2010PropOp50
 70
     1
102
RTVSPost2010Prop51ColorIndex
 90
      256
102
RTVSPost2010Prop51ColorRGB
 90
-16777216
102
RTVSPost2010PropOp51
 70
     0
102
RTVSPost2010Prop52
140
1.0
102
RTVSPost2010PropOp52
 70
     0
102
RTVSPost2010Prop53
 90
        2
102
RTVSPost2010PropOp53
 70
     1
102
RTVSPost2010Prop54
  1
strokes_ogs.tif
102
RTVSPost2010PropOp54
 70
     1
102
RTVSPost2010Prop55
280
     0
102
RTVSPost2010PropOp55
 70
     1
102
RTVSPost2010Prop56
140
1.0
102
RTVSPost2010PropOp56
 70
     1
102
RTVSPost2010Prop57
140
1.0
102
RTVSPost2010PropOp57
 70
     1
  0
XRECORD
  5
501
102
{ACAD_REACTORS
330
500
102
}
330
500
100
AcDbXrecord
280
     1
102
RTVSPost2010Prop28
280
     0
102
RTVSPost2010PropOp28
 70
     1
102
RTVSPost2010Prop29
280
     1
102
RTVSPost2010PropOp29
 70
     1
102
RTVSPost2010Prop30
280
     1
102
RTVSPost2010PropOp30
 70
     1
102
RTVSPost2010Prop31
280
     0
102
RTVSPost2010PropOp31
 70
     1
102
RTVSPost2010Prop32
280
     0
102
RTVSPost2010PropOp32
 70
     1
102
RTVSPost2010Prop33
280
     0
102
RTVSPost2010PropOp33
 70
     1
102
RTVSPost2010Prop34
280
     0
102
RTVSPost2010PropOp34
 70
     1
102
RTVSPost2010Prop35
280
     0
102
RTVSPost2010PropOp35
 70
     1
102
RTVSPost2010Prop36
280
     0
102
RTVSPost2010PropOp36
 70
     1
102
RTVSPost2010Prop37
 90
       50
102
RTVSPost2010PropOp37
 70
     1
102
RTVSPost2010Prop38
140
0.0
102
RTVSPost2010PropOp38
 70
     1
102
RTVSPost2010Prop39
140
1.0
102
RTVSPost2010PropOp39
 70
     1
102
RTVSPost2010Prop40
 90
        0
102
RTVSPost2010PropOp40
 70
     1
102
RTVSPost2010Prop41ColorIndex
 90
       18
102
RTVSPost2010Prop41ColorRGB
 90
        0
102
RTVSPost2010PropOp41
 70
     1
102
RTVSPost2010Prop42
 90
       50
102
RTVSPost2010PropOp42
 70
     1
102
RTVSPost2010Prop43
 90
        3
102
RTVSPost2010PropOp43
 70
     1
102
RTVSPost2010Prop44ColorIndex
 90
        5
102
RTVSPost2010Prop44ColorRGB
 90
      255
102
RTVSPost2010PropOp44
 70
     1
102
RTVSPost2010Prop45
280
     0
102
RTVSPost2010PropOp45
 70
     1
102
RTVSPost2010Prop46
 90
       50
102
RTVSPost2010PropOp46
 70
     1
102
RTVSPost2010Prop47
 90
       50
102
RTVSPost2010PropOp47
 70
     1
102
RTVSPost2010Prop48
 90
       50
102
RTVSPost2010PropOp48
 70
     1
102
RTVSPost2010Prop49
280
     0
102
RTVSPost2010PropOp49
 70
     1
102
RTVSPost2010Prop50
 90
       50
102
RTVSPost2010PropOp50
 70
     1
102
RTVSPost2010Prop51ColorIndex
 90
      256
102
RTVSPost2010Prop51ColorRGB
 90
-16777216
102
RTVSPost2010PropOp51
 70
     0
102
RTVSPost2010Prop52
140
1.0
102
RTVSPost2010PropOp52
 70
     0
102
RTVSPost2010Prop53
 90
        2
102
RTVSPost2010PropOp53
 70
     1
102
RTVSPost2010Prop54
  1
strokes_ogs.tif
102
RTVSPost2010PropOp54
 70
     1
102
RTVSPost2010Prop55
280
     0
102
RTVSPost2010PropOp55
 70
     1
102
RTVSPost2010Prop56
140
1.0
102
RTVSPost2010PropOp56
 70
     1
102
RTVSPost2010Prop57
140
1.0
102
RTVSPost2010PropOp57
 70
     1
  0
XRECORD
  5
509
102
{ACAD_REACTORS
330
508
102
}
330
508
100
AcDbXrecord
280
     1
102
RTVSPost2010Prop28
280
     0
102
RTVSPost2010PropOp28
 70
     1
102
RTVSPost2010Prop29
280
     1
102
RTVSPost2010PropOp29
 70
     1
102
RTVSPost2010Prop30
280
     1
102
RTVSPost2010PropOp30
 70
     1
102
RTVSPost2010Prop31
280
     0
102
RTVSPost2010PropOp31
 70
     1
102
RTVSPost2010Prop32
280
     0
102
RTVSPost2010PropOp32
 70
     1
102
RTVSPost2010Prop33
280
     0
102
RTVSPost2010PropOp33
 70
     1
102
RTVSPost2010Prop34
280
     0
102
RTVSPost2010PropOp34
 70
     1
102
RTVSPost2010Prop35
280
     0
102
RTVSPost2010PropOp35
 70
     1
102
RTVSPost2010Prop36
280
     0
102
RTVSPost2010PropOp36
 70
     1
102
RTVSPost2010Prop37
 90
       50
102
RTVSPost2010PropOp37
 70
     1
102
RTVSPost2010Prop38
140
0.0
102
RTVSPost2010PropOp38
 70
     1
102
RTVSPost2010Prop39
140
1.0
102
RTVSPost2010PropOp39
 70
     1
102
RTVSPost2010Prop40
 90
        0
102
RTVSPost2010PropOp40
 70
     1
102
RTVSPost2010Prop41ColorIndex
 90
       18
102
RTVSPost2010Prop41ColorRGB
 90
        0
102
RTVSPost2010PropOp41
 70
     1
102
RTVSPost2010Prop42
 90
       50
102
RTVSPost2010PropOp42
 70
     1
102
RTVSPost2010Prop43
 90
        3
102
RTVSPost2010PropOp43
 70
     1
102
RTVSPost2010Prop44ColorIndex
 90
        5
102
RTVSPost2010Prop44ColorRGB
 90
      255
102
RTVSPost2010PropOp44
 70
     1
102
RTVSPost2010Prop45
280
     0
102
RTVSPost2010PropOp45
 70
     1
102
RTVSPost2010Prop46
 90
       50
102
RTVSPost2010PropOp46
 70
     1
102
RTVSPost2010Prop47
 90
       50
102
RTVSPost2010PropOp47
 70
     1
102
RTVSPost2010Prop48
 90
       50
102
RTVSPost2010PropOp48
 70
     1
102
RTVSPost2010Prop49
280
     0
102
RTVSPost2010PropOp49
 70
     1
102
RTVSPost2010Prop50
 90
       50
102
RTVSPost2010PropOp50
 70
     1
102
RTVSPost2010Prop51ColorIndex
 90
      256
102
RTVSPost2010Prop51ColorRGB
 90
-16777216
102
RTVSPost2010PropOp51
 70
     0
102
RTVSPost2010Prop52
140
1.0
102
RTVSPost2010PropOp52
 70
     0
102
RTVSPost2010Prop53
 90
        2
102
RTVSPost2010PropOp53
 70
     1
102
RTVSPost2010Prop54
  1
strokes_ogs.tif
102
RTVSPost2010PropOp54
 70
     1
102
RTVSPost2010Prop55
280
     0
102
RTVSPost2010PropOp55
 70
     1
102
RTVSPost2010Prop56
140
1.0
102
RTVSPost2010PropOp56
 70
     1
102
RTVSPost2010Prop57
140
1.0
102
RTVSPost2010PropOp57
 70
     1
  0
XRECORD
  5
4FD
102
{ACAD_REACTORS
330
4FC
102
}
330
4FC
100
AcDbXrecord
280
     1
102
RTVSPost2010Prop28
280
     0
102
RTVSPost2010PropOp28
 70
     1
102
RTVSPost2010Prop29
280
     1
102
RTVSPost2010PropOp29
 70
     1
102
RTVSPost2010Prop30
280
     1
102
RTVSPost2010PropOp30
 70
     1
102
RTVSPost2010Prop31
280
     0
102
RTVSPost2010PropOp31
 70
     1
102
RTVSPost2010Prop32
280
     0
102
RTVSPost2010PropOp32
 70
     1
102
RTVSPost2010Prop33
280
     0
102
RTVSPost2010PropOp33
 70
     1
102
RTVSPost2010Prop34
280
     0
102
RTVSPost2010PropOp34
 70
     1
102
RTVSPost2010Prop35
280
     0
102
RTVSPost2010PropOp35
 70
     1
102
RTVSPost2010Prop36
280
     0
102
RTVSPost2010PropOp36
 70
     1
102
RTVSPost2010Prop37
 90
       50
102
RTVSPost2010PropOp37
 70
     1
102
RTVSPost2010Prop38
140
0.0
102
RTVSPost2010PropOp38
 70
     1
102
RTVSPost2010Prop39
140
1.0
102
RTVSPost2010PropOp39
 70
     1
102
RTVSPost2010Prop40
 90
        0
102
RTVSPost2010PropOp40
 70
     1
102
RTVSPost2010Prop41ColorIndex
 90
       18
102
RTVSPost2010Prop41ColorRGB
 90
        0
102
RTVSPost2010PropOp41
 70
     1
102
RTVSPost2010Prop42
 90
       50
102
RTVSPost2010PropOp42
 70
     1
102
RTVSPost2010Prop43
 90
        3
102
RTVSPost2010PropOp43
 70
     1
102
RTVSPost2010Prop44ColorIndex
 90
        5
102
RTVSPost2010Prop44ColorRGB
 90
      255
102
RTVSPost2010PropOp44
 70
     1
102
RTVSPost2010Prop45
280
     0
102
RTVSPost2010PropOp45
 70
     1
102
RTVSPost2010Prop46
 90
       50
102
RTVSPost2010PropOp46
 70
     1
102
RTVSPost2010Prop47
 90
       50
102
RTVSPost2010PropOp47
 70
     1
102
RTVSPost2010Prop48
 90
       50
102
RTVSPost2010PropOp48
 70
     1
102
RTVSPost2010Prop49
280
     0
102
RTVSPost2010PropOp49
 70
     1
102
RTVSPost2010Prop50
 90
       50
102
RTVSPost2010PropOp50
 70
     1
102
RTVSPost2010Prop51ColorIndex
 90
      256
102
RTVSPost2010Prop51ColorRGB
 90
-16777216
102
RTVSPost2010PropOp51
 70
     0
102
RTVSPost2010Prop52
140
1.0
102
RTVSPost2010PropOp52
 70
     0
102
RTVSPost2010Prop53
 90
        2
102
RTVSPost2010PropOp53
 70
     1
102
RTVSPost2010Prop54
  1
strokes_ogs.tif
102
RTVSPost2010PropOp54
 70
     1
102
RTVSPost2010Prop55
280
     0
102
RTVSPost2010PropOp55
 70
     1
102
RTVSPost2010Prop56
140
1.0
102
RTVSPost2010PropOp56
 70
     1
102
RTVSPost2010Prop57
140
1.0
102
RTVSPost2010PropOp57
 70
     1
  0
XRECORD
  5
4FF
102
{ACAD_REACTORS
330
4FE
102
}
330
4FE
100
AcDbXrecord
280
     1
102
RTVSPost2010Prop28
280
     0
102
RTVSPost2010PropOp28
 70
     1
102
RTVSPost2010Prop29
280
     1
102
RTVSPost2010PropOp29
 70
     1
102
RTVSPost2010Prop30
280
     1
102
RTVSPost2010PropOp30
 70
     1
102
RTVSPost2010Prop31
280
     0
102
RTVSPost2010PropOp31
 70
     1
102
RTVSPost2010Prop32
280
     0
102
RTVSPost2010PropOp32
 70
     1
102
RTVSPost2010Prop33
280
     0
102
RTVSPost2010PropOp33
 70
     1
102
RTVSPost2010Prop34
280
     0
102
RTVSPost2010PropOp34
 70
     1
102
RTVSPost2010Prop35
280
     0
102
RTVSPost2010PropOp35
 70
     1
102
RTVSPost2010Prop36
280
     0
102
RTVSPost2010PropOp36
 70
     1
102
RTVSPost2010Prop37
 90
       50
102
RTVSPost2010PropOp37
 70
     1
102
RTVSPost2010Prop38
140
0.0
102
RTVSPost2010PropOp38
 70
     1
102
RTVSPost2010Prop39
140
1.0
102
RTVSPost2010PropOp39
 70
     1
102
RTVSPost2010Prop40
 90
        0
102
RTVSPost2010PropOp40
 70
     1
102
RTVSPost2010Prop41ColorIndex
 90
       18
102
RTVSPost2010Prop41ColorRGB
 90
        0
102
RTVSPost2010PropOp41
 70
     1
102
RTVSPost2010Prop42
 90
       50
102
RTVSPost2010PropOp42
 70
     1
102
RTVSPost2010Prop43
 90
        3
102
RTVSPost2010PropOp43
 70
     1
102
RTVSPost2010Prop44ColorIndex
 90
        5
102
RTVSPost2010Prop44ColorRGB
 90
      255
102
RTVSPost2010PropOp44
 70
     1
102
RTVSPost2010Prop45
280
     0
102
RTVSPost2010PropOp45
 70
     1
102
RTVSPost2010Prop46
 90
       50
102
RTVSPost2010PropOp46
 70
     1
102
RTVSPost2010Prop47
 90
       50
102
RTVSPost2010PropOp47
 70
     1
102
RTVSPost2010Prop48
 90
       50
102
RTVSPost2010PropOp48
 70
     1
102
RTVSPost2010Prop49
280
     0
102
RTVSPost2010PropOp49
 70
     1
102
RTVSPost2010Prop50
 90
       50
102
RTVSPost2010PropOp50
 70
     1
102
RTVSPost2010Prop51ColorIndex
 90
      256
102
RTVSPost2010Prop51ColorRGB
 90
-16777216
102
RTVSPost2010PropOp51
 70
     0
102
RTVSPost2010Prop52
140
1.0
102
RTVSPost2010PropOp52
 70
     0
102
RTVSPost2010Prop53
 90
        2
102
RTVSPost2010PropOp53
 70
     1
102
RTVSPost2010Prop54
  1
strokes_ogs.tif
102
RTVSPost2010PropOp54
 70
     1
102
RTVSPost2010Prop55
280
     0
102
RTVSPost2010PropOp55
 70
     1
102
RTVSPost2010Prop56
140
1.0
102
RTVSPost2010PropOp56
 70
     1
102
RTVSPost2010Prop57
140
1.0
102
RTVSPost2010PropOp57
 70
     1
  0
XRECORD
  5
50F
102
{ACAD_REACTORS
330
50E
102
}
330
50E
100
AcDbXrecord
280
     1
102
RTVSPost2010Prop28
280
     0
102
RTVSPost2010PropOp28
 70
     0
102
RTVSPost2010Prop29
280
     1
102
RTVSPost2010PropOp29
 70
     0
102
RTVSPost2010Prop30
280
     1
102
RTVSPost2010PropOp30
 70
     0
102
RTVSPost2010Prop31
280
     0
102
RTVSPost2010PropOp31
 70
     0
102
RTVSPost2010Prop32
280
     0
102
RTVSPost2010PropOp32
 70
     0
102
RTVSPost2010Prop33
280
     0
102
RTVSPost2010PropOp33
 70
     0
102
RTVSPost2010Prop34
280
     0
102
RTVSPost2010PropOp34
 70
     0
102
RTVSPost2010Prop35
280
     0
102
RTVSPost2010PropOp35
 70
     0
102
RTVSPost2010Prop36
280
     0
102
RTVSPost2010PropOp36
 70
     0
102
RTVSPost2010Prop37
 90
       50
102
RTVSPost2010PropOp37
 70
     0
102
RTVSPost2010Prop38
140
0.0
102
RTVSPost2010PropOp38
 70
     0
102
RTVSPost2010Prop39
140
1.0
102
RTVSPost2010PropOp39
 70
     0
102
RTVSPost2010Prop40
 90
        0
102
RTVSPost2010PropOp40
 70
     0
102
RTVSPost2010Prop41ColorIndex
 90
       18
102
RTVSPost2010Prop41ColorRGB
 90
        0
102
RTVSPost2010PropOp41
 70
     0
102
RTVSPost2010Prop42
 90
       50
102
RTVSPost2010PropOp42
 70
     0
102
RTVSPost2010Prop43
 90
        3
102
RTVSPost2010PropOp43
 70
     0
102
RTVSPost2010Prop44ColorIndex
 90
        5
102
RTVSPost2010Prop44ColorRGB
 90
      255
102
RTVSPost2010PropOp44
 70
     0
102
RTVSPost2010Prop45
280
     0
102
RTVSPost2010PropOp45
 70
     0
102
RTVSPost2010Prop46
 90
       50
102
RTVSPost2010PropOp46
 70
     0
102
RTVSPost2010Prop47
 90
       50
102
RTVSPost2010PropOp47
 70
     0
102
RTVSPost2010Prop48
 90
       50
102
RTVSPost2010PropOp48
 70
     0
102
RTVSPost2010Prop49
280
     0
102
RTVSPost2010PropOp49
 70
     0
102
RTVSPost2010Prop50
 90
       50
102
RTVSPost2010PropOp50
 70
     0
102
RTVSPost2010Prop51ColorIndex
 90
      256
102
RTVSPost2010Prop51ColorRGB
 90
-16777216
102
RTVSPost2010PropOp51
 70
     0
102
RTVSPost2010Prop52
140
1.0
102
RTVSPost2010PropOp52
 70
     0
102
RTVSPost2010Prop53
 90
        2
102
RTVSPost2010PropOp53
 70
     0
102
RTVSPost2010Prop54
  1
strokes_ogs.tif
102
RTVSPost2010PropOp54
 70
     0
102
RTVSPost2010Prop55
280
     0
102
RTVSPost2010PropOp55
 70
     0
102
RTVSPost2010Prop56
140
1.0
102
RTVSPost2010PropOp56
 70
     0
102
RTVSPost2010Prop57
140
1.0
102
RTVSPost2010PropOp57
 70
     0
  0
XRECORD
  5
507
102
{ACAD_REACTORS
330
506
102
}
330
506
100
AcDbXrecord
280
     1
102
RTVSPost2010Prop28
280
     0
102
RTVSPost2010PropOp28
 70
     1
102
RTVSPost2010Prop29
280
     1
102
RTVSPost2010PropOp29
 70
     1
102
RTVSPost2010Prop30
280
     1
102
RTVSPost2010PropOp30
 70
     1
102
RTVSPost2010Prop31
280
     0
102
RTVSPost2010PropOp31
 70
     1
102
RTVSPost2010Prop32
280
     0
102
RTVSPost2010PropOp32
 70
     1
102
RTVSPost2010Prop33
280
     0
102
RTVSPost2010PropOp33
 70
     1
102
RTVSPost2010Prop34
280
     0
102
RTVSPost2010PropOp34
 70
     1
102
RTVSPost2010Prop35
280
     0
102
RTVSPost2010PropOp35
 70
     1
102
RTVSPost2010Prop36
280
     0
102
RTVSPost2010PropOp36
 70
     1
102
RTVSPost2010Prop37
 90
       50
102
RTVSPost2010PropOp37
 70
     1
102
RTVSPost2010Prop38
140
0.0
102
RTVSPost2010PropOp38
 70
     1
102
RTVSPost2010Prop39
140
1.0
102
RTVSPost2010PropOp39
 70
     1
102
RTVSPost2010Prop40
 90
        0
102
RTVSPost2010PropOp40
 70
     1
102
RTVSPost2010Prop41ColorIndex
 90
       18
102
RTVSPost2010Prop41ColorRGB
 90
        0
102
RTVSPost2010PropOp41
 70
     1
102
RTVSPost2010Prop42
 90
       50
102
RTVSPost2010PropOp42
 70
     1
102
RTVSPost2010Prop43
 90
        3
102
RTVSPost2010PropOp43
 70
     1
102
RTVSPost2010Prop44ColorIndex
 90
        5
102
RTVSPost2010Prop44ColorRGB
 90
      255
102
RTVSPost2010PropOp44
 70
     1
102
RTVSPost2010Prop45
280
     0
102
RTVSPost2010PropOp45
 70
     1
102
RTVSPost2010Prop46
 90
       50
102
RTVSPost2010PropOp46
 70
     1
102
RTVSPost2010Prop47
 90
       50
102
RTVSPost2010PropOp47
 70
     1
102
RTVSPost2010Prop48
 90
       50
102
RTVSPost2010PropOp48
 70
     1
102
RTVSPost2010Prop49
280
     0
102
RTVSPost2010PropOp49
 70
     1
102
RTVSPost2010Prop50
 90
       50
102
RTVSPost2010PropOp50
 70
     1
102
RTVSPost2010Prop51ColorIndex
 90
      256
102
RTVSPost2010Prop51ColorRGB
 90
-16777216
102
RTVSPost2010PropOp51
 70
     0
102
RTVSPost2010Prop52
140
1.0
102
RTVSPost2010PropOp52
 70
     0
102
RTVSPost2010Prop53
 90
        2
102
RTVSPost2010PropOp53
 70
     1
102
RTVSPost2010Prop54
  1
strokes_ogs.tif
102
RTVSPost2010PropOp54
 70
     1
102
RTVSPost2010Prop55
280
     0
102
RTVSPost2010PropOp55
 70
     1
102
RTVSPost2010Prop56
140
1.0
102
RTVSPost2010PropOp56
 70
     1
102
RTVSPost2010Prop57
140
1.0
102
RTVSPost2010PropOp57
 70
     1
  0
XRECORD
  5
4EB
102
{ACAD_REACTORS
330
4EA
102
}
330
4EA
100
AcDbXrecord
280
     1
102
RTVSPost2010Prop28
280
     0
102
RTVSPost2010PropOp28
 70
     1
102
RTVSPost2010Prop29
280
     1
102
RTVSPost2010PropOp29
 70
     1
102
RTVSPost2010Prop30
280
     1
102
RTVSPost2010PropOp30
 70
     1
102
RTVSPost2010Prop31
280
     0
102
RTVSPost2010PropOp31
 70
     1
102
RTVSPost2010Prop32
280
     0
102
RTVSPost2010PropOp32
 70
     1
102
RTVSPost2010Prop33
280
     0
102
RTVSPost2010PropOp33
 70
     1
102
RTVSPost2010Prop34
280
     0
102
RTVSPost2010PropOp34
 70
     1
102
RTVSPost2010Prop35
280
     0
102
RTVSPost2010PropOp35
 70
     1
102
RTVSPost2010Prop36
280
     0
102
RTVSPost2010PropOp36
 70
     1
102
RTVSPost2010Prop37
 90
       50
102
RTVSPost2010PropOp37
 70
     1
102
RTVSPost2010Prop38
140
0.0
102
RTVSPost2010PropOp38
 70
     1
102
RTVSPost2010Prop39
140
1.0
102
RTVSPost2010PropOp39
 70
     1
102
RTVSPost2010Prop40
 90
        0
102
RTVSPost2010PropOp40
 70
     1
102
RTVSPost2010Prop41ColorIndex
 90
       18
102
RTVSPost2010Prop41ColorRGB
 90
        0
102
RTVSPost2010PropOp41
 70
     1
102
RTVSPost2010Prop42
 90
       50
102
RTVSPost2010PropOp42
 70
     1
102
RTVSPost2010Prop43
 90
        3
102
RTVSPost2010PropOp43
 70
     1
102
RTVSPost2010Prop44ColorIndex
 90
        5
102
RTVSPost2010Prop44ColorRGB
 90
      255
102
RTVSPost2010PropOp44
 70
     1
102
RTVSPost2010Prop45
280
     0
102
RTVSPost2010PropOp45
 70
     1
102
RTVSPost2010Prop46
 90
       50
102
RTVSPost2010PropOp46
 70
     1
102
RTVSPost2010Prop47
 90
       50
102
RTVSPost2010PropOp47
 70
     1
102
RTVSPost2010Prop48
 90
       50
102
RTVSPost2010PropOp48
 70
     1
102
RTVSPost2010Prop49
280
     0
102
RTVSPost2010PropOp49
 70
     1
102
RTVSPost2010Prop50
 90
       50
102
RTVSPost2010PropOp50
 70
     1
102
RTVSPost2010Prop51ColorIndex
 90
      256
102
RTVSPost2010Prop51ColorRGB
 90
-16777216
102
RTVSPost2010PropOp51
 70
     0
102
RTVSPost2010Prop52
140
1.0
102
RTVSPost2010PropOp52
 70
     0
102
RTVSPost2010Prop53
 90
        2
102
RTVSPost2010PropOp53
 70
     1
102
RTVSPost2010Prop54
  1
strokes_ogs.tif
102
RTVSPost2010PropOp54
 70
     1
102
RTVSPost2010Prop55
280
     0
102
RTVSPost2010PropOp55
 70
     1
102
RTVSPost2010Prop56
140
1.0
102
RTVSPost2010PropOp56
 70
     1
102
RTVSPost2010Prop57
140
1.0
102
RTVSPost2010PropOp57
 70
     1
  0
XRECORD
  5
4ED
102
{ACAD_REACTORS
330
4EC
102
}
330
4EC
100
AcDbXrecord
280
     1
102
RTVSPost2010Prop28
280
     0
102
RTVSPost2010PropOp28
 70
     1
102
RTVSPost2010Prop29
280
     1
102
RTVSPost2010PropOp29
 70
     1
102
RTVSPost2010Prop30
280
     1
102
RTVSPost2010PropOp30
 70
     1
102
RTVSPost2010Prop31
280
     0
102
RTVSPost2010PropOp31
 70
     1
102
RTVSPost2010Prop32
280
     0
102
RTVSPost2010PropOp32
 70
     1
102
RTVSPost2010Prop33
280
     0
102
RTVSPost2010PropOp33
 70
     1
102
RTVSPost2010Prop34
280
     0
102
RTVSPost2010PropOp34
 70
     1
102
RTVSPost2010Prop35
280
     0
102
RTVSPost2010PropOp35
 70
     1
102
RTVSPost2010Prop36
280
     0
102
RTVSPost2010PropOp36
 70
     1
102
RTVSPost2010Prop37
 90
       50
102
RTVSPost2010PropOp37
 70
     1
102
RTVSPost2010Prop38
140
0.0
102
RTVSPost2010PropOp38
 70
     1
102
RTVSPost2010Prop39
140
1.0
102
RTVSPost2010PropOp39
 70
     1
102
RTVSPost2010Prop40
 90
        0
102
RTVSPost2010PropOp40
 70
     1
102
RTVSPost2010Prop41ColorIndex
 90
       18
102
RTVSPost2010Prop41ColorRGB
 90
        0
102
RTVSPost2010PropOp41
 70
     1
102
RTVSPost2010Prop42
 90
       50
102
RTVSPost2010PropOp42
 70
     1
102
RTVSPost2010Prop43
 90
        3
102
RTVSPost2010PropOp43
 70
     1
102
RTVSPost2010Prop44ColorIndex
 90
        5
102
RTVSPost2010Prop44ColorRGB
 90
      255
102
RTVSPost2010PropOp44
 70
     1
102
RTVSPost2010Prop45
280
     0
102
RTVSPost2010PropOp45
 70
     1
102
RTVSPost2010Prop46
 90
       50
102
RTVSPost2010PropOp46
 70
     1
102
RTVSPost2010Prop47
 90
       50
102
RTVSPost2010PropOp47
 70
     1
102
RTVSPost2010Prop48
 90
       50
102
RTVSPost2010PropOp48
 70
     1
102
RTVSPost2010Prop49
280
     0
102
RTVSPost2010PropOp49
 70
     1
102
RTVSPost2010Prop50
 90
       50
102
RTVSPost2010PropOp50
 70
     1
102
RTVSPost2010Prop51ColorIndex
 90
      256
102
RTVSPost2010Prop51ColorRGB
 90
-16777216
102
RTVSPost2010PropOp51
 70
     0
102
RTVSPost2010Prop52
140
1.0
102
RTVSPost2010PropOp52
 70
     0
102
RTVSPost2010Prop53
 90
        2
102
RTVSPost2010PropOp53
 70
     1
102
RTVSPost2010Prop54
  1
strokes_ogs.tif
102
RTVSPost2010PropOp54
 70
     1
102
RTVSPost2010Prop55
280
     0
102
RTVSPost2010PropOp55
 70
     1
102
RTVSPost2010Prop56
140
1.0
102
RTVSPost2010PropOp56
 70
     1
102
RTVSPost2010Prop57
140
1.0
102
RTVSPost2010PropOp57
 70
     1
  0
XRECORD
  5
4EF
102
{ACAD_REACTORS
330
4EE
102
}
330
4EE
100
AcDbXrecord
280
     1
102
RTVSPost2010Prop28
280
     0
102
RTVSPost2010PropOp28
 70
     1
102
RTVSPost2010Prop29
280
     1
102
RTVSPost2010PropOp29
 70
     1
102
RTVSPost2010Prop30
280
     1
102
RTVSPost2010PropOp30
 70
     1
102
RTVSPost2010Prop31
280
     0
102
RTVSPost2010PropOp31
 70
     1
102
RTVSPost2010Prop32
280
     0
102
RTVSPost2010PropOp32
 70
     1
102
RTVSPost2010Prop33
280
     0
102
RTVSPost2010PropOp33
 70
     1
102
RTVSPost2010Prop34
280
     0
102
RTVSPost2010PropOp34
 70
     1
102
RTVSPost2010Prop35
280
     0
102
RTVSPost2010PropOp35
 70
     1
102
RTVSPost2010Prop36
280
     0
102
RTVSPost2010PropOp36
 70
     1
102
RTVSPost2010Prop37
 90
       50
102
RTVSPost2010PropOp37
 70
     1
102
RTVSPost2010Prop38
140
0.0
102
RTVSPost2010PropOp38
 70
     1
102
RTVSPost2010Prop39
140
1.0
102
RTVSPost2010PropOp39
 70
     1
102
RTVSPost2010Prop40
 90
        0
102
RTVSPost2010PropOp40
 70
     1
102
RTVSPost2010Prop41ColorIndex
 90
       18
102
RTVSPost2010Prop41ColorRGB
 90
        0
102
RTVSPost2010PropOp41
 70
     1
102
RTVSPost2010Prop42
 90
       50
102
RTVSPost2010PropOp42
 70
     1
102
RTVSPost2010Prop43
 90
        3
102
RTVSPost2010PropOp43
 70
     1
102
RTVSPost2010Prop44ColorIndex
 90
        5
102
RTVSPost2010Prop44ColorRGB
 90
      255
102
RTVSPost2010PropOp44
 70
     1
102
RTVSPost2010Prop45
280
     0
102
RTVSPost2010PropOp45
 70
     1
102
RTVSPost2010Prop46
 90
       50
102
RTVSPost2010PropOp46
 70
     1
102
RTVSPost2010Prop47
 90
       50
102
RTVSPost2010PropOp47
 70
     1
102
RTVSPost2010Prop48
 90
       50
102
RTVSPost2010PropOp48
 70
     1
102
RTVSPost2010Prop49
280
     0
102
RTVSPost2010PropOp49
 70
     1
102
RTVSPost2010Prop50
 90
       50
102
RTVSPost2010PropOp50
 70
     1
102
RTVSPost2010Prop51ColorIndex
 90
      256
102
RTVSPost2010Prop51ColorRGB
 90
-16777216
102
RTVSPost2010PropOp51
 70
     0
102
RTVSPost2010Prop52
140
1.0
102
RTVSPost2010PropOp52
 70
     0
102
RTVSPost2010Prop53
 90
        2
102
RTVSPost2010PropOp53
 70
     1
102
RTVSPost2010Prop54
  1
strokes_ogs.tif
102
RTVSPost2010PropOp54
 70
     1
102
RTVSPost2010Prop55
280
     0
102
RTVSPost2010PropOp55
 70
     1
102
RTVSPost2010Prop56
140
1.0
102
RTVSPost2010PropOp56
 70
     1
102
RTVSPost2010Prop57
140
1.0
102
RTVSPost2010PropOp57
 70
     1
  0
XRECORD
  5
4F1
102
{ACAD_REACTORS
330
4F0
102
}
330
4F0
100
AcDbXrecord
280
     1
102
RTVSPost2010Prop28
280
     0
102
RTVSPost2010PropOp28
 70
     1
102
RTVSPost2010Prop29
280
     1
102
RTVSPost2010PropOp29
 70
     1
102
RTVSPost2010Prop30
280
     1
102
RTVSPost2010PropOp30
 70
     1
102
RTVSPost2010Prop31
280
     0
102
RTVSPost2010PropOp31
 70
     1
102
RTVSPost2010Prop32
280
     0
102
RTVSPost2010PropOp32
 70
     1
102
RTVSPost2010Prop33
280
     0
102
RTVSPost2010PropOp33
 70
     1
102
RTVSPost2010Prop34
280
     0
102
RTVSPost2010PropOp34
 70
     1
102
RTVSPost2010Prop35
280
     0
102
RTVSPost2010PropOp35
 70
     1
102
RTVSPost2010Prop36
280
     0
102
RTVSPost2010PropOp36
 70
     1
102
RTVSPost2010Prop37
 90
       50
102
RTVSPost2010PropOp37
 70
     1
102
RTVSPost2010Prop38
140
0.0
102
RTVSPost2010PropOp38
 70
     1
102
RTVSPost2010Prop39
140
1.0
102
RTVSPost2010PropOp39
 70
     1
102
RTVSPost2010Prop40
 90
        0
102
RTVSPost2010PropOp40
 70
     1
102
RTVSPost2010Prop41ColorIndex
 90
       18
102
RTVSPost2010Prop41ColorRGB
 90
        0
102
RTVSPost2010PropOp41
 70
     1
102
RTVSPost2010Prop42
 90
       50
102
RTVSPost2010PropOp42
 70
     1
102
RTVSPost2010Prop43
 90
        3
102
RTVSPost2010PropOp43
 70
     1
102
RTVSPost2010Prop44ColorIndex
 90
        5
102
RTVSPost2010Prop44ColorRGB
 90
      255
102
RTVSPost2010PropOp44
 70
     1
102
RTVSPost2010Prop45
280
     0
102
RTVSPost2010PropOp45
 70
     1
102
RTVSPost2010Prop46
 90
       50
102
RTVSPost2010PropOp46
 70
     1
102
RTVSPost2010Prop47
 90
       50
102
RTVSPost2010PropOp47
 70
     1
102
RTVSPost2010Prop48
 90
       50
102
RTVSPost2010PropOp48
 70
     1
102
RTVSPost2010Prop49
280
     0
102
RTVSPost2010PropOp49
 70
     1
102
RTVSPost2010Prop50
 90
       50
102
RTVSPost2010PropOp50
 70
     1
102
RTVSPost2010Prop51ColorIndex
 90
      256
102
RTVSPost2010Prop51ColorRGB
 90
-16777216
102
RTVSPost2010PropOp51
 70
     0
102
RTVSPost2010Prop52
140
1.0
102
RTVSPost2010PropOp52
 70
     0
102
RTVSPost2010Prop53
 90
        2
102
RTVSPost2010PropOp53
 70
     1
102
RTVSPost2010Prop54
  1
strokes_ogs.tif
102
RTVSPost2010PropOp54
 70
     1
102
RTVSPost2010Prop55
280
     0
102
RTVSPost2010PropOp55
 70
     1
102
RTVSPost2010Prop56
140
1.0
102
RTVSPost2010PropOp56
 70
     1
102
RTVSPost2010Prop57
140
1.0
102
RTVSPost2010PropOp57
 70
     1
  0
XRECORD
  5
4F7
102
{ACAD_REACTORS
330
4F6
102
}
330
4F6
100
AcDbXrecord
280
     1
102
RTVSPost2010Prop28
280
     0
102
RTVSPost2010PropOp28
 70
     1
102
RTVSPost2010Prop29
280
     1
102
RTVSPost2010PropOp29
 70
     1
102
RTVSPost2010Prop30
280
     1
102
RTVSPost2010PropOp30
 70
     1
102
RTVSPost2010Prop31
280
     0
102
RTVSPost2010PropOp31
 70
     1
102
RTVSPost2010Prop32
280
     0
102
RTVSPost2010PropOp32
 70
     1
102
RTVSPost2010Prop33
280
     0
102
RTVSPost2010PropOp33
 70
     1
102
RTVSPost2010Prop34
280
     0
102
RTVSPost2010PropOp34
 70
     1
102
RTVSPost2010Prop35
280
     0
102
RTVSPost2010PropOp35
 70
     1
102
RTVSPost2010Prop36
280
     0
102
RTVSPost2010PropOp36
 70
     1
102
RTVSPost2010Prop37
 90
       50
102
RTVSPost2010PropOp37
 70
     1
102
RTVSPost2010Prop38
140
0.0
102
RTVSPost2010PropOp38
 70
     1
102
RTVSPost2010Prop39
140
1.0
102
RTVSPost2010PropOp39
 70
     1
102
RTVSPost2010Prop40
 90
        0
102
RTVSPost2010PropOp40
 70
     1
102
RTVSPost2010Prop41ColorIndex
 90
       18
102
RTVSPost2010Prop41ColorRGB
 90
        0
102
RTVSPost2010PropOp41
 70
     1
102
RTVSPost2010Prop42
 90
       50
102
RTVSPost2010PropOp42
 70
     1
102
RTVSPost2010Prop43
 90
        3
102
RTVSPost2010PropOp43
 70
     1
102
RTVSPost2010Prop44ColorIndex
 90
        5
102
RTVSPost2010Prop44ColorRGB
 90
      255
102
RTVSPost2010PropOp44
 70
     1
102
RTVSPost2010Prop45
280
     0
102
RTVSPost2010PropOp45
 70
     1
102
RTVSPost2010Prop46
 90
       50
102
RTVSPost2010PropOp46
 70
     1
102
RTVSPost2010Prop47
 90
       50
102
RTVSPost2010PropOp47
 70
     1
102
RTVSPost2010Prop48
 90
       50
102
RTVSPost2010PropOp48
 70
     1
102
RTVSPost2010Prop49
280
     0
102
RTVSPost2010PropOp49
 70
     1
102
RTVSPost2010Prop50
 90
       50
102
RTVSPost2010PropOp50
 70
     1
102
RTVSPost2010Prop51ColorIndex
 90
      256
102
RTVSPost2010Prop51ColorRGB
 90
-16777216
102
RTVSPost2010PropOp51
 70
     0
102
RTVSPost2010Prop52
140
1.0
102
RTVSPost2010PropOp52
 70
     0
102
RTVSPost2010Prop53
 90
        2
102
RTVSPost2010PropOp53
 70
     1
102
RTVSPost2010Prop54
  1
strokes_ogs.tif
102
RTVSPost2010PropOp54
 70
     1
102
RTVSPost2010Prop55
280
     0
102
RTVSPost2010PropOp55
 70
     1
102
RTVSPost2010Prop56
140
1.0
102
RTVSPost2010PropOp56
 70
     1
102
RTVSPost2010Prop57
140
1.0
102
RTVSPost2010PropOp57
 70
     1
  0
XRECORD
  5
50B
102
{ACAD_REACTORS
330
50A
102
}
330
50A
100
AcDbXrecord
280
     1
102
RTVSPost2010Prop28
280
     0
102
RTVSPost2010PropOp28
 70
     0
102
RTVSPost2010Prop29
280
     1
102
RTVSPost2010PropOp29
 70
     0
102
RTVSPost2010Prop30
280
     1
102
RTVSPost2010PropOp30
 70
     0
102
RTVSPost2010Prop31
280
     0
102
RTVSPost2010PropOp31
 70
     0
102
RTVSPost2010Prop32
280
     0
102
RTVSPost2010PropOp32
 70
     0
102
RTVSPost2010Prop33
280
     0
102
RTVSPost2010PropOp33
 70
     0
102
RTVSPost2010Prop34
280
     0
102
RTVSPost2010PropOp34
 70
     0
102
RTVSPost2010Prop35
280
     0
102
RTVSPost2010PropOp35
 70
     0
102
RTVSPost2010Prop36
280
     0
102
RTVSPost2010PropOp36
 70
     0
102
RTVSPost2010Prop37
 90
       50
102
RTVSPost2010PropOp37
 70
     0
102
RTVSPost2010Prop38
140
0.0
102
RTVSPost2010PropOp38
 70
     0
102
RTVSPost2010Prop39
140
1.0
102
RTVSPost2010PropOp39
 70
     0
102
RTVSPost2010Prop40
 90
        0
102
RTVSPost2010PropOp40
 70
     0
102
RTVSPost2010Prop41ColorIndex
 90
       18
102
RTVSPost2010Prop41ColorRGB
 90
        0
102
RTVSPost2010PropOp41
 70
     0
102
RTVSPost2010Prop42
 90
       50
102
RTVSPost2010PropOp42
 70
     0
102
RTVSPost2010Prop43
 90
        3
102
RTVSPost2010PropOp43
 70
     0
102
RTVSPost2010Prop44ColorIndex
 90
        5
102
RTVSPost2010Prop44ColorRGB
 90
      255
102
RTVSPost2010PropOp44
 70
     0
102
RTVSPost2010Prop45
280
     0
102
RTVSPost2010PropOp45
 70
     0
102
RTVSPost2010Prop46
 90
       50
102
RTVSPost2010PropOp46
 70
     0
102
RTVSPost2010Prop47
 90
       50
102
RTVSPost2010PropOp47
 70
     0
102
RTVSPost2010Prop48
 90
       50
102
RTVSPost2010PropOp48
 70
     0
102
RTVSPost2010Prop49
280
     0
102
RTVSPost2010PropOp49
 70
     0
102
RTVSPost2010Prop50
 90
       50
102
RTVSPost2010PropOp50
 70
     0
102
RTVSPost2010Prop51ColorIndex
 90
      256
102
RTVSPost2010Prop51ColorRGB
 90
-16777216
102
RTVSPost2010PropOp51
 70
     0
102
RTVSPost2010Prop52
140
1.0
102
RTVSPost2010PropOp52
 70
     0
102
RTVSPost2010Prop53
 90
        2
102
RTVSPost2010PropOp53
 70
     0
102
RTVSPost2010Prop54
  1
strokes_ogs.tif
102
RTVSPost2010PropOp54
 70
     0
102
RTVSPost2010Prop55
280
     0
102
RTVSPost2010PropOp55
 70
     0
102
RTVSPost2010Prop56
140
1.0
102
RTVSPost2010PropOp56
 70
     0
102
RTVSPost2010Prop57
140
1.0
102
RTVSPost2010PropOp57
 70
     0
  0
XRECORD
  5
505
102
{ACAD_REACTORS
330
504
102
}
330
504
100
AcDbXrecord
280
     1
102
RTVSPost2010Prop28
280
     0
102
RTVSPost2010PropOp28
 70
     1
102
RTVSPost2010Prop29
280
     1
102
RTVSPost2010PropOp29
 70
     1
102
RTVSPost2010Prop30
280
     1
102
RTVSPost2010PropOp30
 70
     1
102
RTVSPost2010Prop31
280
     0
102
RTVSPost2010PropOp31
 70
     1
102
RTVSPost2010Prop32
280
     0
102
RTVSPost2010PropOp32
 70
     1
102
RTVSPost2010Prop33
280
     0
102
RTVSPost2010PropOp33
 70
     1
102
RTVSPost2010Prop34
280
     0
102
RTVSPost2010PropOp34
 70
     1
102
RTVSPost2010Prop35
280
     0
102
RTVSPost2010PropOp35
 70
     1
102
RTVSPost2010Prop36
280
     0
102
RTVSPost2010PropOp36
 70
     1
102
RTVSPost2010Prop37
 90
       50
102
RTVSPost2010PropOp37
 70
     1
102
RTVSPost2010Prop38
140
0.0
102
RTVSPost2010PropOp38
 70
     1
102
RTVSPost2010Prop39
140
1.0
102
RTVSPost2010PropOp39
 70
     1
102
RTVSPost2010Prop40
 90
        0
102
RTVSPost2010PropOp40
 70
     1
102
RTVSPost2010Prop41ColorIndex
 90
       18
102
RTVSPost2010Prop41ColorRGB
 90
        0
102
RTVSPost2010PropOp41
 70
     1
102
RTVSPost2010Prop42
 90
       50
102
RTVSPost2010PropOp42
 70
     1
102
RTVSPost2010Prop43
 90
        3
102
RTVSPost2010PropOp43
 70
     1
102
RTVSPost2010Prop44ColorIndex
 90
        5
102
RTVSPost2010Prop44ColorRGB
 90
      255
102
RTVSPost2010PropOp44
 70
     1
102
RTVSPost2010Prop45
280
     0
102
RTVSPost2010PropOp45
 70
     1
102
RTVSPost2010Prop46
 90
       50
102
RTVSPost2010PropOp46
 70
     1
102
RTVSPost2010Prop47
 90
       50
102
RTVSPost2010PropOp47
 70
     1
102
RTVSPost2010Prop48
 90
       50
102
RTVSPost2010PropOp48
 70
     1
102
RTVSPost2010Prop49
280
     0
102
RTVSPost2010PropOp49
 70
     1
102
RTVSPost2010Prop50
 90
       50
102
RTVSPost2010PropOp50
 70
     1
102
RTVSPost2010Prop51ColorIndex
 90
      256
102
RTVSPost2010Prop51ColorRGB
 90
-16777216
102
RTVSPost2010PropOp51
 70
     0
102
RTVSPost2010Prop52
140
1.0
102
RTVSPost2010PropOp52
 70
     0
102
RTVSPost2010Prop53
 90
        2
102
RTVSPost2010PropOp53
 70
     1
102
RTVSPost2010Prop54
  1
strokes_ogs.tif
102
RTVSPost2010PropOp54
 70
     1
102
RTVSPost2010Prop55
280
     0
102
RTVSPost2010PropOp55
 70
     1
102
RTVSPost2010Prop56
140
1.0
102
RTVSPost2010PropOp56
 70
     1
102
RTVSPost2010Prop57
140
1.0
102
RTVSPost2010PropOp57
 70
     1
  0
XRECORD
  5
50D
102
{ACAD_REACTORS
330
50C
102
}
330
50C
100
AcDbXrecord
280
     1
102
RTVSPost2010Prop28
280
     0
102
RTVSPost2010PropOp28
 70
     0
102
RTVSPost2010Prop29
280
     1
102
RTVSPost2010PropOp29
 70
     0
102
RTVSPost2010Prop30
280
     1
102
RTVSPost2010PropOp30
 70
     0
102
RTVSPost2010Prop31
280
     0
102
RTVSPost2010PropOp31
 70
     0
102
RTVSPost2010Prop32
280
     0
102
RTVSPost2010PropOp32
 70
     0
102
RTVSPost2010Prop33
280
     0
102
RTVSPost2010PropOp33
 70
     0
102
RTVSPost2010Prop34
280
     0
102
RTVSPost2010PropOp34
 70
     0
102
RTVSPost2010Prop35
280
     0
102
RTVSPost2010PropOp35
 70
     0
102
RTVSPost2010Prop36
280
     0
102
RTVSPost2010PropOp36
 70
     0
102
RTVSPost2010Prop37
 90
       50
102
RTVSPost2010PropOp37
 70
     0
102
RTVSPost2010Prop38
140
0.0
102
RTVSPost2010PropOp38
 70
     0
102
RTVSPost2010Prop39
140
1.0
102
RTVSPost2010PropOp39
 70
     0
102
RTVSPost2010Prop40
 90
        0
102
RTVSPost2010PropOp40
 70
     0
102
RTVSPost2010Prop41ColorIndex
 90
       18
102
RTVSPost2010Prop41ColorRGB
 90
        0
102
RTVSPost2010PropOp41
 70
     0
102
RTVSPost2010Prop42
 90
       50
102
RTVSPost2010PropOp42
 70
     0
102
RTVSPost2010Prop43
 90
        3
102
RTVSPost2010PropOp43
 70
     0
102
RTVSPost2010Prop44ColorIndex
 90
        5
102
RTVSPost2010Prop44ColorRGB
 90
      255
102
RTVSPost2010PropOp44
 70
     0
102
RTVSPost2010Prop45
280
     0
102
RTVSPost2010PropOp45
 70
     0
102
RTVSPost2010Prop46
 90
       50
102
RTVSPost2010PropOp46
 70
     0
102
RTVSPost2010Prop47
 90
       50
102
RTVSPost2010PropOp47
 70
     0
102
RTVSPost2010Prop48
 90
       50
102
RTVSPost2010PropOp48
 70
     0
102
RTVSPost2010Prop49
280
     0
102
RTVSPost2010PropOp49
 70
     0
102
RTVSPost2010Prop50
 90
       50
102
RTVSPost2010PropOp50
 70
     0
102
RTVSPost2010Prop51ColorIndex
 90
      256
102
RTVSPost2010Prop51ColorRGB
 90
-16777216
102
RTVSPost2010PropOp51
 70
     0
102
RTVSPost2010Prop52
140
1.0
102
RTVSPost2010PropOp52
 70
     0
102
RTVSPost2010Prop53
 90
        2
102
RTVSPost2010PropOp53
 70
     0
102
RTVSPost2010Prop54
  1
strokes_ogs.tif
102
RTVSPost2010PropOp54
 70
     0
102
RTVSPost2010Prop55
280
     0
102
RTVSPost2010PropOp55
 70
     0
102
RTVSPost2010Prop56
140
1.0
102
RTVSPost2010PropOp56
 70
     0
102
RTVSPost2010Prop57
140
1.0
102
RTVSPost2010PropOp57
 70
     0
  0
XRECORD
  5
4FB
102
{ACAD_REACTORS
330
4FA
102
}
330
4FA
100
AcDbXrecord
280
     1
102
RTVSPost2010Prop28
280
     0
102
RTVSPost2010PropOp28
 70
     1
102
RTVSPost2010Prop29
280
     1
102
RTVSPost2010PropOp29
 70
     1
102
RTVSPost2010Prop30
280
     1
102
RTVSPost2010PropOp30
 70
     1
102
RTVSPost2010Prop31
280
     0
102
RTVSPost2010PropOp31
 70
     1
102
RTVSPost2010Prop32
280
     0
102
RTVSPost2010PropOp32
 70
     1
102
RTVSPost2010Prop33
280
     0
102
RTVSPost2010PropOp33
 70
     1
102
RTVSPost2010Prop34
280
     0
102
RTVSPost2010PropOp34
 70
     1
102
RTVSPost2010Prop35
280
     0
102
RTVSPost2010PropOp35
 70
     1
102
RTVSPost2010Prop36
280
     0
102
RTVSPost2010PropOp36
 70
     1
102
RTVSPost2010Prop37
 90
       50
102
RTVSPost2010PropOp37
 70
     1
102
RTVSPost2010Prop38
140
0.0
102
RTVSPost2010PropOp38
 70
     1
102
RTVSPost2010Prop39
140
1.0
102
RTVSPost2010PropOp39
 70
     1
102
RTVSPost2010Prop40
 90
        0
102
RTVSPost2010PropOp40
 70
     1
102
RTVSPost2010Prop41ColorIndex
 90
       18
102
RTVSPost2010Prop41ColorRGB
 90
        0
102
RTVSPost2010PropOp41
 70
     1
102
RTVSPost2010Prop42
 90
       50
102
RTVSPost2010PropOp42
 70
     1
102
RTVSPost2010Prop43
 90
        3
102
RTVSPost2010PropOp43
 70
     1
102
RTVSPost2010Prop44ColorIndex
 90
        5
102
RTVSPost2010Prop44ColorRGB
 90
      255
102
RTVSPost2010PropOp44
 70
     1
102
RTVSPost2010Prop45
280
     0
102
RTVSPost2010PropOp45
 70
     1
102
RTVSPost2010Prop46
 90
       50
102
RTVSPost2010PropOp46
 70
     1
102
RTVSPost2010Prop47
 90
       50
102
RTVSPost2010PropOp47
 70
     1
102
RTVSPost2010Prop48
 90
       50
102
RTVSPost2010PropOp48
 70
     1
102
RTVSPost2010Prop49
280
     0
102
RTVSPost2010PropOp49
 70
     1
102
RTVSPost2010Prop50
 90
       50
102
RTVSPost2010PropOp50
 70
     1
102
RTVSPost2010Prop51ColorIndex
 90
      256
102
RTVSPost2010Prop51ColorRGB
 90
-16777216
102
RTVSPost2010PropOp51
 70
     0
102
RTVSPost2010Prop52
140
1.0
102
RTVSPost2010PropOp52
 70
     0
102
RTVSPost2010Prop53
 90
        2
102
RTVSPost2010PropOp53
 70
     1
102
RTVSPost2010Prop54
  1
strokes_ogs.tif
102
RTVSPost2010PropOp54
 70
     1
102
RTVSPost2010Prop55
280
     0
102
RTVSPost2010PropOp55
 70
     1
102
RTVSPost2010Prop56
140
1.0
102
RTVSPost2010PropOp56
 70
     1
102
RTVSPost2010Prop57
140
1.0
102
RTVSPost2010PropOp57
 70
     1
  0
XRECORD
  5
519
102
{ACAD_REACTORS
330
518
102
}
330
518
100
AcDbXrecord
280
     1
102
RTVSPost2010Prop28
280
     0
102
RTVSPost2010PropOp28
 70
     1
102
RTVSPost2010Prop29
280
     1
102
RTVSPost2010PropOp29
 70
     1
102
RTVSPost2010Prop30
280
     1
102
RTVSPost2010PropOp30
 70
     1
102
RTVSPost2010Prop31
280
     0
102
RTVSPost2010PropOp31
 70
     1
102
RTVSPost2010Prop32
280
     0
102
RTVSPost2010PropOp32
 70
     1
102
RTVSPost2010Prop33
280
     0
102
RTVSPost2010PropOp33
 70
     1
102
RTVSPost2010Prop34
280
     0
102
RTVSPost2010PropOp34
 70
     1
102
RTVSPost2010Prop35
280
     0
102
RTVSPost2010PropOp35
 70
     1
102
RTVSPost2010Prop36
280
     0
102
RTVSPost2010PropOp36
 70
     1
102
RTVSPost2010Prop37
 90
       50
102
RTVSPost2010PropOp37
 70
     1
102
RTVSPost2010Prop38
140
0.0
102
RTVSPost2010PropOp38
 70
     1
102
RTVSPost2010Prop39
140
1.0
102
RTVSPost2010PropOp39
 70
     1
102
RTVSPost2010Prop40
 90
        0
102
RTVSPost2010PropOp40
 70
     1
102
RTVSPost2010Prop41ColorIndex
 90
       18
102
RTVSPost2010Prop41ColorRGB
 90
        0
102
RTVSPost2010PropOp41
 70
     1
102
RTVSPost2010Prop42
 90
       50
102
RTVSPost2010PropOp42
 70
     1
102
RTVSPost2010Prop43
 90
        3
102
RTVSPost2010PropOp43
 70
     1
102
RTVSPost2010Prop44ColorIndex
 90
        5
102
RTVSPost2010Prop44ColorRGB
 90
      255
102
RTVSPost2010PropOp44
 70
     1
102
RTVSPost2010Prop45
280
     0
102
RTVSPost2010PropOp45
 70
     1
102
RTVSPost2010Prop46
 90
       50
102
RTVSPost2010PropOp46
 70
     1
102
RTVSPost2010Prop47
 90
       50
102
RTVSPost2010PropOp47
 70
     1
102
RTVSPost2010Prop48
 90
       50
102
RTVSPost2010PropOp48
 70
     1
102
RTVSPost2010Prop49
280
     0
102
RTVSPost2010PropOp49
 70
     1
102
RTVSPost2010Prop50
 90
       50
102
RTVSPost2010PropOp50
 70
     1
102
RTVSPost2010Prop51ColorIndex
 90
      256
102
RTVSPost2010Prop51ColorRGB
 90
-16777216
102
RTVSPost2010PropOp51
 70
     0
102
RTVSPost2010Prop52
140
1.0
102
RTVSPost2010PropOp52
 70
     0
102
RTVSPost2010Prop53
 90
        2
102
RTVSPost2010PropOp53
 70
     1
102
RTVSPost2010Prop54
  1
strokes_ogs.tif
102
RTVSPost2010PropOp54
 70
     1
102
RTVSPost2010Prop55
280
     0
102
RTVSPost2010PropOp55
 70
     1
102
RTVSPost2010Prop56
140
1.0
102
RTVSPost2010PropOp56
 70
     1
102
RTVSPost2010Prop57
140
1.0
102
RTVSPost2010PropOp57
 70
     1
  0
XRECORD
  5
517
102
{ACAD_REACTORS
330
516
102
}
330
516
100
AcDbXrecord
280
     1
102
RTVSPost2010Prop28
280
     0
102
RTVSPost2010PropOp28
 70
     1
102
RTVSPost2010Prop29
280
     1
102
RTVSPost2010PropOp29
 70
     1
102
RTVSPost2010Prop30
280
     1
102
RTVSPost2010PropOp30
 70
     1
102
RTVSPost2010Prop31
280
     0
102
RTVSPost2010PropOp31
 70
     1
102
RTVSPost2010Prop32
280
     0
102
RTVSPost2010PropOp32
 70
     1
102
RTVSPost2010Prop33
280
     0
102
RTVSPost2010PropOp33
 70
     1
102
RTVSPost2010Prop34
280
     0
102
RTVSPost2010PropOp34
 70
     1
102
RTVSPost2010Prop35
280
     0
102
RTVSPost2010PropOp35
 70
     1
102
RTVSPost2010Prop36
280
     0
102
RTVSPost2010PropOp36
 70
     1
102
RTVSPost2010Prop37
 90
       50
102
RTVSPost2010PropOp37
 70
     1
102
RTVSPost2010Prop38
140
0.0
102
RTVSPost2010PropOp38
 70
     1
102
RTVSPost2010Prop39
140
1.0
102
RTVSPost2010PropOp39
 70
     1
102
RTVSPost2010Prop40
 90
        0
102
RTVSPost2010PropOp40
 70
     1
102
RTVSPost2010Prop41ColorIndex
 90
       18
102
RTVSPost2010Prop41ColorRGB
 90
        0
102
RTVSPost2010PropOp41
 70
     1
102
RTVSPost2010Prop42
 90
       50
102
RTVSPost2010PropOp42
 70
     1
102
RTVSPost2010Prop43
 90
        3
102
RTVSPost2010PropOp43
 70
     1
102
RTVSPost2010Prop44ColorIndex
 90
        5
102
RTVSPost2010Prop44ColorRGB
 90
      255
102
RTVSPost2010PropOp44
 70
     1
102
RTVSPost2010Prop45
280
     0
102
RTVSPost2010PropOp45
 70
     1
102
RTVSPost2010Prop46
 90
       50
102
RTVSPost2010PropOp46
 70
     1
102
RTVSPost2010Prop47
 90
       50
102
RTVSPost2010PropOp47
 70
     1
102
RTVSPost2010Prop48
 90
       50
102
RTVSPost2010PropOp48
 70
     1
102
RTVSPost2010Prop49
280
     0
102
RTVSPost2010PropOp49
 70
     1
102
RTVSPost2010Prop50
 90
       50
102
RTVSPost2010PropOp50
 70
     1
102
RTVSPost2010Prop51ColorIndex
 90
      256
102
RTVSPost2010Prop51ColorRGB
 90
-16777216
102
RTVSPost2010PropOp51
 70
     0
102
RTVSPost2010Prop52
140
1.0
102
RTVSPost2010PropOp52
 70
     0
102
RTVSPost2010Prop53
 90
        2
102
RTVSPost2010PropOp53
 70
     1
102
RTVSPost2010Prop54
  1
strokes_ogs.tif
102
RTVSPost2010PropOp54
 70
     1
102
RTVSPost2010Prop55
280
     0
102
RTVSPost2010PropOp55
 70
     1
102
RTVSPost2010Prop56
140
1.0
102
RTVSPost2010PropOp56
 70
     1
102
RTVSPost2010Prop57
140
1.0
102
RTVSPost2010PropOp57
 70
     1
  0
XRECORD
  5
511
102
{ACAD_REACTORS
330
510
102
}
330
510
100
AcDbXrecord
280
     1
102
RTVSPost2010Prop28
280
     0
102
RTVSPost2010PropOp28
 70
     1
102
RTVSPost2010Prop29
280
     1
102
RTVSPost2010PropOp29
 70
     1
102
RTVSPost2010Prop30
280
     1
102
RTVSPost2010PropOp30
 70
     1
102
RTVSPost2010Prop31
280
     0
102
RTVSPost2010PropOp31
 70
     1
102
RTVSPost2010Prop32
280
     0
102
RTVSPost2010PropOp32
 70
     1
102
RTVSPost2010Prop33
280
     0
102
RTVSPost2010PropOp33
 70
     1
102
RTVSPost2010Prop34
280
     0
102
RTVSPost2010PropOp34
 70
     1
102
RTVSPost2010Prop35
280
     0
102
RTVSPost2010PropOp35
 70
     1
102
RTVSPost2010Prop36
280
     0
102
RTVSPost2010PropOp36
 70
     1
102
RTVSPost2010Prop37
 90
       50
102
RTVSPost2010PropOp37
 70
     1
102
RTVSPost2010Prop38
140
0.0
102
RTVSPost2010PropOp38
 70
     1
102
RTVSPost2010Prop39
140
1.0
102
RTVSPost2010PropOp39
 70
     1
102
RTVSPost2010Prop40
 90
        0
102
RTVSPost2010PropOp40
 70
     1
102
RTVSPost2010Prop41ColorIndex
 90
       18
102
RTVSPost2010Prop41ColorRGB
 90
        0
102
RTVSPost2010PropOp41
 70
     1
102
RTVSPost2010Prop42
 90
       50
102
RTVSPost2010PropOp42
 70
     1
102
RTVSPost2010Prop43
 90
        3
102
RTVSPost2010PropOp43
 70
     1
102
RTVSPost2010Prop44ColorIndex
 90
        5
102
RTVSPost2010Prop44ColorRGB
 90
      255
102
RTVSPost2010PropOp44
 70
     1
102
RTVSPost2010Prop45
280
     0
102
RTVSPost2010PropOp45
 70
     1
102
RTVSPost2010Prop46
 90
       50
102
RTVSPost2010PropOp46
 70
     1
102
RTVSPost2010Prop47
 90
       50
102
RTVSPost2010PropOp47
 70
     1
102
RTVSPost2010Prop48
 90
       50
102
RTVSPost2010PropOp48
 70
     1
102
RTVSPost2010Prop49
280
     0
102
RTVSPost2010PropOp49
 70
     1
102
RTVSPost2010Prop50
 90
       50
102
RTVSPost2010PropOp50
 70
     1
102
RTVSPost2010Prop51ColorIndex
 90
      256
102
RTVSPost2010Prop51ColorRGB
 90
-16777216
102
RTVSPost2010PropOp51
 70
     0
102
RTVSPost2010Prop52
140
1.0
102
RTVSPost2010PropOp52
 70
     0
102
RTVSPost2010Prop53
 90
        2
102
RTVSPost2010PropOp53
 70
     1
102
RTVSPost2010Prop54
  1
strokes_ogs.tif
102
RTVSPost2010PropOp54
 70
     1
102
RTVSPost2010Prop55
280
     0
102
RTVSPost2010PropOp55
 70
     1
102
RTVSPost2010Prop56
140
1.0
102
RTVSPost2010PropOp56
 70
     1
102
RTVSPost2010Prop57
140
1.0
102
RTVSPost2010PropOp57
 70
     1
  0
XRECORD
  5
513
102
{ACAD_REACTORS
330
512
102
}
330
512
100
AcDbXrecord
280
     1
102
RTVSPost2010Prop28
280
     0
102
RTVSPost2010PropOp28
 70
     1
102
RTVSPost2010Prop29
280
     1
102
RTVSPost2010PropOp29
 70
     1
102
RTVSPost2010Prop30
280
     1
102
RTVSPost2010PropOp30
 70
     1
102
RTVSPost2010Prop31
280
     0
102
RTVSPost2010PropOp31
 70
     1
102
RTVSPost2010Prop32
280
     0
102
RTVSPost2010PropOp32
 70
     1
102
RTVSPost2010Prop33
280
     0
102
RTVSPost2010PropOp33
 70
     1
102
RTVSPost2010Prop34
280
     0
102
RTVSPost2010PropOp34
 70
     1
102
RTVSPost2010Prop35
280
     0
102
RTVSPost2010PropOp35
 70
     1
102
RTVSPost2010Prop36
280
     0
102
RTVSPost2010PropOp36
 70
     1
102
RTVSPost2010Prop37
 90
       50
102
RTVSPost2010PropOp37
 70
     1
102
RTVSPost2010Prop38
140
0.0
102
RTVSPost2010PropOp38
 70
     1
102
RTVSPost2010Prop39
140
1.0
102
RTVSPost2010PropOp39
 70
     1
102
RTVSPost2010Prop40
 90
        0
102
RTVSPost2010PropOp40
 70
     1
102
RTVSPost2010Prop41ColorIndex
 90
       18
102
RTVSPost2010Prop41ColorRGB
 90
        0
102
RTVSPost2010PropOp41
 70
     1
102
RTVSPost2010Prop42
 90
       50
102
RTVSPost2010PropOp42
 70
     1
102
RTVSPost2010Prop43
 90
        3
102
RTVSPost2010PropOp43
 70
     1
102
RTVSPost2010Prop44ColorIndex
 90
        5
102
RTVSPost2010Prop44ColorRGB
 90
      255
102
RTVSPost2010PropOp44
 70
     1
102
RTVSPost2010Prop45
280
     0
102
RTVSPost2010PropOp45
 70
     1
102
RTVSPost2010Prop46
 90
       50
102
RTVSPost2010PropOp46
 70
     1
102
RTVSPost2010Prop47
 90
       50
102
RTVSPost2010PropOp47
 70
     1
102
RTVSPost2010Prop48
 90
       50
102
RTVSPost2010PropOp48
 70
     1
102
RTVSPost2010Prop49
280
     0
102
RTVSPost2010PropOp49
 70
     1
102
RTVSPost2010Prop50
 90
       50
102
RTVSPost2010PropOp50
 70
     1
102
RTVSPost2010Prop51ColorIndex
 90
      256
102
RTVSPost2010Prop51ColorRGB
 90
-16777216
102
RTVSPost2010PropOp51
 70
     0
102
RTVSPost2010Prop52
140
1.0
102
RTVSPost2010PropOp52
 70
     0
102
RTVSPost2010Prop53
 90
        2
102
RTVSPost2010PropOp53
 70
     1
102
RTVSPost2010Prop54
  1
strokes_ogs.tif
102
RTVSPost2010PropOp54
 70
     1
102
RTVSPost2010Prop55
280
     0
102
RTVSPost2010PropOp55
 70
     1
102
RTVSPost2010Prop56
140
1.0
102
RTVSPost2010PropOp56
 70
     1
102
RTVSPost2010Prop57
140
1.0
102
RTVSPost2010PropOp57
 70
     1
  0
XRECORD
  5
503
102
{ACAD_REACTORS
330
502
102
}
330
502
100
AcDbXrecord
280
     1
102
RTVSPost2010Prop28
280
     0
102
RTVSPost2010PropOp28
 70
     1
102
RTVSPost2010Prop29
280
     1
102
RTVSPost2010PropOp29
 70
     1
102
RTVSPost2010Prop30
280
     1
102
RTVSPost2010PropOp30
 70
     1
102
RTVSPost2010Prop31
280
     0
102
RTVSPost2010PropOp31
 70
     1
102
RTVSPost2010Prop32
280
     0
102
RTVSPost2010PropOp32
 70
     1
102
RTVSPost2010Prop33
280
     0
102
RTVSPost2010PropOp33
 70
     1
102
RTVSPost2010Prop34
280
     0
102
RTVSPost2010PropOp34
 70
     1
102
RTVSPost2010Prop35
280
     0
102
RTVSPost2010PropOp35
 70
     1
102
RTVSPost2010Prop36
280
     0
102
RTVSPost2010PropOp36
 70
     1
102
RTVSPost2010Prop37
 90
       50
102
RTVSPost2010PropOp37
 70
     1
102
RTVSPost2010Prop38
140
0.0
102
RTVSPost2010PropOp38
 70
     1
102
RTVSPost2010Prop39
140
1.0
102
RTVSPost2010PropOp39
 70
     1
102
RTVSPost2010Prop40
 90
        0
102
RTVSPost2010PropOp40
 70
     1
102
RTVSPost2010Prop41ColorIndex
 90
       18
102
RTVSPost2010Prop41ColorRGB
 90
        0
102
RTVSPost2010PropOp41
 70
     1
102
RTVSPost2010Prop42
 90
       50
102
RTVSPost2010PropOp42
 70
     1
102
RTVSPost2010Prop43
 90
        3
102
RTVSPost2010PropOp43
 70
     1
102
RTVSPost2010Prop44ColorIndex
 90
        5
102
RTVSPost2010Prop44ColorRGB
 90
      255
102
RTVSPost2010PropOp44
 70
     1
102
RTVSPost2010Prop45
280
     0
102
RTVSPost2010PropOp45
 70
     1
102
RTVSPost2010Prop46
 90
       50
102
RTVSPost2010PropOp46
 70
     1
102
RTVSPost2010Prop47
 90
       50
102
RTVSPost2010PropOp47
 70
     1
102
RTVSPost2010Prop48
 90
       50
102
RTVSPost2010PropOp48
 70
     1
102
RTVSPost2010Prop49
280
     0
102
RTVSPost2010PropOp49
 70
     1
102
RTVSPost2010Prop50
 90
       50
102
RTVSPost2010PropOp50
 70
     1
102
RTVSPost2010Prop51ColorIndex
 90
      256
102
RTVSPost2010Prop51ColorRGB
 90
-16777216
102
RTVSPost2010PropOp51
 70
     0
102
RTVSPost2010Prop52
140
1.0
102
RTVSPost2010PropOp52
 70
     0
102
RTVSPost2010Prop53
 90
        2
102
RTVSPost2010PropOp53
 70
     1
102
RTVSPost2010Prop54
  1
strokes_ogs.tif
102
RTVSPost2010PropOp54
 70
     1
102
RTVSPost2010Prop55
280
     0
102
RTVSPost2010PropOp55
 70
     1
102
RTVSPost2010Prop56
140
1.0
102
RTVSPost2010PropOp56
 70
     1
102
RTVSPost2010Prop57
140
1.0
102
RTVSPost2010PropOp57
 70
     1
  0
XRECORD
  5
4F5
102
{ACAD_REACTORS
330
4F4
102
}
330
4F4
100
AcDbXrecord
280
     1
102
RTVSPost2010Prop28
280
     0
102
RTVSPost2010PropOp28
 70
     1
102
RTVSPost2010Prop29
280
     1
102
RTVSPost2010PropOp29
 70
     1
102
RTVSPost2010Prop30
280
     1
102
RTVSPost2010PropOp30
 70
     1
102
RTVSPost2010Prop31
280
     0
102
RTVSPost2010PropOp31
 70
     1
102
RTVSPost2010Prop32
280
     0
102
RTVSPost2010PropOp32
 70
     1
102
RTVSPost2010Prop33
280
     0
102
RTVSPost2010PropOp33
 70
     1
102
RTVSPost2010Prop34
280
     0
102
RTVSPost2010PropOp34
 70
     1
102
RTVSPost2010Prop35
280
     0
102
RTVSPost2010PropOp35
 70
     1
102
RTVSPost2010Prop36
280
     0
102
RTVSPost2010PropOp36
 70
     1
102
RTVSPost2010Prop37
 90
       50
102
RTVSPost2010PropOp37
 70
     1
102
RTVSPost2010Prop38
140
0.0
102
RTVSPost2010PropOp38
 70
     1
102
RTVSPost2010Prop39
140
1.0
102
RTVSPost2010PropOp39
 70
     1
102
RTVSPost2010Prop40
 90
        0
102
RTVSPost2010PropOp40
 70
     1
102
RTVSPost2010Prop41ColorIndex
 90
       18
102
RTVSPost2010Prop41ColorRGB
 90
        0
102
RTVSPost2010PropOp41
 70
     1
102
RTVSPost2010Prop42
 90
       50
102
RTVSPost2010PropOp42
 70
     1
102
RTVSPost2010Prop43
 90
        3
102
RTVSPost2010PropOp43
 70
     1
102
RTVSPost2010Prop44ColorIndex
 90
        5
102
RTVSPost2010Prop44ColorRGB
 90
      255
102
RTVSPost2010PropOp44
 70
     1
102
RTVSPost2010Prop45
280
     0
102
RTVSPost2010PropOp45
 70
     1
102
RTVSPost2010Prop46
 90
       50
102
RTVSPost2010PropOp46
 70
     1
102
RTVSPost2010Prop47
 90
       50
102
RTVSPost2010PropOp47
 70
     1
102
RTVSPost2010Prop48
 90
       50
102
RTVSPost2010PropOp48
 70
     1
102
RTVSPost2010Prop49
280
     0
102
RTVSPost2010PropOp49
 70
     1
102
RTVSPost2010Prop50
 90
       50
102
RTVSPost2010PropOp50
 70
     1
102
RTVSPost2010Prop51ColorIndex
 90
      256
102
RTVSPost2010Prop51ColorRGB
 90
-16777216
102
RTVSPost2010PropOp51
 70
     0
102
RTVSPost2010Prop52
140
1.0
102
RTVSPost2010PropOp52
 70
     0
102
RTVSPost2010Prop53
 90
        2
102
RTVSPost2010PropOp53
 70
     1
102
RTVSPost2010Prop54
  1
strokes_ogs.tif
102
RTVSPost2010PropOp54
 70
     1
102
RTVSPost2010Prop55
280
     0
102
RTVSPost2010PropOp55
 70
     1
102
RTVSPost2010Prop56
140
1.0
102
RTVSPost2010PropOp56
 70
     1
102
RTVSPost2010Prop57
140
1.0
102
RTVSPost2010PropOp57
 70
     1
  0
XRECORD
  5
515
102
{ACAD_REACTORS
330
514
102
}
330
514
100
AcDbXrecord
280
     1
102
RTVSPost2010Prop28
280
     0
102
RTVSPost2010PropOp28
 70
     1
102
RTVSPost2010Prop29
280
     1
102
RTVSPost2010PropOp29
 70
     1
102
RTVSPost2010Prop30
280
     1
102
RTVSPost2010PropOp30
 70
     1
102
RTVSPost2010Prop31
280
     0
102
RTVSPost2010PropOp31
 70
     1
102
RTVSPost2010Prop32
280
     0
102
RTVSPost2010PropOp32
 70
     1
102
RTVSPost2010Prop33
280
     0
102
RTVSPost2010PropOp33
 70
     1
102
RTVSPost2010Prop34
280
     0
102
RTVSPost2010PropOp34
 70
     1
102
RTVSPost2010Prop35
280
     0
102
RTVSPost2010PropOp35
 70
     1
102
RTVSPost2010Prop36
280
     0
102
RTVSPost2010PropOp36
 70
     1
102
RTVSPost2010Prop37
 90
       50
102
RTVSPost2010PropOp37
 70
     1
102
RTVSPost2010Prop38
140
0.0
102
RTVSPost2010PropOp38
 70
     1
102
RTVSPost2010Prop39
140
1.0
102
RTVSPost2010PropOp39
 70
     1
102
RTVSPost2010Prop40
 90
        0
102
RTVSPost2010PropOp40
 70
     1
102
RTVSPost2010Prop41ColorIndex
 90
       18
102
RTVSPost2010Prop41ColorRGB
 90
        0
102
RTVSPost2010PropOp41
 70
     1
102
RTVSPost2010Prop42
 90
       50
102
RTVSPost2010PropOp42
 70
     1
102
RTVSPost2010Prop43
 90
        3
102
RTVSPost2010PropOp43
 70
     1
102
RTVSPost2010Prop44ColorIndex
 90
        5
102
RTVSPost2010Prop44ColorRGB
 90
      255
102
RTVSPost2010PropOp44
 70
     1
102
RTVSPost2010Prop45
280
     0
102
RTVSPost2010PropOp45
 70
     1
102
RTVSPost2010Prop46
 90
       50
102
RTVSPost2010PropOp46
 70
     1
102
RTVSPost2010Prop47
 90
       50
102
RTVSPost2010PropOp47
 70
     1
102
RTVSPost2010Prop48
 90
       50
102
RTVSPost2010PropOp48
 70
     1
102
RTVSPost2010Prop49
280
     0
102
RTVSPost2010PropOp49
 70
     1
102
RTVSPost2010Prop50
 90
       50
102
RTVSPost2010PropOp50
 70
     1
102
RTVSPost2010Prop51ColorIndex
 90
      256
102
RTVSPost2010Prop51ColorRGB
 90
-16777216
102
RTVSPost2010PropOp51
 70
     0
102
RTVSPost2010Prop52
140
1.0
102
RTVSPost2010PropOp52
 70
     0
102
RTVSPost2010Prop53
 90
        2
102
RTVSPost2010PropOp53
 70
     1
102
RTVSPost2010Prop54
  1
strokes_ogs.tif
102
RTVSPost2010PropOp54
 70
     1
102
RTVSPost2010Prop55
280
     0
102
RTVSPost2010PropOp55
 70
     1
102
RTVSPost2010Prop56
140
1.0
102
RTVSPost2010PropOp56
 70
     1
102
RTVSPost2010Prop57
140
1.0
102
RTVSPost2010PropOp57
 70
     1
  0
ENDSEC
  0
EOF
