999
DXF file: cwd_c_040.dxf
999
Pro/ENGINEER 2016360 by Parametric Technology Corporation
  0
SECTION
  2
HEADER
  9
$ACADVER
  1
AC1014
  9
$DWGCODEPAGE
  3
ANSI_1252
  9
$EXTMAX
 10
840.0
 20
594.0
 30
0.0
  9
$EXTMIN
 10
0.0
 20
0.0
 30
0.0
  9
$LIMMIN
 10
0.0
 20
0.0
  9
$LIMMAX
 10
840.0
 20
594.0
  9
$VIEWCTR
 10
420.0
 20
297.0
  9
$VIEWSIZE
 40
594.0
  9
$CLAYER
  8
0
  9
$LTSCALE
 40
46.2
  9
$CELTYPE
  6
BYLAYER
  9
$DIMSCALE
 40
1.0
  9
$DIMASZ
 40
5.0
  9
$DIMEXO
 40
0.75
  9
$DIMDLI
 40
31.92
  9
$DIMEXE
 40
0.75
  9
$DIMCEN
 40
7.56
  9
$DIMLFAC
 40
1.0
  9
$DIMBLK
  1
_CLOSED
  9
$DIMALT
 70
0
  9
$DIMALTF
 40
25.4
  9
$DIMTXT
 40
6.0
  9
$DIMTOL
 70
1
  9
$DIMLIM
 70
0
  9
$DIMTFAC
 40
1.0
  9
$DIMTP
 40
0.01
  9
$DIMTM
 40
0.01
  9
$DIMGAP
 40
0.625
  9
$AUNITS
 70
0
  9
$PDMODE
 70
3
  9
$PDSIZE
 40
0.3125
  9
$HANDSEED
  5
41C
  9
$TILEMODE
 70
1
  9
$MEASUREMENT
 70
1
  0
ENDSEC
  0
SECTION
  2
CLASSES
  0
ENDSEC
  0
SECTION
  2
TABLES
  0
TABLE
  2
VPORT
  5
8
100
AcDbSymbolTable
 70
2
  0
VPORT
  5
1F4
100
AcDbSymbolTableRecord
100
AcDbViewportTableRecord
  2
*ACTIVE
 70
0
 10
0.0
 20
0.0
 11
1.0
 21
1.0
 12
420.0
 22
297.0
 13
0.0
 23
0.0
 14
1.0
 24
1.0
 15
0.0
 25
0.0
 16
0.0
 26
0.0
 36
1.0
 17
0.0
 27
0.0
 37
0.0
 40
594.0
 41
1.4141414141
 42
50.0
 43
0.0
 44
0.0
 50
0.0
 51
0.0
 71
0
 72
100
 73
1
 74
1
 75
0
 76
0
 77
0
 78
0
  0
ENDTAB
  0
TABLE
  2
LTYPE
  5
5
100
AcDbSymbolTable
 70
6
  0
LTYPE
  5
14
100
AcDbSymbolTableRecord
100
AcDbLinetypeTableRecord
  2
BYBLOCK
 70
0
  3

 72
65
 73
0
 40
0.0
  0
LTYPE
  5
15
100
AcDbSymbolTableRecord
100
AcDbLinetypeTableRecord
  2
BYLAYER
 70
0
  3

 72
65
 73
0
 40
0.0
  0
LTYPE
  5
16
100
AcDbSymbolTableRecord
100
AcDbLinetypeTableRecord
  2
CONTINUOUS
 70
64
  3
Solid line
 72
65
 73
0
 40
0.0
  0
LTYPE
  5
1F5
100
AcDbSymbolTableRecord
100
AcDbLinetypeTableRecord
  2
CENTER
 70
64
  3
____ _ ____ _ ____ _ ____ _ ____ _ ____ _ ____
 72
65
 73
4
 40
0.6
 49
0.375
 74
0
 49
-0.075
 74
0
 49
0.075
 74
0
 49
-0.075
 74
0
  0
LTYPE
  5
1F6
100
AcDbSymbolTableRecord
100
AcDbLinetypeTableRecord
  2
HIDDEN
 70
64
  3
- - - - - - - - - - - - - - - - - - - -
 72
65
 73
2
 40
0.2
 49
0.1
 74
0
 49
-0.1
 74
0
  0
LTYPE
  5
1F7
100
AcDbSymbolTableRecord
100
AcDbLinetypeTableRecord
  2
PHANTOM
 70
64
  3
_____ _ _ _____ _ _ _____ _ _ _____
 72
65
 73
6
 40
0.8
 49
0.45
 74
0
 49
-0.05
 74
0
 49
0.1
 74
0
 49
-0.05
 74
0
 49
0.1
 74
0
 49
-0.05
 74
0
  0
LTYPE
  5
1F8
100
AcDbSymbolTableRecord
100
AcDbLinetypeTableRecord
  2
DOT
 70
64
  3
. . . . . . . . . . . . . . . . . . . .
 72
65
 73
2
 40
0.2
 49
0.1
 74
0
 49
-0.1
 74
0
  0
LTYPE
  5
1F9
100
AcDbSymbolTableRecord
100
AcDbLinetypeTableRecord
  2
DASHED
 70
64
  3
- - - - - - - - - - - - - - - - - - - -
 72
65
 73
2
 40
0.2
 49
0.1
 74
0
 49
-0.1
 74
0
  0
ENDTAB
  0
TABLE
  2
LAYER
  5
2
100
AcDbSymbolTable
 70
36
  0
LAYER
  5
10
100
AcDbSymbolTableRecord
100
AcDbLayerTableRecord
  2
0
 70
0
 62
7
  6
CONTINUOUS
  0
LAYER
  5
1FA
100
AcDbSymbolTableRecord
100
AcDbLayerTableRecord
  2
DEFAULT_1
 70
0
 62
7
  6
CENTER
  0
LAYER
  5
1FB
100
AcDbSymbolTableRecord
100
AcDbLayerTableRecord
  2
DEFAULT_2
 70
0
 62
8
  6
HIDDEN
  0
LAYER
  5
1FC
100
AcDbSymbolTableRecord
100
AcDbLayerTableRecord
  2
DEFAULT_3
 70
0
 62
7
  6
PHANTOM
  0
LAYER
  5
1FD
100
AcDbSymbolTableRecord
100
AcDbLayerTableRecord
  2
01___PRT_ALL_DTM_PLN
 70
0
 62
7
  6
CONTINUOUS
  0
LAYER
  5
1FE
100
AcDbSymbolTableRecord
100
AcDbLayerTableRecord
  2
01___PRT_DEF_DTM_PLN
 70
0
 62
7
  6
CONTINUOUS
  0
LAYER
  5
1FF
100
AcDbSymbolTableRecord
100
AcDbLayerTableRecord
  2
02___PRT_ALL_AXES
 70
0
 62
7
  6
CONTINUOUS
  0
LAYER
  5
200
100
AcDbSymbolTableRecord
100
AcDbLayerTableRecord
  2
03___PRT_ALL_CURVES
 70
0
 62
7
  6
CONTINUOUS
  0
LAYER
  5
201
100
AcDbSymbolTableRecord
100
AcDbLayerTableRecord
  2
04___PRT_ALL_DTM_PNT
 70
0
 62
7
  6
CONTINUOUS
  0
LAYER
  5
202
100
AcDbSymbolTableRecord
100
AcDbLayerTableRecord
  2
05___PRT_ALL_DTM_CSYS
 70
0
 62
7
  6
CONTINUOUS
  0
LAYER
  5
203
100
AcDbSymbolTableRecord
100
AcDbLayerTableRecord
  2
05___PRT_DEF_DTM_CSYS
 70
0
 62
7
  6
CONTINUOUS
  0
LAYER
  5
204
100
AcDbSymbolTableRecord
100
AcDbLayerTableRecord
  2
06___PRT_ALL_SURFS
 70
0
 62
7
  6
CONTINUOUS
  0
LAYER
  5
205
100
AcDbSymbolTableRecord
100
AcDbLayerTableRecord
  2
1_ALL_PLANES
 70
0
 62
7
  6
CONTINUOUS
  0
LAYER
  5
206
100
AcDbSymbolTableRecord
100
AcDbLayerTableRecord
  2
2_ALL_CSYS
 70
0
 62
7
  6
CONTINUOUS
  0
LAYER
  5
207
100
AcDbSymbolTableRecord
100
AcDbLayerTableRecord
  2
3_ALL_AXES
 70
0
 62
7
  6
CONTINUOUS
  0
LAYER
  5
208
100
AcDbSymbolTableRecord
100
AcDbLayerTableRecord
  2
4_ALL_POINTS
 70
0
 62
7
  6
CONTINUOUS
  0
LAYER
  5
209
100
AcDbSymbolTableRecord
100
AcDbLayerTableRecord
  2
5_ALL_CURVES
 70
0
 62
7
  6
CONTINUOUS
  0
LAYER
  5
20A
100
AcDbSymbolTableRecord
100
AcDbLayerTableRecord
  2
6_ALL_SURFS
 70
0
 62
7
  6
CONTINUOUS
  0
LAYER
  5
20B
100
AcDbSymbolTableRecord
100
AcDbLayerTableRecord
  2
7_ALL_FEATURES
 70
0
 62
7
  6
CONTINUOUS
  0
LAYER
  5
20C
100
AcDbSymbolTableRecord
100
AcDbLayerTableRecord
  2
9_SOLID
 70
0
 62
7
  6
CONTINUOUS
  0
ENDTAB
  0
TABLE
  2
STYLE
  5
3
100
AcDbSymbolTable
 70
1
  0
STYLE
  5
11
100
AcDbSymbolTableRecord
100
AcDbTextStyleTableRecord
  2
STANDARD
 70
0
 40
0.0
 41
1.0
 50
0.0
 71
0
 42
0.2
  3
arial.ttf
  4

  0
STYLE
  5
20D
100
AcDbSymbolTableRecord
100
AcDbTextStyleTableRecord
  2
TEXTSTYLE_1
 70
0
 40
0.0
 41
0.8
 50
0.0
 71
0
 42
0.2
  3
gdt
  4

  0
STYLE
  5
20E
100
AcDbSymbolTableRecord
100
AcDbTextStyleTableRecord
  2
TEXTSTYLE_2
 70
0
 40
0.0
 41
0.85
 50
0.0
 71
0
 42
0.2
  3
gdt
  4

  0
STYLE
  5
20F
100
AcDbSymbolTableRecord
100
AcDbTextStyleTableRecord
  2
TEXTSTYLE_3
 70
0
 40
0.0
 41
0.85
 50
0.0
 71
0
 42
0.2
  3
txt
  4

  0
ENDTAB
  0
TABLE
  2
VIEW
  5
6
100
AcDbSymbolTable
 70
0
  0
ENDTAB
  0
TABLE
  2
UCS
  5
7
100
AcDbSymbolTable
 70
0
  0
ENDTAB
  0
TABLE
  2
APPID
  5
9
100
AcDbSymbolTable
 70
1
  0
APPID
  5
210
100
AcDbSymbolTableRecord
100
AcDbRegAppTableRecord
  2
ACAD
 70
0
  0
ENDTAB
  0
TABLE
  2
BLOCK_RECORD
  5
1
100
AcDbSymbolTable
 70
0
  0
BLOCK_RECORD
  5
1F
100
AcDbSymbolTableRecord
100
AcDbBlockTableRecord
  2
*MODEL_SPACE
  0
BLOCK_RECORD
  5
1B
100
AcDbSymbolTableRecord
100
AcDbBlockTableRecord
  2
*PAPER_SPACE
  0
BLOCK_RECORD
  5
211
100
AcDbSymbolTableRecord
100
AcDbBlockTableRecord
  2
_CLOSED
  0
BLOCK_RECORD
  5
212
100
AcDbSymbolTableRecord
100
AcDbBlockTableRecord
  2
*D0
  0
BLOCK_RECORD
  5
213
100
AcDbSymbolTableRecord
100
AcDbBlockTableRecord
  2
*D1
  0
BLOCK_RECORD
  5
214
100
AcDbSymbolTableRecord
100
AcDbBlockTableRecord
  2
*D2
  0
BLOCK_RECORD
  5
215
100
AcDbSymbolTableRecord
100
AcDbBlockTableRecord
  2
*D3
  0
BLOCK_RECORD
  5
216
100
AcDbSymbolTableRecord
100
AcDbBlockTableRecord
  2
*D4
  0
BLOCK_RECORD
  5
217
100
AcDbSymbolTableRecord
100
AcDbBlockTableRecord
  2
*D5
  0
BLOCK_RECORD
  5
218
100
AcDbSymbolTableRecord
100
AcDbBlockTableRecord
  2
LOGO2_BL0
  0
ENDTAB
  0
TABLE
  2
DIMSTYLE
  5
A
100
AcDbSymbolTable
 70
1
  0
DIMSTYLE
105
219
100
AcDbSymbolTableRecord
100
AcDbDimStyleTableRecord
  2
STANDARD
 70
0
  3

  4

  5
_CLOSED
  6
_CLOSED
  7
_CLOSED
 40
1.0
 41
5.0
 42
0.75
 43
0.38
 44
0.75
 45
0.0
 46
0.0
 47
0.01
 48
0.01
140
6.0
141
0.09
142
0.0
143
25.4
144
1.0
145
0.0
146
1.0
147
0.625
 71
1.0
 72
0.0
 73
0
 74
0
 75
0
 76
0
 77
1
 78
8
 79
2
170
0
171
1
172
0
173
0
174
0
175
0
176
0
177
0
178
0
270
2
179
2
271
2
272
2
273
2
274
2
275
0
280
0
281
0
282
0
283
1
284
8
285
0
286
0
287
3
288
0
340
11
  0
DIMSTYLE
105
21A
100
AcDbSymbolTableRecord
100
AcDbDimStyleTableRecord
  2
DIMSTYLE_1
 70
0
  3

  4

  5
_CLOSED
  6
_CLOSED
  7
_CLOSED
 40
1.0
 41
5.0
 42
0.75
 43
0.38
 44
0.75
 45
0.0
 46
0.0
 47
0.3
 48
0.3
140
6.0
141
0.09
142
0.0
143
25.4
144
1.0
145
0.0
146
1.0
147
0.75
 71
0.0
 72
0.0
 73
0
 74
0
 75
0
 76
0
 77
1
 78
8
 79
2
170
0
171
1
172
0
173
0
174
0
175
0
176
0
177
0
178
0
270
2
179
2
271
2
272
2
273
2
274
2
275
0
280
0
281
0
282
0
283
1
284
8
285
0
286
0
287
3
288
0
340
11
  0
DIMSTYLE
105
21B
100
AcDbSymbolTableRecord
100
AcDbDimStyleTableRecord
  2
DIMSTYLE_2
 70
0
  3

  4

  5
_CLOSED
  6
_CLOSED
  7
_CLOSED
 40
1.0
 41
5.0
 42
0.75
 43
0.38
 44
0.75
 45
0.0
 46
0.0
 47
0.5
 48
0.5
140
6.0
141
0.09
142
0.0
143
25.4
144
1.0
145
0.0
146
1.0
147
0.75
 71
0.0
 72
0.0
 73
0
 74
0
 75
0
 76
0
 77
1
 78
8
 79
2
170
0
171
1
172
0
173
0
174
0
175
0
176
0
177
0
178
0
270
2
179
2
271
2
272
2
273
2
274
2
275
0
280
0
281
0
282
0
283
1
284
8
285
0
286
0
287
3
288
0
340
11
  0
ENDTAB
  0
ENDSEC
  0
SECTION
  2
BLOCKS
  0
BLOCK
  5
20
100
AcDbEntity
  8
0
100
AcDbBlockBegin
  2
*MODEL_SPACE
 70
0
 10
0.0
 20
0.0
 30
0.0
  3
*MODEL_SPACE
  1

  0
ENDBLK
  5
21
100
AcDbEntity
  8
0
100
AcDbBlockEnd
  0
BLOCK
  5
1C
100
AcDbEntity
  8
0
100
AcDbBlockBegin
  2
*PAPER_SPACE
 70
0
 10
0.0
 20
0.0
 30
0.0
  3
*PAPER_SPACE
  1

  0
ENDBLK
  5
1D
100
AcDbEntity
  8
0
100
AcDbBlockEnd
  0
BLOCK
  5
21C
100
AcDbEntity
  8
0
100
AcDbBlockBegin
 62
2
  6
CONTINUOUS
  2
LOGO2_BL0
 70
64
 10
667.2951318317
 20
73.8435840782
  3
LOGO2_BL0
  1

  0
LINE
  5
21D
100
AcDbEntity
  8
0
100
AcDbLine
 62
7
  6
CONTINUOUS
 10
650.7809822881
 20
80.2345667559
 11
648.1723004293
 21
80.2345667559
  0
LINE
  5
21E
100
AcDbEntity
  8
0
100
AcDbLine
 62
7
  6
CONTINUOUS
 10
648.1723004293
 20
80.2345667559
 11
648.1723004293
 21
59.3164346361
  0
LINE
  5
21F
100
AcDbEntity
  8
0
100
AcDbLine
 62
7
  6
CONTINUOUS
 10
648.1723004293
 20
59.3164346361
 11
657.1344102059
 21
59.3164346361
  0
LINE
  5
220
100
AcDbEntity
  8
0
100
AcDbLine
 62
7
  6
CONTINUOUS
 10
657.1344102059
 20
59.3164346361
 11
657.1344102059
 21
61.7021432863
  0
LINE
  5
221
100
AcDbEntity
  8
0
100
AcDbLine
 62
7
  6
CONTINUOUS
 10
657.1344102059
 20
61.7021432863
 11
650.7809822881
 21
61.7021432863
  0
LINE
  5
222
100
AcDbEntity
  8
0
100
AcDbLine
 62
7
  6
CONTINUOUS
 10
650.7809822881
 20
61.7021432863
 11
650.7809822881
 21
80.2345667559
  0
LINE
  5
223
100
AcDbEntity
  8
0
100
AcDbLine
 62
7
  6
CONTINUOUS
 10
680.6536347207
 20
80.2345667559
 11
678.0459996845
 21
80.2345667559
  0
LINE
  5
224
100
AcDbEntity
  8
0
100
AcDbLine
 62
7
  6
CONTINUOUS
 10
678.0459996845
 20
80.2345667559
 11
678.0459996845
 21
59.3164346361
  0
LINE
  5
225
100
AcDbEntity
  8
0
100
AcDbLine
 62
7
  6
CONTINUOUS
 10
678.0459996845
 20
59.3164346361
 11
687.0083711667
 21
59.3164346361
  0
LINE
  5
226
100
AcDbEntity
  8
0
100
AcDbLine
 62
7
  6
CONTINUOUS
 10
687.0083711667
 20
59.3164346361
 11
687.0083711667
 21
61.7021432863
  0
LINE
  5
227
100
AcDbEntity
  8
0
100
AcDbLine
 62
7
  6
CONTINUOUS
 10
687.0083711667
 20
61.7021432863
 11
680.6536347207
 21
61.7021432863
  0
LINE
  5
228
100
AcDbEntity
  8
0
100
AcDbLine
 62
7
  6
CONTINUOUS
 10
680.6536347207
 20
61.7021432863
 11
680.6536347207
 21
80.2345667559
  0
LWPOLYLINE
  5
229
100
AcDbEntity
  8
0
100
AcDbPolyline
 62
7
  6
CONTINUOUS
 90
2
 70
0
 43
0.4
 10
644.8810902512
 20
52.6293320223
 10
644.8810902512
 20
48.9152055236
  0
LWPOLYLINE
  5
22A
100
AcDbEntity
  8
0
100
AcDbPolyline
 62
7
  6
CONTINUOUS
 90
2
 70
0
 43
0.4
 10
644.8810902512
 20
48.9152055236
 10
646.472522272
 20
48.9152055236
  0
LWPOLYLINE
  5
22B
100
AcDbEntity
  8
0
100
AcDbPolyline
 62
7
  6
CONTINUOUS
 90
2
 70
0
 43
0.4
 10
646.472522272
 20
48.9152055236
 10
646.472522272
 20
49.3391686668
  0
LWPOLYLINE
  5
22C
100
AcDbEntity
  8
0
100
AcDbPolyline
 62
7
  6
CONTINUOUS
 90
2
 70
0
 43
0.4
 10
646.472522272
 20
49.3391686668
 10
645.344309241
 20
49.3391686668
  0
LWPOLYLINE
  5
22D
100
AcDbEntity
  8
0
100
AcDbPolyline
 62
7
  6
CONTINUOUS
 90
2
 70
0
 43
0.4
 10
645.344309241
 20
49.3391686668
 10
645.344309241
 20
52.6293320223
  0
LWPOLYLINE
  5
22E
100
AcDbEntity
  8
0
100
AcDbPolyline
 62
7
  6
CONTINUOUS
 90
2
 70
0
 43
0.4
 10
645.344309241
 20
52.6293320223
 10
644.8810902512
 20
52.6293320223
  0
SPLINE
  5
22F
100
AcDbEntity
  8
0
100
AcDbSpline
 62
7
  6
CONTINUOUS
 70
2
 71
3
 72
35
 73
31
 74
0
 42
0.0000001
 43
0.0000001
 44
0.0000000001
 40
0.0
 40
0.0
 40
0.0
 40
0.0
 40
1.0
 40
1.0
 40
1.0
 40
2.0
 40
2.0
 40
2.0
 40
3.0
 40
3.0
 40
3.0
 40
4.0
 40
4.0
 40
4.0
 40
5.0
 40
5.0
 40
5.0
 40
6.0
 40
6.0
 40
6.0
 40
7.0
 40
7.0
 40
7.0
 40
8.0
 40
8.0
 40
8.0
 40
9.0
 40
9.0
 40
9.0
 40
10.0
 40
10.0
 40
10.0
 40
10.0
 10
649.2691087831
 20
51.2203088354
 30
0.0
 10
649.2691087831
 20
51.2203088354
 30
0.0
 10
649.2691087831
 20
49.8960782771
 30
0.0
 10
649.2691087831
 20
49.8960782771
 30
0.0
 10
649.2691087831
 20
49.2658910865
 30
0.0
 10
649.5648361607
 20
48.8366938304
 30
0.0
 10
650.2450091293
 20
48.8366938304
 30
0.0
 10
650.9241352753
 20
48.8366938304
 30
0.0
 10
651.2203860643
 20
49.2658910865
 30
0.0
 10
651.2203860643
 20
49.8960782771
 30
0.0
 10
651.2203860643
 20
49.8960782771
 30
0.0
 10
651.2203860643
 20
51.2203088354
 30
0.0
 10
651.2203860643
 20
51.2203088354
 30
0.0
 10
651.2203860643
 20
51.2203088354
 30
0.0
 10
650.7762715865
 20
51.2203088354
 30
0.0
 10
650.7762715865
 20
51.2203088354
 30
0.0
 10
650.7762715865
 20
51.2203088354
 30
0.0
 10
650.7762715865
 20
49.9463257607
 30
0.0
 10
650.7762715865
 20
49.9463257607
 30
0.0
 10
650.7762715865
 20
49.5747037463
 30
0.0
 10
650.6828426716
 20
49.2491419253
 30
0.0
 10
650.2450091293
 20
49.2491419253
 30
0.0
 10
649.8061287644
 20
49.2491419253
 30
0.0
 10
649.7126998495
 20
49.5747037463
 30
0.0
 10
649.7126998495
 20
49.9463257607
 30
0.0
 10
649.7126998495
 20
49.9463257607
 30
0.0
 10
649.7126998495
 20
51.2203088354
 30
0.0
 10
649.7126998495
 20
51.2203088354
 30
0.0
 10
649.7126998495
 20
51.2203088354
 30
0.0
 10
649.2691087831
 20
51.2203088354
 30
0.0
 10
649.2691087831
 20
51.2203088354
 30
0.0
  0
SPLINE
  5
230
100
AcDbEntity
  8
0
100
AcDbSpline
 62
7
  6
CONTINUOUS
 70
2
 71
3
 72
35
 73
31
 74
0
 42
0.0000001
 43
0.0000001
 44
0.0000000001
 40
0.0
 40
0.0
 40
0.0
 40
0.0
 40
1.0
 40
1.0
 40
1.0
 40
2.0
 40
2.0
 40
2.0
 40
3.0
 40
3.0
 40
3.0
 40
4.0
 40
4.0
 40
4.0
 40
5.0
 40
5.0
 40
5.0
 40
6.0
 40
6.0
 40
6.0
 40
7.0
 40
7.0
 40
7.0
 40
8.0
 40
8.0
 40
8.0
 40
9.0
 40
9.0
 40
9.0
 40
10.0
 40
10.0
 40
10.0
 40
10.0
 10
656.0666511786
 20
51.1376098519
 30
0.0
 10
655.8897381633
 20
51.2401984643
 30
0.0
 10
655.6628393701
 20
51.2904459479
 30
0.0
 10
655.4555685001
 20
51.2904459479
 30
0.0
 10
654.7458227937
 20
51.2904459479
 30
0.0
 10
654.1949324132
 20
50.7628473698
 30
0.0
 10
654.1949324132
 20
50.0478675505
 30
0.0
 10
654.1949324132
 20
49.3580114731
 30
0.0
 10
654.7518420235
 20
48.837740653
 30
0.0
 10
655.4309681695
 20
48.837740653
 30
0.0
 10
655.6628393701
 20
48.837740653
 30
0.0
 10
655.8643527159
 20
48.8817072012
 30
0.0
 10
656.0666511786
 20
48.9895299265
 30
0.0
 10
656.0666511786
 20
48.9895299265
 30
0.0
 10
656.0666511786
 20
49.5548141174
 30
0.0
 10
656.0666511786
 20
49.5548141174
 30
0.0
 10
655.8988978609
 20
49.3684796989
 30
0.0
 10
655.6918886965
 20
49.2501887478
 30
0.0
 10
655.4356788711
 20
49.2501887478
 30
0.0
 10
654.9682725911
 20
49.2501887478
 30
0.0
 10
654.6377383628
 20
49.5945933752
 30
0.0
 10
654.6377383628
 20
50.0677571795
 30
0.0
 10
654.6377383628
 20
50.4917203227
 30
0.0
 10
654.9732449983
 20
50.875904208
 30
0.0
 10
655.4068912503
 20
50.875904208
 30
0.0
 10
655.6725224789
 20
50.875904208
 30
0.0
 10
655.8897381633
 20
50.7680814827
 30
0.0
 10
656.0666511786
 20
50.5660447255
 30
0.0
 10
656.0666511786
 20
50.5660447255
 30
0.0
 10
656.0666511786
 20
51.1376098519
 30
0.0
 10
656.0666511786
 20
51.1376098519
 30
0.0
  0
SPLINE
  5
231
100
AcDbEntity
  8
0
100
AcDbSpline
 62
7
  6
CONTINUOUS
 70
2
 71
3
 72
32
 73
28
 74
0
 42
0.0000001
 43
0.0000001
 44
0.0000000001
 40
0.0
 40
0.0
 40
0.0
 40
0.0
 40
1.0
 40
1.0
 40
1.0
 40
2.0
 40
2.0
 40
2.0
 40
3.0
 40
3.0
 40
3.0
 40
4.0
 40
4.0
 40
4.0
 40
5.0
 40
5.0
 40
5.0
 40
6.0
 40
6.0
 40
6.0
 40
7.0
 40
7.0
 40
7.0
 40
8.0
 40
8.0
 40
8.0
 40
9.0
 40
9.0
 40
9.0
 40
9.0
 10
661.1303936831
 20
49.9944795992
 30
0.0
 10
661.1303936831
 20
49.9944795992
 30
0.0
 10
661.1303936831
 20
50.0625230666
 30
0.0
 10
661.1303936831
 20
50.0625230666
 30
0.0
 10
661.1303936831
 20
50.7471450311
 30
0.0
 10
660.7846805275
 20
51.2904459479
 30
0.0
 10
660.0513813132
 20
51.2904459479
 30
0.0
 10
659.3081372844
 20
51.2904459479
 30
0.0
 10
658.9286641007
 20
50.7576132569
 30
0.0
 10
658.9286641007
 20
50.0478675505
 30
0.0
 10
658.9286641007
 20
49.3684796989
 30
0.0
 10
659.3568145342
 20
48.8366938304
 30
0.0
 10
660.061064422
 20
48.8366938304
 30
0.0
 10
660.5091044844
 20
48.8366938304
 30
0.0
 10
660.9134397043
 20
49.0680416197
 30
0.0
 10
661.1303936831
 20
49.466881021
 30
0.0
 10
661.1303936831
 20
49.466881021
 30
0.0
 10
660.7551077897
 20
49.6804328265
 30
0.0
 10
660.7551077897
 20
49.6804328265
 30
0.0
 10
660.5881395889
 20
49.4030248439
 30
0.0
 10
660.4057307551
 20
49.2313459415
 30
0.0
 10
660.0665602406
 20
49.2313459415
 30
0.0
 10
659.6425970974
 20
49.2313459415
 30
0.0
 10
659.3767041631
 20
49.6008743107
 30
0.0
 10
659.3719934615
 20
49.9944795992
 30
0.0
 10
659.3719934615
 20
49.9944795992
 30
0.0
 10
661.1303936831
 20
49.9944795992
 30
0.0
 10
661.1303936831
 20
49.9944795992
 30
0.0
  0
SPLINE
  5
232
100
AcDbEntity
  8
0
100
AcDbSpline
 62
7
  6
CONTINUOUS
 70
2
 71
3
 72
14
 73
10
 74
0
 42
0.0000001
 43
0.0000001
 44
0.0000000001
 40
0.0
 40
0.0
 40
0.0
 40
0.0
 40
1.0
 40
1.0
 40
1.0
 40
2.0
 40
2.0
 40
2.0
 40
3.0
 40
3.0
 40
3.0
 40
3.0
 10
659.3960703808
 20
50.3294628234
 30
0.0
 10
659.4512902717
 20
50.6592119348
 30
0.0
 10
659.7069766858
 20
50.9052152401
 30
0.0
 10
660.0513813132
 20
50.9052152401
 30
0.0
 10
660.4057307551
 20
50.9052152401
 30
0.0
 10
660.6326295484
 20
50.6738674508
 30
0.0
 10
660.6870643223
 20
50.3294628234
 30
0.0
 10
660.6870643223
 20
50.3294628234
 30
0.0
 10
659.3960703808
 20
50.3294628234
 30
0.0
 10
659.3960703808
 20
50.3294628234
 30
0.0
  0
SPLINE
  5
233
100
AcDbEntity
  8
0
100
AcDbSpline
 62
7
  6
CONTINUOUS
 70
2
 71
3
 72
20
 73
16
 74
0
 42
0.0000001
 43
0.0000001
 44
0.0000000001
 40
0.0
 40
0.0
 40
0.0
 40
0.0
 40
1.0
 40
1.0
 40
1.0
 40
2.0
 40
2.0
 40
2.0
 40
3.0
 40
3.0
 40
3.0
 40
4.0
 40
4.0
 40
4.0
 40
5.0
 40
5.0
 40
5.0
 40
5.0
 10
665.1784565835
 20
50.7481918537
 30
0.0
 10
665.1784565835
 20
50.7481918537
 30
0.0
 10
666.0007357168
 20
49.743242181
 30
0.0
 10
666.0007357168
 20
49.743242181
 30
0.0
 10
665.7686028106
 20
49.5118943918
 30
0.0
 10
665.4930267675
 20
49.2512355704
 30
0.0
 10
665.1491455514
 20
49.2512355704
 30
0.0
 10
664.7942726982
 20
49.2512355704
 30
0.0
 10
664.459289474
 20
49.5799378592
 30
0.0
 10
664.459289474
 20
49.9337638898
 30
0.0
 10
664.459289474
 20
50.2896835655
 30
0.0
 10
664.8788036212
 20
50.5419678063
 30
0.0
 10
665.1339666241
 20
50.717833999
 30
0.0
 10
665.1339666241
 20
50.717833999
 30
0.0
 10
665.1784565835
 20
50.7481918537
 30
0.0
 10
665.1784565835
 20
50.7481918537
 30
0.0
  0
SPLINE
  5
234
100
AcDbEntity
  8
0
100
AcDbSpline
 62
7
  6
CONTINUOUS
 70
2
 71
3
 72
23
 73
19
 74
0
 42
0.0000001
 43
0.0000001
 44
0.0000000001
 40
0.0
 40
0.0
 40
0.0
 40
0.0
 40
1.0
 40
1.0
 40
1.0
 40
2.0
 40
2.0
 40
2.0
 40
3.0
 40
3.0
 40
3.0
 40
4.0
 40
4.0
 40
4.0
 40
5.0
 40
5.0
 40
5.0
 40
6.0
 40
6.0
 40
6.0
 40
6.0
 10
665.2771196113
 20
51.3302252058
 30
0.0
 10
665.2771196113
 20
51.3302252058
 30
0.0
 10
665.153856253
 20
51.4872485922
 30
0.0
 10
665.153856253
 20
51.4872485922
 30
0.0
 10
665.0460335277
 20
51.6243823496
 30
0.0
 10
664.9324532782
 20
51.7625629296
 30
0.0
 10
664.9324532782
 20
51.9499441707
 30
0.0
 10
664.9324532782
 20
52.1875728954
 30
0.0
 10
665.1242835152
 20
52.3425026366
 30
0.0
 10
665.3462099013
 20
52.3425026366
 30
0.0
 10
665.5927366179
 20
52.3425026366
 30
0.0
 10
665.779332742
 20
52.2001347663
 30
0.0
 10
665.779332742
 20
51.9394759449
 30
0.0
 10
665.779332742
 20
51.6693957204
 30
0.0
 10
665.5231229166
 20
51.5165596243
 30
0.0
 10
665.3360033812
 20
51.3689576411
 30
0.0
 10
665.3360033812
 20
51.3689576411
 30
0.0
 10
665.2771196113
 20
51.3302252058
 30
0.0
 10
665.2771196113
 20
51.3302252058
 30
0.0
  0
SPLINE
  5
235
100
AcDbEntity
  8
0
100
AcDbSpline
 62
7
  6
CONTINUOUS
 70
2
 71
3
 72
50
 73
46
 74
0
 42
0.0000001
 43
0.0000001
 44
0.0000000001
 40
0.0
 40
0.0
 40
0.0
 40
0.0
 40
1.0
 40
1.0
 40
1.0
 40
2.0
 40
2.0
 40
2.0
 40
3.0
 40
3.0
 40
3.0
 40
4.0
 40
4.0
 40
4.0
 40
5.0
 40
5.0
 40
5.0
 40
6.0
 40
6.0
 40
6.0
 40
7.0
 40
7.0
 40
7.0
 40
8.0
 40
8.0
 40
8.0
 40
9.0
 40
9.0
 40
9.0
 40
10.0
 40
10.0
 40
10.0
 40
11.0
 40
11.0
 40
11.0
 40
12.0
 40
12.0
 40
12.0
 40
13.0
 40
13.0
 40
13.0
 40
14.0
 40
14.0
 40
14.0
 40
15.0
 40
15.0
 40
15.0
 40
15.0
 10
666.6814320967
 20
48.9162523462
 30
0.0
 10
666.6814320967
 20
48.9162523462
 30
0.0
 10
667.2522121061
 20
48.9162523462
 30
0.0
 10
667.2522121061
 20
48.9162523462
 30
0.0
 10
667.2522121061
 20
48.9162523462
 30
0.0
 10
666.5874797705
 20
49.7380080681
 30
0.0
 10
666.5874797705
 20
49.7380080681
 30
0.0
 10
666.5874797705
 20
49.7380080681
 30
0.0
 10
667.0404922401
 20
50.2697939366
 30
0.0
 10
667.0404922401
 20
50.2697939366
 30
0.0
 10
667.0404922401
 20
50.2697939366
 30
0.0
 10
666.7439797456
 20
50.5754661287
 30
0.0
 10
666.7439797456
 20
50.5754661287
 30
0.0
 10
666.7439797456
 20
50.5754661287
 30
0.0
 10
666.3121654331
 20
50.0729912924
 30
0.0
 10
666.3121654331
 20
50.0729912924
 30
0.0
 10
666.3121654331
 20
50.0729912924
 30
0.0
 10
665.5380401383
 20
51.0088506751
 30
0.0
 10
665.5380401383
 20
51.0088506751
 30
0.0
 10
665.8489464433
 20
51.2370579966
 30
0.0
 10
666.2135024053
 20
51.5165596243
 30
0.0
 10
666.2135024053
 20
51.9352886546
 30
0.0
 10
666.2135024053
 20
52.4231079749
 30
0.0
 10
665.8094288911
 20
52.7099373607
 30
0.0
 10
665.3564164214
 20
52.7099373607
 30
0.0
 10
664.8680736898
 20
52.7099373607
 30
0.0
 10
664.4993304375
 20
52.4084524588
 30
0.0
 10
664.4993304375
 20
51.8955093967
 30
0.0
 10
664.4993304375
 20
51.5804158014
 30
0.0
 10
664.696656493
 20
51.305101464
 30
0.0
 10
664.9073295364
 20
51.083175078
 30
0.0
 10
664.9073295364
 20
51.083175078
 30
0.0
 10
664.6762434528
 20
50.9156834658
 30
0.0
 10
664.6762434528
 20
50.9156834658
 30
0.0
 10
664.3208471884
 20
50.6592119348
 30
0.0
 10
664.0261666333
 20
50.4037872263
 30
0.0
 10
664.0261666333
 20
49.9295765995
 30
0.0
 10
664.0261666333
 20
49.2889211831
 30
0.0
 10
664.5432969857
 20
48.8366938304
 30
0.0
 10
665.1640627731
 20
48.8366938304
 30
0.0
 10
665.6018963154
 20
48.8366938304
 30
0.0
 10
665.9962867208
 20
49.086884426
 30
0.0
 10
666.2768351711
 20
49.4187271825
 30
0.0
 10
666.2768351711
 20
49.4187271825
 30
0.0
 10
666.6814320967
 20
48.9162523462
 30
0.0
 10
666.6814320967
 20
48.9162523462
 30
0.0
  0
LWPOLYLINE
  5
236
100
AcDbEntity
  8
0
100
AcDbPolyline
 62
7
  6
CONTINUOUS
 90
2
 70
0
 43
0.4
 10
670.5523202761
 20
52.6293320223
 10
670.0896246976
 20
52.6293320223
  0
LWPOLYLINE
  5
237
100
AcDbEntity
  8
0
100
AcDbPolyline
 62
7
  6
CONTINUOUS
 90
2
 70
0
 43
0.4
 10
670.0896246976
 20
52.6293320223
 10
670.0896246976
 20
48.9152055236
  0
LWPOLYLINE
  5
238
100
AcDbEntity
  8
0
100
AcDbPolyline
 62
7
  6
CONTINUOUS
 90
2
 70
0
 43
0.4
 10
670.0896246976
 20
48.9152055236
 10
671.6802716015
 20
48.9152055236
  0
LWPOLYLINE
  5
239
100
AcDbEntity
  8
0
100
AcDbPolyline
 62
7
  6
CONTINUOUS
 90
2
 70
0
 43
0.4
 10
671.6802716015
 20
48.9152055236
 10
671.6802716015
 20
49.3391686668
  0
LWPOLYLINE
  5
23A
100
AcDbEntity
  8
0
100
AcDbPolyline
 62
7
  6
CONTINUOUS
 90
2
 70
0
 43
0.4
 10
671.6802716015
 20
49.3391686668
 10
670.5523202761
 20
49.3391686668
  0
LWPOLYLINE
  5
23B
100
AcDbEntity
  8
0
100
AcDbPolyline
 62
7
  6
CONTINUOUS
 90
2
 70
0
 43
0.4
 10
670.5523202761
 20
49.3391686668
 10
670.5523202761
 20
52.6293320223
  0
LWPOLYLINE
  5
23C
100
AcDbEntity
  8
0
100
AcDbPolyline
 62
7
  6
CONTINUOUS
 90
2
 70
0
 43
0.4
 10
675.0384784244
 20
51.2203088354
 10
674.5961958862
 20
51.2203088354
  0
LWPOLYLINE
  5
23D
100
AcDbEntity
  8
0
100
AcDbPolyline
 62
7
  6
CONTINUOUS
 90
2
 70
0
 43
0.4
 10
674.5961958862
 20
51.2203088354
 10
674.5961958862
 20
48.9162523462
  0
LWPOLYLINE
  5
23E
100
AcDbEntity
  8
0
100
AcDbPolyline
 62
7
  6
CONTINUOUS
 90
2
 70
0
 43
0.4
 10
674.5961958862
 20
48.9162523462
 10
675.0384784244
 20
48.9162523462
  0
LWPOLYLINE
  5
23F
100
AcDbEntity
  8
0
100
AcDbPolyline
 62
7
  6
CONTINUOUS
 90
2
 70
0
 43
0.4
 10
675.0384784244
 20
48.9162523462
 10
675.0384784244
 20
51.2203088354
  0
LWPOLYLINE
  5
240
100
AcDbEntity
  8
0
100
AcDbPolyline
 62
7
  6
CONTINUOUS
 90
2
 70
1
 43
0.4
 10
674.51243187
 20
52.2802166933
 42
1.0
 10
675.1227658519
 20
52.2802166933
 42
1.0
  0
SPLINE
  5
241
100
AcDbEntity
  8
0
100
AcDbSpline
 62
7
  6
CONTINUOUS
 70
2
 71
3
 72
17
 73
13
 74
0
 42
0.0000001
 43
0.0000001
 44
0.0000000001
 40
0.0
 40
0.0
 40
0.0
 40
0.0
 40
1.0
 40
1.0
 40
1.0
 40
2.0
 40
2.0
 40
2.0
 40
3.0
 40
3.0
 40
3.0
 40
4.0
 40
4.0
 40
4.0
 40
4.0
 10
679.2990463077
 20
49.2313459415
 30
0.0
 10
678.8311166163
 20
49.2313459415
 30
0.0
 10
678.570457795
 20
49.6354194557
 30
0.0
 10
678.570457795
 20
50.0677571795
 30
0.0
 10
678.570457795
 20
50.4969544355
 30
0.0
 10
678.8421082534
 20
50.8947470143
 30
0.0
 10
679.2990463077
 20
50.8947470143
 30
0.0
 10
679.7779676361
 20
50.8947470143
 30
0.0
 10
680.0490946832
 20
50.5168440645
 30
0.0
 10
680.0490946832
 20
50.0677571795
 30
0.0
 10
680.0490946832
 20
49.6155298268
 30
0.0
 10
679.7826783377
 20
49.2313459415
 30
0.0
 10
679.2990463077
 20
49.2313459415
 30
0.0
  0
SPLINE
  5
242
100
AcDbEntity
  8
0
100
AcDbSpline
 62
7
  6
CONTINUOUS
 70
2
 71
3
 72
50
 73
46
 74
0
 42
0.0000001
 43
0.0000001
 44
0.0000000001
 40
0.0
 40
0.0
 40
0.0
 40
0.0
 40
1.0
 40
1.0
 40
1.0
 40
2.0
 40
2.0
 40
2.0
 40
3.0
 40
3.0
 40
3.0
 40
4.0
 40
4.0
 40
4.0
 40
5.0
 40
5.0
 40
5.0
 40
6.0
 40
6.0
 40
6.0
 40
7.0
 40
7.0
 40
7.0
 40
8.0
 40
8.0
 40
8.0
 40
9.0
 40
9.0
 40
9.0
 40
10.0
 40
10.0
 40
10.0
 40
11.0
 40
11.0
 40
11.0
 40
12.0
 40
12.0
 40
12.0
 40
13.0
 40
13.0
 40
13.0
 40
14.0
 40
14.0
 40
14.0
 40
15.0
 40
15.0
 40
15.0
 40
15.0
 10
680.4673003022
 20
51.2213556579
 30
0.0
 10
680.4673003022
 20
51.2213556579
 30
0.0
 10
680.0239709414
 20
51.2213556579
 30
0.0
 10
680.0239709414
 20
51.2213556579
 30
0.0
 10
680.0239709414
 20
51.2213556579
 30
0.0
 10
680.0239709414
 20
50.8267035469
 30
0.0
 10
680.0239709414
 20
50.8267035469
 30
0.0
 10
680.0239709414
 20
50.8267035469
 30
0.0
 10
680.0145495382
 20
50.8267035469
 30
0.0
 10
680.0145495382
 20
50.8267035469
 30
0.0
 10
679.8318789987
 20
51.1124861101
 30
0.0
 10
679.55604125
 20
51.2893991254
 30
0.0
 10
679.2105898
 20
51.2893991254
 30
0.0
 10
678.5458574644
 20
51.2893991254
 30
0.0
 10
678.1276518454
 20
50.7136467087
 30
0.0
 10
678.1276518454
 20
50.0824126955
 30
0.0
 10
678.1276518454
 20
49.4229144728
 30
0.0
 10
678.5217805452
 20
48.8366938304
 30
0.0
 10
679.2315262516
 20
48.8366938304
 30
0.0
 10
679.55604125
 20
48.8366938304
 30
0.0
 10
679.836066289
 20
49.0136068457
 30
0.0
 10
680.0145495382
 20
49.2753124896
 30
0.0
 10
680.0145495382
 20
49.2753124896
 30
0.0
 10
680.0239709414
 20
49.2753124896
 30
0.0
 10
680.0239709414
 20
49.2753124896
 30
0.0
 10
680.0239709414
 20
49.2753124896
 30
0.0
 10
680.0239709414
 20
48.8366938304
 30
0.0
 10
680.0239709414
 20
48.8366938304
 30
0.0
 10
680.0239709414
 20
48.3635300262
 30
0.0
 10
679.9109141032
 20
47.9898143666
 30
0.0
 10
679.3644727187
 20
47.9898143666
 30
0.0
 10
678.9598757932
 20
47.9898143666
 30
0.0
 10
678.6746166413
 20
48.2263962688
 30
0.0
 10
678.6746166413
 20
48.6388443636
 30
0.0
 10
678.6746166413
 20
48.6388443636
 30
0.0
 10
678.2312872804
 20
48.6388443636
 30
0.0
 10
678.2312872804
 20
48.6388443636
 30
0.0
 10
678.2412320949
 20
47.9898143666
 30
0.0
 10
678.7034042621
 20
47.5962090782
 30
0.0
 10
679.3440596784
 20
47.5962090782
 30
0.0
 10
680.2401398033
 20
47.5962090782
 30
0.0
 10
680.4673003022
 20
48.1667273819
 30
0.0
 10
680.4673003022
 20
48.9602188943
 30
0.0
 10
680.4673003022
 20
48.9602188943
 30
0.0
 10
680.4673003022
 20
51.2213556579
 30
0.0
 10
680.4673003022
 20
51.2213556579
 30
0.0
  0
SPLINE
  5
243
100
AcDbEntity
  8
0
100
AcDbSpline
 62
7
  6
CONTINUOUS
 70
2
 71
3
 72
44
 73
40
 74
0
 42
0.0000001
 43
0.0000001
 44
0.0000000001
 40
0.0
 40
0.0
 40
0.0
 40
0.0
 40
1.0
 40
1.0
 40
1.0
 40
2.0
 40
2.0
 40
2.0
 40
3.0
 40
3.0
 40
3.0
 40
4.0
 40
4.0
 40
4.0
 40
5.0
 40
5.0
 40
5.0
 40
6.0
 40
6.0
 40
6.0
 40
7.0
 40
7.0
 40
7.0
 40
8.0
 40
8.0
 40
8.0
 40
9.0
 40
9.0
 40
9.0
 40
10.0
 40
10.0
 40
10.0
 40
11.0
 40
11.0
 40
11.0
 40
12.0
 40
12.0
 40
12.0
 40
13.0
 40
13.0
 40
13.0
 40
13.0
 10
683.605150973
 20
53.1914757455
 30
0.0
 10
683.605150973
 20
53.1914757455
 30
0.0
 10
683.605150973
 20
48.9152055236
 30
0.0
 10
683.605150973
 20
48.9152055236
 30
0.0
 10
683.605150973
 20
48.9152055236
 30
0.0
 10
684.0479569225
 20
48.9152055236
 30
0.0
 10
684.0479569225
 20
48.9152055236
 30
0.0
 10
684.0479569225
 20
48.9152055236
 30
0.0
 10
684.0479569225
 20
49.9745899702
 30
0.0
 10
684.0479569225
 20
49.9745899702
 30
0.0
 10
684.0479569225
 20
50.3943658231
 30
0.0
 10
684.0479569225
 20
50.8957938369
 30
0.0
 10
684.6184752263
 20
50.8957938369
 30
0.0
 10
685.0722728129
 20
50.8957938369
 30
0.0
 10
685.1261841756
 20
50.6299009027
 30
0.0
 10
685.1261841756
 20
50.2373424368
 30
0.0
 10
685.1261841756
 20
50.2373424368
 30
0.0
 10
685.1261841756
 20
48.9152055236
 30
0.0
 10
685.1261841756
 20
48.9152055236
 30
0.0
 10
685.1261841756
 20
48.9152055236
 30
0.0
 10
685.5700369477
 20
48.9152055236
 30
0.0
 10
685.5700369477
 20
48.9152055236
 30
0.0
 10
685.5700369477
 20
48.9152055236
 30
0.0
 10
685.5700369477
 20
50.2896835655
 30
0.0
 10
685.5700369477
 20
50.2896835655
 30
0.0
 10
685.5700369477
 20
50.8507804661
 30
0.0
 10
685.4020219243
 20
51.2904459479
 30
0.0
 10
684.7519451047
 20
51.2904459479
 30
0.0
 10
684.472443477
 20
51.2904459479
 30
0.0
 10
684.196082317
 20
51.1574994808
 30
0.0
 10
684.0573783257
 20
50.9114961755
 30
0.0
 10
684.0573783257
 20
50.9114961755
 30
0.0
 10
684.0479569225
 20
50.9114961755
 30
0.0
 10
684.0479569225
 20
50.9114961755
 30
0.0
 10
684.0479569225
 20
50.9114961755
 30
0.0
 10
684.0479569225
 20
53.1914757455
 30
0.0
 10
684.0479569225
 20
53.1914757455
 30
0.0
 10
684.0479569225
 20
53.1914757455
 30
0.0
 10
683.605150973
 20
53.1914757455
 30
0.0
 10
683.605150973
 20
53.1914757455
 30
0.0
  0
LWPOLYLINE
  5
244
100
AcDbEntity
  8
0
100
AcDbPolyline
 62
7
  6
CONTINUOUS
 90
2
 70
0
 43
0.4
 10
689.2496183014
 20
50.806813918
 10
689.6824794365
 20
50.806813918
  0
LWPOLYLINE
  5
245
100
AcDbEntity
  8
0
100
AcDbPolyline
 62
7
  6
CONTINUOUS
 90
2
 70
0
 43
0.4
 10
689.6824794365
 20
50.806813918
 10
689.6824794365
 20
51.2203088354
  0
LWPOLYLINE
  5
246
100
AcDbEntity
  8
0
100
AcDbPolyline
 62
7
  6
CONTINUOUS
 90
2
 70
0
 43
0.4
 10
689.6824794365
 20
51.2203088354
 10
689.2496183014
 20
51.2203088354
  0
LWPOLYLINE
  5
247
100
AcDbEntity
  8
0
100
AcDbPolyline
 62
7
  6
CONTINUOUS
 90
2
 70
0
 43
0.4
 10
689.2496183014
 20
51.2203088354
 10
689.2496183014
 20
52.1017334441
  0
LWPOLYLINE
  5
248
100
AcDbEntity
  8
0
100
AcDbPolyline
 62
7
  6
CONTINUOUS
 90
2
 70
0
 43
0.4
 10
689.2496183014
 20
52.1017334441
 10
688.8062889406
 20
52.1017334441
  0
LWPOLYLINE
  5
249
100
AcDbEntity
  8
0
100
AcDbPolyline
 62
7
  6
CONTINUOUS
 90
2
 70
0
 43
0.4
 10
688.8062889406
 20
52.1017334441
 10
688.8062889406
 20
51.2203088354
  0
LWPOLYLINE
  5
24A
100
AcDbEntity
  8
0
100
AcDbPolyline
 62
7
  6
CONTINUOUS
 90
2
 70
0
 43
0.4
 10
688.8062889406
 20
51.2203088354
 10
688.5649963369
 20
51.2203088354
  0
LWPOLYLINE
  5
24B
100
AcDbEntity
  8
0
100
AcDbPolyline
 62
7
  6
CONTINUOUS
 90
2
 70
0
 43
0.4
 10
688.5649963369
 20
51.2203088354
 10
688.5649963369
 20
50.806813918
  0
LWPOLYLINE
  5
24C
100
AcDbEntity
  8
0
100
AcDbPolyline
 62
7
  6
CONTINUOUS
 90
2
 70
0
 43
0.4
 10
688.5649963369
 20
50.806813918
 10
688.8062889406
 20
50.806813918
  0
LWPOLYLINE
  5
24D
100
AcDbEntity
  8
0
100
AcDbPolyline
 62
7
  6
CONTINUOUS
 90
2
 70
0
 43
0.4
 10
688.8062889406
 20
50.806813918
 10
688.8062889406
 20
48.9152055236
  0
LWPOLYLINE
  5
24E
100
AcDbEntity
  8
0
100
AcDbPolyline
 62
7
  6
CONTINUOUS
 90
2
 70
0
 43
0.4
 10
688.8062889406
 20
48.9152055236
 10
689.2496183014
 20
48.9152055236
  0
LWPOLYLINE
  5
24F
100
AcDbEntity
  8
0
100
AcDbPolyline
 62
7
  6
CONTINUOUS
 90
2
 70
0
 43
0.4
 10
689.2496183014
 20
48.9152055236
 10
689.2496183014
 20
50.806813918
  0
SPLINE
  5
250
100
AcDbEntity
  8
0
100
AcDbSpline
 62
7
  6
CONTINUOUS
 70
2
 71
3
 72
20
 73
16
 74
0
 42
0.0000001
 43
0.0000001
 44
0.0000000001
 40
0.0
 40
0.0
 40
0.0
 40
0.0
 40
1.0
 40
1.0
 40
1.0
 40
2.0
 40
2.0
 40
2.0
 40
3.0
 40
3.0
 40
3.0
 40
4.0
 40
4.0
 40
4.0
 40
5.0
 40
5.0
 40
5.0
 40
5.0
 10
664.8136389159
 20
69.6370584104
 30
0.0
 10
664.8136389159
 20
69.6370584104
 30
0.0
 10
669.4463522248
 20
63.9779355659
 30
0.0
 10
669.4463522248
 20
63.9779355659
 30
0.0
 10
668.143058118
 20
62.6735946365
 30
0.0
 10
666.58931171
 20
61.2017620951
 30
0.0
 10
664.6469324207
 20
61.2017620951
 30
0.0
 10
662.6498566518
 20
61.2017620951
 30
0.0
 10
660.7632206647
 20
63.0609189896
 30
0.0
 10
660.7632206647
 20
65.0593032867
 30
0.0
 10
660.7632206647
 20
67.0576875837
 30
0.0
 10
663.1209268109
 20
68.470898061
 30
0.0
 10
664.5639717316
 20
69.4706136208
 30
0.0
 10
664.5639717316
 20
69.4706136208
 30
0.0
 10
664.8136389159
 20
69.6370584104
 30
0.0
 10
664.8136389159
 20
69.6370584104
 30
0.0
  0
SPLINE
  5
251
100
AcDbEntity
  8
0
100
AcDbSpline
 62
7
  6
CONTINUOUS
 70
2
 71
3
 72
23
 73
19
 74
0
 42
0.0000001
 43
0.0000001
 44
0.0000000001
 40
0.0
 40
0.0
 40
0.0
 40
0.0
 40
1.0
 40
1.0
 40
1.0
 40
2.0
 40
2.0
 40
2.0
 40
3.0
 40
3.0
 40
3.0
 40
4.0
 40
4.0
 40
4.0
 40
5.0
 40
5.0
 40
5.0
 40
6.0
 40
6.0
 40
6.0
 40
6.0
 10
665.368454881
 20
72.9125662499
 30
0.0
 10
665.368454881
 20
72.9125662499
 30
0.0
 10
664.6754583359
 20
73.7992249715
 30
0.0
 10
664.6754583359
 20
73.7992249715
 30
0.0
 10
664.063852246
 20
74.5754439114
 30
0.0
 10
663.4260755917
 20
75.3524479683
 30
0.0
 10
663.4260755917
 20
76.4063365964
 30
0.0
 10
663.4260755917
 20
77.7386800297
 30
0.0
 10
664.5087518407
 20
78.6261238683
 30
0.0
 10
665.756564351
 20
78.6261238683
 30
0.0
 10
667.1441276751
 20
78.6261238683
 30
0.0
 10
668.1985397145
 20
77.8216407188
 30
0.0
 10
668.1985397145
 20
76.3516401168
 30
0.0
 10
668.1985397145
 20
74.8251110957
 30
0.0
 10
666.7560182052
 20
73.9648846441
 30
0.0
 10
665.7018678714
 20
73.1334458133
 30
0.0
 10
665.7018678714
 20
73.1334458133
 30
0.0
 10
665.368454881
 20
72.9125662499
 30
0.0
 10
665.368454881
 20
72.9125662499
 30
0.0
  0
SPLINE
  5
252
100
AcDbEntity
  8
0
100
AcDbSpline
 62
7
  6
CONTINUOUS
 70
2
 71
3
 72
50
 73
46
 74
0
 42
0.0000001
 43
0.0000001
 44
0.0000000001
 40
0.0
 40
0.0
 40
0.0
 40
0.0
 40
1.0
 40
1.0
 40
1.0
 40
2.0
 40
2.0
 40
2.0
 40
3.0
 40
3.0
 40
3.0
 40
4.0
 40
4.0
 40
4.0
 40
5.0
 40
5.0
 40
5.0
 40
6.0
 40
6.0
 40
6.0
 40
7.0
 40
7.0
 40
7.0
 40
8.0
 40
8.0
 40
8.0
 40
9.0
 40
9.0
 40
9.0
 40
10.0
 40
10.0
 40
10.0
 40
11.0
 40
11.0
 40
11.0
 40
12.0
 40
12.0
 40
12.0
 40
13.0
 40
13.0
 40
13.0
 40
14.0
 40
14.0
 40
14.0
 40
15.0
 40
15.0
 40
15.0
 40
15.0
 10
673.2756292069
 20
59.3153878136
 30
0.0
 10
673.2756292069
 20
59.3153878136
 30
0.0
 10
676.494085216
 20
59.3153878136
 30
0.0
 10
676.494085216
 20
59.3153878136
 30
0.0
 10
676.494085216
 20
59.3153878136
 30
0.0
 10
672.7480306287
 20
63.9496713564
 30
0.0
 10
672.7480306287
 20
63.9496713564
 30
0.0
 10
672.7480306287
 20
63.9496713564
 30
0.0
 10
675.3007074797
 20
66.9446307456
 30
0.0
 10
675.3007074797
 20
66.9446307456
 30
0.0
 10
675.3007074797
 20
66.9446307456
 30
0.0
 10
673.6362595842
 20
68.6666538827
 30
0.0
 10
673.6362595842
 20
68.6666538827
 30
0.0
 10
673.6362595842
 20
68.6666538827
 30
0.0
 10
671.1950693376
 20
65.8360456379
 30
0.0
 10
671.1950693376
 20
65.8360456379
 30
0.0
 10
671.1950693376
 20
65.8360456379
 30
0.0
 10
666.8392405999
 20
71.1067973067
 30
0.0
 10
666.8392405999
 20
71.1067973067
 30
0.0
 10
668.5863874789
 20
72.3828740265
 30
0.0
 10
670.6397299612
 20
73.9648846441
 30
0.0
 10
670.6397299612
 20
76.3225907903
 30
0.0
 10
670.6397299612
 20
79.0699766404
 30
0.0
 10
668.3639376815
 20
80.6789429393
 30
0.0
 10
665.8133544757
 20
80.6789429393
 30
0.0
 10
663.066492037
 20
80.6789429393
 30
0.0
 10
660.9846236395
 20
78.9864925399
 30
0.0
 10
660.9846236395
 20
76.1011878156
 30
0.0
 10
660.9846236395
 20
74.3260384328
 30
0.0
 10
662.0953023923
 20
72.7722920247
 30
0.0
 10
663.2876333061
 20
71.5234326919
 30
0.0
 10
663.2876333061
 20
71.5234326919
 30
0.0
 10
661.983815788
 20
70.5802455511
 30
0.0
 10
661.983815788
 20
70.5802455511
 30
0.0
 10
659.9867400191
 20
69.1377240417
 30
0.0
 10
658.3209835955
 20
67.6952025324
 30
0.0
 10
658.3209835955
 20
65.0320858997
 30
0.0
 10
658.3209835955
 20
61.4247353037
 30
0.0
 10
661.2350759407
 20
58.8715350415
 30
0.0
 10
664.7301548155
 20
58.8715350415
 30
0.0
 10
667.1998709773
 20
58.8715350415
 30
0.0
 10
669.4186114266
 20
60.2878859864
 30
0.0
 10
671.0003603385
 20
62.1449492358
 30
0.0
 10
671.0003603385
 20
62.1449492358
 30
0.0
 10
673.2756292069
 20
59.3153878136
 30
0.0
 10
673.2756292069
 20
59.3153878136
 30
0.0
  0
LINE
  5
253
100
AcDbEntity
  8
0
100
AcDbLine
 62
7
  6
CONTINUOUS
 10
644.8813519569
 20
55.2631376229
 11
689.7091734121
 21
55.2631376229
  0
LINE
  5
254
100
AcDbEntity
  8
0
100
AcDbLine
 62
7
  6
CONTINUOUS
 10
689.7091734121
 20
55.2631376229
 11
689.7091734121
 21
100.0909590782
  0
LINE
  5
255
100
AcDbEntity
  8
0
100
AcDbLine
 62
7
  6
CONTINUOUS
 10
689.7091734121
 20
100.0909590782
 11
644.8813519569
 21
100.0909590782
  0
LINE
  5
256
100
AcDbEntity
  8
0
100
AcDbLine
 62
7
  6
CONTINUOUS
 10
644.8813519569
 20
100.0909590782
 11
644.8813519569
 21
55.2631376229
  0
ENDBLK
  5
257
100
AcDbEntity
  8
0
  6
BYBLOCK
 62
0
100
AcDbBlockEnd
  0
BLOCK
  5
258
100
AcDbEntity
  8
0
100
AcDbBlockBegin
  2
_CLOSED
 70
64
 10
0.0
 20
0.0
  3
_CLOSED
  1

  0
LINE
  5
259
100
AcDbEntity
  8
0
  6
BYBLOCK
 62
0
100
AcDbLine
 10
0.0
 20
0.0
 11
-1.0
 21
0.2
  0
LINE
  5
25A
100
AcDbEntity
  8
0
  6
BYBLOCK
 62
0
100
AcDbLine
 10
-1.0
 20
0.2
 11
-1.0
 21
-0.2
  0
LINE
  5
25B
100
AcDbEntity
  8
0
  6
BYBLOCK
 62
0
100
AcDbLine
 10
-1.0
 20
-0.2
 11
0.0
 21
0.0
  0
LINE
  5
25C
100
AcDbEntity
  8
0
  6
BYBLOCK
 62
0
100
AcDbLine
 10
-1.0
 20
0.0
 11
0.0
 21
0.0
  0
ENDBLK
  5
25D
100
AcDbEntity
  8
0
  6
BYBLOCK
 62
0
100
AcDbBlockEnd
  0
BLOCK
  5
25E
100
AcDbEntity
  8
0
100
AcDbBlockBegin
 62
2
  6
CONTINUOUS
  2
*D0
 70
65
 10
0.0
 20
0.0
  3
*D0
  1

  0
MTEXT
  5
25F
100
AcDbEntity
  8
0
100
AcDbMText
 62
2
  6
CONTINUOUS
  7
TEXTSTYLE_2
 71
2
 72
1
 10
243.1653469582
 20
487.9504928897
 30
0.0
 11
1.0
 21
0.0
 31
0.0
  1
{\Fgdt;n}\Farial.ttf;75
 40
6.0
 41
17.3234200743
  0
LINE
  5
260
100
AcDbEntity
  8
0
100
AcDbLine
 62
2
  6
CONTINUOUS
 10
205.6653469582
 20
472.7253957224
 11
205.6653469582
 21
481.9504928897
  0
LINE
  5
261
100
AcDbEntity
  8
0
100
AcDbLine
 62
2
  6
CONTINUOUS
 10
280.6653469582
 20
471.5479903992
 11
280.6653469582
 21
481.9504928897
  0
LINE
  5
262
100
AcDbEntity
  8
0
100
AcDbLine
 62
2
  6
CONTINUOUS
 10
205.6653469582
 20
480.4504928897
 11
243.1653469582
 21
480.4504928897
  0
LINE
  5
263
100
AcDbEntity
  8
0
100
AcDbLine
 62
2
  6
CONTINUOUS
 10
280.6653469582
 20
480.4504928897
 11
243.1653469582
 21
480.4504928897
  0
INSERT
  5
264
100
AcDbEntity
  8
0
100
AcDbBlockReference
 62
2
  6
CONTINUOUS
  2
_CLOSED
 10
205.6653469582
 20
480.4504928897
 41
5.0
 42
5.0
 43
5.0
 50
180.0
  0
INSERT
  5
265
100
AcDbEntity
  8
0
100
AcDbBlockReference
 62
2
  6
CONTINUOUS
  2
_CLOSED
 10
280.6653469582
 20
480.4504928897
 41
5.0
 42
5.0
 43
5.0
  0
ENDBLK
  5
266
100
AcDbEntity
  8
0
  6
BYBLOCK
 62
0
100
AcDbBlockEnd
  0
BLOCK
  5
267
100
AcDbEntity
  8
0
100
AcDbBlockBegin
 62
2
  6
CONTINUOUS
  2
*D1
 70
65
 10
0.0
 20
0.0
  3
*D1
  1

  0
MTEXT
  5
268
100
AcDbEntity
  8
0
100
AcDbMText
 62
2
  6
CONTINUOUS
  7
TEXTSTYLE_2
 71
2
 72
1
 10
243.1639255789
 20
361.9428043839
 30
0.0
 11
1.0
 21
0.0
 31
0.0
  1
{\Fgdt;n}\Farial.ttf;107
 40
6.0
 41
21.9851301115
  0
LINE
  5
269
100
AcDbEntity
  8
0
100
AcDbLine
 62
2
  6
CONTINUOUS
 10
189.6639255789
 20
363.833869851
 11
189.6639255789
 21
352.9428043839
  0
LINE
  5
26A
100
AcDbEntity
  8
0
100
AcDbLine
 62
2
  6
CONTINUOUS
 10
296.6639255789
 20
364.952404908
 11
296.6639255789
 21
352.9428043839
  0
LINE
  5
26B
100
AcDbEntity
  8
0
100
AcDbLine
 62
2
  6
CONTINUOUS
 10
189.6639255789
 20
354.4428043839
 11
243.1639255789
 21
354.4428043839
  0
LINE
  5
26C
100
AcDbEntity
  8
0
100
AcDbLine
 62
2
  6
CONTINUOUS
 10
296.6639255789
 20
354.4428043839
 11
243.1639255789
 21
354.4428043839
  0
INSERT
  5
26D
100
AcDbEntity
  8
0
100
AcDbBlockReference
 62
2
  6
CONTINUOUS
  2
_CLOSED
 10
189.6639255789
 20
354.4428043839
 41
5.0
 42
5.0
 43
5.0
 50
180.0
  0
INSERT
  5
26E
100
AcDbEntity
  8
0
100
AcDbBlockReference
 62
2
  6
CONTINUOUS
  2
_CLOSED
 10
296.6639255789
 20
354.4428043839
 41
5.0
 42
5.0
 43
5.0
  0
ENDBLK
  5
26F
100
AcDbEntity
  8
0
  6
BYBLOCK
 62
0
100
AcDbBlockEnd
  0
BLOCK
  5
270
100
AcDbEntity
  8
0
100
AcDbBlockBegin
 62
2
  6
CONTINUOUS
  2
*D2
 70
65
 10
0.0
 20
0.0
  3
*D2
  1

  0
MTEXT
  5
271
100
AcDbEntity
  8
0
100
AcDbMText
 62
2
  6
CONTINUOUS
  7
STANDARD
 71
2
 72
1
 10
228.6646362685
 20
333.3812721446
 30
0.0
 11
1.0
 21
0.0
 31
0.0
  1
136
 40
6.0
 41
13.9851301115
  0
LINE
  5
272
100
AcDbEntity
  8
0
100
AcDbLine
 62
2
  6
CONTINUOUS
 10
160.6653469582
 20
376.0501132129
 11
160.6653469582
 21
324.3812721446
  0
LINE
  5
273
100
AcDbEntity
  8
0
100
AcDbLine
 62
2
  6
CONTINUOUS
 10
296.6639255789
 20
347.6092244974
 11
296.6639255789
 21
324.3812721446
  0
LINE
  5
274
100
AcDbEntity
  8
0
100
AcDbLine
 62
2
  6
CONTINUOUS
 10
160.6653469582
 20
325.8812721446
 11
228.6646362685
 21
325.8812721446
  0
LINE
  5
275
100
AcDbEntity
  8
0
100
AcDbLine
 62
2
  6
CONTINUOUS
 10
296.6639255789
 20
325.8812721446
 11
228.6646362685
 21
325.8812721446
  0
INSERT
  5
276
100
AcDbEntity
  8
0
100
AcDbBlockReference
 62
2
  6
CONTINUOUS
  2
_CLOSED
 10
160.6653469582
 20
325.8812721446
 41
5.0
 42
5.0
 43
5.0
 50
180.0
  0
INSERT
  5
277
100
AcDbEntity
  8
0
100
AcDbBlockReference
 62
2
  6
CONTINUOUS
  2
_CLOSED
 10
296.6639255789
 20
325.8812721446
 41
5.0
 42
5.0
 43
5.0
  0
ENDBLK
  5
278
100
AcDbEntity
  8
0
  6
BYBLOCK
 62
0
100
AcDbBlockEnd
  0
BLOCK
  5
279
100
AcDbEntity
  8
0
100
AcDbBlockBegin
 62
2
  6
CONTINUOUS
  2
*D3
 70
65
 10
0.0
 20
0.0
  3
*D3
  1

  0
MTEXT
  5
27A
100
AcDbEntity
  8
0
100
AcDbMText
 62
2
  6
CONTINUOUS
  7
STANDARD
 71
2
 72
1
 10
127.582163903
 20
397.2259703058
 30
0.0
 11
0.0
 21
1.0
 31
0.0
  1
31,97
 40
6.0
 41
20.9665427509
  0
LINE
  5
27B
100
AcDbEntity
  8
0
100
AcDbLine
 62
2
  6
CONTINUOUS
 10
151.1985959833
 20
381.2400451521
 11
133.582163903
 21
381.2400451521
  0
LINE
  5
27C
100
AcDbEntity
  8
0
100
AcDbLine
 62
2
  6
CONTINUOUS
 10
151.1087164487
 20
413.2118954596
 11
133.582163903
 21
413.2118954596
  0
LINE
  5
27D
100
AcDbEntity
  8
0
100
AcDbLine
 62
2
  6
CONTINUOUS
 10
135.082163903
 20
381.2400451521
 11
135.082163903
 21
379.2400451521
  0
LINE
  5
27E
100
AcDbEntity
  8
0
100
AcDbLine
 62
2
  6
CONTINUOUS
 10
135.082163903
 20
379.2400451521
 11
135.082163903
 21
397.2259703058
  0
LINE
  5
27F
100
AcDbEntity
  8
0
100
AcDbLine
 62
2
  6
CONTINUOUS
 10
135.082163903
 20
413.2118954596
 11
135.082163903
 21
415.2118954596
  0
LINE
  5
280
100
AcDbEntity
  8
0
100
AcDbLine
 62
2
  6
CONTINUOUS
 10
135.082163903
 20
415.2118954596
 11
135.082163903
 21
397.2259703058
  0
INSERT
  5
281
100
AcDbEntity
  8
0
100
AcDbBlockReference
 62
2
  6
CONTINUOUS
  2
_CLOSED
 10
135.082163903
 20
381.2400451521
 41
5.0
 42
5.0
 43
5.0
 50
90.0
  0
INSERT
  5
282
100
AcDbEntity
  8
0
100
AcDbBlockReference
 62
2
  6
CONTINUOUS
  2
_CLOSED
 10
135.082163903
 20
413.2118954596
 41
5.0
 42
5.0
 43
5.0
 50
270.0
  0
ENDBLK
  5
283
100
AcDbEntity
  8
0
  6
BYBLOCK
 62
0
100
AcDbBlockEnd
  0
BLOCK
  5
284
100
AcDbEntity
  8
0
100
AcDbBlockBegin
 62
2
  6
CONTINUOUS
  2
*D4
 70
65
 10
0.0
 20
0.0
  3
*D4
  1

  0
MTEXT
  5
285
100
AcDbEntity
  8
0
100
AcDbMText
 62
2
  6
CONTINUOUS
  7
STANDARD
 71
2
 72
1
 10
98.7592815912
 20
410.6400451521
 30
0.0
 11
0.0
 21
1.0
 31
0.0
  1
58,8
 40
6.0
 41
16.3048327138
  0
LINE
  5
286
100
AcDbEntity
  8
0
100
AcDbLine
 62
2
  6
CONTINUOUS
 10
146.5736398574
 20
381.2400451521
 11
104.7592815912
 21
381.2400451521
  0
LINE
  5
287
100
AcDbEntity
  8
0
100
AcDbLine
 62
2
  6
CONTINUOUS
 10
147.1387944125
 20
440.0400451521
 11
104.7592815912
 21
440.0400451521
  0
LINE
  5
288
100
AcDbEntity
  8
0
100
AcDbLine
 62
2
  6
CONTINUOUS
 10
106.2592815912
 20
381.2400451521
 11
106.2592815912
 21
410.6400451521
  0
LINE
  5
289
100
AcDbEntity
  8
0
100
AcDbLine
 62
2
  6
CONTINUOUS
 10
106.2592815912
 20
440.0400451521
 11
106.2592815912
 21
410.6400451521
  0
INSERT
  5
28A
100
AcDbEntity
  8
0
100
AcDbBlockReference
 62
2
  6
CONTINUOUS
  2
_CLOSED
 10
106.2592815912
 20
381.2400451521
 41
5.0
 42
5.0
 43
5.0
 50
270.0
  0
INSERT
  5
28B
100
AcDbEntity
  8
0
100
AcDbBlockReference
 62
2
  6
CONTINUOUS
  2
_CLOSED
 10
106.2592815912
 20
440.0400451521
 41
5.0
 42
5.0
 43
5.0
 50
90.0
  0
ENDBLK
  5
28C
100
AcDbEntity
  8
0
  6
BYBLOCK
 62
0
100
AcDbBlockEnd
  0
BLOCK
  5
28D
100
AcDbEntity
  8
0
100
AcDbBlockBegin
 62
2
  6
CONTINUOUS
  2
*D5
 70
65
 10
0.0
 20
0.0
  3
*D5
  1

  0
MTEXT
  5
28E
100
AcDbEntity
  8
0
100
AcDbMText
 62
2
  6
CONTINUOUS
  7
STANDARD
 71
2
 72
1
 10
78.7904873098
 20
420.6400451521
 30
0.0
 11
0.0
 21
1.0
 31
0.0
  1
78,8
 40
6.0
 41
16.3048327138
  0
LINE
  5
28F
100
AcDbEntity
  8
0
100
AcDbLine
 62
2
  6
CONTINUOUS
 10
146.5736398574
 20
381.2400451521
 11
84.7904873098
 21
381.2400451521
  0
LINE
  5
290
100
AcDbEntity
  8
0
100
AcDbLine
 62
2
  6
CONTINUOUS
 10
146.5736398574
 20
460.0400451521
 11
84.7904873098
 21
460.0400451521
  0
LINE
  5
291
100
AcDbEntity
  8
0
100
AcDbLine
 62
2
  6
CONTINUOUS
 10
86.2904873098
 20
381.2400451521
 11
86.2904873098
 21
420.6400451521
  0
LINE
  5
292
100
AcDbEntity
  8
0
100
AcDbLine
 62
2
  6
CONTINUOUS
 10
86.2904873098
 20
460.0400451521
 11
86.2904873098
 21
420.6400451521
  0
INSERT
  5
293
100
AcDbEntity
  8
0
100
AcDbBlockReference
 62
2
  6
CONTINUOUS
  2
_CLOSED
 10
86.2904873098
 20
381.2400451521
 41
5.0
 42
5.0
 43
5.0
 50
270.0
  0
INSERT
  5
294
100
AcDbEntity
  8
0
100
AcDbBlockReference
 62
2
  6
CONTINUOUS
  2
_CLOSED
 10
86.2904873098
 20
460.0400451521
 41
5.0
 42
5.0
 43
5.0
 50
90.0
  0
ENDBLK
  5
295
100
AcDbEntity
  8
0
  6
BYBLOCK
 62
0
100
AcDbBlockEnd
  0
ENDSEC
  0
SECTION
  2
ENTITIES
  0
DIMENSION
  5
296
100
AcDbEntity
  8
0
100
AcDbDimension
 62
2
  6
CONTINUOUS
  2
*D0
 10
280.6653469582
 20
480.4504928897
 11
243.1653469582
 21
480.4504928897
 70
160
  1
%%c<>
  3
DIMSTYLE_1
100
AcDbAlignedDimension
 13
205.6653469582
 23
471.9753957224
 14
280.6653469582
 24
470.7979903992
100
AcDbRotatedDimension
  0
DIMENSION
  5
297
100
AcDbEntity
  8
0
100
AcDbDimension
 62
2
  6
CONTINUOUS
  2
*D1
 10
296.6639255789
 20
354.4428043839
 11
243.1639255789
 21
354.4428043839
 70
160
  1
%%c<>
  3
DIMSTYLE_1
100
AcDbAlignedDimension
 13
189.6639255789
 23
364.583869851
 14
296.6639255789
 24
365.702404908
100
AcDbRotatedDimension
  0
DIMENSION
  5
298
100
AcDbEntity
  8
0
100
AcDbDimension
 62
2
  6
CONTINUOUS
  2
*D2
 10
296.6639255789
 20
325.8812721446
 11
228.9224176025
 21
325.8812721446
 70
160
  3
DIMSTYLE_2
100
AcDbAlignedDimension
 13
160.6653469582
 23
376.8001132129
 14
296.6639255789
 24
348.3592244974
100
AcDbRotatedDimension
  0
DIMENSION
  5
299
100
AcDbEntity
  8
0
100
AcDbDimension
 62
2
  6
CONTINUOUS
  2
*D3
 10
135.082163903
 20
413.2118954596
 11
135.082163903
 21
397.2132419366
 70
160
  3
DIMSTYLE_1
100
AcDbAlignedDimension
 13
151.9485959833
 23
381.2400451521
 14
151.8587164487
 24
413.2118954596
 50
90.0
100
AcDbRotatedDimension
  0
DIMENSION
  5
29A
100
AcDbEntity
  8
0
100
AcDbDimension
 62
2
  6
CONTINUOUS
  2
*D4
 10
106.2592815912
 20
440.0400451521
 11
106.2592815912
 21
410.6099449518
 70
160
  3
DIMSTYLE_1
100
AcDbAlignedDimension
 13
147.3236398574
 23
381.2400451521
 14
147.8887944125
 24
440.0400451521
 50
90.0
100
AcDbRotatedDimension
  0
DIMENSION
  5
29B
100
AcDbEntity
  8
0
100
AcDbDimension
 62
2
  6
CONTINUOUS
  2
*D5
 10
86.2904873098
 20
460.0400451521
 11
86.2904873098
 21
420.6322511961
 70
160
  3
DIMSTYLE_1
100
AcDbAlignedDimension
 13
147.3236398574
 23
381.2400451521
 14
147.3236398574
 24
460.0400451521
 50
90.0
100
AcDbRotatedDimension
  0
LINE
  5
29C
100
AcDbEntity
  8
0
100
AcDbLine
 62
2
  6
CONTINUOUS
 10
639.6430377421
 20
100.8435840782
 11
819.6430377421
 21
100.8435840782
  0
LINE
  5
29D
100
AcDbEntity
  8
0
100
AcDbLine
 62
2
  6
CONTINUOUS
 10
639.6430377421
 20
100.8435840782
 11
639.6430377421
 21
20.8435840782
  0
LINE
  5
29E
100
AcDbEntity
  8
0
100
AcDbLine
 62
2
  6
CONTINUOUS
 10
699.6430377421
 20
88.8435840782
 11
819.6430377421
 21
88.8435840782
  0
LINE
  5
29F
100
AcDbEntity
  8
0
100
AcDbLine
 62
2
  6
CONTINUOUS
 10
699.6430377421
 20
76.8435840782
 11
819.6430377421
 21
76.8435840782
  0
LINE
  5
2A0
100
AcDbEntity
  8
0
100
AcDbLine
 62
2
  6
CONTINUOUS
 10
699.6430377421
 20
56.8435840782
 11
819.6430377421
 21
56.8435840782
  0
LINE
  5
2A1
100
AcDbEntity
  8
0
100
AcDbLine
 62
2
  6
CONTINUOUS
 10
639.6430377421
 20
46.8435840782
 11
819.6430377421
 21
46.8435840782
  0
LINE
  5
2A2
100
AcDbEntity
  8
0
100
AcDbLine
 62
2
  6
CONTINUOUS
 10
639.6430377421
 20
20.8435840782
 11
819.6430377421
 21
20.8435840782
  0
LINE
  5
2A3
100
AcDbEntity
  8
0
100
AcDbLine
 62
2
  6
CONTINUOUS
 10
699.6430377421
 20
100.8435840782
 11
699.6430377421
 21
46.8435840782
  0
LINE
  5
2A4
100
AcDbEntity
  8
0
100
AcDbLine
 62
2
  6
CONTINUOUS
 10
779.6430377421
 20
100.8435840782
 11
779.6430377421
 21
76.8435840782
  0
LINE
  5
2A5
100
AcDbEntity
  8
0
100
AcDbLine
 62
2
  6
CONTINUOUS
 10
819.6430377421
 20
100.8435840782
 11
819.6430377421
 21
20.8435840782
  0
INSERT
  5
2A6
100
AcDbEntity
  8
0
100
AcDbBlockReference
 62
2
  6
CONTINUOUS
  2
LOGO2_BL0
 10
667.2951318317
 20
73.8435840782
  0
MTEXT
  5
2A7
100
AcDbEntity
  8
9_SOLID
100
AcDbMText
 62
2
  6
CONTINUOUS
  7
TEXTSTYLE_3
 71
1
 72
1
 10
702.6180377421
 20
97.8435840782
 30
0.0
 11
1.0
 21
0.0
 31
0.0
  1
CWD_C_040
 40
6.0
 41
72.4285714286
  0
MTEXT
  5
2A8
100
AcDbEntity
  8
0
100
AcDbMText
 62
2
  6
CONTINUOUS
  7
TEXTSTYLE_3
 71
1
 72
1
 10
782.6180377421
 20
98.3435840782
 30
0.0
 11
1.0
 21
0.0
 31
0.0
  1
Rev:00
 40
7.0
 41
45.5
  0
MTEXT
  5
2A9
100
AcDbEntity
  8
9_SOLID
100
AcDbMText
 62
2
  6
CONTINUOUS
  7
TEXTSTYLE_3
 71
1
 72
1
 10
702.6180377421
 20
85.3435840782
 30
0.0
 11
1.0
 21
0.0
 31
0.0
  1
Scale:1:2
 40
7.0
 41
59.0
  0
MTEXT
  5
2AA
100
AcDbEntity
  8
9_SOLID
100
AcDbMText
 62
2
  6
CONTINUOUS
  7
TEXTSTYLE_3
 71
1
 72
1
 10
782.6180377421
 20
86.3435840782
 30
0.0
 11
1.0
 21
0.0
 31
0.0
  1
A3
 40
7.0
 41
18.5
  0
MTEXT
  5
2AB
100
AcDbEntity
  8
0
100
AcDbMText
 62
2
  6
CONTINUOUS
  7
TEXTSTYLE_3
 71
1
 72
1
 10
702.6180377421
 20
69.8435840782
 30
0.0
 11
1.0
 21
0.0
 31
0.0
  1
CASS. BASSA BRIGHT 3 316L
 40
6.0
 41
173.7857142857
  0
MTEXT
  5
2AC
100
AcDbEntity
  8
0
100
AcDbMText
 62
2
  6
CONTINUOUS
  7
TEXTSTYLE_3
 71
1
 72
1
 10
702.6180377421
 20
54.3435840782
 30
0.0
 11
1.0
 21
0.0
 31
0.0
  1
DATE:27/07/2018
 40
5.0
 41
86.0714285714
  0
MTEXT
  5
2AD
100
AcDbEntity
  8
9_SOLID
100
AcDbMText
 62
2
  6
CONTINUOUS
  7
TEXTSTYLE_3
 71
1
 72
1
 10
642.6180377421
 20
46.2185840782
 30
0.0
 11
1.0
 21
0.0
 31
0.0
  1
Any integral or partial reproductions are prohibited \Pwithout prior authorisation of L {\Ftxt.shx;\W0.190476;\H4.500000; }& L Luce & Light s.r.l., \Pin accordance with the law in force. \PAll rights reserved.
 40
4.5
 41
269.1964285714
  0
LINE
  5
2AE
100
AcDbEntity
  8
0
100
AcDbLine
 62
7
  6
CONTINUOUS
 10
0.0
 20
0.0
 11
0.0
 21
594.0
  0
LINE
  5
2AF
100
AcDbEntity
  8
0
100
AcDbLine
 62
7
  6
CONTINUOUS
 10
0.0
 20
0.0
 11
840.0
 21
0.0
  0
LINE
  5
2B0
100
AcDbEntity
  8
0
100
AcDbLine
 62
7
  6
CONTINUOUS
 10
0.0
 20
594.0
 11
840.0
 21
594.0
  0
LINE
  5
2B1
100
AcDbEntity
  8
0
100
AcDbLine
 62
7
  6
CONTINUOUS
 10
840.0
 20
0.0
 11
840.0
 21
594.0
  0
LINE
  5
2B2
100
AcDbEntity
  8
02___PRT_ALL_AXES
100
AcDbLine
 62
7
  6
CONTINUOUS
 10
160.6653469582
 20
411.8655451521
 11
160.6653469582
 21
384.6145451521
  0
LINE
  5
2B3
100
AcDbEntity
  8
02___PRT_ALL_AXES
100
AcDbLine
 62
7
  6
CONTINUOUS
 10
163.1653469582
 20
411.8655451521
 11
163.1653469582
 21
384.6145451521
  0
LINE
  5
2B4
100
AcDbEntity
  8
02___PRT_ALL_AXES
100
AcDbLine
 62
7
  6
CONTINUOUS
 10
164.6653469582
 20
383.2681948446
 11
164.6653469582
 21
413.2118954596
  0
LINE
  5
2B5
100
AcDbEntity
  8
02___PRT_ALL_AXES
100
AcDbLine
 62
7
  6
CONTINUOUS
 10
183.8653469582
 20
383.2681948446
 11
183.8653469582
 21
413.2118954596
  0
LINE
  5
2B6
100
AcDbEntity
  8
02___PRT_ALL_AXES
100
AcDbLine
 62
7
  6
CONTINUOUS
 10
184.1653469582
 20
383.2681948446
 11
184.1653469582
 21
413.2118954596
  0
LINE
  5
2B7
100
AcDbEntity
  8
6_ALL_SURFS
100
AcDbLine
 62
7
  6
CONTINUOUS
 10
190.1871814738
 20
381.2400451521
 11
190.0649960193
 21
388.2400451521
  0
LINE
  5
2B8
100
AcDbEntity
  8
6_ALL_SURFS
100
AcDbLine
 62
7
  6
CONTINUOUS
 10
189.7158947207
 20
408.2400451521
 11
189.6653469582
 21
411.135924529
  0
LINE
  5
2B9
100
AcDbEntity
  8
6_ALL_SURFS
100
AcDbLine
 62
7
  6
CONTINUOUS
 10
189.6639255789
 20
426.2400451521
 11
189.6639255789
 21
413.2118954596
  0
LINE
  5
2BA
100
AcDbEntity
  8
3_ALL_AXES
100
AcDbLine
 62
7
  6
CONTINUOUS
 10
189.6653469582
 20
440.0400451521
 11
189.6653469582
 21
437.1400451521
  0
LINE
  5
2BB
100
AcDbEntity
  8
3_ALL_AXES
100
AcDbLine
 62
7
  6
CONTINUOUS
 10
189.6653469582
 20
429.1400451521
 11
189.6653469582
 21
426.2400451521
  0
LINE
  5
2BC
100
AcDbEntity
  8
02___PRT_ALL_AXES
100
AcDbLine
 62
7
  6
CONTINUOUS
 10
189.6653469582
 20
383.2681948446
 11
189.6653469582
 21
413.2118954596
  0
LINE
  5
2BD
100
AcDbEntity
  8
7_ALL_FEATURES
100
AcDbLine
 62
7
  6
CONTINUOUS
 10
191.6653469582
 20
437.1400451521
 11
191.6653469582
 21
429.1400451521
  0
LINE
  5
2BE
100
AcDbEntity
  8
6_ALL_SURFS
100
AcDbLine
 62
7
  6
CONTINUOUS
 10
296.1402527818
 20
381.2400451521
 11
190.187598376
 21
381.2400451521
  0
LINE
  5
2BF
100
AcDbEntity
  8
6_ALL_SURFS
100
AcDbLine
 62
7
  6
CONTINUOUS
 10
257.1639255789
 20
383.2400451521
 11
229.1639255789
 21
383.2400451521
  0
LINE
  5
2C0
100
AcDbEntity
  8
02___PRT_ALL_AXES
100
AcDbLine
 62
7
  6
CONTINUOUS
 10
189.6653469582
 20
383.2681948446
 11
184.1653469582
 21
383.2681948446
  0
LINE
  5
2C1
100
AcDbEntity
  8
02___PRT_ALL_AXES
100
AcDbLine
 62
7
  6
CONTINUOUS
 10
164.6653469582
 20
383.2681948446
 11
183.8653469582
 21
383.2681948446
  0
LINE
  5
2C2
100
AcDbEntity
  8
6_ALL_SURFS
100
AcDbLine
 62
7
  6
CONTINUOUS
 10
229.1639255789
 20
384.2400451521
 11
230.1639255789
 21
384.2400451521
  0
LINE
  5
2C3
100
AcDbEntity
  8
6_ALL_SURFS
100
AcDbLine
 62
7
  6
CONTINUOUS
 10
256.1639255789
 20
384.2400451521
 11
257.1639255789
 21
384.2400451521
  0
LINE
  5
2C4
100
AcDbEntity
  8
02___PRT_ALL_AXES
100
AcDbLine
 62
7
  6
CONTINUOUS
 10
164.6653469582
 20
384.2925004977
 11
183.8653469582
 21
384.2925004977
  0
LINE
  5
2C5
100
AcDbEntity
  8
02___PRT_ALL_AXES
100
AcDbLine
 62
7
  6
CONTINUOUS
 10
163.1653469582
 20
384.6145451521
 11
160.6653469582
 21
384.6145451521
  0
LINE
  5
2C6
100
AcDbEntity
  8
02___PRT_ALL_AXES
100
AcDbLine
 62
7
  6
CONTINUOUS
 10
164.6653469582
 20
386.2555843906
 11
183.8653469582
 21
386.2555843906
  0
LINE
  5
2C7
100
AcDbEntity
  8
02___PRT_ALL_AXES
100
AcDbLine
 62
7
  6
CONTINUOUS
 10
189.6653469582
 20
387.2798900437
 11
184.1653469582
 21
387.2798900437
  0
LINE
  5
2C8
100
AcDbEntity
  8
02___PRT_ALL_AXES
100
AcDbLine
 62
7
  6
CONTINUOUS
 10
190.0649962947
 20
388.2400451521
 11
189.6653469582
 21
388.2400451521
  0
LINE
  5
2C9
100
AcDbEntity
  8
02___PRT_ALL_AXES
100
AcDbLine
 62
7
  6
CONTINUOUS
 10
164.6653469582
 20
389.0540394774
 11
183.8653469582
 21
389.0540394774
  0
LINE
  5
2CA
100
AcDbEntity
  8
02___PRT_ALL_AXES
100
AcDbLine
 62
7
  6
CONTINUOUS
 10
184.1653469582
 20
389.6680451521
 11
183.8653469582
 21
389.6680451521
  0
LINE
  5
2CB
100
AcDbEntity
  8
02___PRT_ALL_AXES
100
AcDbLine
 62
7
  6
CONTINUOUS
 10
164.6653469582
 20
411.3115626389
 11
163.1653469582
 21
411.8655451521
  0
LINE
  5
2CC
100
AcDbEntity
  8
02___PRT_ALL_AXES
100
AcDbLine
 62
7
  6
CONTINUOUS
 10
164.6653469582
 20
392.4542005193
 11
183.8653469582
 21
392.4542005193
  0
LINE
  5
2CD
100
AcDbEntity
  8
02___PRT_ALL_AXES
100
AcDbLine
 62
7
  6
CONTINUOUS
 10
189.6653469582
 20
394.228349953
 11
184.1653469582
 21
394.228349953
  0
LINE
  5
2CE
100
AcDbEntity
  8
3_ALL_AXES
100
AcDbLine
 62
7
  6
CONTINUOUS
 10
205.6653469582
 20
460.0400451521
 11
205.6653469582
 21
440.0400451521
  0
LINE
  5
2CF
100
AcDbEntity
  8
02___PRT_ALL_AXES
100
AcDbLine
 62
7
  6
CONTINUOUS
 10
164.6653469582
 20
396.2769612592
 11
183.8653469582
 21
396.2769612592
  0
LINE
  5
2D0
100
AcDbEntity
  8
02___PRT_ALL_AXES
100
AcDbLine
 62
7
  6
CONTINUOUS
 10
164.6653469582
 20
400.2031290449
 11
183.8653469582
 21
400.2031290449
  0
LINE
  5
2D1
100
AcDbEntity
  8
02___PRT_ALL_AXES
100
AcDbLine
 62
7
  6
CONTINUOUS
 10
189.6653469582
 20
402.2517403512
 11
184.1653469582
 21
402.2517403512
  0
LINE
  5
2D2
100
AcDbEntity
  8
02___PRT_ALL_AXES
100
AcDbLine
 62
7
  6
CONTINUOUS
 10
164.6653469582
 20
404.0258897849
 11
183.8653469582
 21
404.0258897849
  0
LINE
  5
2D3
100
AcDbEntity
  8
02___PRT_ALL_AXES
100
AcDbLine
 62
7
  6
CONTINUOUS
 10
184.1653469582
 20
406.8120451521
 11
183.8653469582
 21
406.8120451521
  0
LINE
  5
2D4
100
AcDbEntity
  8
02___PRT_ALL_AXES
100
AcDbLine
 62
7
  6
CONTINUOUS
 10
164.6653469582
 20
407.4260508268
 11
183.8653469582
 21
407.4260508268
  0
LINE
  5
2D5
100
AcDbEntity
  8
02___PRT_ALL_AXES
100
AcDbLine
 62
7
  6
CONTINUOUS
 10
189.7158992096
 20
408.2400451521
 11
189.6653469582
 21
408.2400451521
  0
LINE
  5
2D6
100
AcDbEntity
  8
02___PRT_ALL_AXES
100
AcDbLine
 62
7
  6
CONTINUOUS
 10
189.6653469582
 20
409.2002002605
 11
184.1653469582
 21
409.2002002605
  0
LINE
  5
2D7
100
AcDbEntity
  8
02___PRT_ALL_AXES
100
AcDbLine
 62
7
  6
CONTINUOUS
 10
164.6653469582
 20
410.2245059136
 11
183.8653469582
 21
410.2245059136
  0
LINE
  5
2D8
100
AcDbEntity
  8
3_ALL_AXES
100
AcDbLine
 62
7
  6
CONTINUOUS
 10
296.6639255789
 20
411.2173552958
 11
243.9606696696
 21
411.2173552958
  0
LINE
  5
2D9
100
AcDbEntity
  8
3_ALL_AXES
100
AcDbLine
 62
7
  6
CONTINUOUS
 10
242.3671814881
 20
411.2173552958
 11
189.6653469582
 21
411.2173552958
  0
LINE
  5
2DA
100
AcDbEntity
  8
02___PRT_ALL_AXES
100
AcDbLine
 62
7
  6
CONTINUOUS
 10
163.1653469582
 20
411.8655451521
 11
160.6653469582
 21
411.8655451521
  0
LINE
  5
2DB
100
AcDbEntity
  8
02___PRT_ALL_AXES
100
AcDbLine
 62
7
  6
CONTINUOUS
 10
164.6653469582
 20
412.1875898065
 11
183.8653469582
 21
412.1875898065
  0
LINE
  5
2DC
100
AcDbEntity
  8
02___PRT_ALL_AXES
100
AcDbLine
 62
7
  6
CONTINUOUS
 10
189.6653469582
 20
413.2118954596
 11
184.1653469582
 21
413.2118954596
  0
LINE
  5
2DD
100
AcDbEntity
  8
02___PRT_ALL_AXES
100
AcDbLine
 62
7
  6
CONTINUOUS
 10
164.6653469582
 20
413.2118954596
 11
183.8653469582
 21
413.2118954596
  0
LINE
  5
2DE
100
AcDbEntity
  8
6_ALL_SURFS
100
AcDbLine
 62
7
  6
CONTINUOUS
 10
229.1639255789
 20
381.2400451521
 11
229.1639255789
 21
397.2400451521
  0
LINE
  5
2DF
100
AcDbEntity
  8
6_ALL_SURFS
100
AcDbLine
 62
7
  6
CONTINUOUS
 10
230.1639255789
 20
397.2400451521
 11
230.1639255789
 21
384.2400451521
  0
LINE
  5
2E0
100
AcDbEntity
  8
7_ALL_FEATURES
100
AcDbLine
 62
7
  6
CONTINUOUS
 10
296.6649111675
 20
426.2400451521
 11
189.6683188651
 21
426.2400451521
  0
LINE
  5
2E1
100
AcDbEntity
  8
3_ALL_AXES
100
AcDbLine
 62
7
  6
CONTINUOUS
 10
189.664091953
 20
426.2400451521
 11
296.6637596316
 21
426.2400451521
  0
LINE
  5
2E2
100
AcDbEntity
  8
02___PRT_ALL_AXES
100
AcDbLine
 62
7
  6
CONTINUOUS
 10
164.6653469582
 20
385.1685276653
 11
163.1653469582
 21
384.6145451521
  0
LINE
  5
2E3
100
AcDbEntity
  8
7_ALL_FEATURES
100
AcDbLine
 62
7
  6
CONTINUOUS
 10
296.6649111675
 20
429.1400451521
 11
189.6657827489
 21
429.1400451521
  0
LINE
  5
2E4
100
AcDbEntity
  8
6_ALL_SURFS
100
AcDbLine
 62
7
  6
CONTINUOUS
 10
242.1640975345
 20
410.2015559024
 11
242.1637536101
 21
411.2042749242
  0
LINE
  5
2E5
100
AcDbEntity
  8
6_ALL_SURFS
100
AcDbLine
 62
7
  6
CONTINUOUS
 10
244.1640975476
 20
411.2042749242
 11
244.1637536234
 21
410.2015561688
  0
LINE
  5
2E6
100
AcDbEntity
  8
7_ALL_FEATURES
100
AcDbLine
 62
7
  6
CONTINUOUS
 10
296.6649111675
 20
437.1400451521
 11
189.6657827489
 21
437.1400451521
  0
LINE
  5
2E7
100
AcDbEntity
  8
3_ALL_AXES
100
AcDbLine
 62
7
  6
CONTINUOUS
 10
189.6653469582
 20
440.0400451521
 11
296.6653469582
 21
440.0400451521
  0
LINE
  5
2E8
100
AcDbEntity
  8
6_ALL_SURFS
100
AcDbLine
 62
7
  6
CONTINUOUS
 10
256.1639255789
 20
384.2400451521
 11
256.1639255789
 21
397.2400451521
  0
LINE
  5
2E9
100
AcDbEntity
  8
6_ALL_SURFS
100
AcDbLine
 62
7
  6
CONTINUOUS
 10
257.1639255789
 20
397.2400451521
 11
257.1639255789
 21
381.2400451521
  0
LINE
  5
2EA
100
AcDbEntity
  8
3_ALL_AXES
100
AcDbLine
 62
7
  6
CONTINUOUS
 10
205.6653469582
 20
460.0400451521
 11
280.6653469582
 21
460.0400451521
  0
LINE
  5
2EB
100
AcDbEntity
  8
3_ALL_AXES
100
AcDbLine
 62
7
  6
CONTINUOUS
 10
280.6653469582
 20
460.0400451521
 11
280.6653469582
 21
440.0400451521
  0
LINE
  5
2EC
100
AcDbEntity
  8
7_ALL_FEATURES
100
AcDbLine
 62
7
  6
CONTINUOUS
 10
294.6653469582
 20
437.1400451521
 11
294.6653469582
 21
429.1400451521
  0
LINE
  5
2ED
100
AcDbEntity
  8
6_ALL_SURFS
100
AcDbLine
 62
7
  6
CONTINUOUS
 10
296.6639255789
 20
426.2400451521
 11
296.6639255789
 21
411.2173552958
  0
LINE
  5
2EE
100
AcDbEntity
  8
3_ALL_AXES
100
AcDbLine
 62
7
  6
CONTINUOUS
 10
296.6653469582
 20
440.0400451521
 11
296.6653469582
 21
437.1400451521
  0
LINE
  5
2EF
100
AcDbEntity
  8
3_ALL_AXES
100
AcDbLine
 62
7
  6
CONTINUOUS
 10
296.6653469582
 20
429.1400451521
 11
296.6653469582
 21
426.2400451521
  0
LINE
  5
2F0
100
AcDbEntity
  8
6_ALL_SURFS
100
AcDbLine
 62
7
  6
CONTINUOUS
 10
296.140669684
 20
381.2400451521
 11
296.6639255789
 21
411.2173552958
  0
LINE
  5
2F1
100
AcDbEntity
  8
02___PRT_ALL_AXES
100
AcDbLine
 62
7
  6
CONTINUOUS
 10
160.6653469582
 20
218.5944610705
 11
160.6653469582
 21
191.3437803757
  0
LINE
  5
2F2
100
AcDbEntity
  8
02___PRT_ALL_AXES
100
AcDbLine
 62
7
  6
CONTINUOUS
 10
163.1653469582
 20
191.3436207231
 11
163.1653469582
 21
218.5946207231
  0
LINE
  5
2F3
100
AcDbEntity
  8
02___PRT_ALL_AXES
100
AcDbLine
 62
7
  6
CONTINUOUS
 10
164.6653469582
 20
189.9972704156
 11
164.6653469582
 21
219.9409710306
  0
LINE
  5
2F4
100
AcDbEntity
  8
02___PRT_ALL_AXES
100
AcDbLine
 62
7
  6
CONTINUOUS
 10
183.8653469582
 20
189.9972704156
 11
183.8653469582
 21
219.9409710306
  0
LINE
  5
2F5
100
AcDbEntity
  8
02___PRT_ALL_AXES
100
AcDbLine
 62
7
  6
CONTINUOUS
 10
184.1653469582
 20
189.9972704156
 11
184.1653469582
 21
219.9409710306
  0
LINE
  5
2F6
100
AcDbEntity
  8
02___PRT_ALL_AXES
100
AcDbLine
 62
7
  6
CONTINUOUS
 10
189.6653469582
 20
189.9972704156
 11
189.6653469582
 21
219.9409710306
  0
LINE
  5
2F7
100
AcDbEntity
  8
7_ALL_FEATURES
100
AcDbLine
 62
7
  6
CONTINUOUS
 10
191.6653469582
 20
219.9802277221
 11
191.6653469582
 21
219.4301226865
  0
LINE
  5
2F8
100
AcDbEntity
  8
7_ALL_FEATURES
100
AcDbLine
 62
7
  6
CONTINUOUS
 10
191.6653469582
 20
190.5081187597
 11
191.6653469582
 21
189.9580137242
  0
LINE
  5
2F9
100
AcDbEntity
  8
7_ALL_FEATURES
100
AcDbLine
 62
7
  6
CONTINUOUS
 10
191.6653469582
 20
189.9580137242
 11
191.8317324774
 21
189.9580137242
  0
LINE
  5
2FA
100
AcDbEntity
  8
02___PRT_ALL_AXES
100
AcDbLine
 62
7
  6
CONTINUOUS
 10
189.6653469582
 20
189.9972704156
 11
184.1653469582
 21
189.9972704156
  0
LINE
  5
2FB
100
AcDbEntity
  8
02___PRT_ALL_AXES
100
AcDbLine
 62
7
  6
CONTINUOUS
 10
164.6653469582
 20
189.9972704156
 11
183.8653469582
 21
189.9972704156
  0
LINE
  5
2FC
100
AcDbEntity
  8
02___PRT_ALL_AXES
100
AcDbLine
 62
7
  6
CONTINUOUS
 10
164.6653469582
 20
191.0215760688
 11
183.8653469582
 21
191.0215760688
  0
LINE
  5
2FD
100
AcDbEntity
  8
02___PRT_ALL_AXES
100
AcDbLine
 62
7
  6
CONTINUOUS
 10
160.6653469582
 20
191.3436207231
 11
163.1653469582
 21
191.3436207231
  0
LINE
  5
2FE
100
AcDbEntity
  8
02___PRT_ALL_AXES
100
AcDbLine
 62
7
  6
CONTINUOUS
 10
164.6653469582
 20
192.9846599616
 11
183.8653469582
 21
192.9846599616
  0
LINE
  5
2FF
100
AcDbEntity
  8
02___PRT_ALL_AXES
100
AcDbLine
 62
7
  6
CONTINUOUS
 10
189.6653469582
 20
194.0089656147
 11
184.1653469582
 21
194.0089656147
  0
LINE
  5
300
100
AcDbEntity
  8
02___PRT_ALL_AXES
100
AcDbLine
 62
7
  6
CONTINUOUS
 10
163.1653469582
 20
191.3436207231
 11
164.6653469582
 21
191.8976032363
  0
LINE
  5
301
100
AcDbEntity
  8
02___PRT_ALL_AXES
100
AcDbLine
 62
7
  6
CONTINUOUS
 10
189.6653469582
 20
194.9691207231
 11
190.6161288305
 21
194.9691207231
  0
LINE
  5
302
100
AcDbEntity
  8
02___PRT_ALL_AXES
100
AcDbLine
 62
7
  6
CONTINUOUS
 10
164.6653469582
 20
195.7831150484
 11
183.8653469582
 21
195.7831150484
  0
LINE
  5
303
100
AcDbEntity
  8
02___PRT_ALL_AXES
100
AcDbLine
 62
7
  6
CONTINUOUS
 10
183.8653469582
 20
196.3971207231
 11
184.1653469582
 21
196.3971207231
  0
LINE
  5
304
100
AcDbEntity
  8
02___PRT_ALL_AXES
100
AcDbLine
 62
7
  6
CONTINUOUS
 10
164.6653469582
 20
199.1832760904
 11
183.8653469582
 21
199.1832760904
  0
LINE
  5
305
100
AcDbEntity
  8
02___PRT_ALL_AXES
100
AcDbLine
 62
7
  6
CONTINUOUS
 10
163.1653469582
 20
218.5946207231
 11
164.6653469582
 21
218.0406382099
  0
LINE
  5
306
100
AcDbEntity
  8
7_ALL_FEATURES
100
AcDbLine
 62
7
  6
CONTINUOUS
 10
258.9208496271
 20
207.7474915658
 11
257.9360418741
 21
207.5738433881
  0
LINE
  5
307
100
AcDbEntity
  8
6_ALL_SURFS
100
AcDbLine
 62
7
  6
CONTINUOUS
 10
227.4070015307
 20
202.1907498805
 11
228.3918092837
 21
202.3643980581
  0
LINE
  5
308
100
AcDbEntity
  8
02___PRT_ALL_AXES
100
AcDbLine
 62
7
  6
CONTINUOUS
 10
189.6653469582
 20
200.957425524
 11
184.1653469582
 21
200.957425524
  0
LINE
  5
309
100
AcDbEntity
  8
02___PRT_ALL_AXES
100
AcDbLine
 62
7
  6
CONTINUOUS
 10
164.6653469582
 20
203.0060368303
 11
183.8653469582
 21
203.0060368303
  0
LINE
  5
30A
100
AcDbEntity
  8
02___PRT_ALL_AXES
100
AcDbLine
 62
7
  6
CONTINUOUS
 10
164.6653469582
 20
206.932204616
 11
183.8653469582
 21
206.932204616
  0
LINE
  5
30B
100
AcDbEntity
  8
02___PRT_ALL_AXES
100
AcDbLine
 62
7
  6
CONTINUOUS
 10
189.6653469582
 20
208.9808159222
 11
184.1653469582
 21
208.9808159222
  0
LINE
  5
30C
100
AcDbEntity
  8
02___PRT_ALL_AXES
100
AcDbLine
 62
7
  6
CONTINUOUS
 10
164.6653469582
 20
210.7549653559
 11
183.8653469582
 21
210.7549653559
  0
LINE
  5
30D
100
AcDbEntity
  8
6_ALL_SURFS
100
AcDbLine
 62
7
  6
CONTINUOUS
 10
228.3918092837
 20
207.5738433881
 11
227.4070015307
 21
207.7474915658
  0
LINE
  5
30E
100
AcDbEntity
  8
6_ALL_SURFS
100
AcDbLine
 62
7
  6
CONTINUOUS
 10
257.9360418741
 20
202.3643980581
 11
258.9208496271
 21
202.1907498805
  0
LINE
  5
30F
100
AcDbEntity
  8
02___PRT_ALL_AXES
100
AcDbLine
 62
7
  6
CONTINUOUS
 10
183.8653469582
 20
213.5411207231
 11
184.1653469582
 21
213.5411207231
  0
LINE
  5
310
100
AcDbEntity
  8
02___PRT_ALL_AXES
100
AcDbLine
 62
7
  6
CONTINUOUS
 10
164.6653469582
 20
214.1551263978
 11
183.8653469582
 21
214.1551263978
  0
LINE
  5
311
100
AcDbEntity
  8
02___PRT_ALL_AXES
100
AcDbLine
 62
7
  6
CONTINUOUS
 10
189.6653469582
 20
214.9691207231
 11
190.6161288305
 21
214.9691207231
  0
LINE
  5
312
100
AcDbEntity
  8
02___PRT_ALL_AXES
100
AcDbLine
 62
7
  6
CONTINUOUS
 10
189.6653469582
 20
215.9292758315
 11
184.1653469582
 21
215.9292758315
  0
LINE
  5
313
100
AcDbEntity
  8
02___PRT_ALL_AXES
100
AcDbLine
 62
7
  6
CONTINUOUS
 10
164.6653469582
 20
216.9535814846
 11
183.8653469582
 21
216.9535814846
  0
LINE
  5
314
100
AcDbEntity
  8
6_ALL_SURFS
100
AcDbLine
 62
7
  6
CONTINUOUS
 10
240.5592029139
 20
190.1970044279
 11
240.3855547362
 21
189.2121966749
  0
LINE
  5
315
100
AcDbEntity
  8
7_ALL_FEATURES
100
AcDbLine
 62
7
  6
CONTINUOUS
 10
245.7686482439
 20
219.7412370183
 11
245.9422964215
 21
220.7260447713
  0
LINE
  5
316
100
AcDbEntity
  8
02___PRT_ALL_AXES
100
AcDbLine
 62
7
  6
CONTINUOUS
 10
160.6653469582
 20
218.5946207231
 11
163.1653469582
 21
218.5946207231
  0
LINE
  5
317
100
AcDbEntity
  8
02___PRT_ALL_AXES
100
AcDbLine
 62
7
  6
CONTINUOUS
 10
164.6653469582
 20
218.9166653775
 11
183.8653469582
 21
218.9166653775
  0
LINE
  5
318
100
AcDbEntity
  8
02___PRT_ALL_AXES
100
AcDbLine
 62
7
  6
CONTINUOUS
 10
189.6653469582
 20
219.9409710306
 11
184.1653469582
 21
219.9409710306
  0
LINE
  5
319
100
AcDbEntity
  8
02___PRT_ALL_AXES
100
AcDbLine
 62
7
  6
CONTINUOUS
 10
164.6653469582
 20
219.9409710306
 11
183.8653469582
 21
219.9409710306
  0
LINE
  5
31A
100
AcDbEntity
  8
7_ALL_FEATURES
100
AcDbLine
 62
7
  6
CONTINUOUS
 10
191.6653469582
 20
219.9802277221
 11
191.8317324774
 21
219.9802277221
  0
LINE
  5
31B
100
AcDbEntity
  8
6_ALL_SURFS
100
AcDbLine
 62
7
  6
CONTINUOUS
 10
240.3855547362
 20
220.7260447713
 11
240.5592029139
 21
219.7412370183
  0
LINE
  5
31C
100
AcDbEntity
  8
6_ALL_SURFS
100
AcDbLine
 62
7
  6
CONTINUOUS
 10
245.9422964215
 20
189.2121966749
 11
245.7686482439
 21
190.1970044279
  0
LINE
  5
31D
100
AcDbEntity
  8
3_ALL_AXES
100
AcDbLine
 62
7
  6
CONTINUOUS
 10
456.3605109308
 20
411.2400450799
 11
456.3605109308
 21
426.2400451521
  0
LINE
  5
31E
100
AcDbEntity
  8
7_ALL_FEATURES
100
AcDbLine
 62
7
  6
CONTINUOUS
 10
456.8605109309
 20
426.2400451521
 11
456.8605109309
 21
429.1400451521
  0
LINE
  5
31F
100
AcDbEntity
  8
7_ALL_FEATURES
100
AcDbLine
 62
7
  6
CONTINUOUS
 10
456.8605109309
 20
437.1400451521
 11
456.8605109309
 21
440.0400451521
  0
LINE
  5
320
100
AcDbEntity
  8
3_ALL_AXES
100
AcDbLine
 62
7
  6
CONTINUOUS
 10
456.8698306225
 20
426.2400451521
 11
456.8698306225
 21
411.2173552958
  0
LINE
  5
321
100
AcDbEntity
  8
7_ALL_FEATURES
100
AcDbLine
 62
7
  6
CONTINUOUS
 10
458.8605109309
 20
437.1400451521
 11
458.8605109309
 21
429.1400451521
  0
LINE
  5
322
100
AcDbEntity
  8
6_ALL_SURFS
100
AcDbLine
 62
7
  6
CONTINUOUS
 10
561.4539098781
 20
381.2400451521
 11
459.2671119837
 21
381.2400451521
  0
LINE
  5
323
100
AcDbEntity
  8
3_ALL_AXES
100
AcDbLine
 62
7
  6
CONTINUOUS
 10
472.8605109309
 20
440.0400451521
 11
472.8605109309
 21
460.0400451521
  0
LINE
  5
324
100
AcDbEntity
  8
02___PRT_ALL_AXES
100
AcDbLine
 62
7
  6
CONTINUOUS
 10
506.3488157318
 20
383.2681948446
 11
514.37220613
 21
383.2681948446
  0
LINE
  5
325
100
AcDbEntity
  8
02___PRT_ALL_AXES
100
AcDbLine
 62
7
  6
CONTINUOUS
 10
499.4003558225
 20
387.2798900437
 11
506.3488157318
 21
383.2681948446
  0
LINE
  5
326
100
AcDbEntity
  8
02___PRT_ALL_AXES
100
AcDbLine
 62
7
  6
CONTINUOUS
 10
495.3886606234
 20
394.228349953
 11
499.4003558225
 21
387.2798900437
  0
LINE
  5
327
100
AcDbEntity
  8
02___PRT_ALL_AXES
100
AcDbLine
 62
7
  6
CONTINUOUS
 10
495.3886606234
 20
402.2517403512
 11
495.3886606234
 21
394.228349953
  0
LINE
  5
328
100
AcDbEntity
  8
3_ALL_AXES
100
AcDbLine
 62
7
  6
CONTINUOUS
 10
563.8545778809
 20
411.2173552958
 11
517.8268510313
 21
411.2173552958
  0
LINE
  5
329
100
AcDbEntity
  8
3_ALL_AXES
100
AcDbLine
 62
7
  6
CONTINUOUS
 10
502.8941708304
 20
411.2173552958
 11
456.8698306225
 21
411.2173552958
  0
LINE
  5
32A
100
AcDbEntity
  8
02___PRT_ALL_AXES
100
AcDbLine
 62
7
  6
CONTINUOUS
 10
514.37220613
 20
413.2118954596
 11
506.3488157318
 21
413.2118954596
  0
LINE
  5
32B
100
AcDbEntity
  8
02___PRT_ALL_AXES
100
AcDbLine
 62
7
  6
CONTINUOUS
 10
521.3206660393
 20
409.2002002605
 11
514.37220613
 21
413.2118954596
  0
LINE
  5
32C
100
AcDbEntity
  8
02___PRT_ALL_AXES
100
AcDbLine
 62
7
  6
CONTINUOUS
 10
499.4003558225
 20
409.2002002605
 11
495.3886606234
 21
402.2517403512
  0
LINE
  5
32D
100
AcDbEntity
  8
02___PRT_ALL_AXES
100
AcDbLine
 62
7
  6
CONTINUOUS
 10
506.3488157318
 20
413.2118954596
 11
499.4003558225
 21
409.2002002605
  0
LINE
  5
32E
100
AcDbEntity
  8
02___PRT_ALL_AXES
100
AcDbLine
 62
7
  6
CONTINUOUS
 10
525.3323612383
 20
402.2517403512
 11
521.3206660393
 21
409.2002002605
  0
LINE
  5
32F
100
AcDbEntity
  8
7_ALL_FEATURES
100
AcDbLine
 62
7
  6
CONTINUOUS
 10
563.8605109309
 20
426.2400451521
 11
456.8605109309
 21
426.2400451521
  0
LINE
  5
330
100
AcDbEntity
  8
3_ALL_AXES
100
AcDbLine
 62
7
  6
CONTINUOUS
 10
456.3610886317
 20
426.2400451521
 11
563.8600464207
 21
426.2400451521
  0
LINE
  5
331
100
AcDbEntity
  8
7_ALL_FEATURES
100
AcDbLine
 62
7
  6
CONTINUOUS
 10
563.8605109309
 20
429.1400451521
 11
456.8605109309
 21
429.1400451521
  0
LINE
  5
332
100
AcDbEntity
  8
02___PRT_ALL_AXES
100
AcDbLine
 62
7
  6
CONTINUOUS
 10
525.3323612383
 20
394.228349953
 11
525.3323612383
 21
402.2517403512
  0
LINE
  5
333
100
AcDbEntity
  8
7_ALL_FEATURES
100
AcDbLine
 62
7
  6
CONTINUOUS
 10
563.8605109309
 20
437.1400451521
 11
456.8605109309
 21
437.1400451521
  0
LINE
  5
334
100
AcDbEntity
  8
3_ALL_AXES
100
AcDbLine
 62
7
  6
CONTINUOUS
 10
563.8605109309
 20
440.0400451521
 11
456.8605109309
 21
440.0400451521
  0
LINE
  5
335
100
AcDbEntity
  8
02___PRT_ALL_AXES
100
AcDbLine
 62
7
  6
CONTINUOUS
 10
521.3206660393
 20
387.2798900437
 11
525.3323612383
 21
394.228349953
  0
LINE
  5
336
100
AcDbEntity
  8
02___PRT_ALL_AXES
100
AcDbLine
 62
7
  6
CONTINUOUS
 10
514.37220613
 20
383.2681948446
 11
521.3206660393
 21
387.2798900437
  0
LINE
  5
337
100
AcDbEntity
  8
3_ALL_AXES
100
AcDbLine
 62
7
  6
CONTINUOUS
 10
547.8605109309
 20
440.0400451521
 11
547.8605109309
 21
460.0400451521
  0
LINE
  5
338
100
AcDbEntity
  8
3_ALL_AXES
100
AcDbLine
 62
7
  6
CONTINUOUS
 10
547.8605109309
 20
460.0400451521
 11
472.8605109309
 21
460.0400451521
  0
LINE
  5
339
100
AcDbEntity
  8
7_ALL_FEATURES
100
AcDbLine
 62
7
  6
CONTINUOUS
 10
561.8605109309
 20
437.1400451521
 11
561.8605109309
 21
429.1400451521
  0
LINE
  5
33A
100
AcDbEntity
  8
6_ALL_SURFS
100
AcDbLine
 62
7
  6
CONTINUOUS
 10
563.8605109309
 20
426.2400451521
 11
563.8605109309
 21
411.2400451521
  0
LINE
  5
33B
100
AcDbEntity
  8
7_ALL_FEATURES
100
AcDbLine
 62
7
  6
CONTINUOUS
 10
563.8605109309
 20
426.2400451521
 11
563.8605109309
 21
429.1400451521
  0
LINE
  5
33C
100
AcDbEntity
  8
7_ALL_FEATURES
100
AcDbLine
 62
7
  6
CONTINUOUS
 10
563.8605109309
 20
437.1400451521
 11
563.8605109309
 21
440.0400451521
  0
LINE
  5
33D
100
AcDbEntity
  8
3_ALL_AXES
100
AcDbLine
 62
7
  6
CONTINUOUS
 10
563.8605108922
 20
411.2400452168
 11
563.8545778809
 21
411.2173552958
  0
LINE
  5
33E
100
AcDbEntity
  8
6_ALL_SURFS
100
AcDbLine
 62
7
  6
CONTINUOUS
 10
568.5576092531
 20
181.2696246812
 11
567.4376909923
 21
209.8999368437
  0
LINE
  5
33F
100
AcDbEntity
  8
3_ALL_AXES
100
AcDbLine
 62
7
  6
CONTINUOUS
 10
567.4376909923
 20
209.8999368437
 11
567.4351524072
 21
209.9846277111
  0
LINE
  5
340
100
AcDbEntity
  8
7_ALL_FEATURES
100
AcDbLine
 62
7
  6
CONTINUOUS
 10
567.1348864425
 20
224.3321317257
 11
567.134753701
 21
224.3382873469
  0
LINE
  5
341
100
AcDbEntity
  8
3_ALL_AXES
100
AcDbLine
 62
7
  6
CONTINUOUS
 10
566.8600058028
 20
237.5235983619
 11
566.9177402078
 21
234.7527720816
  0
LINE
  5
342
100
AcDbEntity
  8
3_ALL_AXES
100
AcDbLine
 62
7
  6
CONTINUOUS
 10
567.0770075319
 20
227.1091133773
 11
567.1347419368
 21
224.338287097
  0
LINE
  5
343
100
AcDbEntity
  8
6_ALL_SURFS
100
AcDbLine
 62
7
  6
CONTINUOUS
 10
567.1360744555
 20
224.3381669713
 11
567.4351524072
 21
209.9846277111
  0
LINE
  5
344
100
AcDbEntity
  8
7_ALL_FEATURES
100
AcDbLine
 62
7
  6
CONTINUOUS
 10
569.0049543398
 20
230.5879702646
 11
569.0765735122
 21
227.1507773939
  0
LINE
  5
345
100
AcDbEntity
  8
7_ALL_FEATURES
100
AcDbLine
 62
7
  6
CONTINUOUS
 10
567.1361996357
 20
224.3321592466
 11
567.1348474344
 21
224.3382893005
  0
LINE
  5
346
100
AcDbEntity
  8
3_ALL_AXES
100
AcDbLine
 62
7
  6
CONTINUOUS
 10
582.4583653354
 20
256.9660572551
 11
582.8565336455
 21
237.8569104945
  0
LINE
  5
347
100
AcDbEntity
  8
6_ALL_SURFS
100
AcDbLine
 62
7
  6
CONTINUOUS
 10
591.5288112756
 20
171.8571599715
 11
591.502589642
 21
172.8074795124
  0
LINE
  5
348
100
AcDbEntity
  8
6_ALL_SURFS
100
AcDbLine
 62
7
  6
CONTINUOUS
 10
616.7180804493
 20
170.447043253
 11
616.7923167076
 21
170.446465431
  0
LINE
  5
349
100
AcDbEntity
  8
6_ALL_SURFS
100
AcDbLine
 62
7
  6
CONTINUOUS
 10
592.4577953547
 20
171.7009750298
 11
592.4789218915
 21
170.6870568398
  0
LINE
  5
34A
100
AcDbEntity
  8
3_ALL_AXES
100
AcDbLine
 62
7
  6
CONTINUOUS
 10
601.0996926583
 20
210.4117830706
 11
601.3987706099
 21
196.0582438105
  0
LINE
  5
34B
100
AcDbEntity
  8
02___PRT_ALL_AXES
100
AcDbLine
 62
7
  6
CONTINUOUS
 10
670.2400560016
 20
178.7391696848
 11
675.3962116922
 21
178.274345249
  0
LINE
  5
34C
100
AcDbEntity
  8
02___PRT_ALL_AXES
100
AcDbLine
 62
7
  6
CONTINUOUS
 10
693.417213198
 20
177.0266684265
 11
675.4175424235
 21
178.6493282751
  0
LINE
  5
34D
100
AcDbEntity
  8
02___PRT_ALL_AXES
100
AcDbLine
 62
7
  6
CONTINUOUS
 10
693.0402862392
 20
177.1033358813
 11
675.0406154647
 21
178.7259957299
  0
LINE
  5
34E
100
AcDbEntity
  8
02___PRT_ALL_AXES
100
AcDbLine
 62
7
  6
CONTINUOUS
 10
691.8197789919
 20
178.0175160662
 11
673.8201082174
 21
179.6401759149
  0
LINE
  5
34F
100
AcDbEntity
  8
02___PRT_ALL_AXES
100
AcDbLine
 62
7
  6
CONTINUOUS
 10
667.7458665875
 20
180.6073589519
 11
672.9020222782
 21
180.1425345161
  0
LINE
  5
350
100
AcDbEntity
  8
02___PRT_ALL_AXES
100
AcDbLine
 62
7
  6
CONTINUOUS
 10
697.2995330601
 20
178.1571589955
 11
694.955825928
 21
178.36844283
  0
LINE
  5
351
100
AcDbEntity
  8
6_ALL_SURFS
100
AcDbLine
 62
7
  6
CONTINUOUS
 10
604.2030614082
 20
195.7309970596
 11
604.2050040639
 21
195.6590113202
  0
LINE
  5
352
100
AcDbEntity
  8
3_ALL_AXES
100
AcDbLine
 62
7
  6
CONTINUOUS
 10
602.9746396437
 20
210.2427407682
 11
603.2737175954
 21
195.8892015081
  0
LINE
  5
353
100
AcDbEntity
  8
02___PRT_ALL_AXES
100
AcDbLine
 62
7
  6
CONTINUOUS
 10
690.7917105349
 20
179.9000020376
 11
672.7920397604
 21
181.5226618863
  0
LINE
  5
354
100
AcDbEntity
  8
02___PRT_ALL_AXES
100
AcDbLine
 62
7
  6
CONTINUOUS
 10
690.0419224679
 20
182.5936100922
 11
672.0422516934
 21
184.2162699408
  0
LINE
  5
355
100
AcDbEntity
  8
02___PRT_ALL_AXES
100
AcDbLine
 62
7
  6
CONTINUOUS
 10
666.2136237733
 20
186.1119298671
 11
671.3697794639
 21
185.6471054313
  0
LINE
  5
356
100
AcDbEntity
  8
02___PRT_ALL_AXES
100
AcDbLine
 62
7
  6
CONTINUOUS
 10
675.0406154647
 20
178.7259957299
 11
675.4175500063
 21
178.6494123397
  0
LINE
  5
357
100
AcDbEntity
  8
02___PRT_ALL_AXES
100
AcDbLine
 62
7
  6
CONTINUOUS
 10
693.0402862392
 20
177.1033358813
 11
693.4172207808
 21
177.0267524911
  0
LINE
  5
358
100
AcDbEntity
  8
02___PRT_ALL_AXES
100
AcDbLine
 62
7
  6
CONTINUOUS
 10
689.6099104892
 20
185.9564522278
 11
671.6102397147
 21
187.5791120764
  0
LINE
  5
359
100
AcDbEntity
  8
02___PRT_ALL_AXES
100
AcDbLine
 62
7
  6
CONTINUOUS
 10
689.5317467096
 20
189.707738049
 11
671.532075935
 21
191.3303978977
  0
LINE
  5
35A
100
AcDbEntity
  8
6_ALL_SURFS
100
AcDbLine
 62
7
  6
CONTINUOUS
 10
616.3989497495
 20
182.0296521986
 11
616.3776814332
 21
182.8015897228
  0
LINE
  5
35B
100
AcDbEntity
  8
6_ALL_SURFS
100
AcDbLine
 62
7
  6
CONTINUOUS
 10
616.7922439597
 20
170.4490872067
 11
616.8921094968
 21
166.8262415146
  0
LINE
  5
35C
100
AcDbEntity
  8
02___PRT_ALL_AXES
100
AcDbLine
 62
7
  6
CONTINUOUS
 10
696.7848804863
 20
205.4445028071
 11
697.4025656165
 21
205.5093799158
  0
LINE
  5
35D
100
AcDbEntity
  8
02___PRT_ALL_AXES
100
AcDbLine
 62
7
  6
CONTINUOUS
 10
666.0538907835
 20
193.7779370989
 11
671.2100464741
 21
193.3131126631
  0
LINE
  5
35E
100
AcDbEntity
  8
02___PRT_ALL_AXES
100
AcDbLine
 62
7
  6
CONTINUOUS
 10
689.8115484699
 20
193.6498655143
 11
671.8118776954
 21
195.272525363
  0
LINE
  5
35F
100
AcDbEntity
  8
02___PRT_ALL_AXES
100
AcDbLine
 62
7
  6
CONTINUOUS
 10
694.3597025864
 20
178.5427440662
 11
694.955825928
 21
178.36844283
  0
LINE
  5
360
100
AcDbEntity
  8
02___PRT_ALL_AXES
100
AcDbLine
 62
7
  6
CONTINUOUS
 10
690.4259528993
 20
197.4536750958
 11
672.4262821248
 21
199.0763349445
  0
LINE
  5
361
100
AcDbEntity
  8
02___PRT_ALL_AXES
100
AcDbLine
 62
7
  6
CONTINUOUS
 10
667.3094679437
 20
201.5512802004
 11
672.4656236343
 21
201.0864557646
  0
LINE
  5
362
100
AcDbEntity
  8
02___PRT_ALL_AXES
100
AcDbLine
 62
7
  6
CONTINUOUS
 10
691.342595743
 20
200.9187980201
 11
673.3429249685
 21
202.5414578687
  0
LINE
  5
363
100
AcDbEntity
  8
6_ALL_SURFS
100
AcDbLine
 62
7
  6
CONTINUOUS
 10
596.2926541437
 20
194.2338601904
 11
595.5871693368
 21
193.6597254463
  0
LINE
  5
364
100
AcDbEntity
  8
02___PRT_ALL_AXES
100
AcDbLine
 62
7
  6
CONTINUOUS
 10
692.4849392107
 20
203.7559036563
 11
674.4852684361
 21
205.378563505
  0
LINE
  5
365
100
AcDbEntity
  8
02___PRT_ALL_AXES
100
AcDbLine
 62
7
  6
CONTINUOUS
 10
669.6439243679
 20
207.3490981651
 11
674.8000800585
 21
206.8842737293
  0
LINE
  5
366
100
AcDbEntity
  8
02___PRT_ALL_AXES
100
AcDbLine
 62
7
  6
CONTINUOUS
 10
693.792809428
 20
205.8155451503
 11
675.7931386535
 21
207.4382049989
  0
LINE
  5
367
100
AcDbEntity
  8
02___PRT_ALL_AXES
100
AcDbLine
 62
7
  6
CONTINUOUS
 10
699.7462727486
 20
205.2980960813
 11
697.4025656165
 21
205.5093799158
  0
LINE
  5
368
100
AcDbEntity
  8
02___PRT_ALL_AXES
100
AcDbLine
 62
7
  6
CONTINUOUS
 10
695.1570019244
 20
206.9257466772
 11
677.1573311498
 21
208.5484065258
  0
LINE
  5
369
100
AcDbEntity
  8
02___PRT_ALL_AXES
100
AcDbLine
 62
7
  6
CONTINUOUS
 10
696.128729788
 20
207.1046949206
 11
678.1290590134
 21
208.7273547693
  0
LINE
  5
36A
100
AcDbEntity
  8
02___PRT_ALL_AXES
100
AcDbLine
 62
7
  6
CONTINUOUS
 10
694.3597025864
 20
178.5427440662
 11
693.0274548517
 21
179.2141727231
  0
LINE
  5
36B
100
AcDbEntity
  8
02___PRT_ALL_AXES
100
AcDbLine
 62
7
  6
CONTINUOUS
 10
667.7458665875
 20
180.6073589519
 11
670.2400560016
 21
178.7391696848
  0
LINE
  5
36C
100
AcDbEntity
  8
02___PRT_ALL_AXES
100
AcDbLine
 62
7
  6
CONTINUOUS
 10
672.9020222782
 20
180.1425345161
 11
675.3962116922
 21
178.274345249
  0
LINE
  5
36D
100
AcDbEntity
  8
02___PRT_ALL_AXES
100
AcDbLine
 62
7
  6
CONTINUOUS
 10
673.8201082174
 20
179.6401759149
 11
675.0406154647
 21
178.7259957299
  0
LINE
  5
36E
100
AcDbEntity
  8
6_ALL_SURFS
100
AcDbLine
 62
9
  6
CONTINUOUS
 10
590.2234583816
 20
184.3980707679
 11
591.1617249371
 21
185.1616469973
  0
LINE
  5
36F
100
AcDbEntity
  8
02___PRT_ALL_AXES
100
AcDbLine
 62
7
  6
CONTINUOUS
 10
672.4317443424
 20
209.6178703515
 11
677.5879000331
 21
209.1530459157
  0
LINE
  5
370
100
AcDbEntity
  8
02___PRT_ALL_AXES
100
AcDbLine
 62
7
  6
CONTINUOUS
 10
696.1287222052
 20
207.104610856
 11
696.5056567468
 21
207.0280274658
  0
LINE
  5
371
100
AcDbEntity
  8
02___PRT_ALL_AXES
100
AcDbLine
 62
7
  6
CONTINUOUS
 10
691.8197789919
 20
178.0175160662
 11
693.0402862392
 21
177.1033358813
  0
LINE
  5
372
100
AcDbEntity
  8
6_ALL_SURFS
100
AcDbLine
 62
7
  6
CONTINUOUS
 10
590.6425896173
 20
169.1926204605
 11
592.4789218915
 21
170.6870568398
  0
LINE
  5
373
100
AcDbEntity
  8
3_ALL_AXES
100
AcDbLine
 62
7
  6
CONTINUOUS
 10
657.4420895981
 20
258.5284578766
 11
657.8402579082
 21
239.419311116
  0
LINE
  5
374
100
AcDbEntity
  8
02___PRT_ALL_AXES
100
AcDbLine
 62
7
  6
CONTINUOUS
 10
678.1599515653
 20
208.7245698237
 11
677.5879000331
 21
209.1530459157
  0
LINE
  5
375
100
AcDbEntity
  8
02___PRT_ALL_AXES
100
AcDbLine
 62
7
  6
CONTINUOUS
 10
666.2136237733
 20
186.1119298671
 11
667.7458665875
 21
180.6073589519
  0
LINE
  5
376
100
AcDbEntity
  8
6_ALL_SURFS
100
AcDbLine
 62
7
  6
CONTINUOUS
 10
616.7180804493
 20
170.447043253
 11
616.7906723169
 21
170.5061196681
  0
LINE
  5
377
100
AcDbEntity
  8
02___PRT_ALL_AXES
100
AcDbLine
 62
7
  6
CONTINUOUS
 10
697.7261639941
 20
206.1138472809
 11
696.5056567468
 21
207.0280274658
  0
LINE
  5
378
100
AcDbEntity
  8
02___PRT_ALL_AXES
100
AcDbLine
 62
7
  6
CONTINUOUS
 10
671.3697794639
 20
185.6471054313
 11
672.9020222782
 21
180.1425345161
  0
LINE
  5
379
100
AcDbEntity
  8
02___PRT_ALL_AXES
100
AcDbLine
 62
7
  6
CONTINUOUS
 10
672.0422516934
 20
184.2162699408
 11
672.7920397604
 21
181.5226618863
  0
LINE
  5
37A
100
AcDbEntity
  8
02___PRT_ALL_AXES
100
AcDbLine
 62
7
  6
CONTINUOUS
 10
666.0538907835
 20
193.7779370989
 11
666.2136237733
 21
186.1119298671
  0
LINE
  5
37B
100
AcDbEntity
  8
02___PRT_ALL_AXES
100
AcDbLine
 62
7
  6
CONTINUOUS
 10
667.3094679437
 20
201.5512802004
 11
666.0538907835
 21
193.7779370989
  0
LINE
  5
37C
100
AcDbEntity
  8
02___PRT_ALL_AXES
100
AcDbLine
 62
7
  6
CONTINUOUS
 10
672.4317443424
 20
209.6178703515
 11
669.6439243679
 21
207.3490981651
  0
LINE
  5
37D
100
AcDbEntity
  8
02___PRT_ALL_AXES
100
AcDbLine
 62
7
  6
CONTINUOUS
 10
677.5879000331
 20
209.1530459157
 11
674.8000800585
 21
206.8842737293
  0
LINE
  5
37E
100
AcDbEntity
  8
02___PRT_ALL_AXES
100
AcDbLine
 62
7
  6
CONTINUOUS
 10
677.1573311498
 20
208.5484065258
 11
675.7931386535
 21
207.4382049989
  0
LINE
  5
37F
100
AcDbEntity
  8
02___PRT_ALL_AXES
100
AcDbLine
 62
7
  6
CONTINUOUS
 10
696.7848804863
 20
205.4445028071
 11
695.3540304142
 21
205.02216581
  0
LINE
  5
380
100
AcDbEntity
  8
3_ALL_AXES
100
AcDbLine
 62
7
  6
CONTINUOUS
 10
674.1126414086
 20
226.567187432
 11
674.1110631237
 21
226.5893291424
  0
LINE
  5
381
100
AcDbEntity
  8
02___PRT_ALL_AXES
100
AcDbLine
 62
7
  6
CONTINUOUS
 10
671.2100464741
 20
193.3131126631
 11
671.3697794639
 21
185.6471054313
  0
LINE
  5
382
100
AcDbEntity
  8
02___PRT_ALL_AXES
100
AcDbLine
 62
7
  6
CONTINUOUS
 10
671.532075935
 20
191.3303978977
 11
671.6102397147
 21
187.5791120764
  0
LINE
  5
383
100
AcDbEntity
  8
7_ALL_FEATURES
100
AcDbLine
 62
7
  6
CONTINUOUS
 10
671.9822379902
 20
232.7511526095
 11
672.0542214996
 21
229.2964742475
  0
LINE
  5
384
100
AcDbEntity
  8
3_ALL_AXES
100
AcDbLine
 62
7
  6
CONTINUOUS
 10
673.8367857509
 20
239.7526232486
 11
673.8945201559
 21
236.9817969683
  0
LINE
  5
385
100
AcDbEntity
  8
3_ALL_AXES
100
AcDbLine
 62
7
  6
CONTINUOUS
 10
674.0537874799
 20
229.3381382641
 11
674.1128306427
 21
226.5671913738
  0
LINE
  5
386
100
AcDbEntity
  8
6_ALL_SURFS
100
AcDbLine
 62
7
  6
CONTINUOUS
 10
674.1128544036
 20
226.567191858
 11
674.4119323553
 21
212.2136525979
  0
LINE
  5
387
100
AcDbEntity
  8
3_ALL_AXES
100
AcDbLine
 62
7
  6
CONTINUOUS
 10
674.1129912173
 20
226.5591193721
 11
674.1128306427
 21
226.5671913738
  0
LINE
  5
388
100
AcDbEntity
  8
3_ALL_AXES
100
AcDbLine
 62
7
  6
CONTINUOUS
 10
674.4119323553
 20
212.2136525979
 11
674.4129237695
 21
212.1289294928
  0
LINE
  5
389
100
AcDbEntity
  8
6_ALL_SURFS
100
AcDbLine
 62
7
  6
CONTINUOUS
 10
674.4198390009
 20
209.4386447746
 11
674.4129237695
 21
212.1289294928
  0
LINE
  5
38A
100
AcDbEntity
  8
02___PRT_ALL_AXES
100
AcDbLine
 62
7
  6
CONTINUOUS
 10
672.4656236343
 20
201.0864557646
 11
671.2100464741
 21
193.3131126631
  0
LINE
  5
38B
100
AcDbEntity
  8
02___PRT_ALL_AXES
100
AcDbLine
 62
7
  6
CONTINUOUS
 10
672.4262821248
 20
199.0763349445
 11
671.8118776954
 21
195.272525363
  0
LINE
  5
38C
100
AcDbEntity
  8
3_ALL_AXES
100
AcDbLine
 62
7
  6
CONTINUOUS
 10
674.1113169808
 20
226.5590847502
 11
674.1126414086
 21
226.567187432
  0
LINE
  5
38D
100
AcDbEntity
  8
02___PRT_ALL_AXES
100
AcDbLine
 62
7
  6
CONTINUOUS
 10
669.6439243679
 20
207.3490981651
 11
667.3094679437
 21
201.5512802004
  0
LINE
  5
38E
100
AcDbEntity
  8
02___PRT_ALL_AXES
100
AcDbLine
 62
7
  6
CONTINUOUS
 10
674.8000800585
 20
206.8842737293
 11
672.4656236343
 21
201.0864557646
  0
LINE
  5
38F
100
AcDbEntity
  8
02___PRT_ALL_AXES
100
AcDbLine
 62
7
  6
CONTINUOUS
 10
674.4852684361
 20
205.378563505
 11
673.3429249685
 21
202.5414578687
  0
LINE
  5
390
100
AcDbEntity
  8
02___PRT_ALL_AXES
100
AcDbLine
 62
7
  6
CONTINUOUS
 10
690.0419224679
 20
182.5936100922
 11
690.7917105349
 21
179.9000020376
  0
LINE
  5
391
100
AcDbEntity
  8
02___PRT_ALL_AXES
100
AcDbLine
 62
7
  6
CONTINUOUS
 10
695.1570019244
 20
206.9257466772
 11
693.792809428
 21
205.8155451503
  0
LINE
  5
392
100
AcDbEntity
  8
02___PRT_ALL_AXES
100
AcDbLine
 62
7
  6
CONTINUOUS
 10
689.5317467096
 20
189.707738049
 11
689.6099104892
 21
185.9564522278
  0
LINE
  5
393
100
AcDbEntity
  8
02___PRT_ALL_AXES
100
AcDbLine
 62
7
  6
CONTINUOUS
 10
675.3962116922
 20
178.274345249
 11
675.813159087
 21
178.6136636631
  0
LINE
  5
394
100
AcDbEntity
  8
02___PRT_ALL_AXES
100
AcDbLine
 62
7
  6
CONTINUOUS
 10
690.4259528993
 20
197.4536750958
 11
689.8115484699
 21
193.6498655143
  0
LINE
  5
395
100
AcDbEntity
  8
02___PRT_ALL_AXES
100
AcDbLine
 62
7
  6
CONTINUOUS
 10
692.4849392107
 20
203.7559036563
 11
691.342595743
 21
200.9187980201
  0
LINE
  5
396
100
AcDbEntity
  8
02___PRT_ALL_AXES
100
AcDbLine
 62
7
  6
CONTINUOUS
 10
694.3889410617
 20
177.2056166699
 11
695.7318360748
 21
178.2984859667
  0
ARC
  5
397
100
AcDbEntity
  8
6_ALL_SURFS
100
AcDbCircle
 62
7
  6
CONTINUOUS
 10
243.1639255789
 20
397.2400451521
 40
14.0
100
AcDbArc
 50
93.2624822503
 51
180.0
  0
ARC
  5
398
100
AcDbEntity
  8
6_ALL_SURFS
100
AcDbCircle
 62
7
  6
CONTINUOUS
 10
243.1639255789
 20
397.2400451521
 40
14.0
100
AcDbArc
 50
0.0
 51
86.7375177497
  0
ARC
  5
399
100
AcDbEntity
  8
3_ALL_AXES
100
AcDbCircle
 62
7
  6
CONTINUOUS
 10
243.1639255789
 20
397.2400451521
 40
14.0
100
AcDbArc
 50
86.7375177497
 51
93.2624822503
  0
ARC
  5
39A
100
AcDbEntity
  8
6_ALL_SURFS
100
AcDbCircle
 62
7
  6
CONTINUOUS
 10
243.1639255789
 20
397.2400451521
 40
13.0
100
AcDbArc
 50
94.4117257857
 51
180.0
  0
ARC
  5
39B
100
AcDbEntity
  8
6_ALL_SURFS
100
AcDbCircle
 62
7
  6
CONTINUOUS
 10
243.1639255789
 20
397.2400451521
 40
13.0
100
AcDbArc
 50
0.0
 51
85.5882742142
  0
CIRCLE
  5
39C
100
AcDbEntity
  8
3_ALL_AXES
100
AcDbCircle
 62
7
  6
CONTINUOUS
 10
243.1653469582
 20
204.9691207231
 40
53.5
  0
CIRCLE
  5
39D
100
AcDbEntity
  8
3_ALL_AXES
100
AcDbCircle
 62
7
  6
CONTINUOUS
 10
243.1653469582
 20
204.9691207231
 40
37.5
  0
CIRCLE
  5
39E
100
AcDbEntity
  8
7_ALL_FEATURES
100
AcDbCircle
 62
7
  6
CONTINUOUS
 10
243.1653469582
 20
204.9691207231
 40
35.1
  0
CIRCLE
  5
39F
100
AcDbEntity
  8
7_ALL_FEATURES
100
AcDbCircle
 62
7
  6
CONTINUOUS
 10
243.1653469582
 20
204.9691207231
 40
34.5
  0
ARC
  5
3A0
100
AcDbEntity
  8
6_ALL_SURFS
100
AcDbCircle
 62
7
  6
CONTINUOUS
 10
243.1639255789
 20
204.9691207231
 40
16.0
100
AcDbArc
 50
190.0
 51
260.0
  0
ARC
  5
3A1
100
AcDbEntity
  8
6_ALL_SURFS
100
AcDbCircle
 62
7
  6
CONTINUOUS
 10
243.1639255789
 20
204.9691207231
 40
16.0
100
AcDbArc
 50
100.0
 51
170.0
  0
ARC
  5
3A2
100
AcDbEntity
  8
6_ALL_SURFS
100
AcDbCircle
 62
7
  6
CONTINUOUS
 10
243.1639255789
 20
204.9691207231
 40
16.0
100
AcDbArc
 50
280.0
 51
350.0
  0
ARC
  5
3A3
100
AcDbEntity
  8
6_ALL_SURFS
100
AcDbCircle
 62
7
  6
CONTINUOUS
 10
243.1639255789
 20
204.9691207231
 40
15.0
100
AcDbArc
 50
190.0
 51
260.0
  0
ARC
  5
3A4
100
AcDbEntity
  8
6_ALL_SURFS
100
AcDbCircle
 62
7
  6
CONTINUOUS
 10
243.1639255789
 20
204.9691207231
 40
15.0
100
AcDbArc
 50
100.0
 51
170.0
  0
ARC
  5
3A5
100
AcDbEntity
  8
6_ALL_SURFS
100
AcDbCircle
 62
7
  6
CONTINUOUS
 10
243.1639255789
 20
204.9691207231
 40
15.0
100
AcDbArc
 50
280.0
 51
350.0
  0
ARC
  5
3A6
100
AcDbEntity
  8
6_ALL_SURFS
100
AcDbCircle
 62
7
  6
CONTINUOUS
 10
243.1639255789
 20
204.9691207231
 40
15.0
100
AcDbArc
 50
10.0
 51
80.0
  0
ARC
  5
3A7
100
AcDbEntity
  8
3_ALL_AXES
100
AcDbCircle
 62
7
  6
CONTINUOUS
 10
243.1653469582
 20
257.7327976417
 40
1.2363230814
100
AcDbArc
 50
36.0147255434
 51
143.9821875211
  0
ARC
  5
3A8
100
AcDbEntity
  8
02___PRT_ALL_AXES
100
AcDbCircle
 62
7
  6
CONTINUOUS
 10
510.3605109309
 20
398.2400451521
 40
15.1
100
AcDbArc
 50
157.4699133659
 51
172.5300866341
  0
ARC
  5
3A9
100
AcDbEntity
  8
02___PRT_ALL_AXES
100
AcDbCircle
 62
7
  6
CONTINUOUS
 10
510.3605109309
 20
398.2400451521
 40
15.1
100
AcDbArc
 50
187.4699133659
 51
202.5300866341
  0
ARC
  5
3AA
100
AcDbEntity
  8
02___PRT_ALL_AXES
100
AcDbCircle
 62
7
  6
CONTINUOUS
 10
510.3605109309
 20
398.2400451521
 40
15.1
100
AcDbArc
 50
217.4699133659
 51
232.5300866341
  0
ARC
  5
3AB
100
AcDbEntity
  8
02___PRT_ALL_AXES
100
AcDbCircle
 62
7
  6
CONTINUOUS
 10
510.3605109309
 20
398.2400451521
 40
15.1
100
AcDbArc
 50
247.4699133659
 51
262.5300866341
  0
ARC
  5
3AC
100
AcDbEntity
  8
02___PRT_ALL_AXES
100
AcDbCircle
 62
7
  6
CONTINUOUS
 10
510.3605109309
 20
398.2400451521
 40
15.1
100
AcDbArc
 50
277.4699133659
 51
292.5300866341
  0
ARC
  5
3AD
100
AcDbEntity
  8
02___PRT_ALL_AXES
100
AcDbCircle
 62
7
  6
CONTINUOUS
 10
510.3605109309
 20
398.2400451521
 40
15.1
100
AcDbArc
 50
307.4699133659
 51
322.5300866341
  0
ARC
  5
3AE
100
AcDbEntity
  8
02___PRT_ALL_AXES
100
AcDbCircle
 62
7
  6
CONTINUOUS
 10
510.3605109309
 20
398.2400451521
 40
15.1
100
AcDbArc
 50
337.4699133659
 51
352.5300866341
  0
ARC
  5
3AF
100
AcDbEntity
  8
02___PRT_ALL_AXES
100
AcDbCircle
 62
7
  6
CONTINUOUS
 10
510.3605109309
 20
398.2400451521
 40
15.1
100
AcDbArc
 50
7.4699133659
 51
22.5300866341
  0
ARC
  5
3B0
100
AcDbEntity
  8
02___PRT_ALL_AXES
100
AcDbCircle
 62
7
  6
CONTINUOUS
 10
510.3605109309
 20
398.2400451521
 40
15.1
100
AcDbArc
 50
37.4699133659
 51
52.5300866341
  0
ARC
  5
3B1
100
AcDbEntity
  8
02___PRT_ALL_AXES
100
AcDbCircle
 62
7
  6
CONTINUOUS
 10
510.3605109309
 20
398.2400451521
 40
15.1
100
AcDbArc
 50
67.4699133659
 51
82.5300866341
  0
ARC
  5
3B2
100
AcDbEntity
  8
02___PRT_ALL_AXES
100
AcDbCircle
 62
7
  6
CONTINUOUS
 10
510.3605109309
 20
398.2400451521
 40
15.1
100
AcDbArc
 50
97.4699133659
 51
112.5300866341
  0
ARC
  5
3B3
100
AcDbEntity
  8
02___PRT_ALL_AXES
100
AcDbCircle
 62
7
  6
CONTINUOUS
 10
510.3605109309
 20
398.2400451521
 40
15.1
100
AcDbArc
 50
127.4699133659
 51
142.5300866341
  0
CIRCLE
  5
3B4
100
AcDbEntity
  8
02___PRT_ALL_AXES
100
AcDbCircle
 62
7
  6
CONTINUOUS
 10
510.3605109309
 20
398.2400451521
 40
13.6255
  0
CIRCLE
  5
3B5
100
AcDbEntity
  8
02___PRT_ALL_AXES
100
AcDbCircle
 62
7
  6
CONTINUOUS
 10
510.3605109309
 20
398.2400451521
 40
9.0
  0
CIRCLE
  5
3B6
100
AcDbEntity
  8
7_ALL_FEATURES
100
AcDbCircle
 62
7
  6
CONTINUOUS
 10
510.3605109309
 20
398.2400451521
 40
6.5
  0
ARC
  5
3B7
100
AcDbEntity
  8
3_ALL_AXES
100
AcDbCircle
 62
7
  6
CONTINUOUS
 10
616.1493480418
 20
367.2810363153
 40
157.589971793
100
AcDbArc
 50
265.2044076385
 51
266.2404923581
  0
ARC
  5
3B8
100
AcDbEntity
  8
3_ALL_AXES
100
AcDbCircle
 62
7
  6
CONTINUOUS
 10
616.2731337884
 20
350.7771205985
 40
155.4324686207
100
AcDbArc
 50
265.2025293409
 51
265.5519648264
  0
ARC
  5
3B9
100
AcDbEntity
  8
3_ALL_AXES
100
AcDbCircle
 62
7
  6
CONTINUOUS
 10
614.8295447665
 20
352.9512667125
 40
143.1992082234
100
AcDbArc
 50
263.3974572032
 51
264.4980640484
  0
ARC
  5
3BA
100
AcDbEntity
  8
6_ALL_SURFS
100
AcDbCircle
 62
7
  6
CONTINUOUS
 10
610.2070974558
 20
267.0066926287
 40
96.038275517
100
AcDbArc
 50
258.7692394617
 51
259.2802854365
  0
ARC
  5
3BB
100
AcDbEntity
  8
02___PRT_ALL_AXES
100
AcDbCircle
 62
7
  6
CONTINUOUS
 10
715.9948150475
 20
190.1555440337
 40
44.4782581829
100
AcDbArc
 50
173.3938051988
 51
178.486406601
  0
ARC
  5
3BC
100
AcDbEntity
  8
02___PRT_ALL_AXES
100
AcDbCircle
 62
7
  6
CONTINUOUS
 10
733.994485822
 20
188.532884185
 40
44.4782581829
100
AcDbArc
 50
173.3938051988
 51
178.486406601
  0
ARC
  5
3BD
100
AcDbEntity
  8
3_ALL_AXES
100
AcDbCircle
 62
7
  6
CONTINUOUS
 10
600.9165302608
 20
180.7617520746
 40
15.2977968676
100
AcDbArc
 50
77.5846075502
 51
81.1351886097
  0
ARC
  5
3BE
100
AcDbEntity
  8
6_ALL_SURFS
100
AcDbCircle
 62
7
  6
CONTINUOUS
 10
601.9500363587
 20
181.6663851856
 40
14.1731447977
100
AcDbArc
 50
77.3093378625
 51
80.8445876741
  0
ARC
  5
3BF
100
AcDbEntity
  8
3_ALL_AXES
100
AcDbCircle
 62
7
  6
CONTINUOUS
 10
604.1886169563
 20
181.6918627575
 40
12.2890608454
100
AcDbArc
 50
1.5846006261
 51
5.192292029
  0
ARC
  5
3C0
100
AcDbEntity
  8
6_ALL_SURFS
100
AcDbCircle
 62
7
  6
CONTINUOUS
 10
601.0283774811
 20
187.047587079
 40
9.5629990276
100
AcDbArc
 50
132.3708815517
 51
136.2239609067
  0
ARC
  5
3C1
100
AcDbEntity
  8
6_ALL_SURFS
100
AcDbCircle
 62
7
  6
CONTINUOUS
 10
601.2916402681
 20
186.6486481954
 40
9.0385761508
100
AcDbArc
 50
123.4209714525
 51
129.1330519205
  0
ARC
  5
3C2
100
AcDbEntity
  8
3_ALL_AXES
100
AcDbCircle
 62
7
  6
CONTINUOUS
 10
602.2055072054
 20
214.1153532065
 40
3.9473472353
100
AcDbArc
 50
267.2785988677
 51
268.2490241323
  0
SPLINE
  5
3C3
100
AcDbEntity
  8
3_ALL_AXES
100
AcDbSpline
 62
7
  6
CONTINUOUS
 70
0
 71
3
 72
23
 73
19
 74
0
 42
0.0000001
 43
0.0000001
 44
0.0000000001
 40
0.0
 40
0.0
 40
0.0
 40
0.0
 40
0.0012295241
 40
0.0049100137
 40
0.0110262767
 40
0.0195631288
 40
0.0305009185
 40
0.0438014425
 40
0.0773189565
 40
0.1197465862
 40
0.1706037035
 40
0.2293631922
 40
0.2954197558
 40
0.368135561
 40
0.4468135895
 40
0.6190745012
 40
0.8058129024
 40
1.0
 40
1.0
 40
1.0
 40
1.0
 10
189.7158950009
 20
408.240044726
 30
0.0
 10
189.7136074258
 20
408.2434831268
 30
0.0
 10
189.7245074977
 20
408.2091279333
 30
0.0
 10
189.7246049915
 20
408.1903835182
 30
0.0
 10
189.741007255
 20
408.1200633853
 30
0.0
 10
189.7561698144
 20
408.0401916273
 30
0.0
 10
189.7784947933
 20
407.9305552174
 30
0.0
 10
189.8158470405
 20
407.7410534919
 30
0.0
 10
189.8730532921
 20
407.4462353898
 30
0.0
 10
189.9512837631
 20
407.0278008824
 30
0.0
 10
190.0410763285
 20
406.5249652458
 30
0.0
 10
190.1392158496
 20
405.943133012
 30
0.0
 10
190.242293851
 20
405.2876758138
 30
0.0
 10
190.3467446159
 20
404.5647698373
 30
0.0
 10
190.4873963372
 20
403.4867542231
 30
0.0
 10
190.6438679621
 20
402.0247148868
 30
0.0
 10
190.7791585054
 20
400.1711888316
 30
0.0
 10
190.8258258021
 20
398.89219631
 30
0.0
 10
190.8374151509
 20
398.2400451521
 30
0.0
  0
SPLINE
  5
3C4
100
AcDbEntity
  8
3_ALL_AXES
100
AcDbSpline
 62
7
  6
CONTINUOUS
 70
0
 71
3
 72
23
 73
19
 74
0
 42
0.0000001
 43
0.0000001
 44
0.0000000001
 40
0.0
 40
0.0
 40
0.0
 40
0.0
 40
0.1945384363
 40
0.3815917353
 40
0.5540477556
 40
0.6327528104
 40
0.7054439867
 40
0.7714255539
 40
0.8300692619
 40
0.8807821683
 40
0.923055159
 40
0.9564257332
 40
0.9696613816
 40
0.9805433219
 40
0.9890349779
 40
0.9951175406
 40
0.9987771664
 40
1.0
 40
1.0
 40
1.0
 40
1.0
 10
190.8374151509
 20
398.2400451521
 30
0.0
 10
190.8489880427
 20
397.5888200571
 30
0.0
 10
190.8478301048
 20
396.3108697317
 30
0.0
 10
190.7782060332
 20
394.4568178887
 30
0.0
 10
190.6730016963
 20
392.9931370454
 30
0.0
 10
190.569776357
 20
391.913750918
 30
0.0
 10
190.490314516
 20
391.1902852868
 30
0.0
 10
190.4097894918
 20
390.5345576047
 30
0.0
 10
190.3315999681
 20
389.9527601139
 30
0.0
 10
190.2590077313
 20
389.4502209493
 30
0.0
 10
190.1950674512
 20
389.0322616951
 30
0.0
 10
190.1479145442
 20
388.7378966234
 30
0.0
 10
190.1170337052
 20
388.5487648639
 30
0.0
 10
190.0984375211
 20
388.4393800722
 30
0.0
 10
190.086034026
 20
388.3597118242
 30
0.0
 10
190.0719611791
 20
388.2895649344
 30
0.0
 10
190.0726328505
 20
388.2708885291
 30
0.0
 10
190.0627724957
 20
388.2366074673
 30
0.0
 10
190.0649960301
 20
388.2400451692
 30
0.0
  0
SPLINE
  5
3C5
100
AcDbEntity
  8
7_ALL_FEATURES
100
AcDbSpline
 62
7
  6
CONTINUOUS
 70
0
 71
3
 72
21
 73
17
 74
0
 42
0.0000001
 43
0.0000001
 44
0.0000000001
 40
0.0
 40
0.0
 40
0.0
 40
0.0
 40
0.0312235732
 40
0.0624622123
 40
0.1250562079
 40
0.187647065
 40
0.25016791
 40
0.3750406531
 40
0.5
 40
0.6249593469
 40
0.74983209
 40
0.812352935
 40
0.8749437921
 40
0.9375377877
 40
0.9687764268
 40
1.0
 40
1.0
 40
1.0
 40
1.0
 10
245.9422964215
 20
220.7260447713
 30
0.0
 10
246.1424931081
 20
220.6903680297
 30
0.0
 10
246.5431252685
 20
220.6194748038
 30
0.0
 10
247.3379225432
 20
220.4397671742
 30
0.0
 10
248.3120938149
 20
220.1370085761
 30
0.0
 10
249.4529004401
 20
219.6952879715
 30
0.0
 10
250.925908136
 20
218.9989834491
 30
0.0
 10
252.6635518595
 20
217.9243269381
 30
0.0
 10
254.5202375704
 20
216.3254327146
 30
0.0
 10
256.1191317938
 20
214.4687470037
 30
0.0
 10
257.1937883048
 20
212.7311032802
 30
0.0
 10
257.8900928273
 20
211.2580955844
 30
0.0
 10
258.3318134319
 20
210.1172889592
 30
0.0
 10
258.63457203
 20
209.1431176875
 30
0.0
 10
258.8142796596
 20
208.3483204127
 30
0.0
 10
258.8851728855
 20
207.9476882524
 30
0.0
 10
258.9208496271
 20
207.7474915658
 30
0.0
  0
SPLINE
  5
3C6
100
AcDbEntity
  8
3_ALL_AXES
100
AcDbSpline
 62
7
  6
CONTINUOUS
 70
0
 71
3
 72
11
 73
7
 74
0
 42
0.0000001
 43
0.0000001
 44
0.0000000001
 40
0.0
 40
0.0
 40
0.0
 40
0.0
 40
0.3640225732
 40
0.6786100263
 40
0.9018575143
 40
1.0
 40
1.0
 40
1.0
 40
1.0
 10
458.9775933986
 20
397.2400451521
 30
0.0
 10
458.9465203031
 20
398.9576096755
 30
0.0
 10
458.7273185374
 20
402.1589667091
 30
0.0
 10
458.0530182795
 20
406.3652895132
 30
0.0
 10
457.3874997935
 20
409.2933887804
 30
0.0
 10
456.9925380108
 20
410.7577988825
 30
0.0
 10
456.8698306225
 20
411.2043883106
 30
0.0
  0
SPLINE
  5
3C7
100
AcDbEntity
  8
3_ALL_AXES
100
AcDbSpline
 62
7
  6
CONTINUOUS
 70
0
 71
3
 72
11
 73
7
 74
0
 42
0.0000001
 43
0.0000001
 44
0.0000000001
 40
0.0
 40
0.0
 40
0.0
 40
0.0
 40
0.0676630823
 40
0.2654558926
 40
0.5821252417
 40
1.0
 40
1.0
 40
1.0
 40
1.0
 10
456.3605117682
 20
411.2400451521
 30
0.0
 10
456.3720277812
 20
411.2400362986
 30
0.0
 10
456.4169358356
 20
411.2337748689
 30
0.0
 10
456.5157772077
 20
411.2278918448
 30
0.0
 10
456.6739876195
 20
411.2151321555
 30
0.0
 10
456.7988057363
 20
411.2080807105
 30
0.0
 10
456.8698306225
 20
411.2043883106
 30
0.0
  0
SPLINE
  5
3C8
100
AcDbEntity
  8
6_ALL_SURFS
100
AcDbSpline
 62
7
  6
CONTINUOUS
 70
0
 71
3
 72
10
 73
6
 74
0
 42
0.0000001
 43
0.0000001
 44
0.0000000001
 40
0.0
 40
0.0
 40
0.0
 40
0.0
 40
0.3167447123
 40
0.6329829689
 40
1.0
 40
1.0
 40
1.0
 40
1.0
 10
563.8545778809
 20
411.2173552958
 30
0.0
 10
563.4528685639
 20
409.7762151904
 30
0.0
 10
562.7495521277
 20
406.8670065189
 30
0.0
 10
561.9976478737
 20
402.1994436811
 30
0.0
 10
561.7747852852
 20
398.9732926543
 30
0.0
 10
561.7434284632
 20
397.2400451521
 30
0.0
  0
LINE
  5
3C9
100
AcDbEntity
  8
6_ALL_SURFS
100
AcDbLine
 62
7
  6
CONTINUOUS
 10
561.4539098781
 20
381.2400451521
 11
561.7434284632
 21
397.2400451521
  0
LINE
  5
3CA
100
AcDbEntity
  8
6_ALL_SURFS
100
AcDbLine
 62
7
  6
CONTINUOUS
 10
458.9775933986
 20
397.2400451521
 11
459.2671119837
 21
381.2400451521
  0
SPLINE
  5
3CB
100
AcDbEntity
  8
02___PRT_ALL_AXES
100
AcDbSpline
 62
7
  6
CONTINUOUS
 70
0
 71
3
 72
11
 73
7
 74
0
 42
0.0000001
 43
0.0000001
 44
0.0000000001
 40
0.0
 40
0.0
 40
0.0
 40
0.0
 40
0.2822657956
 40
0.5382822067
 40
0.774490206
 40
1.0
 40
1.0
 40
1.0
 40
1.0
 10
698.3437271648
 20
200.3267435807
 30
0.0
 10
698.4223903464
 20
200.3907609276
 30
0.0
 10
698.5804441122
 20
200.5036142996
 30
0.0
 10
698.8315163838
 20
200.6270416499
 30
0.0
 10
699.0826472937
 20
200.6934885195
 30
0.0
 10
699.2502707627
 20
200.6985564866
 30
0.0
 10
699.3309709269
 20
200.6912796344
 30
0.0
  0
SPLINE
  5
3CC
100
AcDbEntity
  8
02___PRT_ALL_AXES
100
AcDbSpline
 62
7
  6
CONTINUOUS
 70
0
 71
3
 72
11
 73
7
 74
0
 42
0.0000001
 43
0.0000001
 44
0.0000000001
 40
0.0
 40
0.0
 40
0.0
 40
0.0
 40
0.2823046008
 40
0.5383009514
 40
0.7744867959
 40
1.0
 40
1.0
 40
1.0
 40
1.0
 10
698.7941650198
 20
178.7090435791
 30
0.0
 10
698.6750567668
 20
178.6121113904
 30
0.0
 10
698.4357756792
 20
178.4412329802
 30
0.0
 10
698.0556537462
 20
178.2543938388
 30
0.0
 10
697.675474779
 20
178.1538164541
 30
0.0
 10
697.421710419
 20
178.1461392431
 30
0.0
 10
697.2995337601
 20
178.1571667389
 30
0.0
  0
SPLINE
  5
3CD
100
AcDbEntity
  8
02___PRT_ALL_AXES
100
AcDbSpline
 62
7
  6
CONTINUOUS
 70
0
 71
3
 72
9
 73
5
 74
0
 42
0.0000001
 43
0.0000001
 44
0.0000000001
 40
0.0
 40
0.0
 40
0.0
 40
0.0
 40
0.4844205236
 40
1.0
 40
1.0
 40
1.0
 40
1.0
 10
693.4172147252
 20
177.0266853202
 30
0.0
 10
693.5774595273
 20
177.0122345733
 30
0.0
 10
693.9139812557
 20
177.0300582846
 30
0.0
 10
694.2327730453
 20
177.1353591645
 30
0.0
 10
694.3889410617
 20
177.2056166699
 30
0.0
  0
SPLINE
  5
3CE
100
AcDbEntity
  8
02___PRT_ALL_AXES
100
AcDbSpline
 62
7
  6
CONTINUOUS
 70
0
 71
3
 72
25
 73
21
 74
0
 42
0.0000001
 43
0.0000001
 44
0.0000000001
 40
0.0
 40
0.0
 40
0.0
 40
0.0
 40
0.0142133943
 40
0.0292453178
 40
0.0457709367
 40
0.0642615967
 40
0.108085941
 40
0.1616186913
 40
0.224358482
 40
0.2950704861
 40
0.3720531192
 40
0.4532967825
 40
0.5366016458
 40
0.6196800448
 40
0.7002538297
 40
0.7761523099
 40
0.845416266
 40
0.906422078
 40
0.9580511513
 40
1.0
 40
1.0
 40
1.0
 40
1.0
 10
697.7148348818
 20
182.7639754425
 30
0.0
 10
697.625191899
 20
182.7720586817
 30
0.0
 10
697.4422152382
 20
182.8137426773
 30
0.0
 10
697.1822661952
 20
182.9474321137
 30
0.0
 10
696.9356231257
 20
183.1495280377
 30
0.0
 10
696.6073170023
 20
183.5280939692
 30
0.0
 10
696.2477057947
 20
184.1751676715
 30
0.0
 10
695.9075461886
 20
185.1327564992
 30
0.0
 10
695.6447141149
 20
186.2896462417
 30
0.0
 10
695.467712478
 20
187.6118026717
 30
0.0
 10
695.3823417018
 20
189.0602164531
 30
0.0
 10
695.391649943
 20
190.590667307
 30
0.0
 10
695.495562258
 20
192.156244563
 30
0.0
 10
695.6909505248
 20
193.7087853226
 30
0.0
 10
695.9717018948
 20
195.2005561671
 30
0.0
 10
696.3290058828
 20
196.5859229317
 30
0.0
 10
696.7514181885
 20
197.8227845481
 30
0.0
 10
697.2262177133
 20
198.8750192081
 30
0.0
 10
697.7382104199
 20
199.7122851149
 30
0.0
 10
698.1376913192
 20
200.1590683361
 30
0.0
 10
698.3437271648
 20
200.3267435807
 30
0.0
  0
SPLINE
  5
3CF
100
AcDbEntity
  8
02___PRT_ALL_AXES
100
AcDbSpline
 62
7
  6
CONTINUOUS
 70
0
 71
3
 72
28
 73
24
 74
0
 42
0.0000001
 43
0.0000001
 44
0.0000000001
 40
0.0
 40
0.0
 40
0.0
 40
0.0
 40
0.0142112989
 40
0.0292407944
 40
0.0457628839
 40
0.0642511354
 40
0.0849921006
 40
0.1081318961
 40
0.1616549092
 40
0.2243834587
 40
0.2950830549
 40
0.372052172
 40
0.4532814854
 40
0.5365716206
 40
0.6196353667
 40
0.7001948784
 40
0.7760797054
 40
0.8453311904
 40
0.9063261234
 40
0.9333674989
 40
0.9579849876
 40
0.9801744297
 40
1.0
 40
1.0
 40
1.0
 40
1.0
 10
699.7462720486
 20
205.2980883379
 30
0.0
 10
699.8819894804
 20
205.2858386707
 30
0.0
 10
700.1590276302
 20
205.2228007931
 30
0.0
 10
700.5525509234
 20
205.0203271406
 30
0.0
 10
700.9259476312
 20
204.7143787568
 30
0.0
 10
701.2776759808
 20
204.3091820818
 30
0.0
 10
701.6068515147
 20
203.8081912457
 30
0.0
 10
702.0339153208
 20
202.9760078513
 30
0.0
 10
702.4824300613
 20
201.7111900156
 30
0.0
 10
702.8803254473
 20
199.960645269
 30
0.0
 10
703.1482988214
 20
197.9586777946
 30
0.0
 10
703.2775404634
 20
195.7659477694
 30
0.0
 10
703.2634485471
 20
193.4489024925
 30
0.0
 10
703.1061313633
 20
191.078713521
 30
0.0
 10
702.8103315954
 20
188.7282455431
 30
0.0
 10
702.3852722205
 20
186.4698078082
 30
0.0
 10
701.8443814784
 20
184.3723853993
 30
0.0
 10
701.2047009359
 20
182.5000461988
 30
0.0
 10
700.5834720386
 20
181.1218004401
 30
0.0
 10
700.0438364472
 20
180.185075718
 30
0.0
 10
699.6435707875
 20
179.5998612326
 30
0.0
 10
699.2344272231
 20
179.1078036787
 30
0.0
 10
698.9416117615
 20
178.82903808
 30
0.0
 10
698.7941650198
 20
178.7090435791
 30
0.0
  0
SPLINE
  5
3D0
100
AcDbEntity
  8
02___PRT_ALL_AXES
100
AcDbSpline
 62
7
  6
CONTINUOUS
 70
0
 71
3
 72
9
 73
5
 74
0
 42
0.0000001
 43
0.0000001
 44
0.0000000001
 40
0.0
 40
0.0
 40
0.0
 40
0.0
 40
0.539683971
 40
1.0
 40
1.0
 40
1.0
 40
1.0
 10
672.7920397604
 20
181.5226618863
 30
0.0
 10
672.9318523761
 20
181.1618333811
 30
0.0
 10
673.2251233119
 20
180.5055960406
 30
0.0
 10
673.6128586664
 20
179.8970552434
 30
0.0
 10
673.8201082174
 20
179.6401759149
 30
0.0
  0
SPLINE
  5
3D1
100
AcDbEntity
  8
02___PRT_ALL_AXES
100
AcDbSpline
 62
7
  6
CONTINUOUS
 70
0
 71
3
 72
9
 73
5
 74
0
 42
0.0000001
 43
0.0000001
 44
0.0000000001
 40
0.0
 40
0.0
 40
0.0
 40
0.0
 40
0.4649582909
 40
1.0
 40
1.0
 40
1.0
 40
1.0
 10
675.7931386535
 20
207.4382049989
 30
0.0
 10
675.5486392257
 20
207.1488992745
 30
0.0
 10
675.0745703339
 20
206.4827396012
 30
0.0
 10
674.6800352025
 20
205.7685076259
 30
0.0
 10
674.4852684361
 20
205.378563505
 30
0.0
  0
SPLINE
  5
3D2
100
AcDbEntity
  8
02___PRT_ALL_AXES
100
AcDbSpline
 62
7
  6
CONTINUOUS
 70
0
 71
3
 72
9
 73
5
 74
0
 42
0.0000001
 43
0.0000001
 44
0.0000000001
 40
0.0
 40
0.0
 40
0.0
 40
0.0
 40
0.2631958714
 40
1.0
 40
1.0
 40
1.0
 40
1.0
 10
671.6102397147
 20
187.5791120764
 30
0.0
 10
671.6313970844
 20
187.2823132552
 30
0.0
 10
671.7266762187
 20
186.1558494656
 30
0.0
 10
671.8822545258
 20
185.0337419759
 30
0.0
 10
672.0422516934
 20
184.2162699408
 30
0.0
  0
SPLINE
  5
3D3
100
AcDbEntity
  8
02___PRT_ALL_AXES
100
AcDbSpline
 62
7
  6
CONTINUOUS
 70
0
 71
3
 72
9
 73
5
 74
0
 42
0.0000001
 43
0.0000001
 44
0.0000000001
 40
0.0
 40
0.0
 40
0.0
 40
0.0
 40
0.2388286677
 40
1.0
 40
1.0
 40
1.0
 40
1.0
 10
673.3429249685
 20
202.5414578687
 30
0.0
 10
673.2541508787
 20
202.2701877492
 30
0.0
 10
672.9003477798
 20
201.1285192958
 30
0.0
 10
672.6134245631
 20
199.9665606798
 30
0.0
 10
672.4262821248
 20
199.0763349445
 30
0.0
  0
SPLINE
  5
3D4
100
AcDbEntity
  8
02___PRT_ALL_AXES
100
AcDbSpline
 62
7
  6
CONTINUOUS
 70
0
 71
3
 72
9
 73
5
 74
0
 42
0.0000001
 43
0.0000001
 44
0.0000000001
 40
0.0
 40
0.0
 40
0.0
 40
0.0
 40
0.5155794764
 40
1.0
 40
1.0
 40
1.0
 40
1.0
 10
677.1573311498
 20
208.5484065258
 30
0.0
 10
677.3134991662
 20
208.6186640312
 30
0.0
 10
677.6322909558
 20
208.7239649112
 30
0.0
 10
677.9688126842
 20
208.7417886224
 30
0.0
 10
678.1290574863
 20
208.7273378755
 30
0.0
  0
SPLINE
  5
3D5
100
AcDbEntity
  8
02___PRT_ALL_AXES
100
AcDbSpline
 62
7
  6
CONTINUOUS
 70
0
 71
3
 72
9
 73
5
 74
0
 42
0.0000001
 43
0.0000001
 44
0.0000000001
 40
0.0
 40
0.0
 40
0.0
 40
0.0
 40
0.2371703349
 40
1.0
 40
1.0
 40
1.0
 40
1.0
 10
697.7261639941
 20
206.1138472809
 30
0.0
 10
697.7656121473
 20
206.0649525303
 30
0.0
 10
697.927413872
 20
205.8551485402
 30
0.0
 10
698.0717938003
 20
205.6321926071
 30
0.0
 10
698.1737282906
 20
205.457722189
 30
0.0
  0
SPLINE
  5
3D6
100
AcDbEntity
  8
02___PRT_ALL_AXES
100
AcDbSpline
 62
7
  6
CONTINUOUS
 70
0
 71
3
 72
11
 73
7
 74
0
 42
0.0000001
 43
0.0000001
 44
0.0000000001
 40
0.0
 40
0.0
 40
0.0
 40
0.0
 40
0.2823046008
 40
0.5383009514
 40
0.7744867959
 40
1.0
 40
1.0
 40
1.0
 40
1.0
 10
698.2516407889
 20
204.7462114977
 30
0.0
 10
698.370749042
 20
204.8431436864
 30
0.0
 10
698.6100301296
 20
205.0140220966
 30
0.0
 10
698.9901520625
 20
205.200861238
 30
0.0
 10
699.3703310298
 20
205.3014386228
 30
0.0
 10
699.6240953897
 20
205.3091158337
 30
0.0
 10
699.7462720486
 20
205.2980883379
 30
0.0
  0
SPLINE
  5
3D7
100
AcDbEntity
  8
02___PRT_ALL_AXES
100
AcDbSpline
 62
7
  6
CONTINUOUS
 70
0
 71
3
 72
25
 73
21
 74
0
 42
0.0000001
 43
0.0000001
 44
0.0000000001
 40
0.0
 40
0.0
 40
0.0
 40
0.0
 40
0.0142133943
 40
0.0292453178
 40
0.0457709367
 40
0.0642615967
 40
0.108085941
 40
0.1616186913
 40
0.224358482
 40
0.2950704861
 40
0.3720531192
 40
0.4532967825
 40
0.5366016458
 40
0.6196800448
 40
0.7002538297
 40
0.7761523099
 40
0.845416266
 40
0.906422078
 40
0.9580511513
 40
1.0
 40
1.0
 40
1.0
 40
1.0
 10
699.3309709269
 20
200.6912796344
 30
0.0
 10
699.4206139098
 20
200.6831963951
 30
0.0
 10
699.6035905705
 20
200.6415123995
 30
0.0
 10
699.8635396135
 20
200.5078229631
 30
0.0
 10
700.1101826831
 20
200.3057270391
 30
0.0
 10
700.4384888064
 20
199.9271611076
 30
0.0
 10
700.798100014
 20
199.2800874053
 30
0.0
 10
701.1382596202
 20
198.3224985776
 30
0.0
 10
701.4010916939
 20
197.1656088351
 30
0.0
 10
701.5780933307
 20
195.8434524051
 30
0.0
 10
701.6634641069
 20
194.3950386237
 30
0.0
 10
701.6541558658
 20
192.8645877698
 30
0.0
 10
701.5502435507
 20
191.2990105138
 30
0.0
 10
701.3548552839
 20
189.7464697542
 30
0.0
 10
701.074103914
 20
188.2546989097
 30
0.0
 10
700.7167999259
 20
186.8693321451
 30
0.0
 10
700.2943876202
 20
185.6324705287
 30
0.0
 10
699.8195880955
 20
184.5802358687
 30
0.0
 10
699.3075953888
 20
183.742969962
 30
0.0
 10
698.9081144896
 20
183.2961867407
 30
0.0
 10
698.7020786439
 20
183.1285114961
 30
0.0
  0
SPLINE
  5
3D8
100
AcDbEntity
  8
02___PRT_ALL_AXES
100
AcDbSpline
 62
7
  6
CONTINUOUS
 70
0
 71
3
 72
25
 73
21
 74
0
 42
0.0000001
 43
0.0000001
 44
0.0000000001
 40
0.0
 40
0.0
 40
0.0
 40
0.0
 40
0.0406492686
 40
0.0902769324
 40
0.1486770537
 40
0.2149249046
 40
0.2876445475
 40
0.3651546421
 40
0.4455734002
 40
0.5269045332
 40
0.6071168215
 40
0.6842219528
 40
0.7563544191
 40
0.8218588963
 40
0.8793971373
 40
0.9048998379
 40
0.9281422493
 40
0.9491358939
 40
0.9679756699
 40
1.0
 40
1.0
 40
1.0
 40
1.0
 10
695.9079336568
 20
204.9574953322
 30
0.0
 10
695.6122204837
 20
204.7168392539
 30
0.0
 10
695.0370830414
 20
204.0832937101
 30
0.0
 10
694.2936334345
 20
202.899313199
 30
0.0
 10
693.5997349975
 20
201.4155072443
 30
0.0
 10
692.9753521999
 20
199.6706726729
 30
0.0
 10
692.4375127555
 20
197.7110434908
 30
0.0
 10
692.0018169473
 20
195.5906524085
 30
0.0
 10
691.6806897244
 20
193.3683953282
 30
0.0
 10
691.4832872558
 20
191.1063533323
 30
0.0
 10
691.4151121849
 20
188.8677733212
 30
0.0
 10
691.4778996855
 20
186.715233949
 30
0.0
 10
691.6694639943
 20
184.7084532841
 30
0.0
 10
691.9840767593
 20
182.9031015266
 30
0.0
 10
692.3541154936
 20
181.5563678808
 30
0.0
 10
692.7142242456
 20
180.6258864883
 30
0.0
 10
692.9975798737
 20
180.0356135185
 30
0.0
 10
693.3041075639
 20
179.5277528962
 30
0.0
 10
693.7168484774
 20
178.9951919786
 30
0.0
 10
694.0914623653
 20
178.6779065755
 30
0.0
 10
694.3597035418
 20
178.5427511007
 30
0.0
  0
SPLINE
  5
3D9
100
AcDbEntity
  8
02___PRT_ALL_AXES
100
AcDbSpline
 62
7
  6
CONTINUOUS
 70
0
 71
3
 72
24
 73
20
 74
0
 42
0.0000001
 43
0.0000001
 44
0.0000000001
 40
0.0
 40
0.0
 40
0.0
 40
0.0
 40
0.0406508226
 40
0.0902803835
 40
0.1486827374
 40
0.2149331208
 40
0.2876555437
 40
0.3651686014
 40
0.4455904338
 40
0.5269246759
 40
0.6071400307
 40
0.6842481096
 40
0.7563833334
 40
0.8218903148
 40
0.8794307554
 40
0.9281395023
 40
0.9491339495
 40
0.9679744456
 40
1.0
 40
1.0
 40
1.0
 40
1.0
 10
694.5127382916
 20
204.5549589755
 30
0.0
 10
694.2290481582
 20
204.3240874379
 30
0.0
 10
693.6772945248
 20
203.7163004466
 30
0.0
 10
692.9640719247
 20
202.5804579486
 30
0.0
 10
692.2983858552
 20
201.1569802455
 30
0.0
 10
691.699389069
 20
199.4830867544
 30
0.0
 10
691.1834169965
 20
197.6031317852
 30
0.0
 10
690.7654355419
 20
195.5689508827
 30
0.0
 10
690.4573649066
 20
193.4370466337
 30
0.0
 10
690.2679873646
 20
191.2669711983
 30
0.0
 10
690.2025878494
 20
189.1194179227
 30
0.0
 10
690.262809546
 20
187.0543572646
 30
0.0
 10
690.4466290608
 20
185.1292983036
 30
0.0
 10
690.7483092671
 20
183.3969276823
 30
0.0
 10
691.1591896291
 20
181.9044210117
 30
0.0
 10
691.602270569
 20
180.8431142053
 30
0.0
 10
692.01473672
 20
180.159121988
 30
0.0
 10
692.4107576392
 20
179.6482305583
 30
0.0
 10
692.7701206788
 20
179.3438398271
 30
0.0
 10
693.0274557658
 20
179.2141794728
 30
0.0
  0
SPLINE
  5
3DA
100
AcDbEntity
  8
02___PRT_ALL_AXES
100
AcDbSpline
 62
7
  6
CONTINUOUS
 70
0
 71
3
 72
11
 73
7
 74
0
 42
0.0000001
 43
0.0000001
 44
0.0000000001
 40
0.0
 40
0.0
 40
0.0
 40
0.0
 40
0.2822657956
 40
0.5382822067
 40
0.774490206
 40
1.0
 40
1.0
 40
1.0
 40
1.0
 10
698.7020786439
 20
183.1285114961
 30
0.0
 10
698.6234154623
 20
183.0644941492
 30
0.0
 10
698.4653616965
 20
182.9516407772
 30
0.0
 10
698.2142894249
 20
182.8282134269
 30
0.0
 10
697.963158515
 20
182.7617665573
 30
0.0
 10
697.7955350461
 20
182.7566985902
 30
0.0
 10
697.7148348818
 20
182.7639754425
 30
0.0
  0
SPLINE
  5
3DB
100
AcDbEntity
  8
02___PRT_ALL_AXES
100
AcDbSpline
 62
7
  6
CONTINUOUS
 70
0
 71
3
 72
9
 73
5
 74
0
 42
0.0000001
 43
0.0000001
 44
0.0000000001
 40
0.0
 40
0.0
 40
0.0
 40
0.0
 40
0.2388286677
 40
1.0
 40
1.0
 40
1.0
 40
1.0
 10
691.342595743
 20
200.9187980201
 30
0.0
 10
691.2538216533
 20
200.6475279006
 30
0.0
 10
690.9000185544
 20
199.5058594471
 30
0.0
 10
690.6130953376
 20
198.3439008312
 30
0.0
 10
690.4259528993
 20
197.4536750958
 30
0.0
  0
SPLINE
  5
3DC
100
AcDbEntity
  8
02___PRT_ALL_AXES
100
AcDbSpline
 62
7
  6
CONTINUOUS
 70
0
 71
3
 72
9
 73
5
 74
0
 42
0.0000001
 43
0.0000001
 44
0.0000000001
 40
0.0
 40
0.0
 40
0.0
 40
0.0
 40
0.4649582909
 40
1.0
 40
1.0
 40
1.0
 40
1.0
 10
693.792809428
 20
205.8155451503
 30
0.0
 10
693.5483100002
 20
205.5262394258
 30
0.0
 10
693.0742411084
 20
204.8600797525
 30
0.0
 10
692.6797059771
 20
204.1458477772
 30
0.0
 10
692.4849392107
 20
203.7559036563
 30
0.0
  0
SPLINE
  5
3DD
100
AcDbEntity
  8
02___PRT_ALL_AXES
100
AcDbSpline
 62
7
  6
CONTINUOUS
 70
0
 71
3
 72
9
 73
5
 74
0
 42
0.0000001
 43
0.0000001
 44
0.0000000001
 40
0.0
 40
0.0
 40
0.0
 40
0.0
 40
0.5155794764
 40
1.0
 40
1.0
 40
1.0
 40
1.0
 10
695.1570019244
 20
206.9257466772
 30
0.0
 10
695.3131699407
 20
206.9960041826
 30
0.0
 10
695.6319617303
 20
207.1013050625
 30
0.0
 10
695.9684834587
 20
207.1191287738
 30
0.0
 10
696.1287282609
 20
207.1046780268
 30
0.0
  0
SPLINE
  5
3DE
100
AcDbEntity
  8
02___PRT_ALL_AXES
100
AcDbSpline
 62
7
  6
CONTINUOUS
 70
0
 71
3
 72
28
 73
24
 74
0
 42
0.0000001
 43
0.0000001
 44
0.0000000001
 40
0.0
 40
0.0
 40
0.0
 40
0.0
 40
0.0142112989
 40
0.0292407944
 40
0.0457628839
 40
0.0642511354
 40
0.0849921006
 40
0.1081318961
 40
0.1616549092
 40
0.2243834587
 40
0.2950830549
 40
0.372052172
 40
0.4532814854
 40
0.5365716206
 40
0.6196353667
 40
0.7001948784
 40
0.7760797054
 40
0.8453311904
 40
0.9063261234
 40
0.9333674989
 40
0.9579849876
 40
0.9801744297
 40
1.0
 40
1.0
 40
1.0
 40
1.0
 10
697.2995337601
 20
178.1571667389
 30
0.0
 10
697.1638163283
 20
178.1694164061
 30
0.0
 10
696.8867781785
 20
178.2324542837
 30
0.0
 10
696.4932548853
 20
178.4349279362
 30
0.0
 10
696.1198581775
 20
178.74087632
 30
0.0
 10
695.7681298279
 20
179.146072995
 30
0.0
 10
695.438954294
 20
179.6470638311
 30
0.0
 10
695.011890488
 20
180.4792472255
 30
0.0
 10
694.5633757475
 20
181.7440650612
 30
0.0
 10
694.1654803615
 20
183.4946098078
 30
0.0
 10
693.8975069874
 20
185.4965772822
 30
0.0
 10
693.7682653453
 20
187.6893073074
 30
0.0
 10
693.7823572617
 20
190.0063525844
 30
0.0
 10
693.9396744454
 20
192.3765415558
 30
0.0
 10
694.2354742134
 20
194.7270095337
 30
0.0
 10
694.6605335882
 20
196.9854472686
 30
0.0
 10
695.2014243303
 20
199.0828696775
 30
0.0
 10
695.8411048729
 20
200.955208878
 30
0.0
 10
696.4623337702
 20
202.3334546367
 30
0.0
 10
697.0019693615
 20
203.2701793588
 30
0.0
 10
697.4022350212
 20
203.8553938442
 30
0.0
 10
697.8113785857
 20
204.3474513981
 30
0.0
 10
698.1041940472
 20
204.6262169968
 30
0.0
 10
698.2516407889
 20
204.7462114977
 30
0.0
  0
SPLINE
  5
3DF
100
AcDbEntity
  8
02___PRT_ALL_AXES
100
AcDbSpline
 62
7
  6
CONTINUOUS
 70
0
 71
3
 72
9
 73
5
 74
0
 42
0.0000001
 43
0.0000001
 44
0.0000000001
 40
0.0
 40
0.0
 40
0.0
 40
0.0
 40
0.539683971
 40
1.0
 40
1.0
 40
1.0
 40
1.0
 10
690.7917105349
 20
179.9000020376
 30
0.0
 10
690.9315231507
 20
179.5391735325
 30
0.0
 10
691.2247940865
 20
178.882936192
 30
0.0
 10
691.6125294409
 20
178.2743953947
 30
0.0
 10
691.8197789919
 20
178.0175160662
 30
0.0
  0
SPLINE
  5
3E0
100
AcDbEntity
  8
02___PRT_ALL_AXES
100
AcDbSpline
 62
7
  6
CONTINUOUS
 70
0
 71
3
 72
9
 73
5
 74
0
 42
0.0000001
 43
0.0000001
 44
0.0000000001
 40
0.0
 40
0.0
 40
0.0
 40
0.0
 40
0.2631958714
 40
1.0
 40
1.0
 40
1.0
 40
1.0
 10
689.6099104892
 20
185.9564522278
 30
0.0
 10
689.6310678589
 20
185.6596534066
 30
0.0
 10
689.7263469932
 20
184.5331896169
 30
0.0
 10
689.8819253003
 20
183.4110821273
 30
0.0
 10
690.0419224679
 20
182.5936100922
 30
0.0
  0
SPLINE
  5
3E1
100
AcDbEntity
  8
02___PRT_ALL_AXES
100
AcDbSpline
 62
7
  6
CONTINUOUS
 70
0
 71
3
 72
9
 73
5
 74
0
 42
0.0000001
 43
0.0000001
 44
0.0000000001
 40
0.0
 40
0.0
 40
0.0
 40
0.0
 40
0.2723424676
 40
1.0
 40
1.0
 40
1.0
 40
1.0
 10
694.5127382916
 20
204.5549589755
 30
0.0
 10
694.5807306138
 20
204.6102922076
 30
0.0
 10
694.8375860217
 20
204.8037980937
 30
0.0
 10
695.1293905246
 20
204.9558675105
 30
0.0
 10
695.354030677
 20
205.0221718049
 30
0.0
  0
SPLINE
  5
3E2
100
AcDbEntity
  8
02___PRT_ALL_AXES
100
AcDbSpline
 62
7
  6
CONTINUOUS
 70
0
 71
3
 72
9
 73
5
 74
0
 42
0.0000001
 43
0.0000001
 44
0.0000000001
 40
0.0
 40
0.0
 40
0.0
 40
0.0
 40
0.2723424678
 40
1.0
 40
1.0
 40
1.0
 40
1.0
 10
695.9079336568
 20
204.9574953322
 30
0.0
 10
695.9788075545
 20
205.0151736361
 30
0.0
 10
696.2465487243
 20
205.2168804747
 30
0.0
 10
696.5507201634
 20
205.375394729
 30
0.0
 10
696.7848807666
 20
205.4445090579
 30
0.0
  0
SPLINE
  5
3E3
100
AcDbEntity
  8
7_ALL_FEATURES
100
AcDbSpline
 62
7
  6
CONTINUOUS
 70
0
 71
3
 72
10
 73
6
 74
0
 42
0.0000001
 43
0.0000001
 44
0.0000000001
 40
0.0
 40
0.0
 40
0.0
 40
0.0
 40
0.5324399194
 40
0.770752014
 40
1.0
 40
1.0
 40
1.0
 40
1.0
 10
672.3206518622
 20
233.1880579825
 30
0.0
 10
672.8318479236
 20
232.62088018
 30
0.0
 10
673.4868365839
 20
231.6997289398
 30
0.0
 10
673.960243977
 20
230.3377659755
 30
0.0
 10
674.0469062016
 20
229.6668222404
 30
0.0
 10
674.0537757157
 20
229.3381380143
 30
0.0
  0
SPLINE
  5
3E4
100
AcDbEntity
  8
3_ALL_AXES
100
AcDbSpline
 62
7
  6
CONTINUOUS
 70
0
 71
3
 72
15
 73
11
 74
0
 42
0.0000001
 43
0.0000001
 44
0.0000000001
 40
0.0
 40
0.0
 40
0.0
 40
0.0
 40
0.183229863
 40
0.3495602839
 40
0.4981848614
 40
0.6288068363
 40
0.7418613979
 40
0.8388909475
 40
0.9231182647
 40
1.0
 40
1.0
 40
1.0
 40
1.0
 10
582.5876249554
 20
249.0793477344
 30
0.0
 10
581.3886228929
 20
248.7044875297
 30
0.0
 10
579.1184460792
 20
247.9316555649
 30
0.0
 10
575.9578106649
 20
246.6299553014
 30
0.0
 10
573.2273462062
 20
245.2515989964
 30
0.0
 10
570.9510672144
 20
243.8086568687
 30
0.0
 10
569.1473316698
 20
242.3113778651
 30
0.0
 10
567.831094025
 20
240.7639198976
 30
0.0
 10
567.0228302509
 20
239.16570048
 30
0.0
 10
566.8490343243
 20
238.0505899412
 30
0.0
 10
566.8600069448
 20
237.5235983856
 30
0.0
  0
SPLINE
  5
3E5
100
AcDbEntity
  8
3_ALL_AXES
100
AcDbSpline
 62
7
  6
CONTINUOUS
 70
0
 71
3
 72
15
 73
11
 74
0
 42
0.0000001
 43
0.0000001
 44
0.0000000001
 40
0.0
 40
0.0
 40
0.0
 40
0.0
 40
0.1832257146
 40
0.3495520437
 40
0.4981733469
 40
0.6287934344
 40
0.7418480308
 40
0.8388799253
 40
0.9231119339
 40
1.0
 40
1.0
 40
1.0
 40
1.0
 10
657.6464612739
 20
250.6418709925
 30
0.0
 10
658.859683651
 20
250.3172883153
 30
0.0
 10
661.1594017106
 20
249.6397101703
 30
0.0
 10
664.3705492111
 20
248.4708784993
 30
0.0
 10
667.1552024409
 20
247.2075788218
 30
0.0
 10
669.48888249
 20
245.8608666692
 30
0.0
 10
671.3528297747
 20
244.4402113499
 30
0.0
 10
672.7319425045
 20
242.9491415773
 30
0.0
 10
673.6057746987
 20
241.3862265379
 30
0.0
 10
673.8258138397
 20
240.2795258683
 30
0.0
 10
673.8367846089
 20
239.7526232249
 30
0.0
  0
SPLINE
  5
3E6
100
AcDbEntity
  8
7_ALL_FEATURES
100
AcDbSpline
 62
7
  6
CONTINUOUS
 70
0
 71
3
 72
18
 73
14
 74
0
 42
0.0000001
 43
0.0000001
 44
0.0000000001
 40
0.0
 40
0.0
 40
0.0
 40
0.0
 40
0.1868722179
 40
0.3601165385
 40
0.5164665874
 40
0.6532658519
 40
0.7687787266
 40
0.8184296781
 40
0.8628189445
 40
0.9023201976
 40
0.9375919185
 40
0.9696697755
 40
1.0
 40
1.0
 40
1.0
 40
1.0
 10
602.0339369154
 20
210.3246173199
 30
0.0
 10
599.5803712556
 20
210.5458048367
 30
0.0
 10
594.8612581244
 20
211.0864380528
 30
0.0
 10
588.1473748743
 20
212.2407380418
 30
0.0
 10
582.1647986531
 20
213.685348304
 30
0.0
 10
577.0460641423
 20
215.3863986234
 30
0.0
 10
573.417903492
 20
217.0601375363
 30
0.0
 10
571.0762966847
 20
218.5331527339
 30
0.0
 10
569.6888410861
 20
219.6231858998
 30
0.0
 10
568.5867165993
 20
220.7503801361
 30
0.0
 10
567.7774551041
 20
221.9133549805
 30
0.0
 10
567.2712859524
 20
223.1089125989
 30
0.0
 10
567.143772094
 20
223.9323905293
 30
0.0
 10
567.1348864425
 20
224.3321317257
 30
0.0
  0
SPLINE
  5
3E7
100
AcDbEntity
  8
7_ALL_FEATURES
100
AcDbSpline
 62
7
  6
CONTINUOUS
 70
0
 71
3
 72
18
 73
14
 74
0
 42
0.0000001
 43
0.0000001
 44
0.0000000001
 40
0.0
 40
0.0
 40
0.0
 40
0.0
 40
0.1869016673
 40
0.3601676013
 40
0.5165290553
 40
0.6533279648
 40
0.7688285904
 40
0.8184696611
 40
0.8628473908
 40
0.9023366402
 40
0.9375978175
 40
0.9696691946
 40
1.0
 40
1.0
 40
1.0
 40
1.0
 10
601.8169351864
 20
220.7391023045
 30
0.0
 10
599.3626030723
 20
220.9603589167
 30
0.0
 10
594.6420925118
 20
221.5011875722
 30
0.0
 10
587.926387249
 20
222.6559924539
 30
0.0
 10
581.9425418054
 20
224.1012694737
 30
0.0
 10
576.8232004003
 20
225.8031108522
 30
0.0
 10
573.1950306574
 20
227.4776590751
 30
0.0
 10
570.853889713
 20
228.9513991971
 30
0.0
 10
569.4670249615
 20
230.0419264059
 30
0.0
 10
568.3657001394
 20
231.1696324416
 30
0.0
 10
567.5574571037
 20
232.3331397618
 30
0.0
 10
567.0525632399
 20
233.5292447576
 30
0.0
 10
566.9261082722
 20
234.3529501622
 30
0.0
 10
566.917751972
 20
234.7527723314
 30
0.0
  0
SPLINE
  5
3E8
100
AcDbEntity
  8
3_ALL_AXES
100
AcDbSpline
 62
7
  6
CONTINUOUS
 70
0
 71
3
 72
20
 73
16
 74
0
 42
0.0000001
 43
0.0000001
 44
0.0000000001
 40
0.0
 40
0.0
 40
0.0
 40
0.0
 40
0.1621234236
 40
0.3286025018
 40
0.4906374318
 40
0.6397455149
 40
0.707085444
 40
0.7685266538
 40
0.8234419822
 40
0.8714074014
 40
0.912289965
 40
0.9464121564
 40
0.9748558768
 40
0.9876577897
 40
1.0
 40
1.0
 40
1.0
 40
1.0
 10
632.980037043
 20
268.3511236083
 30
0.0
 10
630.0595260088
 20
268.614405979
 30
0.0
 10
624.1166832644
 20
268.9070807369
 30
0.0
 10
615.2375578983
 20
268.719352991
 30
0.0
 10
606.6278756373
 20
267.9276792567
 30
0.0
 10
599.870242231
 20
266.7718930671
 30
0.0
 10
594.9925343638
 20
265.5496986316
 30
0.0
 10
591.8204151569
 20
264.553561069
 30
0.0
 10
589.0527085966
 20
263.4617395469
 30
0.0
 10
586.7263860939
 20
262.2898891657
 30
0.0
 10
584.8698469368
 20
261.0510599154
 30
0.0
 10
583.5025194455
 20
259.7572436412
 30
0.0
 10
582.7646276127
 20
258.5820717816
 30
0.0
 10
582.4918268205
 20
257.6462063682
 30
0.0
 10
582.4537360388
 20
257.1892449663
 30
0.0
 10
582.4584072478
 20
256.9660581527
 30
0.0
  0
SPLINE
  5
3E9
100
AcDbEntity
  8
3_ALL_AXES
100
AcDbSpline
 62
7
  6
CONTINUOUS
 70
0
 71
3
 72
18
 73
14
 74
0
 42
0.0000001
 43
0.0000001
 44
0.0000000001
 40
0.0
 40
0.0
 40
0.0
 40
0.0
 40
0.1868964958
 40
0.3601706113
 40
0.516528802
 40
0.6533290432
 40
0.7688292217
 40
0.8184691039
 40
0.8628477686
 40
0.9023364868
 40
0.9375977895
 40
0.9696692907
 40
1.0
 40
1.0
 40
1.0
 40
1.0
 10
632.980037043
 20
268.3511236083
 30
0.0
 10
634.7003150048
 20
268.1960415508
 30
0.0
 10
638.0091077473
 20
267.8169362473
 30
0.0
 10
642.7163815431
 20
267.0075392914
 30
0.0
 10
646.9107150679
 20
265.9944521149
 30
0.0
 10
650.4990129039
 20
264.8015870491
 30
0.0
 10
653.0421414527
 20
263.6278682441
 30
0.0
 10
654.6830753362
 20
262.5948087883
 30
0.0
 10
655.655209202
 20
261.8304740914
 30
0.0
 10
656.4271428704
 20
261.0399928706
 30
0.0
 10
656.993665684
 20
260.2244602331
 30
0.0
 10
657.3476048934
 20
259.3860765375
 30
0.0
 10
657.4361822091
 20
258.8087049905
 30
0.0
 10
657.4420476857
 20
258.528456979
 30
0.0
  0
SPLINE
  5
3EA
100
AcDbEntity
  8
7_ALL_FEATURES
100
AcDbSpline
 62
7
  6
CONTINUOUS
 70
0
 71
3
 72
19
 73
15
 74
0
 42
0.0000001
 43
0.0000001
 44
0.0000000001
 40
0.0
 40
0.0
 40
0.0
 40
0.0
 40
0.1607331491
 40
0.325846343
 40
0.4868454073
 40
0.6355226698
 40
0.7029390676
 40
0.7646723947
 40
0.8200949578
 40
0.8687651824
 40
0.9105031278
 40
0.945528779
 40
0.9747192565
 40
1.0
 40
1.0
 40
1.0
 40
1.0
 10
607.7543257034
 20
247.8220389502
 30
0.0
 10
610.449718021
 20
247.5790508924
 30
0.0
 10
615.9352124686
 20
247.3058609985
 30
0.0
 10
624.1369781421
 20
247.4676337681
 30
0.0
 10
632.1057916062
 20
248.180720815
 30
0.0
 10
638.377047378
 20
249.2281956763
 30
0.0
 10
642.9234320923
 20
250.3378626095
 30
0.0
 10
645.8977878442
 20
251.2453288082
 30
0.0
 10
648.5088721846
 20
252.2417839912
 30
0.0
 10
650.7223030812
 20
253.3136393777
 30
0.0
 10
652.5114481252
 20
254.4473032144
 30
0.0
 10
653.8567899137
 20
255.634577455
 30
0.0
 10
654.7437396186
 20
256.875087527
 30
0.0
 10
655.006793434
 20
257.7806492075
 30
0.0
 10
655.0360285914
 20
258.2053051774
 30
0.0
  0
SPLINE
  5
3EB
100
AcDbEntity
  8
7_ALL_FEATURES
100
AcDbSpline
 62
7
  6
CONTINUOUS
 70
0
 71
3
 72
17
 73
13
 74
0
 42
0.0000001
 43
0.0000001
 44
0.0000000001
 40
0.0
 40
0.0
 40
0.0
 40
0.0
 40
0.0303859939
 40
0.0629547475
 40
0.0989598471
 40
0.1392672593
 40
0.23460631
 40
0.3509097815
 40
0.4877121477
 40
0.643287357
 40
0.8150916955
 40
1.0
 40
1.0
 40
1.0
 40
1.0
 10
584.8757762017
 20
256.7434087823
 30
0.0
 10
584.9044238092
 20
256.4849260279
 30
0.0
 10
585.0334268359
 20
255.955312693
 30
0.0
 10
585.4192197656
 20
255.1947066478
 30
0.0
 10
585.9932551887
 20
254.4547847676
 30
0.0
 10
587.0630762502
 20
253.4415512209
 30
0.0
 10
588.890320546
 20
252.2665771175
 30
0.0
 10
591.6177826669
 20
251.0460776339
 30
0.0
 10
594.9498748009
 20
249.9644329955
 30
0.0
 10
598.818259976
 20
249.0456480332
 30
0.0
 10
603.1432515109
 20
248.3103118813
 30
0.0
 10
606.1781378922
 20
247.9641313591
 30
0.0
 10
607.7543257034
 20
247.8220389502
 30
0.0
  0
SPLINE
  5
3EC
100
AcDbEntity
  8
7_ALL_FEATURES
100
AcDbSpline
 62
7
  6
CONTINUOUS
 70
0
 71
3
 72
21
 73
17
 74
0
 42
0.0000001
 43
0.0000001
 44
0.0000000001
 40
0.0
 40
0.0
 40
0.0
 40
0.0
 40
0.012341856
 40
0.0251430275
 40
0.0535860594
 40
0.0877073685
 40
0.1285879571
 40
0.1765511351
 40
0.2314645667
 40
0.2929038795
 40
0.3602412062
 40
0.4326978983
 40
0.509380475
 40
0.6714095914
 40
0.8378854089
 40
1.0
 40
1.0
 40
1.0
 40
1.0
 10
673.8945083917
 20
236.9817967185
 30
0.0
 10
673.9011632993
 20
236.6633807269
 30
0.0
 10
673.8467013682
 20
236.0114701272
 30
0.0
 10
673.457725985
 20
234.6762420562
 30
0.0
 10
672.4048134543
 20
232.9997127031
 30
0.0
 10
670.4541145281
 20
231.1538872848
 30
0.0
 10
667.8054764308
 20
229.3864597613
 30
0.0
 10
664.4866245263
 20
227.7146103592
 30
0.0
 10
660.5380263493
 20
226.156912678
 30
0.0
 10
656.0124442721
 20
224.7359470924
 30
0.0
 10
650.9730427836
 20
223.472495276
 30
0.0
 10
645.4915020481
 20
222.385290754
 30
0.0
 10
637.5520195616
 20
221.1707341015
 30
0.0
 10
627.1288141613
 20
220.2142120682
 30
0.0
 10
614.4620978166
 20
219.9458067805
 30
0.0
 10
605.9834576365
 20
220.3634927295
 30
0.0
 10
601.8169351864
 20
220.7391023045
 30
0.0
  0
SPLINE
  5
3ED
100
AcDbEntity
  8
7_ALL_FEATURES
100
AcDbSpline
 62
7
  6
CONTINUOUS
 70
0
 71
3
 72
21
 73
17
 74
0
 42
0.0000001
 43
0.0000001
 44
0.0000000001
 40
0.0
 40
0.0
 40
0.0
 40
0.0
 40
0.012341856
 40
0.0251430275
 40
0.0535860594
 40
0.0877073685
 40
0.1285879571
 40
0.1765511351
 40
0.2314645667
 40
0.2929038795
 40
0.3602412062
 40
0.4326978983
 40
0.509380475
 40
0.6714095914
 40
0.8378854089
 40
1.0
 40
1.0
 40
1.0
 40
1.0
 10
674.1115101207
 20
226.567311734
 30
0.0
 10
674.1181650283
 20
226.2488957424
 30
0.0
 10
674.0637030972
 20
225.5969851427
 30
0.0
 10
673.674727714
 20
224.2617570717
 30
0.0
 10
672.6218151833
 20
222.5852277186
 30
0.0
 10
670.6711162571
 20
220.7394023002
 30
0.0
 10
668.0224781598
 20
218.9719747767
 30
0.0
 10
664.7036262553
 20
217.3001253746
 30
0.0
 10
660.7550280783
 20
215.7424276935
 30
0.0
 10
656.2294460011
 20
214.3214621079
 30
0.0
 10
651.1900445126
 20
213.0580102914
 30
0.0
 10
645.7085037772
 20
211.9708057695
 30
0.0
 10
637.7690212906
 20
210.756249117
 30
0.0
 10
627.3458158903
 20
209.7997270836
 30
0.0
 10
614.6790995457
 20
209.531321796
 30
0.0
 10
606.2004593655
 20
209.949007745
 30
0.0
 10
602.0339369154
 20
210.3246173199
 30
0.0
  0
SPLINE
  5
3EE
100
AcDbEntity
  8
7_ALL_FEATURES
100
AcDbSpline
 62
7
  6
CONTINUOUS
 70
0
 71
3
 72
10
 73
6
 74
0
 42
0.0000001
 43
0.0000001
 44
0.0000000001
 40
0.0
 40
0.0
 40
0.0
 40
0.0
 40
0.2302989051
 40
0.4691783484
 40
1.0
 40
1.0
 40
1.0
 40
1.0
 10
567.0770192961
 20
227.1091136271
 30
0.0
 10
567.0703604606
 20
227.4277175547
 30
0.0
 10
567.1249521226
 20
228.0801433528
 30
0.0
 10
567.5140643445
 20
229.4154645286
 30
0.0
 10
568.0927646606
 20
230.3371756418
 30
0.0
 10
568.5523342027
 20
230.9101618532
 30
0.0
  0
SPLINE
  5
3EF
100
AcDbEntity
  8
7_ALL_FEATURES
100
AcDbSpline
 62
7
  6
CONTINUOUS
 70
0
 71
3
 72
18
 73
14
 74
0
 42
0.0000001
 43
0.0000001
 44
0.0000000001
 40
0.0
 40
0.0
 40
0.0
 40
0.0
 40
0.0303305354
 40
0.0624024546
 40
0.0976631145
 40
0.1371526928
 40
0.1815304357
 40
0.2311711978
 40
0.346671701
 40
0.4834706842
 40
0.6398318799
 40
0.8130992561
 40
1.0
 40
1.0
 40
1.0
 40
1.0
 10
569.0766292138
 20
227.1507785505
 30
0.0
 10
569.0846440931
 20
226.7659058401
 30
0.0
 10
569.2062858388
 20
225.9729654774
 30
0.0
 10
569.6924313086
 20
224.8216277301
 30
0.0
 10
570.4703793824
 20
223.7015667206
 30
0.0
 10
571.5305711532
 20
222.6160462031
 30
0.0
 10
572.865584331
 20
221.566286002
 30
0.0
 10
575.1191898409
 20
220.1476198299
 30
0.0
 10
578.6117271055
 20
218.535681096
 30
0.0
 10
583.5396858813
 20
216.897459042
 30
0.0
 10
589.2998515093
 20
215.506205605
 30
0.0
 10
595.764507309
 20
214.3945818111
 30
0.0
 10
600.3085560653
 20
213.8739673995
 30
0.0
 10
602.6711256878
 20
213.6609831225
 30
0.0
  0
SPLINE
  5
3F0
100
AcDbEntity
  8
7_ALL_FEATURES
100
AcDbSpline
 62
7
  6
CONTINUOUS
 70
0
 71
3
 72
18
 73
14
 74
0
 42
0.0000001
 43
0.0000001
 44
0.0000000001
 40
0.0
 40
0.0
 40
0.0
 40
0.0
 40
0.0304672309
 40
0.0621649549
 40
0.096743718
 40
0.135428492
 40
0.1790189754
 40
0.2279755724
 40
0.3426070803
 40
0.4793411872
 40
0.6364367752
 40
0.8111364406
 40
1.0
 40
1.0
 40
1.0
 40
1.0
 10
655.0360285914
 20
258.2053051774
 30
0.0
 10
655.0543192017
 20
258.4709858683
 30
0.0
 10
655.0192850442
 20
259.020758844
 30
0.0
 10
654.7464977504
 20
259.829738412
 30
0.0
 10
654.2629696186
 20
260.6169345494
 30
0.0
 10
653.5771342117
 20
261.3796397378
 30
0.0
 10
652.6945541964
 20
262.1170752236
 30
0.0
 10
651.1807590476
 20
263.1163141158
 30
0.0
 10
648.8012874954
 20
264.2509779173
 30
0.0
 10
645.4169074485
 20
265.4027168019
 30
0.0
 10
641.4355188176
 20
266.3806368327
 30
0.0
 10
636.9491234641
 20
267.1607474859
 30
0.0
 10
633.7902901457
 20
267.524256037
 30
0.0
 10
632.1461292301
 20
267.6724761816
 30
0.0
  0
SPLINE
  5
3F1
100
AcDbEntity
  8
3_ALL_AXES
100
AcDbSpline
 62
7
  6
CONTINUOUS
 70
0
 71
3
 72
18
 73
14
 74
0
 42
0.0000001
 43
0.0000001
 44
0.0000000001
 40
0.0
 40
0.0
 40
0.0
 40
0.0
 40
0.0303307093
 40
0.0624022105
 40
0.0976635132
 40
0.1371522314
 40
0.1815308961
 40
0.2311707783
 40
0.3466709568
 40
0.483471198
 40
0.6398293887
 40
0.8131035042
 40
1.0
 40
1.0
 40
1.0
 40
1.0
 10
582.4584072478
 20
256.9660581527
 30
0.0
 10
582.4642727244
 20
256.6858101413
 30
0.0
 10
582.5528500401
 20
256.1084385942
 30
0.0
 10
582.9067892495
 20
255.2700548987
 30
0.0
 10
583.4733120631
 20
254.4545222611
 30
0.0
 10
584.2452457315
 20
253.6640410403
 30
0.0
 10
585.2173795973
 20
252.8997063435
 30
0.0
 10
586.8583134808
 20
251.8666468877
 30
0.0
 10
589.4014420296
 20
250.6929280826
 30
0.0
 10
592.9897398656
 20
249.5000630168
 30
0.0
 10
597.1840733905
 20
248.4869758404
 30
0.0
 10
601.8913471862
 20
247.6775788845
 30
0.0
 10
605.2001399287
 20
247.2984735809
 30
0.0
 10
606.9204178905
 20
247.1433915235
 30
0.0
  0
SPLINE
  5
3F2
100
AcDbEntity
  8
3_ALL_AXES
100
AcDbSpline
 62
7
  6
CONTINUOUS
 70
0
 71
3
 72
18
 73
14
 74
0
 42
0.0000001
 43
0.0000001
 44
0.0000000001
 40
0.0
 40
0.0
 40
0.0
 40
0.0
 40
0.1868991143
 40
0.3601690791
 40
0.5165294154
 40
0.6533289649
 40
0.7688295948
 40
0.8184688532
 40
0.8628481598
 40
0.9023361742
 40
0.9375981557
 40
0.969669145
 40
1.0
 40
1.0
 40
1.0
 40
1.0
 10
607.3185862006
 20
228.0342447628
 30
0.0
 10
605.5982835588
 20
228.1893290452
 30
0.0
 10
602.289501894
 20
228.5684227813
 30
0.0
 10
597.5822265345
 20
229.3778452482
 30
0.0
 10
593.3879067418
 20
230.3908992534
 30
0.0
 10
589.7996045562
 20
231.5837950923
 30
0.0
 10
587.2564545453
 20
232.7574700791
 30
0.0
 10
585.6155556884
 20
233.7905839117
 30
0.0
 10
584.6433783233
 20
234.5548643352
 30
0.0
 10
583.871513711
 20
235.345407871
 30
0.0
 10
583.3048865163
 20
236.1608787121
 30
0.0
 10
582.9511015116
 20
236.9993139556
 30
0.0
 10
582.8623605538
 20
237.5766602357
 30
0.0
 10
582.856538553
 20
237.8569105948
 30
0.0
  0
SPLINE
  5
3F3
100
AcDbEntity
  8
3_ALL_AXES
100
AcDbSpline
 62
7
  6
CONTINUOUS
 70
0
 71
3
 72
21
 73
17
 74
0
 42
0.0000001
 43
0.0000001
 44
0.0000000001
 40
0.0
 40
0.0
 40
0.0
 40
0.0
 40
0.0123418502
 40
0.0251430359
 40
0.0535859755
 40
0.0877071995
 40
0.1285879219
 40
0.1765512501
 40
0.2314647555
 40
0.292904176
 40
0.3602414759
 40
0.4326979994
 40
0.5093805136
 40
0.6714098619
 40
0.8378871561
 40
1.0
 40
1.0
 40
1.0
 40
1.0
 10
673.8367846089
 20
239.7526232249
 30
0.0
 10
673.8434144367
 20
239.4342067406
 30
0.0
 10
673.7890179169
 20
238.7822934168
 30
0.0
 10
673.399989841
 20
237.4470738656
 30
0.0
 10
672.3471259056
 20
235.770534703
 30
0.0
 10
670.3964196866
 20
233.9247026142
 30
0.0
 10
667.7477729932
 20
232.1572819572
 30
0.0
 10
664.4289075648
 20
230.4854341231
 30
0.0
 10
660.4802995697
 20
228.927734413
 30
0.0
 10
655.9547088599
 20
227.5067764493
 30
0.0
 10
650.915307774
 20
226.2433256714
 30
0.0
 10
645.4337735914
 20
225.1561114125
 30
0.0
 10
637.4942887791
 20
223.9415496115
 30
0.0
 10
627.0710369887
 20
222.985017641
 30
0.0
 10
614.4043161538
 20
222.7166469074
 30
0.0
 10
605.9256798945
 20
223.1343229166
 30
0.0
 10
601.7592007814
 20
223.5099285847
 30
0.0
  0
SPLINE
  5
3F4
100
AcDbEntity
  8
7_ALL_FEATURES
100
AcDbSpline
 62
7
  6
CONTINUOUS
 70
0
 71
3
 72
17
 73
13
 74
0
 42
0.0000001
 43
0.0000001
 44
0.0000000001
 40
0.0
 40
0.0
 40
0.0
 40
0.0
 40
0.1461623348
 40
0.2967017668
 40
0.4460064315
 40
0.5885072013
 40
0.7190078312
 40
0.8330026993
 40
0.8827204814
 40
0.9271712288
 40
0.9662338828
 40
1.0
 40
1.0
 40
1.0
 40
1.0
 10
632.0770111854
 20
260.8146129587
 30
0.0
 10
629.8289761629
 20
261.017271758
 30
0.0
 10
625.2505334425
 20
261.2725535553
 30
0.0
 10
618.3592818667
 20
261.2423567715
 30
0.0
 10
611.5378445736
 20
260.8101055988
 30
0.0
 10
605.0625253391
 20
259.994432147
 30
0.0
 10
599.195590763
 20
258.8300842935
 30
0.0
 10
594.8228586402
 20
257.5616849351
 30
0.0
 10
591.8315641056
 20
256.3781922859
 30
0.0
 10
589.9787617785
 20
255.4776507371
 30
0.0
 10
588.4300543635
 20
254.5329621508
 30
0.0
 10
587.5468809813
 20
253.828458605
 30
0.0
 10
587.1707629085
 20
253.4672974897
 30
0.0
  0
SPLINE
  5
3F5
100
AcDbEntity
  8
7_ALL_FEATURES
100
AcDbSpline
 62
7
  6
CONTINUOUS
 70
0
 71
3
 72
9
 73
5
 74
0
 42
0.0000001
 43
0.0000001
 44
0.0000000001
 40
0.0
 40
0.0
 40
0.0
 40
0.0
 40
0.4786179499
 40
1.0
 40
1.0
 40
1.0
 40
1.0
 10
674.0537757157
 20
229.3381380143
 30
0.0
 10
674.0643902689
 20
228.830265676
 30
0.0
 10
673.9049615317
 20
227.7597593257
 30
0.0
 10
673.4351673378
 20
226.7923703788
 30
0.0
 10
673.1408039003
 20
226.3237876699
 30
0.0
  0
SPLINE
  5
3F6
100
AcDbEntity
  8
7_ALL_FEATURES
100
AcDbSpline
 62
7
  6
CONTINUOUS
 70
0
 71
3
 72
19
 73
15
 74
0
 42
0.0000001
 43
0.0000001
 44
0.0000000001
 40
0.0
 40
0.0
 40
0.0
 40
0.0
 40
0.0293967309
 40
0.0641541602
 40
0.1048033845
 40
0.1514513865
 40
0.2039341478
 40
0.2619025175
 40
0.3248719668
 40
0.3922537785
 40
0.5374873253
 40
0.6916051077
 40
0.8480159014
 40
1.0
 40
1.0
 40
1.0
 40
1.0
 10
673.1408039003
 20
226.3237876699
 30
0.0
 10
672.7538671951
 20
225.7078421195
 30
0.0
 10
671.7168232196
 20
224.4840964017
 30
0.0
 10
669.6924702336
 20
222.8491509812
 30
0.0
 10
667.1037736691
 20
221.2797017589
 30
0.0
 10
663.9766561544
 20
219.7918578891
 30
0.0
 10
660.343450994
 20
218.4005228438
 30
0.0
 10
656.2446517988
 20
217.1222513558
 30
0.0
 10
651.7270459937
 20
215.9720869015
 30
0.0
 10
645.0466828916
 20
214.5939116343
 30
0.0
 10
636.0539361032
 20
213.3107286602
 30
0.0
 10
624.7998850383
 20
212.475360321
 30
0.0
 10
613.3488460931
 20
212.3515353782
 30
0.0
 10
605.7217392203
 20
212.7577856448
 30
0.0
 10
601.9762025104
 20
213.0954436002
 30
0.0
  0
SPLINE
  5
3F7
100
AcDbEntity
  8
7_ALL_FEATURES
100
AcDbSpline
 62
7
  6
CONTINUOUS
 70
0
 71
3
 72
21
 73
17
 74
0
 42
0.0000001
 43
0.0000001
 44
0.0000000001
 40
0.0
 40
0.0
 40
0.0
 40
0.0
 40
0.0123417881
 40
0.0251430691
 40
0.0535858542
 40
0.0877070132
 40
0.1285878232
 40
0.1765513791
 40
0.2314650539
 40
0.2929043387
 40
0.3602414102
 40
0.4326978389
 40
0.5093803983
 40
0.6714096049
 40
0.8378846174
 40
1.0
 40
1.0
 40
1.0
 40
1.0
 10
672.054165798
 20
229.296473091
 30
0.0
 10
672.0605488226
 20
228.9899616786
 30
0.0
 10
672.0082698648
 20
228.3624091621
 30
0.0
 10
671.6336812807
 20
227.0771303192
 30
0.0
 10
670.6202632696
 20
225.4632415037
 30
0.0
 10
668.7424578944
 20
223.6864177347
 30
0.0
 10
666.1928282797
 20
221.9850676399
 30
0.0
 10
662.9980125042
 20
220.3757278992
 30
0.0
 10
659.1970079559
 20
218.8762695374
 30
0.0
 10
654.8406061318
 20
217.5084268412
 30
0.0
 10
649.9896089996
 20
216.2922002739
 30
0.0
 10
644.7130012306
 20
215.2456258786
 30
0.0
 10
637.0703264366
 20
214.0764677647
 30
0.0
 10
627.0367891785
 20
213.1557215881
 30
0.0
 10
614.8435926585
 20
212.8973430594
 30
0.0
 10
606.6819102353
 20
213.2994132289
 30
0.0
 10
602.6711256878
 20
213.6609831225
 30
0.0
  0
SPLINE
  5
3F8
100
AcDbEntity
  8
7_ALL_FEATURES
100
AcDbSpline
 62
7
  6
CONTINUOUS
 70
0
 71
3
 72
14
 73
10
 74
0
 42
0.0000001
 43
0.0000001
 44
0.0000000001
 40
0.0
 40
0.0
 40
0.0
 40
0.0
 40
0.0800909086
 40
0.1739834162
 40
0.2818138075
 40
0.4030955755
 40
0.53691257
 40
0.6820148751
 40
1.0
 40
1.0
 40
1.0
 40
1.0
 10
652.8520276074
 20
254.8606301016
 30
0.0
 10
652.4126737998
 20
255.2452832754
 30
0.0
 10
651.3733056459
 20
255.9840994673
 30
0.0
 10
649.55232542
 20
256.9435980736
 30
0.0
 10
647.367586535
 20
257.83131286
 30
0.0
 10
644.8447025652
 20
258.6360191834
 30
0.0
 10
642.0133180938
 20
259.34793272
 30
0.0
 10
637.7414240017
 20
260.1865519532
 30
0.0
 10
634.3860790033
 20
260.6064515656
 30
0.0
 10
632.0770111854
 20
260.8146129587
 30
0.0
  0
SPLINE
  5
3F9
100
AcDbEntity
  8
3_ALL_AXES
100
AcDbSpline
 62
7
  6
CONTINUOUS
 70
0
 71
3
 72
20
 73
16
 74
0
 42
0.0000001
 43
0.0000001
 44
0.0000000001
 40
0.0
 40
0.0
 40
0.0
 40
0.0
 40
0.0123423757
 40
0.0251438215
 40
0.0535880666
 40
0.0877107394
 40
0.1285926902
 40
0.1765574114
 40
0.2314729915
 40
0.2929149568
 40
0.3602548373
 40
0.5093623368
 40
0.6713974757
 40
0.8378776771
 40
1.0
 40
1.0
 40
1.0
 40
1.0
 10
657.8402530008
 20
239.4193110157
 30
0.0
 10
657.8448896247
 20
239.1961204728
 30
0.0
 10
657.8067031719
 20
238.7391839412
 30
0.0
 10
657.5341367596
 20
237.803250293
 30
0.0
 10
656.7960486458
 20
236.628136695
 30
0.0
 10
655.4287511695
 20
235.3343315963
 30
0.0
 10
653.5722310918
 20
234.0954795577
 30
0.0
 10
651.245944772
 20
232.9236069031
 30
0.0
 10
648.4782264317
 20
231.8317918914
 30
0.0
 10
645.3060802037
 20
230.8356842989
 30
0.0
 10
640.4283715124
 20
229.6134864115
 30
0.0
 10
633.6707512398
 20
228.4576603544
 30
0.0
 10
625.0610500871
 20
227.6660300731
 30
0.0
 10
616.1819213155
 20
227.478283103
 30
0.0
 10
610.2390776044
 20
227.7709641618
 30
0.0
 10
607.3185862006
 20
228.0342447628
 30
0.0
  0
SPLINE
  5
3FA
100
AcDbEntity
  8
3_ALL_AXES
100
AcDbSpline
 62
7
  6
CONTINUOUS
 70
0
 71
3
 72
19
 73
15
 74
0
 42
0.0000001
 43
0.0000001
 44
0.0000000001
 40
0.0
 40
0.0
 40
0.0
 40
0.0
 40
0.0303285886
 40
0.0623978269
 40
0.09765656
 40
0.1371426494
 40
0.1815177684
 40
0.231154701
 40
0.2862170658
 40
0.346717499
 40
0.4835073355
 40
0.6398561717
 40
0.813113357
 40
1.0
 40
1.0
 40
1.0
 40
1.0
 10
566.8600069448
 20
237.5235983856
 30
0.0
 10
566.8683317357
 20
237.1237764408
 30
0.0
 10
566.9948053466
 20
236.3000668111
 30
0.0
 10
567.4997032924
 20
235.1039638569
 30
0.0
 10
568.3079613828
 20
233.9404753225
 30
0.0
 10
569.4092385708
 20
232.8127040034
 30
0.0
 10
570.7962052743
 20
231.7223546247
 30
0.0
 10
572.4617239057
 20
230.6730919102
 30
0.0
 10
574.3973408178
 20
229.6693574042
 30
0.0
 10
577.4519212059
 20
228.3443401815
 30
0.0
 10
581.8857628212
 20
226.8723258946
 30
0.0
 10
587.8683309578
 20
225.4267266917
 30
0.0
 10
594.5844623659
 20
224.2720503366
 30
0.0
 10
599.3048919937
 20
223.7311830941
 30
0.0
 10
601.7592007814
 20
223.5099285847
 30
0.0
  0
SPLINE
  5
3FB
100
AcDbEntity
  8
3_ALL_AXES
100
AcDbSpline
 62
7
  6
CONTINUOUS
 70
0
 71
3
 72
20
 73
16
 74
0
 42
0.0000001
 43
0.0000001
 44
0.0000000001
 40
0.0
 40
0.0
 40
0.0
 40
0.0
 40
0.0123422103
 40
0.0251441232
 40
0.0535878436
 40
0.087710035
 40
0.1285925986
 40
0.1765580178
 40
0.2314733462
 40
0.292914556
 40
0.3602544851
 40
0.5093625682
 40
0.6713974982
 40
0.8378765764
 40
1.0
 40
1.0
 40
1.0
 40
1.0
 10
657.4420476857
 20
258.528456979
 30
0.0
 10
657.4467188947
 20
258.3052701655
 30
0.0
 10
657.408628113
 20
257.8483087635
 30
0.0
 10
657.1358273208
 20
256.9124433502
 30
0.0
 10
656.397935488
 20
255.7372714905
 30
0.0
 10
655.0306079967
 20
254.4434552163
 30
0.0
 10
653.1740688396
 20
253.204625966
 30
0.0
 10
650.8477463369
 20
252.0327755848
 30
0.0
 10
648.0800397766
 20
250.9409540628
 30
0.0
 10
644.9079205697
 20
249.9448165002
 30
0.0
 10
640.0302127025
 20
248.7226220646
 30
0.0
 10
633.2725792962
 20
247.5668358751
 30
0.0
 10
624.6628970352
 20
246.7751621408
 30
0.0
 10
615.7837716691
 20
246.5874343949
 30
0.0
 10
609.8409289247
 20
246.8801091528
 30
0.0
 10
606.9204178905
 20
247.1433915235
 30
0.0
  0
SPLINE
  5
3FC
100
AcDbEntity
  8
7_ALL_FEATURES
100
AcDbSpline
 62
7
  6
CONTINUOUS
 70
0
 71
3
 72
20
 73
16
 74
0
 42
0.0000001
 43
0.0000001
 44
0.0000000001
 40
0.0
 40
0.0
 40
0.0
 40
0.0
 40
0.1635157882
 40
0.3313631126
 40
0.4944231598
 40
0.6439339101
 40
0.711177733
 40
0.7723056187
 40
0.8266906011
 40
0.8739292374
 40
0.9139452613
 40
0.9471818286
 40
0.9749528032
 40
0.9876135237
 40
1.0
 40
1.0
 40
1.0
 40
1.0
 10
632.1461292301
 20
267.6724761816
 30
0.0
 10
629.3743490924
 20
267.9223505572
 30
0.0
 10
623.7348903978
 20
268.1969745064
 30
0.0
 10
615.3153146645
 20
268.0070011704
 30
0.0
 10
607.1679060505
 20
267.2377747133
 30
0.0
 10
600.790507684
 20
266.1211737685
 30
0.0
 10
596.2078422268
 20
264.9425421654
 30
0.0
 10
593.2458897144
 20
263.9851797657
 30
0.0
 10
590.678025864
 20
262.93784917
 30
0.0
 10
588.5390126048
 20
261.8157762749
 30
0.0
 10
586.8552216812
 20
260.6310454999
 30
0.0
 10
585.6434616145
 20
259.3934574131
 30
0.0
 10
585.031333589
 20
258.2692759662
 30
0.0
 10
584.8498980594
 20
257.382909214
 30
0.0
 10
584.8525536346
 20
256.9529422698
 30
0.0
 10
584.8757762017
 20
256.7434087823
 30
0.0
  0
SPLINE
  5
3FD
100
AcDbEntity
  8
7_ALL_FEATURES
100
AcDbSpline
 62
7
  6
CONTINUOUS
 70
0
 71
3
 72
15
 73
11
 74
0
 42
0.0000001
 43
0.0000001
 44
0.0000000001
 40
0.0
 40
0.0
 40
0.0
 40
0.0
 40
0.1722537103
 40
0.3343921655
 40
0.484175634
 40
0.6197012401
 40
0.73946983
 40
0.8425688168
 40
0.9289519163
 40
1.0
 40
1.0
 40
1.0
 40
1.0
 10
601.9762025104
 20
213.0954436002
 30
0.0
 10
599.8941461135
 20
213.2831397731
 30
0.0
 10
595.85911139
 20
213.73071085
 30
0.0
 10
590.0530867274
 20
214.6500556923
 30
0.0
 10
584.7396060028
 20
215.7848652654
 30
0.0
 10
580.0029290773
 20
217.1161078592
 30
0.0
 10
575.9163442583
 20
218.6212283413
 30
0.0
 10
572.5382745138
 20
220.2788878431
 30
0.0
 10
569.9143340443
 20
222.0637893932
 30
0.0
 10
568.5724273268
 20
223.4607589565
 30
0.0
 10
568.0882531486
 20
224.1742382751
 30
0.0
  0
SPLINE
  5
3FE
100
AcDbEntity
  8
7_ALL_FEATURES
100
AcDbSpline
 62
7
  6
CONTINUOUS
 70
0
 71
3
 72
9
 73
5
 74
0
 42
0.0000001
 43
0.0000001
 44
0.0000000001
 40
0.0
 40
0.0
 40
0.0
 40
0.0
 40
0.5208815183
 40
1.0
 40
1.0
 40
1.0
 40
1.0
 10
568.0882531486
 20
224.1742382751
 30
0.0
 10
567.7823641584
 20
224.6249964487
 30
0.0
 10
567.2855931584
 20
225.5607805669
 30
0.0
 10
567.087489434
 20
226.6081510976
 30
0.0
 10
567.0770192961
 20
227.1091136271
 30
0.0
  0
SPLINE
  5
3FF
100
AcDbEntity
  8
3_ALL_AXES
100
AcDbSpline
 62
7
  6
CONTINUOUS
 70
0
 71
3
 72
12
 73
8
 74
0
 42
0.0000001
 43
0.0000001
 44
0.0000000001
 40
0.0
 40
0.0
 40
0.0
 40
0.0
 40
0.066976722
 40
0.1605936944
 40
0.4146296676
 40
0.7151117893
 40
1.0
 40
1.0
 40
1.0
 40
1.0
 10
601.3993472728
 20
196.0457218607
 30
0.0
 10
601.431275767
 20
196.0174928122
 30
0.0
 10
601.5240217362
 20
195.969686797
 30
0.0
 10
601.7768346148
 20
195.894612336
 30
0.0
 10
602.1881226814
 20
195.8403614471
 30
0.0
 10
602.7218282583
 20
195.8215028553
 30
0.0
 10
603.0951635173
 20
195.8470138891
 30
0.0
 10
603.2739757475
 20
195.8768121069
 30
0.0
  0
SPLINE
  5
400
100
AcDbEntity
  8
3_ALL_AXES
100
AcDbSpline
 62
7
  6
CONTINUOUS
 70
0
 71
3
 72
12
 73
8
 74
0
 42
0.0000001
 43
0.0000001
 44
0.0000000001
 40
0.0
 40
0.0
 40
0.0
 40
0.0
 40
0.1219914842
 40
0.2451311505
 40
0.4949688833
 40
0.7490038384
 40
1.0
 40
1.0
 40
1.0
 40
1.0
 10
616.4272506527
 20
182.8040056033
 30
0.0
 10
616.3577556742
 20
183.5694856481
 30
0.0
 10
616.0735209382
 20
185.0983446143
 30
0.0
 10
614.9579528506
 20
188.0252094758
 30
0.0
 10
612.6113963825
 20
191.2984049028
 30
0.0
 10
608.7689714115
 20
194.2018405834
 30
0.0
 10
605.750055806
 20
195.3621281266
 30
0.0
 10
604.2055214235
 20
195.70180315
 30
0.0
  0
SPLINE
  5
401
100
AcDbEntity
  8
3_ALL_AXES
100
AcDbSpline
 62
7
  6
CONTINUOUS
 70
0
 71
3
 72
10
 73
6
 74
0
 42
0.0000001
 43
0.0000001
 44
0.0000000001
 40
0.0
 40
0.0
 40
0.0
 40
0.0
 40
0.5155338053
 40
0.7605424941
 40
1.0
 40
1.0
 40
1.0
 40
1.0
 10
601.3993472728
 20
196.0457218607
 30
0.0
 10
600.0548106198
 20
196.076946423
 30
0.0
 10
598.0371868163
 20
195.8260502483
 30
0.0
 10
595.6200253427
 20
194.8151186546
 30
0.0
 10
594.5583786018
 20
194.1117650234
 30
0.0
 10
594.0738700104
 20
193.717452086
 30
0.0
  0
LINE
  5
402
100
AcDbEntity
  8
6_ALL_SURFS
100
AcDbLine
 62
7
  6
CONTINUOUS
 10
591.1617249371
 20
185.1616469973
 11
591.502589642
 21
172.8074795124
  0
SPLINE
  5
403
100
AcDbEntity
  8
6_ALL_SURFS
100
AcDbSpline
 62
7
  6
CONTINUOUS
 70
0
 71
3
 72
11
 73
7
 74
0
 42
0.0000001
 43
0.0000001
 44
0.0000000001
 40
0.0
 40
0.0
 40
0.0
 40
0.0
 40
0.2367659108
 40
0.4792298143
 40
0.7329663203
 40
1.0
 40
1.0
 40
1.0
 40
1.0
 10
595.5871835703
 20
193.6597132085
 30
0.0
 10
594.9939000582
 20
193.1768727981
 30
0.0
 10
593.9148616969
 20
192.0386931979
 30
0.0
 10
592.7581753248
 20
189.9465042088
 30
0.0
 10
592.0884922257
 20
187.5530934727
 30
0.0
 10
591.9793671059
 20
185.8613334396
 30
0.0
 10
592.0031272593
 20
184.9989416012
 30
0.0
  0
SPLINE
  5
404
100
AcDbEntity
  8
6_ALL_SURFS
100
AcDbSpline
 62
7
  6
CONTINUOUS
 70
0
 71
3
 72
16
 73
12
 74
0
 42
0.0000001
 43
0.0000001
 44
0.0000000001
 40
0.0
 40
0.0
 40
0.0
 40
0.0
 40
0.1861687902
 40
0.3559845293
 40
0.5078183088
 40
0.6406539737
 40
0.7542157017
 40
0.849451849
 40
0.9292868045
 40
0.9653038559
 40
1.0
 40
1.0
 40
1.0
 40
1.0
 10
590.6425896173
 20
169.1926204605
 30
0.0
 10
589.0283502537
 20
169.503086819
 30
0.0
 10
585.9550510148
 20
170.1709268333
 30
0.0
 10
581.6338334509
 20
171.3789030094
 30
0.0
 10
577.852154677
 20
172.7344584756
 30
0.0
 10
574.6577827355
 20
174.2187631017
 30
0.0
 10
572.0871418748
 20
175.8167955019
 30
0.0
 10
570.1660135264
 20
177.5141907742
 30
0.0
 10
569.0945381428
 20
179.0775882856
 30
0.0
 10
568.6575181257
 20
180.3404732321
 30
0.0
 10
568.5696439965
 20
180.9635021666
 30
0.0
 10
568.5576483367
 20
181.2696255713
 30
0.0
  0
SPLINE
  5
405
100
AcDbEntity
  8
6_ALL_SURFS
100
AcDbSpline
 62
7
  6
CONTINUOUS
 70
0
 71
3
 72
10
 73
6
 74
0
 42
0.0000001
 43
0.0000001
 44
0.0000000001
 40
0.0
 40
0.0
 40
0.0
 40
0.0
 40
0.5249905766
 40
0.7708438892
 40
1.0
 40
1.0
 40
1.0
 40
1.0
 10
616.8427896572
 20
168.3282666711
 30
0.0
 10
612.5540271659
 20
168.3706744008
 30
0.0
 10
606.2534481352
 20
168.6798137407
 30
0.0
 10
598.1393333391
 20
169.6494204797
 30
0.0
 10
594.3126741554
 20
170.3099925096
 30
0.0
 10
592.4789218915
 20
170.6870568398
 30
0.0
  0
LINE
  5
406
100
AcDbEntity
  8
6_ALL_SURFS
100
AcDbLine
 62
7
  6
CONTINUOUS
 10
616.4729782612
 20
182.0316918219
 11
616.7922439597
 21
170.4490872067
  0
SPLINE
  5
407
100
AcDbEntity
  8
6_ALL_SURFS
100
AcDbSpline
 62
7
  6
CONTINUOUS
 70
0
 71
3
 72
18
 73
14
 74
0
 42
0.0000001
 43
0.0000001
 44
0.0000000001
 40
0.0
 40
0.0
 40
0.0
 40
0.0
 40
0.0349727829
 40
0.0744642446
 40
0.1185651327
 40
0.1672318666
 40
0.2775644087
 40
0.403510611
 40
0.4714921935
 40
0.5422718145
 40
0.6904524661
 40
0.8443358892
 40
1.0
 40
1.0
 40
1.0
 40
1.0
 10
671.891039959
 20
178.5913315163
 30
0.0
 10
671.402344231
 20
178.1392993073
 30
0.0
 10
670.2909961654
 20
177.2526278261
 30
0.0
 10
668.384449146
 20
176.0395026849
 30
0.0
 10
666.1517013089
 20
174.870902113
 30
0.0
 10
662.6087170349
 20
173.3180412734
 30
0.0
 10
657.4593025331
 20
171.5829956709
 30
0.0
 10
651.8325779697
 20
170.1911288654
 30
0.0
 10
646.8872411433
 20
169.2222559169
 30
0.0
 10
641.4964490144
 20
168.3391302438
 30
0.0
 10
634.4455322396
 20
167.4978956789
 30
0.0
 10
625.7491560917
 20
166.9123392221
 30
0.0
 10
619.8550768111
 20
166.8060644596
 30
0.0
 10
616.8921094968
 20
166.8262415146
 30
0.0
  0
SPLINE
  5
408
100
AcDbEntity
  8
6_ALL_SURFS
100
AcDbSpline
 62
7
  6
CONTINUOUS
 70
0
 71
3
 72
11
 73
7
 74
0
 42
0.0000001
 43
0.0000001
 44
0.0000000001
 40
0.0
 40
0.0
 40
0.0
 40
0.0
 40
0.2357965535
 40
0.4790034658
 40
0.7334123855
 40
1.0
 40
1.0
 40
1.0
 40
1.0
 10
594.1234176961
 20
193.6636645248
 30
0.0
 10
593.6215725751
 20
193.139909418
 30
0.0
 10
592.7212943197
 20
191.9551334456
 30
0.0
 10
591.7703320322
 20
189.8918603695
 30
0.0
 10
591.2244065177
 20
187.5911005663
 30
0.0
 10
591.1391072531
 20
185.9814310708
 30
0.0
 10
591.1617249371
 20
185.1616469973
 30
0.0
  0
LINE
  5
409
100
AcDbEntity
  8
6_ALL_SURFS
100
AcDbLine
 62
7
  6
CONTINUOUS
 10
592.0031272593
 20
184.9989416012
 11
592.3435262755
 21
172.6443951314
  0
SPLINE
  5
40A
100
AcDbEntity
  8
6_ALL_SURFS
100
AcDbSpline
 62
7
  6
CONTINUOUS
 70
0
 71
3
 72
9
 73
5
 74
0
 42
0.0000001
 43
0.0000001
 44
0.0000000001
 40
0.0
 40
0.0
 40
0.0
 40
0.0
 40
0.5064181166
 40
1.0
 40
1.0
 40
1.0
 40
1.0
 10
599.5938762697
 20
195.9509803512
 30
0.0
 10
598.9882019798
 20
195.7730080537
 30
0.0
 10
597.8213699323
 20
195.3100182967
 30
0.0
 10
596.7698611756
 20
194.6222372135
 30
0.0
 10
596.292652764
 20
194.2338543808
 30
0.0
  0
SPLINE
  5
40B
100
AcDbEntity
  8
6_ALL_SURFS
100
AcDbSpline
 62
7
  6
CONTINUOUS
 70
0
 71
3
 72
9
 73
5
 74
0
 42
0.0000001
 43
0.0000001
 44
0.0000000001
 40
0.0
 40
0.0
 40
0.0
 40
0.0
 40
0.2470584328
 40
1.0
 40
1.0
 40
1.0
 40
1.0
 10
592.3297990749
 20
173.3721813479
 30
0.0
 10
592.2606810302
 20
173.3795378338
 30
0.0
 10
591.9799252356
 20
173.3983842034
 30
0.0
 10
591.6963759323
 20
173.3830623929
 30
0.0
 10
591.4874599408
 20
173.3480130452
 30
0.0
  0
SPLINE
  5
40C
100
AcDbEntity
  8
6_ALL_SURFS
100
AcDbSpline
 62
7
  6
CONTINUOUS
 70
0
 71
3
 72
10
 73
6
 74
0
 42
0.0000001
 43
0.0000001
 44
0.0000000001
 40
0.0
 40
0.0
 40
0.0
 40
0.0
 40
0.5238329302
 40
0.7699115746
 40
1.0
 40
1.0
 40
1.0
 40
1.0
 10
616.8125807483
 20
169.4961266203
 30
0.0
 10
612.3733689336
 20
169.5333764493
 30
0.0
 10
605.8451583907
 20
169.8394479689
 30
0.0
 10
597.4241970357
 20
170.8122147136
 30
0.0
 10
593.441404371
 20
171.4773091542
 30
0.0
 10
591.5288112756
 20
171.8571599715
 30
0.0
  0
SPLINE
  5
40D
100
AcDbEntity
  8
3_ALL_AXES
100
AcDbSpline
 62
7
  6
CONTINUOUS
 70
0
 71
3
 72
18
 73
14
 74
0
 42
0.0000001
 43
0.0000001
 44
0.0000000001
 40
0.0
 40
0.0
 40
0.0
 40
0.0
 40
0.0313640845
 40
0.0643530556
 40
0.1003078797
 40
0.1402244046
 40
0.1847613908
 40
0.2343209421
 40
0.3490957606
 40
0.4847527823
 40
0.6400013745
 40
0.8126591141
 40
1.0
 40
1.0
 40
1.0
 40
1.0
 10
567.1367471312
 20
224.3118656595
 30
0.0
 10
567.1466871416
 20
223.937297125
 30
0.0
 10
567.262344255
 20
223.1684396263
 30
0.0
 10
567.7120730072
 20
222.0481054845
 30
0.0
 10
568.4289487952
 20
220.9544770312
 30
0.0
 10
569.4051010474
 20
219.8911380883
 30
0.0
 10
570.6339525405
 20
218.8592765933
 30
0.0
 10
572.705330678
 20
217.4614484435
 30
0.0
 10
575.9246285126
 20
215.8552355673
 30
0.0
 10
580.4851030239
 20
214.1961736135
 30
0.0
 10
585.837821566
 20
212.7533276712
 30
0.0
 10
591.8794562226
 20
211.556017884
 30
0.0
 10
596.1410559041
 20
210.9592583708
 30
0.0
 10
598.364322748
 20
210.7018037972
 30
0.0
  0
SPLINE
  5
40E
100
AcDbEntity
  8
3_ALL_AXES
100
AcDbSpline
 62
7
  6
CONTINUOUS
 70
0
 71
3
 72
9
 73
5
 74
0
 42
0.0000001
 43
0.0000001
 44
0.0000000001
 40
0.0
 40
0.0
 40
0.0
 40
0.0
 40
0.4824924628
 40
1.0
 40
1.0
 40
1.0
 40
1.0
 10
674.4129156573
 20
212.1289293365
 30
0.0
 10
674.4140746341
 20
211.6876267421
 30
0.0
 10
674.2818593312
 20
210.7688425874
 30
0.0
 10
673.9140040562
 20
209.9208208936
 30
0.0
 10
673.6824631957
 20
209.5079889485
 30
0.0
  0
SPLINE
  5
40F
100
AcDbEntity
  8
3_ALL_AXES
100
AcDbSpline
 62
7
  6
CONTINUOUS
 70
0
 71
3
 72
16
 73
12
 74
0
 42
0.0000001
 43
0.0000001
 44
0.0000000001
 40
0.0
 40
0.0
 40
0.0
 40
0.0
 40
0.0400279172
 40
0.0845618591
 40
0.1864657392
 40
0.3037101285
 40
0.4333359058
 40
0.5717921663
 40
0.7151476609
 40
0.8592647539
 40
1.0
 40
1.0
 40
1.0
 40
1.0
 10
668.7869108786
 20
204.9757944045
 30
0.0
 10
668.0353000623
 20
204.5177250208
 30
0.0
 10
666.3986940921
 20
203.6292298093
 30
0.0
 10
662.6550129951
 20
201.9500551803
 30
0.0
 10
657.1511705762
 20
200.0866529952
 30
0.0
 10
649.6942497512
 20
198.2666817139
 30
0.0
 10
641.3367047057
 20
196.8351408791
 30
0.0
 10
632.3397244951
 20
195.83895808
 30
0.0
 10
622.9841691241
 20
195.3114225441
 30
0.0
 10
613.5641876382
 20
195.2695793219
 30
0.0
 10
607.3039683957
 20
195.5727612552
 30
0.0
 10
604.2185838993
 20
195.8128017102
 30
0.0
  0
LINE
  5
410
100
AcDbEntity
  8
6_ALL_SURFS
100
AcDbLine
 62
7
  6
CONTINUOUS
 10
616.7180804493
 20
170.447043253
 11
616.3989495078
 21
182.0296519897
  0
SPLINE
  5
411
100
AcDbEntity
  8
6_ALL_SURFS
100
AcDbSpline
 62
7
  6
CONTINUOUS
 70
0
 71
3
 72
9
 73
5
 74
0
 42
0.0000001
 43
0.0000001
 44
0.0000000001
 40
0.0
 40
0.0
 40
0.0
 40
0.0
 40
0.515022174
 40
1.0
 40
1.0
 40
1.0
 40
1.0
 10
602.3302015073
 20
195.8279966566
 30
0.0
 10
601.2476770618
 20
195.8475066596
 30
0.0
 10
599.1268716502
 20
195.6164137699
 30
0.0
 10
597.1642362599
 20
194.7542647985
 30
0.0
 10
596.313316579
 20
194.1926625168
 30
0.0
  0
SPLINE
  5
412
100
AcDbEntity
  8
3_ALL_AXES
100
AcDbSpline
 62
7
  6
CONTINUOUS
 70
0
 71
3
 72
21
 73
17
 74
0
 42
0.0000001
 43
0.0000001
 44
0.0000000001
 40
0.0
 40
0.0
 40
0.0
 40
0.0
 40
0.1660873124
 40
0.3341007394
 40
0.4958368378
 40
0.5719042078
 40
0.6435552028
 40
0.709986867
 40
0.7705081628
 40
0.8245741662
 40
0.8718366881
 40
0.9122300565
 40
0.9461276796
 40
0.9746215883
 40
0.9875274187
 40
1.0
 40
1.0
 40
1.0
 40
1.0
 10
605.8163764577
 20
210.0301892335
 30
0.0
 10
609.8832462815
 20
209.7624696224
 30
0.0
 10
618.0865667038
 20
209.5277936766
 30
0.0
 10
630.2531000485
 20
209.9973097541
 30
0.0
 10
640.1645010994
 20
211.064482151
 30
0.0
 10
647.6541602849
 20
212.3295934895
 30
0.0
 10
652.7941919776
 20
213.4326540906
 30
0.0
 10
657.5042838865
 20
214.6936911896
 30
0.0
 10
661.7226624242
 20
216.0954962901
 30
0.0
 10
665.3951369639
 20
217.6192240207
 30
0.0
 10
668.4766682506
 20
219.2447674687
 30
0.0
 10
670.9327197016
 20
220.9558633049
 30
0.0
 10
672.7392362831
 20
222.7381668384
 30
0.0
 10
673.7091868009
 20
224.347998153
 30
0.0
 10
674.0681123095
 20
225.6276406426
 30
0.0
 10
674.118812281
 20
226.2531058809
 30
0.0
 10
674.1129912173
 20
226.5591193721
 30
0.0
  0
SPLINE
  5
413
100
AcDbEntity
  8
3_ALL_AXES
100
AcDbSpline
 62
7
  6
CONTINUOUS
 70
0
 71
3
 72
18
 73
14
 74
0
 42
0.0000001
 43
0.0000001
 44
0.0000000001
 40
0.0
 40
0.0
 40
0.0
 40
0.0
 40
0.1866717103
 40
0.3595373998
 40
0.5154857376
 40
0.6520015051
 40
0.7674641785
 40
0.817201442
 40
0.8617553317
 40
0.9014929801
 40
0.9370509829
 40
0.9694250421
 40
1.0
 40
1.0
 40
1.0
 40
1.0
 10
601.3987706099
 20
196.0582438105
 30
0.0
 10
599.0122711905
 20
196.2884593362
 30
0.0
 10
594.4252397354
 20
196.8422433048
 30
0.0
 10
587.9031871022
 20
198.0030646814
 30
0.0
 10
582.0959794371
 20
199.4406977015
 30
0.0
 10
577.1271862799
 20
201.1227939164
 30
0.0
 10
573.6039976793
 20
202.7705437016
 30
0.0
 10
571.326414329
 20
204.2163703036
 30
0.0
 10
569.9728496131
 20
205.2860506982
 30
0.0
 10
568.8937970047
 20
206.3912120571
 30
0.0
 10
568.0964157557
 20
207.530489701
 30
0.0
 10
567.5899209464
 20
208.7006392102
 30
0.0
 10
567.4530895122
 20
209.507539254
 30
0.0
 10
567.4377138327
 20
209.8999373559
 30
0.0
  0
LINE
  5
414
100
AcDbEntity
  8
6_ALL_SURFS
100
AcDbLine
 62
7
  6
CONTINUOUS
 10
590.6425896173
 20
169.1926204605
 11
590.2234583816
 21
184.3980707679
  0
SPLINE
  5
415
100
AcDbEntity
  8
3_ALL_AXES
100
AcDbSpline
 62
7
  6
CONTINUOUS
 70
0
 71
3
 72
10
 73
6
 74
0
 42
0.0000001
 43
0.0000001
 44
0.0000000001
 40
0.0
 40
0.0
 40
0.0
 40
0.0
 40
0.1638346013
 40
0.392321448
 40
1.0
 40
1.0
 40
1.0
 40
1.0
 10
601.0996926583
 20
210.4117830706
 30
0.0
 10
601.1362910778
 20
210.3740694933
 30
0.0
 10
601.2482617887
 20
210.3096459146
 30
0.0
 10
601.5534606901
 20
210.2113276787
 30
0.0
 10
601.8233869214
 20
210.1817184271
 30
0.0
 10
602.0180889232
 20
210.1724577497
 30
0.0
  0
SPLINE
  5
416
100
AcDbEntity
  8
3_ALL_AXES
100
AcDbSpline
 62
7
  6
CONTINUOUS
 70
0
 71
3
 72
9
 73
5
 74
0
 42
0.0000001
 43
0.0000001
 44
0.0000000001
 40
0.0
 40
0.0
 40
0.0
 40
0.0
 40
0.2594210593
 40
1.0
 40
1.0
 40
1.0
 40
1.0
 10
602.0848938895
 20
210.1698491039
 30
0.0
 10
602.1621506542
 20
210.1674850742
 30
0.0
 10
602.4600323226
 20
210.1671824109
 30
0.0
 10
602.7589218953
 20
210.1963434489
 30
0.0
 10
602.9746396437
 20
210.2427407682
 30
0.0
  0
SPLINE
  5
417
100
AcDbEntity
  8
3_ALL_AXES
100
AcDbSpline
 62
7
  6
CONTINUOUS
 70
0
 71
3
 72
11
 73
7
 74
0
 42
0.0000001
 43
0.0000001
 44
0.0000000001
 40
0.0
 40
0.0
 40
0.0
 40
0.0
 40
0.2365597525
 40
0.4789007026
 40
0.7326997679
 40
1.0
 40
1.0
 40
1.0
 40
1.0
 10
594.0738700104
 20
193.717452086
 30
0.0
 10
593.4361719015
 20
193.1984672444
 30
0.0
 10
592.2763631684
 20
191.9745489943
 30
0.0
 10
591.0337885823
 20
189.723813097
 30
0.0
 10
590.3147819697
 20
187.1478671461
 30
0.0
 10
590.1978608476
 20
185.3267553744
 30
0.0
 10
590.2234583817
 20
184.3980707679
 30
0.0
  0
ENDSEC
  0
SECTION
  2
OBJECTS
  0
DICTIONARY
  5
418
100
AcDbDictionary
  3
ACAD_GROUP
350
419
  3
ACAD_MLINESTYLE
350
41A
  0
DICTIONARY
  5
419
102
{ACAD_REACTORS
330
418
102
}
100
AcDbDictionary
  0
DICTIONARY
  5
41A
102
{ACAD_REACTORS
330
418
102
}
100
AcDbDictionary
  3
STANDARD
350
41B
  0
MLINESTYLE
  5
41B
102
{ACAD_REACTORS
330
41A
102
}
100
AcDbMlineStyle
  2
STANDARD
 70
0
  3

 62
256
 51
90.0
 52
90.0
 71
2
 49
0.5
 62
256
  6
BYLAYER
 49
-0.5
 62
256
  6
BYLAYER
  0
ENDSEC
  0
EOF
